  0
SECTION
  2
HEADER
  9
$ACADVER
  1
AC1015
  9
$ACADMAINTVER
 70
    20
  9
$DWGCODEPAGE
  3
ANSI_932
  9
$INSBASE
 10
0.4999999440410648
 20
372.5008351249344
 30
0.0
  9
$EXTMIN
 10
-59.13299469641993
 20
-155.8824000026593
 30
-0.0015258207003583
  9
$EXTMAX
 10
65.90057429613148
 20
77.1231998984274
 30
0.0000000349246037
  9
$LIMMIN
 10
0.0
 20
0.0
  9
$LIMMAX
 10
420.0
 20
297.0
  9
$ORTHOMODE
 70
     1
  9
$REGENMODE
 70
     0
  9
$FILLMODE
 70
     1
  9
$QTEXTMODE
 70
     0
  9
$MIRRTEXT
 70
     0
  9
$LTSCALE
 40
1.0
  9
$ATTMODE
 70
     1
  9
$TEXTSIZE
 40
2.5
  9
$TRACEWID
 40
1.0
  9
$TEXTSTYLE
  7
Standard
  9
$CLAYER
  8
GAIKEI
  9
$CELTYPE
  6
ByLayer
  9
$CECOLOR
 62
   256
  9
$CELTSCALE
 40
1.0
  9
$DISPSILH
 70
     0
  9
$DIMSCALE
 40
1.0
  9
$DIMASZ
 40
2.0
  9
$DIMEXO
 40
2.0
  9
$DIMDLI
 40
8.0
  9
$DIMRND
 40
0.0
  9
$DIMDLE
 40
0.0
  9
$DIMEXE
 40
2.0
  9
$DIMTP
 40
0.0
  9
$DIMTM
 40
0.0
  9
$DIMTXT
 40
2.5
  9
$DIMCEN
 40
0.0
  9
$DIMTSZ
 40
0.0
  9
$DIMTOL
 70
     0
  9
$DIMLIM
 70
     0
  9
$DIMTIH
 70
     0
  9
$DIMTOH
 70
     0
  9
$DIMSE1
 70
     0
  9
$DIMSE2
 70
     0
  9
$DIMTAD
 70
     3
  9
$DIMZIN
 70
     0
  9
$DIMBLK
  1

  9
$DIMASO
 70
     1
  9
$DIMSHO
 70
     1
  9
$DIMPOST
  1

  9
$DIMAPOST
  1

  9
$DIMALT
 70
     0
  9
$DIMALTD
 70
     2
  9
$DIMALTF
 40
25.4
  9
$DIMLFAC
 40
1.0
  9
$DIMTOFL
 70
     1
  9
$DIMTVP
 40
0.0
  9
$DIMTIX
 70
     0
  9
$DIMSOXD
 70
     0
  9
$DIMSAH
 70
     1
  9
$DIMBLK1
  1
OPEN30
  9
$DIMBLK2
  1
OPEN30
  9
$DIMSTYLE
  2
STANDARD
  9
$DIMCLRD
 70
     0
  9
$DIMCLRE
 70
     0
  9
$DIMCLRT
 70
     0
  9
$DIMTFAC
 40
1.0
  9
$DIMGAP
 40
0.5
  9
$DIMJUST
 70
     0
  9
$DIMSD1
 70
     0
  9
$DIMSD2
 70
     0
  9
$DIMTOLJ
 70
     1
  9
$DIMTZIN
 70
     0
  9
$DIMALTZ
 70
     0
  9
$DIMALTTZ
 70
     0
  9
$DIMUPT
 70
     0
  9
$DIMDEC
 70
     4
  9
$DIMTDEC
 70
     4
  9
$DIMALTU
 70
     2
  9
$DIMALTTD
 70
     2
  9
$DIMTXSTY
  7
Standard
  9
$DIMAUNIT
 70
     0
  9
$DIMADEC
 70
     0
  9
$DIMALTRND
 40
0.0
  9
$DIMAZIN
 70
     0
  9
$DIMDSEP
 70
    46
  9
$DIMATFIT
 70
     3
  9
$DIMFRAC
 70
     0
  9
$DIMLDRBLK
  1
OPEN30
  9
$DIMLUNIT
 70
     2
  9
$DIMLWD
 70
    -2
  9
$DIMLWE
 70
    -2
  9
$DIMTMOVE
 70
     0
  9
$LUNITS
 70
     2
  9
$LUPREC
 70
     4
  9
$SKETCHINC
 40
1.0
  9
$FILLETRAD
 40
0.0
  9
$AUNITS
 70
     0
  9
$AUPREC
 70
     0
  9
$MENU
  1
.
  9
$ELEVATION
 40
0.0
  9
$PELEVATION
 40
0.0
  9
$THICKNESS
 40
0.0
  9
$LIMCHECK
 70
     0
  9
$CHAMFERA
 40
0.0
  9
$CHAMFERB
 40
0.0
  9
$CHAMFERC
 40
0.0
  9
$CHAMFERD
 40
0.0
  9
$SKPOLY
 70
     0
  9
$TDCREATE
 40
2454349.434269746
  9
$TDUCREATE
 40
2454349.059269746
  9
$TDUPDATE
 40
2454838.561847581
  9
$TDUUPDATE
 40
2454838.186847581
  9
$TDINDWG
 40
0.0860656944
  9
$TDUSRTIMER
 40
0.0860656944
  9
$USRTIMER
 70
     1
  9
$ANGBASE
 50
0.0
  9
$ANGDIR
 70
     0
  9
$PDMODE
 70
     0
  9
$PDSIZE
 40
0.0
  9
$PLINEWID
 40
0.0
  9
$SPLFRAME
 70
     0
  9
$SPLINETYPE
 70
     6
  9
$SPLINESEGS
 70
     8
  9
$HANDSEED
  5
4A1
  9
$SURFTAB1
 70
     6
  9
$SURFTAB2
 70
     6
  9
$SURFTYPE
 70
     6
  9
$SURFU
 70
     6
  9
$SURFV
 70
     6
  9
$UCSBASE
  2

  9
$UCSNAME
  2

  9
$UCSORG
 10
0.0
 20
0.0
 30
0.0
  9
$UCSXDIR
 10
1.0
 20
0.0
 30
0.0
  9
$UCSYDIR
 10
0.0
 20
1.0
 30
0.0
  9
$UCSORTHOREF
  2

  9
$UCSORTHOVIEW
 70
     0
  9
$UCSORGTOP
 10
0.0
 20
0.0
 30
0.0
  9
$UCSORGBOTTOM
 10
0.0
 20
0.0
 30
0.0
  9
$UCSORGLEFT
 10
0.0
 20
0.0
 30
0.0
  9
$UCSORGRIGHT
 10
0.0
 20
0.0
 30
0.0
  9
$UCSORGFRONT
 10
0.0
 20
0.0
 30
0.0
  9
$UCSORGBACK
 10
0.0
 20
0.0
 30
0.0
  9
$PUCSBASE
  2

  9
$PUCSNAME
  2

  9
$PUCSORG
 10
0.0
 20
0.0
 30
0.0
  9
$PUCSXDIR
 10
1.0
 20
0.0
 30
0.0
  9
$PUCSYDIR
 10
0.0
 20
1.0
 30
0.0
  9
$PUCSORTHOREF
  2

  9
$PUCSORTHOVIEW
 70
     0
  9
$PUCSORGTOP
 10
0.0
 20
0.0
 30
0.0
  9
$PUCSORGBOTTOM
 10
0.0
 20
0.0
 30
0.0
  9
$PUCSORGLEFT
 10
0.0
 20
0.0
 30
0.0
  9
$PUCSORGRIGHT
 10
0.0
 20
0.0
 30
0.0
  9
$PUCSORGFRONT
 10
0.0
 20
0.0
 30
0.0
  9
$PUCSORGBACK
 10
0.0
 20
0.0
 30
0.0
  9
$USERI1
 70
     0
  9
$USERI2
 70
     0
  9
$USERI3
 70
     0
  9
$USERI4
 70
     0
  9
$USERI5
 70
     0
  9
$USERR1
 40
0.0
  9
$USERR2
 40
0.0
  9
$USERR3
 40
0.0
  9
$USERR4
 40
0.0
  9
$USERR5
 40
0.0
  9
$WORLDVIEW
 70
     1
  9
$SHADEDGE
 70
     3
  9
$SHADEDIF
 70
    70
  9
$TILEMODE
 70
     1
  9
$MAXACTVP
 70
    64
  9
$PINSBASE
 10
0.0
 20
0.0
 30
0.0
  9
$PLIMCHECK
 70
     0
  9
$PEXTMIN
 10
0.0
 20
0.0
 30
0.0
  9
$PEXTMAX
 10
0.0
 20
0.0
 30
0.0
  9
$PLIMMIN
 10
0.0
 20
0.0
  9
$PLIMMAX
 10
12.0
 20
9.0
  9
$UNITMODE
 70
     0
  9
$VISRETAIN
 70
     1
  9
$PLINEGEN
 70
     0
  9
$PSLTSCALE
 70
     1
  9
$TREEDEPTH
 70
  3020
  9
$CMLSTYLE
  2
Standard
  9
$CMLJUST
 70
     0
  9
$CMLSCALE
 40
20.0
  9
$PROXYGRAPHICS
 70
     1
  9
$MEASUREMENT
 70
     1
  9
$CELWEIGHT
370
    -1
  9
$ENDCAPS
280
     0
  9
$JOINSTYLE
280
     0
  9
$LWDISPLAY
290
     0
  9
$INSUNITS
 70
     4
  9
$HYPERLINKBASE
  1

  9
$STYLESHEET
  1

  9
$XEDIT
290
     1
  9
$CEPSNTYPE
380
     0
  9
$PSTYLEMODE
290
     1
  9
$FINGERPRINTGUID
  2
{FDEAD578-A652-11D2-9A35-0060089B3A3F}
  9
$VERSIONGUID
  2
{E5F99101-F1FA-40B0-AB09-D60283B23AA1}
  9
$EXTNAMES
290
     1
  9
$PSVPSCALE
 40
0.0
  9
$OLESTARTUP
290
     0
  0
ENDSEC
  0
SECTION
  2
CLASSES
  0
CLASS
  1
ACDBDICTIONARYWDFLT
  2
AcDbDictionaryWithDefault
  3
ObjectDBX Classes
 90
        0
280
     0
281
     0
  0
CLASS
  1
ACDBPLACEHOLDER
  2
AcDbPlaceHolder
  3
ObjectDBX Classes
 90
        0
280
     0
281
     0
  0
CLASS
  1
LAYOUT
  2
AcDbLayout
  3
ObjectDBX Classes
 90
        0
280
     0
281
     0
  0
CLASS
  1
DICTIONARYVAR
  2
AcDbDictionaryVar
  3
ObjectDBX Classes
 90
        0
280
     0
281
     0
  0
CLASS
  1
SORTENTSTABLE
  2
AcDbSortentsTable
  3
ObjectDBX Classes
 90
    32768
280
     0
281
     0
  0
ENDSEC
  0
SECTION
  2
TABLES
  0
TABLE
  2
VPORT
  5
1B
330
0
100
AcDbSymbolTable
 70
     3
  0
VPORT
  5
499
330
1B
100
AcDbSymbolTableRecord
100
AcDbViewportTableRecord
  2
*Active
 70
     0
 10
0.0
 20
0.0
 11
1.0
 21
1.0
 12
3.383789799855776
 22
-39.37960005211596
 13
0.0
 23
0.0
 14
10.0
 24
10.0
 15
10.0
 25
10.0
 16
0.0
 26
0.0
 36
1.0
 17
0.0
 27
0.0
 37
0.0
 40
234.8071895910436
 41
1.411612903225806
 42
50.0
 43
0.0
 44
0.0
 50
0.0
 51
0.0
 71
     0
 72
  1000
 73
     1
 74
     2
 75
     0
 76
     0
 77
     0
 78
     0
281
     0
 65
     1
110
0.0
120
0.0
130
0.0
111
1.0
121
0.0
131
0.0
112
0.0
122
1.0
132
0.0
 79
     0
146
0.0
  0
ENDTAB
  0
TABLE
  2
LTYPE
  5
16
330
0
100
AcDbSymbolTable
 70
     2
  0
LTYPE
  5
17
330
16
100
AcDbSymbolTableRecord
100
AcDbLinetypeTableRecord
  2
ByBlock
 70
     0
  3

 72
    65
 73
     0
 40
0.0
  0
LTYPE
  5
18
330
16
100
AcDbSymbolTableRecord
100
AcDbLinetypeTableRecord
  2
ByLayer
 70
     0
  3

 72
    65
 73
     0
 40
0.0
  0
LTYPE
  5
8
330
16
100
AcDbSymbolTableRecord
100
AcDbLinetypeTableRecord
  2
Continuous
 70
     0
  3
Solid line
 72
    65
 73
     0
 40
0.0
  0
LTYPE
  5
88
330
16
100
AcDbSymbolTableRecord
100
AcDbLinetypeTableRecord
  2
PHANTOM
 70
     0
  3
Phantom
 72
    65
 73
     6
 40
13.0
 49
10.0
 74
     0
 49
-1.0
 74
     0
 49
0.0
 74
     0
 49
-1.0
 74
     0
 49
0.0
 74
     0
 49
-1.0
 74
     0
  0
ENDTAB
  0
TABLE
  2
LAYER
  5
10
102
{ACAD_XDICTIONARY
360
11
102
}
330
0
100
AcDbSymbolTable
 70
     7
  0
LAYER
  5
4
330
10
100
AcDbSymbolTableRecord
100
AcDbLayerTableRecord
  2
0
 70
     0
 62
     7
  6
Continuous
370
    -3
390
5
  0
LAYER
  5
440
330
10
100
AcDbSymbolTableRecord
100
AcDbLayerTableRecord
  2
WAKU
 70
     0
 62
     4
  6
Continuous
370
    -3
390
5
  0
LAYER
  5
30
330
10
100
AcDbSymbolTableRecord
100
AcDbLayerTableRecord
  2
MOJI1
 70
     0
 62
     2
  6
Continuous
370
    -3
390
5
  0
LAYER
  5
33
330
10
100
AcDbSymbolTableRecord
100
AcDbLayerTableRecord
  2
TOUROKU
 70
     0
 62
     1
  6
Continuous
370
    -3
390
5
  0
LAYER
  5
2D
330
10
100
AcDbSymbolTableRecord
100
AcDbLayerTableRecord
  2
GAIKEI
 70
     0
 62
     7
  6
Continuous
370
    -3
390
5
  0
LAYER
  5
3F
330
10
100
AcDbSymbolTableRecord
100
AcDbLayerTableRecord
  2
Defpoints
 70
     0
 62
     7
  6
Continuous
290
     0
370
    -3
390
5
  0
LAYER
  5
35
330
10
100
AcDbSymbolTableRecord
100
AcDbLayerTableRecord
  2
SUNPO
 70
     0
 62
     3
  6
Continuous
370
    -3
390
5
  0
ENDTAB
  0
TABLE
  2
STYLE
  5
13
330
0
100
AcDbSymbolTable
 70
     2
  0
STYLE
  5
14
330
13
100
AcDbSymbolTableRecord
100
AcDbTextStyleTableRecord
  2
Standard
 70
     0
 40
0.0
 41
1.0
 50
0.0
 71
     0
 42
2.5
  3
MONOTXT.shx
  4
BIGFONT.shx
  0
STYLE
  5
31
330
13
100
AcDbSymbolTableRecord
100
AcDbTextStyleTableRecord
  2
KANJI
 70
     0
 40
0.0
 41
1.0
 50
0.0
 71
     0
 42
3.5
  3
MONOTXT
  4
BIGFONT
  0
ENDTAB
  0
TABLE
  2
VIEW
  5
19
330
0
100
AcDbSymbolTable
 70
     0
  0
ENDTAB
  0
TABLE
  2
UCS
  5
1A
330
0
100
AcDbSymbolTable
 70
     0
  0
ENDTAB
  0
TABLE
  2
APPID
  5
1D
330
0
100
AcDbSymbolTable
 70
     1
  0
APPID
  5
1E
330
1D
100
AcDbSymbolTableRecord
100
AcDbRegAppTableRecord
  2
ACAD
 70
     0
  0
ENDTAB
  0
TABLE
  2
DIMSTYLE
  5
1F
330
0
100
AcDbSymbolTable
 70
     1
100
AcDbDimStyleTable
 71
     1
340
20
  0
DIMSTYLE
105
20
102
{ACAD_REACTORS
330
50
330
43
330
34
102
}
330
1F
100
AcDbSymbolTableRecord
100
AcDbDimStyleTableRecord
  2
STANDARD
 70
     0
 40
0.0
 41
2.0
 42
2.0
 43
8.0
 44
2.0
 73
     0
 74
     0
 77
     3
140
3.0
141
0.0
173
     1
279
     2
288
     1
340
14
341
21
343
21
344
21
  0
ENDTAB
  0
TABLE
  2
BLOCK_RECORD
  5
1
330
0
100
AcDbSymbolTable
 70
     7
  0
BLOCK_RECORD
  5
2
330
1
100
AcDbSymbolTableRecord
100
AcDbBlockTableRecord
  2
*Model_Space
340
A
  0
BLOCK_RECORD
  5
C
330
1
100
AcDbSymbolTableRecord
100
AcDbBlockTableRecord
  2
*Paper_Space
340
F
  0
BLOCK_RECORD
  5
21
330
1
100
AcDbSymbolTableRecord
100
AcDbBlockTableRecord
  2
_OPEN30
340
0
102
{BLKREFS
331
3B
331
3C
331
49
331
4A
331
56
331
57
331
475
331
476
331
481
331
482
331
48D
331
48E
102
}
  0
BLOCK_RECORD
  5
51
330
1
100
AcDbSymbolTableRecord
100
AcDbBlockTableRecord
  2
*D1
340
0
  0
BLOCK_RECORD
  5
44
330
1
100
AcDbSymbolTableRecord
100
AcDbBlockTableRecord
  2
*D2
340
0
  0
BLOCK_RECORD
  5
36
330
1
100
AcDbSymbolTableRecord
100
AcDbBlockTableRecord
  2
*D3
340
0
  0
BLOCK_RECORD
  5
471
330
1
100
AcDbSymbolTableRecord
100
AcDbBlockTableRecord
  2
*D4
340
0
  0
BLOCK_RECORD
  5
47D
330
1
100
AcDbSymbolTableRecord
100
AcDbBlockTableRecord
  2
*D5
340
0
  0
BLOCK_RECORD
  5
489
330
1
100
AcDbSymbolTableRecord
100
AcDbBlockTableRecord
  2
*D6
340
0
  0
ENDTAB
  0
ENDSEC
  0
SECTION
  2
BLOCKS
  0
BLOCK
  5
3
330
2
100
AcDbEntity
  8
0
100
AcDbBlockBegin
  2
*Model_Space
 70
     0
 10
0.0
 20
0.0
 30
0.0
  3
*Model_Space
  1

  0
ENDBLK
  5
9
330
2
100
AcDbEntity
  8
0
100
AcDbBlockEnd
  0
BLOCK
  5
D
330
C
100
AcDbEntity
 67
     1
  8
0
100
AcDbBlockBegin
  2
*Paper_Space
 70
     0
 10
0.0
 20
0.0
 30
0.0
  3
*Paper_Space
  1

  0
ENDBLK
  5
E
330
C
100
AcDbEntity
 67
     1
  8
0
100
AcDbBlockEnd
  0
BLOCK
  5
22
330
21
100
AcDbEntity
  8
0
100
AcDbBlockBegin
  2
_OPEN30
 70
     0
 10
0.0
 20
0.0
 30
0.0
  3
_OPEN30
  1

  0
LINE
  5
23
330
21
100
AcDbEntity
  8
0
  6
ByBlock
 62
     0
100
AcDbLine
 10
-1.0
 20
0.26794919
 30
0.0
 11
0.0
 21
0.0
 31
0.0
  0
LINE
  5
24
330
21
100
AcDbEntity
  8
0
  6
ByBlock
 62
     0
100
AcDbLine
 10
0.0
 20
0.0
 30
0.0
 11
-1.0
 21
-0.26794919
 31
0.0
  0
LINE
  5
25
330
21
100
AcDbEntity
  8
0
  6
ByBlock
 62
     0
100
AcDbLine
 10
0.0
 20
0.0
 30
0.0
 11
-1.0
 21
0.0
 31
0.0
  0
ENDBLK
  5
26
330
21
100
AcDbEntity
  8
0
100
AcDbBlockEnd
  0
BLOCK
  5
52
330
51
100
AcDbEntity
  8
0
100
AcDbBlockBegin
  2
*D1
 70
     1
 10
0.0
 20
0.0
 30
0.0
  3
*D1
  1

  0
LINE
  5
53
330
51
100
AcDbEntity
  8
SUNPO
 62
     0
370
    -2
100
AcDbLine
 10
11.10704115576072
 20
333.5008351249344
 30
0.0
 11
11.10704115576072
 21
341.5008351249344
 31
0.0
  0
LINE
  5
54
330
51
100
AcDbEntity
  8
SUNPO
 62
     0
370
    -2
100
AcDbLine
 10
64.10704115576073
 20
333.5008351249344
 30
0.0
 11
64.10704115576073
 21
341.5008351249344
 31
0.0
  0
LINE
  5
55
330
51
100
AcDbEntity
  8
SUNPO
 62
     0
370
    -2
100
AcDbLine
 10
13.10704115576072
 20
339.5008351249344
 30
0.0
 11
62.10704115576072
 21
339.5008351249344
 31
0.0
  0
INSERT
  5
56
330
51
100
AcDbEntity
  8
SUNPO
 62
     0
370
    -2
100
AcDbBlockReference
  2
_OPEN30
 10
11.10704115576072
 20
339.5008351249344
 30
0.0
 41
2.0
 42
2.0
 43
2.0
 50
180.0
  0
INSERT
  5
57
330
51
100
AcDbEntity
  8
SUNPO
 62
     0
370
    -2
100
AcDbBlockReference
  2
_OPEN30
 10
64.10704115576073
 20
339.5008351249344
 30
0.0
 41
2.0
 42
2.0
 43
2.0
  0
MTEXT
  5
58
330
51
100
AcDbEntity
  8
SUNPO
 62
     0
100
AcDbMText
 10
37.60704115576073
 20
341.2508351249344
 30
0.0
 40
2.5
 41
0.0
 71
     5
 72
     1
  1
\A1;約530
 73
     1
 44
1.0
1001
ACAD
1000
MTEXTBEGIN
1070
    73
1070
     1
1070
    44
1040
1.0
1070
    74
1070
     0
1000
MTEXTEND
  0
POINT
  5
59
330
51
100
AcDbEntity
  8
Defpoints
 62
     0
100
AcDbPoint
 10
11.10704115576072
 20
331.5008351249344
 30
0.0
  0
POINT
  5
5A
330
51
100
AcDbEntity
  8
Defpoints
 62
     0
100
AcDbPoint
 10
64.10704115576073
 20
331.5008351249344
 30
0.0
  0
POINT
  5
5B
330
51
100
AcDbEntity
  8
Defpoints
 62
     0
100
AcDbPoint
 10
64.10704115576073
 20
339.5008351249344
 30
0.0
  0
ENDBLK
  5
5C
330
51
100
AcDbEntity
  8
0
100
AcDbBlockEnd
  0
BLOCK
  5
45
330
44
100
AcDbEntity
  8
0
100
AcDbBlockBegin
  2
*D2
 70
     1
 10
0.0
 20
0.0
 30
0.0
  3
*D2
  1

  0
LINE
  5
46
330
44
100
AcDbEntity
  8
SUNPO
 62
     0
370
    -2
100
AcDbLine
 10
66.04024723819816
 20
287.062761664547
 30
0.0
 11
74.04024723819823
 21
287.062761664547
 31
0.0
  0
LINE
  5
47
330
44
100
AcDbEntity
  8
SUNPO
 62
     0
370
    -2
100
AcDbLine
 10
66.04024723819816
 20
331.4876166273377
 30
0.0
 11
74.04024723819825
 21
331.4876166273377
 31
0.0
  0
LINE
  5
48
330
44
100
AcDbEntity
  8
SUNPO
 62
     0
370
    -2
100
AcDbLine
 10
72.04024723819824
 20
289.062761664547
 30
0.0
 11
72.04024723819824
 21
329.4876166273377
 31
0.0
  0
INSERT
  5
49
330
44
100
AcDbEntity
  8
SUNPO
 62
     0
370
    -2
100
AcDbBlockReference
  2
_OPEN30
 10
72.04024723819824
 20
287.062761664547
 30
0.0
 41
2.0
 42
2.0
 43
2.0
 50
270.0
  0
INSERT
  5
4A
330
44
100
AcDbEntity
  8
SUNPO
 62
     0
370
    -2
100
AcDbBlockReference
  2
_OPEN30
 10
72.04024723819824
 20
331.4876166273377
 30
0.0
 41
2.0
 42
2.0
 43
2.0
 50
90.0
  0
MTEXT
  5
4B
330
44
100
AcDbEntity
  8
SUNPO
 62
     0
100
AcDbMText
 10
70.29024723819819
 20
309.2751891459424
 30
0.0
 40
2.5
 41
0.0
 71
     5
 72
     1
  1
\A1;約445
 11
0.0000000000000001
 21
1.0
 31
0.0
 73
     1
 44
1.0
1001
ACAD
1000
MTEXTBEGIN
1070
    73
1070
     1
1070
    44
1040
1.0
1070
    74
1070
     0
1000
MTEXTEND
  0
POINT
  5
4C
330
44
100
AcDbEntity
  8
Defpoints
 62
     0
100
AcDbPoint
 10
64.04024723819816
 20
287.062761664547
 30
0.0
  0
POINT
  5
4D
330
44
100
AcDbEntity
  8
Defpoints
 62
     0
100
AcDbPoint
 10
64.04024723819816
 20
331.4876166273377
 30
0.0
  0
POINT
  5
4E
330
44
100
AcDbEntity
  8
Defpoints
 62
     0
100
AcDbPoint
 10
72.04024723819824
 20
331.4876166273377
 30
0.0
  0
ENDBLK
  5
4F
330
44
100
AcDbEntity
  8
0
100
AcDbBlockEnd
  0
BLOCK
  5
37
330
36
100
AcDbEntity
  8
0
100
AcDbBlockBegin
  2
*D3
 70
     1
 10
0.0
 20
0.0
 30
0.0
  3
*D3
  1

  0
LINE
  5
38
330
36
100
AcDbEntity
  8
SUNPO
 62
     0
370
    -2
100
AcDbLine
 10
82.41059009747095
 20
333.5008351249344
 30
0.0
 11
82.41059009747095
 21
341.5008351249344
 31
0.0
  0
LINE
  5
39
330
36
100
AcDbEntity
  8
SUNPO
 62
     0
370
    -2
100
AcDbLine
 10
121.3106020974696
 20
333.5008351249344
 30
0.0
 11
121.3106020974696
 21
341.5008351249344
 31
0.0
  0
LINE
  5
3A
330
36
100
AcDbEntity
  8
SUNPO
 62
     0
370
    -2
100
AcDbLine
 10
84.41059009747096
 20
339.5008351249344
 30
0.0
 11
119.3106020974696
 21
339.5008351249344
 31
0.0
  0
INSERT
  5
3B
330
36
100
AcDbEntity
  8
SUNPO
 62
     0
370
    -2
100
AcDbBlockReference
  2
_OPEN30
 10
82.41059009747095
 20
339.5008351249344
 30
0.0
 41
2.0
 42
2.0
 43
2.0
 50
180.0
  0
INSERT
  5
3C
330
36
100
AcDbEntity
  8
SUNPO
 62
     0
370
    -2
100
AcDbBlockReference
  2
_OPEN30
 10
121.3106020974696
 20
339.5008351249344
 30
0.0
 41
2.0
 42
2.0
 43
2.0
  0
MTEXT
  5
3D
330
36
100
AcDbEntity
  8
SUNPO
 62
     0
100
AcDbMText
 10
101.8605960974703
 20
341.2508351249344
 30
0.0
 40
2.5
 41
0.0
 71
     5
 72
     1
  1
\A1;約389
 73
     1
 44
1.0
1001
ACAD
1000
MTEXTBEGIN
1070
    73
1070
     1
1070
    44
1040
1.0
1070
    74
1070
     0
1000
MTEXTEND
  0
POINT
  5
3E
330
36
100
AcDbEntity
  8
Defpoints
 62
     0
100
AcDbPoint
 10
82.41059009747095
 20
331.5008351249344
 30
0.0
  0
POINT
  5
40
330
36
100
AcDbEntity
  8
Defpoints
 62
     0
100
AcDbPoint
 10
121.3106020974696
 20
331.5008351249344
 30
0.0
  0
POINT
  5
41
330
36
100
AcDbEntity
  8
Defpoints
 62
     0
100
AcDbPoint
 10
121.3106020974696
 20
339.5008351249344
 30
0.0
  0
ENDBLK
  5
42
330
36
100
AcDbEntity
  8
0
100
AcDbBlockEnd
  0
BLOCK
  5
47B
330
471
100
AcDbEntity
  8
0
100
AcDbBlockBegin
  2
*D4
 70
     1
 10
0.0
 20
0.0
 30
0.0
  3
*D4
  1

  0
LINE
  5
472
330
471
100
AcDbEntity
  8
SUNPO
 62
     0
370
    -2
100
AcDbLine
 10
-50.49414138406837
 20
40.12289530473253
 30
0.0
 11
-50.49414138406837
 21
48.12289530473254
 31
0.0
  0
LINE
  5
473
330
471
100
AcDbEntity
  8
SUNPO
 62
     0
370
    -2
100
AcDbLine
 10
2.505858615931629
 20
40.12289530473253
 30
0.0
 11
2.505858615931629
 21
48.12289530473254
 31
0.0
  0
LINE
  5
474
330
471
100
AcDbEntity
  8
SUNPO
 62
     0
370
    -2
100
AcDbLine
 10
-48.49414138406837
 20
46.12289530473254
 30
0.0
 11
0.5058586159316297
 21
46.12289530473254
 31
0.0
  0
INSERT
  5
475
330
471
100
AcDbEntity
  8
SUNPO
 62
     0
370
    -2
100
AcDbBlockReference
  2
_OPEN30
 10
-50.49414138406837
 20
46.12289530473254
 30
0.0
 41
2.0
 42
2.0
 43
2.0
 50
180.0
  0
INSERT
  5
476
330
471
100
AcDbEntity
  8
SUNPO
 62
     0
370
    -2
100
AcDbBlockReference
  2
_OPEN30
 10
2.505858615931629
 20
46.12289530473254
 30
0.0
 41
2.0
 42
2.0
 43
2.0
  0
MTEXT
  5
477
330
471
100
AcDbEntity
  8
SUNPO
 62
     0
100
AcDbMText
 10
-23.99414138406837
 20
47.87289530473254
 30
0.0
 40
2.5
 41
0.0
 71
     5
 72
     1
  1
\A1;約530
 73
     1
 44
1.0
1001
ACAD
1000
MTEXTBEGIN
1070
    73
1070
     1
1070
    44
1040
1.0
1070
    74
1070
     0
1000
MTEXTEND
  0
POINT
  5
478
330
471
100
AcDbEntity
  8
Defpoints
 62
     0
100
AcDbPoint
 10
-50.49414138406837
 20
38.12289530473254
 30
0.0
  0
POINT
  5
479
330
471
100
AcDbEntity
  8
Defpoints
 62
     0
100
AcDbPoint
 10
2.505858615931629
 20
38.12289530473254
 30
0.0
  0
POINT
  5
47A
330
471
100
AcDbEntity
  8
Defpoints
 62
     0
100
AcDbPoint
 10
2.505858615931629
 20
46.12289530473254
 30
0.0
  0
ENDBLK
  5
47C
330
471
100
AcDbEntity
  8
0
100
AcDbBlockEnd
  0
BLOCK
  5
487
330
47D
100
AcDbEntity
  8
0
100
AcDbBlockBegin
  2
*D5
 70
     1
 10
0.0
 20
0.0
 30
0.0
  3
*D5
  1

  0
LINE
  5
47E
330
47D
100
AcDbEntity
  8
SUNPO
 62
     0
370
    -2
100
AcDbLine
 10
4.439064698369065
 20
-6.315178155654848
 30
0.0
 11
12.43906469836914
 21
-6.315178155654851
 31
0.0
  0
LINE
  5
47F
330
47D
100
AcDbEntity
  8
SUNPO
 62
     0
370
    -2
100
AcDbLine
 10
4.439064698369065
 20
38.10967680713588
 30
0.0
 11
12.43906469836915
 21
38.10967680713588
 31
0.0
  0
LINE
  5
480
330
47D
100
AcDbEntity
  8
SUNPO
 62
     0
370
    -2
100
AcDbLine
 10
10.43906469836914
 20
-4.315178155654851
 30
0.0
 11
10.43906469836915
 21
36.10967680713589
 31
0.0
  0
INSERT
  5
481
330
47D
100
AcDbEntity
  8
SUNPO
 62
     0
370
    -2
100
AcDbBlockReference
  2
_OPEN30
 10
10.43906469836914
 20
-6.315178155654851
 30
0.0
 41
2.0
 42
2.0
 43
2.0
 50
270.0
  0
INSERT
  5
482
330
47D
100
AcDbEntity
  8
SUNPO
 62
     0
370
    -2
100
AcDbBlockReference
  2
_OPEN30
 10
10.43906469836915
 20
38.10967680713588
 30
0.0
 41
2.0
 42
2.0
 43
2.0
 50
90.0
  0
MTEXT
  5
483
330
47D
100
AcDbEntity
  8
SUNPO
 62
     0
100
AcDbMText
 10
8.689064698369143
 20
15.89724932574052
 30
0.0
 40
2.5
 41
0.0
 71
     5
 72
     1
  1
\A1;約445
 11
0.0000000000000001
 21
1.0
 31
0.0
 73
     1
 44
1.0
1001
ACAD
1000
MTEXTBEGIN
1070
    73
1070
     1
1070
    44
1040
1.0
1070
    74
1070
     0
1000
MTEXTEND
  0
POINT
  5
484
330
47D
100
AcDbEntity
  8
Defpoints
 62
     0
100
AcDbPoint
 10
2.439064698369065
 20
-6.315178155654848
 30
0.0
  0
POINT
  5
485
330
47D
100
AcDbEntity
  8
Defpoints
 62
     0
100
AcDbPoint
 10
2.439064698369065
 20
38.10967680713588
 30
0.0
  0
POINT
  5
486
330
47D
100
AcDbEntity
  8
Defpoints
 62
     0
100
AcDbPoint
 10
10.43906469836915
 20
38.10967680713588
 30
0.0
  0
ENDBLK
  5
488
330
47D
100
AcDbEntity
  8
0
100
AcDbBlockEnd
  0
BLOCK
  5
493
330
489
100
AcDbEntity
  8
0
100
AcDbBlockBegin
  2
*D6
 70
     1
 10
0.0
 20
0.0
 30
0.0
  3
*D6
  1

  0
LINE
  5
48A
330
489
100
AcDbEntity
  8
SUNPO
 62
     0
370
    -2
100
AcDbLine
 10
20.80940755764186
 20
40.12289530473253
 30
0.0
 11
20.80940755764186
 21
48.12289530473254
 31
0.0
  0
LINE
  5
48B
330
489
100
AcDbEntity
  8
SUNPO
 62
     0
370
    -2
100
AcDbLine
 10
59.70941955764056
 20
40.12289530473253
 30
0.0
 11
59.70941955764056
 21
48.12289530473254
 31
0.0
  0
LINE
  5
48C
330
489
100
AcDbEntity
  8
SUNPO
 62
     0
370
    -2
100
AcDbLine
 10
22.80940755764186
 20
46.12289530473254
 30
0.0
 11
57.70941955764055
 21
46.12289530473254
 31
0.0
  0
INSERT
  5
48D
330
489
100
AcDbEntity
  8
SUNPO
 62
     0
370
    -2
100
AcDbBlockReference
  2
_OPEN30
 10
20.80940755764186
 20
46.12289530473254
 30
0.0
 41
2.0
 42
2.0
 43
2.0
 50
180.0
  0
INSERT
  5
48E
330
489
100
AcDbEntity
  8
SUNPO
 62
     0
370
    -2
100
AcDbBlockReference
  2
_OPEN30
 10
59.70941955764056
 20
46.12289530473254
 30
0.0
 41
2.0
 42
2.0
 43
2.0
  0
MTEXT
  5
48F
330
489
100
AcDbEntity
  8
SUNPO
 62
     0
100
AcDbMText
 10
40.2594135576412
 20
47.87289530473254
 30
0.0
 40
2.5
 41
0.0
 71
     5
 72
     1
  1
\A1;約389
 73
     1
 44
1.0
1001
ACAD
1000
MTEXTBEGIN
1070
    73
1070
     1
1070
    44
1040
1.0
1070
    74
1070
     0
1000
MTEXTEND
  0
POINT
  5
490
330
489
100
AcDbEntity
  8
Defpoints
 62
     0
100
AcDbPoint
 10
20.80940755764186
 20
38.12289530473254
 30
0.0
  0
POINT
  5
491
330
489
100
AcDbEntity
  8
Defpoints
 62
     0
100
AcDbPoint
 10
59.70941955764056
 20
38.12289530473254
 30
0.0
  0
POINT
  5
492
330
489
100
AcDbEntity
  8
Defpoints
 62
     0
100
AcDbPoint
 10
59.70941955764056
 20
46.12289530473254
 30
0.0
  0
ENDBLK
  5
494
330
489
100
AcDbEntity
  8
0
100
AcDbBlockEnd
  0
ENDSEC
  0
SECTION
  2
ENTITIES
  0
TEXT
  5
2F
330
2
100
AcDbEntity
  8
MOJI1
100
AcDbText
 10
-32.10118259578792
 20
73.12289530473265
 30
0.0
 40
4.0
  1
大型機種増設キャビネット
  7
KANJI
100
AcDbText
  0
TEXT
  5
32
330
2
100
AcDbEntity
  8
TOUROKU
100
AcDbText
 10
52.29876743713926
 20
67.12289530473248
 30
0.0
 40
2.0
  1
ＶＢＤ９５３
 72
     2
 11
65.89876743713927
 21
67.12289530473248
 31
0.0
100
AcDbText
  0
DIMENSION
  5
34
330
2
100
AcDbEntity
  8
SUNPO
100
AcDbDimension
  2
*D6
 10
59.70941955764056
 20
46.12289530473254
 30
0.0
 11
40.2594135576412
 21
47.87289530473254
 31
0.0
 70
    33
  1
約389
 71
     5
 42
38.9000119999987
  3
STANDARD
100
AcDbAlignedDimension
 13
20.80940755764186
 23
38.12289530473254
 33
0.0
 14
59.70941955764056
 24
38.12289530473254
 34
0.0
1001
ACAD
1000
DSTYLE
1002
{
1070
    40
1040
1.0
1070
   140
1040
2.5
1070
   147
1040
0.5
1070
   172
1070
     1
1070
   279
1070
     0
1070
   288
1070
     0
1002
}
  0
DIMENSION
  5
43
330
2
100
AcDbEntity
  8
SUNPO
100
AcDbDimension
  2
*D5
 10
10.43906469836915
 20
38.10967680713588
 30
0.0
 11
8.689064698369143
 21
15.89724932574052
 31
0.0
 70
    33
  1
約445
 71
     5
 42
44.42485496279073
  3
STANDARD
100
AcDbAlignedDimension
 13
2.439064698369065
 23
-6.315178155654848
 33
0.0
 14
2.439064698369065
 24
38.10967680713588
 34
0.0
1001
ACAD
1000
DSTYLE
1002
{
1070
    40
1040
1.0
1070
   140
1040
2.5
1070
   147
1040
0.5
1070
   172
1070
     1
1070
   279
1070
     0
1070
   288
1070
     0
1002
}
  0
DIMENSION
  5
50
330
2
100
AcDbEntity
  8
SUNPO
100
AcDbDimension
  2
*D4
 10
2.505858615931629
 20
46.12289530473254
 30
0.0
 11
-23.99414138406837
 21
47.87289530473254
 31
0.0
 70
    33
  1
約530
 71
     5
 42
53.0
  3
STANDARD
100
AcDbAlignedDimension
 13
-50.49414138406837
 23
38.12289530473254
 33
0.0
 14
2.505858615931629
 24
38.12289530473254
 34
0.0
1001
ACAD
1000
DSTYLE
1002
{
1070
    40
1040
1.0
1070
   140
1040
2.5
1070
   147
1040
0.5
1070
   172
1070
     1
1070
   279
1070
     0
1070
   288
1070
     0
1002
}
  0
LINE
  5
5D
330
2
100
AcDbEntity
  8
GAIKEI
  6
Continuous
 62
     7
100
AcDbLine
 10
-50.29699846645394
 20
-6.315153265652043
 30
0.0
 11
-48.03607104885259
 21
-6.315153265652043
 31
0.0
  0
LINE
  5
5E
330
2
100
AcDbEntity
  8
GAIKEI
  6
Continuous
 62
     1
100
AcDbLine
 10
36.05940755764141
 20
6.634832739345483
 30
0.0
 11
32.30940755764141
 21
6.634832739345483
 31
0.0
  0
LINE
  5
5F
330
2
100
AcDbEntity
  8
GAIKEI
  6
Continuous
 62
     1
100
AcDbLine
 10
32.10940755764204
 20
6.43483273934612
 30
0.0
 11
32.10940755764204
 21
-5.115167260653834
 31
0.0
  0
LINE
  5
60
330
2
100
AcDbEntity
  8
GAIKEI
  6
Continuous
 62
     1
100
AcDbLine
 10
36.25940755764123
 20
6.43483273934612
 30
0.0
 11
36.25940755764123
 21
-5.115167260653834
 31
0.0
  0
LINE
  5
61
330
2
100
AcDbEntity
  8
GAIKEI
  6
Continuous
 62
     1
100
AcDbLine
 10
36.05940755764141
 20
-5.315167260653424
 30
0.0
 11
32.30940755764141
 21
-5.315167260653424
 31
0.0
  0
LINE
  5
62
330
2
100
AcDbEntity
  8
GAIKEI
  6
Continuous
 62
     1
100
AcDbLine
 10
-48.07914137864464
 20
38.13483273934867
 30
0.0
 11
-48.09401445144385
 21
38.30483273934851
 31
0.0
  0
LINE
  5
63
330
2
100
AcDbEntity
  8
GAIKEI
  6
Continuous
 62
     1
100
AcDbLine
 10
-48.90914137864456
 20
38.13483273934867
 30
0.0
 11
-48.89426830584534
 21
38.30483273934851
 31
0.0
  0
LINE
  5
64
330
2
100
AcDbEntity
  8
GAIKEI
  6
Continuous
 62
     1
100
AcDbLine
 10
-48.89426830584534
 20
38.30483273934851
 30
0.0
 11
-48.09401445144385
 21
38.30483273934851
 31
0.0
  0
LINE
  5
65
330
2
100
AcDbEntity
  8
GAIKEI
  6
Continuous
 62
     1
100
AcDbLine
 10
-9.294268316692068
 20
38.30483273934851
 30
0.0
 11
-8.494014462291033
 21
38.30483273934851
 31
0.0
  0
LINE
  5
66
330
2
100
AcDbEntity
  8
GAIKEI
  6
Continuous
 62
     1
100
AcDbLine
 10
-9.309141389491742
 20
38.13483273934867
 30
0.0
 11
-9.294268316692068
 21
38.30483273934851
 31
0.0
  0
LINE
  5
67
330
2
100
AcDbEntity
  8
GAIKEI
  6
Continuous
 62
     1
100
AcDbLine
 10
-8.479141389491815
 20
38.13483273934867
 30
0.0
 11
-8.494014462291033
 21
38.30483273934851
 31
0.0
  0
LINE
  5
68
330
2
100
AcDbEntity
  8
GAIKEI
  6
Continuous
 62
     1
100
AcDbLine
 10
-9.594141384068763
 20
37.93660404434542
 30
0.0
 11
-9.594141384068734
 21
38.13483273934844
 31
0.0
  0
LINE
  5
69
330
2
100
AcDbEntity
  8
GAIKEI
  6
Continuous
 62
     1
100
AcDbLine
 10
-7.394141384068461
 20
37.90701508482948
 30
0.0
 11
-7.394141384068461
 21
38.13483273934844
 31
0.0
  0
LINE
  5
6A
330
2
100
AcDbEntity
  8
GAIKEI
  6
Continuous
 62
     1
100
AcDbLine
 10
-9.594141384068734
 20
38.13483273934844
 30
0.0
 11
-7.394141384068461
 21
38.13483273934844
 31
0.0
  0
LINE
  5
6B
330
2
100
AcDbEntity
  8
GAIKEI
  6
Continuous
 62
     1
100
AcDbLine
 10
-47.79414138406764
 20
37.93660404434542
 30
0.0
 11
-47.79414138406764
 21
38.13483273934844
 31
0.0
  0
LINE
  5
6C
330
2
100
AcDbEntity
  8
GAIKEI
  6
Continuous
 62
     1
100
AcDbLine
 10
-49.99414138406837
 20
37.90700821362464
 30
0.0
 11
-49.99414138406837
 21
38.13483273934844
 31
0.0
  0
LINE
  5
6D
330
2
100
AcDbEntity
  8
GAIKEI
  6
Continuous
 62
     1
100
AcDbLine
 10
58.20940555764128
 20
-6.955153265652143
 30
0.0
 11
58.20940555764128
 21
-6.315167260653879
 31
0.0
  0
LINE
  5
6E
330
2
100
AcDbEntity
  8
GAIKEI
  6
Continuous
 62
     1
100
AcDbLine
 10
57.16940355764108
 20
-7.115153265652224
 30
0.0
 11
57.16940355764108
 21
-6.955153265651688
 31
0.0
  0
LINE
  5
6F
330
2
100
AcDbEntity
  8
GAIKEI
  6
Continuous
 62
     1
100
AcDbLine
 10
57.16940355764108
 20
-7.115153265652224
 30
0.0
 11
58.04940555764142
 21
-7.115153265652224
 31
0.0
  0
LINE
  5
70
330
2
100
AcDbEntity
  8
GAIKEI
  6
Continuous
 62
     1
100
AcDbLine
 10
58.04940555764142
 20
-6.955153265651688
 30
0.0
 11
58.04940555764142
 21
-6.315167260653879
 31
0.0
  0
LINE
  5
71
330
2
100
AcDbEntity
  8
GAIKEI
  6
Continuous
 62
     1
100
AcDbLine
 10
57.16940355764108
 20
-6.955153265651688
 30
0.0
 11
58.04940555764142
 21
-6.955153265651688
 31
0.0
  0
LINE
  5
72
330
2
100
AcDbEntity
  8
GAIKEI
  6
Continuous
 62
     7
100
AcDbLine
 10
24.60940755764204
 20
37.93765174299051
 30
0.0
 11
24.60940755764204
 21
38.13483273934844
 31
0.0
  0
LINE
  5
73
330
2
100
AcDbEntity
  8
GAIKEI
  6
Continuous
 62
     1
100
AcDbLine
 10
24.60941955764065
 20
-6.955153265651688
 30
0.0
 11
24.60941955764065
 21
-6.268000888192318
 31
0.0
  0
LINE
  5
74
330
2
100
AcDbEntity
  8
GAIKEI
  6
Continuous
 62
     1
100
AcDbLine
 10
24.76941955764096
 20
-6.955153265651688
 30
0.0
 11
24.76941955764096
 21
-6.27638613287786
 31
0.0
  0
LINE
  5
75
330
2
100
AcDbEntity
  8
GAIKEI
  6
Continuous
 62
     1
100
AcDbLine
 10
25.40941955764083
 20
-7.115153265652224
 30
0.0
 11
25.40941955764083
 21
-6.955153265651915
 31
0.0
  0
LINE
  5
76
330
2
100
AcDbEntity
  8
GAIKEI
  6
Continuous
 62
     1
100
AcDbLine
 10
24.76941955764096
 20
-6.955153265651688
 30
0.0
 11
25.40941955764083
 21
-6.955153265651915
 31
0.0
  0
LINE
  5
77
330
2
100
AcDbEntity
  8
GAIKEI
  6
Continuous
 62
     1
100
AcDbLine
 10
24.76941955764096
 20
-7.115153265652224
 30
0.0
 11
25.40941955764083
 21
-7.115153265652224
 31
0.0
  0
LINE
  5
78
330
2
100
AcDbEntity
  8
GAIKEI
  6
Continuous
 62
     1
100
AcDbLine
 10
-48.03607104885259
 20
-6.315167260651605
 30
0.0
 11
-48.03607104885259
 21
-7.115153265652224
 31
0.0
  0
LINE
  5
79
330
2
100
AcDbEntity
  8
GAIKEI
  6
Continuous
 62
     1
100
AcDbLine
 10
-9.436050204691127
 20
-7.115153265652224
 30
0.0
 11
-48.03607104885259
 21
-7.115153265652224
 31
0.0
  0
LINE
  5
7A
330
2
100
AcDbEntity
  8
GAIKEI
  6
Continuous
 62
     1
100
AcDbLine
 10
-9.436050204691127
 20
-7.115153265652224
 30
0.0
 11
-9.436050204691127
 21
-6.315153265652043
 31
0.0
  0
LINE
  5
7B
330
2
100
AcDbEntity
  8
GAIKEI
  6
Continuous
 62
     7
100
AcDbLine
 10
59.70941955764101
 20
16.09520123344896
 30
0.0
 11
59.70941955764101
 21
15.57446424524641
 31
0.0
  0
LINE
  5
7C
330
2
100
AcDbEntity
  8
GAIKEI
  6
Continuous
 62
     7
100
AcDbLine
 10
59.70941955764101
 20
0.595201233448961
 30
0.0
 11
59.70941955764101
 21
-6.315167260653879
 31
0.0
  0
LINE
  5
7D
330
2
100
AcDbEntity
  8
GAIKEI
  6
Continuous
 62
     1
100
AcDbLine
 10
59.60941955764067
 20
38.13483273934838
 30
0.0
 11
59.60941955764065
 21
-6.315167260653879
 31
0.0
  0
LINE
  5
7E
330
2
100
AcDbEntity
  8
GAIKEI
  6
Continuous
 62
     1
100
AcDbLine
 10
59.70941955764101
 20
37.93487472434845
 30
0.0
 11
59.60941955764065
 21
37.93487472434845
 31
0.0
  0
LINE
  5
7F
330
2
100
AcDbEntity
  8
GAIKEI
  6
Continuous
 62
     7
100
AcDbLine
 10
59.70941955764101
 20
37.93487472434845
 30
0.0
 11
59.70941955764101
 21
31.07446424524642
 31
0.0
  0
LINE
  5
80
330
2
100
AcDbEntity
  8
GAIKEI
  6
Continuous
 62
     1
100
AcDbLine
 10
25.50940755764077
 20
-6.315167260653879
 30
0.0
 11
25.50940755764077
 21
-6.295167260653897
 31
0.0
  0
LINE
  5
81
330
2
100
AcDbEntity
  8
GAIKEI
  6
Continuous
 62
     1
100
AcDbLine
 10
59.60941955764065
 20
37.98483273934631
 30
0.0
 11
25.70940755764195
 21
37.98483273934631
 31
0.0
  0
LINE
  5
82
330
2
100
AcDbEntity
  8
GAIKEI
  6
Continuous
 62
     7
100
AcDbLine
 10
25.70940755764195
 20
-6.315167260653879
 30
0.0
 11
59.70941955764101
 21
-6.315167260653879
 31
0.0
  0
LINE
  5
83
330
2
100
AcDbEntity
  8
GAIKEI
  6
Continuous
 62
     1
100
AcDbLine
 10
59.48941955764076
 20
37.98483273934631
 30
0.0
 11
59.48941955764076
 21
-6.315167260653879
 31
0.0
  0
LINE
  5
84
330
2
100
AcDbEntity
  8
GAIKEI
  6
Continuous
 62
     7
100
AcDbLine
 10
-7.13606062134886
 20
-6.315153265652043
 30
0.0
 11
-9.436050204691127
 21
-6.315153265652043
 31
0.0
  0
LINE
  5
85
330
2
100
AcDbEntity
  8
GAIKEI
  6
Continuous
 62
     7
100
AcDbLine
 10
24.60940755764204
 20
38.13483273934844
 30
0.0
 11
59.60941955764067
 21
38.13483273934838
 31
0.0
  0
LINE
  5
86
330
2
100
AcDbEntity
  8
GAIKEI
  6
Continuous
 62
     1
100
AcDbLine
 10
-49.99414138406837
 20
38.13483273934844
 30
0.0
 11
-47.79414138406764
 21
38.13483273934844
 31
0.0
  0
LINE
  5
87
330
2
100
AcDbEntity
  8
GAIKEI
  6
PHANTOM
 62
     1
100
AcDbLine
 10
57.35940755764204
 20
38.13483273934844
 30
0.0
 11
57.35940755764204
 21
38.38483273934867
 31
0.0
  0
LINE
  5
89
330
2
100
AcDbEntity
  8
GAIKEI
  6
Continuous
 62
     1
100
AcDbLine
 10
57.77440755764246
 20
38.13483273934867
 30
0.0
 11
57.75953448484279
 21
38.30483273934851
 31
0.0
  0
LINE
  5
8A
330
2
100
AcDbEntity
  8
GAIKEI
  6
Continuous
 62
     1
100
AcDbLine
 10
56.94440755764208
 20
38.13483273934867
 30
0.0
 11
56.9592806304413
 21
38.30483273934851
 31
0.0
  0
LINE
  5
8B
330
2
100
AcDbEntity
  8
GAIKEI
  6
Continuous
 62
     1
100
AcDbLine
 10
56.9592806304413
 20
38.30483273934851
 30
0.0
 11
57.75953448484279
 21
38.30483273934851
 31
0.0
  0
LINE
  5
8C
330
2
100
AcDbEntity
  8
GAIKEI
  6
PHANTOM
 62
     1
100
AcDbLine
 10
27.20940755764195
 20
38.13483273934844
 30
0.0
 11
27.20940755764195
 21
38.38483273934867
 31
0.0
  0
LINE
  5
8D
330
2
100
AcDbEntity
  8
GAIKEI
  6
Continuous
 62
     1
100
AcDbLine
 10
27.62440755764237
 20
38.13483273934867
 30
0.0
 11
27.6095344848427
 21
38.30483273934851
 31
0.0
  0
LINE
  5
8E
330
2
100
AcDbEntity
  8
GAIKEI
  6
Continuous
 62
     1
100
AcDbLine
 10
26.79440755764199
 20
38.13483273934867
 30
0.0
 11
26.80928063044166
 21
38.30483273934851
 31
0.0
  0
LINE
  5
8F
330
2
100
AcDbEntity
  8
GAIKEI
  6
Continuous
 62
     1
100
AcDbLine
 10
26.80928063044166
 20
38.30483273934851
 30
0.0
 11
27.6095344848427
 21
38.30483273934851
 31
0.0
  0
LINE
  5
90
330
2
100
AcDbEntity
  8
GAIKEI
  6
Continuous
 62
     1
100
AcDbLine
 10
-50.3625739840686
 20
-5.983885455654672
 30
0.0
 11
-50.49414138406837
 21
-6.115452855654666
 31
0.0
  0
LINE
  5
91
330
2
100
AcDbEntity
  8
GAIKEI
  6
Continuous
 62
     1
100
AcDbLine
 10
-50.16284258406859
 20
-6.183610755654626
 30
0.0
 11
-50.29440998406835
 21
-6.315178155654621
 31
0.0
  0
LINE
  5
92
330
2
100
AcDbEntity
  8
GAIKEI
  6
Continuous
 62
     1
100
AcDbLine
 10
-50.16284258406859
 20
-5.983885455654672
 30
0.0
 11
-50.16284258406859
 21
-6.183610755654626
 31
0.0
  0
LINE
  5
93
330
2
100
AcDbEntity
  8
GAIKEI
  6
Continuous
 62
     1
100
AcDbLine
 10
-7.225440184068702
 20
-6.183610755654626
 30
0.0
 11
-50.16284258406859
 21
-6.183610755654626
 31
0.0
  0
LINE
  5
94
330
2
100
AcDbEntity
  8
GAIKEI
  6
Continuous
 62
     1
100
AcDbLine
 10
-7.225440184068702
 20
-5.983885455654672
 30
0.0
 11
-7.225440184068702
 21
-6.183610755654626
 31
0.0
  0
LINE
  5
95
330
2
100
AcDbEntity
  8
GAIKEI
  6
Continuous
 62
     1
100
AcDbLine
 10
-7.225440184068702
 20
-5.983885455654672
 30
0.0
 11
-50.16284258406859
 21
-5.983885455654672
 31
0.0
  0
LINE
  5
96
330
2
100
AcDbEntity
  8
GAIKEI
  6
Continuous
 62
     1
100
AcDbLine
 10
-7.225440184068702
 20
-6.183610755654626
 30
0.0
 11
-7.093872884068332
 21
-6.315178155654621
 31
0.0
  0
LINE
  5
97
330
2
100
AcDbEntity
  8
GAIKEI
  6
Continuous
 62
     1
100
AcDbLine
 10
-7.025708784068683
 20
-5.983885455654672
 30
0.0
 11
-6.894141384068461
 21
-6.115452855654666
 31
0.0
  0
LINE
  5
98
330
2
100
AcDbEntity
  8
GAIKEI
  6
Continuous
 62
     1
100
AcDbLine
 10
-7.028443184068692
 20
27.45481994434522
 30
0.0
 11
-7.025708784068683
 21
27.45481994434522
 31
0.0
  0
LINE
  5
99
330
2
100
AcDbEntity
  8
GAIKEI
  6
Continuous
 62
     1
100
AcDbLine
 10
-7.025708784068683
 20
27.45481994434522
 30
0.0
 11
-7.025708784068683
 21
37.6535260443452
 31
0.0
  0
LINE
  5
9A
330
2
100
AcDbEntity
  8
GAIKEI
  6
Continuous
 62
     1
100
AcDbLine
 10
-7.025708784068683
 20
37.6535260443452
 30
0.0
 11
-6.894141384068461
 21
37.7850934443452
 31
0.0
  0
LINE
  5
9B
330
2
100
AcDbEntity
  8
GAIKEI
  6
Continuous
 62
     7
100
AcDbLine
 10
-6.894141384068461
 20
37.7850934443452
 30
0.0
 11
-6.894141384068461
 21
-6.115452855654666
 31
0.0
  0
LINE
  5
9C
330
2
100
AcDbEntity
  8
GAIKEI
  6
Continuous
 62
     1
100
AcDbLine
 10
-7.025708784068683
 20
-5.983885455654672
 30
0.0
 11
-7.025708784068683
 21
-2.560087855654728
 31
0.0
  0
LINE
  5
9D
330
2
100
AcDbEntity
  8
GAIKEI
  6
Continuous
 62
     1
100
AcDbLine
 10
-7.025708784068683
 20
-2.560087855654728
 30
0.0
 11
-7.105323084068459
 21
-0.0120836556548056
 31
0.0
  0
LINE
  5
9E
330
2
100
AcDbEntity
  8
GAIKEI
  6
Continuous
 62
     1
100
AcDbLine
 10
-7.225440184068702
 20
37.85325134434538
 30
0.0
 11
-7.093872884068332
 21
37.98481874434515
 31
0.0
  0
LINE
  5
9F
330
2
100
AcDbEntity
  8
GAIKEI
  6
Continuous
 62
     1
100
AcDbLine
 10
-50.16284258406859
 20
37.85325134434538
 30
0.0
 11
-50.29440998406835
 21
37.98481874434515
 31
0.0
  0
LINE
  5
A0
330
2
100
AcDbEntity
  8
GAIKEI
  6
Continuous
 62
     1
100
AcDbLine
 10
-50.3625739840686
 20
37.6535260443452
 30
0.0
 11
-50.49414138406837
 21
37.7850934443452
 31
0.0
  0
LINE
  5
A1
330
2
100
AcDbEntity
  8
GAIKEI
  6
Continuous
 62
     1
100
AcDbLine
 10
-7.225440184068702
 20
37.6535260443452
 30
0.0
 11
-7.225440184068702
 21
37.85325134434538
 31
0.0
  0
LINE
  5
A2
330
2
100
AcDbEntity
  8
GAIKEI
  6
Continuous
 62
     1
100
AcDbLine
 10
-7.225440184068702
 20
37.85325134434538
 30
0.0
 11
-50.16284258406859
 21
37.85325134434538
 31
0.0
  0
LINE
  5
A3
330
2
100
AcDbEntity
  8
GAIKEI
  6
Continuous
 62
     1
100
AcDbLine
 10
-50.16284258406859
 20
37.6535260443452
 30
0.0
 11
-50.16284258406859
 21
37.85325134434538
 31
0.0
  0
LINE
  5
A4
330
2
100
AcDbEntity
  8
GAIKEI
  6
Continuous
 62
     1
100
AcDbLine
 10
-7.225440184068702
 20
37.6535260443452
 30
0.0
 11
-50.16284258406859
 21
37.6535260443452
 31
0.0
  0
LINE
  5
A5
330
2
100
AcDbEntity
  8
GAIKEI
  6
Continuous
 62
     1
100
AcDbLine
 10
-50.3625739840686
 20
-2.560087855654728
 30
0.0
 11
-50.28295978406868
 21
-0.0120836556548056
 31
0.0
  0
LINE
  5
A6
330
2
100
AcDbEntity
  8
GAIKEI
  6
Continuous
 62
     1
100
AcDbLine
 10
-50.3625739840686
 20
-5.983885455654672
 30
0.0
 11
-50.3625739840686
 21
-2.560087855654728
 31
0.0
  0
LINE
  5
A7
330
2
100
AcDbEntity
  8
GAIKEI
  6
Continuous
 62
     7
100
AcDbLine
 10
-50.49414138406837
 20
37.7850934443452
 30
0.0
 11
-50.49414138406837
 21
-6.115452855654666
 31
0.0
  0
LINE
  5
A8
330
2
100
AcDbEntity
  8
GAIKEI
  6
Continuous
 62
     1
100
AcDbLine
 10
-50.3625739840686
 20
27.45481994434522
 30
0.0
 11
-50.3625739840686
 21
37.6535260443452
 31
0.0
  0
LINE
  5
A9
330
2
100
AcDbEntity
  8
GAIKEI
  6
Continuous
 62
     1
100
AcDbLine
 10
-50.35983968406845
 20
27.45481994434522
 30
0.0
 11
-50.3625739840686
 21
27.45481994434522
 31
0.0
  0
LINE
  5
AA
330
2
100
AcDbEntity
  8
GAIKEI
  6
Continuous
 62
     1
100
AcDbLine
 10
-50.16284258406859
 20
-5.983885455654672
 30
0.0
 11
-50.3625739840686
 21
-5.983885455654672
 31
0.0
  0
LINE
  5
AB
330
2
100
AcDbEntity
  8
GAIKEI
  6
Continuous
 62
     1
100
AcDbLine
 10
-7.225440184068702
 20
-5.983885455654672
 30
0.0
 11
-7.025708784068683
 21
-5.983885455654672
 31
0.0
  0
LINE
  5
AC
330
2
100
AcDbEntity
  8
GAIKEI
  6
Continuous
 62
     1
100
AcDbLine
 10
-7.226917284068349
 20
-2.615178155654803
 30
0.0
 11
-7.305042284068349
 21
-0.1144945556548009
 31
0.0
  0
LINE
  5
AD
330
2
100
AcDbEntity
  8
GAIKEI
  6
Continuous
 62
     1
100
AcDbLine
 10
-7.226917284068349
 20
-2.615178155654803
 30
0.0
 11
-7.225440184068702
 21
-2.615172055654738
 31
0.0
  0
LINE
  5
AE
330
2
100
AcDbEntity
  8
GAIKEI
  6
Continuous
 62
     1
100
AcDbLine
 10
-7.225440184068702
 20
-5.983885455654672
 30
0.0
 11
-7.225440184068702
 21
-2.615172055654738
 31
0.0
  0
LINE
  5
AF
330
2
100
AcDbEntity
  8
GAIKEI
  6
Continuous
 62
     1
100
AcDbLine
 10
-7.225440184068702
 20
37.6535260443452
 30
0.0
 11
-7.025708784068683
 21
37.6535260443452
 31
0.0
  0
LINE
  5
B0
330
2
100
AcDbEntity
  8
GAIKEI
  6
Continuous
 62
     1
100
AcDbLine
 10
-7.225440184068702
 20
27.48482184434533
 30
0.0
 11
-7.225440184068702
 21
37.6535260443452
 31
0.0
  0
LINE
  5
B1
330
2
100
AcDbEntity
  8
GAIKEI
  6
Continuous
 62
     1
100
AcDbLine
 10
-50.16284258406859
 20
37.6535260443452
 30
0.0
 11
-50.3625739840686
 21
37.6535260443452
 31
0.0
  0
LINE
  5
B2
330
2
100
AcDbEntity
  8
GAIKEI
  6
Continuous
 62
     1
100
AcDbLine
 10
-50.16284258406859
 20
27.48482184434533
 30
0.0
 11
-50.16284258406859
 21
37.6535260443452
 31
0.0
  0
LINE
  5
B3
330
2
100
AcDbEntity
  8
GAIKEI
  6
Continuous
 62
     1
100
AcDbLine
 10
-50.16284258406859
 20
-2.615172055654738
 30
0.0
 11
-50.16136548406848
 21
-2.615178155654803
 31
0.0
  0
LINE
  5
B4
330
2
100
AcDbEntity
  8
GAIKEI
  6
Continuous
 62
     1
100
AcDbLine
 10
-50.16136548406848
 20
-2.615178155654803
 30
0.0
 11
-50.08324048406848
 21
-0.1144945556548009
 31
0.0
  0
LINE
  5
B5
330
2
100
AcDbEntity
  8
GAIKEI
  6
Continuous
 62
     1
100
AcDbLine
 10
-50.16284258406859
 20
-5.983885455654672
 30
0.0
 11
-50.16284258406859
 21
-2.615172055654738
 31
0.0
  0
LINE
  5
B6
330
2
100
AcDbEntity
  8
GAIKEI
  6
Continuous
 62
     1
100
AcDbLine
 10
-8.701538884068668
 20
-0.3813402556547771
 30
0.0
 11
-8.805323084068277
 21
-2.615178155654803
 31
0.0
  0
LINE
  5
B7
330
2
100
AcDbEntity
  8
GAIKEI
  6
Continuous
 62
     1
100
AcDbLine
 10
-8.805323084068277
 20
-2.615178155654803
 30
0.0
 11
-7.226917284068349
 21
-2.615178155654803
 31
0.0
  0
LINE
  5
B8
330
2
100
AcDbEntity
  8
GAIKEI
  6
Continuous
 62
     1
100
AcDbLine
 10
-8.833570084068469
 20
-0.1144945556548009
 30
0.0
 11
-7.305042284068349
 21
-0.1144945556548009
 31
0.0
  0
LINE
  5
B9
330
2
100
AcDbEntity
  8
GAIKEI
  6
Continuous
 62
     1
100
AcDbLine
 10
-48.68674398406847
 20
-0.3813402556547771
 30
0.0
 11
-48.5829597840684
 21
-2.615178155654803
 31
0.0
  0
LINE
  5
BA
330
2
100
AcDbEntity
  8
GAIKEI
  6
Continuous
 62
     1
100
AcDbLine
 10
-50.08324048406848
 20
-0.1144945556548009
 30
0.0
 11
-48.55471268406836
 21
-0.1144945556548009
 31
0.0
  0
LINE
  5
BB
330
2
100
AcDbEntity
  8
GAIKEI
  6
Continuous
 62
     1
100
AcDbLine
 10
-50.16136548406848
 20
-2.615178155654803
 30
0.0
 11
-48.5829597840684
 21
-2.615178155654803
 31
0.0
  0
LINE
  5
BC
330
2
100
AcDbEntity
  8
GAIKEI
  6
Continuous
 62
     1
100
AcDbLine
 10
-7.228491984068114
 20
27.48482184434533
 30
0.0
 11
-7.0807624840686
 21
27.48482184434533
 31
0.0
  0
LINE
  5
BD
330
2
100
AcDbEntity
  8
GAIKEI
  6
Continuous
 62
     1
100
AcDbLine
 10
-7.228491984068114
 20
27.48482184434533
 30
0.0
 11
-7.228491984068114
 21
27.4605542443453
 31
0.0
  0
LINE
  5
BE
330
2
100
AcDbEntity
  8
GAIKEI
  6
Continuous
 62
     1
100
AcDbLine
 10
-50.08107988406846
 20
0.1003369443453721
 30
0.0
 11
-7.307202884068374
 21
0.1003369443453721
 31
0.0
  0
LINE
  5
BF
330
2
100
AcDbEntity
  8
GAIKEI
  6
Continuous
 62
     1
100
AcDbLine
 10
-8.991358184068303
 20
-0.0558825556547618
 30
0.0
 11
-48.39692458406853
 21
-0.0558825556547618
 31
0.0
  0
LINE
  5
C0
330
2
100
AcDbEntity
  8
GAIKEI
  6
Continuous
 62
     1
100
AcDbLine
 10
-50.30752028406869
 20
27.48482184434533
 30
0.0
 11
-50.15979078406826
 21
27.48482184434533
 31
0.0
  0
LINE
  5
C1
330
2
100
AcDbEntity
  8
GAIKEI
  6
Continuous
 62
     1
100
AcDbLine
 10
-50.15979078406826
 20
27.48482184434533
 30
0.0
 11
-7.228491984068114
 21
27.48482184434533
 31
0.0
  0
LINE
  5
C2
330
2
100
AcDbEntity
  8
GAIKEI
  6
Continuous
 62
     1
100
AcDbLine
 10
-50.15979078406826
 20
27.48482184434533
 30
0.0
 11
-50.15979078406826
 21
27.4605542443453
 31
0.0
  0
LINE
  5
C3
330
2
100
AcDbEntity
  8
GAIKEI
  6
Continuous
 62
     1
100
AcDbLine
 10
-50.15979078406826
 20
27.4605542443453
 30
0.0
 11
-7.228491984068114
 21
27.4605542443453
 31
0.0
  0
LINE
  5
C4
330
2
100
AcDbEntity
  8
GAIKEI
  6
Continuous
 62
     1
100
AcDbLine
 10
-48.39692458406853
 20
-0.0558825556547618
 30
0.0
 11
-48.39692458406853
 21
-0.1162584556548154
 31
0.0
  0
LINE
  5
C5
330
2
100
AcDbEntity
  8
GAIKEI
  6
Continuous
 62
     1
100
AcDbLine
 10
-8.991358184068303
 20
-0.1162584556548154
 30
0.0
 11
-48.39692458406853
 21
-0.1162584556548154
 31
0.0
  0
LINE
  5
C6
330
2
100
AcDbEntity
  8
GAIKEI
  6
Continuous
 62
     1
100
AcDbLine
 10
-8.991358184068303
 20
-0.0558825556547618
 30
0.0
 11
-8.991358184068303
 21
-0.1162584556548154
 31
0.0
  0
LINE
  5
C7
330
2
100
AcDbEntity
  8
GAIKEI
  6
Continuous
 62
     1
100
AcDbLine
 10
-8.801392384068549
 20
-0.3286181556547945
 30
0.0
 11
-8.899243984068107
 21
-2.434758255654742
 31
0.0
  0
LINE
  5
C8
330
2
100
AcDbEntity
  8
GAIKEI
  6
Continuous
 62
     1
100
AcDbLine
 10
-48.58689038406828
 20
-0.3286181556547945
 30
0.0
 11
-48.48903888406858
 21
-2.434758255654742
 31
0.0
  0
LINE
  5
C9
330
2
100
AcDbEntity
  8
GAIKEI
  6
Continuous
 62
     1
100
AcDbLine
 10
-8.894141384068461
 20
-1.637242355654734
 30
0.0
 11
-8.894141384068461
 21
-0.4199694556548366
 31
0.0
  0
LINE
  5
CA
330
2
100
AcDbEntity
  8
GAIKEI
  6
Continuous
 62
     1
100
AcDbLine
 10
-8.801392384068549
 20
-0.3286181556547945
 30
0.0
 11
-8.894141384068461
 21
-0.4199694556548366
 31
0.0
  0
LINE
  5
CB
330
2
100
AcDbEntity
  8
GAIKEI
  6
Continuous
 62
     1
100
AcDbLine
 10
-48.58689038406828
 20
-0.3286181556547945
 30
0.0
 11
-48.49414138406837
 21
-0.4199694556548366
 31
0.0
  0
LINE
  5
CC
330
2
100
AcDbEntity
  8
GAIKEI
  6
Continuous
 62
     1
100
AcDbLine
 10
-48.49414138406837
 20
-1.637242355654734
 30
0.0
 11
-48.49414138406837
 21
-0.4199694556548366
 31
0.0
  0
LINE
  5
CD
330
2
100
AcDbEntity
  8
GAIKEI
  6
Continuous
 62
     1
100
AcDbLine
 10
-8.894141384068461
 20
-1.637242355654734
 30
0.0
 11
-48.49414138406837
 21
-1.637242355654734
 31
0.0
  0
LINE
  5
CE
330
2
100
AcDbEntity
  8
GAIKEI
  6
Continuous
 62
     1
100
AcDbLine
 10
-47.69414138406818
 20
-2.612840555654656
 30
0.0
 11
-48.56760328406835
 21
-2.612840555654656
 31
0.0
  0
LINE
  5
CF
330
2
100
AcDbEntity
  8
GAIKEI
  6
Continuous
 62
     1
100
AcDbLine
 10
-47.69414138406818
 20
-2.612840555654656
 30
0.0
 11
-9.694141384068188
 21
-2.612840555654656
 31
0.0
  0
LINE
  5
D0
330
2
100
AcDbEntity
  8
GAIKEI
  6
Continuous
 62
     1
100
AcDbLine
 10
-8.820679484068477
 20
-2.612840555654656
 30
0.0
 11
-9.694141384068188
 21
-2.612840555654656
 31
0.0
  0
LINE
  5
D1
330
2
100
AcDbEntity
  8
GAIKEI
  6
Continuous
 62
     1
100
AcDbLine
 10
-8.991358184068303
 20
-0.1162584556548154
 30
0.0
 11
-9.096924584068347
 21
-0.2202379556547385
 31
0.0
  0
LINE
  5
D2
330
2
100
AcDbEntity
  8
GAIKEI
  6
Continuous
 62
     1
100
AcDbLine
 10
-48.39692458406853
 20
-0.1162584556548154
 30
0.0
 11
-48.29135818406848
 21
-0.2202379556547385
 31
0.0
  0
LINE
  5
D3
330
2
100
AcDbEntity
  8
GAIKEI
  6
Continuous
 62
     1
100
AcDbLine
 10
-45.36413648406823
 20
25.88833134434526
 30
0.0
 11
-45.36413648406823
 21
16.78650944434525
 31
0.0
  0
LINE
  5
D4
330
2
100
AcDbEntity
  8
GAIKEI
  6
Continuous
 62
     1
100
AcDbLine
 10
-37.34414138406828
 20
26.08836794434524
 30
0.0
 11
-45.16413648406842
 21
26.08836794434524
 31
0.0
  0
LINE
  5
D5
330
2
100
AcDbEntity
  8
GAIKEI
  6
Continuous
 62
     1
100
AcDbLine
 10
-37.14414138406846
 20
16.78650944434525
 30
0.0
 11
-37.14414138406846
 21
25.88833134434526
 31
0.0
  0
LINE
  5
D6
330
2
100
AcDbEntity
  8
GAIKEI
  6
Continuous
 62
     1
100
AcDbLine
 10
-45.16413648406842
 20
16.58646974434532
 30
0.0
 11
-37.34414138406828
 21
16.58646974434532
 31
0.0
  0
LINE
  5
D7
330
2
100
AcDbEntity
  8
GAIKEI
  6
Continuous
 62
     1
100
AcDbLine
 10
-8.694141384068188
 20
38.08481874434529
 30
0.0
 11
-7.894141384068461
 21
38.08481874434529
 31
0.0
  0
LINE
  5
D8
330
2
100
AcDbEntity
  8
GAIKEI
  6
Continuous
 62
     1
100
AcDbLine
 10
-49.49414138406837
 20
38.08481874434529
 30
0.0
 11
-48.69414138406819
 21
38.08481874434529
 31
0.0
  0
LINE
  5
D9
330
2
100
AcDbEntity
  8
GAIKEI
  6
Continuous
 62
     1
100
AcDbLine
 10
-49.61724928406829
 20
37.90016304434516
 30
0.0
 11
-49.59414138406827
 21
37.93481874434519
 31
0.0
  0
LINE
  5
DA
330
2
100
AcDbEntity
  8
GAIKEI
  6
Continuous
 62
     1
100
AcDbLine
 10
-49.58842848406857
 20
37.94339724434531
 30
0.0
 11
-49.59414138406827
 21
37.93481874434519
 31
0.0
  0
LINE
  5
DB
330
2
100
AcDbEntity
  8
GAIKEI
  6
Continuous
 62
     1
100
AcDbLine
 10
-49.58842848406857
 20
37.94339724434531
 30
0.0
 11
-49.49414138406837
 21
38.08481874434529
 31
0.0
  0
LINE
  5
DC
330
2
100
AcDbEntity
  8
GAIKEI
  6
Continuous
 62
     1
100
AcDbLine
 10
-48.59985428406844
 20
37.94339724434531
 30
0.0
 11
-48.69414138406819
 21
38.08481874434529
 31
0.0
  0
LINE
  5
DD
330
2
100
AcDbEntity
  8
GAIKEI
  6
Continuous
 62
     1
100
AcDbLine
 10
-48.59985428406844
 20
37.94339724434531
 30
0.0
 11
-48.59414138406828
 21
37.93481874434519
 31
0.0
  0
LINE
  5
DE
330
2
100
AcDbEntity
  8
GAIKEI
  6
Continuous
 62
     1
100
AcDbLine
 10
-48.57103348406827
 20
37.90016304434516
 30
0.0
 11
-48.59414138406828
 21
37.93481874434519
 31
0.0
  0
LINE
  5
DF
330
2
100
AcDbEntity
  8
GAIKEI
  6
Continuous
 62
     1
100
AcDbLine
 10
-8.817249284068111
 20
37.90016304434516
 30
0.0
 11
-8.794141384068552
 21
37.93481874434519
 31
0.0
  0
LINE
  5
E0
330
2
100
AcDbEntity
  8
GAIKEI
  6
Continuous
 62
     1
100
AcDbLine
 10
-8.78842848406839
 20
37.94339724434531
 30
0.0
 11
-8.794141384068552
 21
37.93481874434519
 31
0.0
  0
LINE
  5
E1
330
2
100
AcDbEntity
  8
GAIKEI
  6
Continuous
 62
     1
100
AcDbLine
 10
-8.78842848406839
 20
37.94339724434531
 30
0.0
 11
-8.694141384068188
 21
38.08481874434529
 31
0.0
  0
LINE
  5
E2
330
2
100
AcDbEntity
  8
GAIKEI
  6
Continuous
 62
     1
100
AcDbLine
 10
-7.79985428406826
 20
37.94339724434531
 30
0.0
 11
-7.894141384068461
 21
38.08481874434529
 31
0.0
  0
LINE
  5
E3
330
2
100
AcDbEntity
  8
GAIKEI
  6
Continuous
 62
     1
100
AcDbLine
 10
-7.79985428406826
 20
37.94339724434531
 30
0.0
 11
-7.794141384068552
 21
37.93481874434519
 31
0.0
  0
LINE
  5
E4
330
2
100
AcDbEntity
  8
GAIKEI
  6
Continuous
 62
     1
100
AcDbLine
 10
-7.771033484068539
 20
37.90016304434516
 30
0.0
 11
-7.794141384068552
 21
37.93481874434519
 31
0.0
  0
LINE
  5
E5
330
2
100
AcDbEntity
  8
GAIKEI
  6
Continuous
 62
     7
100
AcDbLine
 10
-9.544141384068552
 20
37.93660404434536
 30
0.0
 11
-47.84414138406828
 21
37.93660404434536
 31
0.0
  0
LINE
  5
E6
330
2
100
AcDbEntity
  8
GAIKEI
  6
Continuous
 62
     7
100
AcDbLine
 10
-7.244617484068385
 20
37.98481874434515
 30
0.0
 11
-7.093872884068332
 21
37.98481874434515
 31
0.0
  0
LINE
  5
E7
330
2
100
AcDbEntity
  8
GAIKEI
  6
Continuous
 62
     1
100
AcDbLine
 10
-7.244617484068385
 20
-6.315178155654621
 30
0.0
 11
-7.093872884068332
 21
-6.315178155654621
 31
0.0
  0
LINE
  5
E8
330
2
100
AcDbEntity
  8
GAIKEI
  6
Continuous
 62
     1
100
AcDbLine
 10
-50.29440998406835
 20
-6.315178155654621
 30
0.0
 11
-50.14366528406845
 21
-6.315178155654621
 31
0.0
  0
LINE
  5
E9
330
2
100
AcDbEntity
  8
GAIKEI
  6
Continuous
 62
     7
100
AcDbLine
 10
-50.29440998406835
 20
37.98481874434515
 30
0.0
 11
-50.14366528406845
 21
37.98481874434515
 31
0.0
  0
LINE
  5
EA
330
2
100
AcDbEntity
  8
GAIKEI
  6
Continuous
 62
     1
100
AcDbLine
 10
-21.38053058406831
 20
-0.2202379556547385
 30
0.0
 11
-36.00775228406837
 21
-0.2202379556547385
 31
0.0
  0
LINE
  5
EB
330
2
100
AcDbEntity
  8
GAIKEI
  6
Continuous
 62
     1
100
AcDbLine
 10
-36.00902178406841
 20
-0.4279528556546666
 30
0.0
 11
-36.00775228406837
 21
-0.2202379556547385
 31
0.0
  0
LINE
  5
EC
330
2
100
AcDbEntity
  8
GAIKEI
  6
Continuous
 62
     1
100
AcDbLine
 10
-44.97926098406833
 20
-0.4279528556546666
 30
0.0
 11
-36.00902178406841
 21
-0.4279528556546666
 31
0.0
  0
LINE
  5
ED
330
2
100
AcDbEntity
  8
GAIKEI
  6
Continuous
 62
     1
100
AcDbLine
 10
-44.97926098406833
 20
-0.4279528556546666
 30
0.0
 11
-44.98053058406867
 21
-0.2202379556547385
 31
0.0
  0
LINE
  5
EE
330
2
100
AcDbEntity
  8
GAIKEI
  6
Continuous
 62
     1
100
AcDbLine
 10
-44.98053058406867
 20
-0.2202379556547385
 30
0.0
 11
-48.29135818406848
 21
-0.2202379556547385
 31
0.0
  0
LINE
  5
EF
330
2
100
AcDbEntity
  8
GAIKEI
  6
Continuous
 62
     1
100
AcDbLine
 10
-9.096924584068347
 20
-0.2202379556547385
 30
0.0
 11
-12.40775228406846
 21
-0.2202379556547385
 31
0.0
  0
LINE
  5
F0
330
2
100
AcDbEntity
  8
GAIKEI
  6
Continuous
 62
     1
100
AcDbLine
 10
-12.4090217840685
 20
-0.4279528556546666
 30
0.0
 11
-12.40775228406846
 21
-0.2202379556547385
 31
0.0
  0
LINE
  5
F1
330
2
100
AcDbEntity
  8
GAIKEI
  6
Continuous
 62
     1
100
AcDbLine
 10
-21.37926098406842
 20
-0.4279528556546666
 30
0.0
 11
-12.4090217840685
 21
-0.4279528556546666
 31
0.0
  0
LINE
  5
F2
330
2
100
AcDbEntity
  8
GAIKEI
  6
Continuous
 62
     1
100
AcDbLine
 10
-21.37926098406842
 20
-0.4279528556546666
 30
0.0
 11
-21.38053058406831
 21
-0.2202379556547385
 31
0.0
  0
LINE
  5
F3
330
2
100
AcDbEntity
  8
GAIKEI
  6
Continuous
 62
     1
100
AcDbLine
 10
-36.04419018406861
 20
-0.1291002556547482
 30
0.0
 11
-36.00775228406837
 21
-0.2202379556547385
 31
0.0
  0
LINE
  5
F4
330
2
100
AcDbEntity
  8
GAIKEI
  6
Continuous
 62
     1
100
AcDbLine
 10
-44.94409258406858
 20
-0.1291002556547482
 30
0.0
 11
-36.04419018406861
 21
-0.1291002556547482
 31
0.0
  0
LINE
  5
F5
330
2
100
AcDbEntity
  8
GAIKEI
  6
Continuous
 62
     1
100
AcDbLine
 10
-44.94409258406858
 20
-0.1291002556547482
 30
0.0
 11
-44.98053058406867
 21
-0.2202379556547385
 31
0.0
  0
LINE
  5
F6
330
2
100
AcDbEntity
  8
GAIKEI
  6
Continuous
 62
     1
100
AcDbLine
 10
-12.4441901840687
 20
-0.1291002556547482
 30
0.0
 11
-12.40775228406846
 21
-0.2202379556547385
 31
0.0
  0
LINE
  5
F7
330
2
100
AcDbEntity
  8
GAIKEI
  6
Continuous
 62
     1
100
AcDbLine
 10
-21.34409258406868
 20
-0.1291002556547482
 30
0.0
 11
-12.4441901840687
 21
-0.1291002556547482
 31
0.0
  0
LINE
  5
F8
330
2
100
AcDbEntity
  8
GAIKEI
  6
Continuous
 62
     1
100
AcDbLine
 10
-21.34409258406868
 20
-0.1291002556547482
 30
0.0
 11
-21.38053058406831
 21
-0.2202379556547385
 31
0.0
  0
LINE
  5
F9
330
2
100
AcDbEntity
  8
GAIKEI
  6
Continuous
 62
     7
100
AcDbLine
 10
-47.84414138406828
 20
37.93660404434536
 30
0.0
 11
-47.84414138406828
 21
37.92129034434515
 31
0.0
  0
LINE
  5
FA
330
2
100
AcDbEntity
  8
GAIKEI
  6
Continuous
 62
     1
100
AcDbLine
 10
-50.14366528406845
 20
-6.315178155654621
 30
0.0
 11
-50.10068438406825
 21
-6.27220335565471
 31
0.0
  0
LINE
  5
FB
330
2
100
AcDbEntity
  8
GAIKEI
  6
Continuous
 62
     7
100
AcDbLine
 10
-50.14366528406845
 20
37.98481874434515
 30
0.0
 11
-50.07934648406854
 21
37.92050904434518
 31
0.0
  0
LINE
  5
FC
330
2
100
AcDbEntity
  8
GAIKEI
  6
Continuous
 62
     7
100
AcDbLine
 10
-9.544141384068552
 20
37.93660404434536
 30
0.0
 11
-9.544141384068552
 21
37.92129034434515
 31
0.0
  0
LINE
  5
FD
330
2
100
AcDbEntity
  8
GAIKEI
  6
Continuous
 62
     7
100
AcDbLine
 10
-7.244617484068385
 20
37.98481874434515
 30
0.0
 11
-7.308936284068295
 21
37.92050904434518
 31
0.0
  0
LINE
  5
FE
330
2
100
AcDbEntity
  8
GAIKEI
  6
Continuous
 62
     1
100
AcDbLine
 10
-7.244617484068385
 20
-6.315178155654621
 30
0.0
 11
-7.287598384068587
 21
-6.27220335565471
 31
0.0
  0
LINE
  5
FF
330
2
100
AcDbEntity
  8
GAIKEI
  6
Continuous
 62
     7
100
AcDbLine
 10
-8.727222484068533
 20
37.90016304434516
 30
0.0
 11
-9.24414138406837
 21
37.90016304434516
 31
0.0
  0
LINE
  5
100
330
2
100
AcDbEntity
  8
GAIKEI
  6
Continuous
 62
     7
100
AcDbLine
 10
-7.618567684068239
 20
37.90016304434516
 30
0.0
 11
-7.861060384068423
 21
37.90016304434516
 31
0.0
  0
LINE
  5
101
330
2
100
AcDbEntity
  8
GAIKEI
  6
Continuous
 62
     7
100
AcDbLine
 10
-49.52722248406871
 20
37.90016304434516
 30
0.0
 11
-49.76971508406859
 21
37.90016304434516
 31
0.0
  0
LINE
  5
102
330
2
100
AcDbEntity
  8
GAIKEI
  6
Continuous
 62
     7
100
AcDbLine
 10
-48.14414138406846
 20
37.90016304434516
 30
0.0
 11
-48.66106038406861
 21
37.90016304434516
 31
0.0
  0
LINE
  5
103
330
2
100
AcDbEntity
  8
GAIKEI
  6
Continuous
 62
     1
100
AcDbLine
 10
-47.88880688406834
 20
-6.27220335565471
 30
0.0
 11
-48.30522538406831
 21
-6.27220335565471
 31
0.0
  0
LINE
  5
104
330
2
100
AcDbEntity
  8
GAIKEI
  6
Continuous
 62
     1
100
AcDbLine
 10
-49.88305738406825
 20
-6.27220335565471
 30
0.0
 11
-50.10068438406825
 21
-6.27220335565471
 31
0.0
  0
LINE
  5
105
330
2
100
AcDbEntity
  8
GAIKEI
  6
Continuous
 62
     1
100
AcDbLine
 10
-11.88880688406834
 20
-6.27220335565471
 30
0.0
 11
-45.49947588406848
 21
-6.27220335565471
 31
0.0
  0
LINE
  5
106
330
2
100
AcDbEntity
  8
GAIKEI
  6
Continuous
 62
     1
100
AcDbLine
 10
-7.287598384068587
 20
-6.27220335565471
 30
0.0
 11
-7.50522538406858
 21
-6.27220335565471
 31
0.0
  0
LINE
  5
107
330
2
100
AcDbEntity
  8
GAIKEI
  6
Continuous
 62
     1
100
AcDbLine
 10
-9.083057384068524
 20
-6.27220335565471
 30
0.0
 11
-9.499475884068488
 21
-6.27220335565471
 31
0.0
  0
LINE
  5
108
330
2
100
AcDbEntity
  8
GAIKEI
  6
Continuous
 62
     1
100
AcDbLine
 10
-11.71868978406837
 20
-6.196989655654761
 30
0.0
 11
-11.78894118406833
 21
-6.267241155654801
 31
0.0
  0
LINE
  5
109
330
2
100
AcDbEntity
  8
GAIKEI
  6
Continuous
 62
     1
100
AcDbLine
 10
-9.66959308406831
 20
-6.196989655654761
 30
0.0
 11
-9.599341584068497
 21
-6.267241155654801
 31
0.0
  0
LINE
  5
10A
330
2
100
AcDbEntity
  8
GAIKEI
  6
Continuous
 62
     1
100
AcDbLine
 10
-9.769458784068319
 20
-6.192021455654639
 30
0.0
 11
-11.61882398406851
 21
-6.192021455654639
 31
0.0
  0
LINE
  5
10B
330
2
100
AcDbEntity
  8
GAIKEI
  6
Continuous
 62
     1
100
AcDbLine
 10
-8.983203884068188
 20
-6.267241155654801
 30
0.0
 11
-8.949109684068389
 21
-6.233153055654611
 31
0.0
  0
LINE
  5
10C
330
2
100
AcDbEntity
  8
GAIKEI
  6
Continuous
 62
     1
100
AcDbLine
 10
-7.605078884068461
 20
-6.267241155654801
 30
0.0
 11
-7.639173184068113
 21
-6.233153055654611
 31
0.0
  0
LINE
  5
10D
330
2
100
AcDbEntity
  8
GAIKEI
  6
Continuous
 62
     1
100
AcDbLine
 10
-8.84924398406838
 20
-6.228184755654638
 30
0.0
 11
-7.739038884068577
 21
-6.228184755654638
 31
0.0
  0
LINE
  5
10E
330
2
100
AcDbEntity
  8
GAIKEI
  6
Continuous
 62
     1
100
AcDbLine
 10
-45.66959308406831
 20
-6.196989655654761
 30
0.0
 11
-45.59934158406849
 21
-6.267241155654801
 31
0.0
  0
LINE
  5
10F
330
2
100
AcDbEntity
  8
GAIKEI
  6
Continuous
 62
     1
100
AcDbLine
 10
-47.71868978406837
 20
-6.196989655654761
 30
0.0
 11
-47.78894118406833
 21
-6.267241155654801
 31
0.0
  0
LINE
  5
110
330
2
100
AcDbEntity
  8
GAIKEI
  6
Continuous
 62
     1
100
AcDbLine
 10
-45.76945878406831
 20
-6.192021455654639
 30
0.0
 11
-47.61882398406851
 21
-6.192021455654639
 31
0.0
  0
LINE
  5
111
330
2
100
AcDbEntity
  8
GAIKEI
  6
Continuous
 62
     1
100
AcDbLine
 10
-49.78320388406837
 20
-6.267241155654801
 30
0.0
 11
-49.74910968406857
 21
-6.233153055654611
 31
0.0
  0
LINE
  5
112
330
2
100
AcDbEntity
  8
GAIKEI
  6
Continuous
 62
     1
100
AcDbLine
 10
-49.64924398406811
 20
-6.228184755654638
 30
0.0
 11
-48.5390388840683
 21
-6.228184755654638
 31
0.0
  0
LINE
  5
113
330
2
100
AcDbEntity
  8
GAIKEI
  6
Continuous
 62
     1
100
AcDbLine
 10
-48.40507888406818
 20
-6.267241155654801
 30
0.0
 11
-48.4391731840683
 21
-6.233153055654611
 31
0.0
  0
LINE
  5
114
330
2
100
AcDbEntity
  8
GAIKEI
  6
Continuous
 62
     7
100
AcDbLine
 10
-48.66106038406861
 20
37.90016304434516
 30
0.0
 11
-48.69603348406826
 21
37.86590094434519
 31
0.0
  0
LINE
  5
115
330
2
100
AcDbEntity
  8
GAIKEI
  6
Continuous
 62
     7
100
AcDbLine
 10
-49.49224928406829
 20
37.86590094434519
 30
0.0
 11
-49.52722248406871
 21
37.90016304434516
 31
0.0
  0
LINE
  5
116
330
2
100
AcDbEntity
  8
GAIKEI
  6
Continuous
 62
     7
100
AcDbLine
 10
-48.79597248406844
 20
37.86094184434523
 30
0.0
 11
-49.39231038406842
 21
37.86094184434523
 31
0.0
  0
LINE
  5
117
330
2
100
AcDbEntity
  8
GAIKEI
  6
Continuous
 62
     7
100
AcDbLine
 10
-8.727222484068533
 20
37.90016304434516
 30
0.0
 11
-8.692249284068111
 21
37.86590094434519
 31
0.0
  0
LINE
  5
118
330
2
100
AcDbEntity
  8
GAIKEI
  6
Continuous
 62
     7
100
AcDbLine
 10
-7.896033484068539
 20
37.86590094434519
 30
0.0
 11
-7.861060384068423
 21
37.90016304434516
 31
0.0
  0
LINE
  5
119
330
2
100
AcDbEntity
  8
GAIKEI
  6
Continuous
 62
     7
100
AcDbLine
 10
-7.995972484068715
 20
37.86094184434523
 30
0.0
 11
-8.592310384068241
 21
37.86094184434523
 31
0.0
  0
LINE
  5
11A
330
2
100
AcDbEntity
  8
GAIKEI
  6
Continuous
 62
     1
100
AcDbLine
 10
-8.229138984068413
 20
-4.400181855654636
 30
0.0
 11
-7.89946368406845
 21
-4.400181855654636
 31
0.0
  0
LINE
  5
11B
330
2
100
AcDbEntity
  8
GAIKEI
  6
Continuous
 62
     1
100
AcDbLine
 10
-8.229138984068413
 20
-4.070494355654773
 30
0.0
 11
-8.229138984068413
 21
-4.400181855654636
 31
0.0
  0
LINE
  5
11C
330
2
100
AcDbEntity
  8
GAIKEI
  6
Continuous
 62
     1
100
AcDbLine
 10
-8.229138984068413
 20
-4.530180655654703
 30
0.0
 11
-8.229138984068413
 21
-4.85986205565473
 31
0.0
  0
LINE
  5
11D
330
2
100
AcDbEntity
  8
GAIKEI
  6
Continuous
 62
     1
100
AcDbLine
 10
-7.89946368406845
 20
-4.530180655654703
 30
0.0
 11
-8.229138984068413
 21
-4.530180655654703
 31
0.0
  0
LINE
  5
11E
330
2
100
AcDbEntity
  8
GAIKEI
  6
Continuous
 62
     1
100
AcDbLine
 10
-8.359143884068544
 20
-4.530180655654703
 30
0.0
 11
-8.6888190840682
 21
-4.530180655654703
 31
0.0
  0
LINE
  5
11F
330
2
100
AcDbEntity
  8
GAIKEI
  6
Continuous
 62
     1
100
AcDbLine
 10
-8.359143884068544
 20
-4.85986205565473
 30
0.0
 11
-8.359143884068544
 21
-4.530180655654703
 31
0.0
  0
LINE
  5
120
330
2
100
AcDbEntity
  8
GAIKEI
  6
Continuous
 62
     1
100
AcDbLine
 10
-8.359143884068544
 20
-4.400181855654636
 30
0.0
 11
-8.359143884068544
 21
-4.070494355654773
 31
0.0
  0
LINE
  5
121
330
2
100
AcDbEntity
  8
GAIKEI
  6
Continuous
 62
     1
100
AcDbLine
 10
-8.6888190840682
 20
-4.400181855654636
 30
0.0
 11
-8.359143884068544
 21
-4.400181855654636
 31
0.0
  0
LINE
  5
122
330
2
100
AcDbEntity
  8
GAIKEI
  6
Continuous
 62
     1
100
AcDbLine
 10
-8.789893384068363
 20
-4.400181855654636
 30
0.0
 11
-8.739417284068622
 21
-4.400181855654636
 31
0.0
  0
LINE
  5
123
330
2
100
AcDbEntity
  8
GAIKEI
  6
Continuous
 62
     1
100
AcDbLine
 10
-8.359143884068544
 20
-3.969420155654688
 30
0.0
 11
-8.359143884068544
 21
-4.019896155654805
 31
0.0
  0
LINE
  5
124
330
2
100
AcDbEntity
  8
GAIKEI
  6
Continuous
 62
     1
100
AcDbLine
 10
-8.359143884068544
 20
-4.960936255654814
 30
0.0
 11
-8.359143884068544
 21
-4.910460155654845
 31
0.0
  0
LINE
  5
125
330
2
100
AcDbEntity
  8
GAIKEI
  6
Continuous
 62
     1
100
AcDbLine
 10
-8.789893384068363
 20
-4.530180655654703
 30
0.0
 11
-8.739417284068622
 21
-4.530180655654703
 31
0.0
  0
LINE
  5
126
330
2
100
AcDbEntity
  8
GAIKEI
  6
Continuous
 62
     1
100
AcDbLine
 10
-7.798389484068593
 20
-4.530180655654703
 30
0.0
 11
-7.848865484068483
 21
-4.530180655654703
 31
0.0
  0
LINE
  5
127
330
2
100
AcDbEntity
  8
GAIKEI
  6
Continuous
 62
     1
100
AcDbLine
 10
-8.229138984068413
 20
-4.960936255654814
 30
0.0
 11
-8.229138984068413
 21
-4.910460155654845
 31
0.0
  0
LINE
  5
128
330
2
100
AcDbEntity
  8
GAIKEI
  6
Continuous
 62
     1
100
AcDbLine
 10
-8.229138984068413
 20
-3.969420155654688
 30
0.0
 11
-8.229138984068413
 21
-4.019896155654805
 31
0.0
  0
LINE
  5
129
330
2
100
AcDbEntity
  8
GAIKEI
  6
Continuous
 62
     1
100
AcDbLine
 10
-7.798389484068593
 20
-4.400181855654636
 30
0.0
 11
-7.848865484068483
 21
-4.400181855654636
 31
0.0
  0
LINE
  5
12A
330
2
100
AcDbEntity
  8
GAIKEI
  6
Continuous
 62
     1
100
AcDbLine
 10
-8.229138984068413
 20
-4.070494355654773
 30
0.0
 11
-8.229138984068413
 21
-4.019896155654805
 31
0.0
  0
LINE
  5
12B
330
2
100
AcDbEntity
  8
GAIKEI
  6
Continuous
 62
     1
100
AcDbLine
 10
-7.89946368406845
 20
-4.400181855654636
 30
0.0
 11
-7.848865484068483
 21
-4.400181855654636
 31
0.0
  0
LINE
  5
12C
330
2
100
AcDbEntity
  8
GAIKEI
  6
Continuous
 62
     1
100
AcDbLine
 10
-8.359143884068544
 20
-4.070494355654773
 30
0.0
 11
-8.359143884068544
 21
-4.019896155654805
 31
0.0
  0
LINE
  5
12D
330
2
100
AcDbEntity
  8
GAIKEI
  6
Continuous
 62
     1
100
AcDbLine
 10
-7.89946368406845
 20
-4.530180655654703
 30
0.0
 11
-7.848865484068483
 21
-4.530180655654703
 31
0.0
  0
LINE
  5
12E
330
2
100
AcDbEntity
  8
GAIKEI
  6
Continuous
 62
     1
100
AcDbLine
 10
-8.359143884068544
 20
-4.910460155654845
 30
0.0
 11
-8.359143884068544
 21
-4.85986205565473
 31
0.0
  0
LINE
  5
12F
330
2
100
AcDbEntity
  8
GAIKEI
  6
Continuous
 62
     1
100
AcDbLine
 10
-8.739417284068622
 20
-4.530180655654703
 30
0.0
 11
-8.6888190840682
 21
-4.530180655654703
 31
0.0
  0
LINE
  5
130
330
2
100
AcDbEntity
  8
GAIKEI
  6
Continuous
 62
     1
100
AcDbLine
 10
-8.229138984068413
 20
-4.910460155654845
 30
0.0
 11
-8.229138984068413
 21
-4.85986205565473
 31
0.0
  0
LINE
  5
131
330
2
100
AcDbEntity
  8
GAIKEI
  6
Continuous
 62
     1
100
AcDbLine
 10
-8.739417284068622
 20
-4.400181855654636
 30
0.0
 11
-8.6888190840682
 21
-4.400181855654636
 31
0.0
  0
LINE
  5
132
330
2
100
AcDbEntity
  8
GAIKEI
  6
Continuous
 62
     7
100
AcDbLine
 10
-6.794141384068552
 20
-6.115452855654666
 30
0.0
 11
-6.794141384068552
 21
-6.093913555654808
 31
0.0
  0
LINE
  5
133
330
2
100
AcDbEntity
  8
GAIKEI
  6
Continuous
 62
     7
100
AcDbLine
 10
2.505858615931629
 20
-6.115452855654666
 30
0.0
 11
2.505858615931629
 21
37.7850934443452
 31
0.0
  0
LINE
  5
134
330
2
100
AcDbEntity
  8
GAIKEI
  6
Continuous
 62
     7
100
AcDbLine
 10
-6.794141384068552
 20
37.76355104434538
 30
0.0
 11
-6.794141384068552
 21
37.7850934443452
 31
0.0
  0
LINE
  5
135
330
2
100
AcDbEntity
  8
GAIKEI
  6
Continuous
 62
     7
100
AcDbLine
 10
-6.804627284068374
 20
-6.093913555654808
 30
0.0
 11
-6.794141384068552
 21
-6.093913555654808
 31
0.0
  0
LINE
  5
136
330
2
100
AcDbEntity
  8
GAIKEI
  6
Continuous
 62
     7
100
AcDbLine
 10
-6.804627284068374
 20
37.76355104434538
 30
0.0
 11
-6.794141384068552
 21
37.76355104434538
 31
0.0
  0
LINE
  5
137
330
2
100
AcDbEntity
  8
GAIKEI
  6
Continuous
 62
     7
100
AcDbLine
 10
-6.804627284068374
 20
-6.093913555654808
 30
0.0
 11
-6.804627284068374
 21
37.76355104434538
 31
0.0
  0
LINE
  5
138
330
2
100
AcDbEntity
  8
GAIKEI
  6
Continuous
 62
     7
100
AcDbLine
 10
22.89893395764193
 20
-6.183610755654626
 30
0.0
 11
25.50940755764214
 21
-6.320418895887883
 31
0.0
  0
LINE
  5
139
330
2
100
AcDbEntity
  8
GAIKEI
  6
Continuous
 62
     1
100
AcDbLine
 10
25.40940755764177
 20
-6.315178155654621
 30
0.0
 11
25.40940755764177
 21
-6.309929155654799
 31
0.0
  0
LINE
  5
13A
330
2
100
AcDbEntity
  8
GAIKEI
  6
Continuous
 62
     1
100
AcDbLine
 10
22.76851405764182
 20
-2.341301255654798
 30
0.0
 11
21.37993975764221
 21
-0.0120836556548056
 31
0.0
  0
LINE
  5
13B
330
2
100
AcDbEntity
  8
GAIKEI
  6
Continuous
 62
     1
100
AcDbLine
 10
22.79617515764221
 20
27.19329354434535
 30
0.0
 11
22.84029135764194
 21
27.42118654434535
 31
0.0
  0
LINE
  5
13C
330
2
100
AcDbEntity
  8
GAIKEI
  6
Continuous
 62
     7
100
AcDbLine
 10
22.89893395764193
 20
37.85325134434538
 30
0.0
 11
25.50940755764214
 21
37.99005948457841
 31
0.0
  0
LINE
  5
13D
330
2
100
AcDbEntity
  8
GAIKEI
  6
Continuous
 62
     7
100
AcDbLine
 10
22.70940755764195
 20
-2.615178155654803
 30
0.0
 11
21.21861165764221
 21
-0.1144945556548009
 31
0.0
  0
LINE
  5
13E
330
2
100
AcDbEntity
  8
GAIKEI
  6
Continuous
 62
     7
100
AcDbLine
 10
22.70940755764195
 20
-5.931920155654779
 30
0.0
 11
22.70940755764195
 21
-2.615172055654738
 31
0.0
  0
LINE
  5
13F
330
2
100
AcDbEntity
  8
GAIKEI
  6
Continuous
 62
     7
100
AcDbLine
 10
22.70940755764195
 20
27.48482184434533
 30
0.0
 11
22.70940755764195
 21
37.60235114434522
 31
0.0
  0
LINE
  5
140
330
2
100
AcDbEntity
  8
GAIKEI
  6
Continuous
 62
     7
100
AcDbLine
 10
22.68411455764226
 20
27.48482184434533
 30
0.0
 11
22.77129725764189
 21
27.48482184434533
 31
0.0
  0
LINE
  5
141
330
2
100
AcDbEntity
  8
GAIKEI
  6
Continuous
 62
     1
100
AcDbLine
 10
25.16236165764212
 20
37.97187324434526
 30
0.0
 11
25.04939775764206
 21
38.08481874434529
 31
0.0
  0
LINE
  5
142
330
2
100
AcDbEntity
  8
GAIKEI
  6
Continuous
 62
     1
100
AcDbLine
 10
24.92395835764228
 20
37.95937934434528
 30
0.0
 11
25.04939775764206
 21
38.08481874434529
 31
0.0
  0
LINE
  5
143
330
2
100
AcDbEntity
  8
GAIKEI
  6
Continuous
 62
     7
100
AcDbLine
 10
25.70940755764195
 20
37.98483273934631
 30
0.0
 11
25.70940755764195
 21
-6.315167260653879
 31
0.0
  0
LINE
  5
144
330
2
100
AcDbEntity
  8
GAIKEI
  6
Continuous
 62
     1
100
AcDbLine
 10
25.70940755764195
 20
37.76355104434538
 30
0.0
 11
25.50940755764216
 21
37.76355104434532
 31
0.0
  0
LINE
  5
145
330
2
100
AcDbEntity
  8
GAIKEI
  6
Continuous
 62
     1
100
AcDbLine
 10
25.70940755764195
 20
-6.093913555654808
 30
0.0
 11
25.5388265576421
 21
-6.093913555654808
 31
0.0
  0
LINE
  5
146
330
2
100
AcDbEntity
  8
GAIKEI
  6
Continuous
 62
     1
100
AcDbLine
 10
25.70940755764195
 20
37.76355104434538
 30
0.0
 11
25.70940755764195
 21
37.78352484434527
 31
0.0
  0
LINE
  5
147
330
2
100
AcDbEntity
  8
GAIKEI
  6
Continuous
 62
     1
100
AcDbLine
 10
25.5388265576421
 20
-6.093913555654808
 30
0.0
 11
25.50940755764214
 21
-6.095457755654706
 31
0.0
  0
LINE
  5
148
330
2
100
AcDbEntity
  8
GAIKEI
  6
Continuous
 62
     1
100
AcDbLine
 10
25.5388265576421
 20
37.96327944434529
 30
0.0
 11
25.50940755764214
 21
37.96482064434531
 31
0.0
  0
LINE
  5
149
330
2
100
AcDbEntity
  8
GAIKEI
  6
Continuous
 62
     1
100
AcDbLine
 10
25.5388265576421
 20
-6.293638855654762
 30
0.0
 11
25.50940755764214
 21
-6.295176955654824
 31
0.0
  0
LINE
  5
14A
330
2
100
AcDbEntity
  8
GAIKEI
  6
Continuous
 62
     1
100
AcDbLine
 10
25.50940755764214
 20
-6.320418895887883
 30
0.0
 11
25.50940755764214
 21
-6.115452855654666
 31
0.0
  0
LINE
  5
14B
330
2
100
AcDbEntity
  8
GAIKEI
  6
Continuous
 62
     1
100
AcDbLine
 10
25.50940755764214
 20
-6.115452855654666
 30
0.0
 11
25.50940755764214
 21
37.99005948457841
 31
0.0
  0
LINE
  5
14C
330
2
100
AcDbEntity
  8
GAIKEI
  6
Continuous
 62
     1
100
AcDbLine
 10
25.50940755764214
 20
-6.115452855654666
 30
0.0
 11
22.7567952576419
 21
-5.971196255654604
 31
0.0
  0
LINE
  5
14D
330
2
100
AcDbEntity
  8
GAIKEI
  6
Continuous
 62
     1
100
AcDbLine
 10
25.50940755764214
 20
37.7850934443452
 30
0.0
 11
22.7567952576419
 21
37.64083684434536
 31
0.0
  0
LINE
  5
14E
330
2
100
AcDbEntity
  8
GAIKEI
  6
Continuous
 62
     1
100
AcDbLine
 10
22.7567952576419
 20
-5.971196255654604
 30
0.0
 11
22.70940755764195
 21
-5.971196255654604
 31
0.0
  0
LINE
  5
14F
330
2
100
AcDbEntity
  8
GAIKEI
  6
Continuous
 62
     1
100
AcDbLine
 10
22.70940755764195
 20
-5.932719655654636
 30
0.0
 11
22.70940755764192
 21
-5.983885455654672
 31
0.0
  0
LINE
  5
150
330
2
100
AcDbEntity
  8
GAIKEI
  6
Continuous
 62
     1
100
AcDbLine
 10
22.72036945764194
 20
-5.901487955654602
 30
0.0
 11
22.88443195764194
 21
-5.696415955654629
 31
0.0
  0
LINE
  5
151
330
2
100
AcDbEntity
  8
GAIKEI
  6
Continuous
 62
     1
100
AcDbLine
 10
22.88443195764194
 20
-5.633946455654722
 30
0.0
 11
22.73438315764179
 21
-5.446415955654629
 31
0.0
  0
LINE
  5
152
330
2
100
AcDbEntity
  8
GAIKEI
  6
Continuous
 62
     1
100
AcDbLine
 10
22.73438315764179
 20
-5.383946455654722
 30
0.0
 11
22.88443195764194
 21
-5.196415955654629
 31
0.0
  0
LINE
  5
153
330
2
100
AcDbEntity
  8
GAIKEI
  6
Continuous
 62
     1
100
AcDbLine
 10
22.88443195764194
 20
-5.133946455654722
 30
0.0
 11
22.73438315764179
 21
-4.946415955654629
 31
0.0
  0
LINE
  5
154
330
2
100
AcDbEntity
  8
GAIKEI
  6
Continuous
 62
     1
100
AcDbLine
 10
22.73438315764179
 20
-4.883946455654722
 30
0.0
 11
22.88443195764194
 21
-4.696415955654629
 31
0.0
  0
LINE
  5
155
330
2
100
AcDbEntity
  8
GAIKEI
  6
Continuous
 62
     1
100
AcDbLine
 10
22.88443195764194
 20
-4.633946455654722
 30
0.0
 11
22.73438315764179
 21
-4.446415955654629
 31
0.0
  0
LINE
  5
156
330
2
100
AcDbEntity
  8
GAIKEI
  6
Continuous
 62
     1
100
AcDbLine
 10
22.73438315764179
 20
-4.383946455654722
 30
0.0
 11
22.88443195764194
 21
-4.196415955654629
 31
0.0
  0
LINE
  5
157
330
2
100
AcDbEntity
  8
GAIKEI
  6
Continuous
 62
     1
100
AcDbLine
 10
22.88443195764194
 20
-4.133946455654722
 30
0.0
 11
22.73438315764179
 21
-3.946415955654629
 31
0.0
  0
LINE
  5
158
330
2
100
AcDbEntity
  8
GAIKEI
  6
Continuous
 62
     1
100
AcDbLine
 10
22.73438315764179
 20
-3.883946455654722
 30
0.0
 11
22.88443195764194
 21
-3.696415955654629
 31
0.0
  0
LINE
  5
159
330
2
100
AcDbEntity
  8
GAIKEI
  6
Continuous
 62
     1
100
AcDbLine
 10
22.88443195764194
 20
-3.633946455654722
 30
0.0
 11
22.73438315764179
 21
-3.446415955654629
 31
0.0
  0
LINE
  5
15A
330
2
100
AcDbEntity
  8
GAIKEI
  6
Continuous
 62
     1
100
AcDbLine
 10
22.73438315764179
 20
-3.383946455654722
 30
0.0
 11
22.88443195764194
 21
-3.196415955654629
 31
0.0
  0
LINE
  5
15B
330
2
100
AcDbEntity
  8
GAIKEI
  6
Continuous
 62
     1
100
AcDbLine
 10
22.88443195764194
 20
-3.133946455654722
 30
0.0
 11
22.73438315764179
 21
-2.946415955654629
 31
0.0
  0
LINE
  5
15C
330
2
100
AcDbEntity
  8
GAIKEI
  6
Continuous
 62
     1
100
AcDbLine
 10
22.88443195764194
 20
-2.696415955654629
 30
0.0
 11
22.73438315764179
 21
-2.883946455654722
 31
0.0
  0
LINE
  5
15D
330
2
100
AcDbEntity
  8
GAIKEI
  6
Continuous
 62
     1
100
AcDbLine
 10
22.73438315764179
 20
-2.446415955654629
 30
0.0
 11
22.88443195764194
 21
-2.633946455654722
 31
0.0
  0
LINE
  5
15E
330
2
100
AcDbEntity
  8
GAIKEI
  6
Continuous
 62
     1
100
AcDbLine
 10
22.88443195764194
 20
-2.196415955654629
 30
0.0
 11
22.73438315764179
 21
-2.383946455654722
 31
0.0
  0
LINE
  5
15F
330
2
100
AcDbEntity
  8
GAIKEI
  6
Continuous
 62
     1
100
AcDbLine
 10
22.73438315764179
 20
-1.946415955654629
 30
0.0
 11
22.88443195764194
 21
-2.133946455654722
 31
0.0
  0
LINE
  5
160
330
2
100
AcDbEntity
  8
GAIKEI
  6
Continuous
 62
     1
100
AcDbLine
 10
22.88443195764194
 20
-1.696415955654629
 30
0.0
 11
22.73438315764179
 21
-1.883946455654722
 31
0.0
  0
LINE
  5
161
330
2
100
AcDbEntity
  8
GAIKEI
  6
Continuous
 62
     1
100
AcDbLine
 10
22.73438315764179
 20
-1.446415955654629
 30
0.0
 11
22.88443195764194
 21
-1.633946455654722
 31
0.0
  0
LINE
  5
162
330
2
100
AcDbEntity
  8
GAIKEI
  6
Continuous
 62
     1
100
AcDbLine
 10
22.88443195764194
 20
-1.196415955654629
 30
0.0
 11
22.73438315764179
 21
-1.383946455654722
 31
0.0
  0
LINE
  5
163
330
2
100
AcDbEntity
  8
GAIKEI
  6
Continuous
 62
     1
100
AcDbLine
 10
22.73438315764179
 20
-0.9464159556546292
 30
0.0
 11
22.88443195764194
 21
-1.133946455654722
 31
0.0
  0
LINE
  5
164
330
2
100
AcDbEntity
  8
GAIKEI
  6
Continuous
 62
     1
100
AcDbLine
 10
22.88443195764194
 20
-0.6964159556546293
 30
0.0
 11
22.73438315764179
 21
-0.8839464556547227
 31
0.0
  0
LINE
  5
165
330
2
100
AcDbEntity
  8
GAIKEI
  6
Continuous
 62
     1
100
AcDbLine
 10
22.73438315764179
 20
-0.4464159556546293
 30
0.0
 11
22.88443195764194
 21
-0.6339464556547228
 31
0.0
  0
LINE
  5
166
330
2
100
AcDbEntity
  8
GAIKEI
  6
Continuous
 62
     1
100
AcDbLine
 10
22.88443195764194
 20
-0.1964159556546292
 30
0.0
 11
22.73438315764179
 21
-0.3839464556547227
 31
0.0
  0
LINE
  5
167
330
2
100
AcDbEntity
  8
GAIKEI
  6
Continuous
 62
     1
100
AcDbLine
 10
22.73438315764179
 20
0.0535840443453708
 30
0.0
 11
22.88443195764194
 21
-0.1339464556547227
 31
0.0
  0
LINE
  5
168
330
2
100
AcDbEntity
  8
GAIKEI
  6
Continuous
 62
     1
100
AcDbLine
 10
22.88443195764194
 20
0.3035840443453708
 30
0.0
 11
22.73438315764179
 21
0.1160535443452773
 31
0.0
  0
LINE
  5
169
330
2
100
AcDbEntity
  8
GAIKEI
  6
Continuous
 62
     1
100
AcDbLine
 10
22.73438315764179
 20
0.5535840443453708
 30
0.0
 11
22.88443195764194
 21
0.3660535443452773
 31
0.0
  0
LINE
  5
16A
330
2
100
AcDbEntity
  8
GAIKEI
  6
Continuous
 62
     1
100
AcDbLine
 10
22.88443195764194
 20
0.8035840443453707
 30
0.0
 11
22.73438315764179
 21
0.6160535443452773
 31
0.0
  0
LINE
  5
16B
330
2
100
AcDbEntity
  8
GAIKEI
  6
Continuous
 62
     1
100
AcDbLine
 10
22.73438315764179
 20
1.05358404434537
 30
0.0
 11
22.88443195764194
 21
0.8660535443452772
 31
0.0
  0
LINE
  5
16C
330
2
100
AcDbEntity
  8
GAIKEI
  6
Continuous
 62
     1
100
AcDbLine
 10
22.88443195764194
 20
1.30358404434537
 30
0.0
 11
22.73438315764179
 21
1.116053544345277
 31
0.0
  0
LINE
  5
16D
330
2
100
AcDbEntity
  8
GAIKEI
  6
Continuous
 62
     1
100
AcDbLine
 10
22.73438315764179
 20
1.55358404434537
 30
0.0
 11
22.88443195764194
 21
1.366053544345277
 31
0.0
  0
LINE
  5
16E
330
2
100
AcDbEntity
  8
GAIKEI
  6
Continuous
 62
     1
100
AcDbLine
 10
22.88443195764194
 20
1.80358404434537
 30
0.0
 11
22.73438315764179
 21
1.616053544345277
 31
0.0
  0
LINE
  5
16F
330
2
100
AcDbEntity
  8
GAIKEI
  6
Continuous
 62
     1
100
AcDbLine
 10
22.73438315764179
 20
2.05358404434537
 30
0.0
 11
22.88443195764194
 21
1.866053544345277
 31
0.0
  0
LINE
  5
170
330
2
100
AcDbEntity
  8
GAIKEI
  6
Continuous
 62
     1
100
AcDbLine
 10
22.88443195764194
 20
2.30358404434537
 30
0.0
 11
22.73438315764179
 21
2.116053544345277
 31
0.0
  0
LINE
  5
171
330
2
100
AcDbEntity
  8
GAIKEI
  6
Continuous
 62
     1
100
AcDbLine
 10
22.73438315764179
 20
2.55358404434537
 30
0.0
 11
22.88443195764194
 21
2.366053544345277
 31
0.0
  0
LINE
  5
172
330
2
100
AcDbEntity
  8
GAIKEI
  6
Continuous
 62
     1
100
AcDbLine
 10
22.88443195764194
 20
2.80358404434537
 30
0.0
 11
22.73438315764179
 21
2.616053544345277
 31
0.0
  0
LINE
  5
173
330
2
100
AcDbEntity
  8
GAIKEI
  6
Continuous
 62
     1
100
AcDbLine
 10
22.73438315764179
 20
3.05358404434537
 30
0.0
 11
22.88443195764194
 21
2.866053544345277
 31
0.0
  0
LINE
  5
174
330
2
100
AcDbEntity
  8
GAIKEI
  6
Continuous
 62
     1
100
AcDbLine
 10
22.88443195764194
 20
3.30358404434537
 30
0.0
 11
22.73438315764179
 21
3.116053544345277
 31
0.0
  0
LINE
  5
175
330
2
100
AcDbEntity
  8
GAIKEI
  6
Continuous
 62
     1
100
AcDbLine
 10
22.73438315764179
 20
3.55358404434537
 30
0.0
 11
22.88443195764194
 21
3.366053544345277
 31
0.0
  0
LINE
  5
176
330
2
100
AcDbEntity
  8
GAIKEI
  6
Continuous
 62
     1
100
AcDbLine
 10
22.88443195764194
 20
3.80358404434537
 30
0.0
 11
22.73438315764179
 21
3.616053544345277
 31
0.0
  0
LINE
  5
177
330
2
100
AcDbEntity
  8
GAIKEI
  6
Continuous
 62
     1
100
AcDbLine
 10
22.73438315764179
 20
4.05358404434537
 30
0.0
 11
22.88443195764194
 21
3.866053544345277
 31
0.0
  0
LINE
  5
178
330
2
100
AcDbEntity
  8
GAIKEI
  6
Continuous
 62
     1
100
AcDbLine
 10
22.88443195764194
 20
4.30358404434537
 30
0.0
 11
22.73438315764179
 21
4.116053544345277
 31
0.0
  0
LINE
  5
179
330
2
100
AcDbEntity
  8
GAIKEI
  6
Continuous
 62
     1
100
AcDbLine
 10
22.73438315764179
 20
4.55358404434537
 30
0.0
 11
22.88443195764194
 21
4.366053544345277
 31
0.0
  0
LINE
  5
17A
330
2
100
AcDbEntity
  8
GAIKEI
  6
Continuous
 62
     1
100
AcDbLine
 10
22.88443195764194
 20
4.80358404434537
 30
0.0
 11
22.73438315764179
 21
4.616053544345277
 31
0.0
  0
LINE
  5
17B
330
2
100
AcDbEntity
  8
GAIKEI
  6
Continuous
 62
     1
100
AcDbLine
 10
22.73438315764179
 20
5.05358404434537
 30
0.0
 11
22.88443195764194
 21
4.866053544345277
 31
0.0
  0
LINE
  5
17C
330
2
100
AcDbEntity
  8
GAIKEI
  6
Continuous
 62
     1
100
AcDbLine
 10
22.88443195764194
 20
5.30358404434537
 30
0.0
 11
22.73438315764179
 21
5.116053544345277
 31
0.0
  0
LINE
  5
17D
330
2
100
AcDbEntity
  8
GAIKEI
  6
Continuous
 62
     1
100
AcDbLine
 10
22.73438315764179
 20
5.55358404434537
 30
0.0
 11
22.88443195764194
 21
5.366053544345277
 31
0.0
  0
LINE
  5
17E
330
2
100
AcDbEntity
  8
GAIKEI
  6
Continuous
 62
     1
100
AcDbLine
 10
22.88443195764194
 20
5.80358404434537
 30
0.0
 11
22.73438315764179
 21
5.616053544345277
 31
0.0
  0
LINE
  5
17F
330
2
100
AcDbEntity
  8
GAIKEI
  6
Continuous
 62
     1
100
AcDbLine
 10
22.73438315764179
 20
6.05358404434537
 30
0.0
 11
22.88443195764194
 21
5.866053544345277
 31
0.0
  0
LINE
  5
180
330
2
100
AcDbEntity
  8
GAIKEI
  6
Continuous
 62
     1
100
AcDbLine
 10
22.88443195764194
 20
6.30358404434537
 30
0.0
 11
22.73438315764179
 21
6.116053544345277
 31
0.0
  0
LINE
  5
181
330
2
100
AcDbEntity
  8
GAIKEI
  6
Continuous
 62
     1
100
AcDbLine
 10
22.73438315764179
 20
6.55358404434537
 30
0.0
 11
22.88443195764194
 21
6.366053544345277
 31
0.0
  0
LINE
  5
182
330
2
100
AcDbEntity
  8
GAIKEI
  6
Continuous
 62
     1
100
AcDbLine
 10
22.88443195764194
 20
6.80358404434537
 30
0.0
 11
22.73438315764179
 21
6.616053544345277
 31
0.0
  0
LINE
  5
183
330
2
100
AcDbEntity
  8
GAIKEI
  6
Continuous
 62
     1
100
AcDbLine
 10
22.73438315764179
 20
7.05358404434537
 30
0.0
 11
22.88443195764194
 21
6.866053544345277
 31
0.0
  0
LINE
  5
184
330
2
100
AcDbEntity
  8
GAIKEI
  6
Continuous
 62
     1
100
AcDbLine
 10
22.88443195764194
 20
7.30358404434537
 30
0.0
 11
22.73438315764179
 21
7.116053544345277
 31
0.0
  0
LINE
  5
185
330
2
100
AcDbEntity
  8
GAIKEI
  6
Continuous
 62
     1
100
AcDbLine
 10
22.73438315764179
 20
7.55358404434537
 30
0.0
 11
22.88443195764194
 21
7.366053544345277
 31
0.0
  0
LINE
  5
186
330
2
100
AcDbEntity
  8
GAIKEI
  6
Continuous
 62
     1
100
AcDbLine
 10
22.88443195764194
 20
7.80358404434537
 30
0.0
 11
22.73438315764179
 21
7.616053544345277
 31
0.0
  0
LINE
  5
187
330
2
100
AcDbEntity
  8
GAIKEI
  6
Continuous
 62
     1
100
AcDbLine
 10
22.73438315764179
 20
8.05358404434537
 30
0.0
 11
22.88443195764194
 21
7.866053544345277
 31
0.0
  0
LINE
  5
188
330
2
100
AcDbEntity
  8
GAIKEI
  6
Continuous
 62
     1
100
AcDbLine
 10
22.88443195764194
 20
8.30358404434537
 30
0.0
 11
22.73438315764179
 21
8.116053544345277
 31
0.0
  0
LINE
  5
189
330
2
100
AcDbEntity
  8
GAIKEI
  6
Continuous
 62
     1
100
AcDbLine
 10
22.73438315764179
 20
8.55358404434537
 30
0.0
 11
22.88443195764194
 21
8.366053544345277
 31
0.0
  0
LINE
  5
18A
330
2
100
AcDbEntity
  8
GAIKEI
  6
Continuous
 62
     1
100
AcDbLine
 10
22.88443195764194
 20
8.80358404434537
 30
0.0
 11
22.73438315764179
 21
8.616053544345277
 31
0.0
  0
LINE
  5
18B
330
2
100
AcDbEntity
  8
GAIKEI
  6
Continuous
 62
     1
100
AcDbLine
 10
22.73438315764179
 20
9.05358404434537
 30
0.0
 11
22.88443195764194
 21
8.866053544345277
 31
0.0
  0
LINE
  5
18C
330
2
100
AcDbEntity
  8
GAIKEI
  6
Continuous
 62
     1
100
AcDbLine
 10
22.88443195764194
 20
9.30358404434537
 30
0.0
 11
22.73438315764179
 21
9.116053544345277
 31
0.0
  0
LINE
  5
18D
330
2
100
AcDbEntity
  8
GAIKEI
  6
Continuous
 62
     1
100
AcDbLine
 10
22.73438315764179
 20
9.55358404434537
 30
0.0
 11
22.88443195764194
 21
9.366053544345277
 31
0.0
  0
LINE
  5
18E
330
2
100
AcDbEntity
  8
GAIKEI
  6
Continuous
 62
     1
100
AcDbLine
 10
22.88443195764194
 20
9.80358404434537
 30
0.0
 11
22.73438315764179
 21
9.616053544345277
 31
0.0
  0
LINE
  5
18F
330
2
100
AcDbEntity
  8
GAIKEI
  6
Continuous
 62
     1
100
AcDbLine
 10
22.73438315764179
 20
10.05358404434537
 30
0.0
 11
22.88443195764194
 21
9.866053544345277
 31
0.0
  0
LINE
  5
190
330
2
100
AcDbEntity
  8
GAIKEI
  6
Continuous
 62
     1
100
AcDbLine
 10
22.88443195764194
 20
10.30358404434537
 30
0.0
 11
22.73438315764179
 21
10.11605354434528
 31
0.0
  0
LINE
  5
191
330
2
100
AcDbEntity
  8
GAIKEI
  6
Continuous
 62
     1
100
AcDbLine
 10
22.73438315764179
 20
10.55358404434537
 30
0.0
 11
22.88443195764194
 21
10.36605354434527
 31
0.0
  0
LINE
  5
192
330
2
100
AcDbEntity
  8
GAIKEI
  6
Continuous
 62
     1
100
AcDbLine
 10
22.88443195764194
 20
10.80358404434514
 30
0.0
 11
22.73438315764179
 21
10.61605354434528
 31
0.0
  0
LINE
  5
193
330
2
100
AcDbEntity
  8
GAIKEI
  6
Continuous
 62
     1
100
AcDbLine
 10
22.73438315764179
 20
11.05358404434514
 30
0.0
 11
22.88443195764194
 21
10.86605354434527
 31
0.0
  0
LINE
  5
194
330
2
100
AcDbEntity
  8
GAIKEI
  6
Continuous
 62
     1
100
AcDbLine
 10
22.88443195764194
 20
11.30358404434514
 30
0.0
 11
22.73438315764179
 21
11.11605354434527
 31
0.0
  0
LINE
  5
195
330
2
100
AcDbEntity
  8
GAIKEI
  6
Continuous
 62
     1
100
AcDbLine
 10
22.73438315764179
 20
11.55358404434514
 30
0.0
 11
22.88443195764194
 21
11.36605354434528
 31
0.0
  0
LINE
  5
196
330
2
100
AcDbEntity
  8
GAIKEI
  6
Continuous
 62
     1
100
AcDbLine
 10
22.88443195764194
 20
11.80358404434514
 30
0.0
 11
22.73438315764179
 21
11.61605354434527
 31
0.0
  0
LINE
  5
197
330
2
100
AcDbEntity
  8
GAIKEI
  6
Continuous
 62
     1
100
AcDbLine
 10
22.73438315764179
 20
12.05358404434514
 30
0.0
 11
22.88443195764194
 21
11.86605354434528
 31
0.0
  0
LINE
  5
198
330
2
100
AcDbEntity
  8
GAIKEI
  6
Continuous
 62
     1
100
AcDbLine
 10
22.88443195764194
 20
12.30358404434514
 30
0.0
 11
22.73438315764179
 21
12.11605354434527
 31
0.0
  0
LINE
  5
199
330
2
100
AcDbEntity
  8
GAIKEI
  6
Continuous
 62
     1
100
AcDbLine
 10
22.73438315764179
 20
12.55358404434514
 30
0.0
 11
22.88443195764194
 21
12.36605354434528
 31
0.0
  0
LINE
  5
19A
330
2
100
AcDbEntity
  8
GAIKEI
  6
Continuous
 62
     1
100
AcDbLine
 10
22.88443195764194
 20
12.80358404434514
 30
0.0
 11
22.73438315764179
 21
12.61605354434528
 31
0.0
  0
LINE
  5
19B
330
2
100
AcDbEntity
  8
GAIKEI
  6
Continuous
 62
     1
100
AcDbLine
 10
22.88443195764194
 20
12.86605354434527
 30
0.0
 11
22.73438315764179
 21
13.05358404434514
 31
0.0
  0
LINE
  5
19C
330
2
100
AcDbEntity
  8
GAIKEI
  6
Continuous
 62
     1
100
AcDbLine
 10
22.88443195764194
 20
13.30358404434514
 30
0.0
 11
22.73438315764179
 21
13.11605354434528
 31
0.0
  0
LINE
  5
19D
330
2
100
AcDbEntity
  8
GAIKEI
  6
Continuous
 62
     1
100
AcDbLine
 10
22.88443195764194
 20
13.36605354434527
 30
0.0
 11
22.73438315764179
 21
13.55358404434514
 31
0.0
  0
LINE
  5
19E
330
2
100
AcDbEntity
  8
GAIKEI
  6
Continuous
 62
     1
100
AcDbLine
 10
22.88443195764194
 20
13.80358404434514
 30
0.0
 11
22.73438315764179
 21
13.61605354434528
 31
0.0
  0
LINE
  5
19F
330
2
100
AcDbEntity
  8
GAIKEI
  6
Continuous
 62
     1
100
AcDbLine
 10
22.73438315764179
 20
14.05358404434514
 30
0.0
 11
22.88443195764194
 21
13.86605354434528
 31
0.0
  0
LINE
  5
1A0
330
2
100
AcDbEntity
  8
GAIKEI
  6
Continuous
 62
     1
100
AcDbLine
 10
22.88443195764194
 20
14.30358404434514
 30
0.0
 11
22.73438315764179
 21
14.11605354434527
 31
0.0
  0
LINE
  5
1A1
330
2
100
AcDbEntity
  8
GAIKEI
  6
Continuous
 62
     1
100
AcDbLine
 10
22.73438315764179
 20
14.55358404434514
 30
0.0
 11
22.88443195764194
 21
14.36605354434528
 31
0.0
  0
LINE
  5
1A2
330
2
100
AcDbEntity
  8
GAIKEI
  6
Continuous
 62
     1
100
AcDbLine
 10
22.88443195764194
 20
14.80358404434514
 30
0.0
 11
22.73438315764179
 21
14.61605354434527
 31
0.0
  0
LINE
  5
1A3
330
2
100
AcDbEntity
  8
GAIKEI
  6
Continuous
 62
     1
100
AcDbLine
 10
22.88443195764194
 20
14.86605354434528
 30
0.0
 11
22.73438315764179
 21
15.05358404434514
 31
0.0
  0
LINE
  5
1A4
330
2
100
AcDbEntity
  8
GAIKEI
  6
Continuous
 62
     1
100
AcDbLine
 10
22.88443195764194
 20
15.30358404434514
 30
0.0
 11
22.73438315764179
 21
15.11605354434528
 31
0.0
  0
LINE
  5
1A5
330
2
100
AcDbEntity
  8
GAIKEI
  6
Continuous
 62
     1
100
AcDbLine
 10
22.88443195764194
 20
15.36605354434527
 30
0.0
 11
22.73438315764179
 21
15.55358404434514
 31
0.0
  0
LINE
  5
1A6
330
2
100
AcDbEntity
  8
GAIKEI
  6
Continuous
 62
     1
100
AcDbLine
 10
22.73438315764179
 20
15.61605354434528
 30
0.0
 11
22.88443195764194
 21
15.80358404434514
 31
0.0
  0
LINE
  5
1A7
330
2
100
AcDbEntity
  8
GAIKEI
  6
Continuous
 62
     1
100
AcDbLine
 10
22.88443195764194
 20
15.86605354434527
 30
0.0
 11
22.73438315764179
 21
16.05358404434514
 31
0.0
  0
LINE
  5
1A8
330
2
100
AcDbEntity
  8
GAIKEI
  6
Continuous
 62
     1
100
AcDbLine
 10
22.88443195764194
 20
16.30358404434514
 30
0.0
 11
22.73438315764179
 21
16.11605354434528
 31
0.0
  0
LINE
  5
1A9
330
2
100
AcDbEntity
  8
GAIKEI
  6
Continuous
 62
     1
100
AcDbLine
 10
22.88443195764194
 20
16.36605354434528
 30
0.0
 11
22.73438315764179
 21
16.55358404434514
 31
0.0
  0
LINE
  5
1AA
330
2
100
AcDbEntity
  8
GAIKEI
  6
Continuous
 62
     1
100
AcDbLine
 10
22.88443195764194
 20
16.80358404434514
 30
0.0
 11
22.73438315764179
 21
16.61605354434527
 31
0.0
  0
LINE
  5
1AB
330
2
100
AcDbEntity
  8
GAIKEI
  6
Continuous
 62
     1
100
AcDbLine
 10
22.88443195764194
 20
16.86605354434528
 30
0.0
 11
22.73438315764179
 21
17.05358404434514
 31
0.0
  0
LINE
  5
1AC
330
2
100
AcDbEntity
  8
GAIKEI
  6
Continuous
 62
     1
100
AcDbLine
 10
22.73438315764179
 20
17.11605354434527
 30
0.0
 11
22.88443195764194
 21
17.30358404434514
 31
0.0
  0
LINE
  5
1AD
330
2
100
AcDbEntity
  8
GAIKEI
  6
Continuous
 62
     1
100
AcDbLine
 10
22.88443195764194
 20
17.36605354434528
 30
0.0
 11
22.73438315764179
 21
17.55358404434514
 31
0.0
  0
LINE
  5
1AE
330
2
100
AcDbEntity
  8
GAIKEI
  6
Continuous
 62
     1
100
AcDbLine
 10
22.73438315764179
 20
17.61605354434528
 30
0.0
 11
22.88443195764194
 21
17.80358404434514
 31
0.0
  0
LINE
  5
1AF
330
2
100
AcDbEntity
  8
GAIKEI
  6
Continuous
 62
     1
100
AcDbLine
 10
22.88443195764194
 20
17.86605354434527
 30
0.0
 11
22.73438315764179
 21
18.05358404434514
 31
0.0
  0
LINE
  5
1B0
330
2
100
AcDbEntity
  8
GAIKEI
  6
Continuous
 62
     1
100
AcDbLine
 10
22.88443195764194
 20
18.30358404434514
 30
0.0
 11
22.73438315764179
 21
18.11605354434528
 31
0.0
  0
LINE
  5
1B1
330
2
100
AcDbEntity
  8
GAIKEI
  6
Continuous
 62
     1
100
AcDbLine
 10
22.88443195764194
 20
18.36605354434528
 30
0.0
 11
22.73438315764179
 21
18.55358404434514
 31
0.0
  0
LINE
  5
1B2
330
2
100
AcDbEntity
  8
GAIKEI
  6
Continuous
 62
     1
100
AcDbLine
 10
22.88443195764194
 20
18.80358404434514
 30
0.0
 11
22.73438315764179
 21
18.61605354434528
 31
0.0
  0
LINE
  5
1B3
330
2
100
AcDbEntity
  8
GAIKEI
  6
Continuous
 62
     1
100
AcDbLine
 10
22.88443195764194
 20
18.86605354434528
 30
0.0
 11
22.73438315764179
 21
19.05358404434514
 31
0.0
  0
LINE
  5
1B4
330
2
100
AcDbEntity
  8
GAIKEI
  6
Continuous
 62
     1
100
AcDbLine
 10
22.73438315764179
 20
19.11605354434527
 30
0.0
 11
22.88443195764194
 21
19.30358404434514
 31
0.0
  0
LINE
  5
1B5
330
2
100
AcDbEntity
  8
GAIKEI
  6
Continuous
 62
     1
100
AcDbLine
 10
22.88443195764194
 20
19.36605354434528
 30
0.0
 11
22.73438315764179
 21
19.55358404434514
 31
0.0
  0
LINE
  5
1B6
330
2
100
AcDbEntity
  8
GAIKEI
  6
Continuous
 62
     1
100
AcDbLine
 10
22.73438315764179
 20
19.61605354434528
 30
0.0
 11
22.88443195764194
 21
19.80358404434514
 31
0.0
  0
LINE
  5
1B7
330
2
100
AcDbEntity
  8
GAIKEI
  6
Continuous
 62
     1
100
AcDbLine
 10
22.88443195764194
 20
19.86605354434528
 30
0.0
 11
22.73438315764179
 21
20.05358404434514
 31
0.0
  0
LINE
  5
1B8
330
2
100
AcDbEntity
  8
GAIKEI
  6
Continuous
 62
     1
100
AcDbLine
 10
22.73438315764179
 20
20.11605354434528
 30
0.0
 11
22.88443195764194
 21
20.30358404434514
 31
0.0
  0
LINE
  5
1B9
330
2
100
AcDbEntity
  8
GAIKEI
  6
Continuous
 62
     1
100
AcDbLine
 10
22.88443195764194
 20
20.36605354434528
 30
0.0
 11
22.73438315764179
 21
20.55358404434514
 31
0.0
  0
LINE
  5
1BA
330
2
100
AcDbEntity
  8
GAIKEI
  6
Continuous
 62
     1
100
AcDbLine
 10
22.73438315764179
 20
20.61605354434528
 30
0.0
 11
22.88443195764194
 21
20.80358404434514
 31
0.0
  0
LINE
  5
1BB
330
2
100
AcDbEntity
  8
GAIKEI
  6
Continuous
 62
     1
100
AcDbLine
 10
22.88443195764194
 20
20.86605354434528
 30
0.0
 11
22.73438315764179
 21
21.05358404434515
 31
0.0
  0
LINE
  5
1BC
330
2
100
AcDbEntity
  8
GAIKEI
  6
Continuous
 62
     1
100
AcDbLine
 10
22.73438315764179
 20
21.11605354434528
 30
0.0
 11
22.88443195764194
 21
21.30358404434514
 31
0.0
  0
LINE
  5
1BD
330
2
100
AcDbEntity
  8
GAIKEI
  6
Continuous
 62
     1
100
AcDbLine
 10
22.88443195764194
 20
21.36605354434528
 30
0.0
 11
22.73438315764179
 21
21.55358404434514
 31
0.0
  0
LINE
  5
1BE
330
2
100
AcDbEntity
  8
GAIKEI
  6
Continuous
 62
     1
100
AcDbLine
 10
22.73438315764179
 20
21.61605354434528
 30
0.0
 11
22.88443195764194
 21
21.80358404434514
 31
0.0
  0
LINE
  5
1BF
330
2
100
AcDbEntity
  8
GAIKEI
  6
Continuous
 62
     1
100
AcDbLine
 10
22.88443195764194
 20
21.86605354434528
 30
0.0
 11
22.73438315764179
 21
22.05358404434514
 31
0.0
  0
LINE
  5
1C0
330
2
100
AcDbEntity
  8
GAIKEI
  6
Continuous
 62
     1
100
AcDbLine
 10
22.73438315764179
 20
22.11605354434528
 30
0.0
 11
22.88443195764194
 21
22.30358404434515
 31
0.0
  0
LINE
  5
1C1
330
2
100
AcDbEntity
  8
GAIKEI
  6
Continuous
 62
     1
100
AcDbLine
 10
22.88443195764194
 20
22.36605354434528
 30
0.0
 11
22.73438315764179
 21
22.55358404434514
 31
0.0
  0
LINE
  5
1C2
330
2
100
AcDbEntity
  8
GAIKEI
  6
Continuous
 62
     1
100
AcDbLine
 10
22.73438315764179
 20
22.61605354434528
 30
0.0
 11
22.88443195764194
 21
22.80358404434514
 31
0.0
  0
LINE
  5
1C3
330
2
100
AcDbEntity
  8
GAIKEI
  6
Continuous
 62
     1
100
AcDbLine
 10
22.88443195764194
 20
22.86605354434528
 30
0.0
 11
22.73438315764179
 21
23.05358404434514
 31
0.0
  0
LINE
  5
1C4
330
2
100
AcDbEntity
  8
GAIKEI
  6
Continuous
 62
     1
100
AcDbLine
 10
22.73438315764179
 20
23.11605354434528
 30
0.0
 11
22.88443195764194
 21
23.30358404434514
 31
0.0
  0
LINE
  5
1C5
330
2
100
AcDbEntity
  8
GAIKEI
  6
Continuous
 62
     1
100
AcDbLine
 10
22.88443195764194
 20
23.36605354434528
 30
0.0
 11
22.73438315764179
 21
23.55358404434515
 31
0.0
  0
LINE
  5
1C6
330
2
100
AcDbEntity
  8
GAIKEI
  6
Continuous
 62
     1
100
AcDbLine
 10
22.73438315764179
 20
23.61605354434528
 30
0.0
 11
22.88443195764194
 21
23.80358404434514
 31
0.0
  0
LINE
  5
1C7
330
2
100
AcDbEntity
  8
GAIKEI
  6
Continuous
 62
     1
100
AcDbLine
 10
22.88443195764194
 20
23.86605354434528
 30
0.0
 11
22.73438315764179
 21
24.05358404434514
 31
0.0
  0
LINE
  5
1C8
330
2
100
AcDbEntity
  8
GAIKEI
  6
Continuous
 62
     1
100
AcDbLine
 10
22.73438315764179
 20
24.11605354434528
 30
0.0
 11
22.88443195764194
 21
24.30358404434514
 31
0.0
  0
LINE
  5
1C9
330
2
100
AcDbEntity
  8
GAIKEI
  6
Continuous
 62
     1
100
AcDbLine
 10
22.88443195764194
 20
24.36605354434528
 30
0.0
 11
22.73438315764179
 21
24.55358404434515
 31
0.0
  0
LINE
  5
1CA
330
2
100
AcDbEntity
  8
GAIKEI
  6
Continuous
 62
     1
100
AcDbLine
 10
22.73438315764179
 20
24.61605354434528
 30
0.0
 11
22.88443195764194
 21
24.80358404434515
 31
0.0
  0
LINE
  5
1CB
330
2
100
AcDbEntity
  8
GAIKEI
  6
Continuous
 62
     1
100
AcDbLine
 10
22.88443195764194
 20
24.86605354434528
 30
0.0
 11
22.73438315764179
 21
25.05358404434514
 31
0.0
  0
LINE
  5
1CC
330
2
100
AcDbEntity
  8
GAIKEI
  6
Continuous
 62
     1
100
AcDbLine
 10
22.73438315764179
 20
25.11605354434528
 30
0.0
 11
22.88443195764194
 21
25.30358404434514
 31
0.0
  0
LINE
  5
1CD
330
2
100
AcDbEntity
  8
GAIKEI
  6
Continuous
 62
     1
100
AcDbLine
 10
22.88443195764194
 20
25.36605354434528
 30
0.0
 11
22.73438315764179
 21
25.55358404434514
 31
0.0
  0
LINE
  5
1CE
330
2
100
AcDbEntity
  8
GAIKEI
  6
Continuous
 62
     1
100
AcDbLine
 10
22.73438315764179
 20
25.61605354434528
 30
0.0
 11
22.88443195764194
 21
25.80358404434515
 31
0.0
  0
LINE
  5
1CF
330
2
100
AcDbEntity
  8
GAIKEI
  6
Continuous
 62
     1
100
AcDbLine
 10
22.88443195764194
 20
25.86605354434528
 30
0.0
 11
22.73438315764179
 21
26.05358404434515
 31
0.0
  0
LINE
  5
1D0
330
2
100
AcDbEntity
  8
GAIKEI
  6
Continuous
 62
     1
100
AcDbLine
 10
22.73438315764179
 20
26.11605354434528
 30
0.0
 11
22.88443195764194
 21
26.30358404434514
 31
0.0
  0
LINE
  5
1D1
330
2
100
AcDbEntity
  8
GAIKEI
  6
Continuous
 62
     1
100
AcDbLine
 10
22.88443195764194
 20
26.36605354434528
 30
0.0
 11
22.73438315764179
 21
26.55358404434514
 31
0.0
  0
LINE
  5
1D2
330
2
100
AcDbEntity
  8
GAIKEI
  6
Continuous
 62
     1
100
AcDbLine
 10
22.73438315764179
 20
26.61605354434528
 30
0.0
 11
22.88443195764194
 21
26.80358404434514
 31
0.0
  0
LINE
  5
1D3
330
2
100
AcDbEntity
  8
GAIKEI
  6
Continuous
 62
     1
100
AcDbLine
 10
22.88443195764194
 20
26.86605354434528
 30
0.0
 11
22.73438315764179
 21
27.05358404434515
 31
0.0
  0
LINE
  5
1D4
330
2
100
AcDbEntity
  8
GAIKEI
  6
Continuous
 62
     1
100
AcDbLine
 10
22.73438315764179
 20
27.11605354434528
 30
0.0
 11
22.88443195764194
 21
27.30358404434515
 31
0.0
  0
LINE
  5
1D5
330
2
100
AcDbEntity
  8
GAIKEI
  6
Continuous
 62
     1
100
AcDbLine
 10
22.88443195764194
 20
27.36605354434528
 30
0.0
 11
22.73438315764179
 21
27.55358404434514
 31
0.0
  0
LINE
  5
1D6
330
2
100
AcDbEntity
  8
GAIKEI
  6
Continuous
 62
     1
100
AcDbLine
 10
22.73438315764179
 20
27.61605354434528
 30
0.0
 11
22.88443195764194
 21
27.80358404434514
 31
0.0
  0
LINE
  5
1D7
330
2
100
AcDbEntity
  8
GAIKEI
  6
Continuous
 62
     1
100
AcDbLine
 10
22.88443195764194
 20
27.86605354434528
 30
0.0
 11
22.73438315764179
 21
28.05358404434514
 31
0.0
  0
LINE
  5
1D8
330
2
100
AcDbEntity
  8
GAIKEI
  6
Continuous
 62
     1
100
AcDbLine
 10
22.73438315764179
 20
28.11605354434528
 30
0.0
 11
22.88443195764194
 21
28.30358404434515
 31
0.0
  0
LINE
  5
1D9
330
2
100
AcDbEntity
  8
GAIKEI
  6
Continuous
 62
     1
100
AcDbLine
 10
22.88443195764194
 20
28.36605354434528
 30
0.0
 11
22.73438315764179
 21
28.55358404434515
 31
0.0
  0
LINE
  5
1DA
330
2
100
AcDbEntity
  8
GAIKEI
  6
Continuous
 62
     1
100
AcDbLine
 10
22.73438315764179
 20
28.61605354434528
 30
0.0
 11
22.88443195764194
 21
28.80358404434515
 31
0.0
  0
LINE
  5
1DB
330
2
100
AcDbEntity
  8
GAIKEI
  6
Continuous
 62
     1
100
AcDbLine
 10
22.88443195764194
 20
28.86605354434528
 30
0.0
 11
22.73438315764179
 21
29.05358404434514
 31
0.0
  0
LINE
  5
1DC
330
2
100
AcDbEntity
  8
GAIKEI
  6
Continuous
 62
     1
100
AcDbLine
 10
22.73438315764179
 20
29.11605354434528
 30
0.0
 11
22.88443195764194
 21
29.30358404434514
 31
0.0
  0
LINE
  5
1DD
330
2
100
AcDbEntity
  8
GAIKEI
  6
Continuous
 62
     1
100
AcDbLine
 10
22.88443195764194
 20
29.36605354434528
 30
0.0
 11
22.73438315764179
 21
29.55358404434515
 31
0.0
  0
LINE
  5
1DE
330
2
100
AcDbEntity
  8
GAIKEI
  6
Continuous
 62
     1
100
AcDbLine
 10
22.73438315764179
 20
29.61605354434528
 30
0.0
 11
22.88443195764194
 21
29.80358404434515
 31
0.0
  0
LINE
  5
1DF
330
2
100
AcDbEntity
  8
GAIKEI
  6
Continuous
 62
     1
100
AcDbLine
 10
22.88443195764194
 20
29.86605354434528
 30
0.0
 11
22.73438315764179
 21
30.05358404434514
 31
0.0
  0
LINE
  5
1E0
330
2
100
AcDbEntity
  8
GAIKEI
  6
Continuous
 62
     1
100
AcDbLine
 10
22.73438315764179
 20
30.11605354434528
 30
0.0
 11
22.88443195764194
 21
30.30358404434514
 31
0.0
  0
LINE
  5
1E1
330
2
100
AcDbEntity
  8
GAIKEI
  6
Continuous
 62
     1
100
AcDbLine
 10
22.88443195764194
 20
30.36605354434528
 30
0.0
 11
22.73438315764179
 21
30.55358404434514
 31
0.0
  0
LINE
  5
1E2
330
2
100
AcDbEntity
  8
GAIKEI
  6
Continuous
 62
     1
100
AcDbLine
 10
22.73438315764179
 20
30.61605354434528
 30
0.0
 11
22.88443195764194
 21
30.80358404434515
 31
0.0
  0
LINE
  5
1E3
330
2
100
AcDbEntity
  8
GAIKEI
  6
Continuous
 62
     1
100
AcDbLine
 10
22.88443195764194
 20
30.86605354434528
 30
0.0
 11
22.73438315764179
 21
31.05358404434515
 31
0.0
  0
LINE
  5
1E4
330
2
100
AcDbEntity
  8
GAIKEI
  6
Continuous
 62
     1
100
AcDbLine
 10
22.73438315764179
 20
31.11605354434528
 30
0.0
 11
22.88443195764194
 21
31.30358404434514
 31
0.0
  0
LINE
  5
1E5
330
2
100
AcDbEntity
  8
GAIKEI
  6
Continuous
 62
     1
100
AcDbLine
 10
22.88443195764194
 20
31.36605354434528
 30
0.0
 11
22.73438315764179
 21
31.55358404434514
 31
0.0
  0
LINE
  5
1E6
330
2
100
AcDbEntity
  8
GAIKEI
  6
Continuous
 62
     1
100
AcDbLine
 10
22.73438315764179
 20
31.61605354434528
 30
0.0
 11
22.88443195764194
 21
31.80358404434514
 31
0.0
  0
LINE
  5
1E7
330
2
100
AcDbEntity
  8
GAIKEI
  6
Continuous
 62
     1
100
AcDbLine
 10
22.88443195764194
 20
31.86605354434528
 30
0.0
 11
22.73438315764179
 21
32.05358404434515
 31
0.0
  0
LINE
  5
1E8
330
2
100
AcDbEntity
  8
GAIKEI
  6
Continuous
 62
     1
100
AcDbLine
 10
22.73438315764179
 20
32.11605504434533
 30
0.0
 11
22.88443195764194
 21
32.3035855443452
 31
0.0
  0
LINE
  5
1E9
330
2
100
AcDbEntity
  8
GAIKEI
  6
Continuous
 62
     1
100
AcDbLine
 10
22.88443195764194
 20
32.36605504434533
 30
0.0
 11
22.73438315764179
 21
32.5535855443452
 31
0.0
  0
LINE
  5
1EA
330
2
100
AcDbEntity
  8
GAIKEI
  6
Continuous
 62
     1
100
AcDbLine
 10
22.73438315764179
 20
32.61605504434533
 30
0.0
 11
22.88443195764194
 21
32.8035855443452
 31
0.0
  0
LINE
  5
1EB
330
2
100
AcDbEntity
  8
GAIKEI
  6
Continuous
 62
     1
100
AcDbLine
 10
22.88443195764194
 20
32.86605504434533
 30
0.0
 11
22.73438315764179
 21
33.0535855443452
 31
0.0
  0
LINE
  5
1EC
330
2
100
AcDbEntity
  8
GAIKEI
  6
Continuous
 62
     1
100
AcDbLine
 10
22.73438315764179
 20
33.11605504434533
 30
0.0
 11
22.88443195764194
 21
33.3035855443452
 31
0.0
  0
LINE
  5
1ED
330
2
100
AcDbEntity
  8
GAIKEI
  6
Continuous
 62
     1
100
AcDbLine
 10
22.88443195764194
 20
33.36605504434533
 30
0.0
 11
22.73438315764179
 21
33.5535855443452
 31
0.0
  0
LINE
  5
1EE
330
2
100
AcDbEntity
  8
GAIKEI
  6
Continuous
 62
     1
100
AcDbLine
 10
22.73438315764179
 20
33.61605504434533
 30
0.0
 11
22.88443195764194
 21
33.8035855443452
 31
0.0
  0
LINE
  5
1EF
330
2
100
AcDbEntity
  8
GAIKEI
  6
Continuous
 62
     1
100
AcDbLine
 10
22.88443195764194
 20
33.86605504434533
 30
0.0
 11
22.73438315764179
 21
34.0535855443452
 31
0.0
  0
LINE
  5
1F0
330
2
100
AcDbEntity
  8
GAIKEI
  6
Continuous
 62
     1
100
AcDbLine
 10
22.73438315764179
 20
34.11605504434533
 30
0.0
 11
22.88443195764194
 21
34.3035855443452
 31
0.0
  0
LINE
  5
1F1
330
2
100
AcDbEntity
  8
GAIKEI
  6
Continuous
 62
     1
100
AcDbLine
 10
22.88443195764194
 20
34.36605354434528
 30
0.0
 11
22.73438315764179
 21
34.55358404434515
 31
0.0
  0
LINE
  5
1F2
330
2
100
AcDbEntity
  8
GAIKEI
  6
Continuous
 62
     1
100
AcDbLine
 10
22.88443195764194
 20
34.80358404434515
 30
0.0
 11
22.73438315764179
 21
34.61605354434528
 31
0.0
  0
LINE
  5
1F3
330
2
100
AcDbEntity
  8
GAIKEI
  6
Continuous
 62
     1
100
AcDbLine
 10
22.73438315764179
 20
35.05358404434514
 30
0.0
 11
22.88443195764194
 21
34.86605354434528
 31
0.0
  0
LINE
  5
1F4
330
2
100
AcDbEntity
  8
GAIKEI
  6
Continuous
 62
     1
100
AcDbLine
 10
22.88443195764194
 20
35.30358404434514
 30
0.0
 11
22.73438315764179
 21
35.11605354434528
 31
0.0
  0
LINE
  5
1F5
330
2
100
AcDbEntity
  8
GAIKEI
  6
Continuous
 62
     1
100
AcDbLine
 10
22.73438315764179
 20
35.55358404434514
 30
0.0
 11
22.88443195764194
 21
35.36605354434528
 31
0.0
  0
LINE
  5
1F6
330
2
100
AcDbEntity
  8
GAIKEI
  6
Continuous
 62
     1
100
AcDbLine
 10
22.88443195764194
 20
35.80358404434515
 30
0.0
 11
22.73438315764179
 21
35.61605354434528
 31
0.0
  0
LINE
  5
1F7
330
2
100
AcDbEntity
  8
GAIKEI
  6
Continuous
 62
     1
100
AcDbLine
 10
22.73438315764179
 20
36.05358404434515
 30
0.0
 11
22.88443195764194
 21
35.86605354434528
 31
0.0
  0
LINE
  5
1F8
330
2
100
AcDbEntity
  8
GAIKEI
  6
Continuous
 62
     1
100
AcDbLine
 10
22.88443195764194
 20
36.30358404434514
 30
0.0
 11
22.73438315764179
 21
36.11605354434528
 31
0.0
  0
LINE
  5
1F9
330
2
100
AcDbEntity
  8
GAIKEI
  6
Continuous
 62
     1
100
AcDbLine
 10
22.73438315764179
 20
36.55358404434514
 30
0.0
 11
22.88443195764194
 21
36.36605354434528
 31
0.0
  0
LINE
  5
1FA
330
2
100
AcDbEntity
  8
GAIKEI
  6
Continuous
 62
     1
100
AcDbLine
 10
22.88443195764194
 20
36.80358404434514
 30
0.0
 11
22.73438315764179
 21
36.61605354434528
 31
0.0
  0
LINE
  5
1FB
330
2
100
AcDbEntity
  8
GAIKEI
  6
Continuous
 62
     1
100
AcDbLine
 10
22.73438315764179
 20
37.05358404434515
 30
0.0
 11
22.88443195764194
 21
36.86605354434528
 31
0.0
  0
LINE
  5
1FC
330
2
100
AcDbEntity
  8
GAIKEI
  6
Continuous
 62
     1
100
AcDbLine
 10
22.88443195764194
 20
37.30358404434515
 30
0.0
 11
22.73438315764179
 21
37.11605354434528
 31
0.0
  0
LINE
  5
1FD
330
2
100
AcDbEntity
  8
GAIKEI
  6
Continuous
 62
     1
100
AcDbLine
 10
22.72036945764194
 20
37.57112554434525
 30
0.0
 11
22.88443195764194
 21
37.36605354434528
 31
0.0
  0
LINE
  5
1FE
330
2
100
AcDbEntity
  8
GAIKEI
  6
Continuous
 62
     1
100
AcDbLine
 10
22.7567952576419
 20
37.64083684434536
 30
0.0
 11
22.70940755764195
 21
37.64083684434536
 31
0.0
  0
LINE
  5
1FF
330
2
100
AcDbEntity
  8
GAIKEI
  6
Continuous
 62
     7
100
AcDbLine
 10
22.70940755764195
 20
37.64083684434536
 30
0.0
 11
22.70940755764195
 21
37.60236024434516
 31
0.0
  0
LINE
  5
200
330
2
100
AcDbEntity
  8
GAIKEI
  6
Continuous
 62
     7
100
AcDbLine
 10
22.70940755764195
 20
37.64083684434536
 30
0.0
 11
22.70940755764195
 21
37.6535260443452
 31
0.0
  0
LINE
  5
201
330
2
100
AcDbEntity
  8
GAIKEI
  6
Continuous
 62
     1
100
AcDbLine
 10
25.70940755764195
 20
16.15982184434528
 30
0.0
 11
25.70940755764195
 21
15.83482184434524
 31
0.0
  0
LINE
  5
202
330
2
100
AcDbEntity
  8
GAIKEI
  6
Continuous
 62
     1
100
AcDbLine
 10
25.70940755764195
 20
15.83482184434524
 30
0.0
 11
25.70940755764195
 21
15.50982184434519
 31
0.0
  0
LINE
  5
203
330
2
100
AcDbEntity
  8
GAIKEI
  6
Continuous
 62
     1
100
AcDbLine
 10
-7.228491984068114
 20
27.4605542443453
 30
0.0
 11
-7.093592084068404
 21
27.45886054434527
 31
0.0
  0
LINE
  5
204
330
2
100
AcDbEntity
  8
GAIKEI
  6
Continuous
 62
     1
100
AcDbLine
 10
-7.093592084068404
 20
27.45886054434527
 30
0.0
 11
-7.042847484068715
 21
27.45669684434529
 31
0.0
  0
LINE
  5
205
330
2
100
AcDbEntity
  8
GAIKEI
  6
Continuous
 62
     1
100
AcDbLine
 10
-7.042847484068715
 20
27.45669684434529
 30
0.0
 11
-7.030835684068279
 21
27.45545784434535
 31
0.0
  0
LINE
  5
206
330
2
100
AcDbEntity
  8
GAIKEI
  6
Continuous
 62
     1
100
AcDbLine
 10
-7.030835684068279
 20
27.45545784434535
 30
0.0
 11
-7.029334284068227
 21
27.45514044434526
 31
0.0
  0
LINE
  5
207
330
2
100
AcDbEntity
  8
GAIKEI
  6
Continuous
 62
     1
100
AcDbLine
 10
-7.029334284068227
 20
27.45514044434526
 30
0.0
 11
-7.028443184068692
 21
27.45481994434522
 31
0.0
  0
LINE
  5
208
330
2
100
AcDbEntity
  8
GAIKEI
  6
Continuous
 62
     1
100
AcDbLine
 10
-7.225440184068702
 20
-2.615172055654738
 30
0.0
 11
-7.158142884068183
 21
-2.610985055654737
 31
0.0
  0
LINE
  5
209
330
2
100
AcDbEntity
  8
GAIKEI
  6
Continuous
 62
     1
100
AcDbLine
 10
-7.158142884068183
 20
-2.610985055654737
 30
0.0
 11
-7.108093984068545
 21
-2.603001655654679
 31
0.0
  0
LINE
  5
20A
330
2
100
AcDbEntity
  8
GAIKEI
  6
Continuous
 62
     1
100
AcDbLine
 10
-7.108093984068545
 20
-2.603001655654679
 30
0.0
 11
-7.074903084068409
 21
-2.594182055654755
 31
0.0
  0
LINE
  5
20B
330
2
100
AcDbEntity
  8
GAIKEI
  6
Continuous
 62
     1
100
AcDbLine
 10
-7.074903084068409
 20
-2.594182055654755
 30
0.0
 11
-7.049475884068669
 21
-2.583732855654716
 31
0.0
  0
LINE
  5
20C
330
2
100
AcDbEntity
  8
GAIKEI
  6
Continuous
 62
     1
100
AcDbLine
 10
-7.049475884068669
 20
-2.583732855654716
 30
0.0
 11
-7.036157984068722
 21
-2.575145255654661
 31
0.0
  0
LINE
  5
20D
330
2
100
AcDbEntity
  8
GAIKEI
  6
Continuous
 62
     1
100
AcDbLine
 10
-7.036157984068722
 20
-2.575145255654661
 30
0.0
 11
-7.02807698406832
 21
-2.566173055654644
 31
0.0
  0
LINE
  5
20E
330
2
100
AcDbEntity
  8
GAIKEI
  6
Continuous
 62
     1
100
AcDbLine
 10
-7.02807698406832
 20
-2.566173055654644
 30
0.0
 11
-7.025708784068683
 21
-2.560087855654728
 31
0.0
  0
LINE
  5
20F
330
2
100
AcDbEntity
  8
GAIKEI
  6
Continuous
 62
     1
100
AcDbLine
 10
-7.0807624840686
 20
27.48482184434533
 30
0.0
 11
-7.056226384068395
 21
27.48303954434528
 31
0.0
  0
LINE
  5
210
330
2
100
AcDbEntity
  8
GAIKEI
  6
Continuous
 62
     1
100
AcDbLine
 10
-7.056226384068395
 20
27.48303954434528
 30
0.0
 11
-7.044446584068282
 21
27.47979864434524
 31
0.0
  0
LINE
  5
211
330
2
100
AcDbEntity
  8
GAIKEI
  6
Continuous
 62
     1
100
AcDbLine
 10
-7.044446584068282
 20
27.47979864434524
 30
0.0
 11
-7.035352284068267
 21
27.47398504434523
 31
0.0
  0
LINE
  5
212
330
2
100
AcDbEntity
  8
GAIKEI
  6
Continuous
 62
     1
100
AcDbLine
 10
-50.15979078406826
 20
27.4605542443453
 30
0.0
 11
-50.29469068406843
 21
27.45886054434527
 31
0.0
  0
LINE
  5
213
330
2
100
AcDbEntity
  8
GAIKEI
  6
Continuous
 62
     1
100
AcDbLine
 10
-50.29469068406843
 20
27.45886054434527
 30
0.0
 11
-50.34543538406842
 21
27.45669684434529
 31
0.0
  0
LINE
  5
214
330
2
100
AcDbEntity
  8
GAIKEI
  6
Continuous
 62
     1
100
AcDbLine
 10
-50.34543538406842
 20
27.45669684434529
 30
0.0
 11
-50.35744708406856
 21
27.45545784434535
 31
0.0
  0
LINE
  5
215
330
2
100
AcDbEntity
  8
GAIKEI
  6
Continuous
 62
     1
100
AcDbLine
 10
-50.35744708406856
 20
27.45545784434535
 30
0.0
 11
-50.35894848406861
 21
27.45514044434526
 31
0.0
  0
LINE
  5
216
330
2
100
AcDbEntity
  8
GAIKEI
  6
Continuous
 62
     1
100
AcDbLine
 10
-50.35894848406861
 20
27.45514044434526
 30
0.0
 11
-50.35983968406845
 21
27.45481994434522
 31
0.0
  0
LINE
  5
217
330
2
100
AcDbEntity
  8
GAIKEI
  6
Continuous
 62
     1
100
AcDbLine
 10
-50.16284258406859
 20
-2.615172055654738
 30
0.0
 11
-50.2301398840682
 21
-2.610985055654737
 31
0.0
  0
LINE
  5
218
330
2
100
AcDbEntity
  8
GAIKEI
  6
Continuous
 62
     1
100
AcDbLine
 10
-50.2301398840682
 20
-2.610985055654737
 30
0.0
 11
-50.28018878406829
 21
-2.603001655654679
 31
0.0
  0
LINE
  5
219
330
2
100
AcDbEntity
  8
GAIKEI
  6
Continuous
 62
     1
100
AcDbLine
 10
-50.28018878406829
 20
-2.603001655654679
 30
0.0
 11
-50.31337968406842
 21
-2.594182055654755
 31
0.0
  0
LINE
  5
21A
330
2
100
AcDbEntity
  8
GAIKEI
  6
Continuous
 62
     1
100
AcDbLine
 10
-50.31337968406842
 20
-2.594182055654755
 30
0.0
 11
-50.33880688406862
 21
-2.583732855654716
 31
0.0
  0
LINE
  5
21B
330
2
100
AcDbEntity
  8
GAIKEI
  6
Continuous
 62
     1
100
AcDbLine
 10
-50.33880688406862
 20
-2.583732855654716
 30
0.0
 11
-50.35212478406856
 21
-2.575145255654661
 31
0.0
  0
LINE
  5
21C
330
2
100
AcDbEntity
  8
GAIKEI
  6
Continuous
 62
     1
100
AcDbLine
 10
-50.35212478406856
 20
-2.575145255654661
 30
0.0
 11
-50.36020588406836
 21
-2.566173055654644
 31
0.0
  0
LINE
  5
21D
330
2
100
AcDbEntity
  8
GAIKEI
  6
Continuous
 62
     1
100
AcDbLine
 10
-50.36020588406836
 20
-2.566173055654644
 30
0.0
 11
-50.3625739840686
 21
-2.560087855654728
 31
0.0
  0
LINE
  5
21E
330
2
100
AcDbEntity
  8
GAIKEI
  6
Continuous
 62
     1
100
AcDbLine
 10
-50.30752028406869
 20
27.48482184434533
 30
0.0
 11
-50.3308112840682
 21
27.48324714434534
 31
0.0
  0
LINE
  5
21F
330
2
100
AcDbEntity
  8
GAIKEI
  6
Continuous
 62
     1
100
AcDbLine
 10
-50.3308112840682
 20
27.48324714434534
 30
0.0
 11
-50.34333568406828
 21
27.48000304434527
 31
0.0
  0
LINE
  5
220
330
2
100
AcDbEntity
  8
GAIKEI
  6
Continuous
 62
     1
100
AcDbLine
 10
-50.34333568406828
 20
27.48000304434527
 30
0.0
 11
-50.35293048406811
 21
27.47398504434523
 31
0.0
  0
LINE
  5
221
330
2
100
AcDbEntity
  8
GAIKEI
  6
Continuous
 62
     1
100
AcDbLine
 10
-48.55471268406836
 20
-0.1144945556548009
 30
0.0
 11
-48.53027418406828
 21
-0.0965014556547885
 31
0.0
  0
LINE
  5
222
330
2
100
AcDbEntity
  8
GAIKEI
  6
Continuous
 62
     1
100
AcDbLine
 10
-48.53027418406828
 20
-0.0965014556547885
 30
0.0
 11
-48.50339428406869
 21
-0.0811266556547708
 31
0.0
  0
LINE
  5
223
330
2
100
AcDbEntity
  8
GAIKEI
  6
Continuous
 62
     1
100
AcDbLine
 10
-48.50339428406869
 20
-0.0811266556547708
 30
0.0
 11
-48.47448808406852
 21
-0.0690172556546713
 31
0.0
  0
LINE
  5
224
330
2
100
AcDbEntity
  8
GAIKEI
  6
Continuous
 62
     1
100
AcDbLine
 10
-48.47448808406852
 20
-0.0690172556546713
 30
0.0
 11
-48.44408038406846
 21
-0.0606676556546972
 31
0.0
  0
LINE
  5
225
330
2
100
AcDbEntity
  8
GAIKEI
  6
Continuous
 62
     1
100
AcDbLine
 10
-48.44408038406846
 20
-0.0606676556546972
 30
0.0
 11
-48.41274488406861
 21
-0.0564135556546717
 31
0.0
  0
LINE
  5
226
330
2
100
AcDbEntity
  8
GAIKEI
  6
Continuous
 62
     1
100
AcDbLine
 10
-48.41274488406861
 20
-0.0564135556546717
 30
0.0
 11
-48.39692458406853
 21
-0.0558825556547618
 31
0.0
  0
LINE
  5
227
330
2
100
AcDbEntity
  8
GAIKEI
  6
Continuous
 62
     1
100
AcDbLine
 10
-8.899243984068107
 20
-2.434758255654742
 30
0.0
 11
-8.896240984068299
 21
-2.482921055654742
 31
0.0
  0
LINE
  5
228
330
2
100
AcDbEntity
  8
GAIKEI
  6
Continuous
 62
     1
100
AcDbLine
 10
-8.896240984068299
 20
-2.482921055654742
 30
0.0
 11
-8.88906328406847
 21
-2.518431355654684
 31
0.0
  0
LINE
  5
229
330
2
100
AcDbEntity
  8
GAIKEI
  6
Continuous
 62
     1
100
AcDbLine
 10
-8.88906328406847
 20
-2.518431355654684
 30
0.0
 11
-8.877027184068538
 21
-2.552592755654814
 31
0.0
  0
LINE
  5
22A
330
2
100
AcDbEntity
  8
GAIKEI
  6
Continuous
 62
     1
100
AcDbLine
 10
-8.877027184068538
 20
-2.552592755654814
 30
0.0
 11
-8.8656623840684
 21
-2.573930655654748
 31
0.0
  0
LINE
  5
22B
330
2
100
AcDbEntity
  8
GAIKEI
  6
Continuous
 62
     1
100
AcDbLine
 10
-8.8656623840684
 20
-2.573930655654748
 30
0.0
 11
-8.850806484068471
 21
-2.593175055654683
 31
0.0
  0
LINE
  5
22C
330
2
100
AcDbEntity
  8
GAIKEI
  6
Continuous
 62
     1
100
AcDbLine
 10
-8.850806484068471
 20
-2.593175055654683
 30
0.0
 11
-8.841834284068227
 21
-2.601384255654693
 31
0.0
  0
LINE
  5
22D
330
2
100
AcDbEntity
  8
GAIKEI
  6
Continuous
 62
     1
100
AcDbLine
 10
-8.841834284068227
 20
-2.601384255654693
 30
0.0
 11
-8.831775684068361
 21
-2.608104255654779
 31
0.0
  0
LINE
  5
22E
330
2
100
AcDbEntity
  8
GAIKEI
  6
Continuous
 62
     1
100
AcDbLine
 10
-8.831775684068361
 20
-2.608104255654779
 30
0.0
 11
-8.820679484068477
 21
-2.612840555654656
 31
0.0
  0
LINE
  5
22F
330
2
100
AcDbEntity
  8
GAIKEI
  6
Continuous
 62
     1
100
AcDbLine
 10
-48.48903888406858
 20
-2.434758255654742
 30
0.0
 11
-48.49211498406839
 21
-2.483494855654726
 31
0.0
  0
LINE
  5
230
330
2
100
AcDbEntity
  8
GAIKEI
  6
Continuous
 62
     1
100
AcDbLine
 10
-48.49211498406839
 20
-2.483494855654726
 30
0.0
 11
-48.50013508406846
 21
-2.521757755654789
 31
0.0
  0
LINE
  5
231
330
2
100
AcDbEntity
  8
GAIKEI
  6
Continuous
 62
     1
100
AcDbLine
 10
-48.50013508406846
 20
-2.521757755654789
 30
0.0
 11
-48.50987628406847
 21
-2.549425055654637
 31
0.0
  0
LINE
  5
232
330
2
100
AcDbEntity
  8
GAIKEI
  6
Continuous
 62
     1
100
AcDbLine
 10
-48.50987628406847
 20
-2.549425055654637
 30
0.0
 11
-48.5235481840682
 21
-2.575395455654643
 31
0.0
  0
LINE
  5
233
330
2
100
AcDbEntity
  8
GAIKEI
  6
Continuous
 62
     1
100
AcDbLine
 10
-48.5235481840682
 20
-2.575395455654643
 30
0.0
 11
-48.5354987840683
 21
-2.591050955654736
 31
0.0
  0
LINE
  5
234
330
2
100
AcDbEntity
  8
GAIKEI
  6
Continuous
 62
     1
100
AcDbLine
 10
-48.5354987840683
 20
-2.591050955654736
 30
0.0
 11
-48.55014728406832
 21
-2.604149155654795
 31
0.0
  0
LINE
  5
235
330
2
100
AcDbEntity
  8
GAIKEI
  6
Continuous
 62
     1
100
AcDbLine
 10
-48.55014728406832
 20
-2.604149155654795
 30
0.0
 11
-48.56760328406835
 21
-2.612840555654656
 31
0.0
  0
LINE
  5
236
330
2
100
AcDbEntity
  8
GAIKEI
  6
Continuous
 62
     1
100
AcDbLine
 10
-8.894141384068461
 20
-0.4199694556548366
 30
0.0
 11
-8.897351884068484
 21
-0.3847582556547877
 31
0.0
  0
LINE
  5
237
330
2
100
AcDbEntity
  8
GAIKEI
  6
Continuous
 62
     1
100
AcDbLine
 10
-8.897351884068484
 20
-0.3847582556547877
 30
0.0
 11
-8.906873284068296
 21
-0.3506151556546229
 31
0.0
  0
LINE
  5
238
330
2
100
AcDbEntity
  8
GAIKEI
  6
Continuous
 62
     1
100
AcDbLine
 10
-8.906873284068296
 20
-0.3506151556546229
 30
0.0
 11
-8.922412884068307
 21
-0.3185778556546666
 31
0.0
  0
LINE
  5
239
330
2
100
AcDbEntity
  8
GAIKEI
  6
Continuous
 62
     1
100
AcDbLine
 10
-8.922412884068307
 20
-0.3185778556546666
 30
0.0
 11
-8.943543284068709
 21
-0.2896471556548477
 31
0.0
  0
LINE
  5
23A
330
2
100
AcDbEntity
  8
GAIKEI
  6
Continuous
 62
     1
100
AcDbLine
 10
-8.943543284068709
 20
-0.2896471556548477
 30
0.0
 11
-8.969654084068224
 21
-0.264744855654726
 31
0.0
  0
LINE
  5
23B
330
2
100
AcDbEntity
  8
GAIKEI
  6
Continuous
 62
     1
100
AcDbLine
 10
-8.969654084068224
 20
-0.264744855654726
 30
0.0
 11
-8.999976384068304
 21
-0.2447252556546573
 31
0.0
  0
LINE
  5
23C
330
2
100
AcDbEntity
  8
GAIKEI
  6
Continuous
 62
     1
100
AcDbLine
 10
-8.999976384068304
 20
-0.2447252556546573
 30
0.0
 11
-9.033582284068415
 21
-0.230327155654777
 31
0.0
  0
LINE
  5
23D
330
2
100
AcDbEntity
  8
GAIKEI
  6
Continuous
 62
     1
100
AcDbLine
 10
-9.033582284068415
 20
-0.230327155654777
 30
0.0
 11
-9.069373284068205
 21
-0.2221117556548506
 31
0.0
  0
LINE
  5
23E
330
2
100
AcDbEntity
  8
GAIKEI
  6
Continuous
 62
     1
100
AcDbLine
 10
-9.069373284068205
 20
-0.2221117556548506
 30
0.0
 11
-9.096924584068347
 21
-0.2202379556547385
 31
0.0
  0
LINE
  5
23F
330
2
100
AcDbEntity
  8
GAIKEI
  6
Continuous
 62
     1
100
AcDbLine
 10
-48.49414138406837
 20
-0.4199694556548366
 30
0.0
 11
-48.4909309840682
 21
-0.3847582556547877
 31
0.0
  0
LINE
  5
240
330
2
100
AcDbEntity
  8
GAIKEI
  6
Continuous
 62
     1
100
AcDbLine
 10
-48.4909309840682
 20
-0.3847582556547877
 30
0.0
 11
-48.48140948406854
 21
-0.3506151556546229
 31
0.0
  0
LINE
  5
241
330
2
100
AcDbEntity
  8
GAIKEI
  6
Continuous
 62
     1
100
AcDbLine
 10
-48.48140948406854
 20
-0.3506151556546229
 30
0.0
 11
-48.46586988406852
 21
-0.3185778556546666
 31
0.0
  0
LINE
  5
242
330
2
100
AcDbEntity
  8
GAIKEI
  6
Continuous
 62
     1
100
AcDbLine
 10
-48.46586988406852
 20
-0.3185778556546666
 30
0.0
 11
-48.44473958406843
 21
-0.2896471556548477
 31
0.0
  0
LINE
  5
243
330
2
100
AcDbEntity
  8
GAIKEI
  6
Continuous
 62
     1
100
AcDbLine
 10
-48.44473958406843
 20
-0.2896471556548477
 30
0.0
 11
-48.4186286840686
 21
-0.264744855654726
 31
0.0
  0
LINE
  5
244
330
2
100
AcDbEntity
  8
GAIKEI
  6
Continuous
 62
     1
100
AcDbLine
 10
-48.4186286840686
 20
-0.264744855654726
 30
0.0
 11
-48.38830648406838
 21
-0.2447252556546573
 31
0.0
  0
LINE
  5
245
330
2
100
AcDbEntity
  8
GAIKEI
  6
Continuous
 62
     1
100
AcDbLine
 10
-48.38830648406838
 20
-0.2447252556546573
 30
0.0
 11
-48.35470048406842
 21
-0.230327155654777
 31
0.0
  0
LINE
  5
246
330
2
100
AcDbEntity
  8
GAIKEI
  6
Continuous
 62
     1
100
AcDbLine
 10
-48.35470048406842
 20
-0.230327155654777
 30
0.0
 11
-48.31890948406862
 21
-0.2221117556548506
 31
0.0
  0
LINE
  5
247
330
2
100
AcDbEntity
  8
GAIKEI
  6
Continuous
 62
     1
100
AcDbLine
 10
-48.31890948406862
 20
-0.2221117556548506
 30
0.0
 11
-48.29135818406848
 21
-0.2202379556547385
 31
0.0
  0
LINE
  5
248
330
2
100
AcDbEntity
  8
GAIKEI
  6
Continuous
 62
     1
100
AcDbLine
 10
-47.78894118406833
 20
-6.267241155654801
 30
0.0
 11
-47.78967358406862
 21
-6.267656255654628
 31
0.0
  0
LINE
  5
249
330
2
100
AcDbEntity
  8
GAIKEI
  6
Continuous
 62
     1
100
AcDbLine
 10
-47.78967358406862
 20
-6.267656255654628
 30
0.0
 11
-47.79563068406832
 21
-6.268870855654768
 31
0.0
  0
LINE
  5
24A
330
2
100
AcDbEntity
  8
GAIKEI
  6
Continuous
 62
     1
100
AcDbLine
 10
-47.79563068406832
 20
-6.268870855654768
 30
0.0
 11
-47.82290118406854
 21
-6.270909355654794
 31
0.0
  0
LINE
  5
24B
330
2
100
AcDbEntity
  8
GAIKEI
  6
Continuous
 62
     1
100
AcDbLine
 10
-47.82290118406854
 20
-6.270909355654794
 30
0.0
 11
-47.88880688406834
 21
-6.27220335565471
 31
0.0
  0
LINE
  5
24C
330
2
100
AcDbEntity
  8
GAIKEI
  6
Continuous
 62
     1
100
AcDbLine
 10
-45.59934158406849
 20
-6.267241155654801
 30
0.0
 11
-45.59860918406866
 21
-6.267656255654628
 31
0.0
  0
LINE
  5
24D
330
2
100
AcDbEntity
  8
GAIKEI
  6
Continuous
 62
     1
100
AcDbLine
 10
-45.59860918406866
 20
-6.267656255654628
 30
0.0
 11
-45.59265218406835
 21
-6.268870855654768
 31
0.0
  0
LINE
  5
24E
330
2
100
AcDbEntity
  8
GAIKEI
  6
Continuous
 62
     1
100
AcDbLine
 10
-45.59265218406835
 20
-6.268870855654768
 30
0.0
 11
-45.56538158406829
 21
-6.270909355654794
 31
0.0
  0
LINE
  5
24F
330
2
100
AcDbEntity
  8
GAIKEI
  6
Continuous
 62
     1
100
AcDbLine
 10
-45.56538158406829
 20
-6.270909355654794
 30
0.0
 11
-45.49947588406848
 21
-6.27220335565471
 31
0.0
  0
LINE
  5
250
330
2
100
AcDbEntity
  8
GAIKEI
  6
Continuous
 62
     1
100
AcDbLine
 10
-48.40507888406818
 20
-6.267241155654801
 30
0.0
 11
-48.40434648406835
 21
-6.267656255654628
 31
0.0
  0
LINE
  5
251
330
2
100
AcDbEntity
  8
GAIKEI
  6
Continuous
 62
     1
100
AcDbLine
 10
-48.40434648406835
 20
-6.267656255654628
 30
0.0
 11
-48.3983894840685
 21
-6.268870855654768
 31
0.0
  0
LINE
  5
252
330
2
100
AcDbEntity
  8
GAIKEI
  6
Continuous
 62
     1
100
AcDbLine
 10
-48.3983894840685
 20
-6.268870855654768
 30
0.0
 11
-48.37113118406842
 21
-6.270909355654794
 31
0.0
  0
LINE
  5
253
330
2
100
AcDbEntity
  8
GAIKEI
  6
Continuous
 62
     1
100
AcDbLine
 10
-48.37113118406842
 20
-6.270909355654794
 30
0.0
 11
-48.30522538406831
 21
-6.27220335565471
 31
0.0
  0
LINE
  5
254
330
2
100
AcDbEntity
  8
GAIKEI
  6
Continuous
 62
     1
100
AcDbLine
 10
-49.78320388406837
 20
-6.267241155654801
 30
0.0
 11
-49.7839362840682
 21
-6.267656255654628
 31
0.0
  0
LINE
  5
255
330
2
100
AcDbEntity
  8
GAIKEI
  6
Continuous
 62
     1
100
AcDbLine
 10
-49.7839362840682
 20
-6.267656255654628
 30
0.0
 11
-49.78989338406837
 21
-6.268870855654768
 31
0.0
  0
LINE
  5
256
330
2
100
AcDbEntity
  8
GAIKEI
  6
Continuous
 62
     1
100
AcDbLine
 10
-49.78989338406837
 20
-6.268870855654768
 30
0.0
 11
-49.81715168406845
 21
-6.270909355654794
 31
0.0
  0
LINE
  5
257
330
2
100
AcDbEntity
  8
GAIKEI
  6
Continuous
 62
     1
100
AcDbLine
 10
-49.81715168406845
 20
-6.270909355654794
 30
0.0
 11
-49.88305738406825
 21
-6.27220335565471
 31
0.0
  0
LINE
  5
258
330
2
100
AcDbEntity
  8
GAIKEI
  6
Continuous
 62
     1
100
AcDbLine
 10
-9.599341584068497
 20
-6.267241155654801
 30
0.0
 11
-9.598609184068664
 21
-6.267656255654628
 31
0.0
  0
LINE
  5
259
330
2
100
AcDbEntity
  8
GAIKEI
  6
Continuous
 62
     1
100
AcDbLine
 10
-9.598609184068664
 20
-6.267656255654628
 30
0.0
 11
-9.592652184068356
 21
-6.268870855654768
 31
0.0
  0
LINE
  5
25A
330
2
100
AcDbEntity
  8
GAIKEI
  6
Continuous
 62
     1
100
AcDbLine
 10
-9.592652184068356
 20
-6.268870855654768
 30
0.0
 11
-9.56538158406829
 21
-6.270909355654794
 31
0.0
  0
LINE
  5
25B
330
2
100
AcDbEntity
  8
GAIKEI
  6
Continuous
 62
     1
100
AcDbLine
 10
-9.56538158406829
 20
-6.270909355654794
 30
0.0
 11
-9.499475884068488
 21
-6.27220335565471
 31
0.0
  0
LINE
  5
25C
330
2
100
AcDbEntity
  8
GAIKEI
  6
Continuous
 62
     1
100
AcDbLine
 10
-11.78894118406833
 20
-6.267241155654801
 30
0.0
 11
-11.78967358406862
 21
-6.267656255654628
 31
0.0
  0
LINE
  5
25D
330
2
100
AcDbEntity
  8
GAIKEI
  6
Continuous
 62
     1
100
AcDbLine
 10
-11.78967358406862
 20
-6.267656255654628
 30
0.0
 11
-11.79563068406833
 21
-6.268870855654768
 31
0.0
  0
LINE
  5
25E
330
2
100
AcDbEntity
  8
GAIKEI
  6
Continuous
 62
     1
100
AcDbLine
 10
-11.79563068406833
 20
-6.268870855654768
 30
0.0
 11
-11.82290118406854
 21
-6.270909355654794
 31
0.0
  0
LINE
  5
25F
330
2
100
AcDbEntity
  8
GAIKEI
  6
Continuous
 62
     1
100
AcDbLine
 10
-11.82290118406854
 20
-6.270909355654794
 30
0.0
 11
-11.88880688406834
 21
-6.27220335565471
 31
0.0
  0
LINE
  5
260
330
2
100
AcDbEntity
  8
GAIKEI
  6
Continuous
 62
     1
100
AcDbLine
 10
-7.605078884068461
 20
-6.267241155654801
 30
0.0
 11
-7.604346484068628
 21
-6.267656255654628
 31
0.0
  0
LINE
  5
261
330
2
100
AcDbEntity
  8
GAIKEI
  6
Continuous
 62
     1
100
AcDbLine
 10
-7.604346484068628
 20
-6.267656255654628
 30
0.0
 11
-7.59838948406832
 21
-6.268870855654768
 31
0.0
  0
LINE
  5
262
330
2
100
AcDbEntity
  8
GAIKEI
  6
Continuous
 62
     1
100
AcDbLine
 10
-7.59838948406832
 20
-6.268870855654768
 30
0.0
 11
-7.571131184068235
 21
-6.270909355654794
 31
0.0
  0
LINE
  5
263
330
2
100
AcDbEntity
  8
GAIKEI
  6
Continuous
 62
     1
100
AcDbLine
 10
-7.571131184068235
 20
-6.270909355654794
 30
0.0
 11
-7.50522538406858
 21
-6.27220335565471
 31
0.0
  0
LINE
  5
264
330
2
100
AcDbEntity
  8
GAIKEI
  6
Continuous
 62
     1
100
AcDbLine
 10
-8.983203884068188
 20
-6.267241155654801
 30
0.0
 11
-8.983936284068477
 21
-6.267656255654628
 31
0.0
  0
LINE
  5
265
330
2
100
AcDbEntity
  8
GAIKEI
  6
Continuous
 62
     1
100
AcDbLine
 10
-8.983936284068477
 20
-6.267656255654628
 30
0.0
 11
-8.989893384068182
 21
-6.268870855654768
 31
0.0
  0
LINE
  5
266
330
2
100
AcDbEntity
  8
GAIKEI
  6
Continuous
 62
     1
100
AcDbLine
 10
-8.989893384068182
 20
-6.268870855654768
 30
0.0
 11
-9.017151684068721
 21
-6.270909355654794
 31
0.0
  0
LINE
  5
267
330
2
100
AcDbEntity
  8
GAIKEI
  6
Continuous
 62
     1
100
AcDbLine
 10
-9.017151684068721
 20
-6.270909355654794
 30
0.0
 11
-9.083057384068524
 21
-6.27220335565471
 31
0.0
  0
LINE
  5
268
330
2
100
AcDbEntity
  8
GAIKEI
  6
Continuous
 62
     1
100
AcDbLine
 10
-11.61882398406851
 20
-6.192021455654639
 30
0.0
 11
-11.69052808406832
 21
-6.19360835565476
 31
0.0
  0
LINE
  5
269
330
2
100
AcDbEntity
  8
GAIKEI
  6
Continuous
 62
     1
100
AcDbLine
 10
-11.69052808406832
 20
-6.19360835565476
 30
0.0
 11
-11.71198808406825
 21
-6.195360055654646
 31
0.0
  0
LINE
  5
26A
330
2
100
AcDbEntity
  8
GAIKEI
  6
Continuous
 62
     1
100
AcDbLine
 10
-11.71198808406825
 20
-6.195360055654646
 30
0.0
 11
-11.71795728406823
 21
-6.196568555654721
 31
0.0
  0
LINE
  5
26B
330
2
100
AcDbEntity
  8
GAIKEI
  6
Continuous
 62
     1
100
AcDbLine
 10
-11.71795728406823
 20
-6.196568555654721
 30
0.0
 11
-11.71868978406837
 21
-6.196989655654761
 31
0.0
  0
LINE
  5
26C
330
2
100
AcDbEntity
  8
GAIKEI
  6
Continuous
 62
     1
100
AcDbLine
 10
-9.769458784068319
 20
-6.192021455654639
 30
0.0
 11
-9.697754684068513
 21
-6.19360835565476
 31
0.0
  0
LINE
  5
26D
330
2
100
AcDbEntity
  8
GAIKEI
  6
Continuous
 62
     1
100
AcDbLine
 10
-9.697754684068513
 20
-6.19360835565476
 30
0.0
 11
-9.676294684068579
 21
-6.195360055654646
 31
0.0
  0
LINE
  5
26E
330
2
100
AcDbEntity
  8
GAIKEI
  6
Continuous
 62
     1
100
AcDbLine
 10
-9.676294684068579
 20
-6.195360055654646
 30
0.0
 11
-9.670325484068598
 21
-6.196568555654721
 31
0.0
  0
LINE
  5
26F
330
2
100
AcDbEntity
  8
GAIKEI
  6
Continuous
 62
     1
100
AcDbLine
 10
-9.670325484068598
 20
-6.196568555654721
 30
0.0
 11
-9.66959308406831
 21
-6.196989655654761
 31
0.0
  0
LINE
  5
270
330
2
100
AcDbEntity
  8
GAIKEI
  6
Continuous
 62
     1
100
AcDbLine
 10
-8.84924398406838
 20
-6.228184755654638
 30
0.0
 11
-8.920948084068186
 21
-6.229771655654758
 31
0.0
  0
LINE
  5
271
330
2
100
AcDbEntity
  8
GAIKEI
  6
Continuous
 62
     1
100
AcDbLine
 10
-8.920948084068186
 20
-6.229771655654758
 30
0.0
 11
-8.942407984068722
 21
-6.231517255654807
 31
0.0
  0
LINE
  5
272
330
2
100
AcDbEntity
  8
GAIKEI
  6
Continuous
 62
     1
100
AcDbLine
 10
-8.942407984068722
 20
-6.231517255654807
 30
0.0
 11
-8.948364984068575
 21
-6.232731855654719
 31
0.0
  0
LINE
  5
273
330
2
100
AcDbEntity
  8
GAIKEI
  6
Continuous
 62
     1
100
AcDbLine
 10
-8.948364984068575
 20
-6.232731855654719
 30
0.0
 11
-8.949109684068389
 21
-6.233153055654611
 31
0.0
  0
LINE
  5
274
330
2
100
AcDbEntity
  8
GAIKEI
  6
Continuous
 62
     1
100
AcDbLine
 10
-7.739038884068577
 20
-6.228184755654638
 30
0.0
 11
-7.667334784068316
 21
-6.229771655654758
 31
0.0
  0
LINE
  5
275
330
2
100
AcDbEntity
  8
GAIKEI
  6
Continuous
 62
     1
100
AcDbLine
 10
-7.667334784068316
 20
-6.229771655654758
 30
0.0
 11
-7.645874784068382
 21
-6.231517255654807
 31
0.0
  0
LINE
  5
276
330
2
100
AcDbEntity
  8
GAIKEI
  6
Continuous
 62
     1
100
AcDbLine
 10
-7.645874784068382
 20
-6.231517255654807
 30
0.0
 11
-7.639917784068529
 21
-6.232731855654719
 31
0.0
  0
LINE
  5
277
330
2
100
AcDbEntity
  8
GAIKEI
  6
Continuous
 62
     1
100
AcDbLine
 10
-7.639917784068529
 20
-6.232731855654719
 30
0.0
 11
-7.639173184068113
 21
-6.233153055654611
 31
0.0
  0
LINE
  5
278
330
2
100
AcDbEntity
  8
GAIKEI
  6
Continuous
 62
     1
100
AcDbLine
 10
-45.76945878406831
 20
-6.192021455654639
 30
0.0
 11
-45.69775468406851
 21
-6.19360835565476
 31
0.0
  0
LINE
  5
279
330
2
100
AcDbEntity
  8
GAIKEI
  6
Continuous
 62
     1
100
AcDbLine
 10
-45.69775468406851
 20
-6.19360835565476
 30
0.0
 11
-45.67629468406858
 21
-6.195360055654646
 31
0.0
  0
LINE
  5
27A
330
2
100
AcDbEntity
  8
GAIKEI
  6
Continuous
 62
     1
100
AcDbLine
 10
-45.67629468406858
 20
-6.195360055654646
 30
0.0
 11
-45.67032548406859
 21
-6.196568555654721
 31
0.0
  0
LINE
  5
27B
330
2
100
AcDbEntity
  8
GAIKEI
  6
Continuous
 62
     1
100
AcDbLine
 10
-45.67032548406859
 20
-6.196568555654721
 30
0.0
 11
-45.66959308406831
 21
-6.196989655654761
 31
0.0
  0
LINE
  5
27C
330
2
100
AcDbEntity
  8
GAIKEI
  6
Continuous
 62
     1
100
AcDbLine
 10
-47.61882398406851
 20
-6.192021455654639
 30
0.0
 11
-47.69052808406832
 21
-6.19360835565476
 31
0.0
  0
LINE
  5
27D
330
2
100
AcDbEntity
  8
GAIKEI
  6
Continuous
 62
     1
100
AcDbLine
 10
-47.69052808406832
 20
-6.19360835565476
 30
0.0
 11
-47.71198808406871
 21
-6.195360055654646
 31
0.0
  0
LINE
  5
27E
330
2
100
AcDbEntity
  8
GAIKEI
  6
Continuous
 62
     1
100
AcDbLine
 10
-47.71198808406871
 20
-6.195360055654646
 30
0.0
 11
-47.71795728406823
 21
-6.196568555654721
 31
0.0
  0
LINE
  5
27F
330
2
100
AcDbEntity
  8
GAIKEI
  6
Continuous
 62
     1
100
AcDbLine
 10
-47.71795728406823
 20
-6.196568555654721
 30
0.0
 11
-47.71868978406837
 21
-6.196989655654761
 31
0.0
  0
LINE
  5
280
330
2
100
AcDbEntity
  8
GAIKEI
  6
Continuous
 62
     1
100
AcDbLine
 10
-49.64924398406811
 20
-6.228184755654638
 30
0.0
 11
-49.72094808406836
 21
-6.229771655654758
 31
0.0
  0
LINE
  5
281
330
2
100
AcDbEntity
  8
GAIKEI
  6
Continuous
 62
     1
100
AcDbLine
 10
-49.72094808406836
 20
-6.229771655654758
 30
0.0
 11
-49.74240798406845
 21
-6.231517255654807
 31
0.0
  0
LINE
  5
282
330
2
100
AcDbEntity
  8
GAIKEI
  6
Continuous
 62
     1
100
AcDbLine
 10
-49.74240798406845
 20
-6.231517255654807
 30
0.0
 11
-49.7483649840683
 21
-6.232731855654719
 31
0.0
  0
LINE
  5
283
330
2
100
AcDbEntity
  8
GAIKEI
  6
Continuous
 62
     1
100
AcDbLine
 10
-49.7483649840683
 20
-6.232731855654719
 30
0.0
 11
-49.74910968406857
 21
-6.233153055654611
 31
0.0
  0
LINE
  5
284
330
2
100
AcDbEntity
  8
GAIKEI
  6
Continuous
 62
     1
100
AcDbLine
 10
-48.5390388840683
 20
-6.228184755654638
 30
0.0
 11
-48.4673347840685
 21
-6.229771655654758
 31
0.0
  0
LINE
  5
285
330
2
100
AcDbEntity
  8
GAIKEI
  6
Continuous
 62
     1
100
AcDbLine
 10
-48.4673347840685
 20
-6.229771655654758
 30
0.0
 11
-48.44587478406856
 21
-6.231517255654807
 31
0.0
  0
LINE
  5
286
330
2
100
AcDbEntity
  8
GAIKEI
  6
Continuous
 62
     1
100
AcDbLine
 10
-48.44587478406856
 20
-6.231517255654807
 30
0.0
 11
-48.43991778406826
 21
-6.232731855654719
 31
0.0
  0
LINE
  5
287
330
2
100
AcDbEntity
  8
GAIKEI
  6
Continuous
 62
     1
100
AcDbLine
 10
-48.43991778406826
 20
-6.232731855654719
 30
0.0
 11
-48.4391731840683
 21
-6.233153055654611
 31
0.0
  0
LINE
  5
288
330
2
100
AcDbEntity
  8
GAIKEI
  6
Continuous
 62
     7
100
AcDbLine
 10
-48.79597248406844
 20
37.86094184434523
 30
0.0
 11
-48.72428058406831
 21
37.86252564434517
 31
0.0
  0
LINE
  5
289
330
2
100
AcDbEntity
  8
GAIKEI
  6
Continuous
 62
     7
100
AcDbLine
 10
-48.72428058406831
 20
37.86252564434517
 30
0.0
 11
-48.70277178406832
 21
37.86427124434522
 31
0.0
  0
LINE
  5
28A
330
2
100
AcDbEntity
  8
GAIKEI
  6
Continuous
 62
     7
100
AcDbLine
 10
-48.70277178406832
 20
37.86427124434522
 30
0.0
 11
-48.69677808406823
 21
37.86548584434536
 31
0.0
  0
LINE
  5
28B
330
2
100
AcDbEntity
  8
GAIKEI
  6
Continuous
 62
     7
100
AcDbLine
 10
-48.69677808406823
 20
37.86548584434536
 30
0.0
 11
-48.69603348406826
 21
37.86590094434519
 31
0.0
  0
LINE
  5
28C
330
2
100
AcDbEntity
  8
GAIKEI
  6
Continuous
 62
     7
100
AcDbLine
 10
-49.39231038406842
 20
37.86094184434523
 30
0.0
 11
-49.4640022840681
 21
37.86252564434517
 31
0.0
  0
LINE
  5
28D
330
2
100
AcDbEntity
  8
GAIKEI
  6
Continuous
 62
     7
100
AcDbLine
 10
-49.4640022840681
 20
37.86252564434517
 30
0.0
 11
-49.4855109840687
 21
37.86427124434522
 31
0.0
  0
LINE
  5
28E
330
2
100
AcDbEntity
  8
GAIKEI
  6
Continuous
 62
     7
100
AcDbLine
 10
-49.4855109840687
 20
37.86427124434522
 30
0.0
 11
-49.49150468406833
 21
37.86548584434536
 31
0.0
  0
LINE
  5
28F
330
2
100
AcDbEntity
  8
GAIKEI
  6
Continuous
 62
     7
100
AcDbLine
 10
-49.49150468406833
 20
37.86548584434536
 30
0.0
 11
-49.49224928406829
 21
37.86590094434519
 31
0.0
  0
LINE
  5
290
330
2
100
AcDbEntity
  8
GAIKEI
  6
Continuous
 62
     7
100
AcDbLine
 10
-8.592310384068241
 20
37.86094184434523
 30
0.0
 11
-8.664002284068374
 21
37.86252564434517
 31
0.0
  0
LINE
  5
291
330
2
100
AcDbEntity
  8
GAIKEI
  6
Continuous
 62
     7
100
AcDbLine
 10
-8.664002284068374
 20
37.86252564434517
 30
0.0
 11
-8.685510984068514
 21
37.86427124434522
 31
0.0
  0
LINE
  5
292
330
2
100
AcDbEntity
  8
GAIKEI
  6
Continuous
 62
     7
100
AcDbLine
 10
-8.685510984068514
 20
37.86427124434522
 30
0.0
 11
-8.691504684068604
 21
37.86548584434536
 31
0.0
  0
LINE
  5
293
330
2
100
AcDbEntity
  8
GAIKEI
  6
Continuous
 62
     7
100
AcDbLine
 10
-8.691504684068604
 20
37.86548584434536
 30
0.0
 11
-8.692249284068111
 21
37.86590094434519
 31
0.0
  0
LINE
  5
294
330
2
100
AcDbEntity
  8
GAIKEI
  6
Continuous
 62
     7
100
AcDbLine
 10
-7.995972484068715
 20
37.86094184434523
 30
0.0
 11
-7.924280584068583
 21
37.86252564434517
 31
0.0
  0
LINE
  5
295
330
2
100
AcDbEntity
  8
GAIKEI
  6
Continuous
 62
     7
100
AcDbLine
 10
-7.924280584068583
 20
37.86252564434517
 30
0.0
 11
-7.90277178406859
 21
37.86427124434522
 31
0.0
  0
LINE
  5
296
330
2
100
AcDbEntity
  8
GAIKEI
  6
Continuous
 62
     7
100
AcDbLine
 10
-7.90277178406859
 20
37.86427124434522
 30
0.0
 11
-7.8967780840685
 21
37.86548584434536
 31
0.0
  0
LINE
  5
297
330
2
100
AcDbEntity
  8
GAIKEI
  6
Continuous
 62
     7
100
AcDbLine
 10
-7.8967780840685
 20
37.86548584434536
 30
0.0
 11
-7.896033484068539
 21
37.86590094434519
 31
0.0
  0
LINE
  5
298
330
2
100
AcDbEntity
  8
GAIKEI
  6
Continuous
 62
     1
100
AcDbLine
 10
-49.53941728406835
 20
-4.400181855654636
 30
0.0
 11
-49.48881908406838
 21
-4.400181855654636
 31
0.0
  0
LINE
  5
299
330
2
100
AcDbEntity
  8
GAIKEI
  6
Continuous
 62
     1
100
AcDbLine
 10
-49.02913898406859
 20
-4.910460155654845
 30
0.0
 11
-49.02913898406859
 21
-4.85986205565473
 31
0.0
  0
LINE
  5
29A
330
2
100
AcDbEntity
  8
GAIKEI
  6
Continuous
 62
     1
100
AcDbLine
 10
-49.53941728406835
 20
-4.530180655654703
 30
0.0
 11
-49.48881908406838
 21
-4.530180655654703
 31
0.0
  0
LINE
  5
29B
330
2
100
AcDbEntity
  8
GAIKEI
  6
Continuous
 62
     1
100
AcDbLine
 10
-49.15914388406872
 20
-4.910460155654845
 30
0.0
 11
-49.15914388406872
 21
-4.85986205565473
 31
0.0
  0
LINE
  5
29C
330
2
100
AcDbEntity
  8
GAIKEI
  6
Continuous
 62
     1
100
AcDbLine
 10
-48.69946368406863
 20
-4.530180655654703
 30
0.0
 11
-48.64886548406866
 21
-4.530180655654703
 31
0.0
  0
LINE
  5
29D
330
2
100
AcDbEntity
  8
GAIKEI
  6
Continuous
 62
     1
100
AcDbLine
 10
-49.15914388406872
 20
-4.070494355654773
 30
0.0
 11
-49.15914388406872
 21
-4.019896155654805
 31
0.0
  0
LINE
  5
29E
330
2
100
AcDbEntity
  8
GAIKEI
  6
Continuous
 62
     1
100
AcDbLine
 10
-48.69946368406863
 20
-4.400181855654636
 30
0.0
 11
-48.64886548406866
 21
-4.400181855654636
 31
0.0
  0
LINE
  5
29F
330
2
100
AcDbEntity
  8
GAIKEI
  6
Continuous
 62
     1
100
AcDbLine
 10
-49.02913898406859
 20
-4.070494355654773
 30
0.0
 11
-49.02913898406859
 21
-4.019896155654805
 31
0.0
  0
LINE
  5
2A0
330
2
100
AcDbEntity
  8
GAIKEI
  6
Continuous
 62
     1
100
AcDbLine
 10
-48.59838948406832
 20
-4.400181855654636
 30
0.0
 11
-48.64886548406866
 21
-4.400181855654636
 31
0.0
  0
LINE
  5
2A1
330
2
100
AcDbEntity
  8
GAIKEI
  6
Continuous
 62
     1
100
AcDbLine
 10
-49.02913898406859
 20
-3.969420155654688
 30
0.0
 11
-49.02913898406859
 21
-4.019896155654805
 31
0.0
  0
LINE
  5
2A2
330
2
100
AcDbEntity
  8
GAIKEI
  6
Continuous
 62
     1
100
AcDbLine
 10
-49.02913898406859
 20
-4.960936255654814
 30
0.0
 11
-49.02913898406859
 21
-4.910460155654845
 31
0.0
  0
LINE
  5
2A3
330
2
100
AcDbEntity
  8
GAIKEI
  6
Continuous
 62
     1
100
AcDbLine
 10
-48.59838948406832
 20
-4.530180655654703
 30
0.0
 11
-48.64886548406866
 21
-4.530180655654703
 31
0.0
  0
LINE
  5
2A4
330
2
100
AcDbEntity
  8
GAIKEI
  6
Continuous
 62
     1
100
AcDbLine
 10
-49.58989338406855
 20
-4.530180655654703
 30
0.0
 11
-49.53941728406835
 21
-4.530180655654703
 31
0.0
  0
LINE
  5
2A5
330
2
100
AcDbEntity
  8
GAIKEI
  6
Continuous
 62
     1
100
AcDbLine
 10
-49.15914388406872
 20
-4.960936255654814
 30
0.0
 11
-49.15914388406872
 21
-4.910460155654845
 31
0.0
  0
LINE
  5
2A6
330
2
100
AcDbEntity
  8
GAIKEI
  6
Continuous
 62
     1
100
AcDbLine
 10
-49.15914388406872
 20
-3.969420155654688
 30
0.0
 11
-49.15914388406872
 21
-4.019896155654805
 31
0.0
  0
LINE
  5
2A7
330
2
100
AcDbEntity
  8
GAIKEI
  6
Continuous
 62
     1
100
AcDbLine
 10
-49.58989338406855
 20
-4.400181855654636
 30
0.0
 11
-49.53941728406835
 21
-4.400181855654636
 31
0.0
  0
LINE
  5
2A8
330
2
100
AcDbEntity
  8
GAIKEI
  6
Continuous
 62
     1
100
AcDbLine
 10
-49.48881908406838
 20
-4.400181855654636
 30
0.0
 11
-49.15914388406872
 21
-4.400181855654636
 31
0.0
  0
LINE
  5
2A9
330
2
100
AcDbEntity
  8
GAIKEI
  6
Continuous
 62
     1
100
AcDbLine
 10
-49.15914388406872
 20
-4.400181855654636
 30
0.0
 11
-49.15914388406872
 21
-4.070494355654773
 31
0.0
  0
LINE
  5
2AA
330
2
100
AcDbEntity
  8
GAIKEI
  6
Continuous
 62
     1
100
AcDbLine
 10
-49.15914388406872
 20
-4.85986205565473
 30
0.0
 11
-49.15914388406872
 21
-4.530180655654703
 31
0.0
  0
LINE
  5
2AB
330
2
100
AcDbEntity
  8
GAIKEI
  6
Continuous
 62
     1
100
AcDbLine
 10
-49.15914388406872
 20
-4.530180655654703
 30
0.0
 11
-49.48881908406838
 21
-4.530180655654703
 31
0.0
  0
LINE
  5
2AC
330
2
100
AcDbEntity
  8
GAIKEI
  6
Continuous
 62
     1
100
AcDbLine
 10
-48.69946368406863
 20
-4.530180655654703
 30
0.0
 11
-49.02913898406859
 21
-4.530180655654703
 31
0.0
  0
LINE
  5
2AD
330
2
100
AcDbEntity
  8
GAIKEI
  6
Continuous
 62
     1
100
AcDbLine
 10
-49.02913898406859
 20
-4.530180655654703
 30
0.0
 11
-49.02913898406859
 21
-4.85986205565473
 31
0.0
  0
LINE
  5
2AE
330
2
100
AcDbEntity
  8
GAIKEI
  6
Continuous
 62
     1
100
AcDbLine
 10
-49.02913898406859
 20
-4.070494355654773
 30
0.0
 11
-49.02913898406859
 21
-4.400181855654636
 31
0.0
  0
LINE
  5
2AF
330
2
100
AcDbEntity
  8
GAIKEI
  6
Continuous
 62
     1
100
AcDbLine
 10
-49.02913898406859
 20
-4.400181855654636
 30
0.0
 11
-48.69946368406863
 21
-4.400181855654636
 31
0.0
  0
LINE
  5
2B0
330
2
100
AcDbEntity
  8
GAIKEI
  6
Continuous
 62
     7
100
AcDbLine
 10
2.306127115931758
 20
-6.315178155654621
 30
0.0
 11
-6.594409984068533
 21
-6.315178155654621
 31
0.0
  0
LINE
  5
2B1
330
2
100
AcDbEntity
  8
GAIKEI
  6
Continuous
 62
     7
100
AcDbLine
 10
2.306127115931758
 20
37.98481874434515
 30
0.0
 11
-6.594409984068533
 21
37.98481874434515
 31
0.0
  0
LINE
  5
2B2
330
2
100
AcDbEntity
  8
GAIKEI
  6
Continuous
 62
     1
100
AcDbLine
 10
59.60941955764065
 20
15.58483272934768
 30
0.0
 11
59.60941955764065
 21
0.5848327493476973
 31
0.0
  0
LINE
  5
2B3
330
2
100
AcDbEntity
  8
GAIKEI
  6
Continuous
 62
     1
100
AcDbLine
 10
59.80941955764092
 20
14.96084272834832
 30
0.0
 11
59.80941955764047
 21
0.6868527473479844
 31
0.0
  0
LINE
  5
2B4
330
2
100
AcDbEntity
  8
GAIKEI
  6
Continuous
 62
     1
100
AcDbLine
 10
59.6094195576411
 20
14.73483272934777
 30
0.0
 11
59.6094195576411
 21
6.134832429347397
 31
0.0
  0
LINE
  5
2B5
330
2
100
AcDbEntity
  8
GAIKEI
  6
Continuous
 62
     1
100
AcDbLine
 10
59.60941955764065
 20
15.58483272934768
 30
0.0
 11
59.60941955764065
 21
15.10983272934822
 31
0.0
  0
LINE
  5
2B6
330
2
100
AcDbEntity
  8
GAIKEI
  6
Continuous
 62
     1
100
AcDbLine
 10
59.80941955764092
 20
15.48281273134739
 30
0.0
 11
59.80941955764092
 21
14.96084272834855
 31
0.0
  0
LINE
  5
2B7
330
2
100
AcDbEntity
  8
GAIKEI
  6
Continuous
 62
     1
100
AcDbLine
 10
59.7114191577607
 20
0.5868727413501347
 30
0.0
 11
59.60941855764076
 21
0.5848327293476814
 31
0.0
  0
LINE
  5
2B8
330
2
100
AcDbEntity
  8
GAIKEI
  6
Continuous
 62
     1
100
AcDbLine
 10
59.60941955764065
 20
15.58483272934768
 30
0.0
 11
59.7114191577607
 21
15.58279273734547
 31
0.0
  0
LINE
  5
2B9
330
2
100
AcDbEntity
  8
GAIKEI
  6
Continuous
 62
     1
100
AcDbLine
 10
59.80941955764092
 20
8.884832729347408
 30
0.0
 11
59.88941955764085
 21
8.884832729347408
 31
0.0
  0
LINE
  5
2BA
330
2
100
AcDbEntity
  8
GAIKEI
  6
Continuous
 62
     1
100
AcDbLine
 10
59.80941955764092
 20
8.584832729347226
 30
0.0
 11
59.88941955764085
 21
8.584832729347226
 31
0.0
  0
LINE
  5
2BB
330
2
100
AcDbEntity
  8
GAIKEI
  6
Continuous
 62
     1
100
AcDbLine
 10
59.93941955764057
 20
8.834832729347226
 30
0.0
 11
59.93941955764057
 21
8.634832729347408
 31
0.0
  0
LINE
  5
2BC
330
2
100
AcDbEntity
  8
GAIKEI
  6
Continuous
 62
     1
100
AcDbLine
 10
59.88941955764085
 20
7.284832729347954
 30
0.0
 11
59.80941955764092
 21
7.284832729347954
 31
0.0
  0
LINE
  5
2BD
330
2
100
AcDbEntity
  8
GAIKEI
  6
Continuous
 62
     1
100
AcDbLine
 10
59.88941955764085
 20
7.584832729347908
 30
0.0
 11
59.80941955764092
 21
7.584832729347908
 31
0.0
  0
LINE
  5
2BE
330
2
100
AcDbEntity
  8
GAIKEI
  6
Continuous
 62
     1
100
AcDbLine
 10
59.93941955764057
 20
7.534832729347954
 30
0.0
 11
59.93941955764057
 21
7.334832729347908
 31
0.0
  0
LINE
  5
2BF
330
2
100
AcDbEntity
  8
GAIKEI
  6
Continuous
 62
     1
100
AcDbLine
 10
59.80941955764092
 20
10.98483272934754
 30
0.0
 11
59.88941955764085
 21
10.98483272934754
 31
0.0
  0
LINE
  5
2C0
330
2
100
AcDbEntity
  8
GAIKEI
  6
Continuous
 62
     1
100
AcDbLine
 10
59.80941955764092
 20
10.68483272934759
 30
0.0
 11
59.88941955764085
 21
10.68483272934759
 31
0.0
  0
LINE
  5
2C1
330
2
100
AcDbEntity
  8
GAIKEI
  6
Continuous
 62
     1
100
AcDbLine
 10
59.93941955764057
 20
10.93483272934759
 30
0.0
 11
59.93941955764057
 21
10.73483272934754
 31
0.0
  0
LINE
  5
2C2
330
2
100
AcDbEntity
  8
GAIKEI
  6
Continuous
 62
     1
100
AcDbLine
 10
59.80941955764092
 20
12.18483272934759
 30
0.0
 11
59.88941955764085
 21
12.18483272934759
 31
0.0
  0
LINE
  5
2C3
330
2
100
AcDbEntity
  8
GAIKEI
  6
Continuous
 62
     1
100
AcDbLine
 10
59.80941955764092
 20
11.88483272934763
 30
0.0
 11
59.88941955764085
 21
11.88483272934763
 31
0.0
  0
LINE
  5
2C4
330
2
100
AcDbEntity
  8
GAIKEI
  6
Continuous
 62
     1
100
AcDbLine
 10
59.93941955764057
 20
12.13483272934763
 30
0.0
 11
59.93941955764057
 21
11.93483272934759
 31
0.0
  0
LINE
  5
2C5
330
2
100
AcDbEntity
  8
GAIKEI
  6
Continuous
 62
     1
100
AcDbLine
 10
59.80941955764092
 20
14.33483272934768
 30
0.0
 11
59.88941955764085
 21
14.33483272934768
 31
0.0
  0
LINE
  5
2C6
330
2
100
AcDbEntity
  8
GAIKEI
  6
Continuous
 62
     1
100
AcDbLine
 10
59.80941955764092
 20
14.03483272934773
 30
0.0
 11
59.88941955764085
 21
14.03483272934773
 31
0.0
  0
LINE
  5
2C7
330
2
100
AcDbEntity
  8
GAIKEI
  6
Continuous
 62
     1
100
AcDbLine
 10
59.93941955764057
 20
14.28483272934772
 30
0.0
 11
59.93941955764057
 21
14.08483272934768
 31
0.0
  0
LINE
  5
2C8
330
2
100
AcDbEntity
  8
GAIKEI
  6
Continuous
 62
     1
100
AcDbLine
 10
59.88941955764085
 20
1.834832729347681
 30
0.0
 11
59.80941955764092
 21
1.834832729347681
 31
0.0
  0
LINE
  5
2C9
330
2
100
AcDbEntity
  8
GAIKEI
  6
Continuous
 62
     1
100
AcDbLine
 10
59.88941955764085
 20
2.134832729347635
 30
0.0
 11
59.80941955764092
 21
2.134832729347635
 31
0.0
  0
LINE
  5
2CA
330
2
100
AcDbEntity
  8
GAIKEI
  6
Continuous
 62
     1
100
AcDbLine
 10
59.93941955764057
 20
2.084832729347681
 30
0.0
 11
59.93941955764057
 21
1.884832729347635
 31
0.0
  0
LINE
  5
2CB
330
2
100
AcDbEntity
  8
GAIKEI
  6
Continuous
 62
     1
100
AcDbLine
 10
59.88941955764085
 20
3.984832729347772
 30
0.0
 11
59.80941955764092
 21
3.984832729347772
 31
0.0
  0
LINE
  5
2CC
330
2
100
AcDbEntity
  8
GAIKEI
  6
Continuous
 62
     1
100
AcDbLine
 10
59.88941955764085
 20
4.284832729347726
 30
0.0
 11
59.80941955764092
 21
4.284832729347726
 31
0.0
  0
LINE
  5
2CD
330
2
100
AcDbEntity
  8
GAIKEI
  6
Continuous
 62
     1
100
AcDbLine
 10
59.93941955764057
 20
4.234832729347772
 30
0.0
 11
59.93941955764057
 21
4.034832729347726
 31
0.0
  0
LINE
  5
2CE
330
2
100
AcDbEntity
  8
GAIKEI
  6
Continuous
 62
     1
100
AcDbLine
 10
59.88941955764085
 20
5.184832729347817
 30
0.0
 11
59.80941955764092
 21
5.184832729347817
 31
0.0
  0
LINE
  5
2CF
330
2
100
AcDbEntity
  8
GAIKEI
  6
Continuous
 62
     1
100
AcDbLine
 10
59.88941955764085
 20
5.484832729347772
 30
0.0
 11
59.80941955764092
 21
5.484832729347772
 31
0.0
  0
LINE
  5
2D0
330
2
100
AcDbEntity
  8
GAIKEI
  6
Continuous
 62
     1
100
AcDbLine
 10
59.93941955764057
 20
5.434832729347817
 30
0.0
 11
59.93941955764057
 21
5.234832729347772
 31
0.0
  0
LINE
  5
2D1
330
2
100
AcDbEntity
  8
GAIKEI
  6
Continuous
 62
     1
100
AcDbLine
 10
59.93941955764057
 20
20.93483272934782
 30
0.0
 11
59.93941955764057
 21
20.73483272934777
 31
0.0
  0
LINE
  5
2D2
330
2
100
AcDbEntity
  8
GAIKEI
  6
Continuous
 62
     1
100
AcDbLine
 10
59.88941955764085
 20
20.98483272934777
 30
0.0
 11
59.80941955764092
 21
20.98483272934777
 31
0.0
  0
LINE
  5
2D3
330
2
100
AcDbEntity
  8
GAIKEI
  6
Continuous
 62
     1
100
AcDbLine
 10
59.88941955764085
 20
20.68483272934782
 30
0.0
 11
59.80941955764092
 21
20.68483272934782
 31
0.0
  0
LINE
  5
2D4
330
2
100
AcDbEntity
  8
GAIKEI
  6
Continuous
 62
     1
100
AcDbLine
 10
59.93941955764057
 20
19.73483272934777
 30
0.0
 11
59.93941955764057
 21
19.53483272934773
 31
0.0
  0
LINE
  5
2D5
330
2
100
AcDbEntity
  8
GAIKEI
  6
Continuous
 62
     1
100
AcDbLine
 10
59.88941955764085
 20
19.78483272934773
 30
0.0
 11
59.80941955764092
 21
19.78483272934773
 31
0.0
  0
LINE
  5
2D6
330
2
100
AcDbEntity
  8
GAIKEI
  6
Continuous
 62
     1
100
AcDbLine
 10
59.88941955764085
 20
19.48483272934777
 30
0.0
 11
59.80941955764092
 21
19.48483272934777
 31
0.0
  0
LINE
  5
2D7
330
2
100
AcDbEntity
  8
GAIKEI
  6
Continuous
 62
     1
100
AcDbLine
 10
59.93941955764057
 20
17.58483272934768
 30
0.0
 11
59.93941955764057
 21
17.38483272934763
 31
0.0
  0
LINE
  5
2D8
330
2
100
AcDbEntity
  8
GAIKEI
  6
Continuous
 62
     1
100
AcDbLine
 10
59.88941955764085
 20
17.63483272934763
 30
0.0
 11
59.80941955764092
 21
17.63483272934763
 31
0.0
  0
LINE
  5
2D9
330
2
100
AcDbEntity
  8
GAIKEI
  6
Continuous
 62
     1
100
AcDbLine
 10
59.88941955764085
 20
17.33483272934768
 30
0.0
 11
59.80941955764092
 21
17.33483272934768
 31
0.0
  0
LINE
  5
2DA
330
2
100
AcDbEntity
  8
GAIKEI
  6
Continuous
 62
     1
100
AcDbLine
 10
59.93941955764057
 20
29.78483272934773
 30
0.0
 11
59.93941955764057
 21
29.58483272934768
 31
0.0
  0
LINE
  5
2DB
330
2
100
AcDbEntity
  8
GAIKEI
  6
Continuous
 62
     1
100
AcDbLine
 10
59.80941955764092
 20
29.53483272934773
 30
0.0
 11
59.88941955764085
 21
29.53483272934773
 31
0.0
  0
LINE
  5
2DC
330
2
100
AcDbEntity
  8
GAIKEI
  6
Continuous
 62
     1
100
AcDbLine
 10
59.80941955764092
 20
29.83483272934768
 30
0.0
 11
59.88941955764085
 21
29.83483272934768
 31
0.0
  0
LINE
  5
2DD
330
2
100
AcDbEntity
  8
GAIKEI
  6
Continuous
 62
     1
100
AcDbLine
 10
59.93941955764057
 20
27.63483272934764
 30
0.0
 11
59.93941955764057
 21
27.43483272934759
 31
0.0
  0
LINE
  5
2DE
330
2
100
AcDbEntity
  8
GAIKEI
  6
Continuous
 62
     1
100
AcDbLine
 10
59.80941955764092
 20
27.38483272934764
 30
0.0
 11
59.88941955764085
 21
27.38483272934764
 31
0.0
  0
LINE
  5
2DF
330
2
100
AcDbEntity
  8
GAIKEI
  6
Continuous
 62
     1
100
AcDbLine
 10
59.80941955764092
 20
27.68483272934759
 30
0.0
 11
59.88941955764085
 21
27.68483272934759
 31
0.0
  0
LINE
  5
2E0
330
2
100
AcDbEntity
  8
GAIKEI
  6
Continuous
 62
     1
100
AcDbLine
 10
59.93941955764057
 20
26.43483272934759
 30
0.0
 11
59.93941955764057
 21
26.23483272934755
 31
0.0
  0
LINE
  5
2E1
330
2
100
AcDbEntity
  8
GAIKEI
  6
Continuous
 62
     1
100
AcDbLine
 10
59.80941955764092
 20
26.18483272934759
 30
0.0
 11
59.88941955764085
 21
26.18483272934759
 31
0.0
  0
LINE
  5
2E2
330
2
100
AcDbEntity
  8
GAIKEI
  6
Continuous
 62
     1
100
AcDbLine
 10
59.80941955764092
 20
26.48483272934754
 30
0.0
 11
59.88941955764085
 21
26.48483272934754
 31
0.0
  0
LINE
  5
2E3
330
2
100
AcDbEntity
  8
GAIKEI
  6
Continuous
 62
     1
100
AcDbLine
 10
59.93941955764057
 20
23.03483272934796
 30
0.0
 11
59.93941955764057
 21
22.83483272934791
 31
0.0
  0
LINE
  5
2E4
330
2
100
AcDbEntity
  8
GAIKEI
  6
Continuous
 62
     1
100
AcDbLine
 10
59.88941955764085
 20
23.08483272934791
 30
0.0
 11
59.80941955764092
 21
23.08483272934791
 31
0.0
  0
LINE
  5
2E5
330
2
100
AcDbEntity
  8
GAIKEI
  6
Continuous
 62
     1
100
AcDbLine
 10
59.88941955764085
 20
22.78483272934796
 30
0.0
 11
59.80941955764092
 21
22.78483272934796
 31
0.0
  0
LINE
  5
2E6
330
2
100
AcDbEntity
  8
GAIKEI
  6
Continuous
 62
     1
100
AcDbLine
 10
59.93941955764057
 20
24.33483272934723
 30
0.0
 11
59.93941955764057
 21
24.13483272934741
 31
0.0
  0
LINE
  5
2E7
330
2
100
AcDbEntity
  8
GAIKEI
  6
Continuous
 62
     1
100
AcDbLine
 10
59.80941955764092
 20
24.08483272934723
 30
0.0
 11
59.88941955764085
 21
24.08483272934723
 31
0.0
  0
LINE
  5
2E8
330
2
100
AcDbEntity
  8
GAIKEI
  6
Continuous
 62
     1
100
AcDbLine
 10
59.80941955764092
 20
24.38483272934741
 30
0.0
 11
59.88941955764085
 21
24.38483272934741
 31
0.0
  0
LINE
  5
2E9
330
2
100
AcDbEntity
  8
GAIKEI
  6
Continuous
 62
     1
100
AcDbLine
 10
59.60941955764065
 20
31.08483272934768
 30
0.0
 11
59.7114191577607
 21
31.08279273734547
 31
0.0
  0
LINE
  5
2EA
330
2
100
AcDbEntity
  8
GAIKEI
  6
Continuous
 62
     1
100
AcDbLine
 10
59.7114191577607
 20
16.08687274135013
 30
0.0
 11
59.60941855764076
 21
16.08483272934768
 31
0.0
  0
LINE
  5
2EB
330
2
100
AcDbEntity
  8
GAIKEI
  6
Continuous
 62
     1
100
AcDbLine
 10
59.80941955764092
 20
30.9828127313474
 30
0.0
 11
59.80941955764092
 21
30.46084272834856
 31
0.0
  0
LINE
  5
2EC
330
2
100
AcDbEntity
  8
GAIKEI
  6
Continuous
 62
     1
100
AcDbLine
 10
59.60941955764065
 20
31.08483272934768
 30
0.0
 11
59.60941955764065
 21
30.60983272934823
 31
0.0
  0
LINE
  5
2ED
330
2
100
AcDbEntity
  8
GAIKEI
  6
Continuous
 62
     1
100
AcDbLine
 10
59.6094195576411
 20
30.23483272934778
 30
0.0
 11
59.6094195576411
 21
21.6348324293474
 31
0.0
  0
LINE
  5
2EE
330
2
100
AcDbEntity
  8
GAIKEI
  6
Continuous
 62
     1
100
AcDbLine
 10
59.80941955764092
 20
30.46084272834832
 30
0.0
 11
59.80941955764047
 21
16.18685274734798
 31
0.0
  0
LINE
  5
2EF
330
2
100
AcDbEntity
  8
GAIKEI
  6
Continuous
 62
     1
100
AcDbLine
 10
59.60941955764065
 20
31.08483272934768
 30
0.0
 11
59.60941955764065
 21
16.08483274934769
 31
0.0
  0
LINE
  5
2F0
330
2
100
AcDbEntity
  8
GAIKEI
  6
Continuous
 62
     1
100
AcDbLine
 10
20.80940755764186
 20
8.227870494312355
 30
0.0
 11
20.80940755764186
 21
7.870600691974232
 31
0.0
  0
LINE
  5
2F1
330
2
100
AcDbEntity
  8
GAIKEI
  6
Continuous
 62
     1
100
AcDbLine
 10
27.50940755764168
 20
-2.115167260653834
 30
0.0
 11
27.50940755764168
 21
-5.315167260653879
 31
0.0
  0
LINE
  5
2F2
330
2
100
AcDbEntity
  8
GAIKEI
  6
Continuous
 62
     1
100
AcDbLine
 10
27.50940755764168
 20
-5.315167260653879
 30
0.0
 11
26.70940755764195
 21
-5.315167260653879
 31
0.0
  0
LINE
  5
2F3
330
2
100
AcDbEntity
  8
GAIKEI
  6
Continuous
 62
     1
100
AcDbLine
 10
26.70940755764195
 20
-2.115167260653834
 30
0.0
 11
27.50940755764168
 21
-2.115167260653834
 31
0.0
  0
LINE
  5
2F4
330
2
100
AcDbEntity
  8
GAIKEI
  6
Continuous
 62
     1
100
AcDbLine
 10
26.70940755764195
 20
-2.115167260653834
 30
0.0
 11
26.70940755764195
 21
-5.315167260653879
 31
0.0
  0
LINE
  5
2F5
330
2
100
AcDbEntity
  8
GAIKEI
  6
Continuous
 62
     1
100
AcDbLine
 10
28.20940755764195
 20
5.18483273934612
 30
0.0
 11
31.40940755764177
 21
5.18483273934612
 31
0.0
  0
LINE
  5
2F6
330
2
100
AcDbEntity
  8
GAIKEI
  6
Continuous
 62
     1
100
AcDbLine
 10
28.00940755764168
 20
-5.115167260653834
 30
0.0
 11
28.00940755764168
 21
4.984832739346074
 31
0.0
  0
LINE
  5
2F7
330
2
100
AcDbEntity
  8
GAIKEI
  6
Continuous
 62
     1
100
AcDbLine
 10
31.40940755764177
 20
-5.315167260653879
 30
0.0
 11
28.20940755764195
 21
-5.315167260653879
 31
0.0
  0
LINE
  5
2F8
330
2
100
AcDbEntity
  8
GAIKEI
  6
Continuous
 62
     1
100
AcDbLine
 10
31.60940755764205
 20
4.984832739346074
 30
0.0
 11
31.60940755764205
 21
-5.115167260653834
 31
0.0
  0
ARC
  5
2F9
330
2
100
AcDbEntity
  8
GAIKEI
  6
Continuous
 62
     1
100
AcDbCircle
 10
-48.4941413786446
 20
37.34419800265505
 30
0.0
 40
1.040634736693458
100
AcDbArc
 50
67.38712560451627
 51
112.6128743954837
  0
ARC
  5
2FA
330
2
100
AcDbEntity
  8
GAIKEI
  6
Continuous
 62
     1
100
AcDbCircle
 10
-8.894141389491778
 20
37.34419800265505
 30
0.0
 40
1.040634736693389
100
AcDbArc
 50
67.38712560452175
 51
112.6128743954837
  0
ARC
  5
2FB
330
2
100
AcDbEntity
  8
GAIKEI
  6
Continuous
 62
     1
100
AcDbCircle
 10
57.35940755764204
 20
37.34419800265505
 30
0.0
 40
1.04063473669351
100
AcDbArc
 50
67.38712560449267
 51
112.6128743954782
  0
ARC
  5
2FC
330
2
100
AcDbEntity
  8
GAIKEI
  6
Continuous
 62
     1
100
AcDbCircle
 10
27.20940755764195
 20
37.34419800265505
 30
0.0
 40
1.04063473669351
100
AcDbArc
 50
67.38712560449267
 51
112.6128743954782
  0
ARC
  5
2FD
330
2
100
AcDbEntity
  8
GAIKEI
  6
Continuous
 62
     7
100
AcDbCircle
 10
-50.2945441840684
 20
-6.115574955654665
 30
0.0
 40
0.1995933999996811
100
AcDbArc
 50
179.9645290000188
 51
270.0354899999007
  0
ARC
  5
2FE
330
2
100
AcDbEntity
  8
GAIKEI
  6
Continuous
 62
     7
100
AcDbCircle
 10
-7.093738584068432
 20
-6.115574955654665
 30
0.0
 40
0.1995933999999511
100
AcDbArc
 50
269.9645210000712
 51
0.035481999992165
  0
ARC
  5
2FF
330
2
100
AcDbEntity
  8
GAIKEI
  6
Continuous
 62
     1
100
AcDbCircle
 10
-2.227002684068338
 20
0.1335889443453198
 30
0.0
 40
4.880501599999668
100
AcDbArc
 50
180.1969090000004
 51
181.7104110000018
  0
ARC
  5
300
330
2
100
AcDbEntity
  8
GAIKEI
  6
Continuous
 62
     7
100
AcDbCircle
 10
-7.093738584068432
 20
37.7852185443453
 30
0.0
 40
0.1995934000006248
100
AcDbArc
 50
359.9645180000079
 51
90.03547899992875
  0
ARC
  5
301
330
2
100
AcDbEntity
  8
GAIKEI
  6
Continuous
 62
     7
100
AcDbCircle
 10
-50.2945441840684
 20
37.7852185443453
 30
0.0
 40
0.1995934000000168
100
AcDbArc
 50
89.96451999986772
 51
180.0354810000101
  0
ARC
  5
302
330
2
100
AcDbEntity
  8
GAIKEI
  6
Continuous
 62
     1
100
AcDbCircle
 10
-55.16128008406849
 20
0.1335889443453198
 30
0.0
 40
4.880501600000182
100
AcDbArc
 50
358.2895899999957
 51
359.803094000002
  0
ARC
  5
303
330
2
100
AcDbEntity
  8
GAIKEI
  6
Continuous
 62
     1
100
AcDbCircle
 10
6.245629115931478
 20
0.1282666443453309
 30
0.0
 40
13.55284730000024
100
AcDbArc
 50
180.1180750000057
 51
181.0263540000012
  0
ARC
  5
304
330
2
100
AcDbEntity
  8
GAIKEI
  6
Continuous
 62
     1
100
AcDbCircle
 10
-7.059241484068479
 20
27.44992194434531
 30
0.0
 40
0.0338965000000493
100
AcDbArc
 50
8.312394000081424
 51
45.20918299958984
  0
ARC
  5
305
330
2
100
AcDbEntity
  8
GAIKEI
  6
Continuous
 62
     1
100
AcDbCircle
 10
-63.62340168406854
 20
0.1283643443453002
 30
0.0
 40
13.54234619999957
100
AcDbArc
 50
358.9724240000007
 51
359.8814069999995
  0
ARC
  5
306
330
2
100
AcDbEntity
  8
GAIKEI
  6
Continuous
 62
     1
100
AcDbCircle
 10
-50.32904128406835
 20
27.44992194434531
 30
0.0
 40
0.0338964999996099
100
AcDbArc
 50
134.7908189993993
 51
171.6876110001019
  0
ARC
  5
307
330
2
100
AcDbEntity
  8
GAIKEI
  6
Continuous
 62
     1
100
AcDbCircle
 10
-48.39803548406826
 20
-0.3029833556547601
 30
0.0
 40
0.1866876000000279
100
AcDbArc
 50
89.66114299999409
 51
123.7761429998454
  0
ARC
  5
308
330
2
100
AcDbEntity
  8
GAIKEI
  6
Continuous
 62
     1
100
AcDbCircle
 10
-8.990247384068425
 20
-0.3029833556547601
 30
0.0
 40
0.1866871999999822
100
AcDbArc
 50
56.22380800002988
 51
90.33889599996763
  0
ARC
  5
309
330
2
100
AcDbEntity
  8
GAIKEI
  6
Continuous
 62
     1
100
AcDbCircle
 10
-8.805249784068564
 20
-2.563170155654688
 30
0.0
 40
0.0520091000001665
100
AcDbArc
 50
252.7450879994685
 51
269.9226520003944
  0
ARC
  5
30A
330
2
100
AcDbEntity
  8
GAIKEI
  6
Continuous
 62
     1
100
AcDbCircle
 10
-48.58303298406872
 20
-2.563170155654688
 30
0.0
 40
0.052009100000019
100
AcDbArc
 50
270.077348999888
 51
287.2549129994966
  0
ARC
  5
30B
330
2
100
AcDbEntity
  8
GAIKEI
  6
Continuous
 62
     1
100
AcDbCircle
 10
-72.71369708406837
 20
-1.626927455654822
 30
0.0
 40
63.8195678999999
100
AcDbArc
 50
359.274730000007
 51
359.9907400000048
  0
ARC
  5
30C
330
2
100
AcDbEntity
  8
GAIKEI
  6
Continuous
 62
     1
100
AcDbCircle
 10
15.32541431593154
 20
-1.626927455654822
 30
0.0
 40
63.8195679000005
100
AcDbArc
 50
180.0092569999974
 51
180.7252649999957
  0
ARC
  5
30D
330
2
100
AcDbEntity
  8
GAIKEI
  6
Continuous
 62
     1
100
AcDbCircle
 10
-45.16411208406816
 20
25.88835274434519
 30
0.0
 40
0.200020099999956
100
AcDbArc
 50
90.00663500008332
 51
180.0065889999924
  0
ARC
  5
30E
330
2
100
AcDbEntity
  8
GAIKEI
  6
Continuous
 62
     1
100
AcDbCircle
 10
-37.34416578406854
 20
25.88835274434519
 30
0.0
 40
0.2000201000002129
100
AcDbArc
 50
359.9934120000025
 51
89.99334999994111
  0
ARC
  5
30F
330
2
100
AcDbEntity
  8
GAIKEI
  6
Continuous
 62
     1
100
AcDbCircle
 10
-37.34416578406854
 20
16.78648504434522
 30
0.0
 40
0.200019999999982
100
AcDbArc
 50
270.0066159999979
 51
0.0066139999950918
  0
ARC
  5
310
330
2
100
AcDbEntity
  8
GAIKEI
  6
Continuous
 62
     1
100
AcDbCircle
 10
-45.16411208406816
 20
16.78648504434522
 30
0.0
 40
0.200019999999949
100
AcDbArc
 50
179.9933929999952
 51
269.9933889999766
  0
ARC
  5
311
330
2
100
AcDbEntity
  8
GAIKEI
  6
Continuous
 62
     1
100
AcDbCircle
 10
-8.294141384068552
 20
-4.465178155654712
 30
0.0
 40
0.3999999999995612
100
AcDbArc
 50
9.352044000017968
 51
80.64795699996874
  0
ARC
  5
312
330
2
100
AcDbEntity
  8
GAIKEI
  6
Continuous
 62
     1
100
AcDbCircle
 10
-8.294141384068552
 20
-4.465178155654712
 30
0.0
 40
0.4000000000000023
100
AcDbArc
 50
279.3520319999974
 51
350.6479520000023
  0
ARC
  5
313
330
2
100
AcDbEntity
  8
GAIKEI
  6
Continuous
 62
     1
100
AcDbCircle
 10
-8.294141384068552
 20
-4.465178155654712
 30
0.0
 40
0.400000000000467
100
AcDbArc
 50
189.352049999991
 51
260.6479690000532
  0
ARC
  5
314
330
2
100
AcDbEntity
  8
GAIKEI
  6
Continuous
 62
     1
100
AcDbCircle
 10
-8.294141384068552
 20
-4.465178155654712
 30
0.0
 40
0.4000000000000239
100
AcDbArc
 50
99.35203399999576
 51
170.6479599999915
  0
ARC
  5
315
330
2
100
AcDbEntity
  8
GAIKEI
  6
Continuous
 62
     1
100
AcDbCircle
 10
-8.294141384068552
 20
-4.465178155654712
 30
0.0
 40
0.5000000000000285
100
AcDbArc
 50
97.46959300004816
 51
172.5304150000058
  0
ARC
  5
316
330
2
100
AcDbEntity
  8
GAIKEI
  6
Continuous
 62
     1
100
AcDbCircle
 10
-8.294141384068552
 20
-4.465178155654712
 30
0.0
 40
0.4999999999999935
100
AcDbArc
 50
187.4695959999953
 51
262.5303969999531
  0
ARC
  5
317
330
2
100
AcDbEntity
  8
GAIKEI
  6
Continuous
 62
     1
100
AcDbCircle
 10
-8.294141384068552
 20
-4.465178155654712
 30
0.0
 40
0.4999999999999942
100
AcDbArc
 50
277.4696049999958
 51
352.5304059999915
  0
ARC
  5
318
330
2
100
AcDbEntity
  8
GAIKEI
  6
Continuous
 62
     1
100
AcDbCircle
 10
-8.294141384068552
 20
-4.465178155654712
 30
0.0
 40
0.5000000000000236
100
AcDbArc
 50
7.469592000006997
 51
82.53040500000466
  0
ARC
  5
319
330
2
100
AcDbEntity
  8
GAIKEI
  6
Continuous
 62
     1
100
AcDbCircle
 10
-8.294141384068552
 20
-4.465178155654712
 30
0.0
 40
0.4500000000003323
100
AcDbArc
 50
8.305109999996828
 51
81.694888000016
  0
ARC
  5
31A
330
2
100
AcDbEntity
  8
GAIKEI
  6
Continuous
 62
     1
100
AcDbCircle
 10
-8.294141384068552
 20
-4.465178155654712
 30
0.0
 40
0.4499999999999989
100
AcDbArc
 50
98.30511000004824
 51
171.6948909999995
  0
ARC
  5
31B
330
2
100
AcDbEntity
  8
GAIKEI
  6
Continuous
 62
     1
100
AcDbCircle
 10
-8.294141384068552
 20
-4.465178155654712
 30
0.0
 40
0.4499999999999559
100
AcDbArc
 50
278.3051009999757
 51
351.6948829999905
  0
ARC
  5
31C
330
2
100
AcDbEntity
  8
GAIKEI
  6
Continuous
 62
     1
100
AcDbCircle
 10
-8.294141384068552
 20
-4.465178155654712
 30
0.0
 40
0.4499999999997224
100
AcDbArc
 50
188.3051060000014
 51
261.6948999999518
  0
ARC
  5
31D
330
2
100
AcDbEntity
  8
GAIKEI
  6
Continuous
 62
     1
100
AcDbCircle
 10
-8.294141384068552
 20
-4.465178155654712
 30
0.0
 40
0.5000000000000217
100
AcDbArc
 50
82.53040500000466
 51
97.46959300004816
  0
ARC
  5
31E
330
2
100
AcDbEntity
  8
GAIKEI
  6
Continuous
 62
     1
100
AcDbCircle
 10
-8.294141384068552
 20
-4.465178155654712
 30
0.0
 40
0.4999999999999481
100
AcDbArc
 50
352.5304059999915
 51
7.469586999995718
  0
ARC
  5
31F
330
2
100
AcDbEntity
  8
GAIKEI
  6
Continuous
 62
     1
100
AcDbCircle
 10
-8.294141384068552
 20
-4.465178155654712
 30
0.0
 40
0.5000000000000883
100
AcDbArc
 50
262.5303969999531
 51
277.4696049999958
  0
ARC
  5
320
330
2
100
AcDbEntity
  8
GAIKEI
  6
Continuous
 62
     1
100
AcDbCircle
 10
-8.294141384068552
 20
-4.465178155654712
 30
0.0
 40
0.4999999999998887
100
AcDbArc
 50
172.5304150000058
 51
187.4695959999953
  0
ARC
  5
321
330
2
100
AcDbEntity
  8
GAIKEI
  6
Continuous
 62
     7
100
AcDbCircle
 10
-6.594544184068581
 20
-6.115574955654665
 30
0.0
 40
0.1995933999996811
100
AcDbArc
 50
179.9645290000188
 51
270.0354899999007
  0
ARC
  5
322
330
2
100
AcDbEntity
  8
GAIKEI
  6
Continuous
 62
     7
100
AcDbCircle
 10
2.306249215931529
 20
-6.115574955654665
 30
0.0
 40
0.1995934000000027
100
AcDbArc
 50
269.9645150001008
 51
0.0354750000005405
  0
ARC
  5
323
330
2
100
AcDbEntity
  8
GAIKEI
  6
Continuous
 62
     7
100
AcDbCircle
 10
2.306249215931529
 20
37.7852185443453
 30
0.0
 40
0.1995934000003046
100
AcDbArc
 50
359.9645249999995
 51
90.03548499989923
  0
ARC
  5
324
330
2
100
AcDbEntity
  8
GAIKEI
  6
Continuous
 62
     7
100
AcDbCircle
 10
-6.594544184068581
 20
37.7852185443453
 30
0.0
 40
0.1995934000000168
100
AcDbArc
 50
89.96451999986772
 51
180.0354810000101
  0
ARC
  5
325
330
2
100
AcDbEntity
  8
GAIKEI
  6
Continuous
 62
     7
100
AcDbCircle
 10
22.90940755764177
 20
-5.983885455654672
 30
0.0
 40
0.2000000000000008
100
AcDbArc
 50
180.0
 51
266.9999900000982
  0
ARC
  5
326
330
2
100
AcDbEntity
  8
GAIKEI
  6
Continuous
 62
     1
100
AcDbCircle
 10
21.63763025764183
 20
0.1415356443453675
 30
0.0
 40
0.2999994999995019
100
AcDbArc
 50
184.7264720000186
 51
210.8014450000086
  0
ARC
  5
327
330
2
100
AcDbEntity
  8
GAIKEI
  6
Continuous
 62
     1
100
AcDbCircle
 10
120.7992757576421
 20
8.340257044345207
 30
0.0
 40
99.80000000000003
100
AcDbArc
 50
169.2132510000064
 51
184.7264819999941
  0
ARC
  5
328
330
2
100
AcDbEntity
  8
GAIKEI
  6
Continuous
 62
     7
100
AcDbCircle
 10
22.90940755764177
 20
37.6535260443452
 30
0.0
 40
0.2000000000000044
100
AcDbArc
 50
92.99999900004719
 51
180.0
  0
ARC
  5
329
330
2
100
AcDbEntity
  8
GAIKEI
  6
Continuous
 62
     7
100
AcDbCircle
 10
120.8097249576421
 20
8.340257044345207
 30
0.0
 40
100.0000000000003
100
AcDbArc
 50
168.9770089999944
 51
184.7264819999941
  0
ARC
  5
32A
330
2
100
AcDbEntity
  8
GAIKEI
  6
Continuous
 62
     7
100
AcDbCircle
 10
21.64807945764187
 20
0.1415356443453675
 30
0.0
 40
0.4999999999999498
100
AcDbArc
 50
184.7264860000014
 51
210.8014450000332
  0
ARC
  5
32B
330
2
100
AcDbEntity
  8
GAIKEI
  6
Continuous
 62
     7
100
AcDbCircle
 10
22.77105305764189
 20
27.20558594434533
 30
0.0
 40
0.2792361000000002
100
AcDbArc
 50
86.14619100003586
 51
89.949390999941
  0
ARC
  5
32C
330
2
100
AcDbEntity
  8
GAIKEI
  6
Continuous
 62
     7
100
AcDbCircle
 10
22.68411455764226
 20
27.45481994434522
 30
0.0
 40
0.0299999999999955
100
AcDbArc
 50
90.00000300042762
 51
168.9770090002084
  0
ARC
  5
32D
330
2
100
AcDbEntity
  8
GAIKEI
  6
Continuous
 62
     1
100
AcDbCircle
 10
25.5294026576421
 20
37.78352484434527
 30
0.0
 40
0.1800000000000182
100
AcDbArc
 50
0.0
 51
86.99999900003641
  0
ARC
  5
32E
330
2
100
AcDbEntity
  8
GAIKEI
  6
Continuous
 62
     1
100
AcDbCircle
 10
25.5294026576421
 20
-6.113884255654738
 30
0.0
 40
0.1799999999999906
100
AcDbArc
 50
273.0000110000428
 51
0.0000099999879789
  0
ARC
  5
32F
330
2
100
AcDbEntity
  8
GAIKEI
  6
Continuous
 62
     1
100
AcDbCircle
 10
22.84536945764194
 20
-5.665178155654757
 30
0.0
 40
0.0499999999996751
100
AcDbArc
 50
321.3401899997673
 51
38.65981000023273
  0
ARC
  5
330
330
2
100
AcDbEntity
  8
GAIKEI
  6
Continuous
 62
     1
100
AcDbCircle
 10
22.84536945764194
 20
-5.165178155654757
 30
0.0
 40
0.0499999999996751
100
AcDbArc
 50
321.3401899997673
 51
38.65981000023273
  0
ARC
  5
331
330
2
100
AcDbEntity
  8
GAIKEI
  6
Continuous
 62
     1
100
AcDbCircle
 10
22.84536945764194
 20
-4.665178155654757
 30
0.0
 40
0.0499999999996751
100
AcDbArc
 50
321.3401899997673
 51
38.65981000023273
  0
ARC
  5
332
330
2
100
AcDbEntity
  8
GAIKEI
  6
Continuous
 62
     1
100
AcDbCircle
 10
22.84536945764194
 20
-4.165178155654757
 30
0.0
 40
0.0499999999996751
100
AcDbArc
 50
321.3401899997673
 51
38.65981000023273
  0
ARC
  5
333
330
2
100
AcDbEntity
  8
GAIKEI
  6
Continuous
 62
     1
100
AcDbCircle
 10
22.84536945764194
 20
-3.665178155654757
 30
0.0
 40
0.0499999999996751
100
AcDbArc
 50
321.3401899997673
 51
38.65981000023273
  0
ARC
  5
334
330
2
100
AcDbEntity
  8
GAIKEI
  6
Continuous
 62
     1
100
AcDbCircle
 10
22.84536945764194
 20
-3.165178155654757
 30
0.0
 40
0.0499999999996751
100
AcDbArc
 50
321.3401899997673
 51
38.65981000023273
  0
ARC
  5
335
330
2
100
AcDbEntity
  8
GAIKEI
  6
Continuous
 62
     1
100
AcDbCircle
 10
22.84536945764194
 20
-2.665178155654757
 30
0.0
 40
0.0499999999996751
100
AcDbArc
 50
321.3401899997673
 51
38.65981000023273
  0
ARC
  5
336
330
2
100
AcDbEntity
  8
GAIKEI
  6
Continuous
 62
     1
100
AcDbCircle
 10
22.84536945764194
 20
-2.165178155654757
 30
0.0
 40
0.0499999999996751
100
AcDbArc
 50
321.3401899997673
 51
38.65981000023273
  0
ARC
  5
337
330
2
100
AcDbEntity
  8
GAIKEI
  6
Continuous
 62
     1
100
AcDbCircle
 10
22.84536945764194
 20
-1.665178155654757
 30
0.0
 40
0.0499999999996751
100
AcDbArc
 50
321.3401899997673
 51
38.65981000023273
  0
ARC
  5
338
330
2
100
AcDbEntity
  8
GAIKEI
  6
Continuous
 62
     1
100
AcDbCircle
 10
22.84536945764194
 20
-1.165178155654757
 30
0.0
 40
0.0499999999996751
100
AcDbArc
 50
321.3401899997673
 51
38.65981000023273
  0
ARC
  5
339
330
2
100
AcDbEntity
  8
GAIKEI
  6
Continuous
 62
     1
100
AcDbCircle
 10
22.84536945764194
 20
-0.6651781556547576
 30
0.0
 40
0.0499999999996751
100
AcDbArc
 50
321.3401899997673
 51
38.65981000023273
  0
ARC
  5
33A
330
2
100
AcDbEntity
  8
GAIKEI
  6
Continuous
 62
     1
100
AcDbCircle
 10
22.84536945764194
 20
-0.1651781556547576
 30
0.0
 40
0.0499999999996751
100
AcDbArc
 50
321.3401899997673
 51
38.65981000023273
  0
ARC
  5
33B
330
2
100
AcDbEntity
  8
GAIKEI
  6
Continuous
 62
     1
100
AcDbCircle
 10
22.84536945764194
 20
0.3348218443452424
 30
0.0
 40
0.0499999999996751
100
AcDbArc
 50
321.3401899997673
 51
38.65981000023273
  0
ARC
  5
33C
330
2
100
AcDbEntity
  8
GAIKEI
  6
Continuous
 62
     1
100
AcDbCircle
 10
22.84536945764194
 20
0.8348218443452424
 30
0.0
 40
0.0499999999996751
100
AcDbArc
 50
321.3401899997673
 51
38.65981000023273
  0
ARC
  5
33D
330
2
100
AcDbEntity
  8
GAIKEI
  6
Continuous
 62
     1
100
AcDbCircle
 10
22.84536945764194
 20
1.334821844345242
 30
0.0
 40
0.0499999999996751
100
AcDbArc
 50
321.3401899997673
 51
38.65981000023273
  0
ARC
  5
33E
330
2
100
AcDbEntity
  8
GAIKEI
  6
Continuous
 62
     1
100
AcDbCircle
 10
22.84536945764194
 20
1.834821844345242
 30
0.0
 40
0.0499999999996751
100
AcDbArc
 50
321.3401899997673
 51
38.65981000023273
  0
ARC
  5
33F
330
2
100
AcDbEntity
  8
GAIKEI
  6
Continuous
 62
     1
100
AcDbCircle
 10
22.84536945764194
 20
2.334821844345242
 30
0.0
 40
0.0499999999996751
100
AcDbArc
 50
321.3401899997673
 51
38.65981000023273
  0
ARC
  5
340
330
2
100
AcDbEntity
  8
GAIKEI
  6
Continuous
 62
     1
100
AcDbCircle
 10
22.84536945764194
 20
2.834821844345242
 30
0.0
 40
0.0499999999996751
100
AcDbArc
 50
321.3401899997673
 51
38.65981000023273
  0
ARC
  5
341
330
2
100
AcDbEntity
  8
GAIKEI
  6
Continuous
 62
     1
100
AcDbCircle
 10
22.84536945764194
 20
3.334821844345242
 30
0.0
 40
0.0499999999996751
100
AcDbArc
 50
321.3401899997673
 51
38.65981000023273
  0
ARC
  5
342
330
2
100
AcDbEntity
  8
GAIKEI
  6
Continuous
 62
     1
100
AcDbCircle
 10
22.84536945764194
 20
3.834821844345242
 30
0.0
 40
0.0499999999996751
100
AcDbArc
 50
321.3401899997673
 51
38.65981000023273
  0
ARC
  5
343
330
2
100
AcDbEntity
  8
GAIKEI
  6
Continuous
 62
     1
100
AcDbCircle
 10
22.84536945764194
 20
4.334821844345242
 30
0.0
 40
0.0499999999996751
100
AcDbArc
 50
321.3401899997673
 51
38.65981000023273
  0
ARC
  5
344
330
2
100
AcDbEntity
  8
GAIKEI
  6
Continuous
 62
     1
100
AcDbCircle
 10
22.84536945764194
 20
4.834821844345242
 30
0.0
 40
0.0499999999996751
100
AcDbArc
 50
321.3401899997673
 51
38.65981000023273
  0
ARC
  5
345
330
2
100
AcDbEntity
  8
GAIKEI
  6
Continuous
 62
     1
100
AcDbCircle
 10
22.84536945764194
 20
5.334821844345242
 30
0.0
 40
0.0499999999996751
100
AcDbArc
 50
321.3401899997673
 51
38.65981000023273
  0
ARC
  5
346
330
2
100
AcDbEntity
  8
GAIKEI
  6
Continuous
 62
     1
100
AcDbCircle
 10
22.84536945764194
 20
5.834821844345242
 30
0.0
 40
0.0499999999996751
100
AcDbArc
 50
321.3401899997673
 51
38.65981000023273
  0
ARC
  5
347
330
2
100
AcDbEntity
  8
GAIKEI
  6
Continuous
 62
     1
100
AcDbCircle
 10
22.84536945764194
 20
6.334821844345242
 30
0.0
 40
0.0499999999996751
100
AcDbArc
 50
321.3401899997673
 51
38.65981000023273
  0
ARC
  5
348
330
2
100
AcDbEntity
  8
GAIKEI
  6
Continuous
 62
     1
100
AcDbCircle
 10
22.84536945764194
 20
6.834818744345284
 30
0.0
 40
0.0499999999996751
100
AcDbArc
 50
321.3401899997673
 51
38.65981000023273
  0
ARC
  5
349
330
2
100
AcDbEntity
  8
GAIKEI
  6
Continuous
 62
     1
100
AcDbCircle
 10
22.84536945764194
 20
7.334818744345284
 30
0.0
 40
0.0499999999996751
100
AcDbArc
 50
321.3401899997673
 51
38.65981000023273
  0
ARC
  5
34A
330
2
100
AcDbEntity
  8
GAIKEI
  6
Continuous
 62
     1
100
AcDbCircle
 10
22.84536945764194
 20
7.834818744345284
 30
0.0
 40
0.0499999999996751
100
AcDbArc
 50
321.3401899997673
 51
38.65981000023273
  0
ARC
  5
34B
330
2
100
AcDbEntity
  8
GAIKEI
  6
Continuous
 62
     1
100
AcDbCircle
 10
22.84536945764194
 20
8.334818744345284
 30
0.0
 40
0.0499999999996751
100
AcDbArc
 50
321.3401899997673
 51
38.65981000023273
  0
ARC
  5
34C
330
2
100
AcDbEntity
  8
GAIKEI
  6
Continuous
 62
     1
100
AcDbCircle
 10
22.84536945764194
 20
8.834818744345284
 30
0.0
 40
0.0499999999996751
100
AcDbArc
 50
321.3401899997673
 51
38.65981000023273
  0
ARC
  5
34D
330
2
100
AcDbEntity
  8
GAIKEI
  6
Continuous
 62
     1
100
AcDbCircle
 10
22.84536945764194
 20
9.334818744345284
 30
0.0
 40
0.0499999999996751
100
AcDbArc
 50
321.3401899997673
 51
38.65981000023273
  0
ARC
  5
34E
330
2
100
AcDbEntity
  8
GAIKEI
  6
Continuous
 62
     1
100
AcDbCircle
 10
22.84536945764194
 20
9.834818744345284
 30
0.0
 40
0.0499999999996751
100
AcDbArc
 50
321.3401899997673
 51
38.65981000023273
  0
ARC
  5
34F
330
2
100
AcDbEntity
  8
GAIKEI
  6
Continuous
 62
     1
100
AcDbCircle
 10
22.84536945764194
 20
10.33481874434528
 30
0.0
 40
0.0499999999996751
100
AcDbArc
 50
321.3401899997673
 51
38.65981000023273
  0
ARC
  5
350
330
2
100
AcDbEntity
  8
GAIKEI
  6
Continuous
 62
     1
100
AcDbCircle
 10
22.84536945764194
 20
10.83481874434528
 30
0.0
 40
0.0499999999996751
100
AcDbArc
 50
321.3401899997673
 51
38.65981000023273
  0
ARC
  5
351
330
2
100
AcDbEntity
  8
GAIKEI
  6
Continuous
 62
     1
100
AcDbCircle
 10
22.84536945764194
 20
11.33481874434528
 30
0.0
 40
0.0499999999996751
100
AcDbArc
 50
321.3401899997673
 51
38.65981000023273
  0
ARC
  5
352
330
2
100
AcDbEntity
  8
GAIKEI
  6
Continuous
 62
     1
100
AcDbCircle
 10
22.84536945764194
 20
11.83481874434528
 30
0.0
 40
0.0499999999996751
100
AcDbArc
 50
321.3401899997673
 51
38.65981000023273
  0
ARC
  5
353
330
2
100
AcDbEntity
  8
GAIKEI
  6
Continuous
 62
     1
100
AcDbCircle
 10
22.84536945764194
 20
12.33481874434528
 30
0.0
 40
0.0499999999996751
100
AcDbArc
 50
321.3401899997673
 51
38.65981000023273
  0
ARC
  5
354
330
2
100
AcDbEntity
  8
GAIKEI
  6
Continuous
 62
     1
100
AcDbCircle
 10
22.84536945764194
 20
12.83481874434528
 30
0.0
 40
0.0499999999996751
100
AcDbArc
 50
321.3401899997673
 51
38.65981000023273
  0
ARC
  5
355
330
2
100
AcDbEntity
  8
GAIKEI
  6
Continuous
 62
     1
100
AcDbCircle
 10
22.84536945764194
 20
13.33481874434528
 30
0.0
 40
0.0499999999996751
100
AcDbArc
 50
321.3401899997673
 51
38.65981000023273
  0
ARC
  5
356
330
2
100
AcDbEntity
  8
GAIKEI
  6
Continuous
 62
     1
100
AcDbCircle
 10
22.84536945764194
 20
13.83481874434528
 30
0.0
 40
0.0499999999996751
100
AcDbArc
 50
321.3401899997673
 51
38.65981000023273
  0
ARC
  5
357
330
2
100
AcDbEntity
  8
GAIKEI
  6
Continuous
 62
     1
100
AcDbCircle
 10
22.84536945764194
 20
14.33481874434528
 30
0.0
 40
0.0499999999996751
100
AcDbArc
 50
321.3401899997673
 51
38.65981000023273
  0
ARC
  5
358
330
2
100
AcDbEntity
  8
GAIKEI
  6
Continuous
 62
     1
100
AcDbCircle
 10
22.84536945764194
 20
14.83481874434528
 30
0.0
 40
0.0499999999996751
100
AcDbArc
 50
321.3401899997673
 51
38.65981000023273
  0
ARC
  5
359
330
2
100
AcDbEntity
  8
GAIKEI
  6
Continuous
 62
     1
100
AcDbCircle
 10
22.84536945764194
 20
15.33482184434524
 30
0.0
 40
0.0499999999996751
100
AcDbArc
 50
321.3401899997673
 51
38.65981000023273
  0
ARC
  5
35A
330
2
100
AcDbEntity
  8
GAIKEI
  6
Continuous
 62
     1
100
AcDbCircle
 10
22.84536945764194
 20
15.83482184434524
 30
0.0
 40
0.0499999999996751
100
AcDbArc
 50
321.3401899997673
 51
38.65981000023273
  0
ARC
  5
35B
330
2
100
AcDbEntity
  8
GAIKEI
  6
Continuous
 62
     1
100
AcDbCircle
 10
22.84536945764194
 20
16.33482184434524
 30
0.0
 40
0.0499999999996751
100
AcDbArc
 50
321.3401899997673
 51
38.65981000023273
  0
ARC
  5
35C
330
2
100
AcDbEntity
  8
GAIKEI
  6
Continuous
 62
     1
100
AcDbCircle
 10
22.84536945764194
 20
16.83482184434524
 30
0.0
 40
0.0499999999996751
100
AcDbArc
 50
321.3401899997673
 51
38.65981000023273
  0
ARC
  5
35D
330
2
100
AcDbEntity
  8
GAIKEI
  6
Continuous
 62
     1
100
AcDbCircle
 10
22.84536945764194
 20
17.33482184434524
 30
0.0
 40
0.0499999999996751
100
AcDbArc
 50
321.3401899997673
 51
38.65981000023273
  0
ARC
  5
35E
330
2
100
AcDbEntity
  8
GAIKEI
  6
Continuous
 62
     1
100
AcDbCircle
 10
22.84536945764194
 20
17.83482184434524
 30
0.0
 40
0.0499999999996751
100
AcDbArc
 50
321.3401899997673
 51
38.65981000023273
  0
ARC
  5
35F
330
2
100
AcDbEntity
  8
GAIKEI
  6
Continuous
 62
     1
100
AcDbCircle
 10
22.84536945764194
 20
18.33482184434524
 30
0.0
 40
0.0499999999996751
100
AcDbArc
 50
321.3401899997673
 51
38.65981000023273
  0
ARC
  5
360
330
2
100
AcDbEntity
  8
GAIKEI
  6
Continuous
 62
     1
100
AcDbCircle
 10
22.84536945764194
 20
18.83482184434524
 30
0.0
 40
0.0499999999996751
100
AcDbArc
 50
321.3401899997673
 51
38.65981000023273
  0
ARC
  5
361
330
2
100
AcDbEntity
  8
GAIKEI
  6
Continuous
 62
     1
100
AcDbCircle
 10
22.84536945764194
 20
19.33482184434524
 30
0.0
 40
0.0499999999996751
100
AcDbArc
 50
321.3401899997673
 51
38.65981000023273
  0
ARC
  5
362
330
2
100
AcDbEntity
  8
GAIKEI
  6
Continuous
 62
     1
100
AcDbCircle
 10
22.84536945764194
 20
19.83482184434524
 30
0.0
 40
0.0499999999996751
100
AcDbArc
 50
321.3401899997673
 51
38.65981000023273
  0
ARC
  5
363
330
2
100
AcDbEntity
  8
GAIKEI
  6
Continuous
 62
     1
100
AcDbCircle
 10
22.84536945764194
 20
20.33482184434524
 30
0.0
 40
0.0499999999996751
100
AcDbArc
 50
321.3401899997673
 51
38.65981000023273
  0
ARC
  5
364
330
2
100
AcDbEntity
  8
GAIKEI
  6
Continuous
 62
     1
100
AcDbCircle
 10
22.84536945764194
 20
20.83482184434524
 30
0.0
 40
0.0499999999996751
100
AcDbArc
 50
321.3401899997673
 51
38.65981000023273
  0
ARC
  5
365
330
2
100
AcDbEntity
  8
GAIKEI
  6
Continuous
 62
     1
100
AcDbCircle
 10
22.84536945764194
 20
21.33482184434524
 30
0.0
 40
0.0499999999996751
100
AcDbArc
 50
321.3401899997673
 51
38.65981000023273
  0
ARC
  5
366
330
2
100
AcDbEntity
  8
GAIKEI
  6
Continuous
 62
     1
100
AcDbCircle
 10
22.84536945764194
 20
21.83482184434524
 30
0.0
 40
0.0499999999996751
100
AcDbArc
 50
321.3401899997673
 51
38.65981000023273
  0
ARC
  5
367
330
2
100
AcDbEntity
  8
GAIKEI
  6
Continuous
 62
     1
100
AcDbCircle
 10
22.84536945764194
 20
22.33482184434524
 30
0.0
 40
0.0499999999996751
100
AcDbArc
 50
321.3401899997673
 51
38.65981000023273
  0
ARC
  5
368
330
2
100
AcDbEntity
  8
GAIKEI
  6
Continuous
 62
     1
100
AcDbCircle
 10
22.84536945764194
 20
22.83482184434524
 30
0.0
 40
0.0499999999996751
100
AcDbArc
 50
321.3401899997673
 51
38.65981000023273
  0
ARC
  5
369
330
2
100
AcDbEntity
  8
GAIKEI
  6
Continuous
 62
     1
100
AcDbCircle
 10
22.84536945764194
 20
23.33482184434524
 30
0.0
 40
0.0499999999996751
100
AcDbArc
 50
321.3401899997673
 51
38.65981000023273
  0
ARC
  5
36A
330
2
100
AcDbEntity
  8
GAIKEI
  6
Continuous
 62
     1
100
AcDbCircle
 10
22.84536945764194
 20
23.83482184434524
 30
0.0
 40
0.0499999999996751
100
AcDbArc
 50
321.3401899997673
 51
38.65981000023273
  0
ARC
  5
36B
330
2
100
AcDbEntity
  8
GAIKEI
  6
Continuous
 62
     1
100
AcDbCircle
 10
22.84536945764194
 20
24.33482184434524
 30
0.0
 40
0.0499999999996751
100
AcDbArc
 50
321.3401899997673
 51
38.65981000023273
  0
ARC
  5
36C
330
2
100
AcDbEntity
  8
GAIKEI
  6
Continuous
 62
     1
100
AcDbCircle
 10
22.84536945764194
 20
24.83482184434524
 30
0.0
 40
0.0499999999996751
100
AcDbArc
 50
321.3401899997673
 51
38.65981000023273
  0
ARC
  5
36D
330
2
100
AcDbEntity
  8
GAIKEI
  6
Continuous
 62
     1
100
AcDbCircle
 10
22.84536945764194
 20
25.33482184434524
 30
0.0
 40
0.0499999999996751
100
AcDbArc
 50
321.3401899997673
 51
38.65981000023273
  0
ARC
  5
36E
330
2
100
AcDbEntity
  8
GAIKEI
  6
Continuous
 62
     1
100
AcDbCircle
 10
22.84536945764194
 20
25.83482184434525
 30
0.0
 40
0.0499999999996751
100
AcDbArc
 50
321.3401899997673
 51
38.65981000023273
  0
ARC
  5
36F
330
2
100
AcDbEntity
  8
GAIKEI
  6
Continuous
 62
     1
100
AcDbCircle
 10
22.84536945764194
 20
26.33482184434524
 30
0.0
 40
0.0499999999996751
100
AcDbArc
 50
321.3401899997673
 51
38.65981000023273
  0
ARC
  5
370
330
2
100
AcDbEntity
  8
GAIKEI
  6
Continuous
 62
     1
100
AcDbCircle
 10
22.84536945764194
 20
26.83482184434524
 30
0.0
 40
0.0499999999996751
100
AcDbArc
 50
321.3401899997673
 51
38.65981000023273
  0
ARC
  5
371
330
2
100
AcDbEntity
  8
GAIKEI
  6
Continuous
 62
     1
100
AcDbCircle
 10
22.84536945764194
 20
27.33482184434524
 30
0.0
 40
0.0499999999996751
100
AcDbArc
 50
321.3401899997673
 51
38.65981000023273
  0
ARC
  5
372
330
2
100
AcDbEntity
  8
GAIKEI
  6
Continuous
 62
     1
100
AcDbCircle
 10
22.84536945764194
 20
27.83482184434524
 30
0.0
 40
0.0499999999996751
100
AcDbArc
 50
321.3401899997673
 51
38.65981000023273
  0
ARC
  5
373
330
2
100
AcDbEntity
  8
GAIKEI
  6
Continuous
 62
     1
100
AcDbCircle
 10
22.84536945764194
 20
28.33482184434524
 30
0.0
 40
0.0499999999996751
100
AcDbArc
 50
321.3401899997673
 51
38.65981000023273
  0
ARC
  5
374
330
2
100
AcDbEntity
  8
GAIKEI
  6
Continuous
 62
     1
100
AcDbCircle
 10
22.84536945764194
 20
28.83482184434524
 30
0.0
 40
0.0499999999996751
100
AcDbArc
 50
321.3401899997673
 51
38.65981000023273
  0
ARC
  5
375
330
2
100
AcDbEntity
  8
GAIKEI
  6
Continuous
 62
     1
100
AcDbCircle
 10
22.84536945764194
 20
29.33482184434524
 30
0.0
 40
0.0499999999996751
100
AcDbArc
 50
321.3401899997673
 51
38.65981000023273
  0
ARC
  5
376
330
2
100
AcDbEntity
  8
GAIKEI
  6
Continuous
 62
     1
100
AcDbCircle
 10
22.84536945764194
 20
29.83482184434524
 30
0.0
 40
0.0499999999996751
100
AcDbArc
 50
321.3401899997673
 51
38.65981000023273
  0
ARC
  5
377
330
2
100
AcDbEntity
  8
GAIKEI
  6
Continuous
 62
     1
100
AcDbCircle
 10
22.84536945764194
 20
30.33482184434524
 30
0.0
 40
0.0499999999996751
100
AcDbArc
 50
321.3401899997673
 51
38.65981000023273
  0
ARC
  5
378
330
2
100
AcDbEntity
  8
GAIKEI
  6
Continuous
 62
     1
100
AcDbCircle
 10
22.84536945764194
 20
30.83482184434525
 30
0.0
 40
0.0499999999996751
100
AcDbArc
 50
321.3401899997673
 51
38.65981000023273
  0
ARC
  5
379
330
2
100
AcDbEntity
  8
GAIKEI
  6
Continuous
 62
     1
100
AcDbCircle
 10
22.84536945764194
 20
31.33482184434524
 30
0.0
 40
0.0499999999996751
100
AcDbArc
 50
321.3401899997673
 51
38.65981000023273
  0
ARC
  5
37A
330
2
100
AcDbEntity
  8
GAIKEI
  6
Continuous
 62
     1
100
AcDbCircle
 10
22.84536945764194
 20
31.83482184434524
 30
0.0
 40
0.0499999999996751
100
AcDbArc
 50
321.3401899997673
 51
38.65981000023273
  0
ARC
  5
37B
330
2
100
AcDbEntity
  8
GAIKEI
  6
Continuous
 62
     1
100
AcDbCircle
 10
22.84536945764194
 20
32.33482024434534
 30
0.0
 40
0.0499999999996751
100
AcDbArc
 50
321.3401899997673
 51
38.65981000023273
  0
ARC
  5
37C
330
2
100
AcDbEntity
  8
GAIKEI
  6
Continuous
 62
     1
100
AcDbCircle
 10
22.84536945764194
 20
32.83482024434534
 30
0.0
 40
0.0499999999996751
100
AcDbArc
 50
321.3401899997673
 51
38.65981000023273
  0
ARC
  5
37D
330
2
100
AcDbEntity
  8
GAIKEI
  6
Continuous
 62
     1
100
AcDbCircle
 10
22.84536945764194
 20
33.33482024434534
 30
0.0
 40
0.0499999999996751
100
AcDbArc
 50
321.3401899997673
 51
38.65981000023273
  0
ARC
  5
37E
330
2
100
AcDbEntity
  8
GAIKEI
  6
Continuous
 62
     1
100
AcDbCircle
 10
22.84536945764194
 20
33.83482024434534
 30
0.0
 40
0.0499999999996751
100
AcDbArc
 50
321.3401899997673
 51
38.65981000023273
  0
ARC
  5
37F
330
2
100
AcDbEntity
  8
GAIKEI
  6
Continuous
 62
     1
100
AcDbCircle
 10
22.84536945764194
 20
34.33481874434529
 30
0.0
 40
0.0499999999996751
100
AcDbArc
 50
321.3401899997673
 51
38.65981000023273
  0
ARC
  5
380
330
2
100
AcDbEntity
  8
GAIKEI
  6
Continuous
 62
     1
100
AcDbCircle
 10
22.84536945764194
 20
34.83481874434529
 30
0.0
 40
0.0499999999996751
100
AcDbArc
 50
321.3401899997673
 51
38.65981000023273
  0
ARC
  5
381
330
2
100
AcDbEntity
  8
GAIKEI
  6
Continuous
 62
     1
100
AcDbCircle
 10
22.84536945764194
 20
35.33481874434528
 30
0.0
 40
0.0499999999996751
100
AcDbArc
 50
321.3401899997673
 51
38.65981000023273
  0
ARC
  5
382
330
2
100
AcDbEntity
  8
GAIKEI
  6
Continuous
 62
     1
100
AcDbCircle
 10
22.84536945764194
 20
35.83481874434529
 30
0.0
 40
0.0499999999996751
100
AcDbArc
 50
321.3401899997673
 51
38.65981000023273
  0
ARC
  5
383
330
2
100
AcDbEntity
  8
GAIKEI
  6
Continuous
 62
     1
100
AcDbCircle
 10
22.84536945764194
 20
36.33481874434528
 30
0.0
 40
0.0499999999996751
100
AcDbArc
 50
321.3401899997673
 51
38.65981000023273
  0
ARC
  5
384
330
2
100
AcDbEntity
  8
GAIKEI
  6
Continuous
 62
     1
100
AcDbCircle
 10
22.84536945764194
 20
36.83481874434529
 30
0.0
 40
0.0499999999996751
100
AcDbArc
 50
321.3401899997673
 51
38.65981000023273
  0
ARC
  5
385
330
2
100
AcDbEntity
  8
GAIKEI
  6
Continuous
 62
     1
100
AcDbCircle
 10
22.84536945764194
 20
37.33481874434529
 30
0.0
 40
0.0499999999996751
100
AcDbArc
 50
321.3401899997673
 51
38.65981000023273
  0
ARC
  5
386
330
2
100
AcDbEntity
  8
GAIKEI
  6
Continuous
 62
     1
100
AcDbCircle
 10
22.75940755764214
 20
-5.932719655654636
 30
0.0
 40
0.0500000000001935
100
AcDbArc
 50
141.3401920001181
 51
180.0000049999744
  0
ARC
  5
387
330
2
100
AcDbEntity
  8
GAIKEI
  6
Continuous
 62
     1
100
AcDbCircle
 10
22.77344565764179
 20
-5.415178155654757
 30
0.0
 40
0.0500000000002859
100
AcDbArc
 50
141.3401920002387
 51
218.6598060000523
  0
ARC
  5
388
330
2
100
AcDbEntity
  8
GAIKEI
  6
Continuous
 62
     1
100
AcDbCircle
 10
22.77344565764179
 20
-4.915178155654757
 30
0.0
 40
0.0500000000002859
100
AcDbArc
 50
141.3401920002387
 51
218.6598060000523
  0
ARC
  5
389
330
2
100
AcDbEntity
  8
GAIKEI
  6
Continuous
 62
     1
100
AcDbCircle
 10
22.77344565764179
 20
-4.415178155654757
 30
0.0
 40
0.0500000000002859
100
AcDbArc
 50
141.3401920002387
 51
218.6598060000523
  0
ARC
  5
38A
330
2
100
AcDbEntity
  8
GAIKEI
  6
Continuous
 62
     1
100
AcDbCircle
 10
22.77344565764179
 20
-3.915178155654757
 30
0.0
 40
0.0500000000002859
100
AcDbArc
 50
141.3401920002387
 51
218.6598060000523
  0
ARC
  5
38B
330
2
100
AcDbEntity
  8
GAIKEI
  6
Continuous
 62
     1
100
AcDbCircle
 10
22.77344565764179
 20
-3.415178155654757
 30
0.0
 40
0.0500000000002859
100
AcDbArc
 50
141.3401920002387
 51
218.6598060000523
  0
ARC
  5
38C
330
2
100
AcDbEntity
  8
GAIKEI
  6
Continuous
 62
     1
100
AcDbCircle
 10
22.77344565764179
 20
-2.915178155654757
 30
0.0
 40
0.0500000000002859
100
AcDbArc
 50
141.3401920002387
 51
218.6598060000523
  0
ARC
  5
38D
330
2
100
AcDbEntity
  8
GAIKEI
  6
Continuous
 62
     1
100
AcDbCircle
 10
22.77344565764179
 20
-2.415178155654757
 30
0.0
 40
0.0500000000002859
100
AcDbArc
 50
141.3401920002387
 51
218.6598060000523
  0
ARC
  5
38E
330
2
100
AcDbEntity
  8
GAIKEI
  6
Continuous
 62
     1
100
AcDbCircle
 10
22.77344565764179
 20
-1.915178155654757
 30
0.0
 40
0.0500000000002859
100
AcDbArc
 50
141.3401920002387
 51
218.6598060000523
  0
ARC
  5
38F
330
2
100
AcDbEntity
  8
GAIKEI
  6
Continuous
 62
     1
100
AcDbCircle
 10
22.77344565764179
 20
-1.415178155654757
 30
0.0
 40
0.0500000000002859
100
AcDbArc
 50
141.3401920002387
 51
218.6598060000523
  0
ARC
  5
390
330
2
100
AcDbEntity
  8
GAIKEI
  6
Continuous
 62
     1
100
AcDbCircle
 10
22.77344565764179
 20
-0.9151781556547575
 30
0.0
 40
0.0500000000002859
100
AcDbArc
 50
141.3401920002387
 51
218.6598060000523
  0
ARC
  5
391
330
2
100
AcDbEntity
  8
GAIKEI
  6
Continuous
 62
     1
100
AcDbCircle
 10
22.77344565764179
 20
-0.4151781556547576
 30
0.0
 40
0.0500000000002859
100
AcDbArc
 50
141.3401920002387
 51
218.6598060000523
  0
ARC
  5
392
330
2
100
AcDbEntity
  8
GAIKEI
  6
Continuous
 62
     1
100
AcDbCircle
 10
22.77344565764179
 20
0.0848218443452424
 30
0.0
 40
0.0500000000002859
100
AcDbArc
 50
141.3401920002387
 51
218.6598060000523
  0
ARC
  5
393
330
2
100
AcDbEntity
  8
GAIKEI
  6
Continuous
 62
     1
100
AcDbCircle
 10
22.77344565764179
 20
0.5848218443452425
 30
0.0
 40
0.0500000000002859
100
AcDbArc
 50
141.3401920002387
 51
218.6598060000523
  0
ARC
  5
394
330
2
100
AcDbEntity
  8
GAIKEI
  6
Continuous
 62
     1
100
AcDbCircle
 10
22.77344565764179
 20
1.084821844345242
 30
0.0
 40
0.0500000000002859
100
AcDbArc
 50
141.3401920002387
 51
218.6598060000523
  0
ARC
  5
395
330
2
100
AcDbEntity
  8
GAIKEI
  6
Continuous
 62
     1
100
AcDbCircle
 10
22.77344565764179
 20
1.584821844345242
 30
0.0
 40
0.0500000000002859
100
AcDbArc
 50
141.3401920002387
 51
218.6598060000523
  0
ARC
  5
396
330
2
100
AcDbEntity
  8
GAIKEI
  6
Continuous
 62
     1
100
AcDbCircle
 10
22.77344565764179
 20
2.084821844345242
 30
0.0
 40
0.0500000000002859
100
AcDbArc
 50
141.3401920002387
 51
218.6598060000523
  0
ARC
  5
397
330
2
100
AcDbEntity
  8
GAIKEI
  6
Continuous
 62
     1
100
AcDbCircle
 10
22.77344565764179
 20
2.584821844345242
 30
0.0
 40
0.0500000000002859
100
AcDbArc
 50
141.3401920002387
 51
218.6598060000523
  0
ARC
  5
398
330
2
100
AcDbEntity
  8
GAIKEI
  6
Continuous
 62
     1
100
AcDbCircle
 10
22.77344565764179
 20
3.084821844345242
 30
0.0
 40
0.0500000000002859
100
AcDbArc
 50
141.3401920002387
 51
218.6598060000523
  0
ARC
  5
399
330
2
100
AcDbEntity
  8
GAIKEI
  6
Continuous
 62
     1
100
AcDbCircle
 10
22.77344565764179
 20
3.584821844345242
 30
0.0
 40
0.0500000000002859
100
AcDbArc
 50
141.3401920002387
 51
218.6598060000523
  0
ARC
  5
39A
330
2
100
AcDbEntity
  8
GAIKEI
  6
Continuous
 62
     1
100
AcDbCircle
 10
22.77344565764179
 20
4.084821844345242
 30
0.0
 40
0.0500000000002859
100
AcDbArc
 50
141.3401920002387
 51
218.6598060000523
  0
ARC
  5
39B
330
2
100
AcDbEntity
  8
GAIKEI
  6
Continuous
 62
     1
100
AcDbCircle
 10
22.77344565764179
 20
4.584821844345242
 30
0.0
 40
0.0500000000002859
100
AcDbArc
 50
141.3401920002387
 51
218.6598060000523
  0
ARC
  5
39C
330
2
100
AcDbEntity
  8
GAIKEI
  6
Continuous
 62
     1
100
AcDbCircle
 10
22.77344565764179
 20
5.084821844345242
 30
0.0
 40
0.0500000000002859
100
AcDbArc
 50
141.3401920002387
 51
218.6598060000523
  0
ARC
  5
39D
330
2
100
AcDbEntity
  8
GAIKEI
  6
Continuous
 62
     1
100
AcDbCircle
 10
22.77344565764179
 20
5.584821844345242
 30
0.0
 40
0.0500000000002859
100
AcDbArc
 50
141.3401920002387
 51
218.6598060000523
  0
ARC
  5
39E
330
2
100
AcDbEntity
  8
GAIKEI
  6
Continuous
 62
     1
100
AcDbCircle
 10
22.77344565764179
 20
6.084821844345242
 30
0.0
 40
0.0500000000002859
100
AcDbArc
 50
141.3401920002387
 51
218.6598060000523
  0
ARC
  5
39F
330
2
100
AcDbEntity
  8
GAIKEI
  6
Continuous
 62
     1
100
AcDbCircle
 10
22.77344565764179
 20
6.584818744345284
 30
0.0
 40
0.0500000000002859
100
AcDbArc
 50
141.3401920002387
 51
218.6598060000523
  0
ARC
  5
3A0
330
2
100
AcDbEntity
  8
GAIKEI
  6
Continuous
 62
     1
100
AcDbCircle
 10
22.77344565764179
 20
7.084818744345284
 30
0.0
 40
0.0500000000002859
100
AcDbArc
 50
141.3401920002387
 51
218.6598060000523
  0
ARC
  5
3A1
330
2
100
AcDbEntity
  8
GAIKEI
  6
Continuous
 62
     1
100
AcDbCircle
 10
22.77344565764179
 20
7.584818744345284
 30
0.0
 40
0.0500000000002859
100
AcDbArc
 50
141.3401920002387
 51
218.6598060000523
  0
ARC
  5
3A2
330
2
100
AcDbEntity
  8
GAIKEI
  6
Continuous
 62
     1
100
AcDbCircle
 10
22.77344565764179
 20
8.084818744345284
 30
0.0
 40
0.0500000000002859
100
AcDbArc
 50
141.3401920002387
 51
218.6598060000523
  0
ARC
  5
3A3
330
2
100
AcDbEntity
  8
GAIKEI
  6
Continuous
 62
     1
100
AcDbCircle
 10
22.77344565764179
 20
8.584818744345284
 30
0.0
 40
0.0500000000002859
100
AcDbArc
 50
141.3401920002387
 51
218.6598060000523
  0
ARC
  5
3A4
330
2
100
AcDbEntity
  8
GAIKEI
  6
Continuous
 62
     1
100
AcDbCircle
 10
22.77344565764179
 20
9.084818744345284
 30
0.0
 40
0.0500000000002859
100
AcDbArc
 50
141.3401920002387
 51
218.6598060000523
  0
ARC
  5
3A5
330
2
100
AcDbEntity
  8
GAIKEI
  6
Continuous
 62
     1
100
AcDbCircle
 10
22.77344565764179
 20
9.584818744345284
 30
0.0
 40
0.0500000000002859
100
AcDbArc
 50
141.3401920002387
 51
218.6598060000523
  0
ARC
  5
3A6
330
2
100
AcDbEntity
  8
GAIKEI
  6
Continuous
 62
     1
100
AcDbCircle
 10
22.77344565764179
 20
10.08481874434528
 30
0.0
 40
0.0500000000002859
100
AcDbArc
 50
141.3401920002387
 51
218.6598060000523
  0
ARC
  5
3A7
330
2
100
AcDbEntity
  8
GAIKEI
  6
Continuous
 62
     1
100
AcDbCircle
 10
22.77344565764179
 20
10.58481874434528
 30
0.0
 40
0.0500000000002859
100
AcDbArc
 50
141.3401920002387
 51
218.6598060000523
  0
ARC
  5
3A8
330
2
100
AcDbEntity
  8
GAIKEI
  6
Continuous
 62
     1
100
AcDbCircle
 10
22.77344565764179
 20
11.08481874434528
 30
0.0
 40
0.0500000000002859
100
AcDbArc
 50
141.3401920002387
 51
218.6598060000523
  0
ARC
  5
3A9
330
2
100
AcDbEntity
  8
GAIKEI
  6
Continuous
 62
     1
100
AcDbCircle
 10
22.77344565764179
 20
11.58481874434528
 30
0.0
 40
0.0500000000002859
100
AcDbArc
 50
141.3401920002387
 51
218.6598060000523
  0
ARC
  5
3AA
330
2
100
AcDbEntity
  8
GAIKEI
  6
Continuous
 62
     1
100
AcDbCircle
 10
22.77344565764179
 20
12.08481874434528
 30
0.0
 40
0.0500000000002859
100
AcDbArc
 50
141.3401920002387
 51
218.6598060000523
  0
ARC
  5
3AB
330
2
100
AcDbEntity
  8
GAIKEI
  6
Continuous
 62
     1
100
AcDbCircle
 10
22.77344565764179
 20
12.58481874434528
 30
0.0
 40
0.0500000000002859
100
AcDbArc
 50
141.3401920002387
 51
218.6598060000523
  0
ARC
  5
3AC
330
2
100
AcDbEntity
  8
GAIKEI
  6
Continuous
 62
     1
100
AcDbCircle
 10
22.77344565764179
 20
13.08481874434528
 30
0.0
 40
0.0500000000002859
100
AcDbArc
 50
141.3401920002387
 51
218.6598060000523
  0
ARC
  5
3AD
330
2
100
AcDbEntity
  8
GAIKEI
  6
Continuous
 62
     1
100
AcDbCircle
 10
22.77344565764179
 20
13.58481874434528
 30
0.0
 40
0.0500000000002859
100
AcDbArc
 50
141.3401920002387
 51
218.6598060000523
  0
ARC
  5
3AE
330
2
100
AcDbEntity
  8
GAIKEI
  6
Continuous
 62
     1
100
AcDbCircle
 10
22.77344565764179
 20
14.08481874434528
 30
0.0
 40
0.0500000000002859
100
AcDbArc
 50
141.3401920002387
 51
218.6598060000523
  0
ARC
  5
3AF
330
2
100
AcDbEntity
  8
GAIKEI
  6
Continuous
 62
     1
100
AcDbCircle
 10
22.77344565764179
 20
14.58481874434528
 30
0.0
 40
0.0500000000002859
100
AcDbArc
 50
141.3401920002387
 51
218.6598060000523
  0
ARC
  5
3B0
330
2
100
AcDbEntity
  8
GAIKEI
  6
Continuous
 62
     1
100
AcDbCircle
 10
22.77344565764179
 20
15.08481874434528
 30
0.0
 40
0.0500000000002859
100
AcDbArc
 50
141.3401920002387
 51
218.6598060000523
  0
ARC
  5
3B1
330
2
100
AcDbEntity
  8
GAIKEI
  6
Continuous
 62
     1
100
AcDbCircle
 10
22.77344565764179
 20
15.58482184434524
 30
0.0
 40
0.0500000000002859
100
AcDbArc
 50
141.3401920002387
 51
218.6598060000523
  0
ARC
  5
3B2
330
2
100
AcDbEntity
  8
GAIKEI
  6
Continuous
 62
     1
100
AcDbCircle
 10
22.77344565764179
 20
16.08482184434524
 30
0.0
 40
0.0500000000002859
100
AcDbArc
 50
141.3401920002387
 51
218.6598060000523
  0
ARC
  5
3B3
330
2
100
AcDbEntity
  8
GAIKEI
  6
Continuous
 62
     1
100
AcDbCircle
 10
22.77344565764179
 20
16.58482184434524
 30
0.0
 40
0.0500000000002859
100
AcDbArc
 50
141.3401920002387
 51
218.6598060000523
  0
ARC
  5
3B4
330
2
100
AcDbEntity
  8
GAIKEI
  6
Continuous
 62
     1
100
AcDbCircle
 10
22.77344565764179
 20
17.08482184434524
 30
0.0
 40
0.0500000000002859
100
AcDbArc
 50
141.3401920002387
 51
218.6598060000523
  0
ARC
  5
3B5
330
2
100
AcDbEntity
  8
GAIKEI
  6
Continuous
 62
     1
100
AcDbCircle
 10
22.77344565764179
 20
17.58482184434524
 30
0.0
 40
0.0500000000002859
100
AcDbArc
 50
141.3401920002387
 51
218.6598060000523
  0
ARC
  5
3B6
330
2
100
AcDbEntity
  8
GAIKEI
  6
Continuous
 62
     1
100
AcDbCircle
 10
22.77344565764179
 20
18.08482184434524
 30
0.0
 40
0.0500000000002859
100
AcDbArc
 50
141.3401920002387
 51
218.6598060000523
  0
ARC
  5
3B7
330
2
100
AcDbEntity
  8
GAIKEI
  6
Continuous
 62
     1
100
AcDbCircle
 10
22.77344565764179
 20
18.58482184434524
 30
0.0
 40
0.0500000000002859
100
AcDbArc
 50
141.3401920002387
 51
218.6598060000523
  0
ARC
  5
3B8
330
2
100
AcDbEntity
  8
GAIKEI
  6
Continuous
 62
     1
100
AcDbCircle
 10
22.77344565764179
 20
19.08482184434524
 30
0.0
 40
0.0500000000002859
100
AcDbArc
 50
141.3401920002387
 51
218.6598060000523
  0
ARC
  5
3B9
330
2
100
AcDbEntity
  8
GAIKEI
  6
Continuous
 62
     1
100
AcDbCircle
 10
22.77344565764179
 20
19.58482184434524
 30
0.0
 40
0.0500000000002859
100
AcDbArc
 50
141.3401920002387
 51
218.6598060000523
  0
ARC
  5
3BA
330
2
100
AcDbEntity
  8
GAIKEI
  6
Continuous
 62
     1
100
AcDbCircle
 10
22.77344565764179
 20
20.08482184434524
 30
0.0
 40
0.0500000000002859
100
AcDbArc
 50
141.3401920002387
 51
218.6598060000523
  0
ARC
  5
3BB
330
2
100
AcDbEntity
  8
GAIKEI
  6
Continuous
 62
     1
100
AcDbCircle
 10
22.77344565764179
 20
20.58482184434524
 30
0.0
 40
0.0500000000002859
100
AcDbArc
 50
141.3401920002387
 51
218.6598060000523
  0
ARC
  5
3BC
330
2
100
AcDbEntity
  8
GAIKEI
  6
Continuous
 62
     1
100
AcDbCircle
 10
22.77344565764179
 20
21.08482184434524
 30
0.0
 40
0.0500000000002859
100
AcDbArc
 50
141.3401920002387
 51
218.6598060000523
  0
ARC
  5
3BD
330
2
100
AcDbEntity
  8
GAIKEI
  6
Continuous
 62
     1
100
AcDbCircle
 10
22.77344565764179
 20
21.58482184434524
 30
0.0
 40
0.0500000000002859
100
AcDbArc
 50
141.3401920002387
 51
218.6598060000523
  0
ARC
  5
3BE
330
2
100
AcDbEntity
  8
GAIKEI
  6
Continuous
 62
     1
100
AcDbCircle
 10
22.77344565764179
 20
22.08482184434524
 30
0.0
 40
0.0500000000002859
100
AcDbArc
 50
141.3401920002387
 51
218.6598060000523
  0
ARC
  5
3BF
330
2
100
AcDbEntity
  8
GAIKEI
  6
Continuous
 62
     1
100
AcDbCircle
 10
22.77344565764179
 20
22.58482184434524
 30
0.0
 40
0.0500000000002859
100
AcDbArc
 50
141.3401920002387
 51
218.6598060000523
  0
ARC
  5
3C0
330
2
100
AcDbEntity
  8
GAIKEI
  6
Continuous
 62
     1
100
AcDbCircle
 10
22.77344565764179
 20
23.08482184434524
 30
0.0
 40
0.0500000000002859
100
AcDbArc
 50
141.3401920002387
 51
218.6598060000523
  0
ARC
  5
3C1
330
2
100
AcDbEntity
  8
GAIKEI
  6
Continuous
 62
     1
100
AcDbCircle
 10
22.77344565764179
 20
23.58482184434524
 30
0.0
 40
0.0500000000002859
100
AcDbArc
 50
141.3401920002387
 51
218.6598060000523
  0
ARC
  5
3C2
330
2
100
AcDbEntity
  8
GAIKEI
  6
Continuous
 62
     1
100
AcDbCircle
 10
22.77344565764179
 20
24.08482184434524
 30
0.0
 40
0.0500000000002859
100
AcDbArc
 50
141.3401920002387
 51
218.6598060000523
  0
ARC
  5
3C3
330
2
100
AcDbEntity
  8
GAIKEI
  6
Continuous
 62
     1
100
AcDbCircle
 10
22.77344565764179
 20
24.58482184434525
 30
0.0
 40
0.0500000000002859
100
AcDbArc
 50
141.3401920002387
 51
218.6598060000523
  0
ARC
  5
3C4
330
2
100
AcDbEntity
  8
GAIKEI
  6
Continuous
 62
     1
100
AcDbCircle
 10
22.77344565764179
 20
25.08482184434524
 30
0.0
 40
0.0500000000002859
100
AcDbArc
 50
141.3401920002387
 51
218.6598060000523
  0
ARC
  5
3C5
330
2
100
AcDbEntity
  8
GAIKEI
  6
Continuous
 62
     1
100
AcDbCircle
 10
22.77344565764179
 20
25.58482184434524
 30
0.0
 40
0.0500000000002859
100
AcDbArc
 50
141.3401920002387
 51
218.6598060000523
  0
ARC
  5
3C6
330
2
100
AcDbEntity
  8
GAIKEI
  6
Continuous
 62
     1
100
AcDbCircle
 10
22.77344565764179
 20
26.08482184434524
 30
0.0
 40
0.0500000000002859
100
AcDbArc
 50
141.3401920002387
 51
218.6598060000523
  0
ARC
  5
3C7
330
2
100
AcDbEntity
  8
GAIKEI
  6
Continuous
 62
     1
100
AcDbCircle
 10
22.77344565764179
 20
26.58482184434524
 30
0.0
 40
0.0500000000002859
100
AcDbArc
 50
141.3401920002387
 51
218.6598060000523
  0
ARC
  5
3C8
330
2
100
AcDbEntity
  8
GAIKEI
  6
Continuous
 62
     1
100
AcDbCircle
 10
22.77344565764179
 20
27.08482184434525
 30
0.0
 40
0.0500000000002859
100
AcDbArc
 50
141.3401920002387
 51
218.6598060000523
  0
ARC
  5
3C9
330
2
100
AcDbEntity
  8
GAIKEI
  6
Continuous
 62
     1
100
AcDbCircle
 10
22.77344565764179
 20
27.58482184434524
 30
0.0
 40
0.0500000000002859
100
AcDbArc
 50
141.3401920002387
 51
218.6598060000523
  0
ARC
  5
3CA
330
2
100
AcDbEntity
  8
GAIKEI
  6
Continuous
 62
     1
100
AcDbCircle
 10
22.77344565764179
 20
28.08482184434524
 30
0.0
 40
0.0500000000002859
100
AcDbArc
 50
141.3401920002387
 51
218.6598060000523
  0
ARC
  5
3CB
330
2
100
AcDbEntity
  8
GAIKEI
  6
Continuous
 62
     1
100
AcDbCircle
 10
22.77344565764179
 20
28.58482184434524
 30
0.0
 40
0.0500000000002859
100
AcDbArc
 50
141.3401920002387
 51
218.6598060000523
  0
ARC
  5
3CC
330
2
100
AcDbEntity
  8
GAIKEI
  6
Continuous
 62
     1
100
AcDbCircle
 10
22.77344565764179
 20
29.08482184434524
 30
0.0
 40
0.0500000000002859
100
AcDbArc
 50
141.3401920002387
 51
218.6598060000523
  0
ARC
  5
3CD
330
2
100
AcDbEntity
  8
GAIKEI
  6
Continuous
 62
     1
100
AcDbCircle
 10
22.77344565764179
 20
29.58482184434524
 30
0.0
 40
0.0500000000002859
100
AcDbArc
 50
141.3401920002387
 51
218.6598060000523
  0
ARC
  5
3CE
330
2
100
AcDbEntity
  8
GAIKEI
  6
Continuous
 62
     1
100
AcDbCircle
 10
22.77344565764179
 20
30.08482184434524
 30
0.0
 40
0.0500000000002859
100
AcDbArc
 50
141.3401920002387
 51
218.6598060000523
  0
ARC
  5
3CF
330
2
100
AcDbEntity
  8
GAIKEI
  6
Continuous
 62
     1
100
AcDbCircle
 10
22.77344565764179
 20
30.58482184434524
 30
0.0
 40
0.0500000000002859
100
AcDbArc
 50
141.3401920002387
 51
218.6598060000523
  0
ARC
  5
3D0
330
2
100
AcDbEntity
  8
GAIKEI
  6
Continuous
 62
     1
100
AcDbCircle
 10
22.77344565764179
 20
31.08482184434524
 30
0.0
 40
0.0500000000002859
100
AcDbArc
 50
141.3401920002387
 51
218.6598060000523
  0
ARC
  5
3D1
330
2
100
AcDbEntity
  8
GAIKEI
  6
Continuous
 62
     1
100
AcDbCircle
 10
22.77344565764179
 20
31.58482184434524
 30
0.0
 40
0.0500000000002859
100
AcDbArc
 50
141.3401920002387
 51
218.6598060000523
  0
ARC
  5
3D2
330
2
100
AcDbEntity
  8
GAIKEI
  6
Continuous
 62
     1
100
AcDbCircle
 10
22.77344565764179
 20
32.08482184434525
 30
0.0
 40
0.0500000000002859
100
AcDbArc
 50
141.3401920002387
 51
218.6598060000523
  0
ARC
  5
3D3
330
2
100
AcDbEntity
  8
GAIKEI
  6
Continuous
 62
     1
100
AcDbCircle
 10
22.77344565764179
 20
32.58482024434534
 30
0.0
 40
0.0500000000003001
100
AcDbArc
 50
141.340192000218
 51
218.6598060000254
  0
ARC
  5
3D4
330
2
100
AcDbEntity
  8
GAIKEI
  6
Continuous
 62
     1
100
AcDbCircle
 10
22.77344565764179
 20
33.08482024434534
 30
0.0
 40
0.0500000000003001
100
AcDbArc
 50
141.340192000218
 51
218.6598060000254
  0
ARC
  5
3D5
330
2
100
AcDbEntity
  8
GAIKEI
  6
Continuous
 62
     1
100
AcDbCircle
 10
22.77344565764179
 20
33.58482024434534
 30
0.0
 40
0.0500000000003001
100
AcDbArc
 50
141.340192000218
 51
218.6598060000254
  0
ARC
  5
3D6
330
2
100
AcDbEntity
  8
GAIKEI
  6
Continuous
 62
     1
100
AcDbCircle
 10
22.77344565764179
 20
34.08482024434534
 30
0.0
 40
0.0500000000003001
100
AcDbArc
 50
141.340192000218
 51
218.6598060000254
  0
ARC
  5
3D7
330
2
100
AcDbEntity
  8
GAIKEI
  6
Continuous
 62
     1
100
AcDbCircle
 10
22.77344565764179
 20
34.58481874434529
 30
0.0
 40
0.0500000000002859
100
AcDbArc
 50
141.3401920002387
 51
218.6598060000523
  0
ARC
  5
3D8
330
2
100
AcDbEntity
  8
GAIKEI
  6
Continuous
 62
     1
100
AcDbCircle
 10
22.77344565764179
 20
35.08481874434528
 30
0.0
 40
0.0500000000002859
100
AcDbArc
 50
141.3401920002387
 51
218.6598060000523
  0
ARC
  5
3D9
330
2
100
AcDbEntity
  8
GAIKEI
  6
Continuous
 62
     1
100
AcDbCircle
 10
22.77344565764179
 20
35.58481874434529
 30
0.0
 40
0.0500000000002859
100
AcDbArc
 50
141.3401920002387
 51
218.6598060000523
  0
ARC
  5
3DA
330
2
100
AcDbEntity
  8
GAIKEI
  6
Continuous
 62
     1
100
AcDbCircle
 10
22.77344565764179
 20
36.08481874434529
 30
0.0
 40
0.0500000000002859
100
AcDbArc
 50
141.3401920002387
 51
218.6598060000523
  0
ARC
  5
3DB
330
2
100
AcDbEntity
  8
GAIKEI
  6
Continuous
 62
     1
100
AcDbCircle
 10
22.77344565764179
 20
36.58481874434528
 30
0.0
 40
0.0500000000002859
100
AcDbArc
 50
141.3401920002387
 51
218.6598060000523
  0
ARC
  5
3DC
330
2
100
AcDbEntity
  8
GAIKEI
  6
Continuous
 62
     1
100
AcDbCircle
 10
22.77344565764179
 20
37.08481874434529
 30
0.0
 40
0.0500000000002859
100
AcDbArc
 50
141.3401920002387
 51
218.6598060000523
  0
ARC
  5
3DD
330
2
100
AcDbEntity
  8
GAIKEI
  6
Continuous
 62
     1
100
AcDbCircle
 10
22.75940755764214
 20
37.60236024434516
 30
0.0
 40
0.0500000000000002
100
AcDbArc
 50
180.0000049999744
 51
218.6598060000626
  0
ARC
  5
3DE
330
2
100
AcDbEntity
  8
GAIKEI
  6
Continuous
 62
     1
100
AcDbCircle
 10
-49.09414138406828
 20
-4.465178155654712
 30
0.0
 40
0.4999999999998887
100
AcDbArc
 50
172.5304150000058
 51
187.4695959999953
  0
ARC
  5
3DF
330
2
100
AcDbEntity
  8
GAIKEI
  6
Continuous
 62
     1
100
AcDbCircle
 10
-49.09414138406828
 20
-4.465178155654712
 30
0.0
 40
0.5000000000000883
100
AcDbArc
 50
262.5303969999531
 51
277.4696050000216
  0
ARC
  5
3E0
330
2
100
AcDbEntity
  8
GAIKEI
  6
Continuous
 62
     1
100
AcDbCircle
 10
-49.09414138406828
 20
-4.465178155654712
 30
0.0
 40
0.4999999999999932
100
AcDbArc
 50
352.5304059999915
 51
7.469586999995718
  0
ARC
  5
3E1
330
2
100
AcDbEntity
  8
GAIKEI
  6
Continuous
 62
     1
100
AcDbCircle
 10
-49.09414138406828
 20
-4.465178155654712
 30
0.0
 40
0.5000000000000217
100
AcDbArc
 50
82.53040500000466
 51
97.46959300002231
  0
ARC
  5
3E2
330
2
100
AcDbEntity
  8
GAIKEI
  6
Continuous
 62
     1
100
AcDbCircle
 10
-49.09414138406828
 20
-4.465178155654712
 30
0.0
 40
0.4499999999995875
100
AcDbArc
 50
188.3051060000014
 51
261.6948999999518
  0
ARC
  5
3E3
330
2
100
AcDbEntity
  8
GAIKEI
  6
Continuous
 62
     1
100
AcDbCircle
 10
-49.09414138406828
 20
-4.465178155654712
 30
0.0
 40
0.4499999999999625
100
AcDbArc
 50
278.3051009999776
 51
351.6948830000036
  0
ARC
  5
3E4
330
2
100
AcDbEntity
  8
GAIKEI
  6
Continuous
 62
     1
100
AcDbCircle
 10
-49.09414138406828
 20
-4.465178155654712
 30
0.0
 40
0.4499999999999793
100
AcDbArc
 50
98.30511000002225
 51
171.6948909999995
  0
ARC
  5
3E5
330
2
100
AcDbEntity
  8
GAIKEI
  6
Continuous
 62
     1
100
AcDbCircle
 10
-49.09414138406828
 20
-4.465178155654712
 30
0.0
 40
0.4500000000004672
100
AcDbArc
 50
8.305109999996828
 51
81.69488799998843
  0
ARC
  5
3E6
330
2
100
AcDbEntity
  8
GAIKEI
  6
Continuous
 62
     1
100
AcDbCircle
 10
-49.09414138406828
 20
-4.465178155654712
 30
0.0
 40
0.5000000000001589
100
AcDbArc
 50
7.469591999993868
 51
82.53040500000466
  0
ARC
  5
3E7
330
2
100
AcDbEntity
  8
GAIKEI
  6
Continuous
 62
     1
100
AcDbCircle
 10
-49.09414138406828
 20
-4.465178155654712
 30
0.0
 40
0.5000000000000121
100
AcDbArc
 50
277.4696050000216
 51
352.5304059999915
  0
ARC
  5
3E8
330
2
100
AcDbEntity
  8
GAIKEI
  6
Continuous
 62
     1
100
AcDbCircle
 10
-49.09414138406828
 20
-4.465178155654712
 30
0.0
 40
0.4999999999999483
100
AcDbArc
 50
187.4695959999953
 51
262.5303969999531
  0
ARC
  5
3E9
330
2
100
AcDbEntity
  8
GAIKEI
  6
Continuous
 62
     1
100
AcDbCircle
 10
-49.09414138406828
 20
-4.465178155654712
 30
0.0
 40
0.5000000000000109
100
AcDbArc
 50
97.46959300002231
 51
172.5304150000058
  0
ARC
  5
3EA
330
2
100
AcDbEntity
  8
GAIKEI
  6
Continuous
 62
     1
100
AcDbCircle
 10
-49.09414138406828
 20
-4.465178155654712
 30
0.0
 40
0.4000000000000239
100
AcDbArc
 50
99.35203399999576
 51
170.6479599999915
  0
ARC
  5
3EB
330
2
100
AcDbEntity
  8
GAIKEI
  6
Continuous
 62
     1
100
AcDbCircle
 10
-49.09414138406828
 20
-4.465178155654712
 30
0.0
 40
0.4000000000003324
100
AcDbArc
 50
189.3520500000041
 51
260.6479690000532
  0
ARC
  5
3EC
330
2
100
AcDbEntity
  8
GAIKEI
  6
Continuous
 62
     1
100
AcDbCircle
 10
-49.09414138406828
 20
-4.465178155654712
 30
0.0
 40
0.4000000000000244
100
AcDbArc
 50
279.3520320000252
 51
350.6479520000023
  0
ARC
  5
3ED
330
2
100
AcDbEntity
  8
GAIKEI
  6
Continuous
 62
     1
100
AcDbCircle
 10
-49.09414138406828
 20
-4.465178155654712
 30
0.0
 40
0.3999999999995612
100
AcDbArc
 50
9.352044000017968
 51
80.64795699994283
  0
CIRCLE
  5
3EE
330
2
100
AcDbEntity
  8
GAIKEI
  6
Continuous
 62
     1
100
AcDbCircle
 10
-8.294141384068552
 20
-4.465178155654712
 30
0.0
 40
0.6447663999998895
  0
CIRCLE
  5
3EF
330
2
100
AcDbEntity
  8
GAIKEI
  6
Continuous
 62
     1
100
AcDbCircle
 10
-8.294141384068552
 20
-4.465178155654712
 30
0.0
 40
0.6138385999998718
  0
CIRCLE
  5
3F0
330
2
100
AcDbEntity
  8
GAIKEI
  6
Continuous
 62
     1
100
AcDbCircle
 10
-8.294141384068552
 20
-4.465178155654712
 30
0.0
 40
0.7556754999998702
  0
CIRCLE
  5
3F1
330
2
100
AcDbEntity
  8
GAIKEI
  6
Continuous
 62
     1
100
AcDbCircle
 10
-49.09414138406828
 20
-4.465178155654712
 30
0.0
 40
0.7556755000000069
  0
CIRCLE
  5
3F2
330
2
100
AcDbEntity
  8
GAIKEI
  6
Continuous
 62
     1
100
AcDbCircle
 10
-49.09414138406828
 20
-4.465178155654712
 30
0.0
 40
0.6138386000000083
  0
CIRCLE
  5
3F3
330
2
100
AcDbEntity
  8
GAIKEI
  6
Continuous
 62
     1
100
AcDbCircle
 10
-49.09414138406828
 20
-4.465178155654712
 30
0.0
 40
0.6447664000000259
  0
SPLINE
  5
3F4
330
2
100
AcDbEntity
  8
GAIKEI
  6
Continuous
 62
     1
100
AcDbSpline
210
0.0
220
0.0
230
1.0
 70
     8
 71
     3
 72
    21
 73
    17
 74
    15
 42
0.0000000001
 43
0.0000000001
 44
0.00000001
 40
0.0
 40
0.0
 40
0.0
 40
0.0
 40
0.0348304695917406
 40
0.0696609785836039
 40
0.0871028644489877
 40
0.1045449323034948
 40
0.1219910257164432
 40
0.1394370520961942
 40
0.1568845264785181
 40
0.1743320030798514
 40
0.1917779897069729
 40
0.2092240338363569
 40
0.2266660009998402
 40
0.2441078204203193
 40
0.2786662740121076
 40
0.3132233277739906
 40
0.3132233277739906
 40
0.3132233277739906
 40
0.3132233277739906
 10
-50.36256658269849
 20
-5.983883325940951
 30
0.0
 10
-50.36194987577632
 20
-5.995505542462296
 30
0.0
 10
-50.3607164466988
 20
-6.018749987332682
 30
0.0
 10
-50.35277163169681
 20
-6.046928543408171
 30
0.0
 10
-50.34385900312098
 20
-6.068398675113598
 30
0.0
 10
-50.33575316045933
 20
-6.083874667722056
 30
0.0
 10
-50.32634082316659
 20
-6.098586711531254
 30
0.0
 10
-50.31568351554281
 20
-6.112428229701549
 30
0.0
 10
-50.30386177374632
 20
-6.125289425501705
 30
0.0
 10
-50.29096859891918
 20
-6.137076264003212
 30
0.0
 10
-50.27709827377072
 20
-6.147695999521374
 30
0.0
 10
-50.26236081486404
 20
-6.157068398959609
 30
0.0
 10
-50.24686300654846
 20
-6.165132195463286
 30
0.0
 10
-50.2254525181704
 20
-6.173952119633156
 30
0.0
 10
-50.19743753921497
 20
-6.181786673875762
 30
0.0
 10
-50.17437553029407
 20
-6.183001873873763
 30
0.0
 10
-50.1628447587218
 20
-6.183609454299812
 30
0.0
 11
-50.36256658269849
 21
-5.983883325940951
 31
0.0
 11
-50.3594363387715
 21
-6.01857285323831
 31
0.0
 11
-50.35033539715687
 21
-6.052193343244198
 31
0.0
 11
-50.34362310265442
 21
-6.068291930481336
 31
0.0
 11
-50.33553620840121
 21
-6.083745988088594
 31
0.0
 11
-50.32613349082748
 21
-6.098441398952672
 31
0.0
 11
-50.31548981125752
 21
-6.112264421186864
 31
0.0
 11
-50.30368320259959
 21
-6.125110369029016
 31
0.0
 11
-50.29080530535839
 21
-6.136882124380463
 31
0.0
 11
-50.27695351879356
 21
-6.147488277331831
 31
0.0
 11
-50.26223271692561
 21
-6.15685110121467
 31
0.0
 11
-50.24675688066463
 21
-6.16489602102888
 31
0.0
 11
-50.23064020959964
 21
-6.171564604433569
 31
0.0
 11
-50.19726402775678
 21
-6.180526598022197
 31
0.0
 11
-50.1628447587218
 21
-6.183609454299812
 31
0.0
  0
SPLINE
  5
3F5
330
2
100
AcDbEntity
  8
GAIKEI
  6
Continuous
 62
     1
100
AcDbSpline
210
0.0
220
0.0
230
1.0
 70
     8
 71
     3
 72
    21
 73
    17
 74
    15
 42
0.0000000001
 43
0.0000000001
 44
0.00000001
 40
0.0
 40
0.0
 40
0.0
 40
0.0
 40
0.0348304695922212
 40
0.0696609785839706
 40
0.0871028644496738
 40
0.1045449323042273
 40
0.1219910257172303
 40
0.1394370520975176
 40
0.1568845264794395
 40
0.1743320030806117
 40
0.1917779897079014
 40
0.2092240338373378
 40
0.2266660010010133
 40
0.2441078204210691
 40
0.2786662740128609
 40
0.313223327774249
 40
0.313223327774249
 40
0.313223327774249
 40
0.313223327774249
 10
-7.225438003859835
 20
-6.183609454284351
 30
0.0
 10
-7.213815800649172
 20
-6.182992496561894
 30
0.0
 10
-7.190571382400747
 20
-6.181758565883455
 30
0.0
 10
-7.162392997775882
 20
-6.17381314280692
 30
0.0
 10
-7.140923058404638
 20
-6.164900050920778
 30
0.0
 10
-7.125447240718749
 20
-6.15679387429833
 30
0.0
 10
-7.110735400025262
 20
-6.147381219530757
 30
0.0
 10
-7.096894111836498
 20
-6.136723613217895
 30
0.0
 10
-7.084033171145456
 20
-6.124901593887159
 30
0.0
 10
-7.072246610873648
 20
-6.112008164710289
 30
0.0
 10
-7.061627174670903
 20
-6.098137610397884
 30
0.0
 10
-7.052255093260491
 20
-6.083399949243585
 30
0.0
 10
-7.044191631192376
 20
-6.067901966919578
 30
0.0
 10
-7.035372169049679
 20
-6.046491288218248
 30
0.0
 10
-7.027538219356124
 20
-6.018476140204256
 30
0.0
 10
-7.026323517022611
 20
-5.995414105065663
 30
0.0
 10
-7.025716185423789
 20
-5.983883320385075
 30
0.0
 11
-7.225438003859835
 21
-6.183609454284351
 31
0.0
 11
-7.190748544118832
 21
-6.180478461778875
 31
0.0
 11
-7.157128250513778
 21
-6.171376794656453
 31
0.0
 11
-7.141029808127314
 21
-6.164664152757723
 31
0.0
 11
-7.125575925033899
 21
-6.156576925017134
 31
0.0
 11
-7.110880717078089
 21
-6.147173890327621
 31
0.0
 11
-7.097057924530872
 21
-6.136529912467267
 31
0.0
 11
-7.08421223147161
 21
-6.124723026604442
 31
0.0
 11
-7.072440754020135
 21
-6.111844875339102
 31
0.0
 11
-7.061834899984205
 21
-6.097992859903115
 31
0.0
 11
-7.052472393769676
 21
-6.083271855994325
 31
0.0
 11
-7.04442780791669
 21
-6.067795846132185
 31
0.0
 11
-7.037759572301638
 21
-6.051679031167395
 31
0.0
 11
-7.028798298953461
 21
-6.018302655937759
 31
0.0
 11
-7.025716185423789
 21
-5.983883320385075
 31
0.0
  0
SPLINE
  5
3F6
330
2
100
AcDbEntity
  8
GAIKEI
  6
Continuous
 62
     1
100
AcDbSpline
210
0.0
220
0.0
230
1.0
 70
     8
 71
     3
 72
     9
 73
     5
 74
     3
 42
0.0000000001
 43
0.0000000001
 44
0.00000001
 40
0.0
 40
0.0
 40
0.0
 40
0.0
 40
13.66919334620529
 40
27.33829172490289
 40
27.33829172490289
 40
27.33829172490289
 40
27.33829172490289
 10
-7.028460036667638
 20
27.4548205012668
 30
0.0
 10
-7.066350159447068
 20
22.89854302089612
 30
0.0
 10
-7.142130121762555
 20
13.78601971506077
 30
0.0
 10
-7.119045199569214
 20
4.673210561066127
 30
0.0
 10
-7.107502768568792
 20
0.1168218120544679
 30
0.0
 11
-7.028460036667638
 21
27.4548205012668
 31
0.0
 11
-7.117414002160785
 21
13.78591659755329
 31
0.0
 11
-7.107502768568792
 21
0.1168218120544679
 31
0.0
  0
SPLINE
  5
3F7
330
2
100
AcDbEntity
  8
GAIKEI
  6
Continuous
 62
     1
100
AcDbSpline
210
0.0
220
0.0
230
1.0
 70
     8
 71
     3
 72
    21
 73
    17
 74
    15
 42
0.0000000001
 43
0.0000000001
 44
0.00000001
 40
0.0
 40
0.0
 40
0.0
 40
0.0
 40
0.0348304695917408
 40
0.0696609785833836
 40
0.0871028644487694
 40
0.1045449323032733
 40
0.1219910257164132
 40
0.1394370520962637
 40
0.1568845264785863
 40
0.1743320030795866
 40
0.1917779897064867
 40
0.2092240338358677
 40
0.2266660009997514
 40
0.2441078204202354
 40
0.2786662740119613
 40
0.313223327773846
 40
0.313223327773846
 40
0.313223327773846
 40
0.313223327773846
 10
-7.025716185438795
 20
37.65352391463148
 30
0.0
 10
-7.026332892360947
 20
37.66514613115288
 30
0.0
 10
-7.02756632143847
 20
37.68839057602304
 30
0.0
 10
-7.035511136440504
 20
37.7165691320987
 30
0.0
 10
-7.044423765016297
 20
37.73803926380379
 30
0.0
 10
-7.05252960767806
 20
37.75351525641236
 30
0.0
 10
-7.061941944970484
 20
37.76822730022189
 30
0.0
 10
-7.07259925259504
 20
37.78206881839162
 30
0.0
 10
-7.084420994391351
 20
37.79493001419195
 30
0.0
 10
-7.097314169218165
 20
37.8067168526934
 30
0.0
 10
-7.111184494366099
 20
37.81733658821219
 30
0.0
 10
-7.125921953272907
 20
37.82670898765014
 30
0.0
 10
-7.141419761588721
 20
37.83477278415376
 30
0.0
 10
-7.162830249966852
 20
37.84359270832368
 30
0.0
 10
-7.190845228922349
 20
37.85142726256595
 30
0.0
 10
-7.213907237843237
 20
37.85264246256407
 30
0.0
 10
-7.225438009415483
 20
37.85325004299011
 30
0.0
 11
-7.025716185438795
 21
37.65352391463148
 31
0.0
 11
-7.028846429365785
 21
37.68821344192884
 31
0.0
 11
-7.037947370980418
 21
37.7218339319345
 31
0.0
 11
-7.044659665482868
 21
37.73793251917164
 31
0.0
 11
-7.052746559736078
 21
37.7533865767789
 31
0.0
 11
-7.062149277309799
 21
37.7680819876432
 31
0.0
 11
-7.072792956880221
 21
37.78190500987717
 31
0.0
 11
-7.084599565538155
 21
37.79475095771932
 31
0.0
 11
-7.097477462778897
 21
37.80652271307076
 31
0.0
 11
-7.11132924934327
 21
37.81712886602236
 31
0.0
 11
-7.126050051211223
 21
37.8264916899052
 31
0.0
 11
-7.141525887472653
 21
37.83453660971941
 31
0.0
 11
-7.157642558537645
 21
37.8412051931241
 31
0.0
 11
-7.191018740380513
 21
37.8501671867125
 31
0.0
 11
-7.225438009415483
 21
37.85325004299011
 31
0.0
  0
SPLINE
  5
3F8
330
2
100
AcDbEntity
  8
GAIKEI
  6
Continuous
 62
     1
100
AcDbSpline
210
0.0
220
0.0
230
1.0
 70
     8
 71
     3
 72
    21
 73
    17
 74
    15
 42
0.0000000001
 43
0.0000000001
 44
0.00000001
 40
0.0
 40
0.0
 40
0.0
 40
0.0
 40
0.0348304695926758
 40
0.069660978584483
 40
0.0871028644497681
 40
0.1045449323043232
 40
0.1219910257174442
 40
0.1394370520970924
 40
0.1568845264795043
 40
0.1743320030803733
 40
0.1917779897074792
 40
0.2092240338371596
 40
0.2266660010010377
 40
0.2441078204210943
 40
0.278666274012666
 40
0.3132233277742806
 40
0.3132233277742806
 40
0.3132233277742806
 40
0.3132233277742806
 10
-50.16284476427745
 20
37.85325004297488
 30
0.0
 10
-50.17446696748827
 20
37.85263308525242
 30
0.0
 10
-50.19771138573687
 20
37.85139915457404
 30
0.0
 10
-50.22588977036176
 20
37.84345373149733
 30
0.0
 10
-50.24735970973276
 20
37.83454063961102
 30
0.0
 10
-50.26283552741861
 20
37.82643446298858
 30
0.0
 10
-50.27754736811177
 20
37.81702180822106
 30
0.0
 10
-50.29138865630057
 20
37.80636420190808
 30
0.0
 10
-50.30424959699177
 20
37.79454218257786
 30
0.0
 10
-50.3160361572631
 20
37.78164875340053
 30
0.0
 10
-50.32665559346597
 20
37.7677781990883
 30
0.0
 10
-50.33602767487692
 20
37.75304053793405
 30
0.0
 10
-50.34409113694482
 20
37.73754255561005
 30
0.0
 10
-50.35291059908763
 20
37.71613187690849
 30
0.0
 10
-50.36074454878118
 20
37.68811672889473
 30
0.0
 10
-50.36195925111468
 20
37.66505469375608
 30
0.0
 10
-50.3625665827135
 20
37.65352390907537
 30
0.0
 11
-50.16284476427745
 21
37.85325004297488
 31
0.0
 11
-50.1975342240189
 21
37.8501190504694
 31
0.0
 11
-50.23115451762397
 21
37.84101738334675
 31
0.0
 11
-50.24725296000998
 21
37.83430474144803
 31
0.0
 11
-50.26270684310339
 21
37.82621751370744
 31
0.0
 11
-50.2774020510592
 21
37.8168144790177
 31
0.0
 11
-50.29122484360596
 21
37.80617050115779
 31
0.0
 11
-50.30407053666568
 21
37.79436361529474
 31
0.0
 11
-50.3158420141167
 21
37.7814854640294
 31
0.0
 11
-50.32644786815263
 21
37.76763344859364
 31
0.0
 11
-50.33581037436761
 21
37.75291244468486
 31
0.0
 11
-50.3438549602206
 21
37.73743643482248
 31
0.0
 11
-50.35052319583565
 21
37.7213196198577
 31
0.0
 11
-50.35948446918382
 21
37.68794324462829
 31
0.0
 11
-50.3625665827135
 21
37.65352390907537
 31
0.0
  0
SPLINE
  5
3F9
330
2
100
AcDbEntity
  8
GAIKEI
  6
Continuous
 62
     1
100
AcDbSpline
210
0.0
220
0.0
230
1.0
 70
     8
 71
     3
 72
     9
 73
     5
 74
     3
 42
0.0000000001
 43
0.0000000001
 44
0.00000001
 40
0.0
 40
0.0
 40
0.0
 40
0.0
 40
13.66920171259239
 40
27.33830514294351
 40
27.33830514294351
 40
27.33830514294351
 40
27.33830514294351
 10
-50.28078007834256
 20
0.1168036324158947
 30
0.0
 10
-50.26913645764883
 20
4.673226874703402
 30
0.0
 10
-50.24584931997935
 20
13.78604059834669
 30
0.0
 10
-50.3218316362361
 20
22.89856730219839
 30
0.0
 10
-50.35982266778455
 20
27.45481427413802
 30
0.0
 11
-50.28078007834256
 21
0.1168036324158947
 31
0.0
 11
-50.27066676818185
 21
13.78600160382189
 31
0.0
 11
-50.35982266778455
 21
27.45481427413802
 31
0.0
  0
SPLINE
  5
3FA
330
2
100
AcDbEntity
  8
GAIKEI
  6
Continuous
 62
     1
100
AcDbSpline
210
0.0
220
0.0
230
1.0
 70
     8
 71
     3
 72
     9
 73
     5
 74
     3
 42
0.0000000001
 43
0.0000000001
 44
0.00000001
 40
0.0
 40
0.0
 40
0.0
 40
0.0
 40
13.68029785998815
 40
27.36050073664447
 40
27.36050073664447
 40
27.36050073664447
 40
27.36050073664447
 10
-7.228505556870459
 20
27.46055175157994
 30
0.0
 10
-7.266280478160922
 20
22.90057189301314
 30
0.0
 10
-7.341830038468188
 20
13.78064383606738
 30
0.0
 10
-7.318753881489691
 20
4.660432052361159
 30
0.0
 10
-7.307215833055579
 20
0.1003419911305627
 30
0.0
 11
-7.228505556870459
 21
27.46055175157994
 31
0.0
 11
-7.317173710228416
 21
13.78054124363211
 31
0.0
 11
-7.307215833055579
 21
0.1003419911305627
 31
0.0
  0
SPLINE
  5
3FB
330
2
100
AcDbEntity
  8
GAIKEI
  6
Continuous
 62
     1
100
AcDbSpline
210
0.0
220
0.0
230
1.0
 70
     8
 71
     3
 72
    21
 73
    17
 74
    15
 42
0.0000000001
 43
0.0000000001
 44
0.00000001
 40
0.0
 40
0.0
 40
0.0
 40
0.0
 40
0.0342090272645123
 40
0.068418054580877
 40
0.0842299852777934
 40
0.1000431530558132
 40
0.1143514794394641
 40
0.1286559568885604
 40
0.1410225481973286
 40
0.153400334346011
 40
0.1634881259156304
 40
0.1735465294891453
 40
0.1810005590486647
 40
0.1885203985380487
 40
0.1950145433978747
 40
0.2013884526822326
 40
0.2013884526822326
 40
0.2013884526822326
 40
0.2013884526822326
 10
-7.30720289761075
 20
0.1003365358640167
 30
0.0
 10
-7.2958001107542
 20
0.1004316252073636
 30
0.0
 10
-7.272994536866775
 20
0.1006217901139053
 30
0.0
 10
-7.244926093334385
 20
0.1013722177569889
 30
0.0
 10
-7.222997199368471
 20
0.1022082952605956
 30
0.0
 10
-7.207702672339131
 20
0.1029263710199189
 30
0.0
 10
-7.192916950000928
 20
0.1037542739883293
 30
0.0
 10
-7.179287534124242
 20
0.1046697200652034
 30
0.0
 10
-7.166312170500901
 20
0.1057069618783544
 30
0.0
 10
-7.154751573374504
 20
0.1067835245513038
 30
0.0
 10
-7.143968750535869
 20
0.1079245422309327
 30
0.0
 10
-7.134851588900161
 20
0.1091424681977742
 30
0.0
 10
-7.126610892507265
 20
0.1105268803922286
 30
0.0
 10
-7.119633199605566
 20
0.1119527158776918
 30
0.0
 10
-7.112827347539059
 20
0.1131453093363461
 30
0.0
 10
-7.109248038111005
 20
0.1156004401169071
 30
0.0
 10
-7.107475101759519
 20
0.1168165292142476
 30
0.0
 11
-7.30720289761075
 21
0.1003365358640167
 31
0.0
 11
-7.272996098375642
 21
0.1007266469000569
 31
0.0
 11
-7.238798863767897
 21
0.1016248115636245
 31
0.0
 11
-7.222998575530709
 21
0.102231477811074
 31
0.0
 11
-7.207202889421296
 21
0.1029748317753274
 31
0.0
 11
-7.192917283725364
 21
0.1037808548664998
 31
0.0
 11
-7.178645364309431
 21
0.1047454223810291
 31
0.0
 11
-7.166318311399209
 21
0.1057335247794526
 31
0.0
 11
-7.153993994382744
 21
0.1068827848810088
 31
0.0
 11
-7.14396509938706
 21
0.1079712712751188
 31
0.0
 11
-7.133997799041026
 21
0.1093219765969025
 31
0.0
 11
-7.126648054946599
 21
0.1105644812123501
 31
0.0
 11
-7.119264352561913
 21
0.1119888839230043
 31
0.0
 11
-7.112969647713725
 21
0.1135859450466796
 31
0.0
 11
-7.107475101759519
 21
0.1168165292142476
 31
0.0
  0
SPLINE
  5
3FC
330
2
100
AcDbEntity
  8
GAIKEI
  6
Continuous
 62
     1
100
AcDbSpline
210
0.0
220
0.0
230
1.0
 70
     8
 71
     3
 72
    21
 73
    17
 74
    15
 42
0.0000000001
 43
0.0000000001
 44
0.00000001
 40
0.0
 40
0.0
 40
0.0
 40
0.0
 40
0.0344447275663398
 40
0.0688890152241487
 40
0.0852194040787421
 40
0.1015496056871258
 40
0.1168345635723881
 40
0.1321190490767802
 40
0.1461033218302654
 40
0.1600870467297846
 40
0.1726208160949523
 40
0.1851523047432782
 40
0.1962341499221757
 40
0.2073180052926639
 40
0.2239373959263348
 40
0.2405085883859932
 40
0.2405085883859932
 40
0.2405085883859932
 40
0.2405085883859932
 10
-7.30504158828171
 20
-0.1144964772156527
 30
0.0
 10
-7.293566398378189
 20
-0.1139417933895288
 30
0.0
 10
-7.270616165499674
 20
-0.1128324283616848
 30
0.0
 10
-7.242516714616996
 20
-0.1082296157649694
 30
0.0
 10
-7.220729745820491
 20
-0.1031471216222144
 30
0.0
 10
-7.205367091805499
 20
-0.0987101078839601
 30
0.0
 10
-7.19059275260048
 20
-0.0935772425476671
 30
0.0
 10
-7.176863237022537
 20
-0.0878901287986196
 30
0.0
 10
-7.163903109704349
 20
-0.0815513446860905
 30
0.0
 10
-7.152207485117635
 20
-0.0747825722544917
 30
0.0
 10
-7.141457593894074
 20
-0.0674184426385409
 30
0.0
 10
-7.132134112721843
 20
-0.0597626567511043
 30
0.0
 10
-7.123910167616628
 20
-0.0515904476930018
 30
0.0
 10
-7.115858636369367
 20
-0.0414779779630408
 30
0.0
 10
-7.10829966072432
 20
-0.0285141574734667
 30
0.0
 10
-7.106309885568428
 20
-0.01755427376537
 30
0.0
 10
-7.105316449662495
 20
-0.012082287518524
 30
0.0
 11
-7.30504158828171
 21
-0.1144964772156527
 31
0.0
 11
-7.270674882186995
 21
-0.1121795606627529
 31
0.0
 11
-7.2366622552031
 21
-0.106743555679941
 31
0.0
 11
-7.220764410662468
 21
-0.1030099059489657
 31
0.0
 11
-7.205077722689111
 21
-0.0984708195555868
 31
0.0
 11
-7.190645071131712
 21
-0.0934380761980265
 31
0.0
 11
-7.176530562788229
 21
-0.0875732531699214
 31
0.0
 11
-7.163978966105332
 21
-0.0814074359630013
 31
0.0
 11
-7.151888166507433
 21
-0.0743819735635043
 31
0.0
 11
-7.141565784021167
 21
-0.0672725581289342
 31
0.0
 11
-7.13189928058955
 21
-0.0592977910916943
 31
0.0
 11
-7.124073690837121
 21
-0.051451299787459
 31
0.0
 11
-7.11717125721816
 21
-0.0427790310063756
 31
0.0
 11
-7.109213311555777
 21
-0.028188780540404
 31
0.0
 11
-7.105316449662495
 21
-0.012082287518524
 31
0.0
  0
SPLINE
  5
3FD
330
2
100
AcDbEntity
  8
GAIKEI
  6
Continuous
 62
     1
100
AcDbSpline
210
0.0
220
0.0
230
1.0
 70
     8
 71
     3
 72
    11
 73
     7
 74
     5
 42
0.0000000001
 43
0.0000000001
 44
0.00000001
 40
0.0
 40
0.0
 40
0.0
 40
0.0
 40
0.0052288643079195
 40
0.010457726628192
 40
0.0156083544556609
 40
0.0207586051817802
 40
0.0207586051817802
 40
0.0207586051817802
 40
0.0207586051817802
 10
-7.02844153309843
 20
27.45481994470288
 30
0.0
 10
-7.028528856925397
 20
27.45656567005438
 30
0.0
 10
-7.028703519365208
 20
27.46005711861847
 30
0.0
 10
-7.03011709114331
 20
27.46510009771254
 30
0.0
 10
-7.0322547920033
 20
27.46985092150885
 30
0.0
 10
-7.034319272845188
 20
27.47260651056689
 30
0.0
 10
-7.035351481636553
 20
27.47398425048982
 30
0.0
 11
-7.02844153309843
 21
27.45481994470288
 31
0.0
 11
-7.028896620204704
 21
27.46002896826281
 31
0.0
 11
-7.030248200637743
 21
27.46508013147604
 31
0.0
 11
-7.032416482984899
 21
27.469752126397
 31
0.0
 11
-7.035351481636553
 21
27.47398425048982
 31
0.0
  0
SPLINE
  5
3FE
330
2
100
AcDbEntity
  8
GAIKEI
  6
Continuous
 62
     1
100
AcDbSpline
210
0.0
220
0.0
230
1.0
 70
     8
 71
     3
 72
    21
 73
    17
 74
    15
 42
0.0000000001
 43
0.0000000001
 44
0.00000001
 40
0.0
 40
0.0
 40
0.0
 40
0.0
 40
0.0083259576555063
 40
0.0167370938120909
 40
0.0250428159632715
 40
0.033305658127348
 40
0.0440907976226868
 40
0.0548945096421672
 40
0.0678898645846149
 40
0.0808782908563799
 40
0.0956811222075552
 40
0.1104863067725256
 40
0.1266589570750952
 40
0.1428308723782125
 40
0.1720897235787515
 40
0.2013485627329146
 40
0.2013485627329146
 40
0.2013485627329146
 40
0.2013485627329146
 10
-50.28080766612856
 20
0.1168165288206637
 30
0.0
 10
-50.27840145052934
 20
0.1153805998434336
 30
0.0
 10
-50.27356440930552
 20
0.1124940386275739
 30
0.0
 10
-50.26520030659768
 20
0.111207381639133
 30
0.0
 10
-50.25703256316669
 20
0.1097492789858734
 30
0.0
 10
-50.24800389900055
 20
0.1084080429365031
 30
0.0
 10
-50.23812562806575
 20
0.1072241694896547
 30
0.0
 10
-50.22664919335537
 20
0.1061199142414466
 30
0.0
 10
-50.21443018954362
 20
0.1050884656514199
 30
0.0
 10
-50.2008696620367
 20
0.1041078658786319
 30
0.0
 10
-50.1866966007824
 20
0.1032482972098023
 30
0.0
 10
-50.17145543066535
 20
0.1024818642849254
 30
0.0
 10
-50.15575226329027
 20
0.1018274037483593
 30
0.0
 10
-50.13522899393568
 20
0.1011456730192322
 30
0.0
 10
-50.11033816951408
 20
0.1005631064640511
 30
0.0
 10
-50.09083263228944
 20
0.100412064005468
 30
0.0
 10
-50.08107986575669
 20
0.1003365358435531
 30
0.0
 11
-50.28080766612856
 21
0.1168165288206637
 31
0.0
 11
-50.27340267916542
 21
0.1130102536808408
 31
0.0
 11
-50.26519479143235
 21
0.1111723790318138
 31
0.0
 11
-50.25700564935187
 21
0.1097856669314297
 31
0.0
 11
-50.24883341969325
 21
0.1085653299567184
 31
0.0
 11
-50.23812676631905
 21
0.1072665589233566
 31
0.0
 11
-50.22737494166176
 21
0.1062089868173643
 31
0.0
 11
-50.21442577940615
 21
0.1051142513008472
 31
0.0
 11
-50.2014713623339
 21
0.1041749459072889
 31
0.0
 11
-50.18669598594897
 21
0.1032737977395755
 31
0.0
 11
-50.17190974886034
 21
0.1025250105301438
 31
0.0
 11
-50.15575118480183
 21
0.1018501585981539
 31
0.0
 11
-50.13958831590662
 21
0.10130931313779
 31
0.0
 11
-50.11033713339293
 21
0.1006394622556854
 31
0.0
 11
-50.08107986575669
 21
0.1003365358435531
 31
0.0
  0
SPLINE
  5
3FF
330
2
100
AcDbEntity
  8
GAIKEI
  6
Continuous
 62
     1
100
AcDbSpline
210
0.0
220
0.0
230
1.0
 70
     8
 71
     3
 72
     9
 73
     5
 74
     3
 42
0.0000000001
 43
0.0000000001
 44
0.00000001
 40
0.0
 40
0.0
 40
0.0
 40
0.0
 40
13.6803062221612
 40
27.36051417211112
 40
27.36051417211112
 40
27.36051417211112
 40
27.36051417211112
 10
-50.08106701385577
 20
0.1003237750599055
 30
0.0
 10
-50.06942787232186
 20
4.660448332709052
 30
0.0
 10
-50.04614969286333
 20
13.78066469042062
 30
0.0
 10
-50.12190141344206
 20
22.9005961567309
 30
0.0
 10
-50.15977714769042
 20
27.46054551156817
 30
0.0
 11
-50.08106701385577
 21
0.1003237750599055
 31
0.0
 11
-50.070907252109
 21
13.78062622465268
 31
0.0
 11
-50.15977714769042
 21
27.46054551156817
 31
0.0
  0
SPLINE
  5
400
330
2
100
AcDbEntity
  8
GAIKEI
  6
Continuous
 62
     1
100
AcDbSpline
210
0.0
220
0.0
230
1.0
 70
     8
 71
     3
 72
    21
 73
    17
 74
    15
 42
0.0000000001
 43
0.0000000001
 44
0.00000001
 40
0.0
 40
0.0
 40
0.0
 40
0.0
 40
0.0192891791837169
 40
0.0385982638394096
 40
0.0500459139220622
 40
0.0614895037121141
 40
0.0744016789067346
 40
0.0873165246990371
 40
0.1016548225875397
 40
0.1159933942693782
 40
0.1315750300821262
 40
0.1471571040129452
 40
0.1637060991312637
 40
0.1802554335289259
 40
0.2103671272154937
 40
0.2404750391625739
 40
0.2404750391625739
 40
0.2404750391625739
 40
0.2404750391625739
 10
-50.2829663190455
 20
-0.012082281001085
 30
0.0
 10
-50.28170956964714
 20
-0.0184460727783744
 30
0.0
 10
-50.27919475977061
 20
-0.0311802185643728
 30
0.0
 10
-50.2697367125112
 20
-0.0453452040732145
 30
0.0
 10
-50.26035742870689
 20
-0.0558092480431469
 30
0.0
 10
-50.25144834540275
 20
-0.063792988009709
 30
0.0
 10
-50.24148756740562
 20
-0.0712388898026575
 30
0.0
 10
-50.23013351194528
 20
-0.0783584690396992
 30
0.0
 10
-50.2178790536818
 20
-0.0848664377266459
 30
0.0
 10
-50.20441126810354
 20
-0.0909108121906002
 30
0.0
 10
-50.19022030249584
 20
-0.096290252874212
 30
0.0
 10
-50.17504922419752
 20
-0.1010867654691196
 30
0.0
 10
-50.15933799351325
 20
-0.1051773386775494
 30
0.0
 10
-50.13870132791261
 20
-0.1094479355248836
 30
0.0
 10
-50.11333401776318
 20
-0.1131379221025099
 30
0.0
 10
-50.09327173034588
 20
-0.1140436455429494
 30
0.0
 10
-50.08324121639953
 20
-0.1144964763730059
 30
0.0
 11
-50.2829663190455
 21
-0.012082281001085
 31
0.0
 11
-50.27800235044833
 21
-0.0307218009781991
 31
0.0
 11
-50.26784770099084
 21
-0.0471450790364543
 31
0.0
 11
-50.26020436772251
 21
-0.055667293374654
 31
0.0
 11
-50.25171471668045
 21
-0.0633407255643306
 31
0.0
 11
-50.241388680422
 21
-0.0710929661468072
 31
0.0
 11
-50.23046272806323
 21
-0.0779789519604037
 31
0.0
 11
-50.21780986217891
 21
-0.0847237103876069
 31
0.0
 11
-50.20473746606057
 21
-0.0906149831228049
 31
0.0
 11
-50.19017295608955
 21
-0.0961523490948366
 31
0.0
 11
-50.17532057974086
 21
-0.100864879638948
 31
0.0
 11
-50.15930718535492
 21
-0.1050410549507887
 31
0.0
 11
-50.1431058863086
 21
-0.1084172035898518
 31
0.0
 11
-50.11329188051741
 21
-0.1126408446432379
 31
0.0
 11
-50.08324121639953
 21
-0.1144964763730059
 31
0.0
  0
SPLINE
  5
401
330
2
100
AcDbEntity
  8
GAIKEI
  6
Continuous
 62
     1
100
AcDbSpline
210
0.0
220
0.0
230
1.0
 70
     8
 71
     3
 72
    11
 73
     7
 74
     5
 42
0.0000000001
 43
0.0000000001
 44
0.00000001
 40
0.0
 40
0.0
 40
0.0
 40
0.0
 40
0.0052273423293975
 40
0.0104546864644489
 40
0.0156068293578225
 40
0.0207585995193379
 40
0.0207585995193379
 40
0.0207585995193379
 40
0.0207585995193379
 10
-50.35293129098772
 20
27.47398424507878
 30
0.0
 10
-50.35397799689791
 20
27.47258501748092
 30
0.0
 10
-50.35607139673061
 20
27.46978655347994
 30
0.0
 10
-50.35820096474516
 20
27.46500221689018
 30
0.0
 10
-50.35958690026788
 20
27.45997985646102
 30
0.0
 10
-50.35975646376073
 20
27.45653987317951
 30
0.0
 10
-50.35984123503886
 20
27.45481994303395
 30
0.0
 11
-50.35293129098772
 21
27.47398424507878
 31
0.0
 11
-50.3559046933392
 21
27.46968494338125
 31
0.0
 11
-50.35808693474518
 21
27.4649348941748
 31
0.0
 11
-50.35939945264226
 21
27.45995273690892
 31
0.0
 11
-50.35984123503886
 21
27.45481994303395
 31
0.0
  0
SPLINE
  5
402
330
2
100
AcDbEntity
  8
GAIKEI
  6
Continuous
 62
     1
100
AcDbSpline
210
0.0
220
0.0
230
1.0
 70
     8
 71
     3
 72
    15
 73
    11
 74
     9
 42
0.0000000001
 43
0.0000000001
 44
0.00000001
 40
0.0
 40
0.0
 40
0.0
 40
0.0
 40
0.053751575935092
 40
0.1075022287425184
 40
0.1340877704305685
 40
0.1606736061706661
 40
0.1870485114164921
 40
0.2134232428237117
 40
0.2622977208357394
 40
0.3111556075762123
 40
0.3111556075762123
 40
0.3111556075762123
 40
0.3111556075762123
 10
-8.701540419155662
 20
-0.381345453736003
 30
0.0
 10
-8.701572754346251
 20
-0.3633871219034859
 30
0.0
 10
-8.70163743886097
 20
-0.3274707672109685
 30
0.0
 10
-8.711392798828967
 20
-0.2834804517145812
 30
0.0
 10
-8.723198392257657
 20
-0.2498353981316086
 30
0.0
 10
-8.734194544733512
 20
-0.2256645934446624
 30
0.0
 10
-8.747223734216994
 20
-0.2026061274440281
 30
0.0
 10
-8.766511247981277
 20
-0.1747396362519566
 30
0.0
 10
-8.794067644366052
 20
-0.1434529617559974
 30
0.0
 10
-8.820404180959407
 20
-0.1241482026011909
 30
0.0
 10
-8.833570218318527
 20
-0.1144974673748038
 30
0.0
 11
-8.701540419155662
 21
-0.381345453736003
 31
0.0
 11
-8.703576583578069
 21
-0.3276324568919335
 31
0.0
 11
-8.714723499135288
 21
-0.2750503390493577
 31
0.0
 11
-8.723568190428068
 21
-0.2499791902657762
 31
0.0
 11
-8.734570594661363
 21
-0.2257768390668389
 31
0.0
 11
-8.747560874292048
 21
-0.2028227914111085
 31
0.0
 11
-8.762539030607058
 21
-0.1811137763584156
 31
0.0
 11
-8.795230792758502
 21
-0.1447824748538551
 31
0.0
 11
-8.833570218318527
 21
-0.1144974673748038
 31
0.0
  0
SPLINE
  5
403
330
2
100
AcDbEntity
  8
GAIKEI
  6
Continuous
 62
     1
100
AcDbSpline
210
0.0
220
0.0
230
1.0
 70
     8
 71
     3
 72
    15
 73
    11
 74
     9
 42
0.0000000001
 43
0.0000000001
 44
0.00000001
 40
0.0
 40
0.0
 40
0.0
 40
0.0
 40
0.0522348273624721
 40
0.1044704121302753
 40
0.1308667013938836
 40
0.1572634814307441
 40
0.183872962874944
 40
0.2104825153618775
 40
0.2608253069052932
 40
0.3111550884926726
 40
0.3111550884926726
 40
0.3111550884926726
 40
0.3111550884926726
 10
-48.55471897616872
 20
-0.1144987080390365
 30
0.0
 10
-48.56876470143646
 20
-0.1248674752816896
 30
0.0
 10
-48.59685634648229
 20
-0.1456051715553599
 30
0.0
 10
-48.6253372735392
 20
-0.1791603232845773
 30
0.0
 10
-48.64460363613837
 20
-0.2084069549034666
 30
0.0
 10
-48.65711554332969
 20
-0.2317762715074991
 30
0.0
 10
-48.66757264828144
 20
-0.2562094145800415
 30
0.0
 10
-48.67827720196485
 20
-0.2890467806467995
 30
0.0
 10
-48.68681163403792
 20
-0.3309124083974666
 30
0.0
 10
-48.68676962823027
 20
-0.3645375371792738
 30
0.0
 10
-48.68674862070065
 20
-0.3813479291147814
 30
0.0
 11
-48.55471897616872
 21
-0.1144987080390365
 31
0.0
 11
-48.59551731329657
 21
-0.1471173071754492
 31
0.0
 11
-48.62977422309859
 21
-0.1865510572126823
 31
0.0
 11
-48.64426220817358
 21
-0.208616016267797
 31
0.0
 11
-48.65673721735721
 21
-0.2318789521000326
 31
0.0
 11
-48.66720037321602
 21
-0.2563449880076405
 31
0.0
 11
-48.6754899253342
 21
-0.2816303918816629
 31
0.0
 11
-48.68511401919886
 21
-0.3310446978211985
 31
0.0
 11
-48.68674862070065
 21
-0.3813479291147814
 31
0.0
  0
SPLINE
  5
404
330
2
100
AcDbEntity
  8
GAIKEI
  6
Continuous
 62
     1
100
AcDbSpline
210
0.0
220
0.0
230
1.0
 70
     8
 71
     3
 72
    11
 73
     7
 74
     5
 42
0.0000000001
 43
0.0000000001
 44
0.00000001
 40
0.0
 40
0.0
 40
0.0
 40
0.0
 40
0.0513237819090288
 40
0.1026435248650349
 40
0.1370992696440827
 40
0.1715107542344157
 40
0.1715107542344157
 40
0.1715107542344157
 40
0.1715107542344157
 10
-8.833564482062683
 20
-0.1144989305873878
 30
0.0
 10
-8.847359618332859
 20
-0.1042852426717218
 30
0.0
 10
-8.874948813516269
 20
-0.0838586833580166
 30
0.0
 10
-8.917709637723234
 20
-0.0664903733711526
 30
0.0
 10
-8.956881273186795
 20
-0.0573473525991517
 30
0.0
 10
-8.979864560850288
 20
-0.0563705651422311
 30
0.0
 10
-8.99134881971986
 20
-0.055882492598812
 30
0.0
 11
-8.833564482062683
 21
-0.1144989305873878
 31
0.0
 11
-8.876056228999004
 21
-0.0857138290068633
 31
0.0
 11
-8.923400116250832
 21
-0.0659079571366874
 31
0.0
 11
-8.957030346991359
 21
-0.0584108884906982
 31
0.0
 11
-8.99134881971986
 21
-0.055882492598812
 31
0.0
  0
SPLINE
  5
405
330
2
100
AcDbEntity
  8
GAIKEI
  6
Continuous
 62
     1
100
AcDbSpline
210
0.0
220
0.0
230
1.0
 70
     8
 71
     3
 72
    17
 73
    13
 74
    11
 42
0.0000000001
 43
0.0000000001
 44
0.00000001
 40
0.0
 40
0.0
 40
0.0
 40
0.0
 40
0.0068777527264085
 40
0.0137903079401655
 40
0.0186897474173299
 40
0.0235739410011868
 40
0.0294883689232241
 40
0.0354083753047219
 40
0.0422581906446505
 40
0.0491064854485873
 40
0.0569886389667442
 40
0.0648703522303944
 40
0.0648703522303944
 40
0.0648703522303944
 40
0.0648703522303944
 10
-8.886477976236619
 20
-0.1478362299810669
 30
0.0
 10
-8.884177654545396
 20
-0.1481878603940459
 30
0.0
 10
-8.879565372102163
 20
-0.1488928822234357
 30
0.0
 10
-8.873534632016358
 20
-0.1467496165188322
 30
0.0
 10
-8.868510913842627
 20
-0.1444074418673154
 30
0.0
 10
-8.863987229789813
 20
-0.1417516713342479
 30
0.0
 10
-8.859376814306585
 20
-0.1386187249809723
 30
0.0
 10
-8.854442139374135
 20
-0.134813210250627
 30
0.0
 10
-8.849461476247967
 20
-0.1305720420684224
 30
0.0
 10
-8.84419841734256
 20
-0.1256660025109681
 30
0.0
 10
-8.838875400943869
 20
-0.1203257731539793
 30
0.0
 10
-8.835337408920665
 20
-0.1164400107982715
 30
0.0
 10
-8.833568459963771
 20
-0.1144971860453552
 30
0.0
 11
-8.886477976236619
 21
-0.1478362299810669
 31
0.0
 11
-8.879617421037437
 21
-0.1483223831478426
 31
0.0
 11
-8.872973174722119
 21
-0.1464151671034415
 31
0.0
 11
-8.868537536636267
 21
-0.1443343956536864
 31
0.0
 11
-8.864311508142691
 21
-0.1418857174949153
 31
0.0
 11
-8.85941280481029
 21
-0.1385716325280555
 31
0.0
 11
-8.854715778948047
 21
-0.1349682422801379
 31
0.0
 11
-8.849495334075982
 21
-0.1305335016581921
 31
0.0
 11
-8.844477548514987
 21
-0.1258729254429909
 31
0.0
 11
-8.838918522377298
 21
-0.1202849400031027
 31
0.0
 11
-8.833568459963771
 21
-0.1144971860453552
 31
0.0
  0
SPLINE
  5
406
330
2
100
AcDbEntity
  8
GAIKEI
  6
Continuous
 62
     1
100
AcDbSpline
210
0.0
220
0.0
230
1.0
 70
     8
 71
     3
 72
    15
 73
    11
 74
     9
 42
0.0000000001
 43
0.0000000001
 44
0.00000001
 40
0.0
 40
0.0
 40
0.0
 40
0.0
 40
0.0363505990570175
 40
0.0727003042870513
 40
0.0905733962220733
 40
0.1084466601855295
 40
0.1261057639321282
 40
0.1437646895932956
 40
0.1763427486128212
 40
0.2089090065151114
 40
0.2089090065151114
 40
0.2089090065151114
 40
0.2089090065151114
 10
-8.801389685816502
 20
-0.3286188137155932
 30
0.0
 10
-8.801203537307536
 20
-0.3164764563163658
 30
0.0
 10
-8.800831259570813
 20
-0.292192040384748
 30
0.0
 10
-8.806825084716557
 20
-0.2623557565823376
 30
0.0
 10
-8.814332287588548
 20
-0.2395148393900399
 30
0.0
 10
-8.821390921445448
 20
-0.2231436477379702
 30
0.0
 10
-8.829825139096541
 20
-0.2075168048236264
 30
0.0
 10
-8.84236444818589
 20
-0.1886637782447451
 30
0.0
 10
-8.860392798577592
 20
-0.16747039871899
 30
0.0
 10
-8.877785169559139
 20
-0.1543798668683962
 30
0.0
 10
-8.886479784315724
 20
-0.1478357923124349
 30
0.0
 11
-8.801389685816502
 21
-0.3286188137155932
 31
0.0
 11
-8.802127108200693
 21
-0.2922756946427398
 31
0.0
 11
-8.808972589696168
 21
-0.2565763870825322
 31
0.0
 11
-8.814582865223655
 21
-0.2396066419698855
 31
0.0
 11
-8.821656506072486
 21
-0.223192708952638
 31
0.0
 11
-8.830055786936554
 21
-0.2076590019044033
 31
0.0
 11
-8.839814215715705
 21
-0.19294129984155
 31
0.0
 11
-8.861197854567308
 21
-0.1683634633773181
 31
0.0
 11
-8.886479784315724
 21
-0.1478357923124349
 31
0.0
  0
SPLINE
  5
407
330
2
100
AcDbEntity
  8
GAIKEI
  6
Continuous
 62
     1
100
AcDbSpline
210
0.0
220
0.0
230
1.0
 70
     8
 71
     3
 72
    21
 73
    17
 74
    15
 42
0.0000000001
 43
0.0000000001
 44
0.00000001
 40
0.0
 40
0.0
 40
0.0
 40
0.0
 40
0.0096409412256653
 40
0.0192918503795052
 40
0.0250143474354161
 40
0.0307348080790093
 40
0.0371898953257354
 40
0.0436463193154575
 40
0.0508147500919115
 40
0.0579833163459943
 40
0.0657736354771397
 40
0.0735641768450354
 40
0.0818383470197881
 40
0.0901126714414806
 40
0.1055570621561445
 40
0.1209998200488032
 40
0.1209998200488032
 40
0.1209998200488032
 40
0.1209998200488032
 10
-8.801388200635756
 20
-0.3286179648398502
 30
0.0
 10
-8.800808179267974
 20
-0.3318078033875622
 30
0.0
 10
-8.799647522607457
 20
-0.3381907738299787
 30
0.0
 10
-8.795026671649992
 20
-0.3453409203368096
 30
0.0
 10
-8.790417363808373
 20
-0.3506410535726445
 30
0.0
 10
-8.786024042943225
 20
-0.3546984036182721
 30
0.0
 10
-8.781100935273627
 20
-0.3584949512892876
 30
0.0
 10
-8.775478747665303
 20
-0.3621390658663017
 30
0.0
 10
-8.769401829029476
 20
-0.3654843747577843
 30
0.0
 10
-8.762714761870995
 20
-0.3686072707818084
 30
0.0
 10
-8.75566114458617
 20
-0.3714033841566788
 30
0.0
 10
-8.748113072343898
 20
-0.3739156598844033
 30
0.0
 10
-8.740289610430401
 20
-0.3760792720044606
 30
0.0
 10
-8.729878597955213
 20
-0.3783984594946901
 30
0.0
 10
-8.716965042800048
 20
-0.3804645271504228
 30
0.0
 10
-8.706680886170524
 20
-0.3810503386888513
 30
0.0
 10
-8.701539079473604
 20
-0.3813432265512802
 30
0.0
 11
-8.801388200635756
 21
-0.3286179648398502
 31
0.0
 11
-8.799047976402562
 21
-0.3379705701913735
 31
0.0
 11
-8.794096283391809
 21
-0.3462543429511697
 31
0.0
 11
-8.790339786928598
 21
-0.350571251655083
 31
0.0
 11
-8.786153923163055
 21
-0.3544702526812671
 31
0.0
 11
-8.781050414078436
 21
-0.35842276348626
 31
0.0
 11
-8.775640577788635
 21
-0.3619468348404098
 31
0.0
 11
-8.76936617209958
 21
-0.3654135668077743
 31
0.0
 11
-8.762875689948032
 21
-0.3684569172633019
 31
0.0
 11
-8.755636440978378
 21
-0.3713348237101854
 31
0.0
 11
-8.748247114298465
 21
-0.3738026943894965
 31
0.0
 11
-8.740273185887417
 21
-0.3760113949242623
 31
0.0
 11
-8.73219933270866
 21
-0.3778217374861015
 31
0.0
 11
-8.716939724235089
 21
-0.3802036586030226
 31
0.0
 11
-8.701539079473604
 21
-0.3813432265512802
 31
0.0
  0
SPLINE
  5
408
330
2
100
AcDbEntity
  8
GAIKEI
  6
Continuous
 62
     1
100
AcDbSpline
210
0.0
220
0.0
230
1.0
 70
     8
 71
     3
 72
    21
 73
    17
 74
    15
 42
0.0000000001
 43
0.0000000001
 44
0.00000001
 40
0.0
 40
0.0
 40
0.0
 40
0.0
 40
0.0172372045179677
 40
0.0344741943446578
 40
0.0426587610531518
 40
0.0508432346051903
 40
0.0585115278149775
 40
0.0661795860735519
 40
0.0732020152273238
 40
0.0802241934800536
 40
0.086523047389077
 40
0.0928207345225995
 40
0.0983911318239792
 40
0.1039627049422254
 40
0.1124994838934452
 40
0.1210137326264581
 40
0.1210137326264581
 40
0.1210137326264581
 40
0.1210137326264581
 10
-48.68674354488075
 20
-0.3813432181930238
 30
0.0
 10
-48.68100449108042
 20
-0.3810011169015865
 30
0.0
 10
-48.66952645538657
 20
-0.3803169140995806
 30
0.0
 10
-48.65548710609715
 20
-0.3778573697563843
 30
0.0
 10
-48.64460417547961
 20
-0.3751952280946398
 30
0.0
 10
-48.63692589360706
 20
-0.3728903266965062
 30
0.0
 10
-48.62954286248472
 20
-0.370241203006799
 30
0.0
 10
-48.62268096818846
 20
-0.3673204482121832
 30
0.0
 10
-48.6162046544495
 20
-0.3640786547038033
 30
0.0
 10
-48.61035958046818
 20
-0.3606286289364107
 30
0.0
 10
-48.60498787829351
 20
-0.356886755034111
 30
0.0
 10
-48.60032889435446
 20
-0.3530070082748011
 30
0.0
 10
-48.59621929560662
 20
-0.3488755624369446
 30
0.0
 10
-48.59215848897672
 20
-0.3437267095939092
 30
0.0
 10
-48.58832201196591
 20
-0.3370813461785929
 30
0.0
 10
-48.58737002637526
 20
-0.3314366256427093
 30
0.0
 10
-48.58689466950955
 20
-0.3286179925614761
 30
0.0
 11
-48.68674354488075
 21
-0.3813432181930238
 31
0.0
 11
-48.66955946743428
 21
-0.3799910465224912
 31
0.0
 11
-48.6525694774491
 21
-0.377083460815129
 31
0.0
 11
-48.64462219052393
 21
-0.3751269937556572
 31
0.0
 11
-48.63678442063656
 21
-0.3727700952265422
 31
0.0
 11
-48.62956961538111
 21
-0.3701721526842903
 31
0.0
 11
-48.6225173598782
 21
-0.3671613706117114
 31
0.0
 11
-48.61624305204213
 21
-0.364007393638758
 31
0.0
 11
-48.61020179259504
 21
-0.3604277052295401
 31
0.0
 11
-48.60504221903693
 21
-0.3568146237143992
 31
0.0
 11
-48.60021192106796
 21
-0.3527736980954614
 31
0.0
 11
-48.59630115625577
 21
-0.3488069313007145
 31
0.0
 11
-48.59285128248757
 21
-0.3444319123429977
 31
0.0
 11
-48.58880437562175
 21
-0.3369153157636902
 31
0.0
 11
-48.58689466950955
 21
-0.3286179925614761
 31
0.0
  0
SPLINE
  5
409
330
2
100
AcDbEntity
  8
GAIKEI
  6
Continuous
 62
     1
100
AcDbSpline
210
0.0
220
0.0
230
1.0
 70
     8
 71
     3
 72
    15
 73
    11
 74
     9
 42
0.0000000001
 43
0.0000000001
 44
0.00000001
 40
0.0
 40
0.0
 40
0.0
 40
0.0
 40
0.0348208848867891
 40
0.0696425795797625
 40
0.0873277879101642
 40
0.1050133788241112
 40
0.1229150561077716
 40
0.1408168164366401
 40
0.1748659118164484
 40
0.2089067494404181
 40
0.2089067494404181
 40
0.2089067494404181
 40
0.2089067494404181
 10
-48.5018052930227
 20
-0.1478341792942501
 30
0.0
 10
-48.51108067594026
 20
-0.154866058819664
 30
0.0
 10
-48.52963164818898
 20
-0.1689299927091383
 30
0.0
 10
-48.54824677129684
 20
-0.1916584467577991
 30
0.0
 10
-48.56075425369883
 20
-0.2114419567237746
 30
0.0
 10
-48.56884074190071
 20
-0.2272824235233202
 30
0.0
 10
-48.57553750456512
 20
-0.2438343603261046
 30
0.0
 10
-48.58231550256651
 20
-0.2661229306355608
 30
0.0
 10
-48.58751968288397
 20
-0.2945123280867392
 30
0.0
 10
-48.58710356605827
 20
-0.3172493820840714
 30
0.0
 10
-48.58689552553051
 20
-0.3286165304498354
 30
0.0
 11
-48.5018052930227
 21
-0.1478341792942501
 31
0.0
 11
-48.52870503755275
 21
-0.1699452142295286
 31
0.0
 11
-48.55109196391186
 21
-0.196616848711983
 31
0.0
 11
-48.56052081011921
 21
-0.2115789168349238
 31
0.0
 11
-48.56857419496191
 21
-0.2273244922989761
 31
0.0
 11
-48.57528539631539
 21
-0.2439205717582809
 31
0.0
 11
-48.58052344578982
 21
-0.2610388627583688
 31
0.0
 11
-48.58638569489904
 21
-0.2945795101961721
 31
0.0
 11
-48.58689552553051
 21
-0.3286165304498354
 31
0.0
  0
SPLINE
  5
40A
330
2
100
AcDbEntity
  8
GAIKEI
  6
Continuous
 62
     1
100
AcDbSpline
210
0.0
220
0.0
230
1.0
 70
     8
 71
     3
 72
    17
 73
    13
 74
    11
 42
0.0000000001
 43
0.0000000001
 44
0.00000001
 40
0.0
 40
0.0
 40
0.0
 40
0.0
 40
0.0145231836372644
 40
0.0290460323100844
 40
0.0349947495039793
 40
0.0409436699268986
 40
0.0458694096016098
 40
0.0507939109902046
 40
0.0546957193798023
 40
0.0586042063037976
 40
0.0617829387988637
 40
0.0649270697871148
 40
0.0649270697871148
 40
0.0649270697871148
 40
0.0649270697871148
 10
-48.55471428300688
 20
-0.1144972142001279
 30
0.0
 10
-48.55142636981566
 20
-0.1180523632534118
 30
0.0
 10
-48.54485062421904
 20
-0.1251625840596375
 30
0.0
 10
-48.53616905689918
 20
-0.1329884093665896
 30
0.0
 10
-48.529213646139
 20
-0.1383950161657026
 30
0.0
 10
-48.52458555980592
 20
-0.1415691393228826
 30
0.0
 10
-48.52004818059296
 20
-0.1442520261674076
 30
0.0
 10
-48.51591223687145
 20
-0.1462417423504121
 30
0.0
 10
-48.51191692131656
 20
-0.1477103675531453
 30
0.0
 10
-48.50832202054754
 20
-0.1484547855005758
 30
0.0
 10
-48.50487684753822
 20
-0.1486287106694135
 30
0.0
 10
-48.50282507545323
 20
-0.1480994316368083
 30
0.0
 10
-48.50180480415338
 20
-0.1478362343498247
 30
0.0
 11
-48.55471428300688
 21
-0.1144972142001279
 31
0.0
 11
-48.54469303442511
 21
-0.1250089782470241
 31
0.0
 11
-48.53388561465681
 21
-0.1347101544035922
 31
0.0
 11
-48.52917848537254
 21
-0.1383474843485146
 31
0.0
 11
-48.52426473367223
 21
-0.1417007955958525
 31
0.0
 11
-48.5200144274213
 21
-0.1441903348184041
 31
0.0
 11
-48.51556899825346
 21
-0.146309029940312
 31
0.0
 11
-48.5118928949405
 21
-0.1476168401377436
 31
0.0
 11
-48.50806262392052
 21
-0.1483948385682652
 31
0.0
 11
-48.50488474301073
 21
-0.1484683673475047
 31
0.0
 11
-48.50180480415338
 21
-0.1478362343498247
 31
0.0
  0
SPLINE
  5
40B
330
2
100
AcDbEntity
  8
GAIKEI
  6
Continuous
 62
     7
100
AcDbSpline
210
0.0
220
0.0
230
1.0
 70
     8
 71
     3
 72
    23
 73
    19
 74
    17
 42
0.0000000001
 43
0.0000000001
 44
0.00000001
 40
0.0
 40
0.0
 40
0.0
 40
0.0
 40
0.0513081044551908
 40
0.1026160875824641
 40
0.1263292606828926
 40
0.1500359944192949
 40
0.171470203460542
 40
0.1929248973344053
 40
0.2114906912656358
 40
0.2299942939644636
 40
0.2449811997511338
 40
0.2601415962656583
 40
0.2715309412532192
 40
0.2824951924557576
 40
0.289079394812991
 40
0.2965018614258976
 40
0.2998957528048129
 40
0.3026008676810454
 40
0.3026008676810454
 40
0.3026008676810454
 40
0.3026008676810454
 10
-48.14414238184963
 20
37.90016284434523
 30
0.0
 10
-48.12703959008475
 20
37.90022177329916
 30
0.0
 10
-48.0928340469241
 20
37.90033961890362
 30
0.0
 10
-48.05073005599226
 20
37.90114722696092
 30
0.0
 10
-48.01783434567092
 20
37.90209721050326
 30
0.0
 10
-47.99489794598272
 20
37.90293331130476
 30
0.0
 10
-47.97272089166962
 20
37.90391552255045
 30
0.0
 10
-47.95226512954402
 20
37.90501405949783
 30
0.0
 10
-47.93279668800165
 20
37.90626367515717
 30
0.0
 10
-47.91549435041789
 20
37.90757794413798
 30
0.0
 10
-47.8993391502408
 20
37.90901113658549
 30
0.0
 10
-47.8855783745046
 20
37.91052207667758
 30
0.0
 10
-47.87317281645218
 20
37.91217821066164
 30
0.0
 10
-47.8636828697838
 20
37.91375435364307
 30
0.0
 10
-47.85544815607002
 20
37.91537440638854
 30
0.0
 10
-47.85012186904359
 20
37.91725107943455
 30
0.0
 10
-47.84547989944115
 20
37.91853935516599
 30
0.0
 10
-47.84455265429155
 20
37.92044508587185
 30
0.0
 10
-47.84414138406873
 20
37.92129033796482
 30
0.0
 11
-48.14414238184963
 21
37.90016284434523
 31
0.0
 11
-48.09283522759915
 21
37.90047416929451
 31
0.0
 11
-48.04153627867845
 21
37.90143696446626
 31
0.0
 11
-48.01783315251441
 21
37.9021271732388
 31
0.0
 11
-47.99414224817247
 21
37.90299335749251
 31
0.0
 11
-47.97272934094507
 21
37.90394872149682
 31
0.0
 11
-47.95130586550794
 21
37.90510569520552
 31
0.0
 11
-47.93277860438957
 21
37.90630122791231
 31
0.0
 11
-47.91432869249502
 21
37.9077097952927
 31
0.0
 11
-47.89940251263715
 21
37.90905757054111
 31
0.0
 11
-47.88433426182473
 21
37.91072653349079
 31
0.0
 11
-47.87304819738301
 21
37.91225686887015
 31
0.0
 11
-47.8622339390954
 21
37.91406424773618
 31
0.0
 11
-47.85579787010374
 21
37.91545303651947
 31
0.0
 11
-47.84869923142923
 21
37.91762152327033
 31
0.0
 11
-47.84560467929032
 21
37.91901516762778
 31
0.0
 11
-47.84414138406873
 21
37.92129033796482
 31
0.0
  0
SPLINE
  5
40C
330
2
100
AcDbEntity
  8
GAIKEI
  6
Continuous
 62
     7
100
AcDbSpline
210
0.0
220
0.0
230
1.0
 70
     8
 71
     3
 72
    21
 73
    17
 74
    15
 42
0.0000000001
 43
0.0000000001
 44
0.00000001
 40
0.0
 40
0.0
 40
0.0
 40
0.0
 40
0.013168907702599
 40
0.0264140756297353
 40
0.0392427370427889
 40
0.0520332736548873
 40
0.0685766279644862
 40
0.0851364010379193
 40
0.1049458132573437
 40
0.1247491260452189
 40
0.1472172214172323
 40
0.169687385393263
 40
0.1941432131895012
 40
0.2185983962651652
 40
0.2649262418801544
 40
0.3112540577283898
 40
0.3112540577283898
 40
0.3112540577283898
 40
0.3112540577283898
 10
-50.0793481860369
 20
37.92050893206033
 30
0.0
 10
-50.07532312353423
 20
37.91869582558792
 30
0.0
 10
-50.06724969503247
 20
37.91505909944021
 30
0.0
 10
-50.05416911747143
 20
37.91338498913814
 30
0.0
 10
-50.04137343406313
 20
37.91154164854356
 30
0.0
 10
-50.02741033811322
 20
37.90986642951748
 30
0.0
 10
-50.01218551078828
 20
37.9083869063378
 30
0.0
 10
-49.9946003989652
 20
37.90701161545786
 30
0.0
 10
-49.97591970800652
 20
37.90573612712416
 30
0.0
 10
-49.95526066667707
 20
37.9045335986059
 30
0.0
 10
-49.93370524727963
 20
37.90348665437898
 30
0.0
 10
-49.91059210284582
 20
37.90256329384749
 30
0.0
 10
-49.88681086450592
 20
37.90178534764113
 30
0.0
 10
-49.85507484859242
 20
37.90097329019807
 30
0.0
 10
-49.81604220833932
 20
37.90030706083598
 30
0.0
 10
-49.78515685250319
 20
37.90021124749762
 30
0.0
 10
-49.76971417958475
 20
37.90016333375002
 30
0.0
 11
-50.0793481860369
 21
37.92050893206033
 31
0.0
 11
-50.06709129475985
 21
37.91569346340839
 31
0.0
 11
-50.05405777013175
 21
37.91333513795667
 31
0.0
 11
-50.04134845869248
 21
37.911589298948
 31
0.0
 11
-50.02864999657913
 21
37.91005734403802
 31
0.0
 11
-50.01218598084188
 21
37.90843908694546
 31
0.0
 11
-49.99567875944513
 21
37.9071208591497
 31
0.0
 11
-49.97591552545372
 21
37.90576904803174
 31
0.0
 11
-49.95614587308637
 21
37.90461490689882
 31
0.0
 11
-49.93370452643921
 21
37.90351888250211
 31
0.0
 11
-49.91125252424945
 21
37.90261562937667
 31
0.0
 11
-49.88680982653431
 21
37.90181435455111
 31
0.0
 11
-49.86236277462149
 21
37.90118377361887
 31
0.0
 11
-49.816041309718
 21
37.90041489370742
 31
0.0
 11
-49.76971417958475
 21
37.90016333375002
 31
0.0
  0
SPLINE
  5
40D
330
2
100
AcDbEntity
  8
GAIKEI
  6
Continuous
 62
     7
100
AcDbSpline
210
0.0
220
0.0
230
1.0
 70
     8
 71
     3
 72
    23
 73
    19
 74
    17
 42
0.0000000001
 43
0.0000000001
 44
0.00000001
 40
0.0
 40
0.0
 40
0.0
 40
0.0
 40
0.0097644226640317
 40
0.0198123758441114
 40
0.0310617143737715
 40
0.0421633186796262
 40
0.0572043986917899
 40
0.0723116022290941
 40
0.0908587135154783
 40
0.109380706705061
 40
0.1308208320750275
 40
0.1522695602722158
 40
0.1759808347086373
 40
0.1996893861847354
 40
0.2249494007144578
 40
0.250210248876178
 40
0.2762587228060916
 40
0.3023069238034107
 40
0.3023069238034107
 40
0.3023069238034107
 40
0.3023069238034107
 10
-9.544141384068552
 20
37.9212903424982
 30
0.0
 10
-9.541508082591889
 20
37.91926661613229
 30
0.0
 10
-9.536165024051541
 20
37.91516038787597
 30
0.0
 10
-9.525567292831127
 20
37.91413504149125
 30
0.0
 10
-9.515005277319112
 20
37.9123110636362
 30
0.0
 10
-9.502650915363133
 20
37.91047627255915
 30
0.0
 10
-9.488991057231544
 20
37.90895096246948
 30
0.0
 10
-9.472812756062651
 20
37.90759604956316
 30
0.0
 10
-9.455470980870373
 20
37.90628335762438
 30
0.0
 10
-9.4360089264798
 20
37.90500887344132
 30
0.0
 10
-9.415567818095034
 20
37.90390933766656
 30
0.0
 10
-9.393388917104537
 20
37.90293476967446
 30
0.0
 10
-9.370447725686673
 20
37.90209942847543
 30
0.0
 10
-9.346231146741565
 20
37.9013954274775
 30
0.0
 10
-9.321493854105796
 20
37.90084793380419
 30
0.0
 10
-9.295973620105158
 20
37.90045583885762
 30
0.0
 10
-9.27018871334657
 20
37.90020859882907
 30
0.0
 10
-9.25282312686415
 20
37.90017810033351
 30
0.0
 10
-9.244140379132659
 20
37.90016284434523
 30
0.0
 11
-9.544141384068552
 21
37.9212903424982
 31
0.0
 11
-9.535897399794976
 21
37.91605769063654
 31
0.0
 11
-9.526049161334867
 21
37.91406431203154
 31
0.0
 11
-9.514932190129457
 21
37.91234368235064
 31
0.0
 11
-9.503948992090954
 21
37.91072659274551
 31
0.0
 11
-9.489004802679119
 21
37.90902210180434
 31
0.0
 11
-9.473954700145895
 21
37.90770984770666
 31
0.0
 11
-9.455460184022285
 21
37.90631406517036
 31
0.0
 11
-9.436977646883406
 21
37.90510573918596
 31
0.0
 11
-9.415568988643826
 21
37.90394456424497
 31
0.0
 11
-9.394141361355195
 21
37.90299339170315
 31
0.0
 11
-9.370445870746152
 21
37.90212837177774
 31
0.0
 11
-9.346747402420987
 21
37.90143698786778
 31
0.0
 11
-9.321493608507807
 21
37.90087642840058
 31
0.0
 11
-9.296235811540555
 21
37.90048381822271
 31
0.0
 11
-9.270188454370781
 21
37.90024260914538
 31
0.0
 11
-9.244140379132659
 21
37.90016284434523
 31
0.0
  0
SPLINE
  5
40E
330
2
100
AcDbEntity
  8
GAIKEI
  6
Continuous
 62
     7
100
AcDbSpline
210
0.0
220
0.0
230
1.0
 70
     8
 71
     3
 72
    21
 73
    17
 74
    15
 42
0.0000000001
 43
0.0000000001
 44
0.00000001
 40
0.0
 40
0.0
 40
0.0
 40
0.0
 40
0.0516439251336266
 40
0.1032878448460984
 40
0.1273815664221575
 40
0.151476217504271
 40
0.1734361360403992
 40
0.1953931371826435
 40
0.2145511886746539
 40
0.2337177703796008
 40
0.2495239172644785
 40
0.2653074429008262
 40
0.2772473616743203
 40
0.2892387005391391
 40
0.3003087527162027
 40
0.3112802508482146
 40
0.3112802508482146
 40
0.3112802508482146
 40
0.3112802508482146
 10
-7.618568724539727
 20
37.90016333375002
 30
0.0
 10
-7.601353994021295
 20
37.90022299679163
 30
0.0
 10
-7.566924534705734
 20
37.90034230871953
 30
0.0
 10
-7.5244697946056
 20
37.90115182921926
 30
0.0
 10
-7.491205756417386
 20
37.9020999664329
 30
0.0
 10
-7.467837738838269
 20
37.90293717795032
 30
0.0
 10
-7.445188209027406
 20
37.90391795972278
 30
0.0
 10
-7.424191663780661
 20
37.90501765368043
 30
0.0
 10
-7.40413663183093
 20
37.90627372777669
 30
0.0
 10
-7.38614131490209
 20
37.90759247541359
 30
0.0
 10
-7.369280002083726
 20
37.90900342734102
 30
0.0
 10
-7.354850801428753
 20
37.91051716982048
 30
0.0
 10
-7.3417140731162
 20
37.9122355627344
 30
0.0
 10
-7.330218948415456
 20
37.91405053750106
 30
0.0
 10
-7.318879774452348
 20
37.91563250331484
 30
0.0
 10
-7.31223975131386
 20
37.91888831316658
 30
0.0
 10
-7.308934581597441
 20
37.92050893256373
 30
0.0
 11
-7.618568724539727
 21
37.90016333375002
 31
0.0
 11
-7.566925752340466
 21
37.9004765910438
 31
0.0
 11
-7.515290774277218
 21
37.9014375754889
 31
0.0
 11
-7.491206985276676
 21
37.90212933182784
 31
0.0
 11
-7.467127854158661
 21
37.90299400227059
 31
0.0
 11
-7.445188802819302
 21
37.9039511061203
 31
0.0
 11
-7.423262213932048
 21
37.90510635414762
 31
0.0
 11
-7.404141842328954
 21
37.90630732282671
 31
0.0
 11
-7.385026688878042
 21
37.90771044837743
 31
0.0
 11
-7.369278195694278
 21
37.90905924051072
 31
0.0
 11
-7.353583046077801
 21
37.91072716087433
 31
0.0
 11
-7.341745125386296
 21
37.91228449613482
 31
0.0
 11
-7.329886684706707
 21
37.91406483035598
 31
0.0
 11
-7.319024479160361
 21
37.91619990391769
 31
0.0
 11
-7.308934581597441
 21
37.92050893256373
 31
0.0
  0
SPLINE
  5
40F
330
2
100
AcDbEntity
  8
GAIKEI
  6
Continuous
 62
     1
100
AcDbSpline
210
0.0
220
0.0
230
1.0
 70
     8
 71
     3
 72
    21
 73
    17
 74
    15
 42
0.0000000001
 43
0.0000000001
 44
0.00000001
 40
0.0
 40
0.0
 40
0.0
 40
0.0
 40
0.0062511561189511
 40
0.0126163073099719
 40
0.0200542744664809
 40
0.0274323576704103
 40
0.0374435828981117
 40
0.047481787693324
 40
0.0598294413579603
 40
0.0721668215730291
 40
0.0864542494003134
 40
0.1007452040614672
 40
0.1165495892551057
 40
0.1323528363188151
 40
0.1662850286086186
 40
0.2002172172959117
 40
0.2002172172959117
 40
0.2002172172959117
 40
0.2002172172959117
 10
25.5388287798819
 20
-6.293638714908638
 30
0.0
 10
25.53968690642232
 20
-6.291713351140231
 30
0.0
 10
25.54141882190967
 20
-6.287827518005713
 30
0.0
 10
25.5414055456601
 20
-6.281037326247201
 30
0.0
 10
25.54187694025515
 20
-6.274021708457667
 30
0.0
 10
25.54234227993288
 20
-6.265749811096668
 30
0.0
 10
25.54259687129857
 20
-6.256612551593661
 30
0.0
 10
25.54267363842861
 20
-6.245812727473719
 30
0.0
 10
25.54271092559131
 20
-6.234238666997271
 30
0.0
 10
25.54267219141187
 20
-6.221247690134418
 30
0.0
 10
25.54251943889001
 20
-6.207609833017727
 30
0.0
 10
25.5422538155238
 20
-6.192817887368505
 30
0.0
 10
25.54190444538361
 20
-6.177522280219079
 30
0.0
 10
25.54129807271401
 20
-6.155684048074078
 30
0.0
 10
25.54034036249622
 20
-6.127810704141325
 30
0.0
 10
25.53932887421841
 20
-6.1052117600384
 30
0.0
 10
25.53882313724762
 20
-6.093912288279398
 30
0.0
 11
25.5388287798819
 21
-6.293638714908638
 31
0.0
 11
25.54097592308972
 21
-6.287767878972545
 31
0.0
 11
25.54147351351594
 21
-6.281422207055356
 31
0.0
 11
25.5418651484556
 21
-6.273994557576543
 31
0.0
 11
25.54226330071652
 21
-6.26662722517608
 31
0.0
 11
25.54256205503953
 21
-6.256620458667612
 31
0.0
 11
25.54266232378495
 21
-6.246582754698692
 31
0.0
 11
25.54269815576163
 21
-6.234235153050804
 31
0.0
 11
25.54265845860709
 21
-6.221897836715243
 31
0.0
 11
25.54250336026553
 21
-6.207611250767286
 31
0.0
 11
25.54225182262462
 21
-6.193322509968083
 31
0.0
 11
25.5418914653842
 21
-6.177522233584795
 31
0.0
 11
25.54145477126667
 21
-6.161725021300071
 31
0.0
 11
25.54028168477771
 21
-6.127813112716694
 31
0.0
 11
25.53882313724762
 21
-6.093912288279398
 31
0.0
  0
ARC
  5
410
330
2
100
AcDbEntity
  8
GAIKEI
  6
Continuous
 62
     1
100
AcDbCircle
 10
32.30940755764141
 20
6.43483273934612
 30
0.0
 40
0.1999999999994998
100
AcDbArc
 50
90.0
 51
180.0
  0
ARC
  5
411
330
2
100
AcDbEntity
  8
GAIKEI
  6
Continuous
 62
     1
100
AcDbCircle
 10
36.05940755764141
 20
6.43483273934612
 30
0.0
 40
0.1999999999996817
100
AcDbArc
 50
0.0
 51
90.0
  0
ARC
  5
412
330
2
100
AcDbEntity
  8
GAIKEI
  6
Continuous
 62
     1
100
AcDbCircle
 10
32.30940755764141
 20
-5.115167260653834
 30
0.0
 40
0.1999999999998181
100
AcDbArc
 50
180.0
 51
270.0
  0
ARC
  5
413
330
2
100
AcDbEntity
  8
GAIKEI
  6
Continuous
 62
     1
100
AcDbCircle
 10
36.05940755764141
 20
-5.115167260653834
 30
0.0
 40
0.1999999999994998
100
AcDbArc
 50
270.0
 51
0.0
  0
ARC
  5
414
330
2
100
AcDbEntity
  8
GAIKEI
  6
Continuous
 62
     1
100
AcDbCircle
 10
32.30940755764141
 20
-5.115167260653834
 30
0.0
 40
0.1999999999998181
100
AcDbArc
 50
180.0
 51
270.0
  0
ARC
  5
415
330
2
100
AcDbEntity
  8
GAIKEI
  6
Continuous
 62
     1
100
AcDbCircle
 10
58.04940555764142
 20
-6.955153265652143
 30
0.0
 40
0.1599999999999909
100
AcDbArc
 50
270.0
 51
0.0
  0
ARC
  5
416
330
2
100
AcDbEntity
  8
GAIKEI
  6
Continuous
 62
     1
100
AcDbCircle
 10
24.76941955764096
 20
-6.95515326565237
 30
0.0
 40
0.1599999999999909
100
AcDbArc
 50
180.0
 51
270.0
  0
ARC
  5
417
330
2
100
AcDbEntity
  8
GAIKEI
  6
Continuous
 62
     1
100
AcDbCircle
 10
59.88941955764085
 20
8.834832729347226
 30
0.0
 40
0.05
100
AcDbArc
 50
0.0
 51
90.0
  0
ARC
  5
418
330
2
100
AcDbEntity
  8
GAIKEI
  6
Continuous
 62
     1
100
AcDbCircle
 10
59.88941955764085
 20
8.634832729347408
 30
0.0
 40
0.05
100
AcDbArc
 50
270.0
 51
0.0
  0
ARC
  5
419
330
2
100
AcDbEntity
  8
GAIKEI
  6
Continuous
 62
     1
100
AcDbCircle
 10
59.88941955764085
 20
7.534832729347954
 30
0.0
 40
0.05
100
AcDbArc
 50
0.0
 51
90.0
  0
ARC
  5
41A
330
2
100
AcDbEntity
  8
GAIKEI
  6
Continuous
 62
     1
100
AcDbCircle
 10
59.88941955764085
 20
7.334832729347908
 30
0.0
 40
0.05
100
AcDbArc
 50
270.0
 51
0.0
  0
ARC
  5
41B
330
2
100
AcDbEntity
  8
GAIKEI
  6
Continuous
 62
     1
100
AcDbCircle
 10
59.70941955764101
 20
15.48281273134739
 30
0.0
 40
0.1
100
AcDbArc
 50
0.0
 51
88.85423716179806
  0
ARC
  5
41C
330
2
100
AcDbEntity
  8
GAIKEI
  6
Continuous
 62
     1
100
AcDbCircle
 10
59.70941955764056
 20
0.6868527473482118
 30
0.0
 40
0.1000000000000982
100
AcDbArc
 50
271.1457628381499
 51
359.9999999998827
  0
ARC
  5
41D
330
2
100
AcDbEntity
  8
GAIKEI
  6
Continuous
 62
     1
100
AcDbCircle
 10
59.88941955764085
 20
10.93483272934759
 30
0.0
 40
0.05
100
AcDbArc
 50
0.0
 51
90.0
  0
ARC
  5
41E
330
2
100
AcDbEntity
  8
GAIKEI
  6
Continuous
 62
     1
100
AcDbCircle
 10
59.88941955764085
 20
10.73483272934754
 30
0.0
 40
0.05
100
AcDbArc
 50
270.0
 51
0.0
  0
ARC
  5
41F
330
2
100
AcDbEntity
  8
GAIKEI
  6
Continuous
 62
     1
100
AcDbCircle
 10
59.88941955764085
 20
12.13483272934763
 30
0.0
 40
0.05
100
AcDbArc
 50
0.0
 51
90.0
  0
ARC
  5
420
330
2
100
AcDbEntity
  8
GAIKEI
  6
Continuous
 62
     1
100
AcDbCircle
 10
59.88941955764085
 20
11.93483272934759
 30
0.0
 40
0.05
100
AcDbArc
 50
270.0
 51
0.0
  0
ARC
  5
421
330
2
100
AcDbEntity
  8
GAIKEI
  6
Continuous
 62
     1
100
AcDbCircle
 10
59.88941955764085
 20
14.28483272934772
 30
0.0
 40
0.05
100
AcDbArc
 50
0.0
 51
90.0
  0
ARC
  5
422
330
2
100
AcDbEntity
  8
GAIKEI
  6
Continuous
 62
     1
100
AcDbCircle
 10
59.88941955764085
 20
14.08483272934768
 30
0.0
 40
0.05
100
AcDbArc
 50
270.0
 51
0.0
  0
ARC
  5
423
330
2
100
AcDbEntity
  8
GAIKEI
  6
Continuous
 62
     1
100
AcDbCircle
 10
59.88941955764085
 20
1.884832729347635
 30
0.0
 40
0.05
100
AcDbArc
 50
270.0
 51
0.0
  0
ARC
  5
424
330
2
100
AcDbEntity
  8
GAIKEI
  6
Continuous
 62
     1
100
AcDbCircle
 10
59.88941955764085
 20
2.084832729347681
 30
0.0
 40
0.05
100
AcDbArc
 50
0.0
 51
90.0
  0
ARC
  5
425
330
2
100
AcDbEntity
  8
GAIKEI
  6
Continuous
 62
     1
100
AcDbCircle
 10
59.88941955764085
 20
4.034832729347726
 30
0.0
 40
0.05
100
AcDbArc
 50
270.0
 51
0.0
  0
ARC
  5
426
330
2
100
AcDbEntity
  8
GAIKEI
  6
Continuous
 62
     1
100
AcDbCircle
 10
59.88941955764085
 20
4.234832729347772
 30
0.0
 40
0.05
100
AcDbArc
 50
0.0
 51
90.0
  0
ARC
  5
427
330
2
100
AcDbEntity
  8
GAIKEI
  6
Continuous
 62
     1
100
AcDbCircle
 10
59.88941955764085
 20
5.234832729347772
 30
0.0
 40
0.05
100
AcDbArc
 50
270.0
 51
0.0
  0
ARC
  5
428
330
2
100
AcDbEntity
  8
GAIKEI
  6
Continuous
 62
     1
100
AcDbCircle
 10
59.88941955764085
 20
5.434832729347817
 30
0.0
 40
0.05
100
AcDbArc
 50
0.0
 51
90.0
  0
ARC
  5
429
330
2
100
AcDbEntity
  8
GAIKEI
  6
Continuous
 62
     1
100
AcDbCircle
 10
59.88941955764085
 20
20.93483272934782
 30
0.0
 40
0.05
100
AcDbArc
 50
0.0
 51
90.0
  0
ARC
  5
42A
330
2
100
AcDbEntity
  8
GAIKEI
  6
Continuous
 62
     1
100
AcDbCircle
 10
59.88941955764085
 20
20.73483272934777
 30
0.0
 40
0.05
100
AcDbArc
 50
270.0
 51
0.0
  0
ARC
  5
42B
330
2
100
AcDbEntity
  8
GAIKEI
  6
Continuous
 62
     1
100
AcDbCircle
 10
59.88941955764085
 20
19.73483272934777
 30
0.0
 40
0.05
100
AcDbArc
 50
0.0
 51
90.0
  0
ARC
  5
42C
330
2
100
AcDbEntity
  8
GAIKEI
  6
Continuous
 62
     1
100
AcDbCircle
 10
59.88941955764085
 20
19.53483272934773
 30
0.0
 40
0.05
100
AcDbArc
 50
270.0
 51
0.0
  0
ARC
  5
42D
330
2
100
AcDbEntity
  8
GAIKEI
  6
Continuous
 62
     1
100
AcDbCircle
 10
59.88941955764085
 20
17.58483272934768
 30
0.0
 40
0.05
100
AcDbArc
 50
0.0
 51
90.0
  0
ARC
  5
42E
330
2
100
AcDbEntity
  8
GAIKEI
  6
Continuous
 62
     1
100
AcDbCircle
 10
59.88941955764085
 20
17.38483272934763
 30
0.0
 40
0.05
100
AcDbArc
 50
270.0
 51
0.0
  0
ARC
  5
42F
330
2
100
AcDbEntity
  8
GAIKEI
  6
Continuous
 62
     1
100
AcDbCircle
 10
59.88941955764085
 20
29.58483272934768
 30
0.0
 40
0.05
100
AcDbArc
 50
270.0
 51
0.0
  0
ARC
  5
430
330
2
100
AcDbEntity
  8
GAIKEI
  6
Continuous
 62
     1
100
AcDbCircle
 10
59.88941955764085
 20
29.78483272934773
 30
0.0
 40
0.05
100
AcDbArc
 50
0.0
 51
90.0
  0
ARC
  5
431
330
2
100
AcDbEntity
  8
GAIKEI
  6
Continuous
 62
     1
100
AcDbCircle
 10
59.88941955764085
 20
27.43483272934759
 30
0.0
 40
0.05
100
AcDbArc
 50
270.0
 51
0.0
  0
ARC
  5
432
330
2
100
AcDbEntity
  8
GAIKEI
  6
Continuous
 62
     1
100
AcDbCircle
 10
59.88941955764085
 20
27.63483272934764
 30
0.0
 40
0.05
100
AcDbArc
 50
0.0
 51
90.0
  0
ARC
  5
433
330
2
100
AcDbEntity
  8
GAIKEI
  6
Continuous
 62
     1
100
AcDbCircle
 10
59.88941955764085
 20
26.23483272934755
 30
0.0
 40
0.05
100
AcDbArc
 50
270.0
 51
0.0
  0
ARC
  5
434
330
2
100
AcDbEntity
  8
GAIKEI
  6
Continuous
 62
     1
100
AcDbCircle
 10
59.88941955764085
 20
26.43483272934759
 30
0.0
 40
0.05
100
AcDbArc
 50
0.0
 51
90.0
  0
ARC
  5
435
330
2
100
AcDbEntity
  8
GAIKEI
  6
Continuous
 62
     1
100
AcDbCircle
 10
59.70941955764056
 20
16.18685274734821
 30
0.0
 40
0.1000000000000982
100
AcDbArc
 50
271.1457628381499
 51
359.9999999999349
  0
ARC
  5
436
330
2
100
AcDbEntity
  8
GAIKEI
  6
Continuous
 62
     1
100
AcDbCircle
 10
59.70941955764101
 20
30.9828127313474
 30
0.0
 40
0.1
100
AcDbArc
 50
0.0
 51
88.85423716179806
  0
ARC
  5
437
330
2
100
AcDbEntity
  8
GAIKEI
  6
Continuous
 62
     1
100
AcDbCircle
 10
59.88941955764085
 20
22.83483272934791
 30
0.0
 40
0.05
100
AcDbArc
 50
270.0
 51
0.0
  0
ARC
  5
438
330
2
100
AcDbEntity
  8
GAIKEI
  6
Continuous
 62
     1
100
AcDbCircle
 10
59.88941955764085
 20
23.03483272934796
 30
0.0
 40
0.05
100
AcDbArc
 50
0.0
 51
90.0
  0
ARC
  5
439
330
2
100
AcDbEntity
  8
GAIKEI
  6
Continuous
 62
     1
100
AcDbCircle
 10
59.88941955764085
 20
24.13483272934741
 30
0.0
 40
0.05
100
AcDbArc
 50
270.0
 51
0.0
  0
ARC
  5
43A
330
2
100
AcDbEntity
  8
GAIKEI
  6
Continuous
 62
     1
100
AcDbCircle
 10
59.88941955764085
 20
24.33483272934723
 30
0.0
 40
0.05
100
AcDbArc
 50
0.0
 51
90.0
  0
ARC
  5
43B
330
2
100
AcDbEntity
  8
GAIKEI
  6
Continuous
 62
     1
100
AcDbCircle
 10
31.40940755764177
 20
-5.115167260654061
 30
0.0
 40
0.1999999999999091
100
AcDbArc
 50
270.0
 51
0.0000000000260551
  0
ARC
  5
43C
330
2
100
AcDbEntity
  8
GAIKEI
  6
Continuous
 62
     1
100
AcDbCircle
 10
31.40940755764177
 20
4.984832739346074
 30
0.0
 40
0.2
100
AcDbArc
 50
0.0
 51
90.0
  0
ARC
  5
43D
330
2
100
AcDbEntity
  8
GAIKEI
  6
Continuous
 62
     1
100
AcDbCircle
 10
28.20940755764195
 20
4.984832739346074
 30
0.0
 40
0.2
100
AcDbArc
 50
90.0
 51
180.0
  0
ARC
  5
43E
330
2
100
AcDbEntity
  8
GAIKEI
  6
Continuous
 62
     1
100
AcDbCircle
 10
28.20940755764195
 20
-5.115167260653834
 30
0.0
 40
0.2
100
AcDbArc
 50
180.0
 51
270.0
  0
LINE
  5
43F
330
2
100
AcDbEntity
  8
WAKU
 62
     4
100
AcDbLine
 10
65.89881740421185
 20
-155.8771046952675
 30
0.0
 11
65.89881740421185
 21
-105.8771046952675
 31
0.0
  0
LINE
  5
441
330
2
100
AcDbEntity
  8
WAKU
 62
     4
100
AcDbLine
 10
-19.10118259578814
 20
-155.8771046952675
 30
0.0
 11
-19.10118259578814
 21
-105.8771046952675
 31
0.0
  0
LINE
  5
442
330
2
100
AcDbEntity
  8
WAKU
 62
     4
100
AcDbLine
 10
-59.10118259578815
 20
-105.8771046952675
 30
0.0
 11
-59.10118259578815
 21
-155.8771046952675
 31
0.0
  0
LINE
  5
443
330
2
100
AcDbEntity
  8
WAKU
 62
     4
100
AcDbLine
 10
-59.10118259578815
 20
-155.8771046952675
 30
0.0
 11
65.89881740421185
 21
-155.8771046952675
 31
0.0
  0
LINE
  5
444
330
2
100
AcDbEntity
  8
WAKU
 62
     1
100
AcDbLine
 10
-59.10118259578815
 20
-150.8771046952675
 30
0.0
 11
65.89881740421185
 21
-150.8771046952675
 31
0.0
  0
LINE
  5
445
330
2
100
AcDbEntity
  8
WAKU
 62
     1
100
AcDbLine
 10
-59.10118259578815
 20
-145.8771046952675
 30
0.0
 11
65.89881740421185
 21
-145.8771046952675
 31
0.0
  0
LINE
  5
446
330
2
100
AcDbEntity
  8
WAKU
 62
     1
100
AcDbLine
 10
-59.10118259578815
 20
-140.8771046952675
 30
0.0
 11
65.89881740421185
 21
-140.8771046952675
 31
0.0
  0
LINE
  5
447
330
2
100
AcDbEntity
  8
WAKU
 62
     1
100
AcDbLine
 10
-59.10118259578815
 20
-135.8771046952675
 30
0.0
 11
65.89881740421185
 21
-135.8771046952675
 31
0.0
  0
LINE
  5
448
330
2
100
AcDbEntity
  8
WAKU
 62
     1
100
AcDbLine
 10
65.89881740421185
 20
-125.8771046952675
 30
0.0
 11
-59.10118259578815
 21
-125.8771046952675
 31
0.0
  0
LINE
  5
449
330
2
100
AcDbEntity
  8
WAKU
 62
     1
100
AcDbLine
 10
-59.10118259578815
 20
-130.8771046952675
 30
0.0
 11
65.89881740421185
 21
-130.8771046952675
 31
0.0
  0
LINE
  5
44A
330
2
100
AcDbEntity
  8
WAKU
 62
     1
100
AcDbLine
 10
65.89881740421185
 20
-120.8771046952675
 30
0.0
 11
-59.10118259578815
 21
-120.8771046952675
 31
0.0
  0
LINE
  5
44B
330
2
100
AcDbEntity
  8
WAKU
 62
     1
100
AcDbLine
 10
65.89881740421185
 20
-115.8771046952675
 30
0.0
 11
-59.10118259578815
 21
-115.8771046952675
 31
0.0
  0
LINE
  5
44C
330
2
100
AcDbEntity
  8
WAKU
 62
     1
100
AcDbLine
 10
65.89881740421185
 20
-110.8771046952675
 30
0.0
 11
-59.10118259578815
 21
-110.8771046952675
 31
0.0
  0
LINE
  5
44D
330
2
100
AcDbEntity
  8
WAKU
 62
     4
100
AcDbLine
 10
65.89881740421185
 20
-105.8771046952675
 30
0.0
 11
-59.10118259578815
 21
-105.8771046952675
 31
0.0
  0
TEXT
  5
44E
330
2
100
AcDbEntity
  8
MOJI1
100
AcDbText
 10
-56.60118259578815
 20
-110.1271046952673
 30
0.0
 40
3.0
  1
ポート数
100
AcDbText
  0
TEXT
  5
44F
330
2
100
AcDbEntity
  8
MOJI1
100
AcDbText
 10
-16.60118259578814
 20
-110.1271046952673
 30
0.0
 40
3.0
  1
１９２
100
AcDbText
  0
TEXT
  5
450
330
2
100
AcDbEntity
  8
MOJI1
100
AcDbText
 10
-56.60118259578815
 20
-115.1271046952673
 30
0.0
 40
3.0
  1
入力電源
100
AcDbText
  0
TEXT
  5
451
330
2
100
AcDbEntity
  8
MOJI1
100
AcDbText
 10
-16.60118259578814
 20
-115.1271046952673
 30
0.0
 40
3.0
  1
ＡＣ１００Ｖ、５０／６０Ｈｚ
100
AcDbText
  0
TEXT
  5
452
330
2
100
AcDbEntity
  8
MOJI1
100
AcDbText
 10
-56.60118259578815
 20
-120.1271046952673
 30
0.0
 40
3.0
  1
制御方式
100
AcDbText
  0
TEXT
  5
453
330
2
100
AcDbEntity
  8
MOJI1
100
AcDbText
 10
-16.60118259578814
 20
-120.1271046952673
 30
0.0
 40
3.0
  1
蓄積プログラム方式
100
AcDbText
  0
TEXT
  5
454
330
2
100
AcDbEntity
  8
MOJI1
100
AcDbText
 10
-56.60118259578815
 20
-125.1271046952673
 30
0.0
 40
3.0
  1
制御ＣＰＵ
100
AcDbText
  0
TEXT
  5
455
330
2
100
AcDbEntity
  8
MOJI1
100
AcDbText
 10
-16.60118259578814
 20
-125.1271046952673
 30
0.0
 40
3.0
  1
３２ｂｉｔ
100
AcDbText
  0
TEXT
  5
456
330
2
100
AcDbEntity
  8
MOJI1
100
AcDbText
 10
-56.60118259578815
 20
-130.1271046952673
 30
0.0
 40
3.0
  1
通話方式
100
AcDbText
  0
TEXT
  5
457
330
2
100
AcDbEntity
  8
MOJI1
100
AcDbText
 10
-16.60118259578814
 20
-130.1271046952673
 30
0.0
 40
3.0
  1
時分割ＰＣＭ方式
100
AcDbText
  0
TEXT
  5
458
330
2
100
AcDbEntity
  8
MOJI1
100
AcDbText
 10
-56.60118259578815
 20
-135.1271046952673
 30
0.0
 40
3.0
  1
消費電力
100
AcDbText
  0
TEXT
  5
459
330
2
100
AcDbEntity
  8
MOJI1
100
AcDbText
 10
-16.60118259578814
 20
-135.1271046952673
 30
0.0
 40
3.0
  1
約５３０Ｗ
100
AcDbText
  0
TEXT
  5
45A
330
2
100
AcDbEntity
  8
MOJI1
100
AcDbText
 10
-56.60118259578815
 20
-140.1271046952673
 30
0.0
 40
3.0
  1
寸　法
100
AcDbText
  0
TEXT
  5
45B
330
2
100
AcDbEntity
  8
MOJI1
100
AcDbText
 10
-16.60118259578814
 20
-140.1271046952673
 30
0.0
 40
3.0
  1
幅約５３０ｍｍ×奥行き約３８９ｍｍ×高さ約４４５ｍｍ
 41
0.8699999999999999
100
AcDbText
  0
TEXT
  5
45C
330
2
100
AcDbEntity
  8
MOJI1
100
AcDbText
 10
-56.60118259578815
 20
-145.1271046952673
 30
0.0
 40
3.0
  1
質　量
100
AcDbText
  0
TEXT
  5
45D
330
2
100
AcDbEntity
  8
MOJI1
100
AcDbText
 10
-16.60118259578814
 20
-145.1271046952673
 30
0.0
 40
3.0
  1
約１５．６Ｋｇ（架のみ）
100
AcDbText
  0
ENDSEC
  0
SECTION
  2
OBJECTS
  0
DICTIONARY
  5
7
330
0
100
AcDbDictionary
281
     1
  3
ACAD_COLOR
350
2C
  3
ACAD_GROUP
350
28
  3
ACAD_LAYOUT
350
B
  3
ACAD_MATERIAL
350
2B
  3
ACAD_MLINESTYLE
350
29
  3
ACAD_PLOTSETTINGS
350
2A
  3
ACAD_PLOTSTYLENAME
350
6
  3
ACDBHEADERROUNDTRIPXREC
350
49A
  3
AcDbVariableDictionary
350
495
  0
DICTIONARY
  5
11
330
10
100
AcDbDictionary
280
     1
281
     1
  3
ACAD_LAYERSTATES
360
12
  0
DICTIONARY
  5
2C
102
{ACAD_REACTORS
330
7
102
}
330
7
100
AcDbDictionary
281
     1
  0
DICTIONARY
  5
28
102
{ACAD_REACTORS
330
7
102
}
330
7
100
AcDbDictionary
281
     1
  0
DICTIONARY
  5
B
102
{ACAD_REACTORS
330
7
102
}
330
7
100
AcDbDictionary
281
     1
  3
Model
350
A
  3
レイアウト1
350
F
  0
DICTIONARY
  5
2B
102
{ACAD_REACTORS
330
7
102
}
330
7
100
AcDbDictionary
281
     1
  0
DICTIONARY
  5
29
102
{ACAD_REACTORS
330
7
102
}
330
7
100
AcDbDictionary
281
     1
  3
Standard
350
2E
  0
DICTIONARY
  5
2A
102
{ACAD_REACTORS
330
7
102
}
330
7
100
AcDbDictionary
281
     1
  0
ACDBDICTIONARYWDFLT
  5
6
102
{ACAD_REACTORS
330
7
102
}
330
7
100
AcDbDictionary
281
     1
  3
Normal
350
5
100
AcDbDictionaryWithDefault
340
5
  0
DICTIONARY
  5
49A
102
{ACAD_REACTORS
330
7
102
}
330
7
100
AcDbDictionary
281
     1
  3
COLORDICT
350
49C
  3
MATERIALDICT
350
49B
  0
DICTIONARY
  5
495
102
{ACAD_REACTORS
330
7
102
}
330
7
100
AcDbDictionary
281
     1
  3
DIMASSOC
350
497
  3
HIDETEXT
350
496
  3
PROJECTNAME
350
498
  0
DICTIONARY
  5
12
102
{ACAD_REACTORS
330
11
102
}
330
11
100
AcDbDictionary
281
     1
  0
LAYOUT
  5
A
102
{ACAD_XDICTIONARY
360
49D
102
}
102
{ACAD_REACTORS
330
B
102
}
330
B
100
AcDbPlotSettings
  1

  2
Ａ４－縦3FRIM01.pc3
  4
A4
  6

 40
5.873749732971191
 41
5.873747825622558
 42
5.873748779296875
 43
5.873748779296875
 44
209.9733276367187
 45
296.9259948730469
 46
5.429999999999999
 47
0.0
 48
0.0
 49
0.0
140
0.0
141
0.0
142
1.0
143
1.382515366965649
 70
 11956
 72
     1
 73
     0
 74
     1
  7
tmsacad.ctb
 75
     0
147
0.7233192656619828
148
0.0256332569354072
149
0.0240599051811614
100
AcDbLayout
  1
Model
 70
     1
 71
     0
 10
0.0
 20
0.0
 11
12.0
 21
9.0
 12
0.0
 22
0.0
 32
0.0
 14
0.0
 24
0.0
 34
0.0
 15
0.0
 25
0.0
 35
0.0
146
0.0
 13
0.0
 23
0.0
 33
0.0
 16
1.0
 26
0.0
 36
0.0
 17
0.0
 27
1.0
 37
0.0
 76
     0
330
2
  0
LAYOUT
  5
F
102
{ACAD_XDICTIONARY
360
49F
102
}
102
{ACAD_REACTORS
330
B
102
}
330
B
100
AcDbPlotSettings
  1

  2
None
  4

  6

 40
0.0
 41
0.0
 42
0.0
 43
0.0
 44
0.0
 45
0.0
 46
0.0
 47
0.0
 48
0.0
 49
0.0
140
0.0
141
0.0
142
1.0
143
1.0
 70
   688
 72
     0
 73
     0
 74
     5
  7
tmsacad.ctb
 75
    16
147
1.0
148
0.0
149
0.0
100
AcDbLayout
  1
レイアウト1
 70
     1
 71
     1
 10
0.0
 20
0.0
 11
12.0
 21
9.0
 12
0.0
 22
0.0
 32
0.0
 14
0.0
 24
0.0
 34
0.0
 15
0.0
 25
0.0
 35
0.0
146
0.0
 13
0.0
 23
0.0
 33
0.0
 16
1.0
 26
0.0
 36
0.0
 17
0.0
 27
1.0
 37
0.0
 76
     0
330
C
  0
MLINESTYLE
  5
2E
102
{ACAD_REACTORS
330
29
102
}
330
29
100
AcDbMlineStyle
  2
STANDARD
 70
     0
  3

 62
   256
 51
90.0
 52
90.0
 71
     2
 49
0.5
 62
   256
  6
BYLAYER
 49
-0.5
 62
   256
  6
BYLAYER
  0
ACDBPLACEHOLDER
  5
5
102
{ACAD_REACTORS
330
6
102
}
330
6
  0
XRECORD
  5
49C
102
{ACAD_REACTORS
330
49A
102
}
330
49A
100
AcDbXrecord
280
     1
340
2C
  0
XRECORD
  5
49B
102
{ACAD_REACTORS
330
49A
102
}
330
49A
100
AcDbXrecord
280
     1
340
2B
  0
DICTIONARYVAR
  5
497
102
{ACAD_REACTORS
330
495
102
}
330
495
100
DictionaryVariables
280
     0
  1
1
  0
DICTIONARYVAR
  5
496
102
{ACAD_REACTORS
330
495
102
}
330
495
100
DictionaryVariables
280
     0
  1
1
  0
DICTIONARYVAR
  5
498
102
{ACAD_REACTORS
330
495
102
}
330
495
100
DictionaryVariables
280
     0
  1

  0
DICTIONARY
  5
49D
330
A
100
AcDbDictionary
280
     1
281
     1
  3
ACAD_XREC_ROUNDTRIP
360
49E
  0
DICTIONARY
  5
49F
330
F
100
AcDbDictionary
280
     1
281
     1
  3
ACAD_XREC_ROUNDTRIP
360
4A0
  0
XRECORD
  5
49E
102
{ACAD_REACTORS
330
49D
102
}
330
49D
100
AcDbXrecord
280
     1
102
SHADEPLOT
 70
     0
102
SHADEPLOTRESLEVEL
 70
     2
102
SHADEPLOTCUSTOMDPI
 70
   300
  0
XRECORD
  5
4A0
102
{ACAD_REACTORS
330
49F
102
}
330
49F
100
AcDbXrecord
280
     1
102
SHADEPLOT
 70
     0
102
SHADEPLOTRESLEVEL
 70
     2
102
SHADEPLOTCUSTOMDPI
 70
   300
  0
ENDSEC
  0
EOF
