  0
SECTION
  2
HEADER
  9
$ACADVER
  1
AC1015
  9
$ACADMAINTVER
 70
    20
  9
$DWGCODEPAGE
  3
ANSI_932
  9
$INSBASE
 10
0.4999999440410648
 20
120.5008351249346
 30
0.0
  9
$EXTMIN
 10
-62.2412100320696
 20
-65.53976378908817
 30
-0.0015258207003583
  9
$EXTMAX
 10
62.79235896048181
 20
47.48483316470504
 30
0.0000000349246037
  9
$LIMMIN
 10
0.0
 20
0.0
  9
$LIMMAX
 10
420.0
 20
297.0
  9
$ORTHOMODE
 70
     1
  9
$REGENMODE
 70
     0
  9
$FILLMODE
 70
     1
  9
$QTEXTMODE
 70
     0
  9
$MIRRTEXT
 70
     0
  9
$LTSCALE
 40
1.0
  9
$ATTMODE
 70
     1
  9
$TEXTSIZE
 40
2.5
  9
$TRACEWID
 40
1.0
  9
$TEXTSTYLE
  7
Standard
  9
$CLAYER
  8
GAIKEI
  9
$CELTYPE
  6
ByLayer
  9
$CECOLOR
 62
   256
  9
$CELTSCALE
 40
1.0
  9
$DISPSILH
 70
     0
  9
$DIMSCALE
 40
1.0
  9
$DIMASZ
 40
2.0
  9
$DIMEXO
 40
2.0
  9
$DIMDLI
 40
8.0
  9
$DIMRND
 40
0.0
  9
$DIMDLE
 40
0.0
  9
$DIMEXE
 40
2.0
  9
$DIMTP
 40
0.0
  9
$DIMTM
 40
0.0
  9
$DIMTXT
 40
2.5
  9
$DIMCEN
 40
0.0
  9
$DIMTSZ
 40
0.0
  9
$DIMTOL
 70
     0
  9
$DIMLIM
 70
     0
  9
$DIMTIH
 70
     0
  9
$DIMTOH
 70
     0
  9
$DIMSE1
 70
     0
  9
$DIMSE2
 70
     0
  9
$DIMTAD
 70
     3
  9
$DIMZIN
 70
     0
  9
$DIMBLK
  1

  9
$DIMASO
 70
     1
  9
$DIMSHO
 70
     1
  9
$DIMPOST
  1

  9
$DIMAPOST
  1

  9
$DIMALT
 70
     0
  9
$DIMALTD
 70
     2
  9
$DIMALTF
 40
25.4
  9
$DIMLFAC
 40
1.0
  9
$DIMTOFL
 70
     1
  9
$DIMTVP
 40
0.0
  9
$DIMTIX
 70
     0
  9
$DIMSOXD
 70
     0
  9
$DIMSAH
 70
     1
  9
$DIMBLK1
  1
OPEN30
  9
$DIMBLK2
  1
OPEN30
  9
$DIMSTYLE
  2
STANDARD
  9
$DIMCLRD
 70
     0
  9
$DIMCLRE
 70
     0
  9
$DIMCLRT
 70
     0
  9
$DIMTFAC
 40
1.0
  9
$DIMGAP
 40
0.5
  9
$DIMJUST
 70
     0
  9
$DIMSD1
 70
     0
  9
$DIMSD2
 70
     0
  9
$DIMTOLJ
 70
     1
  9
$DIMTZIN
 70
     0
  9
$DIMALTZ
 70
     0
  9
$DIMALTTZ
 70
     0
  9
$DIMUPT
 70
     0
  9
$DIMDEC
 70
     4
  9
$DIMTDEC
 70
     4
  9
$DIMALTU
 70
     2
  9
$DIMALTTD
 70
     2
  9
$DIMTXSTY
  7
Standard
  9
$DIMAUNIT
 70
     0
  9
$DIMADEC
 70
     0
  9
$DIMALTRND
 40
0.0
  9
$DIMAZIN
 70
     0
  9
$DIMDSEP
 70
    46
  9
$DIMATFIT
 70
     3
  9
$DIMFRAC
 70
     0
  9
$DIMLDRBLK
  1
OPEN30
  9
$DIMLUNIT
 70
     2
  9
$DIMLWD
 70
    -2
  9
$DIMLWE
 70
    -2
  9
$DIMTMOVE
 70
     0
  9
$LUNITS
 70
     2
  9
$LUPREC
 70
     4
  9
$SKETCHINC
 40
1.0
  9
$FILLETRAD
 40
0.0
  9
$AUNITS
 70
     0
  9
$AUPREC
 70
     0
  9
$MENU
  1
.
  9
$ELEVATION
 40
0.0
  9
$PELEVATION
 40
0.0
  9
$THICKNESS
 40
0.0
  9
$LIMCHECK
 70
     0
  9
$CHAMFERA
 40
0.0
  9
$CHAMFERB
 40
0.0
  9
$CHAMFERC
 40
0.0
  9
$CHAMFERD
 40
0.0
  9
$SKPOLY
 70
     0
  9
$TDCREATE
 40
2454349.434269746
  9
$TDUCREATE
 40
2454349.059269746
  9
$TDUPDATE
 40
2454838.561672164
  9
$TDUUPDATE
 40
2454838.186672164
  9
$TDINDWG
 40
0.0864433218
  9
$TDUSRTIMER
 40
0.0864433218
  9
$USRTIMER
 70
     1
  9
$ANGBASE
 50
0.0
  9
$ANGDIR
 70
     0
  9
$PDMODE
 70
     0
  9
$PDSIZE
 40
0.0
  9
$PLINEWID
 40
0.0
  9
$SPLFRAME
 70
     0
  9
$SPLINETYPE
 70
     6
  9
$SPLINESEGS
 70
     8
  9
$HANDSEED
  5
496
  9
$SURFTAB1
 70
     6
  9
$SURFTAB2
 70
     6
  9
$SURFTYPE
 70
     6
  9
$SURFU
 70
     6
  9
$SURFV
 70
     6
  9
$UCSBASE
  2

  9
$UCSNAME
  2

  9
$UCSORG
 10
0.0
 20
0.0
 30
0.0
  9
$UCSXDIR
 10
1.0
 20
0.0
 30
0.0
  9
$UCSYDIR
 10
0.0
 20
1.0
 30
0.0
  9
$UCSORTHOREF
  2

  9
$UCSORTHOVIEW
 70
     0
  9
$UCSORGTOP
 10
0.0
 20
0.0
 30
0.0
  9
$UCSORGBOTTOM
 10
0.0
 20
0.0
 30
0.0
  9
$UCSORGLEFT
 10
0.0
 20
0.0
 30
0.0
  9
$UCSORGRIGHT
 10
0.0
 20
0.0
 30
0.0
  9
$UCSORGFRONT
 10
0.0
 20
0.0
 30
0.0
  9
$UCSORGBACK
 10
0.0
 20
0.0
 30
0.0
  9
$PUCSBASE
  2

  9
$PUCSNAME
  2

  9
$PUCSORG
 10
0.0
 20
0.0
 30
0.0
  9
$PUCSXDIR
 10
1.0
 20
0.0
 30
0.0
  9
$PUCSYDIR
 10
0.0
 20
1.0
 30
0.0
  9
$PUCSORTHOREF
  2

  9
$PUCSORTHOVIEW
 70
     0
  9
$PUCSORGTOP
 10
0.0
 20
0.0
 30
0.0
  9
$PUCSORGBOTTOM
 10
0.0
 20
0.0
 30
0.0
  9
$PUCSORGLEFT
 10
0.0
 20
0.0
 30
0.0
  9
$PUCSORGRIGHT
 10
0.0
 20
0.0
 30
0.0
  9
$PUCSORGFRONT
 10
0.0
 20
0.0
 30
0.0
  9
$PUCSORGBACK
 10
0.0
 20
0.0
 30
0.0
  9
$USERI1
 70
     0
  9
$USERI2
 70
     0
  9
$USERI3
 70
     0
  9
$USERI4
 70
     0
  9
$USERI5
 70
     0
  9
$USERR1
 40
0.0
  9
$USERR2
 40
0.0
  9
$USERR3
 40
0.0
  9
$USERR4
 40
0.0
  9
$USERR5
 40
0.0
  9
$WORLDVIEW
 70
     1
  9
$SHADEDGE
 70
     3
  9
$SHADEDIF
 70
    70
  9
$TILEMODE
 70
     1
  9
$MAXACTVP
 70
    64
  9
$PINSBASE
 10
0.0
 20
0.0
 30
0.0
  9
$PLIMCHECK
 70
     0
  9
$PEXTMIN
 10
0.0
 20
0.0
 30
0.0
  9
$PEXTMAX
 10
0.0
 20
0.0
 30
0.0
  9
$PLIMMIN
 10
0.0
 20
0.0
  9
$PLIMMAX
 10
12.0
 20
9.0
  9
$UNITMODE
 70
     0
  9
$VISRETAIN
 70
     1
  9
$PLINEGEN
 70
     0
  9
$PSLTSCALE
 70
     1
  9
$TREEDEPTH
 70
  3020
  9
$CMLSTYLE
  2
Standard
  9
$CMLJUST
 70
     0
  9
$CMLSCALE
 40
20.0
  9
$PROXYGRAPHICS
 70
     1
  9
$MEASUREMENT
 70
     1
  9
$CELWEIGHT
370
    -1
  9
$ENDCAPS
280
     0
  9
$JOINSTYLE
280
     0
  9
$LWDISPLAY
290
     0
  9
$INSUNITS
 70
     4
  9
$HYPERLINKBASE
  1

  9
$STYLESHEET
  1

  9
$XEDIT
290
     1
  9
$CEPSNTYPE
380
     0
  9
$PSTYLEMODE
290
     1
  9
$FINGERPRINTGUID
  2
{FDEAD578-A652-11D2-9A35-0060089B3A3F}
  9
$VERSIONGUID
  2
{67A3BFD4-9397-4C3D-9DDF-0B1AB17494FA}
  9
$EXTNAMES
290
     1
  9
$PSVPSCALE
 40
0.0
  9
$OLESTARTUP
290
     0
  0
ENDSEC
  0
SECTION
  2
CLASSES
  0
CLASS
  1
ACDBDICTIONARYWDFLT
  2
AcDbDictionaryWithDefault
  3
ObjectDBX Classes
 90
        0
280
     0
281
     0
  0
CLASS
  1
ACDBPLACEHOLDER
  2
AcDbPlaceHolder
  3
ObjectDBX Classes
 90
        0
280
     0
281
     0
  0
CLASS
  1
LAYOUT
  2
AcDbLayout
  3
ObjectDBX Classes
 90
        0
280
     0
281
     0
  0
CLASS
  1
DICTIONARYVAR
  2
AcDbDictionaryVar
  3
ObjectDBX Classes
 90
        0
280
     0
281
     0
  0
CLASS
  1
SORTENTSTABLE
  2
AcDbSortentsTable
  3
ObjectDBX Classes
 90
    32768
280
     0
281
     0
  0
ENDSEC
  0
SECTION
  2
TABLES
  0
TABLE
  2
VPORT
  5
1B
330
0
100
AcDbSymbolTable
 70
     3
  0
VPORT
  5
48E
330
1B
100
AcDbSymbolTableRecord
100
AcDbViewportTableRecord
  2
*Active
 70
     0
 10
0.0
 20
0.0
 11
1.0
 21
1.0
 12
0.2755744642060982
 22
-9.027465312191566
 13
0.0
 23
0.0
 14
10.0
 24
10.0
 15
10.0
 25
10.0
 16
0.0
 26
0.0
 36
1.0
 17
0.0
 27
0.0
 37
0.0
 40
113.8984984766318
 41
1.411612903225806
 42
50.0
 43
0.0
 44
0.0
 50
0.0
 51
0.0
 71
     0
 72
  1000
 73
     1
 74
     2
 75
     0
 76
     0
 77
     0
 78
     0
281
     0
 65
     1
110
0.0
120
0.0
130
0.0
111
1.0
121
0.0
131
0.0
112
0.0
122
1.0
132
0.0
 79
     0
146
0.0
  0
ENDTAB
  0
TABLE
  2
LTYPE
  5
16
330
0
100
AcDbSymbolTable
 70
     2
  0
LTYPE
  5
17
330
16
100
AcDbSymbolTableRecord
100
AcDbLinetypeTableRecord
  2
ByBlock
 70
     0
  3

 72
    65
 73
     0
 40
0.0
  0
LTYPE
  5
18
330
16
100
AcDbSymbolTableRecord
100
AcDbLinetypeTableRecord
  2
ByLayer
 70
     0
  3

 72
    65
 73
     0
 40
0.0
  0
LTYPE
  5
8
330
16
100
AcDbSymbolTableRecord
100
AcDbLinetypeTableRecord
  2
Continuous
 70
     0
  3
Solid line
 72
    65
 73
     0
 40
0.0
  0
LTYPE
  5
3EA
330
16
100
AcDbSymbolTableRecord
100
AcDbLinetypeTableRecord
  2
PHANTOM
 70
     0
  3
Phantom
 72
    65
 73
     6
 40
13.0
 49
10.0
 74
     0
 49
-1.0
 74
     0
 49
0.0
 74
     0
 49
-1.0
 74
     0
 49
0.0
 74
     0
 49
-1.0
 74
     0
  0
ENDTAB
  0
TABLE
  2
LAYER
  5
10
102
{ACAD_XDICTIONARY
360
11
102
}
330
0
100
AcDbSymbolTable
 70
     7
  0
LAYER
  5
4
330
10
100
AcDbSymbolTableRecord
100
AcDbLayerTableRecord
  2
0
 70
     0
 62
     7
  6
Continuous
370
    -3
390
5
  0
LAYER
  5
448
330
10
100
AcDbSymbolTableRecord
100
AcDbLayerTableRecord
  2
WAKU
 70
     0
 62
     4
  6
Continuous
370
    -3
390
5
  0
LAYER
  5
30
330
10
100
AcDbSymbolTableRecord
100
AcDbLayerTableRecord
  2
MOJI1
 70
     0
 62
     2
  6
Continuous
370
    -3
390
5
  0
LAYER
  5
33
330
10
100
AcDbSymbolTableRecord
100
AcDbLayerTableRecord
  2
TOUROKU
 70
     0
 62
     1
  6
Continuous
370
    -3
390
5
  0
LAYER
  5
2D
330
10
100
AcDbSymbolTableRecord
100
AcDbLayerTableRecord
  2
GAIKEI
 70
     0
 62
     7
  6
Continuous
370
    -3
390
5
  0
LAYER
  5
425
330
10
100
AcDbSymbolTableRecord
100
AcDbLayerTableRecord
  2
Defpoints
 70
     0
 62
     7
  6
Continuous
290
     0
370
    -3
390
5
  0
LAYER
  5
41B
330
10
100
AcDbSymbolTableRecord
100
AcDbLayerTableRecord
  2
SUNPO
 70
     0
 62
     3
  6
Continuous
370
    -3
390
5
  0
ENDTAB
  0
TABLE
  2
STYLE
  5
13
330
0
100
AcDbSymbolTable
 70
     2
  0
STYLE
  5
14
330
13
100
AcDbSymbolTableRecord
100
AcDbTextStyleTableRecord
  2
Standard
 70
     0
 40
0.0
 41
1.0
 50
0.0
 71
     0
 42
2.5
  3
MONOTXT.shx
  4
BIGFONT.shx
  0
STYLE
  5
31
330
13
100
AcDbSymbolTableRecord
100
AcDbTextStyleTableRecord
  2
KANJI
 70
     0
 40
0.0
 41
1.0
 50
0.0
 71
     0
 42
3.5
  3
MONOTXT
  4
BIGFONT
  0
ENDTAB
  0
TABLE
  2
VIEW
  5
19
330
0
100
AcDbSymbolTable
 70
     0
  0
ENDTAB
  0
TABLE
  2
UCS
  5
1A
330
0
100
AcDbSymbolTable
 70
     0
  0
ENDTAB
  0
TABLE
  2
APPID
  5
1D
330
0
100
AcDbSymbolTable
 70
     1
  0
APPID
  5
1E
330
1D
100
AcDbSymbolTableRecord
100
AcDbRegAppTableRecord
  2
ACAD
 70
     0
  0
ENDTAB
  0
TABLE
  2
DIMSTYLE
  5
1F
330
0
100
AcDbSymbolTable
 70
     1
100
AcDbDimStyleTable
 71
     1
340
20
  0
DIMSTYLE
105
20
102
{ACAD_REACTORS
330
436
330
429
330
41A
102
}
330
1F
100
AcDbSymbolTableRecord
100
AcDbDimStyleTableRecord
  2
STANDARD
 70
     0
 40
0.0
 41
2.0
 42
2.0
 43
8.0
 44
2.0
 73
     0
 74
     0
 77
     3
140
3.0
141
0.0
173
     1
279
     2
288
     1
340
14
341
21
343
21
344
21
  0
ENDTAB
  0
TABLE
  2
BLOCK_RECORD
  5
1
330
0
100
AcDbSymbolTable
 70
     7
  0
BLOCK_RECORD
  5
2
330
1
100
AcDbSymbolTableRecord
100
AcDbBlockTableRecord
  2
*Model_Space
340
A
  0
BLOCK_RECORD
  5
C
330
1
100
AcDbSymbolTableRecord
100
AcDbBlockTableRecord
  2
*Paper_Space
340
F
  0
BLOCK_RECORD
  5
21
330
1
100
AcDbSymbolTableRecord
100
AcDbBlockTableRecord
  2
_OPEN30
340
0
102
{BLKREFS
331
421
331
422
331
42F
331
430
331
43C
331
43D
331
46A
331
46B
331
476
331
477
331
482
331
483
102
}
  0
BLOCK_RECORD
  5
41C
330
1
100
AcDbSymbolTableRecord
100
AcDbBlockTableRecord
  2
*D1
340
0
  0
BLOCK_RECORD
  5
42A
330
1
100
AcDbSymbolTableRecord
100
AcDbBlockTableRecord
  2
*D2
340
0
  0
BLOCK_RECORD
  5
437
330
1
100
AcDbSymbolTableRecord
100
AcDbBlockTableRecord
  2
*D3
340
0
  0
BLOCK_RECORD
  5
466
330
1
100
AcDbSymbolTableRecord
100
AcDbBlockTableRecord
  2
*D4
340
0
  0
BLOCK_RECORD
  5
472
330
1
100
AcDbSymbolTableRecord
100
AcDbBlockTableRecord
  2
*D5
340
0
  0
BLOCK_RECORD
  5
47E
330
1
100
AcDbSymbolTableRecord
100
AcDbBlockTableRecord
  2
*D6
340
0
  0
ENDTAB
  0
ENDSEC
  0
SECTION
  2
BLOCKS
  0
BLOCK
  5
3
330
2
100
AcDbEntity
  8
0
100
AcDbBlockBegin
  2
*Model_Space
 70
     0
 10
0.0
 20
0.0
 30
0.0
  3
*Model_Space
  1

  0
ENDBLK
  5
9
330
2
100
AcDbEntity
  8
0
100
AcDbBlockEnd
  0
BLOCK
  5
D
330
C
100
AcDbEntity
 67
     1
  8
0
100
AcDbBlockBegin
  2
*Paper_Space
 70
     0
 10
0.0
 20
0.0
 30
0.0
  3
*Paper_Space
  1

  0
ENDBLK
  5
E
330
C
100
AcDbEntity
 67
     1
  8
0
100
AcDbBlockEnd
  0
BLOCK
  5
22
330
21
100
AcDbEntity
  8
0
100
AcDbBlockBegin
  2
_OPEN30
 70
     0
 10
0.0
 20
0.0
 30
0.0
  3
_OPEN30
  1

  0
LINE
  5
23
330
21
100
AcDbEntity
  8
0
  6
ByBlock
 62
     0
100
AcDbLine
 10
-1.0
 20
0.26794919
 30
0.0
 11
0.0
 21
0.0
 31
0.0
  0
LINE
  5
24
330
21
100
AcDbEntity
  8
0
  6
ByBlock
 62
     0
100
AcDbLine
 10
0.0
 20
0.0
 30
0.0
 11
-1.0
 21
-0.26794919
 31
0.0
  0
LINE
  5
25
330
21
100
AcDbEntity
  8
0
  6
ByBlock
 62
     0
100
AcDbLine
 10
0.0
 20
0.0
 30
0.0
 11
-1.0
 21
0.0
 31
0.0
  0
ENDBLK
  5
26
330
21
100
AcDbEntity
  8
0
100
AcDbBlockEnd
  0
BLOCK
  5
41D
330
41C
100
AcDbEntity
  8
0
100
AcDbBlockBegin
  2
*D1
 70
     1
 10
0.0
 20
0.0
 30
0.0
  3
*D1
  1

  0
LINE
  5
41E
330
41C
100
AcDbEntity
  8
SUNPO
 62
     0
370
    -2
100
AcDbLine
 10
8.605820203807525
 20
97.35404148810495
 30
0.0
 11
8.605820203807525
 21
105.3540414881049
 31
0.0
  0
LINE
  5
41F
330
41C
100
AcDbEntity
  8
SUNPO
 62
     0
370
    -2
100
AcDbLine
 10
61.60582020380752
 20
97.35404148810495
 30
0.0
 11
61.60582020380752
 21
105.3540414881049
 31
0.0
  0
LINE
  5
420
330
41C
100
AcDbEntity
  8
SUNPO
 62
     0
370
    -2
100
AcDbLine
 10
10.60582020380752
 20
103.3540414881049
 30
0.0
 11
59.60582020380752
 21
103.3540414881049
 31
0.0
  0
INSERT
  5
421
330
41C
100
AcDbEntity
  8
SUNPO
 62
     0
370
    -2
100
AcDbBlockReference
  2
_OPEN30
 10
8.605820203807525
 20
103.3540414881049
 30
0.0
 41
2.0
 42
2.0
 43
2.0
 50
180.0
  0
INSERT
  5
422
330
41C
100
AcDbEntity
  8
SUNPO
 62
     0
370
    -2
100
AcDbBlockReference
  2
_OPEN30
 10
61.60582020380752
 20
103.3540414881049
 30
0.0
 41
2.0
 42
2.0
 43
2.0
  0
MTEXT
  5
423
330
41C
100
AcDbEntity
  8
SUNPO
 62
     0
100
AcDbMText
 10
35.10582020380752
 20
105.1040414881049
 30
0.0
 40
2.5
 41
0.0
 71
     5
 72
     1
  1
\A1;約530
 73
     1
 44
1.0
1001
ACAD
1000
MTEXTBEGIN
1070
    73
1070
     1
1070
    44
1040
1.0
1070
    74
1070
     0
1000
MTEXTEND
  0
POINT
  5
424
330
41C
100
AcDbEntity
  8
Defpoints
 62
     0
100
AcDbPoint
 10
8.605820203807525
 20
95.35404148810494
 30
0.0
  0
POINT
  5
426
330
41C
100
AcDbEntity
  8
Defpoints
 62
     0
100
AcDbPoint
 10
61.60582020380752
 20
95.35404148810494
 30
0.0
  0
POINT
  5
427
330
41C
100
AcDbEntity
  8
Defpoints
 62
     0
100
AcDbPoint
 10
61.60582020380752
 20
103.3540414881049
 30
0.0
  0
ENDBLK
  5
428
330
41C
100
AcDbEntity
  8
0
100
AcDbBlockEnd
  0
BLOCK
  5
42B
330
42A
100
AcDbEntity
  8
0
100
AcDbBlockBegin
  2
*D2
 70
     1
 10
0.0
 20
0.0
 30
0.0
  3
*D2
  1

  0
LINE
  5
42C
330
42A
100
AcDbEntity
  8
SUNPO
 62
     0
370
    -2
100
AcDbLine
 10
63.53902628624496
 20
50.91596802771755
 30
0.0
 11
71.53902628624504
 21
50.91596802771755
 31
0.0
  0
LINE
  5
42D
330
42A
100
AcDbEntity
  8
SUNPO
 62
     0
370
    -2
100
AcDbLine
 10
63.53902628624496
 20
95.34082299050828
 30
0.0
 11
71.53902628624504
 21
95.34082299050828
 31
0.0
  0
LINE
  5
42E
330
42A
100
AcDbEntity
  8
SUNPO
 62
     0
370
    -2
100
AcDbLine
 10
69.53902628624504
 20
52.91596802771755
 30
0.0
 11
69.53902628624504
 21
93.34082299050828
 31
0.0
  0
INSERT
  5
42F
330
42A
100
AcDbEntity
  8
SUNPO
 62
     0
370
    -2
100
AcDbBlockReference
  2
_OPEN30
 10
69.53902628624504
 20
50.91596802771755
 30
0.0
 41
2.0
 42
2.0
 43
2.0
 50
270.0
  0
INSERT
  5
430
330
42A
100
AcDbEntity
  8
SUNPO
 62
     0
370
    -2
100
AcDbBlockReference
  2
_OPEN30
 10
69.53902628624504
 20
95.34082299050828
 30
0.0
 41
2.0
 42
2.0
 43
2.0
 50
90.0
  0
MTEXT
  5
431
330
42A
100
AcDbEntity
  8
SUNPO
 62
     0
100
AcDbMText
 10
67.78902628624503
 20
73.12839550911293
 30
0.0
 40
2.5
 41
0.0
 71
     5
 72
     1
  1
\A1;約445
 11
0.0000000000000001
 21
1.0
 31
0.0
 73
     1
 44
1.0
1001
ACAD
1000
MTEXTBEGIN
1070
    73
1070
     1
1070
    44
1040
1.0
1070
    74
1070
     0
1000
MTEXTEND
  0
POINT
  5
432
330
42A
100
AcDbEntity
  8
Defpoints
 62
     0
100
AcDbPoint
 10
61.53902628624496
 20
50.91596802771755
 30
0.0
  0
POINT
  5
433
330
42A
100
AcDbEntity
  8
Defpoints
 62
     0
100
AcDbPoint
 10
61.53902628624496
 20
95.34082299050828
 30
0.0
  0
POINT
  5
434
330
42A
100
AcDbEntity
  8
Defpoints
 62
     0
100
AcDbPoint
 10
69.53902628624504
 20
95.34082299050828
 30
0.0
  0
ENDBLK
  5
435
330
42A
100
AcDbEntity
  8
0
100
AcDbBlockEnd
  0
BLOCK
  5
438
330
437
100
AcDbEntity
  8
0
100
AcDbBlockBegin
  2
*D3
 70
     1
 10
0.0
 20
0.0
 30
0.0
  3
*D3
  1

  0
LINE
  5
439
330
437
100
AcDbEntity
  8
SUNPO
 62
     0
370
    -2
100
AcDbLine
 10
79.90936914551776
 20
97.35404148810495
 30
0.0
 11
79.90936914551776
 21
105.3540414881049
 31
0.0
  0
LINE
  5
43A
330
437
100
AcDbEntity
  8
SUNPO
 62
     0
370
    -2
100
AcDbLine
 10
118.8093811455164
 20
97.35404148810495
 30
0.0
 11
118.8093811455164
 21
105.3540414881049
 31
0.0
  0
LINE
  5
43B
330
437
100
AcDbEntity
  8
SUNPO
 62
     0
370
    -2
100
AcDbLine
 10
81.90936914551775
 20
103.3540414881049
 30
0.0
 11
116.8093811455164
 21
103.3540414881049
 31
0.0
  0
INSERT
  5
43C
330
437
100
AcDbEntity
  8
SUNPO
 62
     0
370
    -2
100
AcDbBlockReference
  2
_OPEN30
 10
79.90936914551776
 20
103.3540414881049
 30
0.0
 41
2.0
 42
2.0
 43
2.0
 50
180.0
  0
INSERT
  5
43D
330
437
100
AcDbEntity
  8
SUNPO
 62
     0
370
    -2
100
AcDbBlockReference
  2
_OPEN30
 10
118.8093811455164
 20
103.3540414881049
 30
0.0
 41
2.0
 42
2.0
 43
2.0
  0
MTEXT
  5
43E
330
437
100
AcDbEntity
  8
SUNPO
 62
     0
100
AcDbMText
 10
99.3593751455171
 20
105.1040414881049
 30
0.0
 40
2.5
 41
0.0
 71
     5
 72
     1
  1
\A1;約389
 73
     1
 44
1.0
1001
ACAD
1000
MTEXTBEGIN
1070
    73
1070
     1
1070
    44
1040
1.0
1070
    74
1070
     0
1000
MTEXTEND
  0
POINT
  5
43F
330
437
100
AcDbEntity
  8
Defpoints
 62
     0
100
AcDbPoint
 10
79.90936914551776
 20
95.35404148810494
 30
0.0
  0
POINT
  5
440
330
437
100
AcDbEntity
  8
Defpoints
 62
     0
100
AcDbPoint
 10
118.8093811455164
 20
95.35404148810494
 30
0.0
  0
POINT
  5
441
330
437
100
AcDbEntity
  8
Defpoints
 62
     0
100
AcDbPoint
 10
118.8093811455164
 20
103.3540414881049
 30
0.0
  0
ENDBLK
  5
442
330
437
100
AcDbEntity
  8
0
100
AcDbBlockEnd
  0
BLOCK
  5
470
330
466
100
AcDbEntity
  8
0
100
AcDbBlockBegin
  2
*D4
 70
     1
 10
0.0
 20
0.0
 30
0.0
  3
*D4
  1

  0
LINE
  5
467
330
466
100
AcDbEntity
  8
SUNPO
 62
     0
370
    -2
100
AcDbLine
 10
15.17471711101393
 20
26.32180223249611
 30
0.0
 11
15.17471711101393
 21
34.32180223249611
 31
0.0
  0
LINE
  5
468
330
466
100
AcDbEntity
  8
SUNPO
 62
     0
370
    -2
100
AcDbLine
 10
54.07472911101263
 20
26.32180223249611
 30
0.0
 11
54.07472911101263
 21
34.32180223249611
 31
0.0
  0
LINE
  5
469
330
466
100
AcDbEntity
  8
SUNPO
 62
     0
370
    -2
100
AcDbLine
 10
17.17471711101393
 20
32.32180223249611
 30
0.0
 11
52.07472911101262
 21
32.32180223249611
 31
0.0
  0
INSERT
  5
46A
330
466
100
AcDbEntity
  8
SUNPO
 62
     0
370
    -2
100
AcDbBlockReference
  2
_OPEN30
 10
15.17471711101393
 20
32.32180223249611
 30
0.0
 41
2.0
 42
2.0
 43
2.0
 50
180.0
  0
INSERT
  5
46B
330
466
100
AcDbEntity
  8
SUNPO
 62
     0
370
    -2
100
AcDbBlockReference
  2
_OPEN30
 10
54.07472911101263
 20
32.32180223249611
 30
0.0
 41
2.0
 42
2.0
 43
2.0
  0
MTEXT
  5
46C
330
466
100
AcDbEntity
  8
SUNPO
 62
     0
100
AcDbMText
 10
34.62472311101328
 20
34.07180223249611
 30
0.0
 40
2.5
 41
0.0
 71
     5
 72
     1
  1
\A1;約389
 73
     1
 44
1.0
1001
ACAD
1000
MTEXTBEGIN
1070
    73
1070
     1
1070
    44
1040
1.0
1070
    74
1070
     0
1000
MTEXTEND
  0
POINT
  5
46D
330
466
100
AcDbEntity
  8
Defpoints
 62
     0
100
AcDbPoint
 10
15.17471711101393
 20
24.32180223249611
 30
0.0
  0
POINT
  5
46E
330
466
100
AcDbEntity
  8
Defpoints
 62
     0
100
AcDbPoint
 10
54.07472911101263
 20
24.32180223249611
 30
0.0
  0
POINT
  5
46F
330
466
100
AcDbEntity
  8
Defpoints
 62
     0
100
AcDbPoint
 10
54.07472911101263
 20
32.32180223249611
 30
0.0
  0
ENDBLK
  5
471
330
466
100
AcDbEntity
  8
0
100
AcDbBlockEnd
  0
BLOCK
  5
47C
330
472
100
AcDbEntity
  8
0
100
AcDbBlockBegin
  2
*D5
 70
     1
 10
0.0
 20
0.0
 30
0.0
  3
*D5
  1

  0
LINE
  5
473
330
472
100
AcDbEntity
  8
SUNPO
 62
     0
370
    -2
100
AcDbLine
 10
-1.195625748258862
 20
-20.11627122789128
 30
0.0
 11
6.804374251741212
 21
-20.11627122789128
 31
0.0
  0
LINE
  5
474
330
472
100
AcDbEntity
  8
SUNPO
 62
     0
370
    -2
100
AcDbLine
 10
-1.195625748258862
 20
24.30858373489946
 30
0.0
 11
6.804374251741222
 21
24.30858373489946
 31
0.0
  0
LINE
  5
475
330
472
100
AcDbEntity
  8
SUNPO
 62
     0
370
    -2
100
AcDbLine
 10
4.804374251741212
 20
-18.11627122789127
 30
0.0
 11
4.804374251741222
 21
22.30858373489946
 31
0.0
  0
INSERT
  5
476
330
472
100
AcDbEntity
  8
SUNPO
 62
     0
370
    -2
100
AcDbBlockReference
  2
_OPEN30
 10
4.804374251741212
 20
-20.11627122789128
 30
0.0
 41
2.0
 42
2.0
 43
2.0
 50
270.0
  0
INSERT
  5
477
330
472
100
AcDbEntity
  8
SUNPO
 62
     0
370
    -2
100
AcDbBlockReference
  2
_OPEN30
 10
4.804374251741222
 20
24.30858373489946
 30
0.0
 41
2.0
 42
2.0
 43
2.0
 50
90.0
  0
MTEXT
  5
478
330
472
100
AcDbEntity
  8
SUNPO
 62
     0
100
AcDbMText
 10
3.054374251741217
 20
2.096156253504091
 30
0.0
 40
2.5
 41
0.0
 71
     5
 72
     1
  1
\A1;約445
 11
0.0000000000000001
 21
1.0
 31
0.0
 73
     1
 44
1.0
1001
ACAD
1000
MTEXTBEGIN
1070
    73
1070
     1
1070
    44
1040
1.0
1070
    74
1070
     0
1000
MTEXTEND
  0
POINT
  5
479
330
472
100
AcDbEntity
  8
Defpoints
 62
     0
100
AcDbPoint
 10
-3.195625748258862
 20
-20.11627122789128
 30
0.0
  0
POINT
  5
47A
330
472
100
AcDbEntity
  8
Defpoints
 62
     0
100
AcDbPoint
 10
-3.195625748258862
 20
24.30858373489946
 30
0.0
  0
POINT
  5
47B
330
472
100
AcDbEntity
  8
Defpoints
 62
     0
100
AcDbPoint
 10
4.804374251741222
 20
24.30858373489946
 30
0.0
  0
ENDBLK
  5
47D
330
472
100
AcDbEntity
  8
0
100
AcDbBlockEnd
  0
BLOCK
  5
488
330
47E
100
AcDbEntity
  8
0
100
AcDbBlockBegin
  2
*D6
 70
     1
 10
0.0
 20
0.0
 30
0.0
  3
*D6
  1

  0
LINE
  5
47F
330
47E
100
AcDbEntity
  8
SUNPO
 62
     0
370
    -2
100
AcDbLine
 10
-56.1288318306963
 20
26.32180223249611
 30
0.0
 11
-56.1288318306963
 21
34.32180223249611
 31
0.0
  0
LINE
  5
480
330
47E
100
AcDbEntity
  8
SUNPO
 62
     0
370
    -2
100
AcDbLine
 10
-3.128831830696299
 20
26.32180223249611
 30
0.0
 11
-3.128831830696298
 21
34.32180223249611
 31
0.0
  0
LINE
  5
481
330
47E
100
AcDbEntity
  8
SUNPO
 62
     0
370
    -2
100
AcDbLine
 10
-54.1288318306963
 20
32.32180223249611
 30
0.0
 11
-5.128831830696299
 21
32.32180223249611
 31
0.0
  0
INSERT
  5
482
330
47E
100
AcDbEntity
  8
SUNPO
 62
     0
370
    -2
100
AcDbBlockReference
  2
_OPEN30
 10
-56.1288318306963
 20
32.32180223249611
 30
0.0
 41
2.0
 42
2.0
 43
2.0
 50
180.0
  0
INSERT
  5
483
330
47E
100
AcDbEntity
  8
SUNPO
 62
     0
370
    -2
100
AcDbBlockReference
  2
_OPEN30
 10
-3.128831830696298
 20
32.32180223249611
 30
0.0
 41
2.0
 42
2.0
 43
2.0
  0
MTEXT
  5
484
330
47E
100
AcDbEntity
  8
SUNPO
 62
     0
100
AcDbMText
 10
-29.6288318306963
 20
34.07180223249611
 30
0.0
 40
2.5
 41
0.0
 71
     5
 72
     1
  1
\A1;約530
 73
     1
 44
1.0
1001
ACAD
1000
MTEXTBEGIN
1070
    73
1070
     1
1070
    44
1040
1.0
1070
    74
1070
     0
1000
MTEXTEND
  0
POINT
  5
485
330
47E
100
AcDbEntity
  8
Defpoints
 62
     0
100
AcDbPoint
 10
-56.1288318306963
 20
24.32180223249611
 30
0.0
  0
POINT
  5
486
330
47E
100
AcDbEntity
  8
Defpoints
 62
     0
100
AcDbPoint
 10
-3.128831830696299
 20
24.32180223249611
 30
0.0
  0
POINT
  5
487
330
47E
100
AcDbEntity
  8
Defpoints
 62
     0
100
AcDbPoint
 10
-3.128831830696298
 20
32.32180223249611
 30
0.0
  0
ENDBLK
  5
489
330
47E
100
AcDbEntity
  8
0
100
AcDbBlockEnd
  0
ENDSEC
  0
SECTION
  2
ENTITIES
  0
TEXT
  5
2F
330
2
100
AcDbEntity
  8
MOJI1
100
AcDbText
 10
-35.23465209046265
 20
43.46859586932566
 30
0.0
 40
4.0
  1
大型機種増設バッテリーキャビネット
  7
KANJI
100
AcDbText
  0
TEXT
  5
32
330
2
100
AcDbEntity
  8
TOUROKU
100
AcDbText
 10
49.16529794246454
 20
37.4685958693255
 30
0.0
 40
2.0
  1
ＶＢＤ９９８
 72
     2
 11
62.76529794246454
 21
37.4685958693255
 31
0.0
100
AcDbText
  0
ARC
  5
34
330
2
100
AcDbEntity
  8
GAIKEI
  6
Continuous
 62
     1
100
AcDbCircle
 10
22.57471711101402
 20
-18.91626033289026
 30
0.0
 40
0.2
100
AcDbArc
 50
180.0
 51
270.0
  0
ARC
  5
35
330
2
100
AcDbEntity
  8
GAIKEI
  6
Continuous
 62
     1
100
AcDbCircle
 10
22.57471711101402
 20
-8.816260332890351
 30
0.0
 40
0.2
100
AcDbArc
 50
90.0
 51
180.0
  0
ARC
  5
36
330
2
100
AcDbEntity
  8
GAIKEI
  6
Continuous
 62
     1
100
AcDbCircle
 10
25.77471711101384
 20
-8.816260332890351
 30
0.0
 40
0.2
100
AcDbArc
 50
0.0
 51
90.0
  0
ARC
  5
37
330
2
100
AcDbEntity
  8
GAIKEI
  6
Continuous
 62
     1
100
AcDbCircle
 10
25.77471711101384
 20
-18.91626033289049
 30
0.0
 40
0.1999999999999091
100
AcDbArc
 50
270.0
 51
0.0000000000260551
  0
ARC
  5
38
330
2
100
AcDbEntity
  8
GAIKEI
  6
Continuous
 62
     1
100
AcDbCircle
 10
54.25472911101292
 20
10.5337396571108
 30
0.0
 40
0.05
100
AcDbArc
 50
0.0
 51
90.0
  0
ARC
  5
39
330
2
100
AcDbEntity
  8
GAIKEI
  6
Continuous
 62
     1
100
AcDbCircle
 10
54.25472911101292
 20
10.33373965711098
 30
0.0
 40
0.05
100
AcDbArc
 50
270.0
 51
0.0
  0
ARC
  5
3A
330
2
100
AcDbEntity
  8
GAIKEI
  6
Continuous
 62
     1
100
AcDbCircle
 10
54.25472911101292
 20
9.233739657111527
 30
0.0
 40
0.05
100
AcDbArc
 50
0.0
 51
90.0
  0
ARC
  5
3B
330
2
100
AcDbEntity
  8
GAIKEI
  6
Continuous
 62
     1
100
AcDbCircle
 10
54.25472911101292
 20
9.033739657111482
 30
0.0
 40
0.05
100
AcDbArc
 50
270.0
 51
0.0
  0
ARC
  5
3C
330
2
100
AcDbEntity
  8
GAIKEI
  6
Continuous
 62
     1
100
AcDbCircle
 10
54.07472911101308
 20
17.18171965911096
 30
0.0
 40
0.1
100
AcDbArc
 50
0.0
 51
88.85423716179806
  0
ARC
  5
3D
330
2
100
AcDbEntity
  8
GAIKEI
  6
Continuous
 62
     1
100
AcDbCircle
 10
54.07472911101263
 20
2.385759675111785
 30
0.0
 40
0.1000000000000982
100
AcDbArc
 50
271.1457628381499
 51
359.9999999999349
  0
ARC
  5
3E
330
2
100
AcDbEntity
  8
GAIKEI
  6
Continuous
 62
     1
100
AcDbCircle
 10
54.25472911101292
 20
12.63373965711116
 30
0.0
 40
0.05
100
AcDbArc
 50
0.0
 51
90.0
  0
ARC
  5
3F
330
2
100
AcDbEntity
  8
GAIKEI
  6
Continuous
 62
     1
100
AcDbCircle
 10
54.25472911101292
 20
12.43373965711112
 30
0.0
 40
0.05
100
AcDbArc
 50
270.0
 51
0.0
  0
ARC
  5
40
330
2
100
AcDbEntity
  8
GAIKEI
  6
Continuous
 62
     1
100
AcDbCircle
 10
54.25472911101292
 20
13.83373965711121
 30
0.0
 40
0.05
100
AcDbArc
 50
0.0
 51
90.0
  0
ARC
  5
41
330
2
100
AcDbEntity
  8
GAIKEI
  6
Continuous
 62
     1
100
AcDbCircle
 10
54.25472911101292
 20
13.63373965711116
 30
0.0
 40
0.05
100
AcDbArc
 50
270.0
 51
0.0
  0
ARC
  5
42
330
2
100
AcDbEntity
  8
GAIKEI
  6
Continuous
 62
     1
100
AcDbCircle
 10
54.25472911101292
 20
15.9837396571113
 30
0.0
 40
0.05
100
AcDbArc
 50
0.0
 51
90.0
  0
ARC
  5
43
330
2
100
AcDbEntity
  8
GAIKEI
  6
Continuous
 62
     1
100
AcDbCircle
 10
54.25472911101292
 20
15.78373965711125
 30
0.0
 40
0.05
100
AcDbArc
 50
270.0
 51
0.0
  0
ARC
  5
44
330
2
100
AcDbEntity
  8
GAIKEI
  6
Continuous
 62
     1
100
AcDbCircle
 10
54.25472911101292
 20
3.583739657111209
 30
0.0
 40
0.05
100
AcDbArc
 50
270.0
 51
0.0
  0
ARC
  5
45
330
2
100
AcDbEntity
  8
GAIKEI
  6
Continuous
 62
     1
100
AcDbCircle
 10
54.25472911101292
 20
3.783739657111254
 30
0.0
 40
0.05
100
AcDbArc
 50
0.0
 51
90.0
  0
ARC
  5
46
330
2
100
AcDbEntity
  8
GAIKEI
  6
Continuous
 62
     1
100
AcDbCircle
 10
54.25472911101292
 20
5.7337396571113
 30
0.0
 40
0.05
100
AcDbArc
 50
270.0
 51
0.0
  0
ARC
  5
47
330
2
100
AcDbEntity
  8
GAIKEI
  6
Continuous
 62
     1
100
AcDbCircle
 10
54.25472911101292
 20
5.933739657111345
 30
0.0
 40
0.05
100
AcDbArc
 50
0.0
 51
90.0
  0
ARC
  5
48
330
2
100
AcDbEntity
  8
GAIKEI
  6
Continuous
 62
     1
100
AcDbCircle
 10
54.25472911101292
 20
6.933739657111345
 30
0.0
 40
0.05
100
AcDbArc
 50
270.0
 51
0.0
  0
ARC
  5
49
330
2
100
AcDbEntity
  8
GAIKEI
  6
Continuous
 62
     1
100
AcDbCircle
 10
54.25472911101292
 20
7.133739657111391
 30
0.0
 40
0.05
100
AcDbArc
 50
0.0
 51
90.0
  0
ARC
  5
4A
330
2
100
AcDbEntity
  8
GAIKEI
  6
Continuous
 62
     1
100
AcDbCircle
 10
54.25472911101292
 20
-8.366260342888608
 30
0.0
 40
0.05
100
AcDbArc
 50
0.0
 51
90.0
  0
ARC
  5
4B
330
2
100
AcDbEntity
  8
GAIKEI
  6
Continuous
 62
     1
100
AcDbCircle
 10
54.25472911101292
 20
-8.566260342888654
 30
0.0
 40
0.05
100
AcDbArc
 50
270.0
 51
0.0
  0
ARC
  5
4C
330
2
100
AcDbEntity
  8
GAIKEI
  6
Continuous
 62
     1
100
AcDbCircle
 10
54.25472911101292
 20
-9.566260342888654
 30
0.0
 40
0.05
100
AcDbArc
 50
0.0
 51
90.0
  0
ARC
  5
4D
330
2
100
AcDbEntity
  8
GAIKEI
  6
Continuous
 62
     1
100
AcDbCircle
 10
54.25472911101292
 20
-9.766260342888699
 30
0.0
 40
0.05
100
AcDbArc
 50
270.0
 51
0.0
  0
ARC
  5
4E
330
2
100
AcDbEntity
  8
GAIKEI
  6
Continuous
 62
     1
100
AcDbCircle
 10
54.25472911101292
 20
-11.71626034288874
 30
0.0
 40
0.05
100
AcDbArc
 50
0.0
 51
90.0
  0
ARC
  5
4F
330
2
100
AcDbEntity
  8
GAIKEI
  6
Continuous
 62
     1
100
AcDbCircle
 10
54.25472911101292
 20
-11.91626034288879
 30
0.0
 40
0.05
100
AcDbArc
 50
270.0
 51
0.0
  0
ARC
  5
50
330
2
100
AcDbEntity
  8
GAIKEI
  6
Continuous
 62
     1
100
AcDbCircle
 10
54.25472911101292
 20
0.2837396571112549
 30
0.0
 40
0.05
100
AcDbArc
 50
270.0
 51
0.0
  0
ARC
  5
51
330
2
100
AcDbEntity
  8
GAIKEI
  6
Continuous
 62
     1
100
AcDbCircle
 10
54.25472911101292
 20
0.4837396571113004
 30
0.0
 40
0.05
100
AcDbArc
 50
0.0
 51
90.0
  0
ARC
  5
52
330
2
100
AcDbEntity
  8
GAIKEI
  6
Continuous
 62
     1
100
AcDbCircle
 10
54.25472911101292
 20
-1.866260342888836
 30
0.0
 40
0.05
100
AcDbArc
 50
270.0
 51
0.0
  0
ARC
  5
53
330
2
100
AcDbEntity
  8
GAIKEI
  6
Continuous
 62
     1
100
AcDbCircle
 10
54.25472911101292
 20
-1.66626034288879
 30
0.0
 40
0.05
100
AcDbArc
 50
0.0
 51
90.0
  0
ARC
  5
54
330
2
100
AcDbEntity
  8
GAIKEI
  6
Continuous
 62
     1
100
AcDbCircle
 10
54.25472911101292
 20
-3.066260342888881
 30
0.0
 40
0.05
100
AcDbArc
 50
270.0
 51
0.0
  0
ARC
  5
55
330
2
100
AcDbEntity
  8
GAIKEI
  6
Continuous
 62
     1
100
AcDbCircle
 10
54.25472911101292
 20
-2.866260342888836
 30
0.0
 40
0.05
100
AcDbArc
 50
0.0
 51
90.0
  0
ARC
  5
56
330
2
100
AcDbEntity
  8
GAIKEI
  6
Continuous
 62
     1
100
AcDbCircle
 10
54.07472911101263
 20
-13.11424032488821
 30
0.0
 40
0.1000000000000982
100
AcDbArc
 50
271.1457628381499
 51
359.9999999998827
  0
ARC
  5
57
330
2
100
AcDbEntity
  8
GAIKEI
  6
Continuous
 62
     1
100
AcDbCircle
 10
54.07472911101308
 20
1.681719659110967
 30
0.0
 40
0.1
100
AcDbArc
 50
0.0
 51
88.85423716179806
  0
ARC
  5
58
330
2
100
AcDbEntity
  8
GAIKEI
  6
Continuous
 62
     1
100
AcDbCircle
 10
54.25472911101292
 20
-6.466260342888517
 30
0.0
 40
0.05
100
AcDbArc
 50
270.0
 51
0.0
  0
ARC
  5
59
330
2
100
AcDbEntity
  8
GAIKEI
  6
Continuous
 62
     1
100
AcDbCircle
 10
54.25472911101292
 20
-6.266260342888472
 30
0.0
 40
0.05
100
AcDbArc
 50
0.0
 51
90.0
  0
ARC
  5
5A
330
2
100
AcDbEntity
  8
GAIKEI
  6
Continuous
 62
     1
100
AcDbCircle
 10
54.25472911101292
 20
-5.166260342889017
 30
0.0
 40
0.05
100
AcDbArc
 50
270.0
 51
0.0
  0
ARC
  5
5B
330
2
100
AcDbEntity
  8
GAIKEI
  6
Continuous
 62
     1
100
AcDbCircle
 10
54.25472911101292
 20
-4.966260342889199
 30
0.0
 40
0.05
100
AcDbArc
 50
0.0
 51
90.0
  0
ARC
  5
5C
330
2
100
AcDbEntity
  8
GAIKEI
  6
Continuous
 62
     1
100
AcDbCircle
 10
19.13472911101303
 20
-20.7562463378888
 30
0.0
 40
0.1599999999999909
100
AcDbArc
 50
180.0
 51
270.0
  0
ARC
  5
5D
330
2
100
AcDbEntity
  8
GAIKEI
  6
Continuous
 62
     1
100
AcDbCircle
 10
52.41471511101349
 20
-20.75624633788857
 30
0.0
 40
0.1599999999999909
100
AcDbArc
 50
270.0
 51
0.0
  0
ARC
  5
5E
330
2
100
AcDbEntity
  8
GAIKEI
  6
Continuous
 62
     1
100
AcDbCircle
 10
26.67471711101348
 20
-18.91626033289026
 30
0.0
 40
0.1999999999998181
100
AcDbArc
 50
180.0
 51
270.0
  0
ARC
  5
5F
330
2
100
AcDbEntity
  8
GAIKEI
  6
Continuous
 62
     1
100
AcDbCircle
 10
30.42471711101348
 20
-18.91626033289026
 30
0.0
 40
0.1999999999994998
100
AcDbArc
 50
270.0
 51
0.0
  0
ARC
  5
60
330
2
100
AcDbEntity
  8
GAIKEI
  6
Continuous
 62
     1
100
AcDbCircle
 10
26.67471711101348
 20
-18.91626033289026
 30
0.0
 40
0.1999999999998181
100
AcDbArc
 50
180.0
 51
270.0
  0
ARC
  5
61
330
2
100
AcDbEntity
  8
GAIKEI
  6
Continuous
 62
     1
100
AcDbCircle
 10
30.42471711101348
 20
-7.366260332890306
 30
0.0
 40
0.1999999999996817
100
AcDbArc
 50
0.0
 51
90.0
  0
ARC
  5
62
330
2
100
AcDbEntity
  8
GAIKEI
  6
Continuous
 62
     1
100
AcDbCircle
 10
26.67471711101348
 20
-7.366260332890306
 30
0.0
 40
0.1999999999994998
100
AcDbArc
 50
90.0
 51
180.0
  0
SPLINE
  5
63
330
2
100
AcDbEntity
  8
GAIKEI
  6
Continuous
 62
     1
100
AcDbSpline
210
0.0
220
0.0
230
1.0
 70
     8
 71
     3
 72
    21
 73
    17
 74
    15
 42
0.0000000001
 43
0.0000000001
 44
0.00000001
 40
0.0
 40
0.0
 40
0.0
 40
0.0
 40
0.0062511561189445
 40
0.0126163073099794
 40
0.02005427446646
 40
0.0274323576703823
 40
0.0374435828981334
 40
0.0474817876933031
 40
0.0598294413579323
 40
0.0721668215730296
 40
0.0864542494003423
 40
0.1007452040614747
 40
0.1165495892551062
 40
0.1323528363188013
 40
0.1662850286086332
 40
0.2002172172959122
 40
0.2002172172959122
 40
0.2002172172959122
 40
0.2002172172959122
 10
19.90413833325397
 20
-20.09473178714507
 30
0.0
 10
19.90499645979439
 20
-20.09280642337665
 30
0.0
 10
19.90672837528174
 20
-20.08892059024217
 30
0.0
 10
19.90671509903214
 20
-20.08213039848368
 30
0.0
 10
19.90718649362722
 20
-20.0751147806941
 30
0.0
 10
19.90765183330494
 20
-20.0668428833331
 30
0.0
 10
19.90790642467063
 20
-20.05770562383012
 30
0.0
 10
19.90798319180068
 20
-20.04690579971015
 30
0.0
 10
19.90802047896336
 20
-20.03533173923371
 30
0.0
 10
19.90798174478394
 20
-20.02234076237083
 30
0.0
 10
19.90782899226205
 20
-20.0087029052542
 30
0.0
 10
19.90756336889588
 20
-19.99391095960489
 30
0.0
 10
19.90721399875565
 20
-19.97861535245556
 30
0.0
 10
19.90660762608611
 20
-19.95677712031042
 30
0.0
 10
19.90564991586828
 20
-19.92890377637779
 30
0.0
 10
19.9046384275905
 20
-19.90630483227476
 30
0.0
 10
19.90413269061969
 20
-19.89500536051582
 30
0.0
 11
19.90413833325397
 21
-20.09473178714507
 31
0.0
 11
19.90628547646179
 21
-20.08886095120897
 31
0.0
 11
19.90678306688801
 21
-20.08251527929179
 31
0.0
 11
19.90717470182767
 21
-20.07508762981297
 31
0.0
 11
19.90757285408858
 21
-20.06772029741251
 31
0.0
 11
19.9078716084116
 21
-20.05771353090404
 31
0.0
 11
19.90797187715702
 21
-20.04767582693512
 31
0.0
 11
19.9080077091337
 21
-20.03532822528723
 31
0.0
 11
19.90796801197916
 21
-20.02299090895167
 31
0.0
 11
19.9078129136376
 21
-20.00870432300371
 31
0.0
 11
19.90756137599669
 21
-19.99441558220451
 31
0.0
 11
19.90720101875627
 21
-19.97861530582122
 31
0.0
 11
19.90676432463874
 21
-19.9628180935365
 31
0.0
 11
19.90559123814978
 21
-19.92890618495312
 31
0.0
 11
19.90413269061969
 21
-19.89500536051582
 31
0.0
  0
SPLINE
  5
64
330
2
100
AcDbEntity
  8
GAIKEI
  6
Continuous
 62
     7
100
AcDbSpline
210
0.0
220
0.0
230
1.0
 70
     8
 71
     3
 72
    21
 73
    17
 74
    15
 42
0.0000000001
 43
0.0000000001
 44
0.00000001
 40
0.0
 40
0.0
 40
0.0
 40
0.0
 40
0.0516439251336265
 40
0.1032878448460985
 40
0.1273815664221584
 40
0.151476217504271
 40
0.1734361360403997
 40
0.195393137182644
 40
0.2145511886746535
 40
0.2337177703795983
 40
0.249523917264476
 40
0.2653074429008253
 40
0.2772473616743212
 40
0.289238700539138
 40
0.3003087527162043
 40
0.3112802508482162
 40
0.3112802508482162
 40
0.3112802508482162
 40
0.3112802508482162
 10
-13.25325917116765
 20
24.09907026151359
 30
0.0
 10
-13.23604444064923
 20
24.09912992455522
 30
0.0
 10
-13.20161498133365
 20
24.09924923648314
 30
0.0
 10
-13.15916024123353
 20
24.10005875698273
 30
0.0
 10
-13.12589620304531
 20
24.10100689419659
 30
0.0
 10
-13.10252818546622
 20
24.10184410571385
 30
0.0
 10
-13.07987865565533
 20
24.10282488748649
 30
0.0
 10
-13.05888211040858
 20
24.10392458144398
 30
0.0
 10
-13.03882707845886
 20
24.10518065554029
 30
0.0
 10
-13.02083176153002
 20
24.10649940317706
 30
0.0
 10
-13.00397044871167
 20
24.10791035510456
 30
0.0
 10
-12.98954124805667
 20
24.10942409758405
 30
0.0
 10
-12.97640451974413
 20
24.111142490498
 30
0.0
 10
-12.96490939504338
 20
24.11295746526457
 30
0.0
 10
-12.9535702210803
 20
24.11453943107844
 30
0.0
 10
-12.94693019794178
 20
24.11779524093015
 30
0.0
 10
-12.94362502822537
 20
24.11941586032731
 30
0.0
 11
-13.25325917116765
 21
24.09907026151359
 31
0.0
 11
-13.20161619896839
 21
24.09938351880737
 31
0.0
 11
-13.14998122090514
 21
24.10034450325247
 31
0.0
 11
-13.1258974319046
 21
24.10103625959141
 31
0.0
 11
-13.10181830078659
 21
24.10190093003417
 31
0.0
 11
-13.07987924944723
 21
24.10285803388388
 31
0.0
 11
-13.05795266055997
 21
24.10401328191119
 31
0.0
 11
-13.03883228895688
 21
24.10521425059028
 31
0.0
 11
-13.01971713550597
 21
24.10661737614101
 31
0.0
 11
-13.00396864232221
 21
24.10796616827429
 31
0.0
 11
-12.98827349270573
 21
24.10963408863791
 31
0.0
 11
-12.97643557201422
 21
24.11119142389839
 31
0.0
 11
-12.96457713133463
 21
24.11297175811956
 31
0.0
 11
-12.95371492578829
 21
24.11510683168126
 31
0.0
 11
-12.94362502822537
 21
24.11941586032731
 31
0.0
  0
SPLINE
  5
65
330
2
100
AcDbEntity
  8
GAIKEI
  6
Continuous
 62
     7
100
AcDbSpline
210
0.0
220
0.0
230
1.0
 70
     8
 71
     3
 72
    23
 73
    19
 74
    17
 42
0.0000000001
 43
0.0000000001
 44
0.00000001
 40
0.0
 40
0.0
 40
0.0
 40
0.0
 40
0.0097644226640317
 40
0.0198123758441114
 40
0.0310617143737694
 40
0.0421633186796303
 40
0.057204398691794
 40
0.0723116022290932
 40
0.0908587135154785
 40
0.1093807067050612
 40
0.1308208320750277
 40
0.1522695602722179
 40
0.1759808347086383
 40
0.1996893861847364
 40
0.2249494007144595
 40
0.2502102488761796
 40
0.2762587228060928
 40
0.302306923803412
 40
0.302306923803412
 40
0.302306923803412
 40
0.302306923803412
 10
-15.17883183069648
 20
24.12019727026177
 30
0.0
 10
-15.17619852921981
 20
24.11817354389591
 30
0.0
 10
-15.17085547067948
 20
24.11406731563952
 30
0.0
 10
-15.16025773945905
 20
24.1130419692548
 30
0.0
 10
-15.14969572394702
 20
24.1112179913999
 30
0.0
 10
-15.13734136199106
 20
24.1093832003227
 30
0.0
 10
-15.12368150385947
 20
24.10785789023305
 30
0.0
 10
-15.1075032026906
 20
24.1065029773267
 30
0.0
 10
-15.09016142749828
 20
24.10519028538805
 30
0.0
 10
-15.07069937310773
 20
24.10391580120485
 30
0.0
 10
-15.05025826472295
 20
24.10281626543018
 30
0.0
 10
-15.02807936373246
 20
24.10184169743796
 30
0.0
 10
-15.00513817231461
 20
24.101006356239
 30
0.0
 10
-14.98092159336948
 20
24.10030235524123
 30
0.0
 10
-14.95618430073375
 20
24.09975486156759
 30
0.0
 10
-14.93066406673306
 20
24.09936276662126
 30
0.0
 10
-14.90487915997449
 20
24.09911552659274
 30
0.0
 10
-14.88751357349208
 20
24.09908502809704
 30
0.0
 10
-14.87883082576059
 20
24.0990697721088
 30
0.0
 11
-15.17883183069648
 21
24.12019727026177
 31
0.0
 11
-15.1705878464229
 21
24.11496461840011
 31
0.0
 11
-15.16073960796279
 21
24.11297123979512
 31
0.0
 11
-15.14962263675738
 21
24.11125061011421
 31
0.0
 11
-15.13863943871888
 21
24.10963352050908
 31
0.0
 11
-15.12369524930704
 21
24.10792902956791
 31
0.0
 11
-15.10864514677382
 21
24.10661677547023
 31
0.0
 11
-15.09015063065021
 21
24.10522099293394
 31
0.0
 11
-15.07166809351133
 21
24.10401266694953
 31
0.0
 11
-15.05025943527175
 21
24.10285149200854
 31
0.0
 11
-15.02883180798312
 21
24.10190031946672
 31
0.0
 11
-15.00513631737408
 21
24.10103529954131
 31
0.0
 11
-14.98143784904891
 21
24.10034391563136
 31
0.0
 11
-14.95618405513573
 21
24.09978335616415
 31
0.0
 11
-14.93092625816848
 21
24.09939074598629
 31
0.0
 11
-14.90487890099871
 21
24.09914953690896
 31
0.0
 11
-14.87883082576059
 21
24.0990697721088
 31
0.0
  0
SPLINE
  5
66
330
2
100
AcDbEntity
  8
GAIKEI
  6
Continuous
 62
     7
100
AcDbSpline
210
0.0
220
0.0
230
1.0
 70
     8
 71
     3
 72
    21
 73
    17
 74
    15
 42
0.0000000001
 43
0.0000000001
 44
0.00000001
 40
0.0
 40
0.0
 40
0.0
 40
0.0
 40
0.0131689077025938
 40
0.0264140756297301
 40
0.0392427370427817
 40
0.0520332736548852
 40
0.0685766279644814
 40
0.0851364010379145
 40
0.1049458132573409
 40
0.124749126045216
 40
0.147217221417228
 40
0.1696873853932593
 40
0.1941432131894971
 40
0.2185983962651618
 40
0.264926241880151
 40
0.3112540577283863
 40
0.3112540577283863
 40
0.3112540577283863
 40
0.3112540577283863
 10
-55.71403863266482
 20
24.1194158598239
 30
0.0
 10
-55.71001357016216
 20
24.11760275335146
 30
0.0
 10
-55.7019401416604
 20
24.11396602720387
 30
0.0
 10
-55.68885956409936
 20
24.11229191690171
 30
0.0
 10
-55.67606388069105
 20
24.11044857630722
 30
0.0
 10
-55.66210078474115
 20
24.10877335728091
 30
0.0
 10
-55.6468759574162
 20
24.10729383410143
 30
0.0
 10
-55.62929084559313
 20
24.10591854322144
 30
0.0
 10
-55.61061015463445
 20
24.10464305488765
 30
0.0
 10
-55.589951113305
 20
24.10344052636944
 30
0.0
 10
-55.56839569390756
 20
24.10239358214262
 30
0.0
 10
-55.54528254947374
 20
24.10147022161107
 30
0.0
 10
-55.52150131113384
 20
24.1006922754047
 30
0.0
 10
-55.48976529522036
 20
24.09988021796156
 30
0.0
 10
-55.45073265496724
 20
24.09921398859964
 30
0.0
 10
-55.41984729913112
 20
24.09911817526118
 30
0.0
 10
-55.40440462621268
 20
24.09907026151359
 30
0.0
 11
-55.71403863266482
 21
24.1194158598239
 31
0.0
 11
-55.70178174138778
 21
24.11460039117196
 31
0.0
 11
-55.68874821675968
 21
24.11224206572024
 31
0.0
 11
-55.67603890532041
 21
24.11049622671157
 31
0.0
 11
-55.66334044320706
 21
24.1089642718016
 31
0.0
 11
-55.64687642746981
 21
24.10734601470904
 31
0.0
 11
-55.63036920607306
 21
24.10602778691327
 31
0.0
 11
-55.61060597208165
 21
24.10467597579532
 31
0.0
 11
-55.5908363197143
 21
24.10352183466239
 31
0.0
 11
-55.56839497306715
 21
24.10242581026569
 31
0.0
 11
-55.54594297087738
 21
24.10152255714024
 31
0.0
 11
-55.52150027316224
 21
24.10072128231468
 31
0.0
 11
-55.49705322124942
 21
24.10009070138244
 31
0.0
 11
-55.45073175634593
 21
24.099321821471
 31
0.0
 11
-55.40440462621268
 21
24.09907026151359
 31
0.0
  0
SPLINE
  5
67
330
2
100
AcDbEntity
  8
GAIKEI
  6
Continuous
 62
     7
100
AcDbSpline
210
0.0
220
0.0
230
1.0
 70
     8
 71
     3
 72
    23
 73
    19
 74
    17
 42
0.0000000001
 43
0.0000000001
 44
0.00000001
 40
0.0
 40
0.0
 40
0.0
 40
0.0
 40
0.0513081044551908
 40
0.1026160875824646
 40
0.1263292606828934
 40
0.1500359944192952
 40
0.1714702034605423
 40
0.1929248973344033
 40
0.2114906912656366
 40
0.2299942939644623
 40
0.2449811997511311
 40
0.2601415962656603
 40
0.2715309412532174
 40
0.2824951924557558
 40
0.2890793948129952
 40
0.2965018614258934
 40
0.2998957528048204
 40
0.302600867681041
 40
0.302600867681041
 40
0.302600867681041
 40
0.302600867681041
 10
-53.77883282847756
 20
24.0990697721088
 30
0.0
 10
-53.76173003671268
 20
24.09912870106275
 30
0.0
 10
-53.72752449355203
 20
24.09924654666708
 30
0.0
 10
-53.68542050262019
 20
24.10005415472456
 30
0.0
 10
-53.65252479229885
 20
24.10100413826689
 30
0.0
 10
-53.62958839261065
 20
24.10184023906827
 30
0.0
 10
-53.60741133829755
 20
24.10282245031402
 30
0.0
 10
-53.58695557617195
 20
24.10392098726126
 30
0.0
 10
-53.56748713462958
 20
24.10517060292082
 30
0.0
 10
-53.55018479704582
 20
24.10648487190153
 30
0.0
 10
-53.53402959686873
 20
24.10791806434912
 30
0.0
 10
-53.52026882113253
 20
24.10942900444121
 30
0.0
 10
-53.50786326308011
 20
24.11108513842516
 30
0.0
 10
-53.49837331641172
 20
24.11266128140653
 30
0.0
 10
-53.49013860269796
 20
24.11428133415228
 30
0.0
 10
-53.4848123156715
 20
24.11615800719803
 30
0.0
 10
-53.48017034606909
 20
24.11744628292959
 30
0.0
 10
-53.47924310091948
 20
24.11935201363539
 30
0.0
 10
-53.47883183069666
 20
24.1201972657284
 30
0.0
 11
-53.77883282847756
 21
24.0990697721088
 31
0.0
 11
-53.72752567422708
 21
24.09938109705809
 31
0.0
 11
-53.67622672530638
 21
24.10034389222983
 31
0.0
 11
-53.65252359914234
 21
24.10103410100237
 31
0.0
 11
-53.6288326948004
 21
24.10190028525608
 31
0.0
 11
-53.607419787573
 21
24.10285564926039
 31
0.0
 11
-53.58599631213587
 21
24.1040126229691
 31
0.0
 11
-53.5674690510175
 21
24.10520815567589
 31
0.0
 11
-53.54901913912295
 21
24.10661672305628
 31
0.0
 11
-53.53409295926508
 21
24.10796449830468
 31
0.0
 11
-53.51902470845266
 21
24.10963346125436
 31
0.0
 11
-53.50773864401094
 21
24.11116379663372
 31
0.0
 11
-53.49692438572333
 21
24.11297117549975
 31
0.0
 11
-53.49048831673167
 21
24.11435996428304
 31
0.0
 11
-53.48338967805716
 21
24.1165284510339
 31
0.0
 11
-53.48029512591825
 21
24.11792209539135
 31
0.0
 11
-53.47883183069666
 21
24.1201972657284
 31
0.0
  0
SPLINE
  5
68
330
2
100
AcDbEntity
  8
GAIKEI
  6
Continuous
 62
     1
100
AcDbSpline
210
0.0
220
0.0
230
1.0
 70
     8
 71
     3
 72
    17
 73
    13
 74
    11
 42
0.0000000001
 43
0.0000000001
 44
0.00000001
 40
0.0
 40
0.0
 40
0.0
 40
0.0
 40
0.0145231836372798
 40
0.0290460323100999
 40
0.0349947495039861
 40
0.0409436699268933
 40
0.0458694096015974
 40
0.0507939109902166
 40
0.0546957193798024
 40
0.0586042063038048
 40
0.0617829387988704
 40
0.0649270697871229
 40
0.0649270697871229
 40
0.0649270697871229
 40
0.0649270697871229
 10
-54.18940472963481
 20
-13.91559028643655
 30
0.0
 10
-54.18611681644358
 20
-13.91914543548986
 30
0.0
 10
-54.17954107084697
 20
-13.92625565629613
 30
0.0
 10
-54.17085950352711
 20
-13.93408148160303
 30
0.0
 10
-54.16390409276694
 20
-13.93948808840213
 30
0.0
 10
-54.15927600643385
 20
-13.94266221155926
 30
0.0
 10
-54.15473862722087
 20
-13.94534509840376
 30
0.0
 10
-54.1506026834994
 20
-13.9473348145869
 30
0.0
 10
-54.14660736794447
 20
-13.94880343978954
 30
0.0
 10
-54.14301246717547
 20
-13.94954785773701
 30
0.0
 10
-54.13956729416614
 20
-13.94972178290587
 30
0.0
 10
-54.13751552208116
 20
-13.94919250387329
 30
0.0
 10
-54.13649525078131
 20
-13.94892930658625
 30
0.0
 11
-54.18940472963481
 21
-13.91559028643655
 31
0.0
 11
-54.17938348105304
 21
-13.92610205048345
 31
0.0
 11
-54.16857606128473
 21
-13.93580322664002
 31
0.0
 11
-54.16386893200047
 21
-13.93944055658494
 31
0.0
 11
-54.15895518030016
 21
-13.94279386783228
 31
0.0
 11
-54.15470487404923
 21
-13.94528340705483
 31
0.0
 11
-54.15025944488139
 21
-13.94740210217674
 31
0.0
 11
-54.14658334156843
 21
-13.94870991237417
 31
0.0
 11
-54.14275307054845
 21
-13.94948791080469
 31
0.0
 11
-54.13957518963866
 21
-13.94956143958393
 31
0.0
 11
-54.13649525078131
 21
-13.94892930658625
 31
0.0
  0
SPLINE
  5
69
330
2
100
AcDbEntity
  8
GAIKEI
  6
Continuous
 62
     1
100
AcDbSpline
210
0.0
220
0.0
230
1.0
 70
     8
 71
     3
 72
    15
 73
    11
 74
     9
 42
0.0000000001
 43
0.0000000001
 44
0.00000001
 40
0.0
 40
0.0
 40
0.0
 40
0.0
 40
0.0348208848867845
 40
0.0696425795797798
 40
0.0873277879101755
 40
0.1050133788241288
 40
0.1229150561077431
 40
0.1408168164366456
 40
0.1748659118164398
 40
0.2089067494404166
 40
0.2089067494404166
 40
0.2089067494404166
 40
0.2089067494404166
 10
-54.13649573965063
 20
-13.94892725153068
 30
0.0
 10
-54.14577112256818
 20
-13.9559591310561
 30
0.0
 10
-54.16432209481692
 20
-13.97002306494557
 30
0.0
 10
-54.18293721792476
 20
-13.99275151899417
 30
0.0
 10
-54.19544470032677
 20
-14.01253502896025
 30
0.0
 10
-54.20353118852863
 20
-14.02837549575973
 30
0.0
 10
-54.21022795119306
 20
-14.04492743256251
 30
0.0
 10
-54.21700594919443
 20
-14.06721600287201
 30
0.0
 10
-54.2222101295119
 20
-14.09560540032324
 30
0.0
 10
-54.2217940126862
 20
-14.11834245432047
 30
0.0
 10
-54.22158597215844
 20
-14.12970960268626
 30
0.0
 11
-54.13649573965063
 21
-13.94892725153068
 31
0.0
 11
-54.16339548418068
 21
-13.97103828646595
 31
0.0
 11
-54.18578241053978
 21
-13.99770992094841
 31
0.0
 11
-54.19521125674714
 21
-14.01267198907135
 31
0.0
 11
-54.20326464158984
 21
-14.0284175645354
 31
0.0
 11
-54.20997584294332
 21
-14.04501364399471
 31
0.0
 11
-54.21521389241775
 21
-14.06213193499479
 31
0.0
 11
-54.22107614152697
 21
-14.0956725824326
 31
0.0
 11
-54.22158597215844
 21
-14.12970960268626
 31
0.0
  0
SPLINE
  5
6A
330
2
100
AcDbEntity
  8
GAIKEI
  6
Continuous
 62
     1
100
AcDbSpline
210
0.0
220
0.0
230
1.0
 70
     8
 71
     3
 72
    21
 73
    17
 74
    15
 42
0.0000000001
 43
0.0000000001
 44
0.00000001
 40
0.0
 40
0.0
 40
0.0
 40
0.0
 40
0.017237204517966
 40
0.0344741943446597
 40
0.0426587610531469
 40
0.0508432346051936
 40
0.0585115278149784
 40
0.0661795860735528
 40
0.0732020152273279
 40
0.0802241934800468
 40
0.0865230473890947
 40
0.0928207345226172
 40
0.0983911318239665
 40
0.1039627049422183
 40
0.1124994838934319
 40
0.1210137326264655
 40
0.1210137326264655
 40
0.1210137326264655
 40
0.1210137326264655
 10
-54.32143399150868
 20
-14.18243629042945
 30
0.0
 10
-54.31569493770835
 20
-14.18209418913799
 30
0.0
 10
-54.30421690201449
 20
-14.18140998633606
 30
0.0
 10
-54.29017755272509
 20
-14.17895044199279
 30
0.0
 10
-54.27929462210753
 20
-14.17628830033111
 30
0.0
 10
-54.271616340235
 20
-14.17398339893292
 30
0.0
 10
-54.26423330911265
 20
-14.17133427524326
 30
0.0
 10
-54.25737141481639
 20
-14.16841352044868
 30
0.0
 10
-54.25089510107744
 20
-14.16517172694017
 30
0.0
 10
-54.24505002709609
 20
-14.16172170117284
 30
0.0
 10
-54.23967832492145
 20
-14.15797982727054
 30
0.0
 10
-54.2350193409824
 20
-14.15410008051127
 30
0.0
 10
-54.23090974223454
 20
-14.14996863467336
 30
0.0
 10
-54.22684893560466
 20
-14.14481978183032
 30
0.0
 10
-54.22301245859384
 20
-14.13817441841498
 30
0.0
 10
-54.22206047300319
 20
-14.13252969787918
 30
0.0
 10
-54.22158511613748
 20
-14.1297110647979
 30
0.0
 11
-54.32143399150868
 21
-14.18243629042945
 31
0.0
 11
-54.30424991406221
 21
-14.18108411875891
 31
0.0
 11
-54.28725992407703
 21
-14.17817653305155
 31
0.0
 11
-54.27931263715186
 21
-14.17622006599208
 31
0.0
 11
-54.27147486726449
 21
-14.17386316746297
 31
0.0
 11
-54.26426006200904
 21
-14.17126522492071
 31
0.0
 11
-54.25720780650613
 21
-14.16825444284814
 31
0.0
 11
-54.25093349867006
 21
-14.16510046587518
 31
0.0
 11
-54.24489223922297
 21
-14.16152077746597
 31
0.0
 11
-54.23973266566486
 21
-14.15790769595082
 31
0.0
 11
-54.23490236769589
 21
-14.15386677033189
 31
0.0
 11
-54.2309916028837
 21
-14.14990000353714
 31
0.0
 11
-54.2275417291155
 21
-14.14552498457942
 31
0.0
 11
-54.22349482224968
 21
-14.13800838800012
 31
0.0
 11
-54.22158511613748
 21
-14.1297110647979
 31
0.0
  0
SPLINE
  5
6B
330
2
100
AcDbEntity
  8
GAIKEI
  6
Continuous
 62
     1
100
AcDbSpline
210
0.0
220
0.0
230
1.0
 70
     8
 71
     3
 72
    21
 73
    17
 74
    15
 42
0.0000000001
 43
0.0000000001
 44
0.00000001
 40
0.0
 40
0.0
 40
0.0
 40
0.0
 40
0.0096409412256791
 40
0.0192918503794824
 40
0.025014347435404
 40
0.0307348080790214
 40
0.0371898953257388
 40
0.0436463193154571
 40
0.0508147500919041
 40
0.057983316345996
 40
0.0657736354771414
 40
0.0735641768450394
 40
0.0818383470197883
 40
0.0901126714414839
 40
0.1055570621561456
 40
0.1209998200488043
 40
0.1209998200488043
 40
0.1209998200488043
 40
0.1209998200488043
 10
-14.43607864726368
 20
-14.12971103707628
 30
0.0
 10
-14.4354986258959
 20
-14.13290087562399
 30
0.0
 10
-14.43433796923542
 20
-14.1392838460665
 30
0.0
 10
-14.4297171182779
 20
-14.14643399257314
 30
0.0
 10
-14.42510781043628
 20
-14.15173412580911
 30
0.0
 10
-14.42071448957115
 20
-14.15579147585466
 30
0.0
 10
-14.41579138190157
 20
-14.15958802352571
 30
0.0
 10
-14.41016919429322
 20
-14.16323213810274
 30
0.0
 10
-14.40409227565737
 20
-14.16657744699417
 30
0.0
 10
-14.39740520849895
 20
-14.1697003430183
 30
0.0
 10
-14.39035159121408
 20
-14.17249645639305
 30
0.0
 10
-14.38280351897185
 20
-14.17500873212092
 30
0.0
 10
-14.37498005705832
 20
-14.17717234424087
 30
0.0
 10
-14.36456904458315
 20
-14.17949153173116
 30
0.0
 10
-14.35165548942797
 20
-14.1815575993869
 30
0.0
 10
-14.34137133279846
 20
-14.18214341092523
 30
0.0
 10
-14.33622952610153
 20
-14.18243629878771
 30
0.0
 11
-14.43607864726368
 21
-14.12971103707628
 31
0.0
 11
-14.43373842303049
 21
-14.1390636424278
 31
0.0
 11
-14.42878673001974
 21
-14.14734741518759
 31
0.0
 11
-14.42503023355653
 21
-14.15166432389151
 31
0.0
 11
-14.42084436979098
 21
-14.15556332491769
 31
0.0
 11
-14.41574086070636
 21
-14.15951583572268
 31
0.0
 11
-14.41033102441656
 21
-14.16303990707683
 31
0.0
 11
-14.40405661872751
 21
-14.1665066390442
 31
0.0
 11
-14.39756613657596
 21
-14.16954998949973
 31
0.0
 11
-14.39032688760631
 21
-14.17242789594661
 31
0.0
 11
-14.38293756092639
 21
-14.17489576662592
 31
0.0
 11
-14.37496363251534
 21
-14.17710446716069
 31
0.0
 11
-14.36688977933659
 21
-14.17891480972253
 31
0.0
 11
-14.35163017086302
 21
-14.18129673083945
 31
0.0
 11
-14.33622952610153
 21
-14.18243629878771
 31
0.0
  0
SPLINE
  5
6C
330
2
100
AcDbEntity
  8
GAIKEI
  6
Continuous
 62
     1
100
AcDbSpline
210
0.0
220
0.0
230
1.0
 70
     8
 71
     3
 72
    15
 73
    11
 74
     9
 42
0.0000000001
 43
0.0000000001
 44
0.00000001
 40
0.0
 40
0.0
 40
0.0
 40
0.0
 40
0.0363505990570033
 40
0.0727003042870511
 40
0.0905733962220798
 40
0.1084466601855555
 40
0.1261057639321167
 40
0.1437646895932782
 40
0.1763427486128092
 40
0.2089090065151084
 40
0.2089090065151084
 40
0.2089090065151084
 40
0.2089090065151084
 10
-14.43608013244443
 20
-14.12971188595202
 30
0.0
 10
-14.43589398393546
 20
-14.1175695285528
 30
0.0
 10
-14.43552170619873
 20
-14.09328511262109
 30
0.0
 10
-14.44151553134446
 20
-14.06344882881877
 30
0.0
 10
-14.4490227342165
 20
-14.04060791162649
 30
0.0
 10
-14.45608136807337
 20
-14.02423671997442
 30
0.0
 10
-14.46451558572448
 20
-14.00860987706002
 30
0.0
 10
-14.47705489481379
 20
-13.98975685048106
 30
0.0
 10
-14.49508324520554
 20
-13.96856347095558
 30
0.0
 10
-14.51247561618707
 20
-13.95547293910476
 30
0.0
 10
-14.52117023094365
 20
-13.94892886454886
 30
0.0
 11
-14.43608013244443
 21
-14.12971188595202
 31
0.0
 11
-14.43681755482862
 21
-14.09336876687916
 31
0.0
 11
-14.44366303632409
 21
-14.05766945931896
 31
0.0
 11
-14.44927331185158
 21
-14.04069971420631
 31
0.0
 11
-14.45634695270041
 21
-14.02428578118906
 31
0.0
 11
-14.46474623356448
 21
-14.00875207414083
 31
0.0
 11
-14.47450466234363
 21
-13.99403437207797
 31
0.0
 11
-14.49588830119523
 21
-13.96945653561374
 31
0.0
 11
-14.52117023094365
 21
-13.94892886454886
 31
0.0
  0
SPLINE
  5
6D
330
2
100
AcDbEntity
  8
GAIKEI
  6
Continuous
 62
     1
100
AcDbSpline
210
0.0
220
0.0
230
1.0
 70
     8
 71
     3
 72
    17
 73
    13
 74
    11
 42
0.0000000001
 43
0.0000000001
 44
0.00000001
 40
0.0
 40
0.0
 40
0.0
 40
0.0
 40
0.006877752726409
 40
0.013790307940166
 40
0.0186897474173244
 40
0.0235739410012027
 40
0.029488368923244
 40
0.0354083753047331
 40
0.0422581906446663
 40
0.0491064854485934
 40
0.0569886389667453
 40
0.0648703522303955
 40
0.0648703522303955
 40
0.0648703522303955
 40
0.0648703522303955
 10
-14.52116842286455
 20
-13.94892930221749
 30
0.0
 10
-14.51886810117332
 20
-13.94928093263046
 30
0.0
 10
-14.51425581873009
 20
-13.94998595446002
 30
0.0
 10
-14.5082250786443
 20
-13.94784268875518
 30
0.0
 10
-14.50320136047053
 20
-13.94550051410388
 30
0.0
 10
-14.49867767641775
 20
-13.94284474357054
 30
0.0
 10
-14.49406726093453
 20
-13.93971179721742
 30
0.0
 10
-14.48913258600204
 20
-13.93590628248694
 30
0.0
 10
-14.48415192287591
 20
-13.93166511430488
 30
0.0
 10
-14.47888886397048
 20
-13.92675907474729
 30
0.0
 10
-14.4735658475718
 20
-13.92141884539041
 30
0.0
 10
-14.4700278555486
 20
-13.91753308303466
 30
0.0
 10
-14.4682589065917
 20
-13.91559025828178
 30
0.0
 11
-14.52116842286455
 21
-13.94892930221749
 31
0.0
 11
-14.51430786766536
 21
-13.94941545538427
 31
0.0
 11
-14.50766362135005
 21
-13.94750823933987
 31
0.0
 11
-14.50322798326419
 21
-13.94542746789011
 31
0.0
 11
-14.49900195477062
 21
-13.94297878973134
 31
0.0
 11
-14.49410325143822
 21
-13.93966470476448
 31
0.0
 11
-14.48940622557597
 21
-13.93606131451656
 31
0.0
 11
-14.48418578070391
 21
-13.93162657389462
 31
0.0
 11
-14.47916799514291
 21
-13.92696599767942
 31
0.0
 11
-14.47360896900522
 21
-13.92137801223953
 31
0.0
 11
-14.4682589065917
 21
-13.91559025828178
 31
0.0
  0
SPLINE
  5
6E
330
2
100
AcDbEntity
  8
GAIKEI
  6
Continuous
 62
     1
100
AcDbSpline
210
0.0
220
0.0
230
1.0
 70
     8
 71
     3
 72
    11
 73
     7
 74
     5
 42
0.0000000001
 43
0.0000000001
 44
0.00000001
 40
0.0
 40
0.0
 40
0.0
 40
0.0
 40
0.0513237819090168
 40
0.1026435248650367
 40
0.1370992696440783
 40
0.1715107542344123
 40
0.1715107542344123
 40
0.1715107542344123
 40
0.1715107542344123
 10
-14.46825492869061
 20
-13.91559200282381
 30
0.0
 10
-14.48205006496079
 20
-13.90537831490815
 30
0.0
 10
-14.50963926014422
 20
-13.8849517555945
 30
0.0
 10
-14.55240008435114
 20
-13.86758344560762
 30
0.0
 10
-14.59157171981473
 20
-13.85844042483556
 30
0.0
 10
-14.61455500747822
 20
-13.85746363737863
 30
0.0
 10
-14.62603926634779
 20
-13.85697556483524
 30
0.0
 11
-14.46825492869061
 21
-13.91559200282381
 31
0.0
 11
-14.51074667562693
 21
-13.88680690124329
 31
0.0
 11
-14.55809056287876
 21
-13.86700102937311
 31
0.0
 11
-14.59172079361929
 21
-13.85950396072712
 31
0.0
 11
-14.62603926634779
 21
-13.85697556483524
 31
0.0
  0
SPLINE
  5
6F
330
2
100
AcDbEntity
  8
GAIKEI
  6
Continuous
 62
     1
100
AcDbSpline
210
0.0
220
0.0
230
1.0
 70
     8
 71
     3
 72
    15
 73
    11
 74
     9
 42
0.0000000001
 43
0.0000000001
 44
0.00000001
 40
0.0
 40
0.0
 40
0.0
 40
0.0
 40
0.0522348273624854
 40
0.1044704121302564
 40
0.1308667013938767
 40
0.1572634814307559
 40
0.1838729628749362
 40
0.2104825153618967
 40
0.2608253069052914
 40
0.3111550884926708
 40
0.3111550884926708
 40
0.3111550884926708
 40
0.3111550884926708
 10
-54.18940942279665
 20
-13.91559178027546
 30
0.0
 10
-54.20345514806439
 20
-13.92596054751804
 30
0.0
 10
-54.23154679311021
 20
-13.94669824379191
 30
0.0
 10
-54.26002772016714
 20
-13.98025339552086
 30
0.0
 10
-54.2792940827663
 20
-14.00950002713997
 30
0.0
 10
-54.29180598995761
 20
-14.03286934374387
 30
0.0
 10
-54.30226309490937
 20
-14.05730248681644
 30
0.0
 10
-54.31296764859277
 20
-14.09013985288322
 30
0.0
 10
-54.32150208066585
 20
-14.13200548063398
 30
0.0
 10
-54.3214600748582
 20
-14.16563060941563
 30
0.0
 10
-54.32143906732858
 20
-14.18244100135121
 30
0.0
 11
-54.18940942279665
 21
-13.91559178027546
 31
0.0
 11
-54.2302077599245
 21
-13.94821037941187
 31
0.0
 11
-54.26446466972652
 21
-13.98764412944911
 31
0.0
 11
-54.27895265480151
 21
-14.00970908850422
 31
0.0
 11
-54.29142766398513
 21
-14.03297202433646
 31
0.0
 11
-54.30189081984394
 21
-14.05743806024406
 31
0.0
 11
-54.31018037196214
 21
-14.08272346411809
 31
0.0
 11
-54.31980446582679
 21
-14.13213777005762
 31
0.0
 11
-54.32143906732858
 21
-14.18244100135121
 31
0.0
  0
SPLINE
  5
70
330
2
100
AcDbEntity
  8
GAIKEI
  6
Continuous
 62
     1
100
AcDbSpline
210
0.0
220
0.0
230
1.0
 70
     8
 71
     3
 72
    15
 73
    11
 74
     9
 42
0.0000000001
 43
0.0000000001
 44
0.00000001
 40
0.0
 40
0.0
 40
0.0
 40
0.0
 40
0.0537515759351204
 40
0.107502228742519
 40
0.134087770430549
 40
0.1606736061706466
 40
0.1870485114164849
 40
0.2134232428236987
 40
0.2622977208357211
 40
0.3111556075762072
 40
0.3111556075762072
 40
0.3111556075762072
 40
0.3111556075762072
 10
-14.33623086578359
 20
-14.18243852597243
 30
0.0
 10
-14.33626320097418
 20
-14.16448019413987
 30
0.0
 10
-14.33632788548888
 20
-14.12856383944735
 30
0.0
 10
-14.34608324545689
 20
-14.08457352395109
 30
0.0
 10
-14.35788883888562
 20
-14.05092847036809
 30
0.0
 10
-14.36888499136142
 20
-14.026757665681
 30
0.0
 10
-14.38191418084491
 20
-14.00369919968047
 30
0.0
 10
-14.40120169460921
 20
-13.97583270848832
 30
0.0
 10
-14.42875809099398
 20
-13.94454603399244
 30
0.0
 10
-14.45509462758733
 20
-13.9252412748377
 30
0.0
 10
-14.46826066494645
 20
-13.91559053961123
 30
0.0
 11
-14.33623086578359
 21
-14.18243852597243
 31
0.0
 11
-14.33826703020599
 21
-14.12872552912836
 31
0.0
 11
-14.34941394576322
 21
-14.07614341128578
 31
0.0
 11
-14.358258637056
 21
-14.0510722625022
 31
0.0
 11
-14.36926104128929
 21
-14.02686991130326
 31
0.0
 11
-14.38225132091998
 21
-14.00391586364753
 31
0.0
 11
-14.39722947723498
 21
-13.98220684859484
 31
0.0
 11
-14.42992123938643
 21
-13.94587554709028
 31
0.0
 11
-14.46826066494645
 21
-13.91559053961123
 31
0.0
  0
SPLINE
  5
71
330
2
100
AcDbEntity
  8
GAIKEI
  6
Continuous
 62
     1
100
AcDbSpline
210
0.0
220
0.0
230
1.0
 70
     8
 71
     3
 72
    11
 73
     7
 74
     5
 42
0.0000000001
 43
0.0000000001
 44
0.00000001
 40
0.0
 40
0.0
 40
0.0
 40
0.0
 40
0.0052273423294209
 40
0.0104546864644723
 40
0.0156068293578184
 40
0.0207585995193338
 40
0.0207585995193338
 40
0.0207585995193338
 40
0.0207585995193338
 10
-55.98762173761565
 20
13.67289117284235
 30
0.0
 10
-55.98866844352585
 20
13.67149194524455
 30
0.0
 10
-55.99076184335853
 20
13.66869348124342
 30
0.0
 10
-55.99289141137308
 20
13.66390914465381
 30
0.0
 10
-55.99427734689581
 20
13.65888678422456
 30
0.0
 10
-55.99444691038865
 20
13.65544680094309
 30
0.0
 10
-55.99453168166679
 20
13.65372687079753
 30
0.0
 11
-55.98762173761565
 21
13.67289117284235
 31
0.0
 11
-55.99059513996713
 21
13.66859187114483
 31
0.0
 11
-55.99277738137311
 21
13.66384182193838
 31
0.0
 11
-55.99408989927019
 21
13.65885966467249
 31
0.0
 11
-55.99453168166679
 21
13.65372687079753
 31
0.0
  0
SPLINE
  5
72
330
2
100
AcDbEntity
  8
GAIKEI
  6
Continuous
 62
     1
100
AcDbSpline
210
0.0
220
0.0
230
1.0
 70
     8
 71
     3
 72
    21
 73
    17
 74
    15
 42
0.0000000001
 43
0.0000000001
 44
0.00000001
 40
0.0
 40
0.0
 40
0.0
 40
0.0
 40
0.0192891791837375
 40
0.0385982638394121
 40
0.0500459139220541
 40
0.0614895037121108
 40
0.0744016789067312
 40
0.0873165246990451
 40
0.1016548225875444
 40
0.1159933942693771
 40
0.1315750300821175
 40
0.1471571040129408
 40
0.1637060991312629
 40
0.180255433528928
 40
0.2103671272154968
 40
0.2404750391625757
 40
0.2404750391625757
 40
0.2404750391625757
 40
0.2404750391625757
 10
-55.91765676567343
 20
-13.81317535323751
 30
0.0
 10
-55.91640001627507
 20
-13.81953914501479
 30
0.0
 10
-55.91388520639855
 20
-13.83227329080076
 30
0.0
 10
-55.90442715913913
 20
-13.84643827630975
 30
0.0
 10
-55.89504787533482
 20
-13.85690232027952
 30
0.0
 10
-55.88613879203069
 20
-13.86488606024613
 30
0.0
 10
-55.87617801403355
 20
-13.87233196203911
 30
0.0
 10
-55.86482395857321
 20
-13.87945154127618
 30
0.0
 10
-55.85256950030973
 20
-13.88595950996308
 30
0.0
 10
-55.83910171473147
 20
-13.89200388442712
 30
0.0
 10
-55.82491074912376
 20
-13.89738332511058
 30
0.0
 10
-55.80973967082545
 20
-13.90217983770555
 30
0.0
 10
-55.79402844014118
 20
-13.90627041091391
 30
0.0
 10
-55.77339177454054
 20
-13.91054100776136
 30
0.0
 10
-55.74802446439111
 20
-13.914230994339
 30
0.0
 10
-55.72796217697381
 20
-13.91513671777937
 30
0.0
 10
-55.71793166302746
 20
-13.91558954860943
 30
0.0
 11
-55.91765676567343
 21
-13.81317535323751
 31
0.0
 11
-55.91269279707626
 21
-13.83181487321462
 31
0.0
 11
-55.90253814761877
 21
-13.84823815127288
 31
0.0
 11
-55.89489481435044
 21
-13.85676036561108
 31
0.0
 11
-55.88640516330838
 21
-13.86443379780075
 31
0.0
 11
-55.87607912704993
 21
-13.87218603838323
 31
0.0
 11
-55.86515317469116
 21
-13.87907202419683
 31
0.0
 11
-55.85250030880684
 21
-13.88581678262403
 31
0.0
 11
-55.8394279126885
 21
-13.89170805535923
 31
0.0
 11
-55.82486340271748
 21
-13.89724542133126
 31
0.0
 11
-55.81001102636879
 21
-13.90195795187537
 31
0.0
 11
-55.79399763198285
 21
-13.90613412718721
 31
0.0
 11
-55.77779633293653
 21
-13.90951027582628
 31
0.0
 11
-55.74798232714534
 21
-13.91373391687966
 31
0.0
 11
-55.71793166302746
 21
-13.91558954860943
 31
0.0
  0
SPLINE
  5
73
330
2
100
AcDbEntity
  8
GAIKEI
  6
Continuous
 62
     1
100
AcDbSpline
210
0.0
220
0.0
230
1.0
 70
     8
 71
     3
 72
     9
 73
     5
 74
     3
 42
0.0000000001
 43
0.0000000001
 44
0.00000001
 40
0.0
 40
0.0
 40
0.0
 40
0.0
 40
13.6803062221612
 40
27.36051417211112
 40
27.36051417211112
 40
27.36051417211112
 40
27.36051417211112
 10
-55.7157574604837
 20
-13.70076929717652
 30
0.0
 10
-55.70411831894979
 20
-9.140644739527417
 30
0.0
 10
-55.68084013949126
 20
-0.0204283818158331
 30
0.0
 10
-55.75659186006999
 20
9.099503084494457
 30
0.0
 10
-55.79446759431835
 20
13.65945243933174
 30
0.0
 11
-55.7157574604837
 21
-13.70076929717652
 31
0.0
 11
-55.70559769873693
 21
-0.020466847583748
 31
0.0
 11
-55.79446759431835
 21
13.65945243933174
 31
0.0
  0
SPLINE
  5
74
330
2
100
AcDbEntity
  8
GAIKEI
  6
Continuous
 62
     1
100
AcDbSpline
210
0.0
220
0.0
230
1.0
 70
     8
 71
     3
 72
    21
 73
    17
 74
    15
 42
0.0000000001
 43
0.0000000001
 44
0.00000001
 40
0.0
 40
0.0
 40
0.0
 40
0.0
 40
0.0083259576555063
 40
0.0167370938120847
 40
0.02504281596327
 40
0.0333056581273497
 40
0.0440907976226868
 40
0.0548945096421665
 40
0.0678898645846148
 40
0.0808782908563803
 40
0.0956811222075543
 40
0.1104863067725247
 40
0.1266589570750934
 40
0.1428308723782121
 40
0.1720897235787507
 40
0.2013485627329139
 40
0.2013485627329139
 40
0.2013485627329139
 40
0.2013485627329139
 10
-55.91549811275649
 20
-13.68427654341576
 30
0.0
 10
-55.91309189715726
 20
-13.68571247239302
 30
0.0
 10
-55.90825485593346
 20
-13.68859903360886
 30
0.0
 10
-55.8998907532256
 20
-13.68988569059727
 30
0.0
 10
-55.89172300979462
 20
-13.69134379325061
 30
0.0
 10
-55.88269434562848
 20
-13.69268502929994
 30
0.0
 10
-55.87281607469368
 20
-13.69386890274671
 30
0.0
 10
-55.86133963998331
 20
-13.69497315799501
 30
0.0
 10
-55.84912063617155
 20
-13.69600460658509
 30
0.0
 10
-55.83556010866463
 20
-13.69698520635769
 30
0.0
 10
-55.82138704741033
 20
-13.69784477502669
 30
0.0
 10
-55.80614587729328
 20
-13.69861120795148
 30
0.0
 10
-55.79044270991819
 20
-13.699265668488
 30
0.0
 10
-55.76991944056362
 20
-13.69994739921724
 30
0.0
 10
-55.74502861614201
 20
-13.70052996577235
 30
0.0
 10
-55.72552307891737
 20
-13.70068100823096
 30
0.0
 10
-55.71577031238462
 20
-13.70075653639287
 30
0.0
 11
-55.91549811275649
 21
-13.68427654341576
 31
0.0
 11
-55.90809312579335
 21
-13.68808281855558
 31
0.0
 11
-55.89988523806027
 21
-13.68992069320461
 31
0.0
 11
-55.8916960959798
 21
-13.69130740530499
 31
0.0
 11
-55.88352386632118
 21
-13.69252774227971
 31
0.0
 11
-55.87281721294698
 21
-13.69382651331307
 31
0.0
 11
-55.86206538828969
 21
-13.69488408541906
 31
0.0
 11
-55.84911622603408
 21
-13.69597882093558
 31
0.0
 11
-55.83616180896183
 21
-13.69691812632914
 31
0.0
 11
-55.8213864325769
 21
-13.69781927449685
 31
0.0
 11
-55.80660019548827
 21
-13.69856806170628
 31
0.0
 11
-55.79044163142976
 21
-13.69924291363827
 31
0.0
 11
-55.77427876253455
 21
-13.69978375909864
 31
0.0
 11
-55.74502758002086
 21
-13.70045360998074
 31
0.0
 11
-55.71577031238462
 21
-13.70075653639287
 31
0.0
  0
SPLINE
  5
75
330
2
100
AcDbEntity
  8
GAIKEI
  6
Continuous
 62
     1
100
AcDbSpline
210
0.0
220
0.0
230
1.0
 70
     8
 71
     3
 72
    11
 73
     7
 74
     5
 42
0.0000000001
 43
0.0000000001
 44
0.00000001
 40
0.0
 40
0.0
 40
0.0
 40
0.0
 40
0.0052288643079195
 40
0.0104577266282057
 40
0.0156083544556617
 40
0.020758605181781
 40
0.020758605181781
 40
0.020758605181781
 40
0.020758605181781
 10
-12.66313197972636
 20
13.65372687246645
 30
0.0
 10
-12.66321930355333
 20
13.65547259781793
 30
0.0
 10
-12.66339396599314
 20
13.65896404638204
 30
0.0
 10
-12.66480753777122
 20
13.66400702547614
 30
0.0
 10
-12.66694523863122
 20
13.66875784927247
 30
0.0
 10
-12.66900971947312
 20
13.67151343833043
 30
0.0
 10
-12.67004192826448
 20
13.67289117825339
 30
0.0
 11
-12.66313197972636
 21
13.65372687246645
 31
0.0
 11
-12.66358706683263
 21
13.65893589602638
 31
0.0
 11
-12.66493864726567
 21
13.66398705923961
 31
0.0
 11
-12.66710692961283
 21
13.66865905416057
 31
0.0
 11
-12.67004192826448
 21
13.67289117825339
 31
0.0
  0
SPLINE
  5
76
330
2
100
AcDbEntity
  8
GAIKEI
  6
Continuous
 62
     1
100
AcDbSpline
210
0.0
220
0.0
230
1.0
 70
     8
 71
     3
 72
    21
 73
    17
 74
    15
 42
0.0000000001
 43
0.0000000001
 44
0.00000001
 40
0.0
 40
0.0
 40
0.0
 40
0.0
 40
0.0344447275663379
 40
0.0688890152241535
 40
0.0852194040787437
 40
0.1015496056871294
 40
0.1168345635723846
 40
0.1321190490767931
 40
0.1461033218302563
 40
0.1600870467298005
 40
0.1726208160949561
 40
0.1851523047432775
 40
0.1962341499221902
 40
0.2073180052926728
 40
0.2239373959263188
 40
0.2405085883859909
 40
0.2405085883859909
 40
0.2405085883859909
 40
0.2405085883859909
 10
-12.93973203490964
 20
-13.91558954945208
 30
0.0
 10
-12.92825684500611
 20
-13.91503486562595
 30
0.0
 10
-12.90530661212763
 20
-13.91392550059823
 30
0.0
 10
-12.87720716124489
 20
-13.90932268800132
 30
0.0
 10
-12.85542019244845
 20
-13.90424019385871
 30
0.0
 10
-12.84005753843341
 20
-13.89980318012029
 30
0.0
 10
-12.8252831992284
 20
-13.89467031478412
 30
0.0
 10
-12.8115536836505
 20
-13.888983201035
 30
0.0
 10
-12.79859355633223
 20
-13.8826444169225
 30
0.0
 10
-12.78689793174559
 20
-13.87587564449084
 30
0.0
 10
-12.776148040522
 20
-13.86851151487502
 30
0.0
 10
-12.76682455934976
 20
-13.86085572898745
 30
0.0
 10
-12.75860061424457
 20
-13.85268351992943
 30
0.0
 10
-12.75054908299729
 20
-13.84257105019935
 30
0.0
 10
-12.74299010735225
 20
-13.82960722970997
 30
0.0
 10
-12.74100033219635
 20
-13.8186473460018
 30
0.0
 10
-12.74000689629042
 20
-13.81317535975495
 30
0.0
 11
-12.93973203490964
 21
-13.91558954945208
 31
0.0
 11
-12.90536532881492
 21
-13.91327263289918
 31
0.0
 11
-12.87135270183103
 21
-13.90783662791637
 31
0.0
 11
-12.8554548572904
 21
-13.90410297818539
 31
0.0
 11
-12.83976816931704
 21
-13.89956389179201
 31
0.0
 11
-12.82533551775964
 21
-13.89453114843445
 31
0.0
 11
-12.81122100941616
 21
-13.88866632540635
 31
0.0
 11
-12.79866941273326
 21
-13.88250050819943
 31
0.0
 11
-12.78657861313536
 21
-13.87547504579993
 31
0.0
 11
-12.77625623064909
 21
-13.86836563036536
 31
0.0
 11
-12.76658972721748
 21
-13.86039086332812
 31
0.0
 11
-12.75876413746505
 21
-13.85254437202388
 31
0.0
 11
-12.75186170384609
 21
-13.8438721032428
 31
0.0
 11
-12.7439037581837
 21
-13.82928185277683
 31
0.0
 11
-12.74000689629042
 21
-13.81317535975495
 31
0.0
  0
SPLINE
  5
77
330
2
100
AcDbEntity
  8
GAIKEI
  6
Continuous
 62
     1
100
AcDbSpline
210
0.0
220
0.0
230
1.0
 70
     8
 71
     3
 72
    21
 73
    17
 74
    15
 42
0.0000000001
 43
0.0000000001
 44
0.00000001
 40
0.0
 40
0.0
 40
0.0
 40
0.0
 40
0.0342090272645123
 40
0.0684180545808766
 40
0.0842299852777947
 40
0.1000431530558141
 40
0.1143514794394642
 40
0.1286559568885596
 40
0.1410225481973284
 40
0.1534003343460081
 40
0.1634881259156306
 40
0.1735465294891455
 40
0.1810005590486625
 40
0.1885203985380533
 40
0.1950145433978793
 40
0.2013884526822264
 40
0.2013884526822264
 40
0.2013884526822264
 40
0.2013884526822264
 10
-12.94189334423868
 20
-13.70075653637241
 30
0.0
 10
-12.93049055738213
 20
-13.70066144702903
 30
0.0
 10
-12.90768498349472
 20
-13.70047128212246
 30
0.0
 10
-12.8796165399623
 20
-13.69972085447956
 30
0.0
 10
-12.8576876459964
 20
-13.69888477697574
 30
0.0
 10
-12.84239311896704
 20
-13.69816670121643
 30
0.0
 10
-12.82760739662886
 20
-13.69733879824808
 30
0.0
 10
-12.81397798075218
 20
-13.69642335217127
 30
0.0
 10
-12.80100261712882
 20
-13.695386110358
 30
0.0
 10
-12.78944202000247
 20
-13.69430954768531
 30
0.0
 10
-12.77865919716377
 20
-13.69316853000542
 30
0.0
 10
-12.7695420355281
 20
-13.69195060403861
 30
0.0
 10
-12.76130133913517
 20
-13.69056619184428
 30
0.0
 10
-12.75432364623353
 20
-13.68914035635875
 30
0.0
 10
-12.74751779416699
 20
-13.68794776290011
 30
0.0
 10
-12.74393848473893
 20
-13.68549263211949
 30
0.0
 10
-12.74216554838744
 20
-13.68427654302218
 30
0.0
 11
-12.94189334423868
 21
-13.70075653637241
 31
0.0
 11
-12.90768654500357
 21
-13.70036642533637
 31
0.0
 11
-12.87348931039582
 21
-13.6994682606728
 31
0.0
 11
-12.85768902215864
 21
-13.69886159442535
 31
0.0
 11
-12.84189333604922
 21
-13.6981182404611
 31
0.0
 11
-12.82760773035329
 21
-13.69731221736993
 31
0.0
 11
-12.81333581093736
 21
-13.6963476498554
 31
0.0
 11
-12.80100875802714
 21
-13.69535954745697
 31
0.0
 11
-12.78868444101067
 21
-13.69421028735542
 31
0.0
 11
-12.77865554601499
 21
-13.6931218009613
 31
0.0
 11
-12.76868824566895
 21
-13.69177109563952
 31
0.0
 11
-12.76133850157453
 21
-13.69052859102408
 31
0.0
 11
-12.75395479918984
 21
-13.68910418831342
 31
0.0
 11
-12.74766009434165
 21
-13.68750712718975
 31
0.0
 11
-12.74216554838744
 21
-13.68427654302218
 31
0.0
  0
SPLINE
  5
78
330
2
100
AcDbEntity
  8
GAIKEI
  6
Continuous
 62
     1
100
AcDbSpline
210
0.0
220
0.0
230
1.0
 70
     8
 71
     3
 72
     9
 73
     5
 74
     3
 42
0.0000000001
 43
0.0000000001
 44
0.00000001
 40
0.0
 40
0.0
 40
0.0
 40
0.0
 40
13.68029785998815
 40
27.36050073664447
 40
27.36050073664447
 40
27.36050073664447
 40
27.36050073664447
 10
-12.86319600349839
 20
13.65945867934351
 30
0.0
 10
-12.90097092478885
 20
9.099478820776724
 30
0.0
 10
-12.97652048509613
 20
-0.0204492361690854
 30
0.0
 10
-12.9534443281176
 20
-9.140661019875238
 30
0.0
 10
-12.94190627968351
 20
-13.70075108110586
 30
0.0
 11
-12.86319600349839
 21
13.65945867934351
 31
0.0
 11
-12.95186415685634
 21
-0.0205518286043116
 31
0.0
 11
-12.94190627968351
 21
-13.70075108110586
 31
0.0
  0
SPLINE
  5
79
330
2
100
AcDbEntity
  8
GAIKEI
  6
Continuous
 62
     1
100
AcDbSpline
210
0.0
220
0.0
230
1.0
 70
     8
 71
     3
 72
     9
 73
     5
 74
     3
 42
0.0000000001
 43
0.0000000001
 44
0.00000001
 40
0.0
 40
0.0
 40
0.0
 40
0.0
 40
13.66920171259241
 40
27.33830514294351
 40
27.33830514294351
 40
27.33830514294351
 40
27.33830514294351
 10
-55.91547052497048
 20
-13.68428943982053
 30
0.0
 10
-55.90382690427676
 20
-9.127866197533059
 30
0.0
 10
-55.88053976660728
 20
-0.0150524738897389
 30
0.0
 10
-55.95652208286402
 20
9.09747422996196
 30
0.0
 10
-55.99451311441248
 20
13.65372120190159
 30
0.0
 11
-55.91547052497048
 21
-13.68428943982053
 31
0.0
 11
-55.90535721480978
 21
-0.0150914684145391
 31
0.0
 11
-55.99451311441248
 21
13.65372120190159
 31
0.0
  0
SPLINE
  5
7A
330
2
100
AcDbEntity
  8
GAIKEI
  6
Continuous
 62
     1
100
AcDbSpline
210
0.0
220
0.0
230
1.0
 70
     8
 71
     3
 72
    21
 73
    17
 74
    15
 42
0.0000000001
 43
0.0000000001
 44
0.00000001
 40
0.0
 40
0.0
 40
0.0
 40
0.0
 40
0.0348304695926758
 40
0.0696609785844793
 40
0.0871028644497644
 40
0.1045449323043261
 40
0.1219910257174317
 40
0.1394370520971146
 40
0.1568845264795265
 40
0.174332003080385
 40
0.1917779897074796
 40
0.2092240338371841
 40
0.2266660010010369
 40
0.2441078204210672
 40
0.2786662740126389
 40
0.3132233277742818
 40
0.3132233277742818
 40
0.3132233277742818
 40
0.3132233277742818
 10
-55.79753521090538
 20
24.05215697073845
 30
0.0
 10
-55.8091574141162
 20
24.05154001301598
 30
0.0
 10
-55.8324018323648
 20
24.05030608233766
 30
0.0
 10
-55.86058021698969
 20
24.04236065926091
 30
0.0
 10
-55.88205015636069
 20
24.03344756737459
 30
0.0
 10
-55.89752597404651
 20
24.02534139075223
 30
0.0
 10
-55.91223781473972
 20
24.01592873598462
 30
0.0
 10
-55.92607910292848
 20
24.00527112967168
 30
0.0
 10
-55.9389400436197
 20
23.99344911034126
 30
0.0
 10
-55.95072660389103
 20
23.98055568116411
 30
0.0
 10
-55.96134604009391
 20
23.96668512685176
 30
0.0
 10
-55.97071812150482
 20
23.95194746569774
 30
0.0
 10
-55.97878158357275
 20
23.93644948337354
 30
0.0
 10
-55.98760104571557
 20
23.91503880467212
 30
0.0
 10
-55.99543499540911
 20
23.88702365665832
 30
0.0
 10
-55.9966496977426
 20
23.86396162151965
 30
0.0
 10
-55.99725702934143
 20
23.85243083683895
 30
0.0
 11
-55.79753521090538
 21
24.05215697073845
 31
0.0
 11
-55.83222467064683
 21
24.04902597823298
 31
0.0
 11
-55.86584496425189
 21
24.03992431111033
 31
0.0
 11
-55.8819434066379
 21
24.0332116692116
 31
0.0
 11
-55.89739728973132
 21
24.02512444147101
 31
0.0
 11
-55.91209249768713
 21
24.01572140678127
 31
0.0
 11
-55.92591529023389
 21
24.00507742892137
 31
0.0
 11
-55.9387609832936
 21
23.99327054305832
 31
0.0
 11
-55.95053246074463
 21
23.98039239179297
 31
0.0
 11
-55.96113831478056
 21
23.96654037635721
 31
0.0
 11
-55.97050082099554
 21
23.95181937244843
 31
0.0
 11
-55.97854540684853
 21
23.93634336258606
 31
0.0
 11
-55.98521364246358
 21
23.92022654762127
 31
0.0
 11
-55.99417491581175
 21
23.88685017239186
 31
0.0
 11
-55.99725702934143
 21
23.85243083683895
 31
0.0
  0
SPLINE
  5
7B
330
2
100
AcDbEntity
  8
GAIKEI
  6
Continuous
 62
     1
100
AcDbSpline
210
0.0
220
0.0
230
1.0
 70
     8
 71
     3
 72
    21
 73
    17
 74
    15
 42
0.0000000001
 43
0.0000000001
 44
0.00000001
 40
0.0
 40
0.0
 40
0.0
 40
0.0
 40
0.0348304695917125
 40
0.0696609785834102
 40
0.0871028644487829
 40
0.1045449323032867
 40
0.1219910257164147
 40
0.1394370520962651
 40
0.1568845264785983
 40
0.1743320030795889
 40
0.1917779897065063
 40
0.2092240338358644
 40
0.2266660009997612
 40
0.2441078204202398
 40
0.2786662740119731
 40
0.3132233277738552
 40
0.3132233277738552
 40
0.3132233277738552
 40
0.3132233277738552
 10
-12.66040663206672
 20
23.85243084239505
 30
0.0
 10
-12.66102333898887
 20
23.86405305891643
 30
0.0
 10
-12.6622567680664
 20
23.88729750378673
 30
0.0
 10
-12.67020158306842
 20
23.91547605986222
 30
0.0
 10
-12.67911421164422
 20
23.93694619156741
 30
0.0
 10
-12.68722005430599
 20
23.95242218417596
 30
0.0
 10
-12.69663239159841
 20
23.96713422798548
 30
0.0
 10
-12.70728969922298
 20
23.98097574615519
 30
0.0
 10
-12.71911144101926
 20
23.99383694195556
 30
0.0
 10
-12.73200461584613
 20
24.00562378045697
 30
0.0
 10
-12.74587494099398
 20
24.01624351597569
 30
0.0
 10
-12.76061239990085
 20
24.02561591541375
 30
0.0
 10
-12.77611020821664
 20
24.0336797119173
 30
0.0
 10
-12.7975206965948
 20
24.04249963608724
 30
0.0
 10
-12.82553567555027
 20
24.05033419032957
 30
0.0
 10
-12.84859768447116
 20
24.05154939032761
 30
0.0
 10
-12.86012845604341
 20
24.05215697075369
 30
0.0
 11
-12.66040663206672
 21
23.85243084239505
 31
0.0
 11
-12.66353687599371
 21
23.88712036969241
 31
0.0
 11
-12.67263781760834
 21
23.92074085969807
 31
0.0
 11
-12.67935011211079
 21
23.93683944693521
 31
0.0
 11
-12.68743700636401
 21
23.95229350454247
 31
0.0
 11
-12.69683972393773
 21
23.96698891540677
 31
0.0
 11
-12.70748340350815
 21
23.98081193764074
 31
0.0
 11
-12.71929001216608
 21
23.99365788548289
 31
0.0
 11
-12.73216790940682
 21
24.00542964083434
 31
0.0
 11
-12.7460196959712
 21
24.01603579378593
 31
0.0
 11
-12.76074049783915
 21
24.02539861766877
 31
0.0
 11
-12.77621633410058
 21
24.03344353748298
 31
0.0
 11
-12.79233300516557
 21
24.04011212088767
 31
0.0
 11
-12.82570918700844
 21
24.04907411447607
 31
0.0
 11
-12.86012845604341
 21
24.05215697075369
 31
0.0
  0
SPLINE
  5
7C
330
2
100
AcDbEntity
  8
GAIKEI
  6
Continuous
 62
     1
100
AcDbSpline
210
0.0
220
0.0
230
1.0
 70
     8
 71
     3
 72
     9
 73
     5
 74
     3
 42
0.0000000001
 43
0.0000000001
 44
0.00000001
 40
0.0
 40
0.0
 40
0.0
 40
0.0
 40
13.66919334620527
 40
27.33829172490289
 40
27.33829172490289
 40
27.33829172490289
 40
27.33829172490289
 10
-12.66315048329557
 20
13.65372742903037
 30
0.0
 10
-12.701040606075
 20
9.097449948659672
 30
0.0
 10
-12.77682056839048
 20
-0.0150733571756092
 30
0.0
 10
-12.75373564619715
 20
-9.127882511170319
 30
0.0
 10
-12.74219321519672
 20
-13.68427126018196
 30
0.0
 11
-12.66315048329557
 21
13.65372742903037
 31
0.0
 11
-12.75210444878871
 21
-0.0151764746831305
 31
0.0
 11
-12.74219321519672
 21
-13.68427126018196
 31
0.0
  0
SPLINE
  5
7D
330
2
100
AcDbEntity
  8
GAIKEI
  6
Continuous
 62
     1
100
AcDbSpline
210
0.0
220
0.0
230
1.0
 70
     8
 71
     3
 72
    21
 73
    17
 74
    15
 42
0.0000000001
 43
0.0000000001
 44
0.00000001
 40
0.0
 40
0.0
 40
0.0
 40
0.0
 40
0.0348304695922212
 40
0.0696609785839669
 40
0.0871028644496674
 40
0.1045449323042308
 40
0.1219910257172222
 40
0.13943705209754
 40
0.1568845264794618
 40
0.1743320030806235
 40
0.1917779897079075
 40
0.209224033837362
 40
0.2266660010010122
 40
0.2441078204210419
 40
0.2786662740128336
 40
0.31322332777425
 40
0.31322332777425
 40
0.31322332777425
 40
0.31322332777425
 10
-12.86012845048776
 20
-19.98470252652078
 30
0.0
 10
-12.8485062472771
 20
-19.9840855687983
 30
0.0
 10
-12.82526182902869
 20
-19.98285163811991
 30
0.0
 10
-12.79708344440379
 20
-19.97490621504333
 30
0.0
 10
-12.77561350503255
 20
-19.96599312315726
 30
0.0
 10
-12.76013768734669
 20
-19.95788694653476
 30
0.0
 10
-12.74542584665318
 20
-19.94847429176732
 30
0.0
 10
-12.73158455846445
 20
-19.93781668545427
 30
0.0
 10
-12.71872361777338
 20
-19.9259946661235
 30
0.0
 10
-12.70693705750159
 20
-19.91310123694678
 30
0.0
 10
-12.6963176212988
 20
-19.89923068263424
 30
0.0
 10
-12.68694553988844
 20
-19.88449302147994
 30
0.0
 10
-12.67888207782031
 20
-19.86899503915607
 30
0.0
 10
-12.67006261567758
 20
-19.84758436045457
 30
0.0
 10
-12.66222866598409
 20
-19.81956921244077
 30
0.0
 10
-12.66101396365053
 20
-19.79650717730212
 30
0.0
 10
-12.66040663205172
 20
-19.7849763926215
 30
0.0
 11
-12.86012845048776
 21
-19.98470252652078
 31
0.0
 11
-12.82543899074676
 21
-19.9815715340153
 31
0.0
 11
-12.79181869714171
 21
-19.97246986689288
 31
0.0
 11
-12.77572025475524
 21
-19.96575722499415
 31
0.0
 11
-12.76026637166183
 21
-19.95766999725356
 31
0.0
 11
-12.74557116370601
 21
-19.94826696256405
 31
0.0
 11
-12.7317483711588
 21
-19.93762298470369
 31
0.0
 11
-12.71890267809954
 21
-19.92581609884087
 31
0.0
 11
-12.70713120064806
 21
-19.91293794757553
 31
0.0
 11
-12.69652534661213
 21
-19.89908593213954
 31
0.0
 11
-12.6871628403976
 21
-19.88436492823075
 31
0.0
 11
-12.67911825454462
 21
-19.86888891836861
 31
0.0
 11
-12.67245001892957
 21
-19.85277210340382
 31
0.0
 11
-12.66348874558139
 21
-19.81939572817418
 31
0.0
 11
-12.66040663205172
 21
-19.7849763926215
 31
0.0
  0
SPLINE
  5
7E
330
2
100
AcDbEntity
  8
GAIKEI
  6
Continuous
 62
     1
100
AcDbSpline
210
0.0
220
0.0
230
1.0
 70
     8
 71
     3
 72
    21
 73
    17
 74
    15
 42
0.0000000001
 43
0.0000000001
 44
0.00000001
 40
0.0
 40
0.0
 40
0.0
 40
0.0
 40
0.0348304695917194
 40
0.0696609785836238
 40
0.087102864449001
 40
0.1045449323035081
 40
0.1219910257164506
 40
0.1394370520961903
 40
0.1568845264785246
 40
0.1743320030798531
 40
0.1917779897069875
 40
0.2092240338363563
 40
0.2266660009998495
 40
0.2441078204203205
 40
0.278666274012118
 40
0.3132233277739984
 40
0.3132233277739984
 40
0.3132233277739984
 40
0.3132233277739984
 10
-55.99725702932642
 20
-19.78497639817738
 30
0.0
 10
-55.99664032240426
 20
-19.79659861469874
 30
0.0
 10
-55.99540689332672
 20
-19.81984305956911
 30
0.0
 10
-55.98746207832475
 20
-19.8480216156447
 30
0.0
 10
-55.97854944974891
 20
-19.86949174734997
 30
0.0
 10
-55.97044360708726
 20
-19.8849677399585
 30
0.0
 10
-55.96103126979453
 20
-19.8996797837677
 30
0.0
 10
-55.95037396217073
 20
-19.91352130193788
 30
0.0
 10
-55.93855222037426
 20
-19.92638249773817
 30
0.0
 10
-55.92565904554709
 20
-19.93816933623959
 30
0.0
 10
-55.91178872039866
 20
-19.94878907175784
 30
0.0
 10
-55.89705126149195
 20
-19.958161471196
 30
0.0
 10
-55.88155345317641
 20
-19.96622526769973
 30
0.0
 10
-55.86014296479831
 20
-19.97504519186955
 30
0.0
 10
-55.83212798584291
 20
-19.98287974611218
 30
0.0
 10
-55.809065976922
 20
-19.9840949461102
 30
0.0
 10
-55.79753520534973
 20
-19.98470252653624
 30
0.0
 11
-55.99725702932642
 21
-19.78497639817738
 31
0.0
 11
-55.99412678539943
 21
-19.81966592547474
 31
0.0
 11
-55.98502584378479
 21
-19.85328641548062
 31
0.0
 11
-55.97831354928235
 21
-19.86938500271776
 31
0.0
 11
-55.97022665502914
 21
-19.88483906032502
 31
0.0
 11
-55.96082393745541
 21
-19.8995344711891
 31
0.0
 11
-55.95018025788545
 21
-19.91335749342329
 31
0.0
 11
-55.93837364922752
 21
-19.92620344126544
 31
0.0
 11
-55.92549575198631
 21
-19.93797519661689
 31
0.0
 11
-55.91164396542149
 21
-19.94858134956826
 31
0.0
 11
-55.89692316355353
 21
-19.95794417345109
 31
0.0
 11
-55.88144732729256
 21
-19.96598909326531
 31
0.0
 11
-55.86533065622757
 21
-19.97265767666999
 31
0.0
 11
-55.8319544743847
 21
-19.98161967025862
 31
0.0
 11
-55.79753520534973
 21
-19.98470252653624
 31
0.0
  0
CIRCLE
  5
7F
330
2
100
AcDbEntity
  8
GAIKEI
  6
Continuous
 62
     1
100
AcDbCircle
 10
-54.72883183069621
 20
-18.26627122789114
 30
0.0
 40
0.6447664000000259
  0
CIRCLE
  5
80
330
2
100
AcDbEntity
  8
GAIKEI
  6
Continuous
 62
     1
100
AcDbCircle
 10
-54.72883183069621
 20
-18.26627122789114
 30
0.0
 40
0.6138386000000083
  0
CIRCLE
  5
81
330
2
100
AcDbEntity
  8
GAIKEI
  6
Continuous
 62
     1
100
AcDbCircle
 10
-54.72883183069621
 20
-18.26627122789114
 30
0.0
 40
0.7556755000000069
  0
CIRCLE
  5
82
330
2
100
AcDbEntity
  8
GAIKEI
  6
Continuous
 62
     1
100
AcDbCircle
 10
-13.92883183069648
 20
-18.26627122789114
 30
0.0
 40
0.7556754999998702
  0
CIRCLE
  5
83
330
2
100
AcDbEntity
  8
GAIKEI
  6
Continuous
 62
     1
100
AcDbCircle
 10
-13.92883183069648
 20
-18.26627122789114
 30
0.0
 40
0.6138385999998718
  0
CIRCLE
  5
84
330
2
100
AcDbEntity
  8
GAIKEI
  6
Continuous
 62
     1
100
AcDbCircle
 10
-13.92883183069648
 20
-18.26627122789114
 30
0.0
 40
0.6447663999998895
  0
ARC
  5
85
330
2
100
AcDbEntity
  8
GAIKEI
  6
Continuous
 62
     1
100
AcDbCircle
 10
-54.72883183069621
 20
-18.26627122789114
 30
0.0
 40
0.3999999999995612
100
AcDbArc
 50
9.352044000017968
 51
80.64795699994283
  0
ARC
  5
86
330
2
100
AcDbEntity
  8
GAIKEI
  6
Continuous
 62
     1
100
AcDbCircle
 10
-54.72883183069621
 20
-18.26627122789114
 30
0.0
 40
0.4000000000000244
100
AcDbArc
 50
279.3520320000252
 51
350.6479520000023
  0
ARC
  5
87
330
2
100
AcDbEntity
  8
GAIKEI
  6
Continuous
 62
     1
100
AcDbCircle
 10
-54.72883183069621
 20
-18.26627122789114
 30
0.0
 40
0.4000000000003324
100
AcDbArc
 50
189.3520500000041
 51
260.6479690000532
  0
ARC
  5
88
330
2
100
AcDbEntity
  8
GAIKEI
  6
Continuous
 62
     1
100
AcDbCircle
 10
-54.72883183069621
 20
-18.26627122789114
 30
0.0
 40
0.4000000000000239
100
AcDbArc
 50
99.35203399999576
 51
170.6479599999915
  0
ARC
  5
89
330
2
100
AcDbEntity
  8
GAIKEI
  6
Continuous
 62
     1
100
AcDbCircle
 10
-54.72883183069621
 20
-18.26627122789114
 30
0.0
 40
0.5000000000000109
100
AcDbArc
 50
97.46959300002231
 51
172.5304150000058
  0
ARC
  5
8A
330
2
100
AcDbEntity
  8
GAIKEI
  6
Continuous
 62
     1
100
AcDbCircle
 10
-54.72883183069621
 20
-18.26627122789114
 30
0.0
 40
0.4999999999999483
100
AcDbArc
 50
187.4695959999953
 51
262.5303969999531
  0
ARC
  5
8B
330
2
100
AcDbEntity
  8
GAIKEI
  6
Continuous
 62
     1
100
AcDbCircle
 10
-54.72883183069621
 20
-18.26627122789114
 30
0.0
 40
0.5000000000000121
100
AcDbArc
 50
277.4696050000216
 51
352.5304059999915
  0
ARC
  5
8C
330
2
100
AcDbEntity
  8
GAIKEI
  6
Continuous
 62
     1
100
AcDbCircle
 10
-54.72883183069621
 20
-18.26627122789114
 30
0.0
 40
0.5000000000001589
100
AcDbArc
 50
7.469591999993868
 51
82.53040500000466
  0
ARC
  5
8D
330
2
100
AcDbEntity
  8
GAIKEI
  6
Continuous
 62
     1
100
AcDbCircle
 10
-54.72883183069621
 20
-18.26627122789114
 30
0.0
 40
0.4500000000004672
100
AcDbArc
 50
8.305109999996828
 51
81.69488799998843
  0
ARC
  5
8E
330
2
100
AcDbEntity
  8
GAIKEI
  6
Continuous
 62
     1
100
AcDbCircle
 10
-54.72883183069621
 20
-18.26627122789114
 30
0.0
 40
0.4499999999999793
100
AcDbArc
 50
98.30511000002225
 51
171.6948909999995
  0
ARC
  5
8F
330
2
100
AcDbEntity
  8
GAIKEI
  6
Continuous
 62
     1
100
AcDbCircle
 10
-54.72883183069621
 20
-18.26627122789114
 30
0.0
 40
0.4499999999999625
100
AcDbArc
 50
278.3051009999776
 51
351.6948830000036
  0
ARC
  5
90
330
2
100
AcDbEntity
  8
GAIKEI
  6
Continuous
 62
     1
100
AcDbCircle
 10
-54.72883183069621
 20
-18.26627122789114
 30
0.0
 40
0.4499999999995875
100
AcDbArc
 50
188.3051060000014
 51
261.6948999999518
  0
ARC
  5
91
330
2
100
AcDbEntity
  8
GAIKEI
  6
Continuous
 62
     1
100
AcDbCircle
 10
-54.72883183069621
 20
-18.26627122789114
 30
0.0
 40
0.5000000000000217
100
AcDbArc
 50
82.53040500000466
 51
97.46959300002231
  0
ARC
  5
92
330
2
100
AcDbEntity
  8
GAIKEI
  6
Continuous
 62
     1
100
AcDbCircle
 10
-54.72883183069621
 20
-18.26627122789114
 30
0.0
 40
0.4999999999999932
100
AcDbArc
 50
352.5304059999915
 51
7.469586999995718
  0
ARC
  5
93
330
2
100
AcDbEntity
  8
GAIKEI
  6
Continuous
 62
     1
100
AcDbCircle
 10
-54.72883183069621
 20
-18.26627122789114
 30
0.0
 40
0.5000000000000883
100
AcDbArc
 50
262.5303969999531
 51
277.4696050000216
  0
ARC
  5
94
330
2
100
AcDbEntity
  8
GAIKEI
  6
Continuous
 62
     1
100
AcDbCircle
 10
-54.72883183069621
 20
-18.26627122789114
 30
0.0
 40
0.4999999999998887
100
AcDbArc
 50
172.5304150000058
 51
187.4695959999953
  0
ARC
  5
95
330
2
100
AcDbEntity
  8
GAIKEI
  6
Continuous
 62
     1
100
AcDbCircle
 10
17.1247171110142
 20
23.80126717210874
 30
0.0
 40
0.0500000000000002
100
AcDbArc
 50
180.0000049999744
 51
218.6598060000626
  0
ARC
  5
96
330
2
100
AcDbEntity
  8
GAIKEI
  6
Continuous
 62
     1
100
AcDbCircle
 10
17.13875521101386
 20
23.28372567210886
 30
0.0
 40
0.0500000000002859
100
AcDbArc
 50
141.3401920002387
 51
218.6598060000523
  0
ARC
  5
97
330
2
100
AcDbEntity
  8
GAIKEI
  6
Continuous
 62
     1
100
AcDbCircle
 10
17.13875521101386
 20
22.78372567210886
 30
0.0
 40
0.0500000000002859
100
AcDbArc
 50
141.3401920002387
 51
218.6598060000523
  0
ARC
  5
98
330
2
100
AcDbEntity
  8
GAIKEI
  6
Continuous
 62
     1
100
AcDbCircle
 10
17.13875521101386
 20
22.28372567210886
 30
0.0
 40
0.0500000000002859
100
AcDbArc
 50
141.3401920002387
 51
218.6598060000523
  0
ARC
  5
99
330
2
100
AcDbEntity
  8
GAIKEI
  6
Continuous
 62
     1
100
AcDbCircle
 10
17.13875521101386
 20
21.78372567210886
 30
0.0
 40
0.0500000000002859
100
AcDbArc
 50
141.3401920002387
 51
218.6598060000523
  0
ARC
  5
9A
330
2
100
AcDbEntity
  8
GAIKEI
  6
Continuous
 62
     1
100
AcDbCircle
 10
17.13875521101386
 20
21.28372567210886
 30
0.0
 40
0.0500000000002859
100
AcDbArc
 50
141.3401920002387
 51
218.6598060000523
  0
ARC
  5
9B
330
2
100
AcDbEntity
  8
GAIKEI
  6
Continuous
 62
     1
100
AcDbCircle
 10
17.13875521101386
 20
20.78372567210886
 30
0.0
 40
0.0500000000002859
100
AcDbArc
 50
141.3401920002387
 51
218.6598060000523
  0
ARC
  5
9C
330
2
100
AcDbEntity
  8
GAIKEI
  6
Continuous
 62
     1
100
AcDbCircle
 10
17.13875521101386
 20
20.28372717210891
 30
0.0
 40
0.0500000000003001
100
AcDbArc
 50
141.340192000218
 51
218.6598060000254
  0
ARC
  5
9D
330
2
100
AcDbEntity
  8
GAIKEI
  6
Continuous
 62
     1
100
AcDbCircle
 10
17.13875521101386
 20
19.78372717210891
 30
0.0
 40
0.0500000000003001
100
AcDbArc
 50
141.340192000218
 51
218.6598060000254
  0
ARC
  5
9E
330
2
100
AcDbEntity
  8
GAIKEI
  6
Continuous
 62
     1
100
AcDbCircle
 10
17.13875521101386
 20
19.28372717210891
 30
0.0
 40
0.0500000000003001
100
AcDbArc
 50
141.340192000218
 51
218.6598060000254
  0
ARC
  5
9F
330
2
100
AcDbEntity
  8
GAIKEI
  6
Continuous
 62
     1
100
AcDbCircle
 10
17.13875521101386
 20
18.78372717210891
 30
0.0
 40
0.0500000000003001
100
AcDbArc
 50
141.340192000218
 51
218.6598060000254
  0
ARC
  5
A0
330
2
100
AcDbEntity
  8
GAIKEI
  6
Continuous
 62
     1
100
AcDbCircle
 10
17.13875521101386
 20
18.28372877210881
 30
0.0
 40
0.0500000000002859
100
AcDbArc
 50
141.3401920002387
 51
218.6598060000523
  0
ARC
  5
A1
330
2
100
AcDbEntity
  8
GAIKEI
  6
Continuous
 62
     1
100
AcDbCircle
 10
17.13875521101386
 20
17.78372877210881
 30
0.0
 40
0.0500000000002859
100
AcDbArc
 50
141.3401920002387
 51
218.6598060000523
  0
ARC
  5
A2
330
2
100
AcDbEntity
  8
GAIKEI
  6
Continuous
 62
     1
100
AcDbCircle
 10
17.13875521101386
 20
17.28372877210881
 30
0.0
 40
0.0500000000002859
100
AcDbArc
 50
141.3401920002387
 51
218.6598060000523
  0
ARC
  5
A3
330
2
100
AcDbEntity
  8
GAIKEI
  6
Continuous
 62
     1
100
AcDbCircle
 10
17.13875521101386
 20
16.78372877210881
 30
0.0
 40
0.0500000000002859
100
AcDbArc
 50
141.3401920002387
 51
218.6598060000523
  0
ARC
  5
A4
330
2
100
AcDbEntity
  8
GAIKEI
  6
Continuous
 62
     1
100
AcDbCircle
 10
17.13875521101386
 20
16.28372877210881
 30
0.0
 40
0.0500000000002859
100
AcDbArc
 50
141.3401920002387
 51
218.6598060000523
  0
ARC
  5
A5
330
2
100
AcDbEntity
  8
GAIKEI
  6
Continuous
 62
     1
100
AcDbCircle
 10
17.13875521101386
 20
15.78372877210881
 30
0.0
 40
0.0500000000002859
100
AcDbArc
 50
141.3401920002387
 51
218.6598060000523
  0
ARC
  5
A6
330
2
100
AcDbEntity
  8
GAIKEI
  6
Continuous
 62
     1
100
AcDbCircle
 10
17.13875521101386
 20
15.28372877210881
 30
0.0
 40
0.0500000000002859
100
AcDbArc
 50
141.3401920002387
 51
218.6598060000523
  0
ARC
  5
A7
330
2
100
AcDbEntity
  8
GAIKEI
  6
Continuous
 62
     1
100
AcDbCircle
 10
17.13875521101386
 20
14.78372877210881
 30
0.0
 40
0.0500000000002859
100
AcDbArc
 50
141.3401920002387
 51
218.6598060000523
  0
ARC
  5
A8
330
2
100
AcDbEntity
  8
GAIKEI
  6
Continuous
 62
     1
100
AcDbCircle
 10
17.13875521101386
 20
14.28372877210881
 30
0.0
 40
0.0500000000002859
100
AcDbArc
 50
141.3401920002387
 51
218.6598060000523
  0
ARC
  5
A9
330
2
100
AcDbEntity
  8
GAIKEI
  6
Continuous
 62
     1
100
AcDbCircle
 10
17.13875521101386
 20
13.78372877210881
 30
0.0
 40
0.0500000000002859
100
AcDbArc
 50
141.3401920002387
 51
218.6598060000523
  0
ARC
  5
AA
330
2
100
AcDbEntity
  8
GAIKEI
  6
Continuous
 62
     1
100
AcDbCircle
 10
17.13875521101386
 20
13.28372877210881
 30
0.0
 40
0.0500000000002859
100
AcDbArc
 50
141.3401920002387
 51
218.6598060000523
  0
ARC
  5
AB
330
2
100
AcDbEntity
  8
GAIKEI
  6
Continuous
 62
     1
100
AcDbCircle
 10
17.13875521101386
 20
12.78372877210881
 30
0.0
 40
0.0500000000002859
100
AcDbArc
 50
141.3401920002387
 51
218.6598060000523
  0
ARC
  5
AC
330
2
100
AcDbEntity
  8
GAIKEI
  6
Continuous
 62
     1
100
AcDbCircle
 10
17.13875521101386
 20
12.28372877210881
 30
0.0
 40
0.0500000000002859
100
AcDbArc
 50
141.3401920002387
 51
218.6598060000523
  0
ARC
  5
AD
330
2
100
AcDbEntity
  8
GAIKEI
  6
Continuous
 62
     1
100
AcDbCircle
 10
17.13875521101386
 20
11.78372877210881
 30
0.0
 40
0.0500000000002859
100
AcDbArc
 50
141.3401920002387
 51
218.6598060000523
  0
ARC
  5
AE
330
2
100
AcDbEntity
  8
GAIKEI
  6
Continuous
 62
     1
100
AcDbCircle
 10
17.13875521101386
 20
11.28372877210881
 30
0.0
 40
0.0500000000002859
100
AcDbArc
 50
141.3401920002387
 51
218.6598060000523
  0
ARC
  5
AF
330
2
100
AcDbEntity
  8
GAIKEI
  6
Continuous
 62
     1
100
AcDbCircle
 10
17.13875521101386
 20
10.78372877210881
 30
0.0
 40
0.0500000000002859
100
AcDbArc
 50
141.3401920002387
 51
218.6598060000523
  0
ARC
  5
B0
330
2
100
AcDbEntity
  8
GAIKEI
  6
Continuous
 62
     1
100
AcDbCircle
 10
17.13875521101386
 20
10.28372877210881
 30
0.0
 40
0.0500000000002859
100
AcDbArc
 50
141.3401920002387
 51
218.6598060000523
  0
ARC
  5
B1
330
2
100
AcDbEntity
  8
GAIKEI
  6
Continuous
 62
     1
100
AcDbCircle
 10
17.13875521101386
 20
9.783728772108815
 30
0.0
 40
0.0500000000002859
100
AcDbArc
 50
141.3401920002387
 51
218.6598060000523
  0
ARC
  5
B2
330
2
100
AcDbEntity
  8
GAIKEI
  6
Continuous
 62
     1
100
AcDbCircle
 10
17.13875521101386
 20
9.283728772108815
 30
0.0
 40
0.0500000000002859
100
AcDbArc
 50
141.3401920002387
 51
218.6598060000523
  0
ARC
  5
B3
330
2
100
AcDbEntity
  8
GAIKEI
  6
Continuous
 62
     1
100
AcDbCircle
 10
17.13875521101386
 20
8.783728772108815
 30
0.0
 40
0.0500000000002859
100
AcDbArc
 50
141.3401920002387
 51
218.6598060000523
  0
ARC
  5
B4
330
2
100
AcDbEntity
  8
GAIKEI
  6
Continuous
 62
     1
100
AcDbCircle
 10
17.13875521101386
 20
8.283728772108815
 30
0.0
 40
0.0500000000002859
100
AcDbArc
 50
141.3401920002387
 51
218.6598060000523
  0
ARC
  5
B5
330
2
100
AcDbEntity
  8
GAIKEI
  6
Continuous
 62
     1
100
AcDbCircle
 10
17.13875521101386
 20
7.783728772108815
 30
0.0
 40
0.0500000000002859
100
AcDbArc
 50
141.3401920002387
 51
218.6598060000523
  0
ARC
  5
B6
330
2
100
AcDbEntity
  8
GAIKEI
  6
Continuous
 62
     1
100
AcDbCircle
 10
17.13875521101386
 20
7.283728772108815
 30
0.0
 40
0.0500000000002859
100
AcDbArc
 50
141.3401920002387
 51
218.6598060000523
  0
ARC
  5
B7
330
2
100
AcDbEntity
  8
GAIKEI
  6
Continuous
 62
     1
100
AcDbCircle
 10
17.13875521101386
 20
6.783728772108815
 30
0.0
 40
0.0500000000002859
100
AcDbArc
 50
141.3401920002387
 51
218.6598060000523
  0
ARC
  5
B8
330
2
100
AcDbEntity
  8
GAIKEI
  6
Continuous
 62
     1
100
AcDbCircle
 10
17.13875521101386
 20
6.283728772108815
 30
0.0
 40
0.0500000000002859
100
AcDbArc
 50
141.3401920002387
 51
218.6598060000523
  0
ARC
  5
B9
330
2
100
AcDbEntity
  8
GAIKEI
  6
Continuous
 62
     1
100
AcDbCircle
 10
17.13875521101386
 20
5.783728772108815
 30
0.0
 40
0.0500000000002859
100
AcDbArc
 50
141.3401920002387
 51
218.6598060000523
  0
ARC
  5
BA
330
2
100
AcDbEntity
  8
GAIKEI
  6
Continuous
 62
     1
100
AcDbCircle
 10
17.13875521101386
 20
5.283728772108815
 30
0.0
 40
0.0500000000002859
100
AcDbArc
 50
141.3401920002387
 51
218.6598060000523
  0
ARC
  5
BB
330
2
100
AcDbEntity
  8
GAIKEI
  6
Continuous
 62
     1
100
AcDbCircle
 10
17.13875521101386
 20
4.783728772108815
 30
0.0
 40
0.0500000000002859
100
AcDbArc
 50
141.3401920002387
 51
218.6598060000523
  0
ARC
  5
BC
330
2
100
AcDbEntity
  8
GAIKEI
  6
Continuous
 62
     1
100
AcDbCircle
 10
17.13875521101386
 20
4.283728772108815
 30
0.0
 40
0.0500000000002859
100
AcDbArc
 50
141.3401920002387
 51
218.6598060000523
  0
ARC
  5
BD
330
2
100
AcDbEntity
  8
GAIKEI
  6
Continuous
 62
     1
100
AcDbCircle
 10
17.13875521101386
 20
3.783728772108815
 30
0.0
 40
0.0500000000002859
100
AcDbArc
 50
141.3401920002387
 51
218.6598060000523
  0
ARC
  5
BE
330
2
100
AcDbEntity
  8
GAIKEI
  6
Continuous
 62
     1
100
AcDbCircle
 10
17.13875521101386
 20
3.283728772108815
 30
0.0
 40
0.0500000000002859
100
AcDbArc
 50
141.3401920002387
 51
218.6598060000523
  0
ARC
  5
BF
330
2
100
AcDbEntity
  8
GAIKEI
  6
Continuous
 62
     1
100
AcDbCircle
 10
17.13875521101386
 20
2.783728772108815
 30
0.0
 40
0.0500000000002859
100
AcDbArc
 50
141.3401920002387
 51
218.6598060000523
  0
ARC
  5
C0
330
2
100
AcDbEntity
  8
GAIKEI
  6
Continuous
 62
     1
100
AcDbCircle
 10
17.13875521101386
 20
2.283728772108815
 30
0.0
 40
0.0500000000002859
100
AcDbArc
 50
141.3401920002387
 51
218.6598060000523
  0
ARC
  5
C1
330
2
100
AcDbEntity
  8
GAIKEI
  6
Continuous
 62
     1
100
AcDbCircle
 10
17.13875521101386
 20
1.783728772108815
 30
0.0
 40
0.0500000000002859
100
AcDbArc
 50
141.3401920002387
 51
218.6598060000523
  0
ARC
  5
C2
330
2
100
AcDbEntity
  8
GAIKEI
  6
Continuous
 62
     1
100
AcDbCircle
 10
17.13875521101386
 20
1.283725672108857
 30
0.0
 40
0.0500000000002859
100
AcDbArc
 50
141.3401920002387
 51
218.6598060000523
  0
ARC
  5
C3
330
2
100
AcDbEntity
  8
GAIKEI
  6
Continuous
 62
     1
100
AcDbCircle
 10
17.13875521101386
 20
0.7837256721088579
 30
0.0
 40
0.0500000000002859
100
AcDbArc
 50
141.3401920002387
 51
218.6598060000523
  0
ARC
  5
C4
330
2
100
AcDbEntity
  8
GAIKEI
  6
Continuous
 62
     1
100
AcDbCircle
 10
17.13875521101386
 20
0.2837256721088579
 30
0.0
 40
0.0500000000002859
100
AcDbArc
 50
141.3401920002387
 51
218.6598060000523
  0
ARC
  5
C5
330
2
100
AcDbEntity
  8
GAIKEI
  6
Continuous
 62
     1
100
AcDbCircle
 10
17.13875521101386
 20
-0.2162743278911421
 30
0.0
 40
0.0500000000002859
100
AcDbArc
 50
141.3401920002387
 51
218.6598060000523
  0
ARC
  5
C6
330
2
100
AcDbEntity
  8
GAIKEI
  6
Continuous
 62
     1
100
AcDbCircle
 10
17.13875521101386
 20
-0.7162743278911421
 30
0.0
 40
0.0500000000002859
100
AcDbArc
 50
141.3401920002387
 51
218.6598060000523
  0
ARC
  5
C7
330
2
100
AcDbEntity
  8
GAIKEI
  6
Continuous
 62
     1
100
AcDbCircle
 10
17.13875521101386
 20
-1.216274327891142
 30
0.0
 40
0.0500000000002859
100
AcDbArc
 50
141.3401920002387
 51
218.6598060000523
  0
ARC
  5
C8
330
2
100
AcDbEntity
  8
GAIKEI
  6
Continuous
 62
     1
100
AcDbCircle
 10
17.13875521101386
 20
-1.716274327891142
 30
0.0
 40
0.0500000000002859
100
AcDbArc
 50
141.3401920002387
 51
218.6598060000523
  0
ARC
  5
C9
330
2
100
AcDbEntity
  8
GAIKEI
  6
Continuous
 62
     1
100
AcDbCircle
 10
17.13875521101386
 20
-2.216274327891142
 30
0.0
 40
0.0500000000002859
100
AcDbArc
 50
141.3401920002387
 51
218.6598060000523
  0
ARC
  5
CA
330
2
100
AcDbEntity
  8
GAIKEI
  6
Continuous
 62
     1
100
AcDbCircle
 10
17.13875521101386
 20
-2.716274327891142
 30
0.0
 40
0.0500000000002859
100
AcDbArc
 50
141.3401920002387
 51
218.6598060000523
  0
ARC
  5
CB
330
2
100
AcDbEntity
  8
GAIKEI
  6
Continuous
 62
     1
100
AcDbCircle
 10
17.13875521101386
 20
-3.216274327891142
 30
0.0
 40
0.0500000000002859
100
AcDbArc
 50
141.3401920002387
 51
218.6598060000523
  0
ARC
  5
CC
330
2
100
AcDbEntity
  8
GAIKEI
  6
Continuous
 62
     1
100
AcDbCircle
 10
17.13875521101386
 20
-3.716274327891142
 30
0.0
 40
0.0500000000002859
100
AcDbArc
 50
141.3401920002387
 51
218.6598060000523
  0
ARC
  5
CD
330
2
100
AcDbEntity
  8
GAIKEI
  6
Continuous
 62
     1
100
AcDbCircle
 10
17.13875521101386
 20
-4.216274327891142
 30
0.0
 40
0.0500000000002859
100
AcDbArc
 50
141.3401920002387
 51
218.6598060000523
  0
ARC
  5
CE
330
2
100
AcDbEntity
  8
GAIKEI
  6
Continuous
 62
     1
100
AcDbCircle
 10
17.13875521101386
 20
-4.716274327891142
 30
0.0
 40
0.0500000000002859
100
AcDbArc
 50
141.3401920002387
 51
218.6598060000523
  0
ARC
  5
CF
330
2
100
AcDbEntity
  8
GAIKEI
  6
Continuous
 62
     1
100
AcDbCircle
 10
17.13875521101386
 20
-5.216274327891142
 30
0.0
 40
0.0500000000002859
100
AcDbArc
 50
141.3401920002387
 51
218.6598060000523
  0
ARC
  5
D0
330
2
100
AcDbEntity
  8
GAIKEI
  6
Continuous
 62
     1
100
AcDbCircle
 10
17.13875521101386
 20
-5.716274327891142
 30
0.0
 40
0.0500000000002859
100
AcDbArc
 50
141.3401920002387
 51
218.6598060000523
  0
ARC
  5
D1
330
2
100
AcDbEntity
  8
GAIKEI
  6
Continuous
 62
     1
100
AcDbCircle
 10
17.13875521101386
 20
-6.216274327891142
 30
0.0
 40
0.0500000000002859
100
AcDbArc
 50
141.3401920002387
 51
218.6598060000523
  0
ARC
  5
D2
330
2
100
AcDbEntity
  8
GAIKEI
  6
Continuous
 62
     1
100
AcDbCircle
 10
17.13875521101386
 20
-6.716274327891142
 30
0.0
 40
0.0500000000002859
100
AcDbArc
 50
141.3401920002387
 51
218.6598060000523
  0
ARC
  5
D3
330
2
100
AcDbEntity
  8
GAIKEI
  6
Continuous
 62
     1
100
AcDbCircle
 10
17.13875521101386
 20
-7.216274327891142
 30
0.0
 40
0.0500000000002859
100
AcDbArc
 50
141.3401920002387
 51
218.6598060000523
  0
ARC
  5
D4
330
2
100
AcDbEntity
  8
GAIKEI
  6
Continuous
 62
     1
100
AcDbCircle
 10
17.13875521101386
 20
-7.716271227891184
 30
0.0
 40
0.0500000000002859
100
AcDbArc
 50
141.3401920002387
 51
218.6598060000523
  0
ARC
  5
D5
330
2
100
AcDbEntity
  8
GAIKEI
  6
Continuous
 62
     1
100
AcDbCircle
 10
17.13875521101386
 20
-8.216271227891184
 30
0.0
 40
0.0500000000002859
100
AcDbArc
 50
141.3401920002387
 51
218.6598060000523
  0
ARC
  5
D6
330
2
100
AcDbEntity
  8
GAIKEI
  6
Continuous
 62
     1
100
AcDbCircle
 10
17.13875521101386
 20
-8.716271227891184
 30
0.0
 40
0.0500000000002859
100
AcDbArc
 50
141.3401920002387
 51
218.6598060000523
  0
ARC
  5
D7
330
2
100
AcDbEntity
  8
GAIKEI
  6
Continuous
 62
     1
100
AcDbCircle
 10
17.13875521101386
 20
-9.216271227891184
 30
0.0
 40
0.0500000000002859
100
AcDbArc
 50
141.3401920002387
 51
218.6598060000523
  0
ARC
  5
D8
330
2
100
AcDbEntity
  8
GAIKEI
  6
Continuous
 62
     1
100
AcDbCircle
 10
17.13875521101386
 20
-9.716271227891184
 30
0.0
 40
0.0500000000002859
100
AcDbArc
 50
141.3401920002387
 51
218.6598060000523
  0
ARC
  5
D9
330
2
100
AcDbEntity
  8
GAIKEI
  6
Continuous
 62
     1
100
AcDbCircle
 10
17.13875521101386
 20
-10.21627122789118
 30
0.0
 40
0.0500000000002859
100
AcDbArc
 50
141.3401920002387
 51
218.6598060000523
  0
ARC
  5
DA
330
2
100
AcDbEntity
  8
GAIKEI
  6
Continuous
 62
     1
100
AcDbCircle
 10
17.13875521101386
 20
-10.71627122789118
 30
0.0
 40
0.0500000000002859
100
AcDbArc
 50
141.3401920002387
 51
218.6598060000523
  0
ARC
  5
DB
330
2
100
AcDbEntity
  8
GAIKEI
  6
Continuous
 62
     1
100
AcDbCircle
 10
17.13875521101386
 20
-11.21627122789118
 30
0.0
 40
0.0500000000002859
100
AcDbArc
 50
141.3401920002387
 51
218.6598060000523
  0
ARC
  5
DC
330
2
100
AcDbEntity
  8
GAIKEI
  6
Continuous
 62
     1
100
AcDbCircle
 10
17.13875521101386
 20
-11.71627122789118
 30
0.0
 40
0.0500000000002859
100
AcDbArc
 50
141.3401920002387
 51
218.6598060000523
  0
ARC
  5
DD
330
2
100
AcDbEntity
  8
GAIKEI
  6
Continuous
 62
     1
100
AcDbCircle
 10
17.13875521101386
 20
-12.21627122789118
 30
0.0
 40
0.0500000000002859
100
AcDbArc
 50
141.3401920002387
 51
218.6598060000523
  0
ARC
  5
DE
330
2
100
AcDbEntity
  8
GAIKEI
  6
Continuous
 62
     1
100
AcDbCircle
 10
17.13875521101386
 20
-12.71627122789118
 30
0.0
 40
0.0500000000002859
100
AcDbArc
 50
141.3401920002387
 51
218.6598060000523
  0
ARC
  5
DF
330
2
100
AcDbEntity
  8
GAIKEI
  6
Continuous
 62
     1
100
AcDbCircle
 10
17.13875521101386
 20
-13.21627122789118
 30
0.0
 40
0.0500000000002859
100
AcDbArc
 50
141.3401920002387
 51
218.6598060000523
  0
ARC
  5
E0
330
2
100
AcDbEntity
  8
GAIKEI
  6
Continuous
 62
     1
100
AcDbCircle
 10
17.13875521101386
 20
-13.71627122789118
 30
0.0
 40
0.0500000000002859
100
AcDbArc
 50
141.3401920002387
 51
218.6598060000523
  0
ARC
  5
E1
330
2
100
AcDbEntity
  8
GAIKEI
  6
Continuous
 62
     1
100
AcDbCircle
 10
17.13875521101386
 20
-14.21627122789118
 30
0.0
 40
0.0500000000002859
100
AcDbArc
 50
141.3401920002387
 51
218.6598060000523
  0
ARC
  5
E2
330
2
100
AcDbEntity
  8
GAIKEI
  6
Continuous
 62
     1
100
AcDbCircle
 10
17.13875521101386
 20
-14.71627122789118
 30
0.0
 40
0.0500000000002859
100
AcDbArc
 50
141.3401920002387
 51
218.6598060000523
  0
ARC
  5
E3
330
2
100
AcDbEntity
  8
GAIKEI
  6
Continuous
 62
     1
100
AcDbCircle
 10
17.13875521101386
 20
-15.21627122789118
 30
0.0
 40
0.0500000000002859
100
AcDbArc
 50
141.3401920002387
 51
218.6598060000523
  0
ARC
  5
E4
330
2
100
AcDbEntity
  8
GAIKEI
  6
Continuous
 62
     1
100
AcDbCircle
 10
17.13875521101386
 20
-15.71627122789118
 30
0.0
 40
0.0500000000002859
100
AcDbArc
 50
141.3401920002387
 51
218.6598060000523
  0
ARC
  5
E5
330
2
100
AcDbEntity
  8
GAIKEI
  6
Continuous
 62
     1
100
AcDbCircle
 10
17.13875521101386
 20
-16.21627122789118
 30
0.0
 40
0.0500000000002859
100
AcDbArc
 50
141.3401920002387
 51
218.6598060000523
  0
ARC
  5
E6
330
2
100
AcDbEntity
  8
GAIKEI
  6
Continuous
 62
     1
100
AcDbCircle
 10
17.13875521101386
 20
-16.71627122789118
 30
0.0
 40
0.0500000000002859
100
AcDbArc
 50
141.3401920002387
 51
218.6598060000523
  0
ARC
  5
E7
330
2
100
AcDbEntity
  8
GAIKEI
  6
Continuous
 62
     1
100
AcDbCircle
 10
17.13875521101386
 20
-17.21627122789118
 30
0.0
 40
0.0500000000002859
100
AcDbArc
 50
141.3401920002387
 51
218.6598060000523
  0
ARC
  5
E8
330
2
100
AcDbEntity
  8
GAIKEI
  6
Continuous
 62
     1
100
AcDbCircle
 10
17.13875521101386
 20
-17.71627122789118
 30
0.0
 40
0.0500000000002859
100
AcDbArc
 50
141.3401920002387
 51
218.6598060000523
  0
ARC
  5
E9
330
2
100
AcDbEntity
  8
GAIKEI
  6
Continuous
 62
     1
100
AcDbCircle
 10
17.13875521101386
 20
-18.21627122789118
 30
0.0
 40
0.0500000000002859
100
AcDbArc
 50
141.3401920002387
 51
218.6598060000523
  0
ARC
  5
EA
330
2
100
AcDbEntity
  8
GAIKEI
  6
Continuous
 62
     1
100
AcDbCircle
 10
17.13875521101386
 20
-18.71627122789118
 30
0.0
 40
0.0500000000002859
100
AcDbArc
 50
141.3401920002387
 51
218.6598060000523
  0
ARC
  5
EB
330
2
100
AcDbEntity
  8
GAIKEI
  6
Continuous
 62
     1
100
AcDbCircle
 10
17.13875521101386
 20
-19.21627122789118
 30
0.0
 40
0.0500000000002859
100
AcDbArc
 50
141.3401920002387
 51
218.6598060000523
  0
ARC
  5
EC
330
2
100
AcDbEntity
  8
GAIKEI
  6
Continuous
 62
     1
100
AcDbCircle
 10
17.1247171110142
 20
-19.73381272789106
 30
0.0
 40
0.0500000000001935
100
AcDbArc
 50
141.3401920001181
 51
180.0000049999744
  0
ARC
  5
ED
330
2
100
AcDbEntity
  8
GAIKEI
  6
Continuous
 62
     1
100
AcDbCircle
 10
17.21067901101401
 20
23.53372567210886
 30
0.0
 40
0.0499999999996751
100
AcDbArc
 50
321.3401899997673
 51
38.65981000023273
  0
ARC
  5
EE
330
2
100
AcDbEntity
  8
GAIKEI
  6
Continuous
 62
     1
100
AcDbCircle
 10
17.21067901101401
 20
23.03372567210886
 30
0.0
 40
0.0499999999996751
100
AcDbArc
 50
321.3401899997673
 51
38.65981000023273
  0
ARC
  5
EF
330
2
100
AcDbEntity
  8
GAIKEI
  6
Continuous
 62
     1
100
AcDbCircle
 10
17.21067901101401
 20
22.53372567210886
 30
0.0
 40
0.0499999999996751
100
AcDbArc
 50
321.3401899997673
 51
38.65981000023273
  0
ARC
  5
F0
330
2
100
AcDbEntity
  8
GAIKEI
  6
Continuous
 62
     1
100
AcDbCircle
 10
17.21067901101401
 20
22.03372567210886
 30
0.0
 40
0.0499999999996751
100
AcDbArc
 50
321.3401899997673
 51
38.65981000023273
  0
ARC
  5
F1
330
2
100
AcDbEntity
  8
GAIKEI
  6
Continuous
 62
     1
100
AcDbCircle
 10
17.21067901101401
 20
21.53372567210886
 30
0.0
 40
0.0499999999996751
100
AcDbArc
 50
321.3401899997673
 51
38.65981000023273
  0
ARC
  5
F2
330
2
100
AcDbEntity
  8
GAIKEI
  6
Continuous
 62
     1
100
AcDbCircle
 10
17.21067901101401
 20
21.03372567210886
 30
0.0
 40
0.0499999999996751
100
AcDbArc
 50
321.3401899997673
 51
38.65981000023273
  0
ARC
  5
F3
330
2
100
AcDbEntity
  8
GAIKEI
  6
Continuous
 62
     1
100
AcDbCircle
 10
17.21067901101401
 20
20.53372567210886
 30
0.0
 40
0.0499999999996751
100
AcDbArc
 50
321.3401899997673
 51
38.65981000023273
  0
ARC
  5
F4
330
2
100
AcDbEntity
  8
GAIKEI
  6
Continuous
 62
     1
100
AcDbCircle
 10
17.21067901101401
 20
20.03372717210891
 30
0.0
 40
0.0499999999996751
100
AcDbArc
 50
321.3401899997673
 51
38.65981000023273
  0
ARC
  5
F5
330
2
100
AcDbEntity
  8
GAIKEI
  6
Continuous
 62
     1
100
AcDbCircle
 10
17.21067901101401
 20
19.53372717210891
 30
0.0
 40
0.0499999999996751
100
AcDbArc
 50
321.3401899997673
 51
38.65981000023273
  0
ARC
  5
F6
330
2
100
AcDbEntity
  8
GAIKEI
  6
Continuous
 62
     1
100
AcDbCircle
 10
17.21067901101401
 20
19.03372717210891
 30
0.0
 40
0.0499999999996751
100
AcDbArc
 50
321.3401899997673
 51
38.65981000023273
  0
ARC
  5
F7
330
2
100
AcDbEntity
  8
GAIKEI
  6
Continuous
 62
     1
100
AcDbCircle
 10
17.21067901101401
 20
18.53372717210891
 30
0.0
 40
0.0499999999996751
100
AcDbArc
 50
321.3401899997673
 51
38.65981000023273
  0
ARC
  5
F8
330
2
100
AcDbEntity
  8
GAIKEI
  6
Continuous
 62
     1
100
AcDbCircle
 10
17.21067901101401
 20
18.03372877210881
 30
0.0
 40
0.0499999999996751
100
AcDbArc
 50
321.3401899997673
 51
38.65981000023273
  0
ARC
  5
F9
330
2
100
AcDbEntity
  8
GAIKEI
  6
Continuous
 62
     1
100
AcDbCircle
 10
17.21067901101401
 20
17.53372877210881
 30
0.0
 40
0.0499999999996751
100
AcDbArc
 50
321.3401899997673
 51
38.65981000023273
  0
ARC
  5
FA
330
2
100
AcDbEntity
  8
GAIKEI
  6
Continuous
 62
     1
100
AcDbCircle
 10
17.21067901101401
 20
17.03372877210881
 30
0.0
 40
0.0499999999996751
100
AcDbArc
 50
321.3401899997673
 51
38.65981000023273
  0
ARC
  5
FB
330
2
100
AcDbEntity
  8
GAIKEI
  6
Continuous
 62
     1
100
AcDbCircle
 10
17.21067901101401
 20
16.53372877210881
 30
0.0
 40
0.0499999999996751
100
AcDbArc
 50
321.3401899997673
 51
38.65981000023273
  0
ARC
  5
FC
330
2
100
AcDbEntity
  8
GAIKEI
  6
Continuous
 62
     1
100
AcDbCircle
 10
17.21067901101401
 20
16.03372877210881
 30
0.0
 40
0.0499999999996751
100
AcDbArc
 50
321.3401899997673
 51
38.65981000023273
  0
ARC
  5
FD
330
2
100
AcDbEntity
  8
GAIKEI
  6
Continuous
 62
     1
100
AcDbCircle
 10
17.21067901101401
 20
15.53372877210881
 30
0.0
 40
0.0499999999996751
100
AcDbArc
 50
321.3401899997673
 51
38.65981000023273
  0
ARC
  5
FE
330
2
100
AcDbEntity
  8
GAIKEI
  6
Continuous
 62
     1
100
AcDbCircle
 10
17.21067901101401
 20
15.03372877210881
 30
0.0
 40
0.0499999999996751
100
AcDbArc
 50
321.3401899997673
 51
38.65981000023273
  0
ARC
  5
FF
330
2
100
AcDbEntity
  8
GAIKEI
  6
Continuous
 62
     1
100
AcDbCircle
 10
17.21067901101401
 20
14.53372877210881
 30
0.0
 40
0.0499999999996751
100
AcDbArc
 50
321.3401899997673
 51
38.65981000023273
  0
ARC
  5
100
330
2
100
AcDbEntity
  8
GAIKEI
  6
Continuous
 62
     1
100
AcDbCircle
 10
17.21067901101401
 20
14.03372877210881
 30
0.0
 40
0.0499999999996751
100
AcDbArc
 50
321.3401899997673
 51
38.65981000023273
  0
ARC
  5
101
330
2
100
AcDbEntity
  8
GAIKEI
  6
Continuous
 62
     1
100
AcDbCircle
 10
17.21067901101401
 20
13.53372877210881
 30
0.0
 40
0.0499999999996751
100
AcDbArc
 50
321.3401899997673
 51
38.65981000023273
  0
ARC
  5
102
330
2
100
AcDbEntity
  8
GAIKEI
  6
Continuous
 62
     1
100
AcDbCircle
 10
17.21067901101401
 20
13.03372877210881
 30
0.0
 40
0.0499999999996751
100
AcDbArc
 50
321.3401899997673
 51
38.65981000023273
  0
ARC
  5
103
330
2
100
AcDbEntity
  8
GAIKEI
  6
Continuous
 62
     1
100
AcDbCircle
 10
17.21067901101401
 20
12.53372877210881
 30
0.0
 40
0.0499999999996751
100
AcDbArc
 50
321.3401899997673
 51
38.65981000023273
  0
ARC
  5
104
330
2
100
AcDbEntity
  8
GAIKEI
  6
Continuous
 62
     1
100
AcDbCircle
 10
17.21067901101401
 20
12.03372877210881
 30
0.0
 40
0.0499999999996751
100
AcDbArc
 50
321.3401899997673
 51
38.65981000023273
  0
ARC
  5
105
330
2
100
AcDbEntity
  8
GAIKEI
  6
Continuous
 62
     1
100
AcDbCircle
 10
17.21067901101401
 20
11.53372877210881
 30
0.0
 40
0.0499999999996751
100
AcDbArc
 50
321.3401899997673
 51
38.65981000023273
  0
ARC
  5
106
330
2
100
AcDbEntity
  8
GAIKEI
  6
Continuous
 62
     1
100
AcDbCircle
 10
17.21067901101401
 20
11.03372877210881
 30
0.0
 40
0.0499999999996751
100
AcDbArc
 50
321.3401899997673
 51
38.65981000023273
  0
ARC
  5
107
330
2
100
AcDbEntity
  8
GAIKEI
  6
Continuous
 62
     1
100
AcDbCircle
 10
17.21067901101401
 20
10.53372877210881
 30
0.0
 40
0.0499999999996751
100
AcDbArc
 50
321.3401899997673
 51
38.65981000023273
  0
ARC
  5
108
330
2
100
AcDbEntity
  8
GAIKEI
  6
Continuous
 62
     1
100
AcDbCircle
 10
17.21067901101401
 20
10.03372877210881
 30
0.0
 40
0.0499999999996751
100
AcDbArc
 50
321.3401899997673
 51
38.65981000023273
  0
ARC
  5
109
330
2
100
AcDbEntity
  8
GAIKEI
  6
Continuous
 62
     1
100
AcDbCircle
 10
17.21067901101401
 20
9.533728772108815
 30
0.0
 40
0.0499999999996751
100
AcDbArc
 50
321.3401899997673
 51
38.65981000023273
  0
ARC
  5
10A
330
2
100
AcDbEntity
  8
GAIKEI
  6
Continuous
 62
     1
100
AcDbCircle
 10
17.21067901101401
 20
9.033728772108815
 30
0.0
 40
0.0499999999996751
100
AcDbArc
 50
321.3401899997673
 51
38.65981000023273
  0
ARC
  5
10B
330
2
100
AcDbEntity
  8
GAIKEI
  6
Continuous
 62
     1
100
AcDbCircle
 10
17.21067901101401
 20
8.533728772108815
 30
0.0
 40
0.0499999999996751
100
AcDbArc
 50
321.3401899997673
 51
38.65981000023273
  0
ARC
  5
10C
330
2
100
AcDbEntity
  8
GAIKEI
  6
Continuous
 62
     1
100
AcDbCircle
 10
17.21067901101401
 20
8.033728772108815
 30
0.0
 40
0.0499999999996751
100
AcDbArc
 50
321.3401899997673
 51
38.65981000023273
  0
ARC
  5
10D
330
2
100
AcDbEntity
  8
GAIKEI
  6
Continuous
 62
     1
100
AcDbCircle
 10
17.21067901101401
 20
7.533728772108815
 30
0.0
 40
0.0499999999996751
100
AcDbArc
 50
321.3401899997673
 51
38.65981000023273
  0
ARC
  5
10E
330
2
100
AcDbEntity
  8
GAIKEI
  6
Continuous
 62
     1
100
AcDbCircle
 10
17.21067901101401
 20
7.033728772108815
 30
0.0
 40
0.0499999999996751
100
AcDbArc
 50
321.3401899997673
 51
38.65981000023273
  0
ARC
  5
10F
330
2
100
AcDbEntity
  8
GAIKEI
  6
Continuous
 62
     1
100
AcDbCircle
 10
17.21067901101401
 20
6.533728772108815
 30
0.0
 40
0.0499999999996751
100
AcDbArc
 50
321.3401899997673
 51
38.65981000023273
  0
ARC
  5
110
330
2
100
AcDbEntity
  8
GAIKEI
  6
Continuous
 62
     1
100
AcDbCircle
 10
17.21067901101401
 20
6.033728772108815
 30
0.0
 40
0.0499999999996751
100
AcDbArc
 50
321.3401899997673
 51
38.65981000023273
  0
ARC
  5
111
330
2
100
AcDbEntity
  8
GAIKEI
  6
Continuous
 62
     1
100
AcDbCircle
 10
17.21067901101401
 20
5.533728772108815
 30
0.0
 40
0.0499999999996751
100
AcDbArc
 50
321.3401899997673
 51
38.65981000023273
  0
ARC
  5
112
330
2
100
AcDbEntity
  8
GAIKEI
  6
Continuous
 62
     1
100
AcDbCircle
 10
17.21067901101401
 20
5.033728772108815
 30
0.0
 40
0.0499999999996751
100
AcDbArc
 50
321.3401899997673
 51
38.65981000023273
  0
ARC
  5
113
330
2
100
AcDbEntity
  8
GAIKEI
  6
Continuous
 62
     1
100
AcDbCircle
 10
17.21067901101401
 20
4.533728772108815
 30
0.0
 40
0.0499999999996751
100
AcDbArc
 50
321.3401899997673
 51
38.65981000023273
  0
ARC
  5
114
330
2
100
AcDbEntity
  8
GAIKEI
  6
Continuous
 62
     1
100
AcDbCircle
 10
17.21067901101401
 20
4.033728772108815
 30
0.0
 40
0.0499999999996751
100
AcDbArc
 50
321.3401899997673
 51
38.65981000023273
  0
ARC
  5
115
330
2
100
AcDbEntity
  8
GAIKEI
  6
Continuous
 62
     1
100
AcDbCircle
 10
17.21067901101401
 20
3.533728772108815
 30
0.0
 40
0.0499999999996751
100
AcDbArc
 50
321.3401899997673
 51
38.65981000023273
  0
ARC
  5
116
330
2
100
AcDbEntity
  8
GAIKEI
  6
Continuous
 62
     1
100
AcDbCircle
 10
17.21067901101401
 20
3.033728772108815
 30
0.0
 40
0.0499999999996751
100
AcDbArc
 50
321.3401899997673
 51
38.65981000023273
  0
ARC
  5
117
330
2
100
AcDbEntity
  8
GAIKEI
  6
Continuous
 62
     1
100
AcDbCircle
 10
17.21067901101401
 20
2.533728772108815
 30
0.0
 40
0.0499999999996751
100
AcDbArc
 50
321.3401899997673
 51
38.65981000023273
  0
ARC
  5
118
330
2
100
AcDbEntity
  8
GAIKEI
  6
Continuous
 62
     1
100
AcDbCircle
 10
17.21067901101401
 20
2.033728772108815
 30
0.0
 40
0.0499999999996751
100
AcDbArc
 50
321.3401899997673
 51
38.65981000023273
  0
ARC
  5
119
330
2
100
AcDbEntity
  8
GAIKEI
  6
Continuous
 62
     1
100
AcDbCircle
 10
17.21067901101401
 20
1.533728772108815
 30
0.0
 40
0.0499999999996751
100
AcDbArc
 50
321.3401899997673
 51
38.65981000023273
  0
ARC
  5
11A
330
2
100
AcDbEntity
  8
GAIKEI
  6
Continuous
 62
     1
100
AcDbCircle
 10
17.21067901101401
 20
1.033725672108857
 30
0.0
 40
0.0499999999996751
100
AcDbArc
 50
321.3401899997673
 51
38.65981000023273
  0
ARC
  5
11B
330
2
100
AcDbEntity
  8
GAIKEI
  6
Continuous
 62
     1
100
AcDbCircle
 10
17.21067901101401
 20
0.5337256721088579
 30
0.0
 40
0.0499999999996751
100
AcDbArc
 50
321.3401899997673
 51
38.65981000023273
  0
ARC
  5
11C
330
2
100
AcDbEntity
  8
GAIKEI
  6
Continuous
 62
     1
100
AcDbCircle
 10
17.21067901101401
 20
0.0337256721088579
 30
0.0
 40
0.0499999999996751
100
AcDbArc
 50
321.3401899997673
 51
38.65981000023273
  0
ARC
  5
11D
330
2
100
AcDbEntity
  8
GAIKEI
  6
Continuous
 62
     1
100
AcDbCircle
 10
17.21067901101401
 20
-0.4662743278911421
 30
0.0
 40
0.0499999999996751
100
AcDbArc
 50
321.3401899997673
 51
38.65981000023273
  0
ARC
  5
11E
330
2
100
AcDbEntity
  8
GAIKEI
  6
Continuous
 62
     1
100
AcDbCircle
 10
17.21067901101401
 20
-0.966274327891142
 30
0.0
 40
0.0499999999996751
100
AcDbArc
 50
321.3401899997673
 51
38.65981000023273
  0
ARC
  5
11F
330
2
100
AcDbEntity
  8
GAIKEI
  6
Continuous
 62
     1
100
AcDbCircle
 10
17.21067901101401
 20
-1.466274327891142
 30
0.0
 40
0.0499999999996751
100
AcDbArc
 50
321.3401899997673
 51
38.65981000023273
  0
ARC
  5
120
330
2
100
AcDbEntity
  8
GAIKEI
  6
Continuous
 62
     1
100
AcDbCircle
 10
17.21067901101401
 20
-1.966274327891142
 30
0.0
 40
0.0499999999996751
100
AcDbArc
 50
321.3401899997673
 51
38.65981000023273
  0
ARC
  5
121
330
2
100
AcDbEntity
  8
GAIKEI
  6
Continuous
 62
     1
100
AcDbCircle
 10
17.21067901101401
 20
-2.466274327891142
 30
0.0
 40
0.0499999999996751
100
AcDbArc
 50
321.3401899997673
 51
38.65981000023273
  0
ARC
  5
122
330
2
100
AcDbEntity
  8
GAIKEI
  6
Continuous
 62
     1
100
AcDbCircle
 10
17.21067901101401
 20
-2.966274327891142
 30
0.0
 40
0.0499999999996751
100
AcDbArc
 50
321.3401899997673
 51
38.65981000023273
  0
ARC
  5
123
330
2
100
AcDbEntity
  8
GAIKEI
  6
Continuous
 62
     1
100
AcDbCircle
 10
17.21067901101401
 20
-3.466274327891142
 30
0.0
 40
0.0499999999996751
100
AcDbArc
 50
321.3401899997673
 51
38.65981000023273
  0
ARC
  5
124
330
2
100
AcDbEntity
  8
GAIKEI
  6
Continuous
 62
     1
100
AcDbCircle
 10
17.21067901101401
 20
-3.966274327891142
 30
0.0
 40
0.0499999999996751
100
AcDbArc
 50
321.3401899997673
 51
38.65981000023273
  0
ARC
  5
125
330
2
100
AcDbEntity
  8
GAIKEI
  6
Continuous
 62
     1
100
AcDbCircle
 10
17.21067901101401
 20
-4.466274327891142
 30
0.0
 40
0.0499999999996751
100
AcDbArc
 50
321.3401899997673
 51
38.65981000023273
  0
ARC
  5
126
330
2
100
AcDbEntity
  8
GAIKEI
  6
Continuous
 62
     1
100
AcDbCircle
 10
17.21067901101401
 20
-4.966274327891142
 30
0.0
 40
0.0499999999996751
100
AcDbArc
 50
321.3401899997673
 51
38.65981000023273
  0
ARC
  5
127
330
2
100
AcDbEntity
  8
GAIKEI
  6
Continuous
 62
     1
100
AcDbCircle
 10
17.21067901101401
 20
-5.466274327891142
 30
0.0
 40
0.0499999999996751
100
AcDbArc
 50
321.3401899997673
 51
38.65981000023273
  0
ARC
  5
128
330
2
100
AcDbEntity
  8
GAIKEI
  6
Continuous
 62
     1
100
AcDbCircle
 10
17.21067901101401
 20
-5.966274327891142
 30
0.0
 40
0.0499999999996751
100
AcDbArc
 50
321.3401899997673
 51
38.65981000023273
  0
ARC
  5
129
330
2
100
AcDbEntity
  8
GAIKEI
  6
Continuous
 62
     1
100
AcDbCircle
 10
17.21067901101401
 20
-6.466274327891142
 30
0.0
 40
0.0499999999996751
100
AcDbArc
 50
321.3401899997673
 51
38.65981000023273
  0
ARC
  5
12A
330
2
100
AcDbEntity
  8
GAIKEI
  6
Continuous
 62
     1
100
AcDbCircle
 10
17.21067901101401
 20
-6.966274327891142
 30
0.0
 40
0.0499999999996751
100
AcDbArc
 50
321.3401899997673
 51
38.65981000023273
  0
ARC
  5
12B
330
2
100
AcDbEntity
  8
GAIKEI
  6
Continuous
 62
     1
100
AcDbCircle
 10
17.21067901101401
 20
-7.466271227891184
 30
0.0
 40
0.0499999999996751
100
AcDbArc
 50
321.3401899997673
 51
38.65981000023273
  0
ARC
  5
12C
330
2
100
AcDbEntity
  8
GAIKEI
  6
Continuous
 62
     1
100
AcDbCircle
 10
17.21067901101401
 20
-7.966271227891184
 30
0.0
 40
0.0499999999996751
100
AcDbArc
 50
321.3401899997673
 51
38.65981000023273
  0
ARC
  5
12D
330
2
100
AcDbEntity
  8
GAIKEI
  6
Continuous
 62
     1
100
AcDbCircle
 10
17.21067901101401
 20
-8.466271227891184
 30
0.0
 40
0.0499999999996751
100
AcDbArc
 50
321.3401899997673
 51
38.65981000023273
  0
ARC
  5
12E
330
2
100
AcDbEntity
  8
GAIKEI
  6
Continuous
 62
     1
100
AcDbCircle
 10
17.21067901101401
 20
-8.966271227891184
 30
0.0
 40
0.0499999999996751
100
AcDbArc
 50
321.3401899997673
 51
38.65981000023273
  0
ARC
  5
12F
330
2
100
AcDbEntity
  8
GAIKEI
  6
Continuous
 62
     1
100
AcDbCircle
 10
17.21067901101401
 20
-9.466271227891184
 30
0.0
 40
0.0499999999996751
100
AcDbArc
 50
321.3401899997673
 51
38.65981000023273
  0
ARC
  5
130
330
2
100
AcDbEntity
  8
GAIKEI
  6
Continuous
 62
     1
100
AcDbCircle
 10
17.21067901101401
 20
-9.966271227891184
 30
0.0
 40
0.0499999999996751
100
AcDbArc
 50
321.3401899997673
 51
38.65981000023273
  0
ARC
  5
131
330
2
100
AcDbEntity
  8
GAIKEI
  6
Continuous
 62
     1
100
AcDbCircle
 10
17.21067901101401
 20
-10.46627122789118
 30
0.0
 40
0.0499999999996751
100
AcDbArc
 50
321.3401899997673
 51
38.65981000023273
  0
ARC
  5
132
330
2
100
AcDbEntity
  8
GAIKEI
  6
Continuous
 62
     1
100
AcDbCircle
 10
17.21067901101401
 20
-10.96627122789118
 30
0.0
 40
0.0499999999996751
100
AcDbArc
 50
321.3401899997673
 51
38.65981000023273
  0
ARC
  5
133
330
2
100
AcDbEntity
  8
GAIKEI
  6
Continuous
 62
     1
100
AcDbCircle
 10
17.21067901101401
 20
-11.46627122789118
 30
0.0
 40
0.0499999999996751
100
AcDbArc
 50
321.3401899997673
 51
38.65981000023273
  0
ARC
  5
134
330
2
100
AcDbEntity
  8
GAIKEI
  6
Continuous
 62
     1
100
AcDbCircle
 10
17.21067901101401
 20
-11.96627122789118
 30
0.0
 40
0.0499999999996751
100
AcDbArc
 50
321.3401899997673
 51
38.65981000023273
  0
ARC
  5
135
330
2
100
AcDbEntity
  8
GAIKEI
  6
Continuous
 62
     1
100
AcDbCircle
 10
17.21067901101401
 20
-12.46627122789118
 30
0.0
 40
0.0499999999996751
100
AcDbArc
 50
321.3401899997673
 51
38.65981000023273
  0
ARC
  5
136
330
2
100
AcDbEntity
  8
GAIKEI
  6
Continuous
 62
     1
100
AcDbCircle
 10
17.21067901101401
 20
-12.96627122789118
 30
0.0
 40
0.0499999999996751
100
AcDbArc
 50
321.3401899997673
 51
38.65981000023273
  0
ARC
  5
137
330
2
100
AcDbEntity
  8
GAIKEI
  6
Continuous
 62
     1
100
AcDbCircle
 10
17.21067901101401
 20
-13.46627122789118
 30
0.0
 40
0.0499999999996751
100
AcDbArc
 50
321.3401899997673
 51
38.65981000023273
  0
ARC
  5
138
330
2
100
AcDbEntity
  8
GAIKEI
  6
Continuous
 62
     1
100
AcDbCircle
 10
17.21067901101401
 20
-13.96627122789118
 30
0.0
 40
0.0499999999996751
100
AcDbArc
 50
321.3401899997673
 51
38.65981000023273
  0
ARC
  5
139
330
2
100
AcDbEntity
  8
GAIKEI
  6
Continuous
 62
     1
100
AcDbCircle
 10
17.21067901101401
 20
-14.46627122789118
 30
0.0
 40
0.0499999999996751
100
AcDbArc
 50
321.3401899997673
 51
38.65981000023273
  0
ARC
  5
13A
330
2
100
AcDbEntity
  8
GAIKEI
  6
Continuous
 62
     1
100
AcDbCircle
 10
17.21067901101401
 20
-14.96627122789118
 30
0.0
 40
0.0499999999996751
100
AcDbArc
 50
321.3401899997673
 51
38.65981000023273
  0
ARC
  5
13B
330
2
100
AcDbEntity
  8
GAIKEI
  6
Continuous
 62
     1
100
AcDbCircle
 10
17.21067901101401
 20
-15.46627122789118
 30
0.0
 40
0.0499999999996751
100
AcDbArc
 50
321.3401899997673
 51
38.65981000023273
  0
ARC
  5
13C
330
2
100
AcDbEntity
  8
GAIKEI
  6
Continuous
 62
     1
100
AcDbCircle
 10
17.21067901101401
 20
-15.96627122789118
 30
0.0
 40
0.0499999999996751
100
AcDbArc
 50
321.3401899997673
 51
38.65981000023273
  0
ARC
  5
13D
330
2
100
AcDbEntity
  8
GAIKEI
  6
Continuous
 62
     1
100
AcDbCircle
 10
17.21067901101401
 20
-16.46627122789118
 30
0.0
 40
0.0499999999996751
100
AcDbArc
 50
321.3401899997673
 51
38.65981000023273
  0
ARC
  5
13E
330
2
100
AcDbEntity
  8
GAIKEI
  6
Continuous
 62
     1
100
AcDbCircle
 10
17.21067901101401
 20
-16.96627122789118
 30
0.0
 40
0.0499999999996751
100
AcDbArc
 50
321.3401899997673
 51
38.65981000023273
  0
ARC
  5
13F
330
2
100
AcDbEntity
  8
GAIKEI
  6
Continuous
 62
     1
100
AcDbCircle
 10
17.21067901101401
 20
-17.46627122789118
 30
0.0
 40
0.0499999999996751
100
AcDbArc
 50
321.3401899997673
 51
38.65981000023273
  0
ARC
  5
140
330
2
100
AcDbEntity
  8
GAIKEI
  6
Continuous
 62
     1
100
AcDbCircle
 10
17.21067901101401
 20
-17.96627122789118
 30
0.0
 40
0.0499999999996751
100
AcDbArc
 50
321.3401899997673
 51
38.65981000023273
  0
ARC
  5
141
330
2
100
AcDbEntity
  8
GAIKEI
  6
Continuous
 62
     1
100
AcDbCircle
 10
17.21067901101401
 20
-18.46627122789118
 30
0.0
 40
0.0499999999996751
100
AcDbArc
 50
321.3401899997673
 51
38.65981000023273
  0
ARC
  5
142
330
2
100
AcDbEntity
  8
GAIKEI
  6
Continuous
 62
     1
100
AcDbCircle
 10
17.21067901101401
 20
-18.96627122789118
 30
0.0
 40
0.0499999999996751
100
AcDbArc
 50
321.3401899997673
 51
38.65981000023273
  0
ARC
  5
143
330
2
100
AcDbEntity
  8
GAIKEI
  6
Continuous
 62
     1
100
AcDbCircle
 10
17.21067901101401
 20
-19.46627122789118
 30
0.0
 40
0.0499999999996751
100
AcDbArc
 50
321.3401899997673
 51
38.65981000023273
  0
ARC
  5
144
330
2
100
AcDbEntity
  8
GAIKEI
  6
Continuous
 62
     1
100
AcDbCircle
 10
19.89471221101416
 20
-19.91497732789116
 30
0.0
 40
0.1799999999999906
100
AcDbArc
 50
273.0000110000428
 51
0.0000099999879789
  0
ARC
  5
145
330
2
100
AcDbEntity
  8
GAIKEI
  6
Continuous
 62
     1
100
AcDbCircle
 10
19.89471221101416
 20
23.98243177210884
 30
0.0
 40
0.1800000000000182
100
AcDbArc
 50
0.0
 51
86.99999900003641
  0
ARC
  5
146
330
2
100
AcDbEntity
  8
GAIKEI
  6
Continuous
 62
     7
100
AcDbCircle
 10
17.04942411101433
 20
13.65372687210879
 30
0.0
 40
0.0299999999999955
100
AcDbArc
 50
90.00000300042762
 51
168.9770090002084
  0
ARC
  5
147
330
2
100
AcDbEntity
  8
GAIKEI
  6
Continuous
 62
     7
100
AcDbCircle
 10
17.13636261101396
 20
13.4044928721089
 30
0.0
 40
0.2792361000000002
100
AcDbArc
 50
86.14619100003586
 51
89.949390999941
  0
ARC
  5
148
330
2
100
AcDbEntity
  8
GAIKEI
  6
Continuous
 62
     7
100
AcDbCircle
 10
16.01338901101394
 20
-13.65955742789106
 30
0.0
 40
0.4999999999999498
100
AcDbArc
 50
184.7264860000014
 51
210.8014450000332
  0
ARC
  5
149
330
2
100
AcDbEntity
  8
GAIKEI
  6
Continuous
 62
     7
100
AcDbCircle
 10
115.1750345110142
 20
-5.460836027891218
 30
0.0
 40
100.0000000000003
100
AcDbArc
 50
168.9770089999944
 51
184.7264819999941
  0
ARC
  5
14A
330
2
100
AcDbEntity
  8
GAIKEI
  6
Continuous
 62
     7
100
AcDbCircle
 10
17.27471711101384
 20
23.85243297210877
 30
0.0
 40
0.2000000000000044
100
AcDbArc
 50
92.99999900004719
 51
180.0
  0
ARC
  5
14B
330
2
100
AcDbEntity
  8
GAIKEI
  6
Continuous
 62
     1
100
AcDbCircle
 10
115.1645853110142
 20
-5.460836027891218
 30
0.0
 40
99.80000000000003
100
AcDbArc
 50
169.2132510000064
 51
184.7264819999941
  0
ARC
  5
14C
330
2
100
AcDbEntity
  8
GAIKEI
  6
Continuous
 62
     1
100
AcDbCircle
 10
16.0029398110139
 20
-13.65955742789106
 30
0.0
 40
0.2999994999995019
100
AcDbArc
 50
184.7264720000186
 51
210.8014450000086
  0
ARC
  5
14D
330
2
100
AcDbEntity
  8
GAIKEI
  6
Continuous
 62
     7
100
AcDbCircle
 10
17.27471711101384
 20
-19.7849785278911
 30
0.0
 40
0.2000000000000008
100
AcDbArc
 50
180.0
 51
266.9999900000982
  0
ARC
  5
14E
330
2
100
AcDbEntity
  8
GAIKEI
  6
Continuous
 62
     7
100
AcDbCircle
 10
-12.22923463069651
 20
23.98412547210887
 30
0.0
 40
0.1995934000000168
100
AcDbArc
 50
89.96451999986772
 51
180.0354810000101
  0
ARC
  5
14F
330
2
100
AcDbEntity
  8
GAIKEI
  6
Continuous
 62
     7
100
AcDbCircle
 10
-3.328441230696398
 20
23.98412547210887
 30
0.0
 40
0.1995934000003046
100
AcDbArc
 50
359.9645249999995
 51
90.03548499989923
  0
ARC
  5
150
330
2
100
AcDbEntity
  8
GAIKEI
  6
Continuous
 62
     7
100
AcDbCircle
 10
-3.328441230696398
 20
-19.91666802789109
 30
0.0
 40
0.1995934000000027
100
AcDbArc
 50
269.9645150001008
 51
0.0354750000005405
  0
ARC
  5
151
330
2
100
AcDbEntity
  8
GAIKEI
  6
Continuous
 62
     7
100
AcDbCircle
 10
-12.22923463069651
 20
-19.91666802789109
 30
0.0
 40
0.1995933999996811
100
AcDbArc
 50
179.9645290000188
 51
270.0354899999007
  0
ARC
  5
152
330
2
100
AcDbEntity
  8
GAIKEI
  6
Continuous
 62
     1
100
AcDbCircle
 10
-13.92883183069648
 20
-18.26627122789114
 30
0.0
 40
0.4999999999998887
100
AcDbArc
 50
172.5304150000058
 51
187.4695959999953
  0
ARC
  5
153
330
2
100
AcDbEntity
  8
GAIKEI
  6
Continuous
 62
     1
100
AcDbCircle
 10
-13.92883183069648
 20
-18.26627122789114
 30
0.0
 40
0.5000000000000883
100
AcDbArc
 50
262.5303969999531
 51
277.4696049999958
  0
ARC
  5
154
330
2
100
AcDbEntity
  8
GAIKEI
  6
Continuous
 62
     1
100
AcDbCircle
 10
-13.92883183069648
 20
-18.26627122789114
 30
0.0
 40
0.4999999999999481
100
AcDbArc
 50
352.5304059999915
 51
7.469586999995718
  0
ARC
  5
155
330
2
100
AcDbEntity
  8
GAIKEI
  6
Continuous
 62
     1
100
AcDbCircle
 10
-13.92883183069648
 20
-18.26627122789114
 30
0.0
 40
0.5000000000000217
100
AcDbArc
 50
82.53040500000466
 51
97.46959300004816
  0
ARC
  5
156
330
2
100
AcDbEntity
  8
GAIKEI
  6
Continuous
 62
     1
100
AcDbCircle
 10
-13.92883183069648
 20
-18.26627122789114
 30
0.0
 40
0.4499999999997224
100
AcDbArc
 50
188.3051060000014
 51
261.6948999999518
  0
ARC
  5
157
330
2
100
AcDbEntity
  8
GAIKEI
  6
Continuous
 62
     1
100
AcDbCircle
 10
-13.92883183069648
 20
-18.26627122789114
 30
0.0
 40
0.4499999999999559
100
AcDbArc
 50
278.3051009999757
 51
351.6948829999905
  0
ARC
  5
158
330
2
100
AcDbEntity
  8
GAIKEI
  6
Continuous
 62
     1
100
AcDbCircle
 10
-13.92883183069648
 20
-18.26627122789114
 30
0.0
 40
0.4499999999999989
100
AcDbArc
 50
98.30511000004824
 51
171.6948909999995
  0
ARC
  5
159
330
2
100
AcDbEntity
  8
GAIKEI
  6
Continuous
 62
     1
100
AcDbCircle
 10
-13.92883183069648
 20
-18.26627122789114
 30
0.0
 40
0.4500000000003323
100
AcDbArc
 50
8.305109999996828
 51
81.694888000016
  0
ARC
  5
15A
330
2
100
AcDbEntity
  8
GAIKEI
  6
Continuous
 62
     1
100
AcDbCircle
 10
-13.92883183069648
 20
-18.26627122789114
 30
0.0
 40
0.5000000000000236
100
AcDbArc
 50
7.469592000006997
 51
82.53040500000466
  0
ARC
  5
15B
330
2
100
AcDbEntity
  8
GAIKEI
  6
Continuous
 62
     1
100
AcDbCircle
 10
-13.92883183069648
 20
-18.26627122789114
 30
0.0
 40
0.4999999999999942
100
AcDbArc
 50
277.4696049999958
 51
352.5304059999915
  0
ARC
  5
15C
330
2
100
AcDbEntity
  8
GAIKEI
  6
Continuous
 62
     1
100
AcDbCircle
 10
-13.92883183069648
 20
-18.26627122789114
 30
0.0
 40
0.4999999999999935
100
AcDbArc
 50
187.4695959999953
 51
262.5303969999531
  0
ARC
  5
15D
330
2
100
AcDbEntity
  8
GAIKEI
  6
Continuous
 62
     1
100
AcDbCircle
 10
-13.92883183069648
 20
-18.26627122789114
 30
0.0
 40
0.5000000000000285
100
AcDbArc
 50
97.46959300004816
 51
172.5304150000058
  0
ARC
  5
15E
330
2
100
AcDbEntity
  8
GAIKEI
  6
Continuous
 62
     1
100
AcDbCircle
 10
-13.92883183069648
 20
-18.26627122789114
 30
0.0
 40
0.4000000000000239
100
AcDbArc
 50
99.35203399999576
 51
170.6479599999915
  0
ARC
  5
15F
330
2
100
AcDbEntity
  8
GAIKEI
  6
Continuous
 62
     1
100
AcDbCircle
 10
-13.92883183069648
 20
-18.26627122789114
 30
0.0
 40
0.400000000000467
100
AcDbArc
 50
189.352049999991
 51
260.6479690000532
  0
ARC
  5
160
330
2
100
AcDbEntity
  8
GAIKEI
  6
Continuous
 62
     1
100
AcDbCircle
 10
-13.92883183069648
 20
-18.26627122789114
 30
0.0
 40
0.4000000000000023
100
AcDbArc
 50
279.3520319999974
 51
350.6479520000023
  0
ARC
  5
161
330
2
100
AcDbEntity
  8
GAIKEI
  6
Continuous
 62
     1
100
AcDbCircle
 10
-13.92883183069648
 20
-18.26627122789114
 30
0.0
 40
0.3999999999995612
100
AcDbArc
 50
9.352044000017968
 51
80.64795699996874
  0
ARC
  5
162
330
2
100
AcDbEntity
  8
GAIKEI
  6
Continuous
 62
     1
100
AcDbCircle
 10
-50.79880253069609
 20
2.9853919721088
 30
0.0
 40
0.200019999999949
100
AcDbArc
 50
179.9933929999952
 51
269.9933889999766
  0
ARC
  5
163
330
2
100
AcDbEntity
  8
GAIKEI
  6
Continuous
 62
     1
100
AcDbCircle
 10
-42.97885623069646
 20
2.9853919721088
 30
0.0
 40
0.200019999999982
100
AcDbArc
 50
270.0066159999979
 51
0.0066139999950918
  0
ARC
  5
164
330
2
100
AcDbEntity
  8
GAIKEI
  6
Continuous
 62
     1
100
AcDbCircle
 10
-42.97885623069646
 20
12.08725967210876
 30
0.0
 40
0.2000201000002129
100
AcDbArc
 50
359.9934120000025
 51
89.99334999994111
  0
ARC
  5
165
330
2
100
AcDbEntity
  8
GAIKEI
  6
Continuous
 62
     1
100
AcDbCircle
 10
-50.79880253069609
 20
12.08725967210876
 30
0.0
 40
0.200020099999956
100
AcDbArc
 50
90.00663500008332
 51
180.0065889999924
  0
ARC
  5
166
330
2
100
AcDbEntity
  8
GAIKEI
  6
Continuous
 62
     1
100
AcDbCircle
 10
9.69072386930361
 20
-15.42802052789125
 30
0.0
 40
63.8195679000005
100
AcDbArc
 50
180.0092569999974
 51
180.7252649999957
  0
ARC
  5
167
330
2
100
AcDbEntity
  8
GAIKEI
  6
Continuous
 62
     1
100
AcDbCircle
 10
-78.3483875306963
 20
-15.42802052789125
 30
0.0
 40
63.8195678999999
100
AcDbArc
 50
359.274730000007
 51
359.9907400000048
  0
ARC
  5
168
330
2
100
AcDbEntity
  8
GAIKEI
  6
Continuous
 62
     1
100
AcDbCircle
 10
-54.21772343069665
 20
-16.36426322789111
 30
0.0
 40
0.052009100000019
100
AcDbArc
 50
270.077348999888
 51
287.2549129994966
  0
ARC
  5
169
330
2
100
AcDbEntity
  8
GAIKEI
  6
Continuous
 62
     1
100
AcDbCircle
 10
-14.43994023069649
 20
-16.36426322789111
 30
0.0
 40
0.0520091000001665
100
AcDbArc
 50
252.7450879994685
 51
269.9226520003944
  0
ARC
  5
16A
330
2
100
AcDbEntity
  8
GAIKEI
  6
Continuous
 62
     1
100
AcDbCircle
 10
-14.62493783069635
 20
-14.10407642789119
 30
0.0
 40
0.1866871999999822
100
AcDbArc
 50
56.22380800002988
 51
90.33889599996763
  0
ARC
  5
16B
330
2
100
AcDbEntity
  8
GAIKEI
  6
Continuous
 62
     1
100
AcDbCircle
 10
-54.03272593069619
 20
-14.10407642789119
 30
0.0
 40
0.1866876000000279
100
AcDbArc
 50
89.66114299999409
 51
123.7761429998454
  0
ARC
  5
16C
330
2
100
AcDbEntity
  8
GAIKEI
  6
Continuous
 62
     1
100
AcDbCircle
 10
-55.96373173069628
 20
13.64882887210888
 30
0.0
 40
0.0338964999996099
100
AcDbArc
 50
134.7908189993993
 51
171.6876110001019
  0
ARC
  5
16D
330
2
100
AcDbEntity
  8
GAIKEI
  6
Continuous
 62
     1
100
AcDbCircle
 10
-69.25809213069647
 20
-13.67272872789113
 30
0.0
 40
13.54234619999957
100
AcDbArc
 50
358.9724240000007
 51
359.8814069999995
  0
ARC
  5
16E
330
2
100
AcDbEntity
  8
GAIKEI
  6
Continuous
 62
     1
100
AcDbCircle
 10
-12.69393193069641
 20
13.64882887210888
 30
0.0
 40
0.0338965000000493
100
AcDbArc
 50
8.312394000081424
 51
45.20918299958984
  0
ARC
  5
16F
330
2
100
AcDbEntity
  8
GAIKEI
  6
Continuous
 62
     1
100
AcDbCircle
 10
0.6109386693035504
 20
-13.67282642789109
 30
0.0
 40
13.55284730000024
100
AcDbArc
 50
180.1180750000057
 51
181.0263540000012
  0
ARC
  5
170
330
2
100
AcDbEntity
  8
GAIKEI
  6
Continuous
 62
     1
100
AcDbCircle
 10
-60.79597053069642
 20
-13.66750412789111
 30
0.0
 40
4.880501600000182
100
AcDbArc
 50
358.2895899999957
 51
359.803094000002
  0
ARC
  5
171
330
2
100
AcDbEntity
  8
GAIKEI
  6
Continuous
 62
     7
100
AcDbCircle
 10
-55.92923463069633
 20
23.98412547210887
 30
0.0
 40
0.1995934000000168
100
AcDbArc
 50
89.96451999986772
 51
180.0354810000101
  0
ARC
  5
172
330
2
100
AcDbEntity
  8
GAIKEI
  6
Continuous
 62
     7
100
AcDbCircle
 10
-12.72842903069636
 20
23.98412547210887
 30
0.0
 40
0.1995934000006248
100
AcDbArc
 50
359.9645180000079
 51
90.03547899992875
  0
ARC
  5
173
330
2
100
AcDbEntity
  8
GAIKEI
  6
Continuous
 62
     1
100
AcDbCircle
 10
-7.861693130696266
 20
-13.66750412789111
 30
0.0
 40
4.880501599999668
100
AcDbArc
 50
180.1969090000004
 51
181.7104110000018
  0
ARC
  5
174
330
2
100
AcDbEntity
  8
GAIKEI
  6
Continuous
 62
     7
100
AcDbCircle
 10
-12.72842903069636
 20
-19.91666802789109
 30
0.0
 40
0.1995933999999511
100
AcDbArc
 50
269.9645210000712
 51
0.035481999992165
  0
ARC
  5
175
330
2
100
AcDbEntity
  8
GAIKEI
  6
Continuous
 62
     7
100
AcDbCircle
 10
-55.92923463069633
 20
-19.91666802789109
 30
0.0
 40
0.1995933999996811
100
AcDbArc
 50
179.9645290000188
 51
270.0354899999007
  0
ARC
  5
176
330
2
100
AcDbEntity
  8
GAIKEI
  6
Continuous
 62
     1
100
AcDbCircle
 10
21.57471711101402
 20
23.54310493041862
 30
0.0
 40
1.04063473669351
100
AcDbArc
 50
67.38712560449267
 51
112.6128743954782
  0
ARC
  5
177
330
2
100
AcDbEntity
  8
GAIKEI
  6
Continuous
 62
     1
100
AcDbCircle
 10
51.72471711101412
 20
23.54310493041862
 30
0.0
 40
1.04063473669351
100
AcDbArc
 50
67.38712560449267
 51
112.6128743954782
  0
ARC
  5
178
330
2
100
AcDbEntity
  8
GAIKEI
  6
Continuous
 62
     1
100
AcDbCircle
 10
-14.52883183611971
 20
23.54310493041862
 30
0.0
 40
1.040634736693389
100
AcDbArc
 50
67.38712560452175
 51
112.6128743954837
  0
ARC
  5
179
330
2
100
AcDbEntity
  8
GAIKEI
  6
Continuous
 62
     1
100
AcDbCircle
 10
-54.12883182527252
 20
23.54310493041862
 30
0.0
 40
1.040634736693458
100
AcDbArc
 50
67.38712560451627
 51
112.6128743954837
  0
LINE
  5
17A
330
2
100
AcDbEntity
  8
GAIKEI
  6
Continuous
 62
     1
100
AcDbLine
 10
25.97471711101412
 20
-8.816260332890351
 30
0.0
 11
25.97471711101412
 21
-18.91626033289026
 31
0.0
  0
LINE
  5
17B
330
2
100
AcDbEntity
  8
GAIKEI
  6
Continuous
 62
     1
100
AcDbLine
 10
25.77471711101384
 20
-19.1162603328903
 30
0.0
 11
22.57471711101402
 21
-19.1162603328903
 31
0.0
  0
LINE
  5
17C
330
2
100
AcDbEntity
  8
GAIKEI
  6
Continuous
 62
     1
100
AcDbLine
 10
22.37471711101375
 20
-18.91626033289026
 30
0.0
 11
22.37471711101375
 21
-8.816260332890351
 31
0.0
  0
LINE
  5
17D
330
2
100
AcDbEntity
  8
GAIKEI
  6
Continuous
 62
     1
100
AcDbLine
 10
22.57471711101402
 20
-8.616260332890306
 30
0.0
 11
25.77471711101384
 21
-8.616260332890306
 31
0.0
  0
LINE
  5
17E
330
2
100
AcDbEntity
  8
GAIKEI
  6
Continuous
 62
     1
100
AcDbLine
 10
21.07471711101402
 20
-15.91626033289026
 30
0.0
 11
21.07471711101402
 21
-19.1162603328903
 31
0.0
  0
LINE
  5
17F
330
2
100
AcDbEntity
  8
GAIKEI
  6
Continuous
 62
     1
100
AcDbLine
 10
21.07471711101402
 20
-15.91626033289026
 30
0.0
 11
21.87471711101375
 21
-15.91626033289026
 31
0.0
  0
LINE
  5
180
330
2
100
AcDbEntity
  8
GAIKEI
  6
Continuous
 62
     1
100
AcDbLine
 10
21.87471711101375
 20
-19.1162603328903
 30
0.0
 11
21.07471711101402
 21
-19.1162603328903
 31
0.0
  0
LINE
  5
181
330
2
100
AcDbEntity
  8
GAIKEI
  6
Continuous
 62
     1
100
AcDbLine
 10
21.87471711101375
 20
-15.91626033289026
 30
0.0
 11
21.87471711101375
 21
-19.1162603328903
 31
0.0
  0
LINE
  5
182
330
2
100
AcDbEntity
  8
GAIKEI
  6
Continuous
 62
     1
100
AcDbLine
 10
15.17471711101393
 20
-5.57322257792407
 30
0.0
 11
15.17471711101393
 21
-5.930492380262194
 31
0.0
  0
LINE
  5
183
330
2
100
AcDbEntity
  8
GAIKEI
  6
Continuous
 62
     1
100
AcDbLine
 10
53.97472911101272
 20
17.28373965711125
 30
0.0
 11
53.97472911101272
 21
2.28373967711127
 31
0.0
  0
LINE
  5
184
330
2
100
AcDbEntity
  8
GAIKEI
  6
Continuous
 62
     1
100
AcDbLine
 10
54.17472911101299
 20
16.6597496561119
 30
0.0
 11
54.17472911101254
 21
2.385759675111557
 31
0.0
  0
LINE
  5
185
330
2
100
AcDbEntity
  8
GAIKEI
  6
Continuous
 62
     1
100
AcDbLine
 10
53.97472911101317
 20
16.43373965711134
 30
0.0
 11
53.97472911101317
 21
7.833739357110971
 31
0.0
  0
LINE
  5
186
330
2
100
AcDbEntity
  8
GAIKEI
  6
Continuous
 62
     1
100
AcDbLine
 10
53.97472911101272
 20
17.28373965711125
 30
0.0
 11
53.97472911101272
 21
16.8087396571118
 31
0.0
  0
LINE
  5
187
330
2
100
AcDbEntity
  8
GAIKEI
  6
Continuous
 62
     1
100
AcDbLine
 10
54.17472911101299
 20
17.18171965911096
 30
0.0
 11
54.17472911101299
 21
16.65974965611212
 31
0.0
  0
LINE
  5
188
330
2
100
AcDbEntity
  8
GAIKEI
  6
Continuous
 62
     1
100
AcDbLine
 10
54.07672871113277
 20
2.285779669113708
 30
0.0
 11
53.97472811101284
 21
2.283739657111254
 31
0.0
  0
LINE
  5
189
330
2
100
AcDbEntity
  8
GAIKEI
  6
Continuous
 62
     1
100
AcDbLine
 10
53.97472911101272
 20
17.28373965711125
 30
0.0
 11
54.07672871113277
 21
17.28169966510904
 31
0.0
  0
LINE
  5
18A
330
2
100
AcDbEntity
  8
GAIKEI
  6
Continuous
 62
     1
100
AcDbLine
 10
54.17472911101299
 20
10.58373965711098
 30
0.0
 11
54.25472911101292
 21
10.58373965711098
 31
0.0
  0
LINE
  5
18B
330
2
100
AcDbEntity
  8
GAIKEI
  6
Continuous
 62
     1
100
AcDbLine
 10
54.17472911101299
 20
10.2837396571108
 30
0.0
 11
54.25472911101292
 21
10.2837396571108
 31
0.0
  0
LINE
  5
18C
330
2
100
AcDbEntity
  8
GAIKEI
  6
Continuous
 62
     1
100
AcDbLine
 10
54.30472911101265
 20
10.5337396571108
 30
0.0
 11
54.30472911101265
 21
10.33373965711098
 31
0.0
  0
LINE
  5
18D
330
2
100
AcDbEntity
  8
GAIKEI
  6
Continuous
 62
     1
100
AcDbLine
 10
54.25472911101292
 20
8.983739657111527
 30
0.0
 11
54.17472911101299
 21
8.983739657111527
 31
0.0
  0
LINE
  5
18E
330
2
100
AcDbEntity
  8
GAIKEI
  6
Continuous
 62
     1
100
AcDbLine
 10
54.25472911101292
 20
9.283739657111482
 30
0.0
 11
54.17472911101299
 21
9.283739657111482
 31
0.0
  0
LINE
  5
18F
330
2
100
AcDbEntity
  8
GAIKEI
  6
Continuous
 62
     1
100
AcDbLine
 10
54.30472911101265
 20
9.233739657111527
 30
0.0
 11
54.30472911101265
 21
9.033739657111482
 31
0.0
  0
LINE
  5
190
330
2
100
AcDbEntity
  8
GAIKEI
  6
Continuous
 62
     1
100
AcDbLine
 10
54.17472911101299
 20
12.68373965711112
 30
0.0
 11
54.25472911101292
 21
12.68373965711112
 31
0.0
  0
LINE
  5
191
330
2
100
AcDbEntity
  8
GAIKEI
  6
Continuous
 62
     1
100
AcDbLine
 10
54.17472911101299
 20
12.38373965711116
 30
0.0
 11
54.25472911101292
 21
12.38373965711116
 31
0.0
  0
LINE
  5
192
330
2
100
AcDbEntity
  8
GAIKEI
  6
Continuous
 62
     1
100
AcDbLine
 10
54.30472911101265
 20
12.63373965711116
 30
0.0
 11
54.30472911101265
 21
12.43373965711112
 31
0.0
  0
LINE
  5
193
330
2
100
AcDbEntity
  8
GAIKEI
  6
Continuous
 62
     1
100
AcDbLine
 10
54.17472911101299
 20
13.88373965711116
 30
0.0
 11
54.25472911101292
 21
13.88373965711116
 31
0.0
  0
LINE
  5
194
330
2
100
AcDbEntity
  8
GAIKEI
  6
Continuous
 62
     1
100
AcDbLine
 10
54.17472911101299
 20
13.58373965711121
 30
0.0
 11
54.25472911101292
 21
13.58373965711121
 31
0.0
  0
LINE
  5
195
330
2
100
AcDbEntity
  8
GAIKEI
  6
Continuous
 62
     1
100
AcDbLine
 10
54.30472911101265
 20
13.83373965711121
 30
0.0
 11
54.30472911101265
 21
13.63373965711116
 31
0.0
  0
LINE
  5
196
330
2
100
AcDbEntity
  8
GAIKEI
  6
Continuous
 62
     1
100
AcDbLine
 10
54.17472911101299
 20
16.03373965711125
 30
0.0
 11
54.25472911101292
 21
16.03373965711125
 31
0.0
  0
LINE
  5
197
330
2
100
AcDbEntity
  8
GAIKEI
  6
Continuous
 62
     1
100
AcDbLine
 10
54.17472911101299
 20
15.7337396571113
 30
0.0
 11
54.25472911101292
 21
15.7337396571113
 31
0.0
  0
LINE
  5
198
330
2
100
AcDbEntity
  8
GAIKEI
  6
Continuous
 62
     1
100
AcDbLine
 10
54.30472911101265
 20
15.9837396571113
 30
0.0
 11
54.30472911101265
 21
15.78373965711125
 31
0.0
  0
LINE
  5
199
330
2
100
AcDbEntity
  8
GAIKEI
  6
Continuous
 62
     1
100
AcDbLine
 10
54.25472911101292
 20
3.533739657111254
 30
0.0
 11
54.17472911101299
 21
3.533739657111254
 31
0.0
  0
LINE
  5
19A
330
2
100
AcDbEntity
  8
GAIKEI
  6
Continuous
 62
     1
100
AcDbLine
 10
54.25472911101292
 20
3.833739657111209
 30
0.0
 11
54.17472911101299
 21
3.833739657111209
 31
0.0
  0
LINE
  5
19B
330
2
100
AcDbEntity
  8
GAIKEI
  6
Continuous
 62
     1
100
AcDbLine
 10
54.30472911101265
 20
3.783739657111254
 30
0.0
 11
54.30472911101265
 21
3.583739657111209
 31
0.0
  0
LINE
  5
19C
330
2
100
AcDbEntity
  8
GAIKEI
  6
Continuous
 62
     1
100
AcDbLine
 10
54.25472911101292
 20
5.683739657111345
 30
0.0
 11
54.17472911101299
 21
5.683739657111345
 31
0.0
  0
LINE
  5
19D
330
2
100
AcDbEntity
  8
GAIKEI
  6
Continuous
 62
     1
100
AcDbLine
 10
54.25472911101292
 20
5.9837396571113
 30
0.0
 11
54.17472911101299
 21
5.9837396571113
 31
0.0
  0
LINE
  5
19E
330
2
100
AcDbEntity
  8
GAIKEI
  6
Continuous
 62
     1
100
AcDbLine
 10
54.30472911101265
 20
5.933739657111345
 30
0.0
 11
54.30472911101265
 21
5.7337396571113
 31
0.0
  0
LINE
  5
19F
330
2
100
AcDbEntity
  8
GAIKEI
  6
Continuous
 62
     1
100
AcDbLine
 10
54.25472911101292
 20
6.883739657111391
 30
0.0
 11
54.17472911101299
 21
6.883739657111391
 31
0.0
  0
LINE
  5
1A0
330
2
100
AcDbEntity
  8
GAIKEI
  6
Continuous
 62
     1
100
AcDbLine
 10
54.25472911101292
 20
7.183739657111345
 30
0.0
 11
54.17472911101299
 21
7.183739657111345
 31
0.0
  0
LINE
  5
1A1
330
2
100
AcDbEntity
  8
GAIKEI
  6
Continuous
 62
     1
100
AcDbLine
 10
54.30472911101265
 20
7.133739657111391
 30
0.0
 11
54.30472911101265
 21
6.933739657111345
 31
0.0
  0
LINE
  5
1A2
330
2
100
AcDbEntity
  8
GAIKEI
  6
Continuous
 62
     1
100
AcDbLine
 10
54.30472911101265
 20
-8.366260342888608
 30
0.0
 11
54.30472911101265
 21
-8.566260342888654
 31
0.0
  0
LINE
  5
1A3
330
2
100
AcDbEntity
  8
GAIKEI
  6
Continuous
 62
     1
100
AcDbLine
 10
54.25472911101292
 20
-8.316260342888654
 30
0.0
 11
54.17472911101299
 21
-8.316260342888654
 31
0.0
  0
LINE
  5
1A4
330
2
100
AcDbEntity
  8
GAIKEI
  6
Continuous
 62
     1
100
AcDbLine
 10
54.25472911101292
 20
-8.616260342888608
 30
0.0
 11
54.17472911101299
 21
-8.616260342888608
 31
0.0
  0
LINE
  5
1A5
330
2
100
AcDbEntity
  8
GAIKEI
  6
Continuous
 62
     1
100
AcDbLine
 10
54.30472911101265
 20
-9.566260342888654
 30
0.0
 11
54.30472911101265
 21
-9.766260342888699
 31
0.0
  0
LINE
  5
1A6
330
2
100
AcDbEntity
  8
GAIKEI
  6
Continuous
 62
     1
100
AcDbLine
 10
54.25472911101292
 20
-9.516260342888699
 30
0.0
 11
54.17472911101299
 21
-9.516260342888699
 31
0.0
  0
LINE
  5
1A7
330
2
100
AcDbEntity
  8
GAIKEI
  6
Continuous
 62
     1
100
AcDbLine
 10
54.25472911101292
 20
-9.816260342888654
 30
0.0
 11
54.17472911101299
 21
-9.816260342888654
 31
0.0
  0
LINE
  5
1A8
330
2
100
AcDbEntity
  8
GAIKEI
  6
Continuous
 62
     1
100
AcDbLine
 10
54.30472911101265
 20
-11.71626034288874
 30
0.0
 11
54.30472911101265
 21
-11.91626034288879
 31
0.0
  0
LINE
  5
1A9
330
2
100
AcDbEntity
  8
GAIKEI
  6
Continuous
 62
     1
100
AcDbLine
 10
54.25472911101292
 20
-11.66626034288879
 30
0.0
 11
54.17472911101299
 21
-11.66626034288879
 31
0.0
  0
LINE
  5
1AA
330
2
100
AcDbEntity
  8
GAIKEI
  6
Continuous
 62
     1
100
AcDbLine
 10
54.25472911101292
 20
-11.96626034288874
 30
0.0
 11
54.17472911101299
 21
-11.96626034288874
 31
0.0
  0
LINE
  5
1AB
330
2
100
AcDbEntity
  8
GAIKEI
  6
Continuous
 62
     1
100
AcDbLine
 10
54.30472911101265
 20
0.4837396571113004
 30
0.0
 11
54.30472911101265
 21
0.2837396571112549
 31
0.0
  0
LINE
  5
1AC
330
2
100
AcDbEntity
  8
GAIKEI
  6
Continuous
 62
     1
100
AcDbLine
 10
54.17472911101299
 20
0.2337396571113004
 30
0.0
 11
54.25472911101292
 21
0.2337396571113004
 31
0.0
  0
LINE
  5
1AD
330
2
100
AcDbEntity
  8
GAIKEI
  6
Continuous
 62
     1
100
AcDbLine
 10
54.17472911101299
 20
0.533739657111255
 30
0.0
 11
54.25472911101292
 21
0.533739657111255
 31
0.0
  0
LINE
  5
1AE
330
2
100
AcDbEntity
  8
GAIKEI
  6
Continuous
 62
     1
100
AcDbLine
 10
54.30472911101265
 20
-1.66626034288879
 30
0.0
 11
54.30472911101265
 21
-1.866260342888836
 31
0.0
  0
LINE
  5
1AF
330
2
100
AcDbEntity
  8
GAIKEI
  6
Continuous
 62
     1
100
AcDbLine
 10
54.17472911101299
 20
-1.91626034288879
 30
0.0
 11
54.25472911101292
 21
-1.91626034288879
 31
0.0
  0
LINE
  5
1B0
330
2
100
AcDbEntity
  8
GAIKEI
  6
Continuous
 62
     1
100
AcDbLine
 10
54.17472911101299
 20
-1.616260342888836
 30
0.0
 11
54.25472911101292
 21
-1.616260342888836
 31
0.0
  0
LINE
  5
1B1
330
2
100
AcDbEntity
  8
GAIKEI
  6
Continuous
 62
     1
100
AcDbLine
 10
54.30472911101265
 20
-2.866260342888836
 30
0.0
 11
54.30472911101265
 21
-3.066260342888881
 31
0.0
  0
LINE
  5
1B2
330
2
100
AcDbEntity
  8
GAIKEI
  6
Continuous
 62
     1
100
AcDbLine
 10
54.17472911101299
 20
-3.116260342888836
 30
0.0
 11
54.25472911101292
 21
-3.116260342888836
 31
0.0
  0
LINE
  5
1B3
330
2
100
AcDbEntity
  8
GAIKEI
  6
Continuous
 62
     1
100
AcDbLine
 10
54.17472911101299
 20
-2.816260342888881
 30
0.0
 11
54.25472911101292
 21
-2.816260342888881
 31
0.0
  0
LINE
  5
1B4
330
2
100
AcDbEntity
  8
GAIKEI
  6
Continuous
 62
     1
100
AcDbLine
 10
54.30472911101265
 20
-6.266260342888472
 30
0.0
 11
54.30472911101265
 21
-6.466260342888517
 31
0.0
  0
LINE
  5
1B5
330
2
100
AcDbEntity
  8
GAIKEI
  6
Continuous
 62
     1
100
AcDbLine
 10
54.25472911101292
 20
-6.216260342888517
 30
0.0
 11
54.17472911101299
 21
-6.216260342888517
 31
0.0
  0
LINE
  5
1B6
330
2
100
AcDbEntity
  8
GAIKEI
  6
Continuous
 62
     1
100
AcDbLine
 10
54.25472911101292
 20
-6.516260342888472
 30
0.0
 11
54.17472911101299
 21
-6.516260342888472
 31
0.0
  0
LINE
  5
1B7
330
2
100
AcDbEntity
  8
GAIKEI
  6
Continuous
 62
     1
100
AcDbLine
 10
54.30472911101265
 20
-4.966260342889199
 30
0.0
 11
54.30472911101265
 21
-5.166260342889017
 31
0.0
  0
LINE
  5
1B8
330
2
100
AcDbEntity
  8
GAIKEI
  6
Continuous
 62
     1
100
AcDbLine
 10
54.17472911101299
 20
-5.216260342889199
 30
0.0
 11
54.25472911101292
 21
-5.216260342889199
 31
0.0
  0
LINE
  5
1B9
330
2
100
AcDbEntity
  8
GAIKEI
  6
Continuous
 62
     1
100
AcDbLine
 10
54.17472911101299
 20
-4.916260342889017
 30
0.0
 11
54.25472911101292
 21
-4.916260342889017
 31
0.0
  0
LINE
  5
1BA
330
2
100
AcDbEntity
  8
GAIKEI
  6
Continuous
 62
     1
100
AcDbLine
 10
53.97472911101272
 20
1.783739657111254
 30
0.0
 11
54.07672871113277
 21
1.781699665109044
 31
0.0
  0
LINE
  5
1BB
330
2
100
AcDbEntity
  8
GAIKEI
  6
Continuous
 62
     1
100
AcDbLine
 10
54.07672871113277
 20
-13.21422033088629
 30
0.0
 11
53.97472811101284
 21
-13.21626034288874
 31
0.0
  0
LINE
  5
1BC
330
2
100
AcDbEntity
  8
GAIKEI
  6
Continuous
 62
     1
100
AcDbLine
 10
54.17472911101299
 20
1.681719659110967
 30
0.0
 11
54.17472911101299
 21
1.159749656112126
 31
0.0
  0
LINE
  5
1BD
330
2
100
AcDbEntity
  8
GAIKEI
  6
Continuous
 62
     1
100
AcDbLine
 10
53.97472911101272
 20
1.783739657111254
 30
0.0
 11
53.97472911101272
 21
1.3087396571118
 31
0.0
  0
LINE
  5
1BE
330
2
100
AcDbEntity
  8
GAIKEI
  6
Continuous
 62
     1
100
AcDbLine
 10
53.97472911101317
 20
0.9337396571113458
 30
0.0
 11
53.97472911101317
 21
-7.666260642889028
 31
0.0
  0
LINE
  5
1BF
330
2
100
AcDbEntity
  8
GAIKEI
  6
Continuous
 62
     1
100
AcDbLine
 10
54.17472911101299
 20
1.159749656111898
 30
0.0
 11
54.17472911101254
 21
-13.11424032488844
 31
0.0
  0
LINE
  5
1C0
330
2
100
AcDbEntity
  8
GAIKEI
  6
Continuous
 62
     1
100
AcDbLine
 10
53.97472911101272
 20
1.783739657111254
 30
0.0
 11
53.97472911101272
 21
-13.21626032288873
 31
0.0
  0
LINE
  5
1C1
330
2
100
AcDbEntity
  8
GAIKEI
  6
Continuous
 62
     7
100
AcDbLine
 10
-3.328563330696169
 20
24.18372567210872
 30
0.0
 11
-12.22910043069646
 21
24.18372567210872
 31
0.0
  0
LINE
  5
1C2
330
2
100
AcDbEntity
  8
GAIKEI
  6
Continuous
 62
     7
100
AcDbLine
 10
-3.328563330696169
 20
-20.11627122789105
 30
0.0
 11
-12.22910043069646
 21
-20.11627122789105
 31
0.0
  0
LINE
  5
1C3
330
2
100
AcDbEntity
  8
GAIKEI
  6
Continuous
 62
     1
100
AcDbLine
 10
-54.66382943069652
 20
-18.20127492789106
 30
0.0
 11
-54.33415413069656
 21
-18.20127492789106
 31
0.0
  0
LINE
  5
1C4
330
2
100
AcDbEntity
  8
GAIKEI
  6
Continuous
 62
     1
100
AcDbLine
 10
-54.66382943069652
 20
-17.8715874278912
 30
0.0
 11
-54.66382943069652
 21
-18.20127492789106
 31
0.0
  0
LINE
  5
1C5
330
2
100
AcDbEntity
  8
GAIKEI
  6
Continuous
 62
     1
100
AcDbLine
 10
-54.66382943069652
 20
-18.33127372789113
 30
0.0
 11
-54.66382943069652
 21
-18.66095512789115
 31
0.0
  0
LINE
  5
1C6
330
2
100
AcDbEntity
  8
GAIKEI
  6
Continuous
 62
     1
100
AcDbLine
 10
-54.33415413069656
 20
-18.33127372789113
 30
0.0
 11
-54.66382943069652
 21
-18.33127372789113
 31
0.0
  0
LINE
  5
1C7
330
2
100
AcDbEntity
  8
GAIKEI
  6
Continuous
 62
     1
100
AcDbLine
 10
-54.79383433069665
 20
-18.33127372789113
 30
0.0
 11
-55.12350953069631
 21
-18.33127372789113
 31
0.0
  0
LINE
  5
1C8
330
2
100
AcDbEntity
  8
GAIKEI
  6
Continuous
 62
     1
100
AcDbLine
 10
-54.79383433069665
 20
-18.66095512789115
 30
0.0
 11
-54.79383433069665
 21
-18.33127372789113
 31
0.0
  0
LINE
  5
1C9
330
2
100
AcDbEntity
  8
GAIKEI
  6
Continuous
 62
     1
100
AcDbLine
 10
-54.79383433069665
 20
-18.20127492789106
 30
0.0
 11
-54.79383433069665
 21
-17.8715874278912
 31
0.0
  0
LINE
  5
1CA
330
2
100
AcDbEntity
  8
GAIKEI
  6
Continuous
 62
     1
100
AcDbLine
 10
-55.12350953069631
 20
-18.20127492789106
 30
0.0
 11
-54.79383433069665
 21
-18.20127492789106
 31
0.0
  0
LINE
  5
1CB
330
2
100
AcDbEntity
  8
GAIKEI
  6
Continuous
 62
     1
100
AcDbLine
 10
-55.22458383069647
 20
-18.20127492789106
 30
0.0
 11
-55.17410773069627
 21
-18.20127492789106
 31
0.0
  0
LINE
  5
1CC
330
2
100
AcDbEntity
  8
GAIKEI
  6
Continuous
 62
     1
100
AcDbLine
 10
-54.79383433069665
 20
-17.77051322789111
 30
0.0
 11
-54.79383433069665
 21
-17.82098922789123
 31
0.0
  0
LINE
  5
1CD
330
2
100
AcDbEntity
  8
GAIKEI
  6
Continuous
 62
     1
100
AcDbLine
 10
-54.79383433069665
 20
-18.76202932789124
 30
0.0
 11
-54.79383433069665
 21
-18.71155322789127
 31
0.0
  0
LINE
  5
1CE
330
2
100
AcDbEntity
  8
GAIKEI
  6
Continuous
 62
     1
100
AcDbLine
 10
-55.22458383069647
 20
-18.33127372789113
 30
0.0
 11
-55.17410773069627
 21
-18.33127372789113
 31
0.0
  0
LINE
  5
1CF
330
2
100
AcDbEntity
  8
GAIKEI
  6
Continuous
 62
     1
100
AcDbLine
 10
-54.23307993069625
 20
-18.33127372789113
 30
0.0
 11
-54.28355593069659
 21
-18.33127372789113
 31
0.0
  0
LINE
  5
1D0
330
2
100
AcDbEntity
  8
GAIKEI
  6
Continuous
 62
     1
100
AcDbLine
 10
-54.66382943069652
 20
-18.76202932789124
 30
0.0
 11
-54.66382943069652
 21
-18.71155322789127
 31
0.0
  0
LINE
  5
1D1
330
2
100
AcDbEntity
  8
GAIKEI
  6
Continuous
 62
     1
100
AcDbLine
 10
-54.66382943069652
 20
-17.77051322789111
 30
0.0
 11
-54.66382943069652
 21
-17.82098922789123
 31
0.0
  0
LINE
  5
1D2
330
2
100
AcDbEntity
  8
GAIKEI
  6
Continuous
 62
     1
100
AcDbLine
 10
-54.23307993069625
 20
-18.20127492789106
 30
0.0
 11
-54.28355593069659
 21
-18.20127492789106
 31
0.0
  0
LINE
  5
1D3
330
2
100
AcDbEntity
  8
GAIKEI
  6
Continuous
 62
     1
100
AcDbLine
 10
-54.66382943069652
 20
-17.8715874278912
 30
0.0
 11
-54.66382943069652
 21
-17.82098922789123
 31
0.0
  0
LINE
  5
1D4
330
2
100
AcDbEntity
  8
GAIKEI
  6
Continuous
 62
     1
100
AcDbLine
 10
-54.33415413069656
 20
-18.20127492789106
 30
0.0
 11
-54.28355593069659
 21
-18.20127492789106
 31
0.0
  0
LINE
  5
1D5
330
2
100
AcDbEntity
  8
GAIKEI
  6
Continuous
 62
     1
100
AcDbLine
 10
-54.79383433069665
 20
-17.8715874278912
 30
0.0
 11
-54.79383433069665
 21
-17.82098922789123
 31
0.0
  0
LINE
  5
1D6
330
2
100
AcDbEntity
  8
GAIKEI
  6
Continuous
 62
     1
100
AcDbLine
 10
-54.33415413069656
 20
-18.33127372789113
 30
0.0
 11
-54.28355593069659
 21
-18.33127372789113
 31
0.0
  0
LINE
  5
1D7
330
2
100
AcDbEntity
  8
GAIKEI
  6
Continuous
 62
     1
100
AcDbLine
 10
-54.79383433069665
 20
-18.71155322789127
 30
0.0
 11
-54.79383433069665
 21
-18.66095512789115
 31
0.0
  0
LINE
  5
1D8
330
2
100
AcDbEntity
  8
GAIKEI
  6
Continuous
 62
     1
100
AcDbLine
 10
-55.17410773069627
 20
-18.33127372789113
 30
0.0
 11
-55.12350953069631
 21
-18.33127372789113
 31
0.0
  0
LINE
  5
1D9
330
2
100
AcDbEntity
  8
GAIKEI
  6
Continuous
 62
     1
100
AcDbLine
 10
-54.66382943069652
 20
-18.71155322789127
 30
0.0
 11
-54.66382943069652
 21
-18.66095512789115
 31
0.0
  0
LINE
  5
1DA
330
2
100
AcDbEntity
  8
GAIKEI
  6
Continuous
 62
     1
100
AcDbLine
 10
-55.17410773069627
 20
-18.20127492789106
 30
0.0
 11
-55.12350953069631
 21
-18.20127492789106
 31
0.0
  0
LINE
  5
1DB
330
2
100
AcDbEntity
  8
GAIKEI
  6
Continuous
 62
     7
100
AcDbLine
 10
-13.53146853069643
 20
24.06439277210893
 30
0.0
 11
-13.53072393069647
 21
24.06480787210876
 31
0.0
  0
LINE
  5
1DC
330
2
100
AcDbEntity
  8
GAIKEI
  6
Continuous
 62
     7
100
AcDbLine
 10
-13.53746223069652
 20
24.06317817210879
 30
0.0
 11
-13.53146853069643
 21
24.06439277210893
 31
0.0
  0
LINE
  5
1DD
330
2
100
AcDbEntity
  8
GAIKEI
  6
Continuous
 62
     7
100
AcDbLine
 10
-13.55897103069651
 20
24.06143257210874
 30
0.0
 11
-13.53746223069652
 21
24.06317817210879
 31
0.0
  0
LINE
  5
1DE
330
2
100
AcDbEntity
  8
GAIKEI
  6
Continuous
 62
     7
100
AcDbLine
 10
-13.63066293069664
 20
24.05984877210881
 30
0.0
 11
-13.55897103069651
 21
24.06143257210874
 31
0.0
  0
LINE
  5
1DF
330
2
100
AcDbEntity
  8
GAIKEI
  6
Continuous
 62
     7
100
AcDbLine
 10
-14.32619513069653
 20
24.06439277210893
 30
0.0
 11
-14.32693973069604
 21
24.06480787210876
 31
0.0
  0
LINE
  5
1E0
330
2
100
AcDbEntity
  8
GAIKEI
  6
Continuous
 62
     7
100
AcDbLine
 10
-14.32020143069644
 20
24.06317817210879
 30
0.0
 11
-14.32619513069653
 21
24.06439277210893
 31
0.0
  0
LINE
  5
1E1
330
2
100
AcDbEntity
  8
GAIKEI
  6
Continuous
 62
     7
100
AcDbLine
 10
-14.2986927306963
 20
24.06143257210874
 30
0.0
 11
-14.32020143069644
 21
24.06317817210879
 31
0.0
  0
LINE
  5
1E2
330
2
100
AcDbEntity
  8
GAIKEI
  6
Continuous
 62
     7
100
AcDbLine
 10
-14.22700083069617
 20
24.05984877210881
 30
0.0
 11
-14.2986927306963
 21
24.06143257210874
 31
0.0
  0
LINE
  5
1E3
330
2
100
AcDbEntity
  8
GAIKEI
  6
Continuous
 62
     7
100
AcDbLine
 10
-55.12619513069626
 20
24.06439277210893
 30
0.0
 11
-55.12693973069622
 21
24.06480787210876
 31
0.0
  0
LINE
  5
1E4
330
2
100
AcDbEntity
  8
GAIKEI
  6
Continuous
 62
     7
100
AcDbLine
 10
-55.12020143069662
 20
24.06317817210879
 30
0.0
 11
-55.12619513069626
 21
24.06439277210893
 31
0.0
  0
LINE
  5
1E5
330
2
100
AcDbEntity
  8
GAIKEI
  6
Continuous
 62
     7
100
AcDbLine
 10
-55.09869273069603
 20
24.06143257210874
 30
0.0
 11
-55.12020143069662
 21
24.06317817210879
 31
0.0
  0
LINE
  5
1E6
330
2
100
AcDbEntity
  8
GAIKEI
  6
Continuous
 62
     7
100
AcDbLine
 10
-55.02700083069635
 20
24.05984877210881
 30
0.0
 11
-55.09869273069603
 21
24.06143257210874
 31
0.0
  0
LINE
  5
1E7
330
2
100
AcDbEntity
  8
GAIKEI
  6
Continuous
 62
     7
100
AcDbLine
 10
-54.33146853069615
 20
24.06439277210893
 30
0.0
 11
-54.33072393069619
 21
24.06480787210876
 31
0.0
  0
LINE
  5
1E8
330
2
100
AcDbEntity
  8
GAIKEI
  6
Continuous
 62
     7
100
AcDbLine
 10
-54.33746223069625
 20
24.06317817210879
 30
0.0
 11
-54.33146853069615
 21
24.06439277210893
 31
0.0
  0
LINE
  5
1E9
330
2
100
AcDbEntity
  8
GAIKEI
  6
Continuous
 62
     7
100
AcDbLine
 10
-54.35897103069624
 20
24.06143257210874
 30
0.0
 11
-54.33746223069625
 21
24.06317817210879
 31
0.0
  0
LINE
  5
1EA
330
2
100
AcDbEntity
  8
GAIKEI
  6
Continuous
 62
     7
100
AcDbLine
 10
-54.43066293069637
 20
24.05984877210881
 30
0.0
 11
-54.35897103069624
 21
24.06143257210874
 31
0.0
  0
LINE
  5
1EB
330
2
100
AcDbEntity
  8
GAIKEI
  6
Continuous
 62
     1
100
AcDbLine
 10
-54.07460823069619
 20
-20.03382492789115
 30
0.0
 11
-54.07386363069623
 21
-20.03424612789104
 31
0.0
  0
LINE
  5
1EC
330
2
100
AcDbEntity
  8
GAIKEI
  6
Continuous
 62
     1
100
AcDbLine
 10
-54.0805652306965
 20
-20.03261032789124
 30
0.0
 11
-54.07460823069619
 21
-20.03382492789115
 31
0.0
  0
LINE
  5
1ED
330
2
100
AcDbEntity
  8
GAIKEI
  6
Continuous
 62
     1
100
AcDbLine
 10
-54.10202523069642
 20
-20.03086472789119
 30
0.0
 11
-54.0805652306965
 21
-20.03261032789124
 31
0.0
  0
LINE
  5
1EE
330
2
100
AcDbEntity
  8
GAIKEI
  6
Continuous
 62
     1
100
AcDbLine
 10
-54.17372933069623
 20
-20.02927782789106
 30
0.0
 11
-54.10202523069642
 21
-20.03086472789119
 31
0.0
  0
LINE
  5
1EF
330
2
100
AcDbEntity
  8
GAIKEI
  6
Continuous
 62
     1
100
AcDbLine
 10
-55.38305543069623
 20
-20.03382492789115
 30
0.0
 11
-55.3838001306965
 21
-20.03424612789104
 31
0.0
  0
LINE
  5
1F0
330
2
100
AcDbEntity
  8
GAIKEI
  6
Continuous
 62
     1
100
AcDbLine
 10
-55.37709843069638
 20
-20.03261032789124
 30
0.0
 11
-55.38305543069623
 21
-20.03382492789115
 31
0.0
  0
LINE
  5
1F1
330
2
100
AcDbEntity
  8
GAIKEI
  6
Continuous
 62
     1
100
AcDbLine
 10
-55.35563853069629
 20
-20.03086472789119
 30
0.0
 11
-55.37709843069638
 21
-20.03261032789124
 31
0.0
  0
LINE
  5
1F2
330
2
100
AcDbEntity
  8
GAIKEI
  6
Continuous
 62
     1
100
AcDbLine
 10
-55.28393443069603
 20
-20.02927782789106
 30
0.0
 11
-55.35563853069629
 21
-20.03086472789119
 31
0.0
  0
LINE
  5
1F3
330
2
100
AcDbEntity
  8
GAIKEI
  6
Continuous
 62
     1
100
AcDbLine
 10
-53.35264773069616
 20
-19.99766162789114
 30
0.0
 11
-53.3533802306963
 21
-19.99808272789119
 31
0.0
  0
LINE
  5
1F4
330
2
100
AcDbEntity
  8
GAIKEI
  6
Continuous
 62
     1
100
AcDbLine
 10
-53.34667853069664
 20
-19.99645312789107
 30
0.0
 11
-53.35264773069616
 21
-19.99766162789114
 31
0.0
  0
LINE
  5
1F5
330
2
100
AcDbEntity
  8
GAIKEI
  6
Continuous
 62
     1
100
AcDbLine
 10
-53.32521853069625
 20
-19.99470142789119
 30
0.0
 11
-53.34667853069664
 21
-19.99645312789107
 31
0.0
  0
LINE
  5
1F6
330
2
100
AcDbEntity
  8
GAIKEI
  6
Continuous
 62
     1
100
AcDbLine
 10
-53.25351443069644
 20
-19.99311452789106
 30
0.0
 11
-53.32521853069625
 21
-19.99470142789119
 31
0.0
  0
LINE
  5
1F7
330
2
100
AcDbEntity
  8
GAIKEI
  6
Continuous
 62
     1
100
AcDbLine
 10
-51.30501593069652
 20
-19.99766162789114
 30
0.0
 11
-51.30428353069624
 21
-19.99808272789119
 31
0.0
  0
LINE
  5
1F8
330
2
100
AcDbEntity
  8
GAIKEI
  6
Continuous
 62
     1
100
AcDbLine
 10
-51.31098513069651
 20
-19.99645312789107
 30
0.0
 11
-51.30501593069652
 21
-19.99766162789114
 31
0.0
  0
LINE
  5
1F9
330
2
100
AcDbEntity
  8
GAIKEI
  6
Continuous
 62
     1
100
AcDbLine
 10
-51.33244513069644
 20
-19.99470142789119
 30
0.0
 11
-51.31098513069651
 21
-19.99645312789107
 31
0.0
  0
LINE
  5
1FA
330
2
100
AcDbEntity
  8
GAIKEI
  6
Continuous
 62
     1
100
AcDbLine
 10
-51.40414923069624
 20
-19.99311452789106
 30
0.0
 11
-51.33244513069644
 21
-19.99470142789119
 31
0.0
  0
LINE
  5
1FB
330
2
100
AcDbEntity
  8
GAIKEI
  6
Continuous
 62
     1
100
AcDbLine
 10
-13.27460823069646
 20
-20.03382492789115
 30
0.0
 11
-13.27386363069604
 21
-20.03424612789104
 31
0.0
  0
LINE
  5
1FC
330
2
100
AcDbEntity
  8
GAIKEI
  6
Continuous
 62
     1
100
AcDbLine
 10
-13.28056523069631
 20
-20.03261032789124
 30
0.0
 11
-13.27460823069646
 21
-20.03382492789115
 31
0.0
  0
LINE
  5
1FD
330
2
100
AcDbEntity
  8
GAIKEI
  6
Continuous
 62
     1
100
AcDbLine
 10
-13.30202523069624
 20
-20.03086472789119
 30
0.0
 11
-13.28056523069631
 21
-20.03261032789124
 31
0.0
  0
LINE
  5
1FE
330
2
100
AcDbEntity
  8
GAIKEI
  6
Continuous
 62
     1
100
AcDbLine
 10
-13.3737293306965
 20
-20.02927782789106
 30
0.0
 11
-13.30202523069624
 21
-20.03086472789119
 31
0.0
  0
LINE
  5
1FF
330
2
100
AcDbEntity
  8
GAIKEI
  6
Continuous
 62
     1
100
AcDbLine
 10
-14.5830554306965
 20
-20.03382492789115
 30
0.0
 11
-14.58380013069632
 21
-20.03424612789104
 31
0.0
  0
LINE
  5
200
330
2
100
AcDbEntity
  8
GAIKEI
  6
Continuous
 62
     1
100
AcDbLine
 10
-14.57709843069665
 20
-20.03261032789124
 30
0.0
 11
-14.5830554306965
 21
-20.03382492789115
 31
0.0
  0
LINE
  5
201
330
2
100
AcDbEntity
  8
GAIKEI
  6
Continuous
 62
     1
100
AcDbLine
 10
-14.55563853069611
 20
-20.03086472789119
 30
0.0
 11
-14.57709843069665
 21
-20.03261032789124
 31
0.0
  0
LINE
  5
202
330
2
100
AcDbEntity
  8
GAIKEI
  6
Continuous
 62
     1
100
AcDbLine
 10
-14.48393443069631
 20
-20.02927782789106
 30
0.0
 11
-14.55563853069611
 21
-20.03086472789119
 31
0.0
  0
LINE
  5
203
330
2
100
AcDbEntity
  8
GAIKEI
  6
Continuous
 62
     1
100
AcDbLine
 10
-15.30501593069653
 20
-19.99766162789114
 30
0.0
 11
-15.30428353069624
 21
-19.99808272789119
 31
0.0
  0
LINE
  5
204
330
2
100
AcDbEntity
  8
GAIKEI
  6
Continuous
 62
     1
100
AcDbLine
 10
-15.31098513069651
 20
-19.99645312789107
 30
0.0
 11
-15.30501593069653
 21
-19.99766162789114
 31
0.0
  0
LINE
  5
205
330
2
100
AcDbEntity
  8
GAIKEI
  6
Continuous
 62
     1
100
AcDbLine
 10
-15.33244513069644
 20
-19.99470142789119
 30
0.0
 11
-15.31098513069651
 21
-19.99645312789107
 31
0.0
  0
LINE
  5
206
330
2
100
AcDbEntity
  8
GAIKEI
  6
Continuous
 62
     1
100
AcDbLine
 10
-15.40414923069625
 20
-19.99311452789106
 30
0.0
 11
-15.33244513069644
 21
-19.99470142789119
 31
0.0
  0
LINE
  5
207
330
2
100
AcDbEntity
  8
GAIKEI
  6
Continuous
 62
     1
100
AcDbLine
 10
-17.35264773069616
 20
-19.99766162789114
 30
0.0
 11
-17.3533802306963
 21
-19.99808272789119
 31
0.0
  0
LINE
  5
208
330
2
100
AcDbEntity
  8
GAIKEI
  6
Continuous
 62
     1
100
AcDbLine
 10
-17.34667853069618
 20
-19.99645312789107
 30
0.0
 11
-17.35264773069616
 21
-19.99766162789114
 31
0.0
  0
LINE
  5
209
330
2
100
AcDbEntity
  8
GAIKEI
  6
Continuous
 62
     1
100
AcDbLine
 10
-17.32521853069625
 20
-19.99470142789119
 30
0.0
 11
-17.34667853069618
 21
-19.99645312789107
 31
0.0
  0
LINE
  5
20A
330
2
100
AcDbEntity
  8
GAIKEI
  6
Continuous
 62
     1
100
AcDbLine
 10
-17.25351443069644
 20
-19.99311452789106
 30
0.0
 11
-17.32521853069625
 21
-19.99470142789119
 31
0.0
  0
LINE
  5
20B
330
2
100
AcDbEntity
  8
GAIKEI
  6
Continuous
 62
     1
100
AcDbLine
 10
-14.65184213069665
 20
-20.07200242789122
 30
0.0
 11
-14.71774783069645
 21
-20.07329642789114
 31
0.0
  0
LINE
  5
20C
330
2
100
AcDbEntity
  8
GAIKEI
  6
Continuous
 62
     1
100
AcDbLine
 10
-14.62458383069611
 20
-20.06996392789119
 30
0.0
 11
-14.65184213069665
 21
-20.07200242789122
 31
0.0
  0
LINE
  5
20D
330
2
100
AcDbEntity
  8
GAIKEI
  6
Continuous
 62
     1
100
AcDbLine
 10
-14.6186267306964
 20
-20.06874932789106
 30
0.0
 11
-14.62458383069611
 21
-20.06996392789119
 31
0.0
  0
LINE
  5
20E
330
2
100
AcDbEntity
  8
GAIKEI
  6
Continuous
 62
     1
100
AcDbLine
 10
-14.61789433069611
 20
-20.06833422789123
 30
0.0
 11
-14.6186267306964
 21
-20.06874932789106
 31
0.0
  0
LINE
  5
20F
330
2
100
AcDbEntity
  8
GAIKEI
  6
Continuous
 62
     1
100
AcDbLine
 10
-13.20582163069616
 20
-20.07200242789122
 30
0.0
 11
-13.13991583069651
 21
-20.07329642789114
 31
0.0
  0
LINE
  5
210
330
2
100
AcDbEntity
  8
GAIKEI
  6
Continuous
 62
     1
100
AcDbLine
 10
-13.23307993069625
 20
-20.06996392789119
 30
0.0
 11
-13.20582163069616
 21
-20.07200242789122
 31
0.0
  0
LINE
  5
211
330
2
100
AcDbEntity
  8
GAIKEI
  6
Continuous
 62
     1
100
AcDbLine
 10
-13.23903693069655
 20
-20.06874932789106
 30
0.0
 11
-13.23307993069625
 21
-20.06996392789119
 31
0.0
  0
LINE
  5
212
330
2
100
AcDbEntity
  8
GAIKEI
  6
Continuous
 62
     1
100
AcDbLine
 10
-13.23976933069639
 20
-20.06833422789123
 30
0.0
 11
-13.23903693069655
 21
-20.06874932789106
 31
0.0
  0
LINE
  5
213
330
2
100
AcDbEntity
  8
GAIKEI
  6
Continuous
 62
     1
100
AcDbLine
 10
-17.45759163069647
 20
-20.07200242789122
 30
0.0
 11
-17.52349733069627
 21
-20.07329642789114
 31
0.0
  0
LINE
  5
214
330
2
100
AcDbEntity
  8
GAIKEI
  6
Continuous
 62
     1
100
AcDbLine
 10
-17.43032113069626
 20
-20.06996392789119
 30
0.0
 11
-17.45759163069647
 21
-20.07200242789122
 31
0.0
  0
LINE
  5
215
330
2
100
AcDbEntity
  8
GAIKEI
  6
Continuous
 62
     1
100
AcDbLine
 10
-17.42436403069655
 20
-20.06874932789106
 30
0.0
 11
-17.43032113069626
 21
-20.06996392789119
 31
0.0
  0
LINE
  5
216
330
2
100
AcDbEntity
  8
GAIKEI
  6
Continuous
 62
     1
100
AcDbLine
 10
-17.42363163069626
 20
-20.06833422789123
 30
0.0
 11
-17.42436403069655
 21
-20.06874932789106
 31
0.0
  0
LINE
  5
217
330
2
100
AcDbEntity
  8
GAIKEI
  6
Continuous
 62
     1
100
AcDbLine
 10
-15.20007203069622
 20
-20.07200242789122
 30
0.0
 11
-15.13416633069641
 21
-20.07329642789114
 31
0.0
  0
LINE
  5
218
330
2
100
AcDbEntity
  8
GAIKEI
  6
Continuous
 62
     1
100
AcDbLine
 10
-15.22734263069628
 20
-20.06996392789119
 30
0.0
 11
-15.20007203069622
 21
-20.07200242789122
 31
0.0
  0
LINE
  5
219
330
2
100
AcDbEntity
  8
GAIKEI
  6
Continuous
 62
     1
100
AcDbLine
 10
-15.23329963069659
 20
-20.06874932789106
 30
0.0
 11
-15.22734263069628
 21
-20.06996392789119
 31
0.0
  0
LINE
  5
21A
330
2
100
AcDbEntity
  8
GAIKEI
  6
Continuous
 62
     1
100
AcDbLine
 10
-15.23403203069642
 20
-20.06833422789123
 30
0.0
 11
-15.23329963069659
 21
-20.06874932789106
 31
0.0
  0
LINE
  5
21B
330
2
100
AcDbEntity
  8
GAIKEI
  6
Continuous
 62
     1
100
AcDbLine
 10
-55.45184213069638
 20
-20.07200242789122
 30
0.0
 11
-55.51774783069618
 21
-20.07329642789114
 31
0.0
  0
LINE
  5
21C
330
2
100
AcDbEntity
  8
GAIKEI
  6
Continuous
 62
     1
100
AcDbLine
 10
-55.42458383069629
 20
-20.06996392789119
 30
0.0
 11
-55.45184213069638
 21
-20.07200242789122
 31
0.0
  0
LINE
  5
21D
330
2
100
AcDbEntity
  8
GAIKEI
  6
Continuous
 62
     1
100
AcDbLine
 10
-55.41862673069613
 20
-20.06874932789106
 30
0.0
 11
-55.42458383069629
 21
-20.06996392789119
 31
0.0
  0
LINE
  5
21E
330
2
100
AcDbEntity
  8
GAIKEI
  6
Continuous
 62
     1
100
AcDbLine
 10
-55.4178943306963
 20
-20.06833422789123
 30
0.0
 11
-55.41862673069613
 21
-20.06874932789106
 31
0.0
  0
LINE
  5
21F
330
2
100
AcDbEntity
  8
GAIKEI
  6
Continuous
 62
     1
100
AcDbLine
 10
-54.00582163069635
 20
-20.07200242789122
 30
0.0
 11
-53.93991583069624
 21
-20.07329642789114
 31
0.0
  0
LINE
  5
220
330
2
100
AcDbEntity
  8
GAIKEI
  6
Continuous
 62
     1
100
AcDbLine
 10
-54.03307993069643
 20
-20.06996392789119
 30
0.0
 11
-54.00582163069635
 21
-20.07200242789122
 31
0.0
  0
LINE
  5
221
330
2
100
AcDbEntity
  8
GAIKEI
  6
Continuous
 62
     1
100
AcDbLine
 10
-54.03903693069628
 20
-20.06874932789106
 30
0.0
 11
-54.03307993069643
 21
-20.06996392789119
 31
0.0
  0
LINE
  5
222
330
2
100
AcDbEntity
  8
GAIKEI
  6
Continuous
 62
     1
100
AcDbLine
 10
-54.03976933069611
 20
-20.06833422789123
 30
0.0
 11
-54.03903693069628
 21
-20.06874932789106
 31
0.0
  0
LINE
  5
223
330
2
100
AcDbEntity
  8
GAIKEI
  6
Continuous
 62
     1
100
AcDbLine
 10
-51.20007203069622
 20
-20.07200242789122
 30
0.0
 11
-51.13416633069642
 21
-20.07329642789114
 31
0.0
  0
LINE
  5
224
330
2
100
AcDbEntity
  8
GAIKEI
  6
Continuous
 62
     1
100
AcDbLine
 10
-51.22734263069628
 20
-20.06996392789119
 30
0.0
 11
-51.20007203069622
 21
-20.07200242789122
 31
0.0
  0
LINE
  5
225
330
2
100
AcDbEntity
  8
GAIKEI
  6
Continuous
 62
     1
100
AcDbLine
 10
-51.23329963069659
 20
-20.06874932789106
 30
0.0
 11
-51.22734263069628
 21
-20.06996392789119
 31
0.0
  0
LINE
  5
226
330
2
100
AcDbEntity
  8
GAIKEI
  6
Continuous
 62
     1
100
AcDbLine
 10
-51.23403203069642
 20
-20.06833422789123
 30
0.0
 11
-51.23329963069659
 21
-20.06874932789106
 31
0.0
  0
LINE
  5
227
330
2
100
AcDbEntity
  8
GAIKEI
  6
Continuous
 62
     1
100
AcDbLine
 10
-53.45759163069647
 20
-20.07200242789122
 30
0.0
 11
-53.52349733069627
 21
-20.07329642789114
 31
0.0
  0
LINE
  5
228
330
2
100
AcDbEntity
  8
GAIKEI
  6
Continuous
 62
     1
100
AcDbLine
 10
-53.43032113069625
 20
-20.06996392789119
 30
0.0
 11
-53.45759163069647
 21
-20.07200242789122
 31
0.0
  0
LINE
  5
229
330
2
100
AcDbEntity
  8
GAIKEI
  6
Continuous
 62
     1
100
AcDbLine
 10
-53.42436403069655
 20
-20.06874932789106
 30
0.0
 11
-53.43032113069625
 21
-20.06996392789119
 31
0.0
  0
LINE
  5
22A
330
2
100
AcDbEntity
  8
GAIKEI
  6
Continuous
 62
     1
100
AcDbLine
 10
-53.42363163069626
 20
-20.06833422789123
 30
0.0
 11
-53.42436403069655
 21
-20.06874932789106
 31
0.0
  0
LINE
  5
22B
330
2
100
AcDbEntity
  8
GAIKEI
  6
Continuous
 62
     1
100
AcDbLine
 10
-53.95359993069655
 20
-14.02320482789128
 30
0.0
 11
-53.92604863069641
 21
-14.02133102789116
 31
0.0
  0
LINE
  5
22C
330
2
100
AcDbEntity
  8
GAIKEI
  6
Continuous
 62
     1
100
AcDbLine
 10
-53.98939093069635
 20
-14.0314202278912
 30
0.0
 11
-53.95359993069655
 21
-14.02320482789128
 31
0.0
  0
LINE
  5
22D
330
2
100
AcDbEntity
  8
GAIKEI
  6
Continuous
 62
     1
100
AcDbLine
 10
-54.02299693069631
 20
-14.04581832789108
 30
0.0
 11
-53.98939093069635
 21
-14.0314202278912
 31
0.0
  0
LINE
  5
22E
330
2
100
AcDbEntity
  8
GAIKEI
  6
Continuous
 62
     1
100
AcDbLine
 10
-54.05331913069653
 20
-14.06583792789115
 30
0.0
 11
-54.02299693069631
 21
-14.04581832789108
 31
0.0
  0
LINE
  5
22F
330
2
100
AcDbEntity
  8
GAIKEI
  6
Continuous
 62
     1
100
AcDbLine
 10
-54.07943003069636
 20
-14.09074022789127
 30
0.0
 11
-54.05331913069653
 21
-14.06583792789115
 31
0.0
  0
LINE
  5
230
330
2
100
AcDbEntity
  8
GAIKEI
  6
Continuous
 62
     1
100
AcDbLine
 10
-54.10056033069645
 20
-14.11967092789109
 30
0.0
 11
-54.07943003069636
 21
-14.09074022789127
 31
0.0
  0
LINE
  5
231
330
2
100
AcDbEntity
  8
GAIKEI
  6
Continuous
 62
     1
100
AcDbLine
 10
-54.11609993069646
 20
-14.15170822789105
 30
0.0
 11
-54.10056033069645
 21
-14.11967092789109
 31
0.0
  0
LINE
  5
232
330
2
100
AcDbEntity
  8
GAIKEI
  6
Continuous
 62
     1
100
AcDbLine
 10
-54.12562143069613
 20
-14.18585132789121
 30
0.0
 11
-54.11609993069646
 21
-14.15170822789105
 31
0.0
  0
LINE
  5
233
330
2
100
AcDbEntity
  8
GAIKEI
  6
Continuous
 62
     1
100
AcDbLine
 10
-54.1288318306963
 20
-14.22106252789126
 30
0.0
 11
-54.12562143069613
 21
-14.18585132789121
 31
0.0
  0
LINE
  5
234
330
2
100
AcDbEntity
  8
GAIKEI
  6
Continuous
 62
     1
100
AcDbLine
 10
-14.70406373069613
 20
-14.02320482789128
 30
0.0
 11
-14.73161503069627
 21
-14.02133102789116
 31
0.0
  0
LINE
  5
235
330
2
100
AcDbEntity
  8
GAIKEI
  6
Continuous
 62
     1
100
AcDbLine
 10
-14.66827273069634
 20
-14.0314202278912
 30
0.0
 11
-14.70406373069613
 21
-14.02320482789128
 31
0.0
  0
LINE
  5
236
330
2
100
AcDbEntity
  8
GAIKEI
  6
Continuous
 62
     1
100
AcDbLine
 10
-14.63466683069623
 20
-14.04581832789108
 30
0.0
 11
-14.66827273069634
 21
-14.0314202278912
 31
0.0
  0
LINE
  5
237
330
2
100
AcDbEntity
  8
GAIKEI
  6
Continuous
 62
     1
100
AcDbLine
 10
-14.60434453069615
 20
-14.06583792789115
 30
0.0
 11
-14.63466683069623
 21
-14.04581832789108
 31
0.0
  0
LINE
  5
238
330
2
100
AcDbEntity
  8
GAIKEI
  6
Continuous
 62
     1
100
AcDbLine
 10
-14.57823373069664
 20
-14.09074022789127
 30
0.0
 11
-14.60434453069615
 21
-14.06583792789115
 31
0.0
  0
LINE
  5
239
330
2
100
AcDbEntity
  8
GAIKEI
  6
Continuous
 62
     1
100
AcDbLine
 10
-14.55710333069623
 20
-14.11967092789109
 30
0.0
 11
-14.57823373069664
 21
-14.09074022789127
 31
0.0
  0
LINE
  5
23A
330
2
100
AcDbEntity
  8
GAIKEI
  6
Continuous
 62
     1
100
AcDbLine
 10
-14.54156373069622
 20
-14.15170822789105
 30
0.0
 11
-14.55710333069623
 21
-14.11967092789109
 31
0.0
  0
LINE
  5
23B
330
2
100
AcDbEntity
  8
GAIKEI
  6
Continuous
 62
     1
100
AcDbLine
 10
-14.53204233069641
 20
-14.18585132789121
 30
0.0
 11
-14.54156373069622
 21
-14.15170822789105
 31
0.0
  0
LINE
  5
23C
330
2
100
AcDbEntity
  8
GAIKEI
  6
Continuous
 62
     1
100
AcDbLine
 10
-14.52883183069639
 20
-14.22106252789126
 30
0.0
 11
-14.53204233069641
 21
-14.18585132789121
 31
0.0
  0
LINE
  5
23D
330
2
100
AcDbEntity
  8
GAIKEI
  6
Continuous
 62
     1
100
AcDbLine
 10
-54.18483773069624
 20
-16.40524222789122
 30
0.0
 11
-54.20229373069628
 21
-16.41393362789108
 31
0.0
  0
LINE
  5
23E
330
2
100
AcDbEntity
  8
GAIKEI
  6
Continuous
 62
     1
100
AcDbLine
 10
-54.17018923069623
 20
-16.39214402789116
 30
0.0
 11
-54.18483773069624
 21
-16.40524222789122
 31
0.0
  0
LINE
  5
23F
330
2
100
AcDbEntity
  8
GAIKEI
  6
Continuous
 62
     1
100
AcDbLine
 10
-54.15823863069613
 20
-16.37648852789107
 30
0.0
 11
-54.17018923069623
 21
-16.39214402789116
 31
0.0
  0
LINE
  5
240
330
2
100
AcDbEntity
  8
GAIKEI
  6
Continuous
 62
     1
100
AcDbLine
 10
-54.1445667306964
 20
-16.35051812789106
 30
0.0
 11
-54.15823863069613
 21
-16.37648852789107
 31
0.0
  0
LINE
  5
241
330
2
100
AcDbEntity
  8
GAIKEI
  6
Continuous
 62
     1
100
AcDbLine
 10
-54.13482553069639
 20
-16.32285082789121
 30
0.0
 11
-54.1445667306964
 21
-16.35051812789106
 31
0.0
  0
LINE
  5
242
330
2
100
AcDbEntity
  8
GAIKEI
  6
Continuous
 62
     1
100
AcDbLine
 10
-54.12680543069632
 20
-16.28458792789115
 30
0.0
 11
-54.13482553069639
 21
-16.32285082789121
 31
0.0
  0
LINE
  5
243
330
2
100
AcDbEntity
  8
GAIKEI
  6
Continuous
 62
     1
100
AcDbLine
 10
-54.12372933069651
 20
-16.23585132789117
 30
0.0
 11
-54.12680543069632
 21
-16.28458792789115
 31
0.0
  0
LINE
  5
244
330
2
100
AcDbEntity
  8
GAIKEI
  6
Continuous
 62
     1
100
AcDbLine
 10
-14.46646613069629
 20
-16.4091973278912
 30
0.0
 11
-14.4553699306964
 21
-16.41393362789108
 31
0.0
  0
LINE
  5
245
330
2
100
AcDbEntity
  8
GAIKEI
  6
Continuous
 62
     1
100
AcDbLine
 10
-14.47652473069615
 20
-16.40247732789112
 30
0.0
 11
-14.46646613069629
 21
-16.4091973278912
 31
0.0
  0
LINE
  5
246
330
2
100
AcDbEntity
  8
GAIKEI
  6
Continuous
 62
     1
100
AcDbLine
 10
-14.4854969306964
 20
-16.39426812789111
 30
0.0
 11
-14.47652473069615
 21
-16.40247732789112
 31
0.0
  0
LINE
  5
247
330
2
100
AcDbEntity
  8
GAIKEI
  6
Continuous
 62
     1
100
AcDbLine
 10
-14.50035283069633
 20
-16.37502372789117
 30
0.0
 11
-14.4854969306964
 21
-16.39426812789111
 31
0.0
  0
LINE
  5
248
330
2
100
AcDbEntity
  8
GAIKEI
  6
Continuous
 62
     1
100
AcDbLine
 10
-14.51171763069647
 20
-16.35368582789124
 30
0.0
 11
-14.50035283069633
 21
-16.37502372789117
 31
0.0
  0
LINE
  5
249
330
2
100
AcDbEntity
  8
GAIKEI
  6
Continuous
 62
     1
100
AcDbLine
 10
-14.5237537306964
 20
-16.31952442789111
 30
0.0
 11
-14.51171763069647
 21
-16.35368582789124
 31
0.0
  0
LINE
  5
24A
330
2
100
AcDbEntity
  8
GAIKEI
  6
Continuous
 62
     1
100
AcDbLine
 10
-14.53093143069622
 20
-16.28401412789117
 30
0.0
 11
-14.5237537306964
 21
-16.31952442789111
 31
0.0
  0
LINE
  5
24B
330
2
100
AcDbEntity
  8
GAIKEI
  6
Continuous
 62
     1
100
AcDbLine
 10
-14.53393443069603
 20
-16.23585132789117
 30
0.0
 11
-14.53093143069622
 21
-16.28401412789117
 31
0.0
  0
LINE
  5
24C
330
2
100
AcDbEntity
  8
GAIKEI
  6
Continuous
 62
     1
100
AcDbLine
 10
-54.04743533069654
 20
-13.8575066278911
 30
0.0
 11
-54.03161503069646
 21
-13.85697562789119
 31
0.0
  0
LINE
  5
24D
330
2
100
AcDbEntity
  8
GAIKEI
  6
Continuous
 62
     1
100
AcDbLine
 10
-54.07877083069639
 20
-13.86176072789112
 30
0.0
 11
-54.04743533069654
 21
-13.8575066278911
 31
0.0
  0
LINE
  5
24E
330
2
100
AcDbEntity
  8
GAIKEI
  6
Continuous
 62
     1
100
AcDbLine
 10
-54.10917853069645
 20
-13.8701103278911
 30
0.0
 11
-54.07877083069639
 21
-13.86176072789112
 31
0.0
  0
LINE
  5
24F
330
2
100
AcDbEntity
  8
GAIKEI
  6
Continuous
 62
     1
100
AcDbLine
 10
-54.13808473069662
 20
-13.8822197278912
 30
0.0
 11
-54.10917853069645
 21
-13.8701103278911
 31
0.0
  0
LINE
  5
250
330
2
100
AcDbEntity
  8
GAIKEI
  6
Continuous
 62
     1
100
AcDbLine
 10
-54.1649646306962
 20
-13.89759452789121
 30
0.0
 11
-54.13808473069662
 21
-13.8822197278912
 31
0.0
  0
LINE
  5
251
330
2
100
AcDbEntity
  8
GAIKEI
  6
Continuous
 62
     1
100
AcDbLine
 10
-54.18940313069629
 20
-13.91558762789123
 30
0.0
 11
-54.1649646306962
 21
-13.89759452789121
 31
0.0
  0
LINE
  5
252
330
2
100
AcDbEntity
  8
GAIKEI
  6
Continuous
 62
     1
100
AcDbLine
 10
-55.97802613069621
 20
13.67890997210884
 30
0.0
 11
-55.98762093069604
 21
13.6728919721088
 31
0.0
  0
LINE
  5
253
330
2
100
AcDbEntity
  8
GAIKEI
  6
Continuous
 62
     1
100
AcDbLine
 10
-55.96550173069613
 20
13.68215407210891
 30
0.0
 11
-55.97802613069621
 21
13.67890997210884
 31
0.0
  0
LINE
  5
254
330
2
100
AcDbEntity
  8
GAIKEI
  6
Continuous
 62
     1
100
AcDbLine
 10
-55.94221073069661
 20
13.6837287721089
 30
0.0
 11
-55.96550173069613
 21
13.68215407210891
 31
0.0
  0
LINE
  5
255
330
2
100
AcDbEntity
  8
GAIKEI
  6
Continuous
 62
     1
100
AcDbLine
 10
-55.99489633069629
 20
-16.36726612789107
 30
0.0
 11
-55.99726443069653
 21
-16.36118092789115
 31
0.0
  0
LINE
  5
256
330
2
100
AcDbEntity
  8
GAIKEI
  6
Continuous
 62
     1
100
AcDbLine
 10
-55.98681523069649
 20
-16.37623832789109
 30
0.0
 11
-55.99489633069629
 21
-16.36726612789107
 31
0.0
  0
LINE
  5
257
330
2
100
AcDbEntity
  8
GAIKEI
  6
Continuous
 62
     1
100
AcDbLine
 10
-55.97349733069655
 20
-16.38482592789114
 30
0.0
 11
-55.98681523069649
 21
-16.37623832789109
 31
0.0
  0
LINE
  5
258
330
2
100
AcDbEntity
  8
GAIKEI
  6
Continuous
 62
     1
100
AcDbLine
 10
-55.94807013069635
 20
-16.39527512789118
 30
0.0
 11
-55.97349733069655
 21
-16.38482592789114
 31
0.0
  0
LINE
  5
259
330
2
100
AcDbEntity
  8
GAIKEI
  6
Continuous
 62
     1
100
AcDbLine
 10
-55.91487923069621
 20
-16.4040947278911
 30
0.0
 11
-55.94807013069635
 21
-16.39527512789118
 31
0.0
  0
LINE
  5
25A
330
2
100
AcDbEntity
  8
GAIKEI
  6
Continuous
 62
     1
100
AcDbLine
 10
-55.86483033069612
 20
-16.41207812789116
 30
0.0
 11
-55.91487923069621
 21
-16.4040947278911
 31
0.0
  0
LINE
  5
25B
330
2
100
AcDbEntity
  8
GAIKEI
  6
Continuous
 62
     1
100
AcDbLine
 10
-55.79753303069651
 20
-16.41626512789116
 30
0.0
 11
-55.86483033069612
 21
-16.41207812789116
 31
0.0
  0
LINE
  5
25C
330
2
100
AcDbEntity
  8
GAIKEI
  6
Continuous
 62
     1
100
AcDbLine
 10
-55.99363893069654
 20
13.65404737210883
 30
0.0
 11
-55.99453013069638
 21
13.65372687210879
 31
0.0
  0
LINE
  5
25D
330
2
100
AcDbEntity
  8
GAIKEI
  6
Continuous
 62
     1
100
AcDbLine
 10
-55.99213753069648
 20
13.65436477210892
 30
0.0
 11
-55.99363893069654
 21
13.65404737210883
 31
0.0
  0
LINE
  5
25E
330
2
100
AcDbEntity
  8
GAIKEI
  6
Continuous
 62
     1
100
AcDbLine
 10
-55.98012583069635
 20
13.65560377210886
 30
0.0
 11
-55.99213753069648
 21
13.65436477210892
 31
0.0
  0
LINE
  5
25F
330
2
100
AcDbEntity
  8
GAIKEI
  6
Continuous
 62
     1
100
AcDbLine
 10
-55.92938113069635
 20
13.65776747210884
 30
0.0
 11
-55.98012583069635
 21
13.65560377210886
 31
0.0
  0
LINE
  5
260
330
2
100
AcDbEntity
  8
GAIKEI
  6
Continuous
 62
     1
100
AcDbLine
 10
-55.79448123069619
 20
13.65946117210887
 30
0.0
 11
-55.92938113069635
 21
13.65776747210884
 31
0.0
  0
LINE
  5
261
330
2
100
AcDbEntity
  8
GAIKEI
  6
Continuous
 62
     1
100
AcDbLine
 10
-12.67913703069621
 20
13.67870557210881
 30
0.0
 11
-12.67004273069619
 21
13.6728919721088
 31
0.0
  0
LINE
  5
262
330
2
100
AcDbEntity
  8
GAIKEI
  6
Continuous
 62
     1
100
AcDbLine
 10
-12.69091683069632
 20
13.68194647210885
 30
0.0
 11
-12.67913703069621
 21
13.67870557210881
 31
0.0
  0
LINE
  5
263
330
2
100
AcDbEntity
  8
GAIKEI
  6
Continuous
 62
     1
100
AcDbLine
 10
-12.71545293069653
 20
13.6837287721089
 30
0.0
 11
-12.69091683069632
 21
13.68194647210885
 31
0.0
  0
LINE
  5
264
330
2
100
AcDbEntity
  8
GAIKEI
  6
Continuous
 62
     1
100
AcDbLine
 10
-12.66276743069625
 20
-16.36726612789107
 30
0.0
 11
-12.66039923069661
 21
-16.36118092789115
 31
0.0
  0
LINE
  5
265
330
2
100
AcDbEntity
  8
GAIKEI
  6
Continuous
 62
     1
100
AcDbLine
 10
-12.67084843069665
 20
-16.37623832789109
 30
0.0
 11
-12.66276743069625
 21
-16.36726612789107
 31
0.0
  0
LINE
  5
266
330
2
100
AcDbEntity
  8
GAIKEI
  6
Continuous
 62
     1
100
AcDbLine
 10
-12.6841663306966
 20
-16.38482592789114
 30
0.0
 11
-12.67084843069665
 21
-16.37623832789109
 31
0.0
  0
LINE
  5
267
330
2
100
AcDbEntity
  8
GAIKEI
  6
Continuous
 62
     1
100
AcDbLine
 10
-12.70959353069634
 20
-16.39527512789118
 30
0.0
 11
-12.6841663306966
 21
-16.38482592789114
 31
0.0
  0
LINE
  5
268
330
2
100
AcDbEntity
  8
GAIKEI
  6
Continuous
 62
     1
100
AcDbLine
 10
-12.74278443069647
 20
-16.4040947278911
 30
0.0
 11
-12.70959353069634
 21
-16.39527512789118
 31
0.0
  0
LINE
  5
269
330
2
100
AcDbEntity
  8
GAIKEI
  6
Continuous
 62
     1
100
AcDbLine
 10
-12.79283333069611
 20
-16.41207812789116
 30
0.0
 11
-12.74278443069647
 21
-16.4040947278911
 31
0.0
  0
LINE
  5
26A
330
2
100
AcDbEntity
  8
GAIKEI
  6
Continuous
 62
     1
100
AcDbLine
 10
-12.86013063069663
 20
-16.41626512789116
 30
0.0
 11
-12.79283333069611
 21
-16.41207812789116
 31
0.0
  0
LINE
  5
26B
330
2
100
AcDbEntity
  8
GAIKEI
  6
Continuous
 62
     1
100
AcDbLine
 10
-12.66402473069615
 20
13.65404737210883
 30
0.0
 11
-12.66313363069662
 21
13.65372687210879
 31
0.0
  0
LINE
  5
26C
330
2
100
AcDbEntity
  8
GAIKEI
  6
Continuous
 62
     1
100
AcDbLine
 10
-12.6655261306962
 20
13.65436477210892
 30
0.0
 11
-12.66402473069615
 21
13.65404737210883
 31
0.0
  0
LINE
  5
26D
330
2
100
AcDbEntity
  8
GAIKEI
  6
Continuous
 62
     1
100
AcDbLine
 10
-12.67753793069664
 20
13.65560377210886
 30
0.0
 11
-12.6655261306962
 21
13.65436477210892
 31
0.0
  0
LINE
  5
26E
330
2
100
AcDbEntity
  8
GAIKEI
  6
Continuous
 62
     1
100
AcDbLine
 10
-12.72828253069633
 20
13.65776747210884
 30
0.0
 11
-12.67753793069664
 21
13.65560377210886
 31
0.0
  0
LINE
  5
26F
330
2
100
AcDbEntity
  8
GAIKEI
  6
Continuous
 62
     1
100
AcDbLine
 10
-12.86318243069604
 20
13.65946117210887
 30
0.0
 11
-12.72828253069633
 21
13.65776747210884
 31
0.0
  0
LINE
  5
270
330
2
100
AcDbEntity
  8
GAIKEI
  6
Continuous
 62
     1
100
AcDbLine
 10
20.07471711101402
 20
22.78372567210886
 30
0.0
 11
20.07471711101402
 21
22.45872567210881
 31
0.0
  0
LINE
  5
271
330
2
100
AcDbEntity
  8
GAIKEI
  6
Continuous
 62
     1
100
AcDbLine
 10
20.07471711101402
 20
23.1087256721089
 30
0.0
 11
20.07471711101402
 21
22.78372567210886
 31
0.0
  0
LINE
  5
272
330
2
100
AcDbEntity
  8
GAIKEI
  6
Continuous
 62
     1
100
AcDbLine
 10
20.07471711101402
 20
2.033728772108815
 30
0.0
 11
20.07471711101402
 21
1.70872877210877
 31
0.0
  0
LINE
  5
273
330
2
100
AcDbEntity
  8
GAIKEI
  6
Continuous
 62
     1
100
AcDbLine
 10
20.07471711101402
 20
2.358728772108861
 30
0.0
 11
20.07471711101402
 21
2.033728772108815
 31
0.0
  0
LINE
  5
274
330
2
100
AcDbEntity
  8
GAIKEI
  6
Continuous
 62
     7
100
AcDbLine
 10
17.07471711101402
 20
23.83974377210893
 30
0.0
 11
17.07471711101402
 21
23.85243297210877
 31
0.0
  0
LINE
  5
275
330
2
100
AcDbEntity
  8
GAIKEI
  6
Continuous
 62
     7
100
AcDbLine
 10
17.07471711101402
 20
23.83974377210893
 30
0.0
 11
17.07471711101402
 21
23.80126717210874
 31
0.0
  0
LINE
  5
276
330
2
100
AcDbEntity
  8
GAIKEI
  6
Continuous
 62
     1
100
AcDbLine
 10
17.12210481101397
 20
23.83974377210893
 30
0.0
 11
17.07471711101402
 21
23.83974377210893
 31
0.0
  0
LINE
  5
277
330
2
100
AcDbEntity
  8
GAIKEI
  6
Continuous
 62
     1
100
AcDbLine
 10
17.08567901101401
 20
23.77003247210883
 30
0.0
 11
17.24974151101401
 21
23.56496047210885
 31
0.0
  0
LINE
  5
278
330
2
100
AcDbEntity
  8
GAIKEI
  6
Continuous
 62
     1
100
AcDbLine
 10
17.24974151101401
 20
23.50249097210872
 30
0.0
 11
17.09969271101386
 21
23.31496047210885
 31
0.0
  0
LINE
  5
279
330
2
100
AcDbEntity
  8
GAIKEI
  6
Continuous
 62
     1
100
AcDbLine
 10
17.09969271101386
 20
23.25249097210872
 30
0.0
 11
17.24974151101401
 21
23.06496047210885
 31
0.0
  0
LINE
  5
27A
330
2
100
AcDbEntity
  8
GAIKEI
  6
Continuous
 62
     1
100
AcDbLine
 10
17.24974151101401
 20
23.00249097210872
 30
0.0
 11
17.09969271101386
 21
22.81496047210885
 31
0.0
  0
LINE
  5
27B
330
2
100
AcDbEntity
  8
GAIKEI
  6
Continuous
 62
     1
100
AcDbLine
 10
17.09969271101386
 20
22.75249097210872
 30
0.0
 11
17.24974151101401
 21
22.56496047210885
 31
0.0
  0
LINE
  5
27C
330
2
100
AcDbEntity
  8
GAIKEI
  6
Continuous
 62
     1
100
AcDbLine
 10
17.24974151101401
 20
22.50249097210872
 30
0.0
 11
17.09969271101386
 21
22.31496047210885
 31
0.0
  0
LINE
  5
27D
330
2
100
AcDbEntity
  8
GAIKEI
  6
Continuous
 62
     1
100
AcDbLine
 10
17.09969271101386
 20
22.25249097210872
 30
0.0
 11
17.24974151101401
 21
22.06496047210885
 31
0.0
  0
LINE
  5
27E
330
2
100
AcDbEntity
  8
GAIKEI
  6
Continuous
 62
     1
100
AcDbLine
 10
17.24974151101401
 20
22.00249097210872
 30
0.0
 11
17.09969271101386
 21
21.81496047210885
 31
0.0
  0
LINE
  5
27F
330
2
100
AcDbEntity
  8
GAIKEI
  6
Continuous
 62
     1
100
AcDbLine
 10
17.09969271101386
 20
21.75249097210872
 30
0.0
 11
17.24974151101401
 21
21.56496047210885
 31
0.0
  0
LINE
  5
280
330
2
100
AcDbEntity
  8
GAIKEI
  6
Continuous
 62
     1
100
AcDbLine
 10
17.24974151101401
 20
21.50249097210872
 30
0.0
 11
17.09969271101386
 21
21.31496047210885
 31
0.0
  0
LINE
  5
281
330
2
100
AcDbEntity
  8
GAIKEI
  6
Continuous
 62
     1
100
AcDbLine
 10
17.09969271101386
 20
21.25249097210872
 30
0.0
 11
17.24974151101401
 21
21.06496047210885
 31
0.0
  0
LINE
  5
282
330
2
100
AcDbEntity
  8
GAIKEI
  6
Continuous
 62
     1
100
AcDbLine
 10
17.24974151101401
 20
21.00249097210872
 30
0.0
 11
17.09969271101386
 21
20.81496047210885
 31
0.0
  0
LINE
  5
283
330
2
100
AcDbEntity
  8
GAIKEI
  6
Continuous
 62
     1
100
AcDbLine
 10
17.24974151101401
 20
20.56496047210885
 30
0.0
 11
17.09969271101386
 21
20.75249097210872
 31
0.0
  0
LINE
  5
284
330
2
100
AcDbEntity
  8
GAIKEI
  6
Continuous
 62
     1
100
AcDbLine
 10
17.09969271101386
 20
20.3149619721089
 30
0.0
 11
17.24974151101401
 21
20.50249247210877
 31
0.0
  0
LINE
  5
285
330
2
100
AcDbEntity
  8
GAIKEI
  6
Continuous
 62
     1
100
AcDbLine
 10
17.24974151101401
 20
20.06496197210891
 30
0.0
 11
17.09969271101386
 21
20.25249247210877
 31
0.0
  0
LINE
  5
286
330
2
100
AcDbEntity
  8
GAIKEI
  6
Continuous
 62
     1
100
AcDbLine
 10
17.09969271101386
 20
19.8149619721089
 30
0.0
 11
17.24974151101401
 21
20.00249247210877
 31
0.0
  0
LINE
  5
287
330
2
100
AcDbEntity
  8
GAIKEI
  6
Continuous
 62
     1
100
AcDbLine
 10
17.24974151101401
 20
19.5649619721089
 30
0.0
 11
17.09969271101386
 21
19.75249247210877
 31
0.0
  0
LINE
  5
288
330
2
100
AcDbEntity
  8
GAIKEI
  6
Continuous
 62
     1
100
AcDbLine
 10
17.09969271101386
 20
19.3149619721089
 30
0.0
 11
17.24974151101401
 21
19.50249247210877
 31
0.0
  0
LINE
  5
289
330
2
100
AcDbEntity
  8
GAIKEI
  6
Continuous
 62
     1
100
AcDbLine
 10
17.24974151101401
 20
19.0649619721089
 30
0.0
 11
17.09969271101386
 21
19.25249247210877
 31
0.0
  0
LINE
  5
28A
330
2
100
AcDbEntity
  8
GAIKEI
  6
Continuous
 62
     1
100
AcDbLine
 10
17.09969271101386
 20
18.8149619721089
 30
0.0
 11
17.24974151101401
 21
19.00249247210877
 31
0.0
  0
LINE
  5
28B
330
2
100
AcDbEntity
  8
GAIKEI
  6
Continuous
 62
     1
100
AcDbLine
 10
17.24974151101401
 20
18.5649619721089
 30
0.0
 11
17.09969271101386
 21
18.75249247210877
 31
0.0
  0
LINE
  5
28C
330
2
100
AcDbEntity
  8
GAIKEI
  6
Continuous
 62
     1
100
AcDbLine
 10
17.09969271101386
 20
18.3149619721089
 30
0.0
 11
17.24974151101401
 21
18.50249247210877
 31
0.0
  0
LINE
  5
28D
330
2
100
AcDbEntity
  8
GAIKEI
  6
Continuous
 62
     1
100
AcDbLine
 10
17.24974151101401
 20
18.06496047210885
 30
0.0
 11
17.09969271101386
 21
18.25249097210871
 31
0.0
  0
LINE
  5
28E
330
2
100
AcDbEntity
  8
GAIKEI
  6
Continuous
 62
     1
100
AcDbLine
 10
17.09969271101386
 20
17.81496047210885
 30
0.0
 11
17.24974151101401
 21
18.00249097210872
 31
0.0
  0
LINE
  5
28F
330
2
100
AcDbEntity
  8
GAIKEI
  6
Continuous
 62
     1
100
AcDbLine
 10
17.24974151101401
 20
17.56496047210885
 30
0.0
 11
17.09969271101386
 21
17.75249097210872
 31
0.0
  0
LINE
  5
290
330
2
100
AcDbEntity
  8
GAIKEI
  6
Continuous
 62
     1
100
AcDbLine
 10
17.09969271101386
 20
17.31496047210885
 30
0.0
 11
17.24974151101401
 21
17.50249097210871
 31
0.0
  0
LINE
  5
291
330
2
100
AcDbEntity
  8
GAIKEI
  6
Continuous
 62
     1
100
AcDbLine
 10
17.24974151101401
 20
17.06496047210885
 30
0.0
 11
17.09969271101386
 21
17.25249097210872
 31
0.0
  0
LINE
  5
292
330
2
100
AcDbEntity
  8
GAIKEI
  6
Continuous
 62
     1
100
AcDbLine
 10
17.09969271101386
 20
16.81496047210885
 30
0.0
 11
17.24974151101401
 21
17.00249097210871
 31
0.0
  0
LINE
  5
293
330
2
100
AcDbEntity
  8
GAIKEI
  6
Continuous
 62
     1
100
AcDbLine
 10
17.24974151101401
 20
16.56496047210885
 30
0.0
 11
17.09969271101386
 21
16.75249097210872
 31
0.0
  0
LINE
  5
294
330
2
100
AcDbEntity
  8
GAIKEI
  6
Continuous
 62
     1
100
AcDbLine
 10
17.09969271101386
 20
16.31496047210885
 30
0.0
 11
17.24974151101401
 21
16.50249097210872
 31
0.0
  0
LINE
  5
295
330
2
100
AcDbEntity
  8
GAIKEI
  6
Continuous
 62
     1
100
AcDbLine
 10
17.24974151101401
 20
16.06496047210885
 30
0.0
 11
17.09969271101386
 21
16.25249097210871
 31
0.0
  0
LINE
  5
296
330
2
100
AcDbEntity
  8
GAIKEI
  6
Continuous
 62
     1
100
AcDbLine
 10
17.09969271101386
 20
15.81496047210885
 30
0.0
 11
17.24974151101401
 21
16.00249097210872
 31
0.0
  0
LINE
  5
297
330
2
100
AcDbEntity
  8
GAIKEI
  6
Continuous
 62
     1
100
AcDbLine
 10
17.24974151101401
 20
15.56496047210885
 30
0.0
 11
17.09969271101386
 21
15.75249097210871
 31
0.0
  0
LINE
  5
298
330
2
100
AcDbEntity
  8
GAIKEI
  6
Continuous
 62
     1
100
AcDbLine
 10
17.09969271101386
 20
15.31496047210885
 30
0.0
 11
17.24974151101401
 21
15.50249097210872
 31
0.0
  0
LINE
  5
299
330
2
100
AcDbEntity
  8
GAIKEI
  6
Continuous
 62
     1
100
AcDbLine
 10
17.24974151101401
 20
15.06496047210885
 30
0.0
 11
17.09969271101386
 21
15.25249097210872
 31
0.0
  0
LINE
  5
29A
330
2
100
AcDbEntity
  8
GAIKEI
  6
Continuous
 62
     1
100
AcDbLine
 10
17.09969271101386
 20
14.81496047210885
 30
0.0
 11
17.24974151101401
 21
15.00249097210871
 31
0.0
  0
LINE
  5
29B
330
2
100
AcDbEntity
  8
GAIKEI
  6
Continuous
 62
     1
100
AcDbLine
 10
17.24974151101401
 20
14.56496047210885
 30
0.0
 11
17.09969271101386
 21
14.75249097210872
 31
0.0
  0
LINE
  5
29C
330
2
100
AcDbEntity
  8
GAIKEI
  6
Continuous
 62
     1
100
AcDbLine
 10
17.09969271101386
 20
14.31496047210885
 30
0.0
 11
17.24974151101401
 21
14.50249097210871
 31
0.0
  0
LINE
  5
29D
330
2
100
AcDbEntity
  8
GAIKEI
  6
Continuous
 62
     1
100
AcDbLine
 10
17.24974151101401
 20
14.06496047210885
 30
0.0
 11
17.09969271101386
 21
14.25249097210872
 31
0.0
  0
LINE
  5
29E
330
2
100
AcDbEntity
  8
GAIKEI
  6
Continuous
 62
     1
100
AcDbLine
 10
17.09969271101386
 20
13.81496047210885
 30
0.0
 11
17.24974151101401
 21
14.00249097210872
 31
0.0
  0
LINE
  5
29F
330
2
100
AcDbEntity
  8
GAIKEI
  6
Continuous
 62
     1
100
AcDbLine
 10
17.24974151101401
 20
13.56496047210885
 30
0.0
 11
17.09969271101386
 21
13.75249097210871
 31
0.0
  0
LINE
  5
2A0
330
2
100
AcDbEntity
  8
GAIKEI
  6
Continuous
 62
     1
100
AcDbLine
 10
17.09969271101386
 20
13.31496047210885
 30
0.0
 11
17.24974151101401
 21
13.50249097210872
 31
0.0
  0
LINE
  5
2A1
330
2
100
AcDbEntity
  8
GAIKEI
  6
Continuous
 62
     1
100
AcDbLine
 10
17.24974151101401
 20
13.06496047210885
 30
0.0
 11
17.09969271101386
 21
13.25249097210871
 31
0.0
  0
LINE
  5
2A2
330
2
100
AcDbEntity
  8
GAIKEI
  6
Continuous
 62
     1
100
AcDbLine
 10
17.09969271101386
 20
12.81496047210885
 30
0.0
 11
17.24974151101401
 21
13.00249097210872
 31
0.0
  0
LINE
  5
2A3
330
2
100
AcDbEntity
  8
GAIKEI
  6
Continuous
 62
     1
100
AcDbLine
 10
17.24974151101401
 20
12.56496047210885
 30
0.0
 11
17.09969271101386
 21
12.75249097210872
 31
0.0
  0
LINE
  5
2A4
330
2
100
AcDbEntity
  8
GAIKEI
  6
Continuous
 62
     1
100
AcDbLine
 10
17.09969271101386
 20
12.31496047210885
 30
0.0
 11
17.24974151101401
 21
12.50249097210871
 31
0.0
  0
LINE
  5
2A5
330
2
100
AcDbEntity
  8
GAIKEI
  6
Continuous
 62
     1
100
AcDbLine
 10
17.24974151101401
 20
12.06496047210885
 30
0.0
 11
17.09969271101386
 21
12.25249097210872
 31
0.0
  0
LINE
  5
2A6
330
2
100
AcDbEntity
  8
GAIKEI
  6
Continuous
 62
     1
100
AcDbLine
 10
17.09969271101386
 20
11.81496047210885
 30
0.0
 11
17.24974151101401
 21
12.00249097210871
 31
0.0
  0
LINE
  5
2A7
330
2
100
AcDbEntity
  8
GAIKEI
  6
Continuous
 62
     1
100
AcDbLine
 10
17.24974151101401
 20
11.56496047210885
 30
0.0
 11
17.09969271101386
 21
11.75249097210872
 31
0.0
  0
LINE
  5
2A8
330
2
100
AcDbEntity
  8
GAIKEI
  6
Continuous
 62
     1
100
AcDbLine
 10
17.09969271101386
 20
11.31496047210885
 30
0.0
 11
17.24974151101401
 21
11.50249097210871
 31
0.0
  0
LINE
  5
2A9
330
2
100
AcDbEntity
  8
GAIKEI
  6
Continuous
 62
     1
100
AcDbLine
 10
17.24974151101401
 20
11.06496047210885
 30
0.0
 11
17.09969271101386
 21
11.25249097210871
 31
0.0
  0
LINE
  5
2AA
330
2
100
AcDbEntity
  8
GAIKEI
  6
Continuous
 62
     1
100
AcDbLine
 10
17.09969271101386
 20
10.81496047210885
 30
0.0
 11
17.24974151101401
 21
11.00249097210872
 31
0.0
  0
LINE
  5
2AB
330
2
100
AcDbEntity
  8
GAIKEI
  6
Continuous
 62
     1
100
AcDbLine
 10
17.24974151101401
 20
10.56496047210885
 30
0.0
 11
17.09969271101386
 21
10.75249097210871
 31
0.0
  0
LINE
  5
2AC
330
2
100
AcDbEntity
  8
GAIKEI
  6
Continuous
 62
     1
100
AcDbLine
 10
17.09969271101386
 20
10.31496047210885
 30
0.0
 11
17.24974151101401
 21
10.50249097210872
 31
0.0
  0
LINE
  5
2AD
330
2
100
AcDbEntity
  8
GAIKEI
  6
Continuous
 62
     1
100
AcDbLine
 10
17.24974151101401
 20
10.06496047210885
 30
0.0
 11
17.09969271101386
 21
10.25249097210871
 31
0.0
  0
LINE
  5
2AE
330
2
100
AcDbEntity
  8
GAIKEI
  6
Continuous
 62
     1
100
AcDbLine
 10
17.09969271101386
 20
9.81496047210885
 30
0.0
 11
17.24974151101401
 21
10.00249097210871
 31
0.0
  0
LINE
  5
2AF
330
2
100
AcDbEntity
  8
GAIKEI
  6
Continuous
 62
     1
100
AcDbLine
 10
17.24974151101401
 20
9.56496047210885
 30
0.0
 11
17.09969271101386
 21
9.752490972108716
 31
0.0
  0
LINE
  5
2B0
330
2
100
AcDbEntity
  8
GAIKEI
  6
Continuous
 62
     1
100
AcDbLine
 10
17.09969271101386
 20
9.31496047210885
 30
0.0
 11
17.24974151101401
 21
9.502490972108716
 31
0.0
  0
LINE
  5
2B1
330
2
100
AcDbEntity
  8
GAIKEI
  6
Continuous
 62
     1
100
AcDbLine
 10
17.24974151101401
 20
9.06496047210885
 30
0.0
 11
17.09969271101386
 21
9.252490972108716
 31
0.0
  0
LINE
  5
2B2
330
2
100
AcDbEntity
  8
GAIKEI
  6
Continuous
 62
     1
100
AcDbLine
 10
17.09969271101386
 20
8.81496047210885
 30
0.0
 11
17.24974151101401
 21
9.002490972108716
 31
0.0
  0
LINE
  5
2B3
330
2
100
AcDbEntity
  8
GAIKEI
  6
Continuous
 62
     1
100
AcDbLine
 10
17.24974151101401
 20
8.56496047210885
 30
0.0
 11
17.09969271101386
 21
8.752490972108716
 31
0.0
  0
LINE
  5
2B4
330
2
100
AcDbEntity
  8
GAIKEI
  6
Continuous
 62
     1
100
AcDbLine
 10
17.09969271101386
 20
8.31496047210885
 30
0.0
 11
17.24974151101401
 21
8.502490972108716
 31
0.0
  0
LINE
  5
2B5
330
2
100
AcDbEntity
  8
GAIKEI
  6
Continuous
 62
     1
100
AcDbLine
 10
17.24974151101401
 20
8.06496047210885
 30
0.0
 11
17.09969271101386
 21
8.252490972108716
 31
0.0
  0
LINE
  5
2B6
330
2
100
AcDbEntity
  8
GAIKEI
  6
Continuous
 62
     1
100
AcDbLine
 10
17.09969271101386
 20
7.81496047210885
 30
0.0
 11
17.24974151101401
 21
8.002490972108716
 31
0.0
  0
LINE
  5
2B7
330
2
100
AcDbEntity
  8
GAIKEI
  6
Continuous
 62
     1
100
AcDbLine
 10
17.24974151101401
 20
7.56496047210885
 30
0.0
 11
17.09969271101386
 21
7.752490972108716
 31
0.0
  0
LINE
  5
2B8
330
2
100
AcDbEntity
  8
GAIKEI
  6
Continuous
 62
     1
100
AcDbLine
 10
17.09969271101386
 20
7.31496047210885
 30
0.0
 11
17.24974151101401
 21
7.502490972108716
 31
0.0
  0
LINE
  5
2B9
330
2
100
AcDbEntity
  8
GAIKEI
  6
Continuous
 62
     1
100
AcDbLine
 10
17.24974151101401
 20
7.06496047210885
 30
0.0
 11
17.09969271101386
 21
7.252490972108716
 31
0.0
  0
LINE
  5
2BA
330
2
100
AcDbEntity
  8
GAIKEI
  6
Continuous
 62
     1
100
AcDbLine
 10
17.09969271101386
 20
6.81496047210885
 30
0.0
 11
17.24974151101401
 21
7.002490972108716
 31
0.0
  0
LINE
  5
2BB
330
2
100
AcDbEntity
  8
GAIKEI
  6
Continuous
 62
     1
100
AcDbLine
 10
17.24974151101401
 20
6.56496047210885
 30
0.0
 11
17.09969271101386
 21
6.752490972108716
 31
0.0
  0
LINE
  5
2BC
330
2
100
AcDbEntity
  8
GAIKEI
  6
Continuous
 62
     1
100
AcDbLine
 10
17.09969271101386
 20
6.31496047210885
 30
0.0
 11
17.24974151101401
 21
6.502490972108716
 31
0.0
  0
LINE
  5
2BD
330
2
100
AcDbEntity
  8
GAIKEI
  6
Continuous
 62
     1
100
AcDbLine
 10
17.24974151101401
 20
6.06496047210885
 30
0.0
 11
17.09969271101386
 21
6.252490972108716
 31
0.0
  0
LINE
  5
2BE
330
2
100
AcDbEntity
  8
GAIKEI
  6
Continuous
 62
     1
100
AcDbLine
 10
17.09969271101386
 20
5.81496047210885
 30
0.0
 11
17.24974151101401
 21
6.002490972108716
 31
0.0
  0
LINE
  5
2BF
330
2
100
AcDbEntity
  8
GAIKEI
  6
Continuous
 62
     1
100
AcDbLine
 10
17.24974151101401
 20
5.56496047210885
 30
0.0
 11
17.09969271101386
 21
5.752490972108716
 31
0.0
  0
LINE
  5
2C0
330
2
100
AcDbEntity
  8
GAIKEI
  6
Continuous
 62
     1
100
AcDbLine
 10
17.09969271101386
 20
5.31496047210885
 30
0.0
 11
17.24974151101401
 21
5.502490972108716
 31
0.0
  0
LINE
  5
2C1
330
2
100
AcDbEntity
  8
GAIKEI
  6
Continuous
 62
     1
100
AcDbLine
 10
17.24974151101401
 20
5.06496047210885
 30
0.0
 11
17.09969271101386
 21
5.252490972108716
 31
0.0
  0
LINE
  5
2C2
330
2
100
AcDbEntity
  8
GAIKEI
  6
Continuous
 62
     1
100
AcDbLine
 10
17.24974151101401
 20
5.002490972108716
 30
0.0
 11
17.09969271101386
 21
4.81496047210885
 31
0.0
  0
LINE
  5
2C3
330
2
100
AcDbEntity
  8
GAIKEI
  6
Continuous
 62
     1
100
AcDbLine
 10
17.24974151101401
 20
4.56496047210885
 30
0.0
 11
17.09969271101386
 21
4.752490972108716
 31
0.0
  0
LINE
  5
2C4
330
2
100
AcDbEntity
  8
GAIKEI
  6
Continuous
 62
     1
100
AcDbLine
 10
17.24974151101401
 20
4.502490972108716
 30
0.0
 11
17.09969271101386
 21
4.31496047210885
 31
0.0
  0
LINE
  5
2C5
330
2
100
AcDbEntity
  8
GAIKEI
  6
Continuous
 62
     1
100
AcDbLine
 10
17.24974151101401
 20
4.06496047210885
 30
0.0
 11
17.09969271101386
 21
4.252490972108716
 31
0.0
  0
LINE
  5
2C6
330
2
100
AcDbEntity
  8
GAIKEI
  6
Continuous
 62
     1
100
AcDbLine
 10
17.09969271101386
 20
3.81496047210885
 30
0.0
 11
17.24974151101401
 21
4.002490972108716
 31
0.0
  0
LINE
  5
2C7
330
2
100
AcDbEntity
  8
GAIKEI
  6
Continuous
 62
     1
100
AcDbLine
 10
17.24974151101401
 20
3.56496047210885
 30
0.0
 11
17.09969271101386
 21
3.752490972108716
 31
0.0
  0
LINE
  5
2C8
330
2
100
AcDbEntity
  8
GAIKEI
  6
Continuous
 62
     1
100
AcDbLine
 10
17.09969271101386
 20
3.31496047210885
 30
0.0
 11
17.24974151101401
 21
3.502490972108716
 31
0.0
  0
LINE
  5
2C9
330
2
100
AcDbEntity
  8
GAIKEI
  6
Continuous
 62
     1
100
AcDbLine
 10
17.24974151101401
 20
3.06496047210885
 30
0.0
 11
17.09969271101386
 21
3.252490972108716
 31
0.0
  0
LINE
  5
2CA
330
2
100
AcDbEntity
  8
GAIKEI
  6
Continuous
 62
     1
100
AcDbLine
 10
17.24974151101401
 20
3.002490972108716
 30
0.0
 11
17.09969271101386
 21
2.81496047210885
 31
0.0
  0
LINE
  5
2CB
330
2
100
AcDbEntity
  8
GAIKEI
  6
Continuous
 62
     1
100
AcDbLine
 10
17.24974151101401
 20
2.56496047210885
 30
0.0
 11
17.09969271101386
 21
2.752490972108716
 31
0.0
  0
LINE
  5
2CC
330
2
100
AcDbEntity
  8
GAIKEI
  6
Continuous
 62
     1
100
AcDbLine
 10
17.24974151101401
 20
2.502490972108716
 30
0.0
 11
17.09969271101386
 21
2.31496047210885
 31
0.0
  0
LINE
  5
2CD
330
2
100
AcDbEntity
  8
GAIKEI
  6
Continuous
 62
     1
100
AcDbLine
 10
17.24974151101401
 20
2.06496047210885
 30
0.0
 11
17.09969271101386
 21
2.252490972108716
 31
0.0
  0
LINE
  5
2CE
330
2
100
AcDbEntity
  8
GAIKEI
  6
Continuous
 62
     1
100
AcDbLine
 10
17.09969271101386
 20
1.81496047210885
 30
0.0
 11
17.24974151101401
 21
2.002490972108716
 31
0.0
  0
LINE
  5
2CF
330
2
100
AcDbEntity
  8
GAIKEI
  6
Continuous
 62
     1
100
AcDbLine
 10
17.24974151101401
 20
1.56496047210885
 30
0.0
 11
17.09969271101386
 21
1.752490972108716
 31
0.0
  0
LINE
  5
2D0
330
2
100
AcDbEntity
  8
GAIKEI
  6
Continuous
 62
     1
100
AcDbLine
 10
17.24974151101401
 20
1.502490972108716
 30
0.0
 11
17.09969271101386
 21
1.31496047210885
 31
0.0
  0
LINE
  5
2D1
330
2
100
AcDbEntity
  8
GAIKEI
  6
Continuous
 62
     1
100
AcDbLine
 10
17.24974151101401
 20
1.06496047210885
 30
0.0
 11
17.09969271101386
 21
1.252490972108716
 31
0.0
  0
LINE
  5
2D2
330
2
100
AcDbEntity
  8
GAIKEI
  6
Continuous
 62
     1
100
AcDbLine
 10
17.24974151101401
 20
1.002490972108716
 30
0.0
 11
17.09969271101386
 21
0.8149604721088508
 31
0.0
  0
LINE
  5
2D3
330
2
100
AcDbEntity
  8
GAIKEI
  6
Continuous
 62
     1
100
AcDbLine
 10
17.09969271101386
 20
0.752490972108717
 30
0.0
 11
17.24974151101401
 21
0.5649604721088508
 31
0.0
  0
LINE
  5
2D4
330
2
100
AcDbEntity
  8
GAIKEI
  6
Continuous
 62
     1
100
AcDbLine
 10
17.24974151101401
 20
0.502490972108717
 30
0.0
 11
17.09969271101386
 21
0.3149604721088508
 31
0.0
  0
LINE
  5
2D5
330
2
100
AcDbEntity
  8
GAIKEI
  6
Continuous
 62
     1
100
AcDbLine
 10
17.09969271101386
 20
0.252490972108717
 30
0.0
 11
17.24974151101401
 21
0.0649604721088508
 31
0.0
  0
LINE
  5
2D6
330
2
100
AcDbEntity
  8
GAIKEI
  6
Continuous
 62
     1
100
AcDbLine
 10
17.24974151101401
 20
0.002490972108717
 30
0.0
 11
17.09969271101386
 21
-0.1850395278911492
 31
0.0
  0
LINE
  5
2D7
330
2
100
AcDbEntity
  8
GAIKEI
  6
Continuous
 62
     1
100
AcDbLine
 10
17.24974151101401
 20
-0.4350395278911492
 30
0.0
 11
17.09969271101386
 21
-0.247509027891283
 31
0.0
  0
LINE
  5
2D8
330
2
100
AcDbEntity
  8
GAIKEI
  6
Continuous
 62
     1
100
AcDbLine
 10
17.24974151101401
 20
-0.4975090278912831
 30
0.0
 11
17.09969271101386
 21
-0.6850395278911492
 31
0.0
  0
LINE
  5
2D9
330
2
100
AcDbEntity
  8
GAIKEI
  6
Continuous
 62
     1
100
AcDbLine
 10
17.24974151101401
 20
-0.9350395278911491
 30
0.0
 11
17.09969271101386
 21
-0.7475090278912831
 31
0.0
  0
LINE
  5
2DA
330
2
100
AcDbEntity
  8
GAIKEI
  6
Continuous
 62
     1
100
AcDbLine
 10
17.24974151101401
 20
-0.997509027891283
 30
0.0
 11
17.09969271101386
 21
-1.185039527891149
 31
0.0
  0
LINE
  5
2DB
330
2
100
AcDbEntity
  8
GAIKEI
  6
Continuous
 62
     1
100
AcDbLine
 10
17.09969271101386
 20
-1.247509027891283
 30
0.0
 11
17.24974151101401
 21
-1.435039527891149
 31
0.0
  0
LINE
  5
2DC
330
2
100
AcDbEntity
  8
GAIKEI
  6
Continuous
 62
     1
100
AcDbLine
 10
17.24974151101401
 20
-1.497509027891283
 30
0.0
 11
17.09969271101386
 21
-1.685039527891149
 31
0.0
  0
LINE
  5
2DD
330
2
100
AcDbEntity
  8
GAIKEI
  6
Continuous
 62
     1
100
AcDbLine
 10
17.09969271101386
 20
-1.747509027891283
 30
0.0
 11
17.24974151101401
 21
-1.935039527891149
 31
0.0
  0
LINE
  5
2DE
330
2
100
AcDbEntity
  8
GAIKEI
  6
Continuous
 62
     1
100
AcDbLine
 10
17.24974151101401
 20
-1.997509027891283
 30
0.0
 11
17.09969271101386
 21
-2.185039527891149
 31
0.0
  0
LINE
  5
2DF
330
2
100
AcDbEntity
  8
GAIKEI
  6
Continuous
 62
     1
100
AcDbLine
 10
17.09969271101386
 20
-2.247509027891283
 30
0.0
 11
17.24974151101401
 21
-2.435039527891149
 31
0.0
  0
LINE
  5
2E0
330
2
100
AcDbEntity
  8
GAIKEI
  6
Continuous
 62
     1
100
AcDbLine
 10
17.24974151101401
 20
-2.497509027891283
 30
0.0
 11
17.09969271101386
 21
-2.685039527891149
 31
0.0
  0
LINE
  5
2E1
330
2
100
AcDbEntity
  8
GAIKEI
  6
Continuous
 62
     1
100
AcDbLine
 10
17.09969271101386
 20
-2.747509027891283
 30
0.0
 11
17.24974151101401
 21
-2.935039527891149
 31
0.0
  0
LINE
  5
2E2
330
2
100
AcDbEntity
  8
GAIKEI
  6
Continuous
 62
     1
100
AcDbLine
 10
17.24974151101401
 20
-2.997509027891283
 30
0.0
 11
17.09969271101386
 21
-3.185039527891149
 31
0.0
  0
LINE
  5
2E3
330
2
100
AcDbEntity
  8
GAIKEI
  6
Continuous
 62
     1
100
AcDbLine
 10
17.09969271101386
 20
-3.247509027891055
 30
0.0
 11
17.24974151101401
 21
-3.435039527891149
 31
0.0
  0
LINE
  5
2E4
330
2
100
AcDbEntity
  8
GAIKEI
  6
Continuous
 62
     1
100
AcDbLine
 10
17.24974151101401
 20
-3.497509027891055
 30
0.0
 11
17.09969271101386
 21
-3.685039527891149
 31
0.0
  0
LINE
  5
2E5
330
2
100
AcDbEntity
  8
GAIKEI
  6
Continuous
 62
     1
100
AcDbLine
 10
17.09969271101386
 20
-3.747509027891055
 30
0.0
 11
17.24974151101401
 21
-3.935039527891149
 31
0.0
  0
LINE
  5
2E6
330
2
100
AcDbEntity
  8
GAIKEI
  6
Continuous
 62
     1
100
AcDbLine
 10
17.24974151101401
 20
-3.997509027891055
 30
0.0
 11
17.09969271101386
 21
-4.185039527891149
 31
0.0
  0
LINE
  5
2E7
330
2
100
AcDbEntity
  8
GAIKEI
  6
Continuous
 62
     1
100
AcDbLine
 10
17.09969271101386
 20
-4.247509027891055
 30
0.0
 11
17.24974151101401
 21
-4.435039527891149
 31
0.0
  0
LINE
  5
2E8
330
2
100
AcDbEntity
  8
GAIKEI
  6
Continuous
 62
     1
100
AcDbLine
 10
17.24974151101401
 20
-4.497509027891055
 30
0.0
 11
17.09969271101386
 21
-4.685039527891149
 31
0.0
  0
LINE
  5
2E9
330
2
100
AcDbEntity
  8
GAIKEI
  6
Continuous
 62
     1
100
AcDbLine
 10
17.09969271101386
 20
-4.747509027891055
 30
0.0
 11
17.24974151101401
 21
-4.935039527891149
 31
0.0
  0
LINE
  5
2EA
330
2
100
AcDbEntity
  8
GAIKEI
  6
Continuous
 62
     1
100
AcDbLine
 10
17.24974151101401
 20
-4.997509027891055
 30
0.0
 11
17.09969271101386
 21
-5.185039527891149
 31
0.0
  0
LINE
  5
2EB
330
2
100
AcDbEntity
  8
GAIKEI
  6
Continuous
 62
     1
100
AcDbLine
 10
17.09969271101386
 20
-5.247509027891055
 30
0.0
 11
17.24974151101401
 21
-5.435039527891149
 31
0.0
  0
LINE
  5
2EC
330
2
100
AcDbEntity
  8
GAIKEI
  6
Continuous
 62
     1
100
AcDbLine
 10
17.24974151101401
 20
-5.497509027891055
 30
0.0
 11
17.09969271101386
 21
-5.685039527891149
 31
0.0
  0
LINE
  5
2ED
330
2
100
AcDbEntity
  8
GAIKEI
  6
Continuous
 62
     1
100
AcDbLine
 10
17.09969271101386
 20
-5.747509027891055
 30
0.0
 11
17.24974151101401
 21
-5.935039527891149
 31
0.0
  0
LINE
  5
2EE
330
2
100
AcDbEntity
  8
GAIKEI
  6
Continuous
 62
     1
100
AcDbLine
 10
17.24974151101401
 20
-5.997509027891055
 30
0.0
 11
17.09969271101386
 21
-6.185039527891149
 31
0.0
  0
LINE
  5
2EF
330
2
100
AcDbEntity
  8
GAIKEI
  6
Continuous
 62
     1
100
AcDbLine
 10
17.09969271101386
 20
-6.247509027891055
 30
0.0
 11
17.24974151101401
 21
-6.435039527891149
 31
0.0
  0
LINE
  5
2F0
330
2
100
AcDbEntity
  8
GAIKEI
  6
Continuous
 62
     1
100
AcDbLine
 10
17.24974151101401
 20
-6.497509027891055
 30
0.0
 11
17.09969271101386
 21
-6.685039527891149
 31
0.0
  0
LINE
  5
2F1
330
2
100
AcDbEntity
  8
GAIKEI
  6
Continuous
 62
     1
100
AcDbLine
 10
17.09969271101386
 20
-6.747509027891055
 30
0.0
 11
17.24974151101401
 21
-6.935039527891149
 31
0.0
  0
LINE
  5
2F2
330
2
100
AcDbEntity
  8
GAIKEI
  6
Continuous
 62
     1
100
AcDbLine
 10
17.24974151101401
 20
-6.997509027891055
 30
0.0
 11
17.09969271101386
 21
-7.185039527891149
 31
0.0
  0
LINE
  5
2F3
330
2
100
AcDbEntity
  8
GAIKEI
  6
Continuous
 62
     1
100
AcDbLine
 10
17.09969271101386
 20
-7.247509027891055
 30
0.0
 11
17.24974151101401
 21
-7.435039527891149
 31
0.0
  0
LINE
  5
2F4
330
2
100
AcDbEntity
  8
GAIKEI
  6
Continuous
 62
     1
100
AcDbLine
 10
17.24974151101401
 20
-7.497509027891055
 30
0.0
 11
17.09969271101386
 21
-7.685039527891149
 31
0.0
  0
LINE
  5
2F5
330
2
100
AcDbEntity
  8
GAIKEI
  6
Continuous
 62
     1
100
AcDbLine
 10
17.09969271101386
 20
-7.747509027891055
 30
0.0
 11
17.24974151101401
 21
-7.935039527891149
 31
0.0
  0
LINE
  5
2F6
330
2
100
AcDbEntity
  8
GAIKEI
  6
Continuous
 62
     1
100
AcDbLine
 10
17.24974151101401
 20
-7.997509027891055
 30
0.0
 11
17.09969271101386
 21
-8.185039527891149
 31
0.0
  0
LINE
  5
2F7
330
2
100
AcDbEntity
  8
GAIKEI
  6
Continuous
 62
     1
100
AcDbLine
 10
17.09969271101386
 20
-8.247509027891055
 30
0.0
 11
17.24974151101401
 21
-8.435039527891149
 31
0.0
  0
LINE
  5
2F8
330
2
100
AcDbEntity
  8
GAIKEI
  6
Continuous
 62
     1
100
AcDbLine
 10
17.24974151101401
 20
-8.497509027891055
 30
0.0
 11
17.09969271101386
 21
-8.685039527891149
 31
0.0
  0
LINE
  5
2F9
330
2
100
AcDbEntity
  8
GAIKEI
  6
Continuous
 62
     1
100
AcDbLine
 10
17.09969271101386
 20
-8.747509027891055
 30
0.0
 11
17.24974151101401
 21
-8.935039527891149
 31
0.0
  0
LINE
  5
2FA
330
2
100
AcDbEntity
  8
GAIKEI
  6
Continuous
 62
     1
100
AcDbLine
 10
17.24974151101401
 20
-8.997509027891055
 30
0.0
 11
17.09969271101386
 21
-9.185039527891149
 31
0.0
  0
LINE
  5
2FB
330
2
100
AcDbEntity
  8
GAIKEI
  6
Continuous
 62
     1
100
AcDbLine
 10
17.09969271101386
 20
-9.247509027891055
 30
0.0
 11
17.24974151101401
 21
-9.435039527891149
 31
0.0
  0
LINE
  5
2FC
330
2
100
AcDbEntity
  8
GAIKEI
  6
Continuous
 62
     1
100
AcDbLine
 10
17.24974151101401
 20
-9.497509027891055
 30
0.0
 11
17.09969271101386
 21
-9.685039527891149
 31
0.0
  0
LINE
  5
2FD
330
2
100
AcDbEntity
  8
GAIKEI
  6
Continuous
 62
     1
100
AcDbLine
 10
17.09969271101386
 20
-9.747509027891055
 30
0.0
 11
17.24974151101401
 21
-9.935039527891149
 31
0.0
  0
LINE
  5
2FE
330
2
100
AcDbEntity
  8
GAIKEI
  6
Continuous
 62
     1
100
AcDbLine
 10
17.24974151101401
 20
-9.997509027891055
 30
0.0
 11
17.09969271101386
 21
-10.18503952789115
 31
0.0
  0
LINE
  5
2FF
330
2
100
AcDbEntity
  8
GAIKEI
  6
Continuous
 62
     1
100
AcDbLine
 10
17.09969271101386
 20
-10.24750902789105
 30
0.0
 11
17.24974151101401
 21
-10.43503952789115
 31
0.0
  0
LINE
  5
300
330
2
100
AcDbEntity
  8
GAIKEI
  6
Continuous
 62
     1
100
AcDbLine
 10
17.24974151101401
 20
-10.49750902789105
 30
0.0
 11
17.09969271101386
 21
-10.68503952789115
 31
0.0
  0
LINE
  5
301
330
2
100
AcDbEntity
  8
GAIKEI
  6
Continuous
 62
     1
100
AcDbLine
 10
17.09969271101386
 20
-10.74750902789105
 30
0.0
 11
17.24974151101401
 21
-10.93503952789115
 31
0.0
  0
LINE
  5
302
330
2
100
AcDbEntity
  8
GAIKEI
  6
Continuous
 62
     1
100
AcDbLine
 10
17.24974151101401
 20
-10.99750902789105
 30
0.0
 11
17.09969271101386
 21
-11.18503952789115
 31
0.0
  0
LINE
  5
303
330
2
100
AcDbEntity
  8
GAIKEI
  6
Continuous
 62
     1
100
AcDbLine
 10
17.09969271101386
 20
-11.24750902789105
 30
0.0
 11
17.24974151101401
 21
-11.43503952789115
 31
0.0
  0
LINE
  5
304
330
2
100
AcDbEntity
  8
GAIKEI
  6
Continuous
 62
     1
100
AcDbLine
 10
17.24974151101401
 20
-11.49750902789105
 30
0.0
 11
17.09969271101386
 21
-11.68503952789115
 31
0.0
  0
LINE
  5
305
330
2
100
AcDbEntity
  8
GAIKEI
  6
Continuous
 62
     1
100
AcDbLine
 10
17.09969271101386
 20
-11.74750902789105
 30
0.0
 11
17.24974151101401
 21
-11.93503952789115
 31
0.0
  0
LINE
  5
306
330
2
100
AcDbEntity
  8
GAIKEI
  6
Continuous
 62
     1
100
AcDbLine
 10
17.24974151101401
 20
-11.99750902789105
 30
0.0
 11
17.09969271101386
 21
-12.18503952789115
 31
0.0
  0
LINE
  5
307
330
2
100
AcDbEntity
  8
GAIKEI
  6
Continuous
 62
     1
100
AcDbLine
 10
17.09969271101386
 20
-12.24750902789105
 30
0.0
 11
17.24974151101401
 21
-12.43503952789115
 31
0.0
  0
LINE
  5
308
330
2
100
AcDbEntity
  8
GAIKEI
  6
Continuous
 62
     1
100
AcDbLine
 10
17.24974151101401
 20
-12.49750902789105
 30
0.0
 11
17.09969271101386
 21
-12.68503952789115
 31
0.0
  0
LINE
  5
309
330
2
100
AcDbEntity
  8
GAIKEI
  6
Continuous
 62
     1
100
AcDbLine
 10
17.09969271101386
 20
-12.74750902789105
 30
0.0
 11
17.24974151101401
 21
-12.93503952789115
 31
0.0
  0
LINE
  5
30A
330
2
100
AcDbEntity
  8
GAIKEI
  6
Continuous
 62
     1
100
AcDbLine
 10
17.24974151101401
 20
-12.99750902789105
 30
0.0
 11
17.09969271101386
 21
-13.18503952789115
 31
0.0
  0
LINE
  5
30B
330
2
100
AcDbEntity
  8
GAIKEI
  6
Continuous
 62
     1
100
AcDbLine
 10
17.09969271101386
 20
-13.24750902789105
 30
0.0
 11
17.24974151101401
 21
-13.43503952789115
 31
0.0
  0
LINE
  5
30C
330
2
100
AcDbEntity
  8
GAIKEI
  6
Continuous
 62
     1
100
AcDbLine
 10
17.24974151101401
 20
-13.49750902789105
 30
0.0
 11
17.09969271101386
 21
-13.68503952789115
 31
0.0
  0
LINE
  5
30D
330
2
100
AcDbEntity
  8
GAIKEI
  6
Continuous
 62
     1
100
AcDbLine
 10
17.09969271101386
 20
-13.74750902789105
 30
0.0
 11
17.24974151101401
 21
-13.93503952789115
 31
0.0
  0
LINE
  5
30E
330
2
100
AcDbEntity
  8
GAIKEI
  6
Continuous
 62
     1
100
AcDbLine
 10
17.24974151101401
 20
-13.99750902789105
 30
0.0
 11
17.09969271101386
 21
-14.18503952789115
 31
0.0
  0
LINE
  5
30F
330
2
100
AcDbEntity
  8
GAIKEI
  6
Continuous
 62
     1
100
AcDbLine
 10
17.09969271101386
 20
-14.24750902789105
 30
0.0
 11
17.24974151101401
 21
-14.43503952789115
 31
0.0
  0
LINE
  5
310
330
2
100
AcDbEntity
  8
GAIKEI
  6
Continuous
 62
     1
100
AcDbLine
 10
17.24974151101401
 20
-14.49750902789105
 30
0.0
 11
17.09969271101386
 21
-14.68503952789115
 31
0.0
  0
LINE
  5
311
330
2
100
AcDbEntity
  8
GAIKEI
  6
Continuous
 62
     1
100
AcDbLine
 10
17.09969271101386
 20
-14.74750902789105
 30
0.0
 11
17.24974151101401
 21
-14.93503952789115
 31
0.0
  0
LINE
  5
312
330
2
100
AcDbEntity
  8
GAIKEI
  6
Continuous
 62
     1
100
AcDbLine
 10
17.24974151101401
 20
-14.99750902789105
 30
0.0
 11
17.09969271101386
 21
-15.18503952789115
 31
0.0
  0
LINE
  5
313
330
2
100
AcDbEntity
  8
GAIKEI
  6
Continuous
 62
     1
100
AcDbLine
 10
17.09969271101386
 20
-15.24750902789105
 30
0.0
 11
17.24974151101401
 21
-15.43503952789115
 31
0.0
  0
LINE
  5
314
330
2
100
AcDbEntity
  8
GAIKEI
  6
Continuous
 62
     1
100
AcDbLine
 10
17.24974151101401
 20
-15.49750902789105
 30
0.0
 11
17.09969271101386
 21
-15.68503952789115
 31
0.0
  0
LINE
  5
315
330
2
100
AcDbEntity
  8
GAIKEI
  6
Continuous
 62
     1
100
AcDbLine
 10
17.09969271101386
 20
-15.74750902789105
 30
0.0
 11
17.24974151101401
 21
-15.93503952789115
 31
0.0
  0
LINE
  5
316
330
2
100
AcDbEntity
  8
GAIKEI
  6
Continuous
 62
     1
100
AcDbLine
 10
17.24974151101401
 20
-15.99750902789105
 30
0.0
 11
17.09969271101386
 21
-16.18503952789115
 31
0.0
  0
LINE
  5
317
330
2
100
AcDbEntity
  8
GAIKEI
  6
Continuous
 62
     1
100
AcDbLine
 10
17.09969271101386
 20
-16.24750902789105
 30
0.0
 11
17.24974151101401
 21
-16.43503952789115
 31
0.0
  0
LINE
  5
318
330
2
100
AcDbEntity
  8
GAIKEI
  6
Continuous
 62
     1
100
AcDbLine
 10
17.24974151101401
 20
-16.49750902789105
 30
0.0
 11
17.09969271101386
 21
-16.68503952789115
 31
0.0
  0
LINE
  5
319
330
2
100
AcDbEntity
  8
GAIKEI
  6
Continuous
 62
     1
100
AcDbLine
 10
17.24974151101401
 20
-16.93503952789115
 30
0.0
 11
17.09969271101386
 21
-16.74750902789105
 31
0.0
  0
LINE
  5
31A
330
2
100
AcDbEntity
  8
GAIKEI
  6
Continuous
 62
     1
100
AcDbLine
 10
17.09969271101386
 20
-17.18503952789115
 30
0.0
 11
17.24974151101401
 21
-16.99750902789105
 31
0.0
  0
LINE
  5
31B
330
2
100
AcDbEntity
  8
GAIKEI
  6
Continuous
 62
     1
100
AcDbLine
 10
17.24974151101401
 20
-17.43503952789115
 30
0.0
 11
17.09969271101386
 21
-17.24750902789105
 31
0.0
  0
LINE
  5
31C
330
2
100
AcDbEntity
  8
GAIKEI
  6
Continuous
 62
     1
100
AcDbLine
 10
17.09969271101386
 20
-17.68503952789115
 30
0.0
 11
17.24974151101401
 21
-17.49750902789105
 31
0.0
  0
LINE
  5
31D
330
2
100
AcDbEntity
  8
GAIKEI
  6
Continuous
 62
     1
100
AcDbLine
 10
17.24974151101401
 20
-17.93503952789115
 30
0.0
 11
17.09969271101386
 21
-17.74750902789105
 31
0.0
  0
LINE
  5
31E
330
2
100
AcDbEntity
  8
GAIKEI
  6
Continuous
 62
     1
100
AcDbLine
 10
17.09969271101386
 20
-18.18503952789115
 30
0.0
 11
17.24974151101401
 21
-17.99750902789105
 31
0.0
  0
LINE
  5
31F
330
2
100
AcDbEntity
  8
GAIKEI
  6
Continuous
 62
     1
100
AcDbLine
 10
17.24974151101401
 20
-18.43503952789115
 30
0.0
 11
17.09969271101386
 21
-18.24750902789105
 31
0.0
  0
LINE
  5
320
330
2
100
AcDbEntity
  8
GAIKEI
  6
Continuous
 62
     1
100
AcDbLine
 10
17.09969271101386
 20
-18.68503952789115
 30
0.0
 11
17.24974151101401
 21
-18.49750902789105
 31
0.0
  0
LINE
  5
321
330
2
100
AcDbEntity
  8
GAIKEI
  6
Continuous
 62
     1
100
AcDbLine
 10
17.24974151101401
 20
-18.93503952789115
 30
0.0
 11
17.09969271101386
 21
-18.74750902789105
 31
0.0
  0
LINE
  5
322
330
2
100
AcDbEntity
  8
GAIKEI
  6
Continuous
 62
     1
100
AcDbLine
 10
17.09969271101386
 20
-19.18503952789115
 30
0.0
 11
17.24974151101401
 21
-18.99750902789105
 31
0.0
  0
LINE
  5
323
330
2
100
AcDbEntity
  8
GAIKEI
  6
Continuous
 62
     1
100
AcDbLine
 10
17.24974151101401
 20
-19.43503952789115
 30
0.0
 11
17.09969271101386
 21
-19.24750902789105
 31
0.0
  0
LINE
  5
324
330
2
100
AcDbEntity
  8
GAIKEI
  6
Continuous
 62
     1
100
AcDbLine
 10
17.08567901101401
 20
-19.70258102789103
 30
0.0
 11
17.24974151101401
 21
-19.49750902789105
 31
0.0
  0
LINE
  5
325
330
2
100
AcDbEntity
  8
GAIKEI
  6
Continuous
 62
     1
100
AcDbLine
 10
17.07471711101402
 20
-19.73381272789106
 30
0.0
 11
17.07471711101399
 21
-19.7849785278911
 31
0.0
  0
LINE
  5
326
330
2
100
AcDbEntity
  8
GAIKEI
  6
Continuous
 62
     1
100
AcDbLine
 10
17.12210481101397
 20
-19.77228932789103
 30
0.0
 11
17.07471711101402
 21
-19.77228932789103
 31
0.0
  0
LINE
  5
327
330
2
100
AcDbEntity
  8
GAIKEI
  6
Continuous
 62
     1
100
AcDbLine
 10
19.8747171110142
 20
23.98400037210877
 30
0.0
 11
17.12210481101397
 21
23.83974377210893
 31
0.0
  0
LINE
  5
328
330
2
100
AcDbEntity
  8
GAIKEI
  6
Continuous
 62
     1
100
AcDbLine
 10
19.8747171110142
 20
-19.91654592789109
 30
0.0
 11
17.12210481101397
 21
-19.77228932789103
 31
0.0
  0
LINE
  5
329
330
2
100
AcDbEntity
  8
GAIKEI
  6
Continuous
 62
     1
100
AcDbLine
 10
19.8747171110142
 20
-19.91654592789109
 30
0.0
 11
19.8747171110142
 21
24.18896641234198
 31
0.0
  0
LINE
  5
32A
330
2
100
AcDbEntity
  8
GAIKEI
  6
Continuous
 62
     1
100
AcDbLine
 10
19.8747171110142
 20
-20.12151196812431
 30
0.0
 11
19.8747171110142
 21
-19.91654592789109
 31
0.0
  0
LINE
  5
32B
330
2
100
AcDbEntity
  8
GAIKEI
  6
Continuous
 62
     1
100
AcDbLine
 10
19.90413611101416
 20
-20.09473192789119
 30
0.0
 11
19.8747171110142
 21
-20.09627002789125
 31
0.0
  0
LINE
  5
32C
330
2
100
AcDbEntity
  8
GAIKEI
  6
Continuous
 62
     1
100
AcDbLine
 10
19.90413611101416
 20
24.16218637210886
 30
0.0
 11
19.8747171110142
 21
24.16372757210889
 31
0.0
  0
LINE
  5
32D
330
2
100
AcDbEntity
  8
GAIKEI
  6
Continuous
 62
     1
100
AcDbLine
 10
19.90413611101416
 20
-19.89500662789123
 30
0.0
 11
19.8747171110142
 21
-19.89655082789113
 31
0.0
  0
LINE
  5
32E
330
2
100
AcDbEntity
  8
GAIKEI
  6
Continuous
 62
     1
100
AcDbLine
 10
20.07471711101402
 20
23.96245797210895
 30
0.0
 11
20.07471711101402
 21
23.98243177210884
 31
0.0
  0
LINE
  5
32F
330
2
100
AcDbEntity
  8
GAIKEI
  6
Continuous
 62
     1
100
AcDbLine
 10
20.07471711101402
 20
-19.89500662789123
 30
0.0
 11
19.90413611101416
 21
-19.89500662789123
 31
0.0
  0
LINE
  5
330
330
2
100
AcDbEntity
  8
GAIKEI
  6
Continuous
 62
     1
100
AcDbLine
 10
20.07471711101402
 20
23.96245797210895
 30
0.0
 11
19.87471711101423
 21
23.96245797210889
 31
0.0
  0
LINE
  5
331
330
2
100
AcDbEntity
  8
GAIKEI
  6
Continuous
 62
     7
100
AcDbLine
 10
20.07471711101402
 20
24.18373966710988
 30
0.0
 11
20.07471711101402
 21
-20.11626033289031
 31
0.0
  0
LINE
  5
332
330
2
100
AcDbEntity
  8
GAIKEI
  6
Continuous
 62
     1
100
AcDbLine
 10
19.28926791101435
 20
24.15828627210885
 30
0.0
 11
19.41470731101412
 21
24.28372567210886
 31
0.0
  0
LINE
  5
333
330
2
100
AcDbEntity
  8
GAIKEI
  6
Continuous
 62
     1
100
AcDbLine
 10
19.52767121101419
 20
24.17078017210883
 30
0.0
 11
19.41470731101412
 21
24.28372567210886
 31
0.0
  0
LINE
  5
334
330
2
100
AcDbEntity
  8
GAIKEI
  6
Continuous
 62
     7
100
AcDbLine
 10
17.04942411101433
 20
13.6837287721089
 30
0.0
 11
17.13660681101396
 21
13.6837287721089
 31
0.0
  0
LINE
  5
335
330
2
100
AcDbEntity
  8
GAIKEI
  6
Continuous
 62
     7
100
AcDbLine
 10
17.07471711101402
 20
13.6837287721089
 30
0.0
 11
17.07471711101402
 21
23.80125807210879
 31
0.0
  0
LINE
  5
336
330
2
100
AcDbEntity
  8
GAIKEI
  6
Continuous
 62
     7
100
AcDbLine
 10
17.07471711101402
 20
-19.7330132278912
 30
0.0
 11
17.07471711101402
 21
-16.41626512789116
 31
0.0
  0
LINE
  5
337
330
2
100
AcDbEntity
  8
GAIKEI
  6
Continuous
 62
     7
100
AcDbLine
 10
17.07471711101402
 20
-16.41627122789123
 30
0.0
 11
15.58392121101428
 21
-13.91558762789123
 31
0.0
  0
LINE
  5
338
330
2
100
AcDbEntity
  8
GAIKEI
  6
Continuous
 62
     7
100
AcDbLine
 10
17.264243511014
 20
24.05215827210895
 30
0.0
 11
19.8747171110142
 21
24.18896641234198
 31
0.0
  0
LINE
  5
339
330
2
100
AcDbEntity
  8
GAIKEI
  6
Continuous
 62
     1
100
AcDbLine
 10
17.16148471101428
 20
13.39220047210892
 30
0.0
 11
17.20560091101402
 21
13.62009347210892
 31
0.0
  0
LINE
  5
33A
330
2
100
AcDbEntity
  8
GAIKEI
  6
Continuous
 62
     1
100
AcDbLine
 10
17.13382361101389
 20
-16.14239432789122
 30
0.0
 11
15.74524931101428
 21
-13.81317672789123
 31
0.0
  0
LINE
  5
33B
330
2
100
AcDbEntity
  8
GAIKEI
  6
Continuous
 62
     1
100
AcDbLine
 10
19.77471711101384
 20
-20.11627122789105
 30
0.0
 11
19.77471711101384
 21
-20.11102222789123
 31
0.0
  0
LINE
  5
33C
330
2
100
AcDbEntity
  8
GAIKEI
  6
Continuous
 62
     7
100
AcDbLine
 10
17.264243511014
 20
-19.98470382789105
 30
0.0
 11
19.8747171110142
 21
-20.12151196812431
 31
0.0
  0
LINE
  5
33D
330
2
100
AcDbEntity
  8
GAIKEI
  6
Continuous
 62
     7
100
AcDbLine
 10
-12.4393177306963
 20
-19.89500662789123
 30
0.0
 11
-12.4393177306963
 21
23.96245797210895
 31
0.0
  0
LINE
  5
33E
330
2
100
AcDbEntity
  8
GAIKEI
  6
Continuous
 62
     7
100
AcDbLine
 10
-12.4393177306963
 20
23.96245797210895
 30
0.0
 11
-12.42883183069648
 21
23.96245797210895
 31
0.0
  0
LINE
  5
33F
330
2
100
AcDbEntity
  8
GAIKEI
  6
Continuous
 62
     7
100
AcDbLine
 10
-12.4393177306963
 20
-19.89500662789123
 30
0.0
 11
-12.42883183069648
 21
-19.89500662789123
 31
0.0
  0
LINE
  5
340
330
2
100
AcDbEntity
  8
GAIKEI
  6
Continuous
 62
     7
100
AcDbLine
 10
-12.42883183069648
 20
23.96245797210895
 30
0.0
 11
-12.42883183069648
 21
23.98400037210877
 31
0.0
  0
LINE
  5
341
330
2
100
AcDbEntity
  8
GAIKEI
  6
Continuous
 62
     7
100
AcDbLine
 10
-3.128831830696299
 20
-19.91654592789109
 30
0.0
 11
-3.128831830696299
 21
23.98400037210877
 31
0.0
  0
LINE
  5
342
330
2
100
AcDbEntity
  8
GAIKEI
  6
Continuous
 62
     7
100
AcDbLine
 10
-12.42883183069648
 20
-19.91654592789109
 30
0.0
 11
-12.42883183069648
 21
-19.89500662789123
 31
0.0
  0
LINE
  5
343
330
2
100
AcDbEntity
  8
GAIKEI
  6
Continuous
 62
     1
100
AcDbLine
 10
-14.37410773069655
 20
-18.20127492789106
 30
0.0
 11
-14.32350953069613
 21
-18.20127492789106
 31
0.0
  0
LINE
  5
344
330
2
100
AcDbEntity
  8
GAIKEI
  6
Continuous
 62
     1
100
AcDbLine
 10
-13.86382943069634
 20
-18.71155322789127
 30
0.0
 11
-13.86382943069634
 21
-18.66095512789115
 31
0.0
  0
LINE
  5
345
330
2
100
AcDbEntity
  8
GAIKEI
  6
Continuous
 62
     1
100
AcDbLine
 10
-14.37410773069655
 20
-18.33127372789113
 30
0.0
 11
-14.32350953069613
 21
-18.33127372789113
 31
0.0
  0
LINE
  5
346
330
2
100
AcDbEntity
  8
GAIKEI
  6
Continuous
 62
     1
100
AcDbLine
 10
-13.99383433069647
 20
-18.71155322789127
 30
0.0
 11
-13.99383433069647
 21
-18.66095512789115
 31
0.0
  0
LINE
  5
347
330
2
100
AcDbEntity
  8
GAIKEI
  6
Continuous
 62
     1
100
AcDbLine
 10
-13.53415413069638
 20
-18.33127372789113
 30
0.0
 11
-13.48355593069641
 21
-18.33127372789113
 31
0.0
  0
LINE
  5
348
330
2
100
AcDbEntity
  8
GAIKEI
  6
Continuous
 62
     1
100
AcDbLine
 10
-13.99383433069647
 20
-17.8715874278912
 30
0.0
 11
-13.99383433069647
 21
-17.82098922789123
 31
0.0
  0
LINE
  5
349
330
2
100
AcDbEntity
  8
GAIKEI
  6
Continuous
 62
     1
100
AcDbLine
 10
-13.53415413069638
 20
-18.20127492789106
 30
0.0
 11
-13.48355593069641
 21
-18.20127492789106
 31
0.0
  0
LINE
  5
34A
330
2
100
AcDbEntity
  8
GAIKEI
  6
Continuous
 62
     1
100
AcDbLine
 10
-13.86382943069634
 20
-17.8715874278912
 30
0.0
 11
-13.86382943069634
 21
-17.82098922789123
 31
0.0
  0
LINE
  5
34B
330
2
100
AcDbEntity
  8
GAIKEI
  6
Continuous
 62
     1
100
AcDbLine
 10
-13.43307993069652
 20
-18.20127492789106
 30
0.0
 11
-13.48355593069641
 21
-18.20127492789106
 31
0.0
  0
LINE
  5
34C
330
2
100
AcDbEntity
  8
GAIKEI
  6
Continuous
 62
     1
100
AcDbLine
 10
-13.86382943069634
 20
-17.77051322789111
 30
0.0
 11
-13.86382943069634
 21
-17.82098922789123
 31
0.0
  0
LINE
  5
34D
330
2
100
AcDbEntity
  8
GAIKEI
  6
Continuous
 62
     1
100
AcDbLine
 10
-13.86382943069634
 20
-18.76202932789124
 30
0.0
 11
-13.86382943069634
 21
-18.71155322789127
 31
0.0
  0
LINE
  5
34E
330
2
100
AcDbEntity
  8
GAIKEI
  6
Continuous
 62
     1
100
AcDbLine
 10
-13.43307993069652
 20
-18.33127372789113
 30
0.0
 11
-13.48355593069641
 21
-18.33127372789113
 31
0.0
  0
LINE
  5
34F
330
2
100
AcDbEntity
  8
GAIKEI
  6
Continuous
 62
     1
100
AcDbLine
 10
-14.42458383069629
 20
-18.33127372789113
 30
0.0
 11
-14.37410773069655
 21
-18.33127372789113
 31
0.0
  0
LINE
  5
350
330
2
100
AcDbEntity
  8
GAIKEI
  6
Continuous
 62
     1
100
AcDbLine
 10
-13.99383433069647
 20
-18.76202932789124
 30
0.0
 11
-13.99383433069647
 21
-18.71155322789127
 31
0.0
  0
LINE
  5
351
330
2
100
AcDbEntity
  8
GAIKEI
  6
Continuous
 62
     1
100
AcDbLine
 10
-13.99383433069647
 20
-17.77051322789111
 30
0.0
 11
-13.99383433069647
 21
-17.82098922789123
 31
0.0
  0
LINE
  5
352
330
2
100
AcDbEntity
  8
GAIKEI
  6
Continuous
 62
     1
100
AcDbLine
 10
-14.42458383069629
 20
-18.20127492789106
 30
0.0
 11
-14.37410773069655
 21
-18.20127492789106
 31
0.0
  0
LINE
  5
353
330
2
100
AcDbEntity
  8
GAIKEI
  6
Continuous
 62
     1
100
AcDbLine
 10
-14.32350953069613
 20
-18.20127492789106
 30
0.0
 11
-13.99383433069647
 21
-18.20127492789106
 31
0.0
  0
LINE
  5
354
330
2
100
AcDbEntity
  8
GAIKEI
  6
Continuous
 62
     1
100
AcDbLine
 10
-13.99383433069647
 20
-18.20127492789106
 30
0.0
 11
-13.99383433069647
 21
-17.8715874278912
 31
0.0
  0
LINE
  5
355
330
2
100
AcDbEntity
  8
GAIKEI
  6
Continuous
 62
     1
100
AcDbLine
 10
-13.99383433069647
 20
-18.66095512789115
 30
0.0
 11
-13.99383433069647
 21
-18.33127372789113
 31
0.0
  0
LINE
  5
356
330
2
100
AcDbEntity
  8
GAIKEI
  6
Continuous
 62
     1
100
AcDbLine
 10
-13.99383433069647
 20
-18.33127372789113
 30
0.0
 11
-14.32350953069613
 21
-18.33127372789113
 31
0.0
  0
LINE
  5
357
330
2
100
AcDbEntity
  8
GAIKEI
  6
Continuous
 62
     1
100
AcDbLine
 10
-13.53415413069638
 20
-18.33127372789113
 30
0.0
 11
-13.86382943069634
 21
-18.33127372789113
 31
0.0
  0
LINE
  5
358
330
2
100
AcDbEntity
  8
GAIKEI
  6
Continuous
 62
     1
100
AcDbLine
 10
-13.86382943069634
 20
-18.33127372789113
 30
0.0
 11
-13.86382943069634
 21
-18.66095512789115
 31
0.0
  0
LINE
  5
359
330
2
100
AcDbEntity
  8
GAIKEI
  6
Continuous
 62
     1
100
AcDbLine
 10
-13.86382943069634
 20
-17.8715874278912
 30
0.0
 11
-13.86382943069634
 21
-18.20127492789106
 31
0.0
  0
LINE
  5
35A
330
2
100
AcDbEntity
  8
GAIKEI
  6
Continuous
 62
     1
100
AcDbLine
 10
-13.86382943069634
 20
-18.20127492789106
 30
0.0
 11
-13.53415413069638
 21
-18.20127492789106
 31
0.0
  0
LINE
  5
35B
330
2
100
AcDbEntity
  8
GAIKEI
  6
Continuous
 62
     7
100
AcDbLine
 10
-13.63066293069664
 20
24.05984877210881
 30
0.0
 11
-14.22700083069617
 21
24.05984877210881
 31
0.0
  0
LINE
  5
35C
330
2
100
AcDbEntity
  8
GAIKEI
  6
Continuous
 62
     7
100
AcDbLine
 10
-13.53072393069647
 20
24.06480787210876
 30
0.0
 11
-13.49575083069635
 21
24.09906997210874
 31
0.0
  0
LINE
  5
35D
330
2
100
AcDbEntity
  8
GAIKEI
  6
Continuous
 62
     7
100
AcDbLine
 10
-14.36191293069646
 20
24.09906997210874
 30
0.0
 11
-14.32693973069604
 21
24.06480787210876
 31
0.0
  0
LINE
  5
35E
330
2
100
AcDbEntity
  8
GAIKEI
  6
Continuous
 62
     7
100
AcDbLine
 10
-54.43066293069637
 20
24.05984877210881
 30
0.0
 11
-55.02700083069635
 21
24.05984877210881
 31
0.0
  0
LINE
  5
35F
330
2
100
AcDbEntity
  8
GAIKEI
  6
Continuous
 62
     7
100
AcDbLine
 10
-55.12693973069622
 20
24.06480787210876
 30
0.0
 11
-55.16191293069664
 21
24.09906997210874
 31
0.0
  0
LINE
  5
360
330
2
100
AcDbEntity
  8
GAIKEI
  6
Continuous
 62
     7
100
AcDbLine
 10
-54.29575083069654
 20
24.09906997210874
 30
0.0
 11
-54.33072393069619
 21
24.06480787210876
 31
0.0
  0
LINE
  5
361
330
2
100
AcDbEntity
  8
GAIKEI
  6
Continuous
 62
     1
100
AcDbLine
 10
-54.03976933069611
 20
-20.06833422789123
 30
0.0
 11
-54.07386363069623
 21
-20.03424612789104
 31
0.0
  0
LINE
  5
362
330
2
100
AcDbEntity
  8
GAIKEI
  6
Continuous
 62
     1
100
AcDbLine
 10
-55.28393443069603
 20
-20.02927782789106
 30
0.0
 11
-54.17372933069623
 21
-20.02927782789106
 31
0.0
  0
LINE
  5
363
330
2
100
AcDbEntity
  8
GAIKEI
  6
Continuous
 62
     1
100
AcDbLine
 10
-55.4178943306963
 20
-20.06833422789123
 30
0.0
 11
-55.3838001306965
 21
-20.03424612789104
 31
0.0
  0
LINE
  5
364
330
2
100
AcDbEntity
  8
GAIKEI
  6
Continuous
 62
     1
100
AcDbLine
 10
-51.40414923069624
 20
-19.99311452789106
 30
0.0
 11
-53.25351443069644
 21
-19.99311452789106
 31
0.0
  0
LINE
  5
365
330
2
100
AcDbEntity
  8
GAIKEI
  6
Continuous
 62
     1
100
AcDbLine
 10
-53.3533802306963
 20
-19.99808272789119
 30
0.0
 11
-53.42363163069626
 21
-20.06833422789123
 31
0.0
  0
LINE
  5
366
330
2
100
AcDbEntity
  8
GAIKEI
  6
Continuous
 62
     1
100
AcDbLine
 10
-51.30428353069624
 20
-19.99808272789119
 30
0.0
 11
-51.23403203069642
 21
-20.06833422789123
 31
0.0
  0
LINE
  5
367
330
2
100
AcDbEntity
  8
GAIKEI
  6
Continuous
 62
     1
100
AcDbLine
 10
-14.48393443069631
 20
-20.02927782789106
 30
0.0
 11
-13.3737293306965
 21
-20.02927782789106
 31
0.0
  0
LINE
  5
368
330
2
100
AcDbEntity
  8
GAIKEI
  6
Continuous
 62
     1
100
AcDbLine
 10
-13.23976933069639
 20
-20.06833422789123
 30
0.0
 11
-13.27386363069604
 21
-20.03424612789104
 31
0.0
  0
LINE
  5
369
330
2
100
AcDbEntity
  8
GAIKEI
  6
Continuous
 62
     1
100
AcDbLine
 10
-14.61789433069611
 20
-20.06833422789123
 30
0.0
 11
-14.58380013069632
 21
-20.03424612789104
 31
0.0
  0
LINE
  5
36A
330
2
100
AcDbEntity
  8
GAIKEI
  6
Continuous
 62
     1
100
AcDbLine
 10
-15.40414923069625
 20
-19.99311452789106
 30
0.0
 11
-17.25351443069644
 21
-19.99311452789106
 31
0.0
  0
LINE
  5
36B
330
2
100
AcDbEntity
  8
GAIKEI
  6
Continuous
 62
     1
100
AcDbLine
 10
-15.30428353069624
 20
-19.99808272789119
 30
0.0
 11
-15.23403203069642
 21
-20.06833422789123
 31
0.0
  0
LINE
  5
36C
330
2
100
AcDbEntity
  8
GAIKEI
  6
Continuous
 62
     1
100
AcDbLine
 10
-17.3533802306963
 20
-19.99808272789119
 30
0.0
 11
-17.42363163069626
 21
-20.06833422789123
 31
0.0
  0
LINE
  5
36D
330
2
100
AcDbEntity
  8
GAIKEI
  6
Continuous
 62
     1
100
AcDbLine
 10
-14.71774783069645
 20
-20.07329642789114
 30
0.0
 11
-15.13416633069641
 21
-20.07329642789114
 31
0.0
  0
LINE
  5
36E
330
2
100
AcDbEntity
  8
GAIKEI
  6
Continuous
 62
     1
100
AcDbLine
 10
-12.92228883069651
 20
-20.07329642789114
 30
0.0
 11
-13.13991583069651
 21
-20.07329642789114
 31
0.0
  0
LINE
  5
36F
330
2
100
AcDbEntity
  8
GAIKEI
  6
Continuous
 62
     1
100
AcDbLine
 10
-17.52349733069627
 20
-20.07329642789114
 30
0.0
 11
-51.13416633069642
 21
-20.07329642789114
 31
0.0
  0
LINE
  5
370
330
2
100
AcDbEntity
  8
GAIKEI
  6
Continuous
 62
     1
100
AcDbLine
 10
-55.51774783069618
 20
-20.07329642789114
 30
0.0
 11
-55.73537483069618
 21
-20.07329642789114
 31
0.0
  0
LINE
  5
371
330
2
100
AcDbEntity
  8
GAIKEI
  6
Continuous
 62
     1
100
AcDbLine
 10
-53.52349733069627
 20
-20.07329642789114
 30
0.0
 11
-53.93991583069624
 21
-20.07329642789114
 31
0.0
  0
LINE
  5
372
330
2
100
AcDbEntity
  8
GAIKEI
  6
Continuous
 62
     7
100
AcDbLine
 10
-53.77883183069639
 20
24.09906997210874
 30
0.0
 11
-54.29575083069654
 21
24.09906997210874
 31
0.0
  0
LINE
  5
373
330
2
100
AcDbEntity
  8
GAIKEI
  6
Continuous
 62
     7
100
AcDbLine
 10
-55.16191293069664
 20
24.09906997210874
 30
0.0
 11
-55.40440553069652
 21
24.09906997210874
 31
0.0
  0
LINE
  5
374
330
2
100
AcDbEntity
  8
GAIKEI
  6
Continuous
 62
     7
100
AcDbLine
 10
-13.25325813069617
 20
24.09906997210874
 30
0.0
 11
-13.49575083069635
 21
24.09906997210874
 31
0.0
  0
LINE
  5
375
330
2
100
AcDbEntity
  8
GAIKEI
  6
Continuous
 62
     7
100
AcDbLine
 10
-14.36191293069646
 20
24.09906997210874
 30
0.0
 11
-14.8788318306963
 21
24.09906997210874
 31
0.0
  0
LINE
  5
376
330
2
100
AcDbEntity
  8
GAIKEI
  6
Continuous
 62
     1
100
AcDbLine
 10
-12.87930793069631
 20
-20.11627122789105
 30
0.0
 11
-12.92228883069651
 21
-20.07329642789114
 31
0.0
  0
LINE
  5
377
330
2
100
AcDbEntity
  8
GAIKEI
  6
Continuous
 62
     7
100
AcDbLine
 10
-12.87930793069631
 20
24.18372567210872
 30
0.0
 11
-12.94362673069622
 21
24.11941597210875
 31
0.0
  0
LINE
  5
378
330
2
100
AcDbEntity
  8
GAIKEI
  6
Continuous
 62
     7
100
AcDbLine
 10
-15.17883183069648
 20
24.13551097210894
 30
0.0
 11
-15.17883183069648
 21
24.12019727210873
 31
0.0
  0
LINE
  5
379
330
2
100
AcDbEntity
  8
GAIKEI
  6
Continuous
 62
     7
100
AcDbLine
 10
-55.77835573069638
 20
24.18372567210872
 30
0.0
 11
-55.71403693069647
 21
24.11941597210875
 31
0.0
  0
LINE
  5
37A
330
2
100
AcDbEntity
  8
GAIKEI
  6
Continuous
 62
     1
100
AcDbLine
 10
-55.77835573069638
 20
-20.11627122789105
 30
0.0
 11
-55.73537483069618
 21
-20.07329642789114
 31
0.0
  0
LINE
  5
37B
330
2
100
AcDbEntity
  8
GAIKEI
  6
Continuous
 62
     7
100
AcDbLine
 10
-53.47883183069621
 20
24.13551097210894
 30
0.0
 11
-53.47883183069621
 21
24.12019727210873
 31
0.0
  0
LINE
  5
37C
330
2
100
AcDbEntity
  8
GAIKEI
  6
Continuous
 62
     1
100
AcDbLine
 10
-26.97878303069661
 20
-13.93019332789117
 30
0.0
 11
-27.01522103069624
 21
-14.02133102789116
 31
0.0
  0
LINE
  5
37D
330
2
100
AcDbEntity
  8
GAIKEI
  6
Continuous
 62
     1
100
AcDbLine
 10
-26.97878303069661
 20
-13.93019332789117
 30
0.0
 11
-18.07888063069663
 21
-13.93019332789117
 31
0.0
  0
LINE
  5
37E
330
2
100
AcDbEntity
  8
GAIKEI
  6
Continuous
 62
     1
100
AcDbLine
 10
-18.07888063069663
 20
-13.93019332789117
 30
0.0
 11
-18.04244273069639
 21
-14.02133102789116
 31
0.0
  0
LINE
  5
37F
330
2
100
AcDbEntity
  8
GAIKEI
  6
Continuous
 62
     1
100
AcDbLine
 10
-50.57878303069651
 20
-13.93019332789117
 30
0.0
 11
-50.6152210306966
 21
-14.02133102789116
 31
0.0
  0
LINE
  5
380
330
2
100
AcDbEntity
  8
GAIKEI
  6
Continuous
 62
     1
100
AcDbLine
 10
-50.57878303069651
 20
-13.93019332789117
 30
0.0
 11
-41.67888063069653
 21
-13.93019332789117
 31
0.0
  0
LINE
  5
381
330
2
100
AcDbEntity
  8
GAIKEI
  6
Continuous
 62
     1
100
AcDbLine
 10
-41.67888063069653
 20
-13.93019332789117
 30
0.0
 11
-41.6424427306963
 21
-14.02133102789116
 31
0.0
  0
LINE
  5
382
330
2
100
AcDbEntity
  8
GAIKEI
  6
Continuous
 62
     1
100
AcDbLine
 10
-27.01395143069635
 20
-14.22904592789109
 30
0.0
 11
-27.01522103069624
 21
-14.02133102789116
 31
0.0
  0
LINE
  5
383
330
2
100
AcDbEntity
  8
GAIKEI
  6
Continuous
 62
     1
100
AcDbLine
 10
-27.01395143069635
 20
-14.22904592789109
 30
0.0
 11
-18.04371223069643
 21
-14.22904592789109
 31
0.0
  0
LINE
  5
384
330
2
100
AcDbEntity
  8
GAIKEI
  6
Continuous
 62
     1
100
AcDbLine
 10
-18.04371223069643
 20
-14.22904592789109
 30
0.0
 11
-18.04244273069639
 21
-14.02133102789116
 31
0.0
  0
LINE
  5
385
330
2
100
AcDbEntity
  8
GAIKEI
  6
Continuous
 62
     1
100
AcDbLine
 10
-14.73161503069627
 20
-14.02133102789116
 30
0.0
 11
-18.04244273069639
 21
-14.02133102789116
 31
0.0
  0
LINE
  5
386
330
2
100
AcDbEntity
  8
GAIKEI
  6
Continuous
 62
     1
100
AcDbLine
 10
-50.6152210306966
 20
-14.02133102789116
 30
0.0
 11
-53.92604863069641
 21
-14.02133102789116
 31
0.0
  0
LINE
  5
387
330
2
100
AcDbEntity
  8
GAIKEI
  6
Continuous
 62
     1
100
AcDbLine
 10
-50.61395143069626
 20
-14.22904592789109
 30
0.0
 11
-50.6152210306966
 21
-14.02133102789116
 31
0.0
  0
LINE
  5
388
330
2
100
AcDbEntity
  8
GAIKEI
  6
Continuous
 62
     1
100
AcDbLine
 10
-50.61395143069626
 20
-14.22904592789109
 30
0.0
 11
-41.64371223069633
 21
-14.22904592789109
 31
0.0
  0
LINE
  5
389
330
2
100
AcDbEntity
  8
GAIKEI
  6
Continuous
 62
     1
100
AcDbLine
 10
-41.64371223069633
 20
-14.22904592789109
 30
0.0
 11
-41.6424427306963
 21
-14.02133102789116
 31
0.0
  0
LINE
  5
38A
330
2
100
AcDbEntity
  8
GAIKEI
  6
Continuous
 62
     1
100
AcDbLine
 10
-27.01522103069624
 20
-14.02133102789116
 30
0.0
 11
-41.6424427306963
 21
-14.02133102789116
 31
0.0
  0
LINE
  5
38B
330
2
100
AcDbEntity
  8
GAIKEI
  6
Continuous
 62
     7
100
AcDbLine
 10
-55.92910043069628
 20
24.18372567210872
 30
0.0
 11
-55.77835573069638
 21
24.18372567210872
 31
0.0
  0
LINE
  5
38C
330
2
100
AcDbEntity
  8
GAIKEI
  6
Continuous
 62
     1
100
AcDbLine
 10
-55.92910043069628
 20
-20.11627122789105
 30
0.0
 11
-55.77835573069638
 21
-20.11627122789105
 31
0.0
  0
LINE
  5
38D
330
2
100
AcDbEntity
  8
GAIKEI
  6
Continuous
 62
     1
100
AcDbLine
 10
-12.87930793069631
 20
-20.11627122789105
 30
0.0
 11
-12.72856333069626
 21
-20.11627122789105
 31
0.0
  0
LINE
  5
38E
330
2
100
AcDbEntity
  8
GAIKEI
  6
Continuous
 62
     7
100
AcDbLine
 10
-12.87930793069631
 20
24.18372567210872
 30
0.0
 11
-12.72856333069626
 21
24.18372567210872
 31
0.0
  0
LINE
  5
38F
330
2
100
AcDbEntity
  8
GAIKEI
  6
Continuous
 62
     7
100
AcDbLine
 10
-15.17883183069648
 20
24.13551097210894
 30
0.0
 11
-53.47883183069621
 21
24.13551097210894
 31
0.0
  0
LINE
  5
390
330
2
100
AcDbEntity
  8
GAIKEI
  6
Continuous
 62
     1
100
AcDbLine
 10
-13.40572393069647
 20
24.09906997210874
 30
0.0
 11
-13.42883183069648
 21
24.13372567210877
 31
0.0
  0
LINE
  5
391
330
2
100
AcDbEntity
  8
GAIKEI
  6
Continuous
 62
     1
100
AcDbLine
 10
-13.43454473069619
 20
24.14230417210888
 30
0.0
 11
-13.42883183069648
 21
24.13372567210877
 31
0.0
  0
LINE
  5
392
330
2
100
AcDbEntity
  8
GAIKEI
  6
Continuous
 62
     1
100
AcDbLine
 10
-13.43454473069619
 20
24.14230417210888
 30
0.0
 11
-13.52883183069639
 21
24.28372567210886
 31
0.0
  0
LINE
  5
393
330
2
100
AcDbEntity
  8
GAIKEI
  6
Continuous
 62
     1
100
AcDbLine
 10
-14.42311893069632
 20
24.14230417210888
 30
0.0
 11
-14.32883183069612
 21
24.28372567210886
 31
0.0
  0
LINE
  5
394
330
2
100
AcDbEntity
  8
GAIKEI
  6
Continuous
 62
     1
100
AcDbLine
 10
-14.42311893069632
 20
24.14230417210888
 30
0.0
 11
-14.42883183069648
 21
24.13372567210877
 31
0.0
  0
LINE
  5
395
330
2
100
AcDbEntity
  8
GAIKEI
  6
Continuous
 62
     1
100
AcDbLine
 10
-14.45193973069604
 20
24.09906997210874
 30
0.0
 11
-14.42883183069648
 21
24.13372567210877
 31
0.0
  0
LINE
  5
396
330
2
100
AcDbEntity
  8
GAIKEI
  6
Continuous
 62
     1
100
AcDbLine
 10
-54.20572393069619
 20
24.09906997210874
 30
0.0
 11
-54.22883183069621
 21
24.13372567210877
 31
0.0
  0
LINE
  5
397
330
2
100
AcDbEntity
  8
GAIKEI
  6
Continuous
 62
     1
100
AcDbLine
 10
-54.23454473069637
 20
24.14230417210888
 30
0.0
 11
-54.22883183069621
 21
24.13372567210877
 31
0.0
  0
LINE
  5
398
330
2
100
AcDbEntity
  8
GAIKEI
  6
Continuous
 62
     1
100
AcDbLine
 10
-54.23454473069637
 20
24.14230417210888
 30
0.0
 11
-54.32883183069612
 21
24.28372567210886
 31
0.0
  0
LINE
  5
399
330
2
100
AcDbEntity
  8
GAIKEI
  6
Continuous
 62
     1
100
AcDbLine
 10
-55.2231189306965
 20
24.14230417210888
 30
0.0
 11
-55.1288318306963
 21
24.28372567210886
 31
0.0
  0
LINE
  5
39A
330
2
100
AcDbEntity
  8
GAIKEI
  6
Continuous
 62
     1
100
AcDbLine
 10
-55.2231189306965
 20
24.14230417210888
 30
0.0
 11
-55.22883183069621
 21
24.13372567210877
 31
0.0
  0
LINE
  5
39B
330
2
100
AcDbEntity
  8
GAIKEI
  6
Continuous
 62
     1
100
AcDbLine
 10
-55.25193973069622
 20
24.09906997210874
 30
0.0
 11
-55.22883183069621
 21
24.13372567210877
 31
0.0
  0
LINE
  5
39C
330
2
100
AcDbEntity
  8
GAIKEI
  6
Continuous
 62
     1
100
AcDbLine
 10
-55.1288318306963
 20
24.28372567210886
 30
0.0
 11
-54.32883183069612
 21
24.28372567210886
 31
0.0
  0
LINE
  5
39D
330
2
100
AcDbEntity
  8
GAIKEI
  6
Continuous
 62
     1
100
AcDbLine
 10
-14.32883183069612
 20
24.28372567210886
 30
0.0
 11
-13.52883183069639
 21
24.28372567210886
 31
0.0
  0
LINE
  5
39E
330
2
100
AcDbEntity
  8
GAIKEI
  6
Continuous
 62
     1
100
AcDbLine
 10
-50.79882693069635
 20
2.785376672108895
 30
0.0
 11
-42.97883183069621
 21
2.785376672108895
 31
0.0
  0
LINE
  5
39F
330
2
100
AcDbEntity
  8
GAIKEI
  6
Continuous
 62
     1
100
AcDbLine
 10
-42.77883183069639
 20
2.985416372108829
 30
0.0
 11
-42.77883183069639
 21
12.08723827210883
 31
0.0
  0
LINE
  5
3A0
330
2
100
AcDbEntity
  8
GAIKEI
  6
Continuous
 62
     1
100
AcDbLine
 10
-42.97883183069621
 20
12.28727487210881
 30
0.0
 11
-50.79882693069635
 21
12.28727487210881
 31
0.0
  0
LINE
  5
3A1
330
2
100
AcDbEntity
  8
GAIKEI
  6
Continuous
 62
     1
100
AcDbLine
 10
-50.99882693069616
 20
12.08723827210883
 30
0.0
 11
-50.99882693069616
 21
2.985416372108829
 31
0.0
  0
LINE
  5
3A2
330
2
100
AcDbEntity
  8
GAIKEI
  6
Continuous
 62
     1
100
AcDbLine
 10
-54.03161503069646
 20
-13.91735152789124
 30
0.0
 11
-53.92604863069641
 21
-14.02133102789116
 31
0.0
  0
LINE
  5
3A3
330
2
100
AcDbEntity
  8
GAIKEI
  6
Continuous
 62
     1
100
AcDbLine
 10
-14.62604863069623
 20
-13.91735152789124
 30
0.0
 11
-14.73161503069627
 21
-14.02133102789116
 31
0.0
  0
LINE
  5
3A4
330
2
100
AcDbEntity
  8
GAIKEI
  6
Continuous
 62
     1
100
AcDbLine
 10
-14.4553699306964
 20
-16.41393362789108
 30
0.0
 11
-15.32883183069612
 21
-16.41393362789108
 31
0.0
  0
LINE
  5
3A5
330
2
100
AcDbEntity
  8
GAIKEI
  6
Continuous
 62
     1
100
AcDbLine
 10
-53.32883183069611
 20
-16.41393362789108
 30
0.0
 11
-15.32883183069612
 21
-16.41393362789108
 31
0.0
  0
LINE
  5
3A6
330
2
100
AcDbEntity
  8
GAIKEI
  6
Continuous
 62
     1
100
AcDbLine
 10
-53.32883183069611
 20
-16.41393362789108
 30
0.0
 11
-54.20229373069628
 21
-16.41393362789108
 31
0.0
  0
LINE
  5
3A7
330
2
100
AcDbEntity
  8
GAIKEI
  6
Continuous
 62
     1
100
AcDbLine
 10
-14.52883183069639
 20
-15.43833542789116
 30
0.0
 11
-54.1288318306963
 21
-15.43833542789116
 31
0.0
  0
LINE
  5
3A8
330
2
100
AcDbEntity
  8
GAIKEI
  6
Continuous
 62
     1
100
AcDbLine
 10
-54.1288318306963
 20
-15.43833542789116
 30
0.0
 11
-54.1288318306963
 21
-14.22106252789126
 31
0.0
  0
LINE
  5
3A9
330
2
100
AcDbEntity
  8
GAIKEI
  6
Continuous
 62
     1
100
AcDbLine
 10
-54.22158083069621
 20
-14.12971122789122
 30
0.0
 11
-54.1288318306963
 21
-14.22106252789126
 31
0.0
  0
LINE
  5
3AA
330
2
100
AcDbEntity
  8
GAIKEI
  6
Continuous
 62
     1
100
AcDbLine
 10
-14.43608283069648
 20
-14.12971122789122
 30
0.0
 11
-14.52883183069639
 21
-14.22106252789126
 31
0.0
  0
LINE
  5
3AB
330
2
100
AcDbEntity
  8
GAIKEI
  6
Continuous
 62
     1
100
AcDbLine
 10
-14.52883183069639
 20
-15.43833542789116
 30
0.0
 11
-14.52883183069639
 21
-14.22106252789126
 31
0.0
  0
LINE
  5
3AC
330
2
100
AcDbEntity
  8
GAIKEI
  6
Continuous
 62
     1
100
AcDbLine
 10
-54.22158083069621
 20
-14.12971122789122
 30
0.0
 11
-54.12372933069651
 21
-16.23585132789117
 31
0.0
  0
LINE
  5
3AD
330
2
100
AcDbEntity
  8
GAIKEI
  6
Continuous
 62
     1
100
AcDbLine
 10
-14.43608283069648
 20
-14.12971122789122
 30
0.0
 11
-14.53393443069603
 21
-16.23585132789117
 31
0.0
  0
LINE
  5
3AE
330
2
100
AcDbEntity
  8
GAIKEI
  6
Continuous
 62
     1
100
AcDbLine
 10
-14.62604863069623
 20
-13.85697562789119
 30
0.0
 11
-14.62604863069623
 21
-13.91735152789124
 31
0.0
  0
LINE
  5
3AF
330
2
100
AcDbEntity
  8
GAIKEI
  6
Continuous
 62
     1
100
AcDbLine
 10
-14.62604863069623
 20
-13.91735152789124
 30
0.0
 11
-54.03161503069646
 21
-13.91735152789124
 31
0.0
  0
LINE
  5
3B0
330
2
100
AcDbEntity
  8
GAIKEI
  6
Continuous
 62
     1
100
AcDbLine
 10
-54.03161503069646
 20
-13.85697562789119
 30
0.0
 11
-54.03161503069646
 21
-13.91735152789124
 31
0.0
  0
LINE
  5
3B1
330
2
100
AcDbEntity
  8
GAIKEI
  6
Continuous
 62
     1
100
AcDbLine
 10
-55.79448123069619
 20
13.65946117210887
 30
0.0
 11
-12.86318243069604
 21
13.65946117210887
 31
0.0
  0
LINE
  5
3B2
330
2
100
AcDbEntity
  8
GAIKEI
  6
Continuous
 62
     1
100
AcDbLine
 10
-55.79448123069619
 20
13.6837287721089
 30
0.0
 11
-55.79448123069619
 21
13.65946117210887
 31
0.0
  0
LINE
  5
3B3
330
2
100
AcDbEntity
  8
GAIKEI
  6
Continuous
 62
     1
100
AcDbLine
 10
-55.79448123069619
 20
13.6837287721089
 30
0.0
 11
-12.86318243069604
 21
13.6837287721089
 31
0.0
  0
LINE
  5
3B4
330
2
100
AcDbEntity
  8
GAIKEI
  6
Continuous
 62
     1
100
AcDbLine
 10
-55.94221073069661
 20
13.6837287721089
 30
0.0
 11
-55.79448123069619
 21
13.6837287721089
 31
0.0
  0
LINE
  5
3B5
330
2
100
AcDbEntity
  8
GAIKEI
  6
Continuous
 62
     1
100
AcDbLine
 10
-14.62604863069623
 20
-13.85697562789119
 30
0.0
 11
-54.03161503069646
 21
-13.85697562789119
 31
0.0
  0
LINE
  5
3B6
330
2
100
AcDbEntity
  8
GAIKEI
  6
Continuous
 62
     1
100
AcDbLine
 10
-55.71577033069639
 20
-13.70075612789105
 30
0.0
 11
-12.9418933306963
 21
-13.70075612789105
 31
0.0
  0
LINE
  5
3B7
330
2
100
AcDbEntity
  8
GAIKEI
  6
Continuous
 62
     1
100
AcDbLine
 10
-12.86318243069604
 20
13.6837287721089
 30
0.0
 11
-12.86318243069604
 21
13.65946117210887
 31
0.0
  0
LINE
  5
3B8
330
2
100
AcDbEntity
  8
GAIKEI
  6
Continuous
 62
     1
100
AcDbLine
 10
-12.86318243069604
 20
13.6837287721089
 30
0.0
 11
-12.71545293069653
 21
13.6837287721089
 31
0.0
  0
LINE
  5
3B9
330
2
100
AcDbEntity
  8
GAIKEI
  6
Continuous
 62
     1
100
AcDbLine
 10
-55.79605593069641
 20
-16.41627122789123
 30
0.0
 11
-54.21765023069633
 21
-16.41627122789123
 31
0.0
  0
LINE
  5
3BA
330
2
100
AcDbEntity
  8
GAIKEI
  6
Continuous
 62
     1
100
AcDbLine
 10
-55.71793093069641
 20
-13.91558762789123
 30
0.0
 11
-54.18940313069629
 21
-13.91558762789123
 31
0.0
  0
LINE
  5
3BB
330
2
100
AcDbEntity
  8
GAIKEI
  6
Continuous
 62
     1
100
AcDbLine
 10
-54.3214344306964
 20
-14.1824333278912
 30
0.0
 11
-54.21765023069633
 21
-16.41627122789123
 31
0.0
  0
LINE
  5
3BC
330
2
100
AcDbEntity
  8
GAIKEI
  6
Continuous
 62
     1
100
AcDbLine
 10
-14.4682605306964
 20
-13.91558762789123
 30
0.0
 11
-12.93973273069628
 21
-13.91558762789123
 31
0.0
  0
LINE
  5
3BD
330
2
100
AcDbEntity
  8
GAIKEI
  6
Continuous
 62
     1
100
AcDbLine
 10
-14.4400135306962
 20
-16.41627122789123
 30
0.0
 11
-12.86160773069628
 21
-16.41627122789123
 31
0.0
  0
LINE
  5
3BE
330
2
100
AcDbEntity
  8
GAIKEI
  6
Continuous
 62
     1
100
AcDbLine
 10
-14.33622933069659
 20
-14.1824333278912
 30
0.0
 11
-14.4400135306962
 21
-16.41627122789123
 31
0.0
  0
LINE
  5
3BF
330
2
100
AcDbEntity
  8
GAIKEI
  6
Continuous
 62
     1
100
AcDbLine
 10
-55.79753303069651
 20
-19.7849785278911
 30
0.0
 11
-55.79753303069651
 21
-16.41626512789116
 31
0.0
  0
LINE
  5
3C0
330
2
100
AcDbEntity
  8
GAIKEI
  6
Continuous
 62
     1
100
AcDbLine
 10
-55.79605593069641
 20
-16.41627122789123
 30
0.0
 11
-55.71793093069641
 21
-13.91558762789123
 31
0.0
  0
LINE
  5
3C1
330
2
100
AcDbEntity
  8
GAIKEI
  6
Continuous
 62
     1
100
AcDbLine
 10
-55.79753303069651
 20
-16.41626512789116
 30
0.0
 11
-55.79605593069641
 21
-16.41627122789123
 31
0.0
  0
LINE
  5
3C2
330
2
100
AcDbEntity
  8
GAIKEI
  6
Continuous
 62
     1
100
AcDbLine
 10
-55.79753303069651
 20
13.6837287721089
 30
0.0
 11
-55.79753303069651
 21
23.85243297210877
 31
0.0
  0
LINE
  5
3C3
330
2
100
AcDbEntity
  8
GAIKEI
  6
Continuous
 62
     1
100
AcDbLine
 10
-55.79753303069651
 20
23.85243297210877
 30
0.0
 11
-55.99726443069653
 21
23.85243297210877
 31
0.0
  0
LINE
  5
3C4
330
2
100
AcDbEntity
  8
GAIKEI
  6
Continuous
 62
     1
100
AcDbLine
 10
-12.86013063069663
 20
13.6837287721089
 30
0.0
 11
-12.86013063069663
 21
23.85243297210877
 31
0.0
  0
LINE
  5
3C5
330
2
100
AcDbEntity
  8
GAIKEI
  6
Continuous
 62
     1
100
AcDbLine
 10
-12.86013063069663
 20
23.85243297210877
 30
0.0
 11
-12.66039923069661
 21
23.85243297210877
 31
0.0
  0
LINE
  5
3C6
330
2
100
AcDbEntity
  8
GAIKEI
  6
Continuous
 62
     1
100
AcDbLine
 10
-12.86013063069663
 20
-19.7849785278911
 30
0.0
 11
-12.86013063069663
 21
-16.41626512789116
 31
0.0
  0
LINE
  5
3C7
330
2
100
AcDbEntity
  8
GAIKEI
  6
Continuous
 62
     1
100
AcDbLine
 10
-12.86160773069628
 20
-16.41627122789123
 30
0.0
 11
-12.86013063069663
 21
-16.41626512789116
 31
0.0
  0
LINE
  5
3C8
330
2
100
AcDbEntity
  8
GAIKEI
  6
Continuous
 62
     1
100
AcDbLine
 10
-12.86160773069628
 20
-16.41627122789123
 30
0.0
 11
-12.93973273069628
 21
-13.91558762789123
 31
0.0
  0
LINE
  5
3C9
330
2
100
AcDbEntity
  8
GAIKEI
  6
Continuous
 62
     1
100
AcDbLine
 10
-12.86013063069663
 20
-19.7849785278911
 30
0.0
 11
-12.66039923069661
 21
-19.7849785278911
 31
0.0
  0
LINE
  5
3CA
330
2
100
AcDbEntity
  8
GAIKEI
  6
Continuous
 62
     1
100
AcDbLine
 10
-55.79753303069651
 20
-19.7849785278911
 30
0.0
 11
-55.99726443069653
 21
-19.7849785278911
 31
0.0
  0
LINE
  5
3CB
330
2
100
AcDbEntity
  8
GAIKEI
  6
Continuous
 62
     1
100
AcDbLine
 10
-55.99453013069638
 20
13.65372687210879
 30
0.0
 11
-55.99726443069653
 21
13.65372687210879
 31
0.0
  0
LINE
  5
3CC
330
2
100
AcDbEntity
  8
GAIKEI
  6
Continuous
 62
     1
100
AcDbLine
 10
-55.99726443069653
 20
13.65372687210879
 30
0.0
 11
-55.99726443069653
 21
23.85243297210877
 31
0.0
  0
LINE
  5
3CD
330
2
100
AcDbEntity
  8
GAIKEI
  6
Continuous
 62
     7
100
AcDbLine
 10
-56.1288318306963
 20
23.98400037210877
 30
0.0
 11
-56.1288318306963
 21
-19.91654592789109
 31
0.0
  0
LINE
  5
3CE
330
2
100
AcDbEntity
  8
GAIKEI
  6
Continuous
 62
     1
100
AcDbLine
 10
-55.99726443069653
 20
-19.7849785278911
 30
0.0
 11
-55.99726443069653
 21
-16.36118092789115
 31
0.0
  0
LINE
  5
3CF
330
2
100
AcDbEntity
  8
GAIKEI
  6
Continuous
 62
     1
100
AcDbLine
 10
-55.99726443069653
 20
-16.36118092789115
 30
0.0
 11
-55.91765023069661
 21
-13.81317672789123
 31
0.0
  0
LINE
  5
3D0
330
2
100
AcDbEntity
  8
GAIKEI
  6
Continuous
 62
     1
100
AcDbLine
 10
-12.86013063069663
 20
23.85243297210877
 30
0.0
 11
-55.79753303069651
 21
23.85243297210877
 31
0.0
  0
LINE
  5
3D1
330
2
100
AcDbEntity
  8
GAIKEI
  6
Continuous
 62
     1
100
AcDbLine
 10
-55.79753303069651
 20
23.85243297210877
 30
0.0
 11
-55.79753303069651
 21
24.05215827210895
 31
0.0
  0
LINE
  5
3D2
330
2
100
AcDbEntity
  8
GAIKEI
  6
Continuous
 62
     1
100
AcDbLine
 10
-12.86013063069663
 20
24.05215827210895
 30
0.0
 11
-55.79753303069651
 21
24.05215827210895
 31
0.0
  0
LINE
  5
3D3
330
2
100
AcDbEntity
  8
GAIKEI
  6
Continuous
 62
     1
100
AcDbLine
 10
-12.86013063069663
 20
23.85243297210877
 30
0.0
 11
-12.86013063069663
 21
24.05215827210895
 31
0.0
  0
LINE
  5
3D4
330
2
100
AcDbEntity
  8
GAIKEI
  6
Continuous
 62
     1
100
AcDbLine
 10
-55.99726443069653
 20
23.85243297210877
 30
0.0
 11
-56.1288318306963
 21
23.98400037210877
 31
0.0
  0
LINE
  5
3D5
330
2
100
AcDbEntity
  8
GAIKEI
  6
Continuous
 62
     1
100
AcDbLine
 10
-55.79753303069651
 20
24.05215827210895
 30
0.0
 11
-55.92910043069628
 21
24.18372567210872
 31
0.0
  0
LINE
  5
3D6
330
2
100
AcDbEntity
  8
GAIKEI
  6
Continuous
 62
     1
100
AcDbLine
 10
-12.86013063069663
 20
24.05215827210895
 30
0.0
 11
-12.72856333069626
 21
24.18372567210872
 31
0.0
  0
LINE
  5
3D7
330
2
100
AcDbEntity
  8
GAIKEI
  6
Continuous
 62
     1
100
AcDbLine
 10
-12.66039923069661
 20
-16.36118092789115
 30
0.0
 11
-12.74001353069639
 21
-13.81317672789123
 31
0.0
  0
LINE
  5
3D8
330
2
100
AcDbEntity
  8
GAIKEI
  6
Continuous
 62
     1
100
AcDbLine
 10
-12.66039923069661
 20
-19.7849785278911
 30
0.0
 11
-12.66039923069661
 21
-16.36118092789115
 31
0.0
  0
LINE
  5
3D9
330
2
100
AcDbEntity
  8
GAIKEI
  6
Continuous
 62
     7
100
AcDbLine
 10
-12.52883183069639
 20
23.98400037210877
 30
0.0
 11
-12.52883183069639
 21
-19.91654592789109
 31
0.0
  0
LINE
  5
3DA
330
2
100
AcDbEntity
  8
GAIKEI
  6
Continuous
 62
     1
100
AcDbLine
 10
-12.66039923069661
 20
23.85243297210877
 30
0.0
 11
-12.52883183069639
 21
23.98400037210877
 31
0.0
  0
LINE
  5
3DB
330
2
100
AcDbEntity
  8
GAIKEI
  6
Continuous
 62
     1
100
AcDbLine
 10
-12.66039923069661
 20
13.65372687210879
 30
0.0
 11
-12.66039923069661
 21
23.85243297210877
 31
0.0
  0
LINE
  5
3DC
330
2
100
AcDbEntity
  8
GAIKEI
  6
Continuous
 62
     1
100
AcDbLine
 10
-12.66313363069662
 20
13.65372687210879
 30
0.0
 11
-12.66039923069661
 21
13.65372687210879
 31
0.0
  0
LINE
  5
3DD
330
2
100
AcDbEntity
  8
GAIKEI
  6
Continuous
 62
     1
100
AcDbLine
 10
-12.66039923069661
 20
-19.7849785278911
 30
0.0
 11
-12.52883183069639
 21
-19.91654592789109
 31
0.0
  0
LINE
  5
3DE
330
2
100
AcDbEntity
  8
GAIKEI
  6
Continuous
 62
     1
100
AcDbLine
 10
-12.86013063069663
 20
-19.98470382789105
 30
0.0
 11
-12.72856333069626
 21
-20.11627122789105
 31
0.0
  0
LINE
  5
3DF
330
2
100
AcDbEntity
  8
GAIKEI
  6
Continuous
 62
     1
100
AcDbLine
 10
-12.86013063069663
 20
-19.7849785278911
 30
0.0
 11
-55.79753303069651
 21
-19.7849785278911
 31
0.0
  0
LINE
  5
3E0
330
2
100
AcDbEntity
  8
GAIKEI
  6
Continuous
 62
     1
100
AcDbLine
 10
-12.86013063069663
 20
-19.7849785278911
 30
0.0
 11
-12.86013063069663
 21
-19.98470382789105
 31
0.0
  0
LINE
  5
3E1
330
2
100
AcDbEntity
  8
GAIKEI
  6
Continuous
 62
     1
100
AcDbLine
 10
-12.86013063069663
 20
-19.98470382789105
 30
0.0
 11
-55.79753303069651
 21
-19.98470382789105
 31
0.0
  0
LINE
  5
3E2
330
2
100
AcDbEntity
  8
GAIKEI
  6
Continuous
 62
     1
100
AcDbLine
 10
-55.79753303069651
 20
-19.7849785278911
 30
0.0
 11
-55.79753303069651
 21
-19.98470382789105
 31
0.0
  0
LINE
  5
3E3
330
2
100
AcDbEntity
  8
GAIKEI
  6
Continuous
 62
     1
100
AcDbLine
 10
-55.79753303069651
 20
-19.98470382789105
 30
0.0
 11
-55.92910043069628
 21
-20.11627122789105
 31
0.0
  0
LINE
  5
3E4
330
2
100
AcDbEntity
  8
GAIKEI
  6
Continuous
 62
     1
100
AcDbLine
 10
-55.99726443069653
 20
-19.7849785278911
 30
0.0
 11
-56.1288318306963
 21
-19.91654592789109
 31
0.0
  0
LINE
  5
3E5
330
2
100
AcDbEntity
  8
GAIKEI
  6
Continuous
 62
     1
100
AcDbLine
 10
21.15971711101406
 20
24.33373966711224
 30
0.0
 11
21.98971711101444
 21
24.33373966711224
 31
0.0
  0
LINE
  5
3E6
330
2
100
AcDbEntity
  8
GAIKEI
  6
Continuous
 62
     1
100
AcDbLine
 10
21.17459018381373
 20
24.50373966711209
 30
0.0
 11
21.97484403821477
 21
24.50373966711209
 31
0.0
  0
LINE
  5
3E7
330
2
100
AcDbEntity
  8
GAIKEI
  6
Continuous
 62
     1
100
AcDbLine
 10
21.15971711101406
 20
24.33373966711224
 30
0.0
 11
21.17459018381373
 21
24.50373966711209
 31
0.0
  0
LINE
  5
3E8
330
2
100
AcDbEntity
  8
GAIKEI
  6
Continuous
 62
     1
100
AcDbLine
 10
21.98971711101444
 20
24.33373966711224
 30
0.0
 11
21.97484403821477
 21
24.50373966711209
 31
0.0
  0
LINE
  5
3E9
330
2
100
AcDbEntity
  8
GAIKEI
  6
PHANTOM
 62
     1
100
AcDbLine
 10
21.57471711101402
 20
24.33373966711201
 30
0.0
 11
21.57471711101402
 21
24.58373966711224
 31
0.0
  0
LINE
  5
3EB
330
2
100
AcDbEntity
  8
GAIKEI
  6
Continuous
 62
     1
100
AcDbLine
 10
51.30971711101415
 20
24.33373966711224
 30
0.0
 11
52.13971711101454
 21
24.33373966711224
 31
0.0
  0
LINE
  5
3EC
330
2
100
AcDbEntity
  8
GAIKEI
  6
Continuous
 62
     1
100
AcDbLine
 10
51.32459018381337
 20
24.50373966711209
 30
0.0
 11
52.12484403821486
 21
24.50373966711209
 31
0.0
  0
LINE
  5
3ED
330
2
100
AcDbEntity
  8
GAIKEI
  6
Continuous
 62
     1
100
AcDbLine
 10
51.30971711101415
 20
24.33373966711224
 30
0.0
 11
51.32459018381337
 21
24.50373966711209
 31
0.0
  0
LINE
  5
3EE
330
2
100
AcDbEntity
  8
GAIKEI
  6
Continuous
 62
     1
100
AcDbLine
 10
52.13971711101454
 20
24.33373966711224
 30
0.0
 11
52.12484403821486
 21
24.50373966711209
 31
0.0
  0
LINE
  5
3EF
330
2
100
AcDbEntity
  8
GAIKEI
  6
PHANTOM
 62
     1
100
AcDbLine
 10
51.72471711101412
 20
24.33373966711201
 30
0.0
 11
51.72471711101412
 21
24.58373966711224
 31
0.0
  0
LINE
  5
3F0
330
2
100
AcDbEntity
  8
GAIKEI
  6
Continuous
 62
     1
100
AcDbLine
 10
-55.62883183069629
 20
24.33373966711201
 30
0.0
 11
-53.42883183069557
 21
24.33373966711201
 31
0.0
  0
LINE
  5
3F1
330
2
100
AcDbEntity
  8
GAIKEI
  6
Continuous
 62
     7
100
AcDbLine
 10
18.97471711101411
 20
24.33373966711201
 30
0.0
 11
53.97472911101274
 21
24.33373966711196
 31
0.0
  0
LINE
  5
3F2
330
2
100
AcDbEntity
  8
GAIKEI
  6
Continuous
 62
     7
100
AcDbLine
 10
-12.77075106797679
 20
-20.11624633788847
 30
0.0
 11
-15.07074065131905
 21
-20.11624633788847
 31
0.0
  0
LINE
  5
3F3
330
2
100
AcDbEntity
  8
GAIKEI
  6
Continuous
 62
     1
100
AcDbLine
 10
53.85472911101283
 20
24.18373966710988
 30
0.0
 11
53.85472911101283
 21
-20.11626033289031
 31
0.0
  0
LINE
  5
3F4
330
2
100
AcDbEntity
  8
GAIKEI
  6
Continuous
 62
     7
100
AcDbLine
 10
20.07471711101402
 20
-20.11626033289031
 30
0.0
 11
54.07472911101308
 21
-20.11626033289031
 31
0.0
  0
LINE
  5
3F5
330
2
100
AcDbEntity
  8
GAIKEI
  6
Continuous
 62
     1
100
AcDbLine
 10
53.97472911101272
 20
24.18373966710988
 30
0.0
 11
20.07471711101402
 21
24.18373966710988
 31
0.0
  0
LINE
  5
3F6
330
2
100
AcDbEntity
  8
GAIKEI
  6
Continuous
 62
     1
100
AcDbLine
 10
19.87471711101284
 20
-20.11626033289031
 30
0.0
 11
19.87471711101284
 21
-20.09626033289032
 31
0.0
  0
LINE
  5
3F7
330
2
100
AcDbEntity
  8
GAIKEI
  6
Continuous
 62
     7
100
AcDbLine
 10
54.07472911101308
 20
24.13378165211202
 30
0.0
 11
54.07472911101308
 21
17.27337117300999
 31
0.0
  0
LINE
  5
3F8
330
2
100
AcDbEntity
  8
GAIKEI
  6
Continuous
 62
     1
100
AcDbLine
 10
54.07472911101308
 20
24.13378165211202
 30
0.0
 11
53.97472911101272
 21
24.13378165211202
 31
0.0
  0
LINE
  5
3F9
330
2
100
AcDbEntity
  8
GAIKEI
  6
Continuous
 62
     1
100
AcDbLine
 10
53.97472911101274
 20
24.33373966711196
 30
0.0
 11
53.97472911101272
 21
-20.11626033289031
 31
0.0
  0
LINE
  5
3FA
330
2
100
AcDbEntity
  8
GAIKEI
  6
Continuous
 62
     7
100
AcDbLine
 10
54.07472911101308
 20
-13.20589183878746
 30
0.0
 11
54.07472911101308
 21
-20.11626033289031
 31
0.0
  0
LINE
  5
3FB
330
2
100
AcDbEntity
  8
GAIKEI
  6
Continuous
 62
     7
100
AcDbLine
 10
54.07472911101308
 20
2.294108161212534
 30
0.0
 11
54.07472911101308
 21
1.773371173009991
 31
0.0
  0
LINE
  5
3FC
330
2
100
AcDbEntity
  8
GAIKEI
  6
Continuous
 62
     1
100
AcDbLine
 10
-15.07074065131905
 20
-20.91624633788865
 30
0.0
 11
-15.07074065131905
 21
-20.11624633788847
 31
0.0
  0
LINE
  5
3FD
330
2
100
AcDbEntity
  8
GAIKEI
  6
Continuous
 62
     1
100
AcDbLine
 10
-15.07074065131905
 20
-20.91624633788865
 30
0.0
 11
-53.67076149548052
 21
-20.91624633788865
 31
0.0
  0
LINE
  5
3FE
330
2
100
AcDbEntity
  8
GAIKEI
  6
Continuous
 62
     1
100
AcDbLine
 10
-53.67076149548052
 20
-20.11626033288803
 30
0.0
 11
-53.67076149548052
 21
-20.91624633788865
 31
0.0
  0
LINE
  5
3FF
330
2
100
AcDbEntity
  8
GAIKEI
  6
Continuous
 62
     1
100
AcDbLine
 10
19.13472911101303
 20
-20.91624633788865
 30
0.0
 11
19.7747291110129
 21
-20.91624633788865
 31
0.0
  0
LINE
  5
400
330
2
100
AcDbEntity
  8
GAIKEI
  6
Continuous
 62
     1
100
AcDbLine
 10
19.13472911101303
 20
-20.75624633788812
 30
0.0
 11
19.7747291110129
 21
-20.75624633788834
 31
0.0
  0
LINE
  5
401
330
2
100
AcDbEntity
  8
GAIKEI
  6
Continuous
 62
     1
100
AcDbLine
 10
19.7747291110129
 20
-20.91624633788865
 30
0.0
 11
19.7747291110129
 21
-20.75624633788834
 31
0.0
  0
LINE
  5
402
330
2
100
AcDbEntity
  8
GAIKEI
  6
Continuous
 62
     1
100
AcDbLine
 10
19.13472911101303
 20
-20.75624633788812
 30
0.0
 11
19.13472911101303
 21
-20.07747920511429
 31
0.0
  0
LINE
  5
403
330
2
100
AcDbEntity
  8
GAIKEI
  6
Continuous
 62
     1
100
AcDbLine
 10
18.97472911101272
 20
-20.75624633788812
 30
0.0
 11
18.97472911101272
 21
-20.06909396042875
 31
0.0
  0
LINE
  5
404
330
2
100
AcDbEntity
  8
GAIKEI
  6
Continuous
 62
     7
100
AcDbLine
 10
18.97471711101411
 20
24.13655867075409
 30
0.0
 11
18.97471711101411
 21
24.33373966711201
 31
0.0
  0
LINE
  5
405
330
2
100
AcDbEntity
  8
GAIKEI
  6
Continuous
 62
     1
100
AcDbLine
 10
51.53471311101316
 20
-20.75624633788812
 30
0.0
 11
52.41471511101349
 21
-20.75624633788812
 31
0.0
  0
LINE
  5
406
330
2
100
AcDbEntity
  8
GAIKEI
  6
Continuous
 62
     1
100
AcDbLine
 10
52.41471511101349
 20
-20.75624633788812
 30
0.0
 11
52.41471511101349
 21
-20.11626033289031
 31
0.0
  0
LINE
  5
407
330
2
100
AcDbEntity
  8
GAIKEI
  6
Continuous
 62
     1
100
AcDbLine
 10
51.53471311101316
 20
-20.91624633788865
 30
0.0
 11
52.41471511101349
 21
-20.91624633788865
 31
0.0
  0
LINE
  5
408
330
2
100
AcDbEntity
  8
GAIKEI
  6
Continuous
 62
     1
100
AcDbLine
 10
51.53471311101316
 20
-20.91624633788865
 30
0.0
 11
51.53471311101316
 21
-20.75624633788812
 31
0.0
  0
LINE
  5
409
330
2
100
AcDbEntity
  8
GAIKEI
  6
Continuous
 62
     1
100
AcDbLine
 10
52.57471511101335
 20
-20.75624633788857
 30
0.0
 11
52.57471511101335
 21
-20.11626033289031
 31
0.0
  0
LINE
  5
40A
330
2
100
AcDbEntity
  8
GAIKEI
  6
Continuous
 62
     1
100
AcDbLine
 10
-55.62883183069629
 20
24.10591514138821
 30
0.0
 11
-55.62883183069629
 21
24.33373966711201
 31
0.0
  0
LINE
  5
40B
330
2
100
AcDbEntity
  8
GAIKEI
  6
Continuous
 62
     1
100
AcDbLine
 10
-53.42883183069557
 20
24.13551097210899
 30
0.0
 11
-53.42883183069557
 21
24.33373966711201
 31
0.0
  0
LINE
  5
40C
330
2
100
AcDbEntity
  8
GAIKEI
  6
Continuous
 62
     1
100
AcDbLine
 10
-15.22883183069666
 20
24.33373966711201
 30
0.0
 11
-13.02883183069639
 21
24.33373966711201
 31
0.0
  0
LINE
  5
40D
330
2
100
AcDbEntity
  8
GAIKEI
  6
Continuous
 62
     1
100
AcDbLine
 10
-13.02883183069639
 20
24.10592201259305
 30
0.0
 11
-13.02883183069639
 21
24.33373966711201
 31
0.0
  0
LINE
  5
40E
330
2
100
AcDbEntity
  8
GAIKEI
  6
Continuous
 62
     1
100
AcDbLine
 10
-15.22883183069669
 20
24.13551097210899
 30
0.0
 11
-15.22883183069666
 21
24.33373966711201
 31
0.0
  0
LINE
  5
40F
330
2
100
AcDbEntity
  8
GAIKEI
  6
Continuous
 62
     1
100
AcDbLine
 10
-14.11383183611974
 20
24.33373966711224
 30
0.0
 11
-14.12870490891896
 21
24.50373966711209
 31
0.0
  0
LINE
  5
410
330
2
100
AcDbEntity
  8
GAIKEI
  6
Continuous
 62
     1
100
AcDbLine
 10
-14.94383183611967
 20
24.33373966711224
 30
0.0
 11
-14.92895876331999
 21
24.50373966711209
 31
0.0
  0
LINE
  5
411
330
2
100
AcDbEntity
  8
GAIKEI
  6
Continuous
 62
     1
100
AcDbLine
 10
-14.92895876331999
 20
24.50373966711209
 30
0.0
 11
-14.12870490891896
 21
24.50373966711209
 31
0.0
  0
LINE
  5
412
330
2
100
AcDbEntity
  8
GAIKEI
  6
Continuous
 62
     1
100
AcDbLine
 10
-54.52895875247327
 20
24.50373966711209
 30
0.0
 11
-53.72870489807178
 21
24.50373966711209
 31
0.0
  0
LINE
  5
413
330
2
100
AcDbEntity
  8
GAIKEI
  6
Continuous
 62
     1
100
AcDbLine
 10
-54.54383182527249
 20
24.33373966711224
 30
0.0
 11
-54.52895875247327
 21
24.50373966711209
 31
0.0
  0
LINE
  5
414
330
2
100
AcDbEntity
  8
GAIKEI
  6
Continuous
 62
     1
100
AcDbLine
 10
-53.71383182527257
 20
24.33373966711224
 30
0.0
 11
-53.72870489807178
 21
24.50373966711209
 31
0.0
  0
LINE
  5
415
330
2
100
AcDbEntity
  8
GAIKEI
  6
Continuous
 62
     1
100
AcDbLine
 10
30.42471711101348
 20
-19.11626033288985
 30
0.0
 11
26.67471711101348
 21
-19.11626033288985
 31
0.0
  0
LINE
  5
416
330
2
100
AcDbEntity
  8
GAIKEI
  6
Continuous
 62
     1
100
AcDbLine
 10
30.6247171110133
 20
-7.366260332890306
 30
0.0
 11
30.6247171110133
 21
-18.91626033289026
 31
0.0
  0
LINE
  5
417
330
2
100
AcDbEntity
  8
GAIKEI
  6
Continuous
 62
     1
100
AcDbLine
 10
26.47471711101412
 20
-7.366260332890306
 30
0.0
 11
26.47471711101412
 21
-18.91626033289026
 31
0.0
  0
LINE
  5
418
330
2
100
AcDbEntity
  8
GAIKEI
  6
Continuous
 62
     1
100
AcDbLine
 10
30.42471711101348
 20
-7.166260332890942
 30
0.0
 11
26.67471711101348
 21
-7.166260332890942
 31
0.0
  0
LINE
  5
419
330
2
100
AcDbEntity
  8
GAIKEI
  6
Continuous
 62
     7
100
AcDbLine
 10
-55.93168891308187
 20
-20.11624633788847
 30
0.0
 11
-53.67076149548052
 21
-20.11624633788847
 31
0.0
  0
DIMENSION
  5
41A
330
2
100
AcDbEntity
  8
SUNPO
100
AcDbDimension
  2
*D6
 10
-3.128831830696298
 20
32.32180223249611
 30
0.0
 11
-29.6288318306963
 21
34.07180223249611
 31
0.0
 70
    33
  1
約530
 71
     5
 42
53.0
  3
STANDARD
100
AcDbAlignedDimension
 13
-56.1288318306963
 23
24.32180223249611
 33
0.0
 14
-3.128831830696299
 24
24.32180223249611
 34
0.0
1001
ACAD
1000
DSTYLE
1002
{
1070
    40
1040
1.0
1070
   140
1040
2.5
1070
   147
1040
0.5
1070
   172
1070
     1
1070
   279
1070
     0
1070
   288
1070
     0
1002
}
  0
DIMENSION
  5
429
330
2
100
AcDbEntity
  8
SUNPO
100
AcDbDimension
  2
*D5
 10
4.804374251741222
 20
24.30858373489946
 30
0.0
 11
3.054374251741217
 21
2.096156253504091
 31
0.0
 70
    33
  1
約445
 71
     5
 42
44.42485496279073
  3
STANDARD
100
AcDbAlignedDimension
 13
-3.195625748258862
 23
-20.11627122789128
 33
0.0
 14
-3.195625748258862
 24
24.30858373489946
 34
0.0
1001
ACAD
1000
DSTYLE
1002
{
1070
    40
1040
1.0
1070
   140
1040
2.5
1070
   147
1040
0.5
1070
   172
1070
     1
1070
   279
1070
     0
1070
   288
1070
     0
1002
}
  0
DIMENSION
  5
436
330
2
100
AcDbEntity
  8
SUNPO
100
AcDbDimension
  2
*D4
 10
54.07472911101263
 20
32.32180223249611
 30
0.0
 11
34.62472311101328
 21
34.07180223249611
 31
0.0
 70
    33
  1
約389
 71
     5
 42
38.9000119999987
  3
STANDARD
100
AcDbAlignedDimension
 13
15.17471711101393
 23
24.32180223249611
 33
0.0
 14
54.07472911101263
 24
24.32180223249611
 34
0.0
1001
ACAD
1000
DSTYLE
1002
{
1070
    40
1040
1.0
1070
   140
1040
2.5
1070
   147
1040
0.5
1070
   172
1070
     1
1070
   279
1070
     0
1070
   288
1070
     0
1002
}
  0
TEXT
  5
443
330
2
100
AcDbEntity
  8
MOJI1
100
AcDbText
 10
-19.73465209046287
 20
-39.78140413067388
 30
0.0
 40
3.0
  1
約１５．７Ｋｇ（架のみ）
100
AcDbText
  0
TEXT
  5
444
330
2
100
AcDbEntity
  8
MOJI1
100
AcDbText
 10
-59.73465209046287
 20
-39.78140413067388
 30
0.0
 40
3.0
  1
質　量
100
AcDbText
  0
TEXT
  5
445
330
2
100
AcDbEntity
  8
MOJI1
100
AcDbText
 10
-19.73465209046287
 20
-34.78140413067388
 30
0.0
 40
3.0
  1
幅約５３０ｍｍ×奥行き約３８９ｍｍ×高さ約４４５ｍｍ
 41
0.8699999999999999
100
AcDbText
  0
TEXT
  5
446
330
2
100
AcDbEntity
  8
MOJI1
100
AcDbText
 10
-59.73465209046287
 20
-34.78140413067388
 30
0.0
 40
3.0
  1
寸　法
100
AcDbText
  0
LINE
  5
447
330
2
100
AcDbEntity
  8
WAKU
 62
     4
100
AcDbLine
 10
62.76534790953713
 20
-30.53140413067399
 30
0.0
 11
-62.23465209046287
 21
-30.53140413067399
 31
0.0
  0
LINE
  5
449
330
2
100
AcDbEntity
  8
WAKU
 62
     1
100
AcDbLine
 10
62.76534790953713
 20
-35.53140413067399
 30
0.0
 11
-62.23465209046287
 21
-35.53140413067399
 31
0.0
  0
LINE
  5
44A
330
2
100
AcDbEntity
  8
WAKU
 62
     1
100
AcDbLine
 10
62.76534790953713
 20
-40.53140413067398
 30
0.0
 11
-62.23465209046287
 21
-40.53140413067398
 31
0.0
  0
LINE
  5
44B
330
2
100
AcDbEntity
  8
WAKU
 62
     1
100
AcDbLine
 10
62.76534790953713
 20
-45.53140413067398
 30
0.0
 11
-62.23465209046287
 21
-45.53140413067398
 31
0.0
  0
LINE
  5
44C
330
2
100
AcDbEntity
  8
WAKU
 62
     1
100
AcDbLine
 10
-62.23465209046287
 20
-55.53140413067399
 30
0.0
 11
62.76534790953713
 21
-55.53140413067399
 31
0.0
  0
LINE
  5
44D
330
2
100
AcDbEntity
  8
WAKU
 62
     1
100
AcDbLine
 10
62.76534790953713
 20
-50.53140413067399
 30
0.0
 11
-62.23465209046287
 21
-50.53140413067399
 31
0.0
  0
LINE
  5
44E
330
2
100
AcDbEntity
  8
WAKU
 62
     1
100
AcDbLine
 10
-62.23465209046287
 20
-60.53140413067399
 30
0.0
 11
62.76534790953713
 21
-60.53140413067399
 31
0.0
  0
LINE
  5
44F
330
2
100
AcDbEntity
  8
WAKU
 62
     4
100
AcDbLine
 10
-62.23465209046287
 20
-65.53140413067399
 30
0.0
 11
62.76534790953713
 21
-65.53140413067399
 31
0.0
  0
LINE
  5
450
330
2
100
AcDbEntity
  8
WAKU
 62
     4
100
AcDbLine
 10
-62.23465209046287
 20
-30.53140413067399
 30
0.0
 11
-62.23465209046287
 21
-65.53140413067399
 31
0.0
  0
LINE
  5
451
330
2
100
AcDbEntity
  8
WAKU
 62
     4
100
AcDbLine
 10
-22.23465209046287
 20
-65.53140413067399
 30
0.0
 11
-22.23465209046287
 21
-30.53140413067399
 31
0.0
  0
LINE
  5
452
330
2
100
AcDbEntity
  8
WAKU
 62
     4
100
AcDbLine
 10
62.76534790953713
 20
-65.53140413067399
 30
0.0
 11
62.76534790953713
 21
-30.53140413067399
 31
0.0
  0
ENDSEC
  0
SECTION
  2
OBJECTS
  0
DICTIONARY
  5
7
330
0
100
AcDbDictionary
281
     1
  3
ACAD_COLOR
350
2C
  3
ACAD_GROUP
350
28
  3
ACAD_LAYOUT
350
B
  3
ACAD_MATERIAL
350
2B
  3
ACAD_MLINESTYLE
350
29
  3
ACAD_PLOTSETTINGS
350
2A
  3
ACAD_PLOTSTYLENAME
350
6
  3
ACDBHEADERROUNDTRIPXREC
350
48F
  3
AcDbVariableDictionary
350
48A
  0
DICTIONARY
  5
11
330
10
100
AcDbDictionary
280
     1
281
     1
  3
ACAD_LAYERSTATES
360
12
  0
DICTIONARY
  5
2C
102
{ACAD_REACTORS
330
7
102
}
330
7
100
AcDbDictionary
281
     1
  0
DICTIONARY
  5
28
102
{ACAD_REACTORS
330
7
102
}
330
7
100
AcDbDictionary
281
     1
  0
DICTIONARY
  5
B
102
{ACAD_REACTORS
330
7
102
}
330
7
100
AcDbDictionary
281
     1
  3
Model
350
A
  3
レイアウト1
350
F
  0
DICTIONARY
  5
2B
102
{ACAD_REACTORS
330
7
102
}
330
7
100
AcDbDictionary
281
     1
  0
DICTIONARY
  5
29
102
{ACAD_REACTORS
330
7
102
}
330
7
100
AcDbDictionary
281
     1
  3
Standard
350
2E
  0
DICTIONARY
  5
2A
102
{ACAD_REACTORS
330
7
102
}
330
7
100
AcDbDictionary
281
     1
  0
ACDBDICTIONARYWDFLT
  5
6
102
{ACAD_REACTORS
330
7
102
}
330
7
100
AcDbDictionary
281
     1
  3
Normal
350
5
100
AcDbDictionaryWithDefault
340
5
  0
DICTIONARY
  5
48F
102
{ACAD_REACTORS
330
7
102
}
330
7
100
AcDbDictionary
281
     1
  3
COLORDICT
350
491
  3
MATERIALDICT
350
490
  0
DICTIONARY
  5
48A
102
{ACAD_REACTORS
330
7
102
}
330
7
100
AcDbDictionary
281
     1
  3
DIMASSOC
350
48C
  3
HIDETEXT
350
48B
  3
PROJECTNAME
350
48D
  0
DICTIONARY
  5
12
102
{ACAD_REACTORS
330
11
102
}
330
11
100
AcDbDictionary
281
     1
  0
LAYOUT
  5
A
102
{ACAD_XDICTIONARY
360
492
102
}
102
{ACAD_REACTORS
330
B
102
}
330
B
100
AcDbPlotSettings
  1

  2
Ａ４－縦3FRIM01.pc3
  4
A4
  6

 40
5.873749732971191
 41
5.873747825622558
 42
5.873748779296875
 43
5.873748779296875
 44
209.9733276367187
 45
296.9259948730469
 46
5.429999999999999
 47
0.0
 48
0.0
 49
0.0
140
0.0
141
0.0
142
1.0
143
1.382515366965649
 70
 11956
 72
     1
 73
     0
 74
     1
  7
tmsacad.ctb
 75
     0
147
0.7233192656619828
148
0.0256332569354072
149
0.0240599051811614
100
AcDbLayout
  1
Model
 70
     1
 71
     0
 10
0.0
 20
0.0
 11
12.0
 21
9.0
 12
0.0
 22
0.0
 32
0.0
 14
0.0
 24
0.0
 34
0.0
 15
0.0
 25
0.0
 35
0.0
146
0.0
 13
0.0
 23
0.0
 33
0.0
 16
1.0
 26
0.0
 36
0.0
 17
0.0
 27
1.0
 37
0.0
 76
     0
330
2
  0
LAYOUT
  5
F
102
{ACAD_XDICTIONARY
360
494
102
}
102
{ACAD_REACTORS
330
B
102
}
330
B
100
AcDbPlotSettings
  1

  2
None
  4

  6

 40
0.0
 41
0.0
 42
0.0
 43
0.0
 44
0.0
 45
0.0
 46
0.0
 47
0.0
 48
0.0
 49
0.0
140
0.0
141
0.0
142
1.0
143
1.0
 70
   688
 72
     0
 73
     0
 74
     5
  7
tmsacad.ctb
 75
    16
147
1.0
148
0.0
149
0.0
100
AcDbLayout
  1
レイアウト1
 70
     1
 71
     1
 10
0.0
 20
0.0
 11
12.0
 21
9.0
 12
0.0
 22
0.0
 32
0.0
 14
0.0
 24
0.0
 34
0.0
 15
0.0
 25
0.0
 35
0.0
146
0.0
 13
0.0
 23
0.0
 33
0.0
 16
1.0
 26
0.0
 36
0.0
 17
0.0
 27
1.0
 37
0.0
 76
     0
330
C
  0
MLINESTYLE
  5
2E
102
{ACAD_REACTORS
330
29
102
}
330
29
100
AcDbMlineStyle
  2
STANDARD
 70
     0
  3

 62
   256
 51
90.0
 52
90.0
 71
     2
 49
0.5
 62
   256
  6
BYLAYER
 49
-0.5
 62
   256
  6
BYLAYER
  0
ACDBPLACEHOLDER
  5
5
102
{ACAD_REACTORS
330
6
102
}
330
6
  0
XRECORD
  5
491
102
{ACAD_REACTORS
330
48F
102
}
330
48F
100
AcDbXrecord
280
     1
340
2C
  0
XRECORD
  5
490
102
{ACAD_REACTORS
330
48F
102
}
330
48F
100
AcDbXrecord
280
     1
340
2B
  0
DICTIONARYVAR
  5
48C
102
{ACAD_REACTORS
330
48A
102
}
330
48A
100
DictionaryVariables
280
     0
  1
1
  0
DICTIONARYVAR
  5
48B
102
{ACAD_REACTORS
330
48A
102
}
330
48A
100
DictionaryVariables
280
     0
  1
1
  0
DICTIONARYVAR
  5
48D
102
{ACAD_REACTORS
330
48A
102
}
330
48A
100
DictionaryVariables
280
     0
  1

  0
DICTIONARY
  5
492
330
A
100
AcDbDictionary
280
     1
281
     1
  3
ACAD_XREC_ROUNDTRIP
360
493
  0
DICTIONARY
  5
494
330
F
100
AcDbDictionary
280
     1
281
     1
  3
ACAD_XREC_ROUNDTRIP
360
495
  0
XRECORD
  5
493
102
{ACAD_REACTORS
330
492
102
}
330
492
100
AcDbXrecord
280
     1
102
SHADEPLOT
 70
     0
102
SHADEPLOTRESLEVEL
 70
     2
102
SHADEPLOTCUSTOMDPI
 70
   300
  0
XRECORD
  5
495
102
{ACAD_REACTORS
330
494
102
}
330
494
100
AcDbXrecord
280
     1
102
SHADEPLOT
 70
     0
102
SHADEPLOTRESLEVEL
 70
     2
102
SHADEPLOTCUSTOMDPI
 70
   300
  0
ENDSEC
  0
EOF
