  0
SECTION
  2
HEADER
  9
$ACADVER
  1
AC1015
  9
$ACADMAINTVER
 70
    20
  9
$DWGCODEPAGE
  3
ANSI_932
  9
$INSBASE
 10
129.0
 20
246.4992141396418
 30
0.0
  9
$EXTMIN
 10
-65.44870937967153
 20
-55.25230013936016
 30
-0.0015258207003583
  9
$EXTMAX
 10
59.63179959029321
 20
57.87878177626499
 30
0.0000000349246037
  9
$LIMMIN
 10
-1101.784450318844
 20
-1579.160531687244
  9
$LIMMAX
 10
-508.2420711400536
 20
-1161.440814074914
  9
$ORTHOMODE
 70
     1
  9
$REGENMODE
 70
     1
  9
$FILLMODE
 70
     1
  9
$QTEXTMODE
 70
     0
  9
$MIRRTEXT
 70
     1
  9
$LTSCALE
 40
1.0
  9
$ATTMODE
 70
     1
  9
$TEXTSIZE
 40
3.0
  9
$TRACEWID
 40
0.5
  9
$TEXTSTYLE
  7
STANDARD
  9
$CLAYER
  8
SUNPO
  9
$CELTYPE
  6
BYLAYER
  9
$CECOLOR
 62
   256
  9
$CELTSCALE
 40
1.0
  9
$DISPSILH
 70
     0
  9
$DIMSCALE
 40
1.0
  9
$DIMASZ
 40
2.0
  9
$DIMEXO
 40
2.0
  9
$DIMDLI
 40
8.0
  9
$DIMRND
 40
0.0
  9
$DIMDLE
 40
0.0
  9
$DIMEXE
 40
2.0
  9
$DIMTP
 40
0.0
  9
$DIMTM
 40
0.0
  9
$DIMTXT
 40
2.5
  9
$DIMCEN
 40
0.0
  9
$DIMTSZ
 40
0.0
  9
$DIMTOL
 70
     0
  9
$DIMLIM
 70
     0
  9
$DIMTIH
 70
     0
  9
$DIMTOH
 70
     0
  9
$DIMSE1
 70
     0
  9
$DIMSE2
 70
     0
  9
$DIMTAD
 70
     3
  9
$DIMZIN
 70
     0
  9
$DIMBLK
  1

  9
$DIMASO
 70
     1
  9
$DIMSHO
 70
     1
  9
$DIMPOST
  1

  9
$DIMAPOST
  1

  9
$DIMALT
 70
     0
  9
$DIMALTD
 70
     2
  9
$DIMALTF
 40
25.4
  9
$DIMLFAC
 40
1.0
  9
$DIMTOFL
 70
     1
  9
$DIMTVP
 40
0.0
  9
$DIMTIX
 70
     0
  9
$DIMSOXD
 70
     0
  9
$DIMSAH
 70
     1
  9
$DIMBLK1
  1
OPEN30
  9
$DIMBLK2
  1
OPEN30
  9
$DIMSTYLE
  2
STANDARD
  9
$DIMCLRD
 70
     0
  9
$DIMCLRE
 70
     0
  9
$DIMCLRT
 70
     0
  9
$DIMTFAC
 40
1.0
  9
$DIMGAP
 40
0.5
  9
$DIMJUST
 70
     0
  9
$DIMSD1
 70
     0
  9
$DIMSD2
 70
     0
  9
$DIMTOLJ
 70
     1
  9
$DIMTZIN
 70
     0
  9
$DIMALTZ
 70
     0
  9
$DIMALTTZ
 70
     0
  9
$DIMUPT
 70
     0
  9
$DIMDEC
 70
     4
  9
$DIMTDEC
 70
     4
  9
$DIMALTU
 70
     2
  9
$DIMALTTD
 70
     2
  9
$DIMTXSTY
  7
STANDARD
  9
$DIMAUNIT
 70
     0
  9
$DIMADEC
 70
     0
  9
$DIMALTRND
 40
0.0
  9
$DIMAZIN
 70
     0
  9
$DIMDSEP
 70
    46
  9
$DIMATFIT
 70
     3
  9
$DIMFRAC
 70
     0
  9
$DIMLDRBLK
  1
OPEN30
  9
$DIMLUNIT
 70
     2
  9
$DIMLWD
 70
    -2
  9
$DIMLWE
 70
    -2
  9
$DIMTMOVE
 70
     0
  9
$LUNITS
 70
     2
  9
$LUPREC
 70
     4
  9
$SKETCHINC
 40
0.1
  9
$FILLETRAD
 40
0.0
  9
$AUNITS
 70
     0
  9
$AUPREC
 70
     0
  9
$MENU
  1
ACAD
  9
$ELEVATION
 40
0.0
  9
$PELEVATION
 40
0.0
  9
$THICKNESS
 40
0.0
  9
$LIMCHECK
 70
     0
  9
$CHAMFERA
 40
0.0
  9
$CHAMFERB
 40
0.0
  9
$CHAMFERC
 40
0.0
  9
$CHAMFERD
 40
0.0
  9
$SKPOLY
 70
     0
  9
$TDCREATE
 40
2451815.565532581
  9
$TDUCREATE
 40
2451815.190532581
  9
$TDUPDATE
 40
2454033.713001481
  9
$TDUUPDATE
 40
2454033.338001481
  9
$TDINDWG
 40
1.2679156366
  9
$TDUSRTIMER
 40
1.2679156366
  9
$USRTIMER
 70
     1
  9
$ANGBASE
 50
0.0
  9
$ANGDIR
 70
     0
  9
$PDMODE
 70
     0
  9
$PDSIZE
 40
0.0
  9
$PLINEWID
 40
0.0
  9
$SPLFRAME
 70
     0
  9
$SPLINETYPE
 70
     6
  9
$SPLINESEGS
 70
     8
  9
$HANDSEED
  5
294
  9
$SURFTAB1
 70
     6
  9
$SURFTAB2
 70
     6
  9
$SURFTYPE
 70
     6
  9
$SURFU
 70
     6
  9
$SURFV
 70
     6
  9
$UCSBASE
  2

  9
$UCSNAME
  2

  9
$UCSORG
 10
0.0
 20
0.0
 30
0.0
  9
$UCSXDIR
 10
1.0
 20
0.0
 30
0.0
  9
$UCSYDIR
 10
0.0
 20
1.0
 30
0.0
  9
$UCSORTHOREF
  2

  9
$UCSORTHOVIEW
 70
     0
  9
$UCSORGTOP
 10
0.0
 20
0.0
 30
0.0
  9
$UCSORGBOTTOM
 10
0.0
 20
0.0
 30
0.0
  9
$UCSORGLEFT
 10
0.0
 20
0.0
 30
0.0
  9
$UCSORGRIGHT
 10
0.0
 20
0.0
 30
0.0
  9
$UCSORGFRONT
 10
0.0
 20
0.0
 30
0.0
  9
$UCSORGBACK
 10
0.0
 20
0.0
 30
0.0
  9
$PUCSBASE
  2

  9
$PUCSNAME
  2

  9
$PUCSORG
 10
0.0
 20
0.0
 30
0.0
  9
$PUCSXDIR
 10
1.0
 20
0.0
 30
0.0
  9
$PUCSYDIR
 10
0.0
 20
1.0
 30
0.0
  9
$PUCSORTHOREF
  2

  9
$PUCSORTHOVIEW
 70
     0
  9
$PUCSORGTOP
 10
0.0
 20
0.0
 30
0.0
  9
$PUCSORGBOTTOM
 10
0.0
 20
0.0
 30
0.0
  9
$PUCSORGLEFT
 10
0.0
 20
0.0
 30
0.0
  9
$PUCSORGRIGHT
 10
0.0
 20
0.0
 30
0.0
  9
$PUCSORGFRONT
 10
0.0
 20
0.0
 30
0.0
  9
$PUCSORGBACK
 10
0.0
 20
0.0
 30
0.0
  9
$USERI1
 70
     0
  9
$USERI2
 70
     0
  9
$USERI3
 70
     0
  9
$USERI4
 70
     0
  9
$USERI5
 70
     0
  9
$USERR1
 40
0.0
  9
$USERR2
 40
0.0
  9
$USERR3
 40
0.0
  9
$USERR4
 40
0.0
  9
$USERR5
 40
0.0
  9
$WORLDVIEW
 70
     1
  9
$SHADEDGE
 70
     3
  9
$SHADEDIF
 70
    70
  9
$TILEMODE
 70
     1
  9
$MAXACTVP
 70
    48
  9
$PINSBASE
 10
0.0
 20
0.0
 30
0.0
  9
$PLIMCHECK
 70
     0
  9
$PEXTMIN
 10
1.000000000000000E+20
 20
1.000000000000000E+20
 30
1.000000000000000E+20
  9
$PEXTMAX
 10
-1.000000000000000E+20
 20
-1.000000000000000E+20
 30
-1.000000000000000E+20
  9
$PLIMMIN
 10
-0.1379166250153789
 20
-0.1712500016520342
  9
$PLIMMAX
 10
16.39708271176796
 20
11.52208270050409
  9
$UNITMODE
 70
     0
  9
$VISRETAIN
 70
     1
  9
$PLINEGEN
 70
     0
  9
$PSLTSCALE
 70
     1
  9
$TREEDEPTH
 70
  3020
  9
$CMLSTYLE
  2
STANDARD
  9
$CMLJUST
 70
     0
  9
$CMLSCALE
 40
1.0
  9
$PROXYGRAPHICS
 70
     1
  9
$MEASUREMENT
 70
     0
  9
$CELWEIGHT
370
    -1
  9
$ENDCAPS
280
     0
  9
$JOINSTYLE
280
     0
  9
$LWDISPLAY
290
     0
  9
$INSUNITS
 70
     0
  9
$HYPERLINKBASE
  1

  9
$STYLESHEET
  1

  9
$XEDIT
290
     1
  9
$CEPSNTYPE
380
     0
  9
$PSTYLEMODE
290
     1
  9
$FINGERPRINTGUID
  2
{1754B7AB-9B3C-11D4-AD9E-00104B1004F2}
  9
$VERSIONGUID
  2
{72818AB9-8DD0-4312-A241-446D28C85805}
  9
$EXTNAMES
290
     1
  9
$PSVPSCALE
 40
0.0
  9
$OLESTARTUP
290
     0
  0
ENDSEC
  0
SECTION
  2
CLASSES
  0
CLASS
  1
ACDBDICTIONARYWDFLT
  2
AcDbDictionaryWithDefault
  3
ObjectDBX Classes
 90
        0
280
     0
281
     0
  0
CLASS
  1
ACDBPLACEHOLDER
  2
AcDbPlaceHolder
  3
ObjectDBX Classes
 90
        0
280
     0
281
     0
  0
CLASS
  1
LAYOUT
  2
AcDbLayout
  3
ObjectDBX Classes
 90
        0
280
     0
281
     0
  0
CLASS
  1
DICTIONARYVAR
  2
AcDbDictionaryVar
  3
ObjectDBX Classes
 90
        0
280
     0
281
     0
  0
CLASS
  1
SORTENTSTABLE
  2
AcDbSortentsTable
  3
ObjectDBX Classes
 90
        0
280
     0
281
     0
  0
ENDSEC
  0
SECTION
  2
TABLES
  0
TABLE
  2
VPORT
  5
22
330
0
100
AcDbSymbolTable
 70
     3
  0
VPORT
  5
28C
330
22
100
AcDbSymbolTableRecord
100
AcDbViewportTableRecord
  2
*Active
 70
     0
 10
0.0
 20
0.0
 11
1.0
 21
1.0
 12
-2.908454894689157
 22
1.313240818452413
 13
0.0
 23
0.0
 14
1.0
 24
1.0
 15
0.0
 25
0.0
 16
0.0
 26
0.0
 36
1.0
 17
0.0
 27
0.0
 37
0.0
 40
114.0137691607405
 41
1.420572916666666
 42
50.0
 43
0.0
 44
0.0
 50
0.0
 51
0.0
 71
     0
 72
 10000
 73
     1
 74
     0
 75
     0
 76
     0
 77
     0
 78
     0
281
     0
 65
     1
110
0.0
120
0.0
130
0.0
111
1.0
121
0.0
131
0.0
112
0.0
122
1.0
132
0.0
 79
     0
146
0.0
  0
ENDTAB
  0
TABLE
  2
LTYPE
  5
1D
330
0
100
AcDbSymbolTable
 70
     1
  0
LTYPE
  5
1E
330
1D
100
AcDbSymbolTableRecord
100
AcDbLinetypeTableRecord
  2
BYBLOCK
 70
     0
  3

 72
    65
 73
     0
 40
0.0
  0
LTYPE
  5
1F
330
1D
100
AcDbSymbolTableRecord
100
AcDbLinetypeTableRecord
  2
BYLAYER
 70
     0
  3

 72
    65
 73
     0
 40
0.0
  0
LTYPE
  5
B
330
1D
100
AcDbSymbolTableRecord
100
AcDbLinetypeTableRecord
  2
CONTINUOUS
 70
     0
  3
Solid line
 72
    65
 73
     0
 40
0.0
  0
ENDTAB
  0
TABLE
  2
LAYER
  5
15
102
{ACAD_XDICTIONARY
360
16
102
}
330
0
100
AcDbSymbolTable
 70
     7
  0
LAYER
  5
7
330
15
100
AcDbSymbolTableRecord
100
AcDbLayerTableRecord
  2
0
 70
     0
 62
     7
  6
CONTINUOUS
370
    -3
390
8
  0
LAYER
  5
233
330
15
100
AcDbSymbolTableRecord
100
AcDbLayerTableRecord
  2
DEFPOINTS
 70
     0
 62
     7
  6
CONTINUOUS
290
     0
370
    -3
390
8
  0
LAYER
  5
E3
330
15
100
AcDbSymbolTableRecord
100
AcDbLayerTableRecord
  2
WAKU
 70
     0
 62
     4
  6
CONTINUOUS
370
    -3
390
8
  0
LAYER
  5
39
330
15
100
AcDbSymbolTableRecord
100
AcDbLayerTableRecord
  2
MOJI1
 70
     0
 62
     2
  6
CONTINUOUS
370
    -3
390
8
  0
LAYER
  5
3C
330
15
100
AcDbSymbolTableRecord
100
AcDbLayerTableRecord
  2
GAIKEI
 70
     0
 62
     7
  6
CONTINUOUS
370
    -3
390
8
  0
LAYER
  5
37
330
15
100
AcDbSymbolTableRecord
100
AcDbLayerTableRecord
  2
TOUROKU
 70
     0
 62
     1
  6
CONTINUOUS
370
    -3
390
8
  0
LAYER
  5
34
330
15
100
AcDbSymbolTableRecord
100
AcDbLayerTableRecord
  2
SUNPO
 70
     0
 62
     3
  6
CONTINUOUS
370
    -3
390
8
  0
ENDTAB
  0
TABLE
  2
STYLE
  5
1A
330
0
100
AcDbSymbolTable
 70
     2
  0
STYLE
  5
1B
330
1A
100
AcDbSymbolTableRecord
100
AcDbTextStyleTableRecord
  2
STANDARD
 70
     0
 40
0.0
 41
1.0
 50
0.0
 71
     0
 42
3.0
  3
MONOTXT.shx
  4
BIGFONT.shx
  0
STYLE
  5
3A
330
1A
100
AcDbSymbolTableRecord
100
AcDbTextStyleTableRecord
  2
KANJI
 70
     0
 40
0.0
 41
1.0
 50
0.0
 71
     0
 42
3.5
  3
MONOTXT
  4
BIGFONT
  0
ENDTAB
  0
TABLE
  2
VIEW
  5
20
330
0
100
AcDbSymbolTable
 70
     0
  0
ENDTAB
  0
TABLE
  2
UCS
  5
21
330
0
100
AcDbSymbolTable
 70
     0
  0
ENDTAB
  0
TABLE
  2
APPID
  5
24
330
0
100
AcDbSymbolTable
 70
     1
  0
APPID
  5
25
330
24
100
AcDbSymbolTableRecord
100
AcDbRegAppTableRecord
  2
ACAD
 70
     0
  0
ENDTAB
  0
TABLE
  2
DIMSTYLE
  5
26
330
0
100
AcDbSymbolTable
 70
     1
100
AcDbDimStyleTable
 71
     1
340
27
  0
DIMSTYLE
105
27
102
{ACAD_REACTORS
330
229
330
237
330
244
102
}
330
26
100
AcDbSymbolTableRecord
100
AcDbDimStyleTableRecord
  2
STANDARD
 70
     0
 40
0.0
 41
2.0
 42
2.0
 43
8.0
 44
2.0
 73
     0
 74
     0
 77
     3
140
3.0
141
0.0
173
     1
279
     2
288
     1
340
1B
341
28
343
28
344
28
  0
ENDTAB
  0
TABLE
  2
BLOCK_RECORD
  5
1
330
0
100
AcDbSymbolTable
 70
     7
  0
BLOCK_RECORD
  5
2
102
{ACAD_XDICTIONARY
360
3
102
}
330
1
100
AcDbSymbolTableRecord
100
AcDbBlockTableRecord
  2
*MODEL_SPACE
340
D
  0
BLOCK_RECORD
  5
F
102
{ACAD_XDICTIONARY
360
10
102
}
330
1
100
AcDbSymbolTableRecord
100
AcDbBlockTableRecord
  2
*PAPER_SPACE
340
14
  0
BLOCK_RECORD
  5
28
330
1
100
AcDbSymbolTableRecord
100
AcDbBlockTableRecord
  2
_OPEN30
340
0
102
{BLKREFS
331
22F
331
230
331
23D
331
23E
331
24A
331
24B
331
268
331
269
331
274
331
275
331
280
331
281
102
}
  0
BLOCK_RECORD
  5
22A
330
1
100
AcDbSymbolTableRecord
100
AcDbBlockTableRecord
  2
*D1
340
0
  0
BLOCK_RECORD
  5
238
330
1
100
AcDbSymbolTableRecord
100
AcDbBlockTableRecord
  2
*D2
340
0
  0
BLOCK_RECORD
  5
245
330
1
100
AcDbSymbolTableRecord
100
AcDbBlockTableRecord
  2
*D3
340
0
  0
BLOCK_RECORD
  5
264
330
1
100
AcDbSymbolTableRecord
100
AcDbBlockTableRecord
  2
*D4
340
0
  0
BLOCK_RECORD
  5
270
330
1
100
AcDbSymbolTableRecord
100
AcDbBlockTableRecord
  2
*D5
340
0
  0
BLOCK_RECORD
  5
27C
330
1
100
AcDbSymbolTableRecord
100
AcDbBlockTableRecord
  2
*D6
340
0
  0
ENDTAB
  0
ENDSEC
  0
SECTION
  2
BLOCKS
  0
BLOCK
  5
6
330
2
100
AcDbEntity
  8
0
100
AcDbBlockBegin
  2
*MODEL_SPACE
 70
     0
 10
0.0
 20
0.0
 30
0.0
  3
*MODEL_SPACE
  1

  0
ENDBLK
  5
C
330
2
100
AcDbEntity
  8
0
100
AcDbBlockEnd
  0
BLOCK
  5
12
330
F
100
AcDbEntity
 67
     1
  8
0
100
AcDbBlockBegin
  2
*PAPER_SPACE
 70
     0
 10
0.0
 20
0.0
 30
0.0
  3
*PAPER_SPACE
  1

  0
ENDBLK
  5
13
330
F
100
AcDbEntity
 67
     1
  8
0
100
AcDbBlockEnd
  0
BLOCK
  5
29
330
28
100
AcDbEntity
  8
0
100
AcDbBlockBegin
  2
_OPEN30
 70
     0
 10
0.0
 20
0.0
 30
0.0
  3
_OPEN30
  1

  0
LINE
  5
2A
330
28
100
AcDbEntity
  8
0
  6
ByBlock
 62
     0
100
AcDbLine
 10
-1.0
 20
0.26794919
 30
0.0
 11
0.0
 21
0.0
 31
0.0
  0
LINE
  5
2B
330
28
100
AcDbEntity
  8
0
  6
ByBlock
 62
     0
100
AcDbLine
 10
0.0
 20
0.0
 30
0.0
 11
-1.0
 21
-0.26794919
 31
0.0
  0
LINE
  5
2C
330
28
100
AcDbEntity
  8
0
  6
ByBlock
 62
     0
100
AcDbLine
 10
0.0
 20
0.0
 30
0.0
 11
-1.0
 21
0.0
 31
0.0
  0
ENDBLK
  5
2D
330
28
100
AcDbEntity
  8
0
100
AcDbBlockEnd
  0
BLOCK
  5
22B
330
22A
100
AcDbEntity
  8
0
100
AcDbBlockBegin
  2
*D1
 70
     1
 10
0.0
 20
0.0
 30
0.0
  3
*D1
  1

  0
LINE
  5
22C
330
22A
100
AcDbEntity
  8
SUNPO
 62
     0
370
    -2
100
AcDbLine
 10
158.7814943764109
 20
220.4680909667517
 30
0.0
 11
158.7814943764109
 21
228.4680909667317
 31
0.0
  0
LINE
  5
22D
330
22A
100
AcDbEntity
  8
SUNPO
 62
     0
370
    -2
100
AcDbLine
 10
183.1814943764109
 20
220.4680909667317
 30
0.0
 11
183.1814943764109
 21
228.4680909667317
 31
0.0
  0
LINE
  5
22E
330
22A
100
AcDbEntity
  8
SUNPO
 62
     0
370
    -2
100
AcDbLine
 10
160.7814943764109
 20
226.4680909667317
 30
0.0
 11
181.1814943764109
 21
226.4680909667317
 31
0.0
  0
INSERT
  5
22F
330
22A
100
AcDbEntity
  8
SUNPO
 62
     0
370
    -2
100
AcDbBlockReference
  2
_OPEN30
 10
158.7814943764109
 20
226.4680909667317
 30
0.0
 41
2.0
 42
2.0
 43
2.0
 50
180.0
  0
INSERT
  5
230
330
22A
100
AcDbEntity
  8
SUNPO
 62
     0
370
    -2
100
AcDbBlockReference
  2
_OPEN30
 10
183.1814943764109
 20
226.4680909667317
 30
0.0
 41
2.0
 42
2.0
 43
2.0
  0
MTEXT
  5
231
330
22A
100
AcDbEntity
  8
SUNPO
 62
     0
100
AcDbMText
 10
170.9814943764109
 20
228.2180909667317
 30
0.0
 40
2.5
 41
0.0
 71
     5
 72
     1
  1
\A1;約122
 73
     1
 44
1.0
1001
ACAD
1000
MTEXTBEGIN
1070
    73
1070
     1
1070
    44
1040
1.0
1070
    74
1070
     0
1000
MTEXTEND
  0
POINT
  5
232
330
22A
100
AcDbEntity
  8
DEFPOINTS
 62
     0
100
AcDbPoint
 10
158.7814943764109
 20
218.4680909667517
 30
0.0
  0
POINT
  5
234
330
22A
100
AcDbEntity
  8
DEFPOINTS
 62
     0
100
AcDbPoint
 10
183.1814943764109
 20
218.4680909667317
 30
0.0
  0
POINT
  5
235
330
22A
100
AcDbEntity
  8
DEFPOINTS
 62
     0
100
AcDbPoint
 10
183.1814943764109
 20
226.4680909667317
 30
0.0
  0
ENDBLK
  5
236
330
22A
100
AcDbEntity
  8
0
100
AcDbBlockEnd
  0
BLOCK
  5
239
330
238
100
AcDbEntity
  8
0
100
AcDbBlockBegin
  2
*D2
 70
     1
 10
0.0
 20
0.0
 30
0.0
  3
*D2
  1

  0
LINE
  5
23A
330
238
100
AcDbEntity
  8
SUNPO
 62
     0
370
    -2
100
AcDbLine
 10
184.9814943764109
 20
218.6680909745517
 30
0.0
 11
192.981494376411
 21
218.6680909745517
 31
0.0
  0
LINE
  5
23B
330
238
100
AcDbEntity
  8
SUNPO
 62
     0
370
    -2
100
AcDbLine
 10
184.9814943764109
 20
175.6680909745517
 30
0.0
 11
192.981494376411
 21
175.6680909745517
 31
0.0
  0
LINE
  5
23C
330
238
100
AcDbEntity
  8
SUNPO
 62
     0
370
    -2
100
AcDbLine
 10
190.981494376411
 20
216.6680909745517
 30
0.0
 11
190.981494376411
 21
177.6680909745517
 31
0.0
  0
INSERT
  5
23D
330
238
100
AcDbEntity
  8
SUNPO
 62
     0
370
    -2
100
AcDbBlockReference
  2
_OPEN30
 10
190.981494376411
 20
218.6680909745517
 30
0.0
 41
2.0
 42
2.0
 43
2.0
 50
90.0
  0
INSERT
  5
23E
330
238
100
AcDbEntity
  8
SUNPO
 62
     0
370
    -2
100
AcDbBlockReference
  2
_OPEN30
 10
190.981494376411
 20
175.6680909745517
 30
0.0
 41
2.0
 42
2.0
 43
2.0
 50
270.0
  0
MTEXT
  5
23F
330
238
100
AcDbEntity
  8
SUNPO
 62
     0
100
AcDbMText
 10
189.2314943764109
 20
197.1680909745517
 30
0.0
 40
2.5
 41
0.0
 71
     5
 72
     1
  1
\A1;約215
 11
0.0000000000000001
 21
1.0
 31
0.0
 73
     1
 44
1.0
1001
ACAD
1000
MTEXTBEGIN
1070
    73
1070
     1
1070
    44
1040
1.0
1070
    74
1070
     0
1000
MTEXTEND
  0
POINT
  5
240
330
238
100
AcDbEntity
  8
DEFPOINTS
 62
     0
100
AcDbPoint
 10
182.981494376411
 20
218.6680909745517
 30
0.0
  0
POINT
  5
241
330
238
100
AcDbEntity
  8
DEFPOINTS
 62
     0
100
AcDbPoint
 10
182.981494376411
 20
175.6680909745517
 30
0.0
  0
POINT
  5
242
330
238
100
AcDbEntity
  8
DEFPOINTS
 62
     0
100
AcDbPoint
 10
190.981494376411
 20
175.6680909745517
 30
0.0
  0
ENDBLK
  5
243
330
238
100
AcDbEntity
  8
0
100
AcDbBlockEnd
  0
BLOCK
  5
246
330
245
100
AcDbEntity
  8
0
100
AcDbBlockBegin
  2
*D3
 70
     1
 10
0.0
 20
0.0
 30
0.0
  3
*D3
  1

  0
LINE
  5
247
330
245
100
AcDbEntity
  8
SUNPO
 62
     0
370
    -2
100
AcDbLine
 10
209.9964807896747
 20
218.9381877931096
 30
0.0
 11
211.559638114
 21
226.6558187358801
 31
0.0
  0
LINE
  5
248
330
245
100
AcDbEntity
  8
SUNPO
 62
     0
370
    -2
100
AcDbLine
 10
223.9521898552064
 20
216.1115472082325
 30
0.0
 11
225.5153471795316
 21
223.829178151003
 31
0.0
  0
LINE
  5
249
330
245
100
AcDbEntity
  8
SUNPO
 62
     0
370
    -2
100
AcDbLine
 10
213.1228093136696
 20
224.2985966842856
 30
0.0
 11
223.1581251279371
 21
222.2660069513334
 31
0.0
  0
INSERT
  5
24A
330
245
100
AcDbEntity
  8
SUNPO
 62
     0
370
    -2
100
AcDbBlockReference
  2
_OPEN30
 10
211.1626126880375
 20
224.695622110248
 30
0.0
 41
2.0
 42
2.0
 43
2.0
 50
168.5500000002907
  0
INSERT
  5
24B
330
245
100
AcDbEntity
  8
SUNPO
 62
     0
370
    -2
100
AcDbBlockReference
  2
_OPEN30
 10
225.1183217535692
 20
221.8689815253709
 30
0.0
 41
2.0
 42
2.0
 43
2.0
 50
348.5500000002907
  0
MTEXT
  5
24C
330
245
100
AcDbEntity
  8
SUNPO
 62
     0
100
AcDbMText
 10
218.4878644685205
 20
224.9974738652375
 30
0.0
 40
2.5
 41
0.0
 71
     5
 72
     1
  1
\A1;約71
 11
0.9800983128160332
 21
-0.1985127129812226
 31
0.0
 73
     1
 44
1.0
1001
ACAD
1000
MTEXTBEGIN
1070
    73
1070
     1
1070
    44
1040
1.0
1070
    74
1070
     0
1000
MTEXTEND
  0
POINT
  5
24D
330
245
100
AcDbEntity
  8
DEFPOINTS
 62
     0
100
AcDbPoint
 10
209.5994553637123
 20
216.9779911674775
 30
0.0
  0
POINT
  5
24E
330
245
100
AcDbEntity
  8
DEFPOINTS
 62
     0
100
AcDbPoint
 10
223.5551644292439
 20
214.1513505826004
 30
0.0
  0
POINT
  5
24F
330
245
100
AcDbEntity
  8
DEFPOINTS
 62
     0
100
AcDbPoint
 10
225.1183217535692
 20
221.8689815253709
 30
0.0
  0
ENDBLK
  5
250
330
245
100
AcDbEntity
  8
0
100
AcDbBlockEnd
  0
BLOCK
  5
26E
330
264
100
AcDbEntity
  8
0
100
AcDbBlockBegin
  2
*D4
 70
     1
 10
0.0
 20
0.0
 30
0.0
  3
*D4
  1

  0
LINE
  5
265
330
264
100
AcDbEntity
  8
SUNPO
 62
     0
370
    -2
100
AcDbLine
 10
13.5799458702957
 20
32.29069619652226
 30
0.0
 11
15.14310319462095
 21
40.00832713929272
 31
0.0
  0
LINE
  5
266
330
264
100
AcDbEntity
  8
SUNPO
 62
     0
370
    -2
100
AcDbLine
 10
27.53565493582737
 20
29.46405561164521
 30
0.0
 11
29.09881226015261
 21
37.18168655441565
 31
0.0
  0
LINE
  5
267
330
264
100
AcDbEntity
  8
SUNPO
 62
     0
370
    -2
100
AcDbLine
 10
16.70627439429057
 20
37.6511050876982
 30
0.0
 11
26.7415902085581
 21
35.61851535474602
 31
0.0
  0
INSERT
  5
268
330
264
100
AcDbEntity
  8
SUNPO
 62
     0
370
    -2
100
AcDbBlockReference
  2
_OPEN30
 10
14.7460777686585
 20
38.04813051366064
 30
0.0
 41
2.0
 42
2.0
 43
2.0
 50
168.5500000002907
  0
INSERT
  5
269
330
264
100
AcDbEntity
  8
SUNPO
 62
     0
370
    -2
100
AcDbBlockReference
  2
_OPEN30
 10
28.70178683419016
 20
35.22148992878359
 30
0.0
 41
2.0
 42
2.0
 43
2.0
 50
348.5500000002907
  0
MTEXT
  5
26A
330
264
100
AcDbEntity
  8
SUNPO
 62
     0
100
AcDbMText
 10
22.07132954914147
 20
38.34998226865018
 30
0.0
 40
2.5
 41
0.0
 71
     5
 72
     1
  1
\A1;約71
 11
0.9800983128160332
 21
-0.1985127129812226
 31
0.0
 73
     1
 44
1.0
1001
ACAD
1000
MTEXTBEGIN
1070
    73
1070
     1
1070
    44
1040
1.0
1070
    74
1070
     0
1000
MTEXTEND
  0
POINT
  5
26B
330
264
100
AcDbEntity
  8
DEFPOINTS
 62
     0
100
AcDbPoint
 10
13.18292044433326
 20
30.3304995708902
 30
0.0
  0
POINT
  5
26C
330
264
100
AcDbEntity
  8
DEFPOINTS
 62
     0
100
AcDbPoint
 10
27.13862950986492
 20
27.50385898601314
 30
0.0
  0
POINT
  5
26D
330
264
100
AcDbEntity
  8
DEFPOINTS
 62
     0
100
AcDbPoint
 10
28.70178683419016
 20
35.22148992878358
 30
0.0
  0
ENDBLK
  5
26F
330
264
100
AcDbEntity
  8
0
100
AcDbBlockEnd
  0
BLOCK
  5
27A
330
270
100
AcDbEntity
  8
0
100
AcDbBlockBegin
  2
*D5
 70
     1
 10
0.0
 20
0.0
 30
0.0
  3
*D5
  1

  0
LINE
  5
271
330
270
100
AcDbEntity
  8
SUNPO
 62
     0
370
    -2
100
AcDbLine
 10
-11.43504054296807
 20
32.0205993779644
 30
0.0
 11
-3.435040542968057
 21
32.0205993779644
 31
0.0
  0
LINE
  5
272
330
270
100
AcDbEntity
  8
SUNPO
 62
     0
370
    -2
100
AcDbLine
 10
-11.43504054296807
 20
-10.9794006220356
 30
0.0
 11
-3.435040542968068
 21
-10.9794006220356
 31
0.0
  0
LINE
  5
273
330
270
100
AcDbEntity
  8
SUNPO
 62
     0
370
    -2
100
AcDbLine
 10
-5.435040542968057
 20
30.0205993779644
 30
0.0
 11
-5.435040542968066
 21
-8.979400622035599
 31
0.0
  0
INSERT
  5
274
330
270
100
AcDbEntity
  8
SUNPO
 62
     0
370
    -2
100
AcDbBlockReference
  2
_OPEN30
 10
-5.435040542968057
 20
32.0205993779644
 30
0.0
 41
2.0
 42
2.0
 43
2.0
 50
90.0
  0
INSERT
  5
275
330
270
100
AcDbEntity
  8
SUNPO
 62
     0
370
    -2
100
AcDbBlockReference
  2
_OPEN30
 10
-5.435040542968067
 20
-10.9794006220356
 30
0.0
 41
2.0
 42
2.0
 43
2.0
 50
270.0
  0
MTEXT
  5
276
330
270
100
AcDbEntity
  8
SUNPO
 62
     0
100
AcDbMText
 10
-7.185040542968064
 20
10.5205993779644
 30
0.0
 40
2.5
 41
0.0
 71
     5
 72
     1
  1
\A1;約215
 11
0.0000000000000001
 21
1.0
 31
0.0
 73
     1
 44
1.0
1001
ACAD
1000
MTEXTBEGIN
1070
    73
1070
     1
1070
    44
1040
1.0
1070
    74
1070
     0
1000
MTEXTEND
  0
POINT
  5
277
330
270
100
AcDbEntity
  8
DEFPOINTS
 62
     0
100
AcDbPoint
 10
-13.43504054296807
 20
32.0205993779644
 30
0.0
  0
POINT
  5
278
330
270
100
AcDbEntity
  8
DEFPOINTS
 62
     0
100
AcDbPoint
 10
-13.43504054296807
 20
-10.97940062203559
 30
0.0
  0
POINT
  5
279
330
270
100
AcDbEntity
  8
DEFPOINTS
 62
     0
100
AcDbPoint
 10
-5.435040542968067
 20
-10.9794006220356
 30
0.0
  0
ENDBLK
  5
27B
330
270
100
AcDbEntity
  8
0
100
AcDbBlockEnd
  0
BLOCK
  5
286
330
27C
100
AcDbEntity
  8
0
100
AcDbBlockBegin
  2
*D6
 70
     1
 10
0.0
 20
0.0
 30
0.0
  3
*D6
  1

  0
LINE
  5
27D
330
27C
100
AcDbEntity
  8
SUNPO
 62
     0
370
    -2
100
AcDbLine
 10
-37.63504054296812
 20
33.82059937016436
 30
0.0
 11
-37.63504054296812
 21
41.82059937014435
 31
0.0
  0
LINE
  5
27E
330
27C
100
AcDbEntity
  8
SUNPO
 62
     0
370
    -2
100
AcDbLine
 10
-13.23504054296813
 20
33.82059937014435
 30
0.0
 11
-13.23504054296813
 21
41.82059937014435
 31
0.0
  0
LINE
  5
27F
330
27C
100
AcDbEntity
  8
SUNPO
 62
     0
370
    -2
100
AcDbLine
 10
-35.63504054296811
 20
39.82059937014435
 30
0.0
 11
-15.23504054296813
 21
39.82059937014435
 31
0.0
  0
INSERT
  5
280
330
27C
100
AcDbEntity
  8
SUNPO
 62
     0
370
    -2
100
AcDbBlockReference
  2
_OPEN30
 10
-37.63504054296812
 20
39.82059937014435
 30
0.0
 41
2.0
 42
2.0
 43
2.0
 50
180.0
  0
INSERT
  5
281
330
27C
100
AcDbEntity
  8
SUNPO
 62
     0
370
    -2
100
AcDbBlockReference
  2
_OPEN30
 10
-13.23504054296813
 20
39.82059937014435
 30
0.0
 41
2.0
 42
2.0
 43
2.0
  0
MTEXT
  5
282
330
27C
100
AcDbEntity
  8
SUNPO
 62
     0
100
AcDbMText
 10
-25.43504054296813
 20
41.57059937014435
 30
0.0
 40
2.5
 41
0.0
 71
     5
 72
     1
  1
\A1;約122
 73
     1
 44
1.0
1001
ACAD
1000
MTEXTBEGIN
1070
    73
1070
     1
1070
    44
1040
1.0
1070
    74
1070
     0
1000
MTEXTEND
  0
POINT
  5
283
330
27C
100
AcDbEntity
  8
DEFPOINTS
 62
     0
100
AcDbPoint
 10
-37.63504054296812
 20
31.82059937016436
 30
0.0
  0
POINT
  5
284
330
27C
100
AcDbEntity
  8
DEFPOINTS
 62
     0
100
AcDbPoint
 10
-13.23504054296813
 20
31.82059937014435
 30
0.0
  0
POINT
  5
285
330
27C
100
AcDbEntity
  8
DEFPOINTS
 62
     0
100
AcDbPoint
 10
-13.23504054296813
 20
39.82059937014435
 30
0.0
  0
ENDBLK
  5
287
330
27C
100
AcDbEntity
  8
0
100
AcDbBlockEnd
  0
ENDSEC
  0
SECTION
  2
ENTITIES
  0
TEXT
  5
36
330
2
100
AcDbEntity
  8
TOUROKU
100
AcDbText
 10
43.45008178021504
 20
47.85172254305448
 30
0.0
 40
2.0
  1
ＶＢＦ６３１Ａ
 72
     2
 11
59.58341511354837
 21
47.85172254305448
 31
0.0
100
AcDbText
  0
TEXT
  5
38
330
2
100
AcDbEntity
  8
MOJI1
100
AcDbText
 10
-38.41653491937893
 20
53.8517225430547
 30
0.0
 40
4.0
  1
集中受付装置（ＤＳＳ）
  7
KANJI
100
AcDbText
  0
LINE
  5
3B
330
2
100
AcDbEntity
  8
GAIKEI
  6
Continuous
100
AcDbLine
 10
-13.43504054296807
 20
-10.97940062203559
 30
0.0
 11
-37.43504054296807
 21
-10.97940062203559
 31
0.0
  0
LINE
  5
3D
330
2
100
AcDbEntity
  8
GAIKEI
  6
Continuous
 62
     1
100
AcDbLine
 10
-13.23504054296816
 20
-10.76797860327559
 30
0.0
 11
-37.63504054296814
 21
-10.76797860327559
 31
0.0
  0
LINE
  5
3E
330
2
100
AcDbEntity
  8
GAIKEI
  6
Continuous
 62
     1
100
AcDbLine
 10
-14.53504054296809
 20
-5.525900126555598
 30
0.0
 11
-36.33504054296805
 21
-5.525900126555598
 31
0.0
  0
LINE
  5
3F
330
2
100
AcDbEntity
  8
GAIKEI
  6
Continuous
100
AcDbLine
 10
-37.63504054296812
 20
-10.77634302575563
 30
0.0
 11
-37.63504054296812
 21
31.82059937016436
 31
0.0
  0
LINE
  5
40
330
2
100
AcDbEntity
  8
GAIKEI
  6
Continuous
 62
     1
100
AcDbLine
 10
-37.43504054296807
 20
-10.97940062203559
 30
0.0
 11
-37.43504054296807
 21
32.0205993779644
 31
0.0
  0
LINE
  5
41
330
2
100
AcDbEntity
  8
GAIKEI
  6
Continuous
100
AcDbLine
 10
-37.43504054296807
 20
31.99373818836438
 30
0.0
 11
-37.43504054296807
 21
32.0205993779644
 31
0.0
  0
LINE
  5
42
330
2
100
AcDbEntity
  8
GAIKEI
  6
Continuous
 62
     1
100
AcDbLine
 10
-36.69504054296806
 20
-5.165654519115605
 30
0.0
 11
-36.69504054296806
 21
25.3895855470044
 31
0.0
  0
LINE
  5
43
330
2
100
AcDbEntity
  8
GAIKEI
  6
Continuous
 62
     1
100
AcDbLine
 10
-14.17504054296808
 20
25.3895855470044
 30
0.0
 11
-14.17504054296808
 21
-5.165654519115605
 31
0.0
  0
LINE
  5
44
330
2
100
AcDbEntity
  8
GAIKEI
  6
Continuous
100
AcDbLine
 10
-13.43504054296807
 20
32.0205993779644
 30
0.0
 11
-13.43504054296807
 21
31.99373818836438
 31
0.0
  0
LINE
  5
45
330
2
100
AcDbEntity
  8
GAIKEI
  6
Continuous
 62
     1
100
AcDbLine
 10
-13.43504054296807
 20
-10.97940062203559
 30
0.0
 11
-13.43504054296807
 21
32.0205993779644
 31
0.0
  0
LINE
  5
46
330
2
100
AcDbEntity
  8
GAIKEI
  6
Continuous
100
AcDbLine
 10
-13.23504054296813
 20
-10.77634302575563
 30
0.0
 11
-13.23504054296813
 21
31.82059937014435
 31
0.0
  0
LINE
  5
47
330
2
100
AcDbEntity
  8
GAIKEI
  6
Continuous
 62
     1
100
AcDbLine
 10
-36.33504054296805
 20
25.74958554778437
 30
0.0
 11
-14.53504054296809
 21
25.74958554778437
 31
0.0
  0
LINE
  5
48
330
2
100
AcDbEntity
  8
GAIKEI
  6
Continuous
 62
     1
100
AcDbLine
 10
-37.43504054296807
 20
29.61640636164441
 30
0.0
 11
-13.43504054296807
 21
29.61640636164441
 31
0.0
  0
LINE
  5
49
330
2
100
AcDbEntity
  8
GAIKEI
  6
Continuous
 62
     1
100
AcDbLine
 10
-13.43504054296807
 20
30.70641188416437
 30
0.0
 11
-37.43504054296807
 21
30.70641188416437
 31
0.0
  0
LINE
  5
4A
330
2
100
AcDbEntity
  8
GAIKEI
  6
Continuous
100
AcDbLine
 10
-13.43504054296807
 20
32.0205993779644
 30
0.0
 11
-37.43504054296807
 21
32.0205993779644
 31
0.0
  0
LINE
  5
4B
330
2
100
AcDbEntity
  8
GAIKEI
  6
Continuous
 62
     1
100
AcDbLine
 10
-18.38010763735008
 20
24.01648078607059
 30
0.0
 11
-18.38010763735008
 21
25.25643955343173
 31
0.0
  0
LINE
  5
4C
330
2
100
AcDbEntity
  8
GAIKEI
  6
Continuous
 62
     1
100
AcDbLine
 10
-25.58010763735012
 20
24.01648078607059
 30
0.0
 11
-25.58010763735012
 21
25.25643955343173
 31
0.0
  0
LINE
  5
4D
330
2
100
AcDbEntity
  8
GAIKEI
  6
Continuous
 62
     1
100
AcDbLine
 10
-18.38010763735008
 20
25.25643955343173
 30
0.0
 11
-21.68009571608263
 21
25.25643955346419
 31
0.0
  0
LINE
  5
4E
330
2
100
AcDbEntity
  8
GAIKEI
  6
Continuous
 62
     1
100
AcDbLine
 10
-21.68009571608263
 20
24.01648078607059
 30
0.0
 11
-18.38010763735008
 21
24.01648078607059
 31
0.0
  0
LINE
  5
4F
330
2
100
AcDbEntity
  8
GAIKEI
  6
Continuous
 62
     1
100
AcDbLine
 10
-21.68009571608263
 20
25.25643955346419
 30
0.0
 11
-21.68009571608263
 21
24.01648078607059
 31
0.0
  0
LINE
  5
50
330
2
100
AcDbEntity
  8
GAIKEI
  6
Continuous
 62
     1
100
AcDbLine
 10
-21.9801205586175
 20
24.01648078607059
 30
0.0
 11
-25.28010863735005
 21
24.01648078607059
 31
0.0
  0
LINE
  5
51
330
2
100
AcDbEntity
  8
GAIKEI
  6
Continuous
 62
     1
100
AcDbLine
 10
-21.98012055861727
 20
25.25643955343173
 30
0.0
 11
-25.28010863735005
 21
25.25643955346419
 31
0.0
  0
LINE
  5
52
330
2
100
AcDbEntity
  8
GAIKEI
  6
Continuous
 62
     1
100
AcDbLine
 10
-25.28010863735005
 20
25.25643955346419
 30
0.0
 11
-25.28010863735005
 21
24.01648078607059
 31
0.0
  0
LINE
  5
53
330
2
100
AcDbEntity
  8
GAIKEI
  6
Continuous
 62
     1
100
AcDbLine
 10
-21.9801205586175
 20
24.01648078607059
 30
0.0
 11
-21.98012055861727
 21
25.25643955343173
 31
0.0
  0
LINE
  5
54
330
2
100
AcDbEntity
  8
GAIKEI
  6
Continuous
 62
     1
100
AcDbLine
 10
-25.58010763735012
 20
25.25643955343173
 30
0.0
 11
-28.88009571608268
 21
25.25663075624681
 31
0.0
  0
LINE
  5
55
330
2
100
AcDbEntity
  8
GAIKEI
  6
Continuous
 62
     1
100
AcDbLine
 10
-28.88009571608268
 20
24.01913140268437
 30
0.0
 11
-25.58010763735012
 21
24.01648078607059
 31
0.0
  0
LINE
  5
56
330
2
100
AcDbEntity
  8
GAIKEI
  6
Continuous
 62
     1
100
AcDbLine
 10
-28.88009571608268
 20
25.25663075624681
 30
0.0
 11
-28.88009571608268
 21
24.01913140268437
 31
0.0
  0
LINE
  5
57
330
2
100
AcDbEntity
  8
GAIKEI
  6
Continuous
 62
     1
100
AcDbLine
 10
-28.88009571608268
 20
22.75659630529355
 30
0.0
 11
-28.88009571608268
 21
21.51909695173134
 31
0.0
  0
LINE
  5
58
330
2
100
AcDbEntity
  8
GAIKEI
  6
Continuous
 62
     1
100
AcDbLine
 10
-28.88009571608268
 20
21.51909695173134
 30
0.0
 11
-25.58010763735012
 21
21.5164463351174
 31
0.0
  0
LINE
  5
59
330
2
100
AcDbEntity
  8
GAIKEI
  6
Continuous
 62
     1
100
AcDbLine
 10
-25.58010763735012
 20
22.7564051024786
 30
0.0
 11
-28.88009571608268
 21
22.75659630529355
 31
0.0
  0
LINE
  5
5A
330
2
100
AcDbEntity
  8
GAIKEI
  6
Continuous
 62
     1
100
AcDbLine
 10
-21.9801205586175
 20
21.5164463351174
 30
0.0
 11
-21.98012055861727
 21
22.7564051024786
 31
0.0
  0
LINE
  5
5B
330
2
100
AcDbEntity
  8
GAIKEI
  6
Continuous
 62
     1
100
AcDbLine
 10
-25.28010863735005
 20
22.75640510251094
 30
0.0
 11
-25.28010863735005
 21
21.5164463351174
 31
0.0
  0
LINE
  5
5C
330
2
100
AcDbEntity
  8
GAIKEI
  6
Continuous
 62
     1
100
AcDbLine
 10
-21.98012055861727
 20
22.7564051024786
 30
0.0
 11
-25.28010863735005
 21
22.75640510251094
 31
0.0
  0
LINE
  5
5D
330
2
100
AcDbEntity
  8
GAIKEI
  6
Continuous
 62
     1
100
AcDbLine
 10
-21.9801205586175
 20
21.5164463351174
 30
0.0
 11
-25.28010863735005
 21
21.5164463351174
 31
0.0
  0
LINE
  5
5E
330
2
100
AcDbEntity
  8
GAIKEI
  6
Continuous
 62
     1
100
AcDbLine
 10
-21.68009571608263
 20
22.75640510251094
 30
0.0
 11
-21.68009571608263
 21
21.5164463351174
 31
0.0
  0
LINE
  5
5F
330
2
100
AcDbEntity
  8
GAIKEI
  6
Continuous
 62
     1
100
AcDbLine
 10
-21.68009571608263
 20
21.5164463351174
 30
0.0
 11
-18.38010763735008
 21
21.5164463351174
 31
0.0
  0
LINE
  5
60
330
2
100
AcDbEntity
  8
GAIKEI
  6
Continuous
 62
     1
100
AcDbLine
 10
-18.38010763735008
 20
22.7564051024786
 30
0.0
 11
-21.68009571608263
 21
22.75640510251094
 31
0.0
  0
LINE
  5
61
330
2
100
AcDbEntity
  8
GAIKEI
  6
Continuous
 62
     1
100
AcDbLine
 10
-25.58010763735012
 20
21.5164463351174
 30
0.0
 11
-25.58010763735012
 21
22.7564051024786
 31
0.0
  0
LINE
  5
62
330
2
100
AcDbEntity
  8
GAIKEI
  6
Continuous
 62
     1
100
AcDbLine
 10
-18.38010763735008
 20
21.5164463351174
 30
0.0
 11
-18.38010763735008
 21
22.7564051024786
 31
0.0
  0
LINE
  5
63
330
2
100
AcDbEntity
  8
GAIKEI
  6
Continuous
 62
     1
100
AcDbLine
 10
-18.38010763735008
 20
19.0164463351158
 30
0.0
 11
-18.38010763735008
 21
20.25640510247701
 31
0.0
  0
LINE
  5
64
330
2
100
AcDbEntity
  8
GAIKEI
  6
Continuous
 62
     1
100
AcDbLine
 10
-25.58010763735012
 20
19.0164463351158
 30
0.0
 11
-25.58010763735012
 21
20.25640510247701
 31
0.0
  0
LINE
  5
65
330
2
100
AcDbEntity
  8
GAIKEI
  6
Continuous
 62
     1
100
AcDbLine
 10
-18.38010763735008
 20
20.25640510247701
 30
0.0
 11
-21.68009571608263
 21
20.25640510250935
 31
0.0
  0
LINE
  5
66
330
2
100
AcDbEntity
  8
GAIKEI
  6
Continuous
 62
     1
100
AcDbLine
 10
-21.68009571608263
 20
19.0164463351158
 30
0.0
 11
-18.38010763735008
 21
19.0164463351158
 31
0.0
  0
LINE
  5
67
330
2
100
AcDbEntity
  8
GAIKEI
  6
Continuous
 62
     1
100
AcDbLine
 10
-21.68009571608263
 20
20.25640510250935
 30
0.0
 11
-21.68009571608263
 21
19.0164463351158
 31
0.0
  0
LINE
  5
68
330
2
100
AcDbEntity
  8
GAIKEI
  6
Continuous
 62
     1
100
AcDbLine
 10
-21.9801205586175
 20
19.0164463351158
 30
0.0
 11
-25.28010863735005
 21
19.0164463351158
 31
0.0
  0
LINE
  5
69
330
2
100
AcDbEntity
  8
GAIKEI
  6
Continuous
 62
     1
100
AcDbLine
 10
-21.98012055861727
 20
20.25640510247701
 30
0.0
 11
-25.28010863735005
 21
20.25640510250935
 31
0.0
  0
LINE
  5
6A
330
2
100
AcDbEntity
  8
GAIKEI
  6
Continuous
 62
     1
100
AcDbLine
 10
-25.28010863735005
 20
20.25640510250935
 30
0.0
 11
-25.28010863735005
 21
19.0164463351158
 31
0.0
  0
LINE
  5
6B
330
2
100
AcDbEntity
  8
GAIKEI
  6
Continuous
 62
     1
100
AcDbLine
 10
-21.9801205586175
 20
19.0164463351158
 30
0.0
 11
-21.98012055861727
 21
20.25640510247701
 31
0.0
  0
LINE
  5
6C
330
2
100
AcDbEntity
  8
GAIKEI
  6
Continuous
 62
     1
100
AcDbLine
 10
-25.58010763735012
 20
20.25640510247701
 30
0.0
 11
-28.88009571608268
 21
20.25659630529196
 31
0.0
  0
LINE
  5
6D
330
2
100
AcDbEntity
  8
GAIKEI
  6
Continuous
 62
     1
100
AcDbLine
 10
-28.88009571608268
 20
19.01909695172975
 30
0.0
 11
-25.58010763735012
 21
19.0164463351158
 31
0.0
  0
LINE
  5
6E
330
2
100
AcDbEntity
  8
GAIKEI
  6
Continuous
 62
     1
100
AcDbLine
 10
-28.88009571608268
 20
20.25659630529196
 30
0.0
 11
-28.88009571608268
 21
19.01909695172975
 31
0.0
  0
LINE
  5
6F
330
2
100
AcDbEntity
  8
GAIKEI
  6
Continuous
 62
     1
100
AcDbLine
 10
-28.88009571608268
 20
17.75659630529014
 30
0.0
 11
-28.88009571608268
 21
16.51909695172787
 31
0.0
  0
LINE
  5
70
330
2
100
AcDbEntity
  8
GAIKEI
  6
Continuous
 62
     1
100
AcDbLine
 10
-28.88009571608268
 20
16.51909695172787
 30
0.0
 11
-25.58010763735012
 21
16.51644633511392
 31
0.0
  0
LINE
  5
71
330
2
100
AcDbEntity
  8
GAIKEI
  6
Continuous
 62
     1
100
AcDbLine
 10
-25.58010763735012
 20
17.75640510247512
 30
0.0
 11
-28.88009571608268
 21
17.75659630529014
 31
0.0
  0
LINE
  5
72
330
2
100
AcDbEntity
  8
GAIKEI
  6
Continuous
 62
     1
100
AcDbLine
 10
-21.9801205586175
 20
16.51644633511392
 30
0.0
 11
-21.98012055861727
 21
17.75640510247512
 31
0.0
  0
LINE
  5
73
330
2
100
AcDbEntity
  8
GAIKEI
  6
Continuous
 62
     1
100
AcDbLine
 10
-25.28010863735005
 20
17.75640510250775
 30
0.0
 11
-25.28010863735005
 21
16.51644633511392
 31
0.0
  0
LINE
  5
74
330
2
100
AcDbEntity
  8
GAIKEI
  6
Continuous
 62
     1
100
AcDbLine
 10
-21.98012055861727
 20
17.75640510247512
 30
0.0
 11
-25.28010863735005
 21
17.75640510250775
 31
0.0
  0
LINE
  5
75
330
2
100
AcDbEntity
  8
GAIKEI
  6
Continuous
 62
     1
100
AcDbLine
 10
-21.9801205586175
 20
16.51644633511392
 30
0.0
 11
-25.28010863735005
 21
16.51644633511392
 31
0.0
  0
LINE
  5
76
330
2
100
AcDbEntity
  8
GAIKEI
  6
Continuous
 62
     1
100
AcDbLine
 10
-21.68009571608263
 20
17.75640510250775
 30
0.0
 11
-21.68009571608263
 21
16.51644633511392
 31
0.0
  0
LINE
  5
77
330
2
100
AcDbEntity
  8
GAIKEI
  6
Continuous
 62
     1
100
AcDbLine
 10
-21.68009571608263
 20
16.51644633511392
 30
0.0
 11
-18.38010763735008
 21
16.51644633511392
 31
0.0
  0
LINE
  5
78
330
2
100
AcDbEntity
  8
GAIKEI
  6
Continuous
 62
     1
100
AcDbLine
 10
-18.38010763735008
 20
17.75640510247512
 30
0.0
 11
-21.68009571608263
 21
17.75640510250775
 31
0.0
  0
LINE
  5
79
330
2
100
AcDbEntity
  8
GAIKEI
  6
Continuous
 62
     1
100
AcDbLine
 10
-25.58010763735012
 20
16.51644633511392
 30
0.0
 11
-25.58010763735012
 21
17.75640510247512
 31
0.0
  0
LINE
  5
7A
330
2
100
AcDbEntity
  8
GAIKEI
  6
Continuous
 62
     1
100
AcDbLine
 10
-18.38010763735008
 20
16.51644633511392
 30
0.0
 11
-18.38010763735008
 21
17.75640510247512
 31
0.0
  0
LINE
  5
7B
330
2
100
AcDbEntity
  8
GAIKEI
  6
Continuous
 62
     1
100
AcDbLine
 10
-18.38010763735008
 20
14.01634298225173
 30
0.0
 11
-18.38010763735008
 21
15.25630174961293
 31
0.0
  0
LINE
  5
7C
330
2
100
AcDbEntity
  8
GAIKEI
  6
Continuous
 62
     1
100
AcDbLine
 10
-25.58010763735012
 20
14.01634298225173
 30
0.0
 11
-25.58010763735012
 21
15.25630174961293
 31
0.0
  0
LINE
  5
7D
330
2
100
AcDbEntity
  8
GAIKEI
  6
Continuous
 62
     1
100
AcDbLine
 10
-18.38010763735008
 20
15.25630174961293
 30
0.0
 11
-21.68009571608263
 21
15.25630174964539
 31
0.0
  0
LINE
  5
7E
330
2
100
AcDbEntity
  8
GAIKEI
  6
Continuous
 62
     1
100
AcDbLine
 10
-21.68009571608263
 20
14.01634298225173
 30
0.0
 11
-18.38010763735008
 21
14.01634298225173
 31
0.0
  0
LINE
  5
7F
330
2
100
AcDbEntity
  8
GAIKEI
  6
Continuous
 62
     1
100
AcDbLine
 10
-21.68009571608263
 20
15.25630174964539
 30
0.0
 11
-21.68009571608263
 21
14.01634298225173
 31
0.0
  0
LINE
  5
80
330
2
100
AcDbEntity
  8
GAIKEI
  6
Continuous
 62
     1
100
AcDbLine
 10
-21.9801205586175
 20
14.01634298225173
 30
0.0
 11
-25.28010863735005
 21
14.01634298225173
 31
0.0
  0
LINE
  5
81
330
2
100
AcDbEntity
  8
GAIKEI
  6
Continuous
 62
     1
100
AcDbLine
 10
-21.98012055861727
 20
15.25630174961293
 30
0.0
 11
-25.28010863735005
 21
15.25630174964539
 31
0.0
  0
LINE
  5
82
330
2
100
AcDbEntity
  8
GAIKEI
  6
Continuous
 62
     1
100
AcDbLine
 10
-25.28010863735005
 20
15.25630174964539
 30
0.0
 11
-25.28010863735005
 21
14.01634298225173
 31
0.0
  0
LINE
  5
83
330
2
100
AcDbEntity
  8
GAIKEI
  6
Continuous
 62
     1
100
AcDbLine
 10
-21.9801205586175
 20
14.01634298225173
 30
0.0
 11
-21.98012055861727
 21
15.25630174961293
 31
0.0
  0
LINE
  5
84
330
2
100
AcDbEntity
  8
GAIKEI
  6
Continuous
 62
     1
100
AcDbLine
 10
-25.58010763735012
 20
15.25630174961293
 30
0.0
 11
-28.88009571608268
 21
15.25649295242795
 31
0.0
  0
LINE
  5
85
330
2
100
AcDbEntity
  8
GAIKEI
  6
Continuous
 62
     1
100
AcDbLine
 10
-28.88009571608268
 20
14.01899359886573
 30
0.0
 11
-25.58010763735012
 21
14.01634298225173
 31
0.0
  0
LINE
  5
86
330
2
100
AcDbEntity
  8
GAIKEI
  6
Continuous
 62
     1
100
AcDbLine
 10
-28.88009571608268
 20
15.25649295242795
 30
0.0
 11
-28.88009571608268
 21
14.01899359886573
 31
0.0
  0
LINE
  5
87
330
2
100
AcDbEntity
  8
GAIKEI
  6
Continuous
 62
     1
100
AcDbLine
 10
-28.88009571608268
 20
12.75649295242897
 30
0.0
 11
-28.88009571608268
 21
11.51899359886658
 31
0.0
  0
LINE
  5
88
330
2
100
AcDbEntity
  8
GAIKEI
  6
Continuous
 62
     1
100
AcDbLine
 10
-28.88009571608268
 20
11.51899359886658
 30
0.0
 11
-25.58010763735012
 21
11.51634298225258
 31
0.0
  0
LINE
  5
89
330
2
100
AcDbEntity
  8
GAIKEI
  6
Continuous
 62
     1
100
AcDbLine
 10
-25.58010763735012
 20
12.75630174961395
 30
0.0
 11
-28.88009571608268
 21
12.75649295242897
 31
0.0
  0
LINE
  5
8A
330
2
100
AcDbEntity
  8
GAIKEI
  6
Continuous
 62
     1
100
AcDbLine
 10
-21.9801205586175
 20
11.51634298225258
 30
0.0
 11
-21.98012055861727
 21
12.75630174961395
 31
0.0
  0
LINE
  5
8B
330
2
100
AcDbEntity
  8
GAIKEI
  6
Continuous
 62
     1
100
AcDbLine
 10
-25.28010863735005
 20
12.75630174964635
 30
0.0
 11
-25.28010863735005
 21
11.51634298225258
 31
0.0
  0
LINE
  5
8C
330
2
100
AcDbEntity
  8
GAIKEI
  6
Continuous
 62
     1
100
AcDbLine
 10
-21.98012055861727
 20
12.75630174961395
 30
0.0
 11
-25.28010863735005
 21
12.75630174964635
 31
0.0
  0
LINE
  5
8D
330
2
100
AcDbEntity
  8
GAIKEI
  6
Continuous
 62
     1
100
AcDbLine
 10
-21.9801205586175
 20
11.51634298225258
 30
0.0
 11
-25.28010863735005
 21
11.51634298225258
 31
0.0
  0
LINE
  5
8E
330
2
100
AcDbEntity
  8
GAIKEI
  6
Continuous
 62
     1
100
AcDbLine
 10
-21.68009571608263
 20
12.75630174964635
 30
0.0
 11
-21.68009571608263
 21
11.51634298225258
 31
0.0
  0
LINE
  5
8F
330
2
100
AcDbEntity
  8
GAIKEI
  6
Continuous
 62
     1
100
AcDbLine
 10
-21.68009571608263
 20
11.51634298225258
 30
0.0
 11
-18.38010763735008
 21
11.51634298225258
 31
0.0
  0
LINE
  5
90
330
2
100
AcDbEntity
  8
GAIKEI
  6
Continuous
 62
     1
100
AcDbLine
 10
-18.38010763735008
 20
12.75630174961395
 30
0.0
 11
-21.68009571608263
 21
12.75630174964635
 31
0.0
  0
LINE
  5
91
330
2
100
AcDbEntity
  8
GAIKEI
  6
Continuous
 62
     1
100
AcDbLine
 10
-25.58010763735012
 20
11.51634298225258
 30
0.0
 11
-25.58010763735012
 21
12.75630174961395
 31
0.0
  0
LINE
  5
92
330
2
100
AcDbEntity
  8
GAIKEI
  6
Continuous
 62
     1
100
AcDbLine
 10
-18.38010763735008
 20
11.51634298225258
 30
0.0
 11
-18.38010763735008
 21
12.75630174961395
 31
0.0
  0
LINE
  5
93
330
2
100
AcDbEntity
  8
GAIKEI
  6
Continuous
 62
     1
100
AcDbLine
 10
-18.38010763735008
 20
9.016411884161755
 30
0.0
 11
-18.38010763735008
 21
10.25637065152295
 31
0.0
  0
LINE
  5
94
330
2
100
AcDbEntity
  8
GAIKEI
  6
Continuous
 62
     1
100
AcDbLine
 10
-25.58010763735012
 20
9.016411884161755
 30
0.0
 11
-25.58010763735012
 21
10.25637065152295
 31
0.0
  0
LINE
  5
95
330
2
100
AcDbEntity
  8
GAIKEI
  6
Continuous
 62
     1
100
AcDbLine
 10
-18.38010763735008
 20
10.25637065152295
 30
0.0
 11
-21.68009571608263
 21
10.25637065155535
 31
0.0
  0
LINE
  5
96
330
2
100
AcDbEntity
  8
GAIKEI
  6
Continuous
 62
     1
100
AcDbLine
 10
-21.68009571608263
 20
9.016411884161755
 30
0.0
 11
-18.38010763735008
 21
9.016411884161755
 31
0.0
  0
LINE
  5
97
330
2
100
AcDbEntity
  8
GAIKEI
  6
Continuous
 62
     1
100
AcDbLine
 10
-21.68009571608263
 20
10.25637065155535
 30
0.0
 11
-21.68009571608263
 21
9.016411884161755
 31
0.0
  0
LINE
  5
98
330
2
100
AcDbEntity
  8
GAIKEI
  6
Continuous
 62
     1
100
AcDbLine
 10
-21.9801205586175
 20
9.016411884161755
 30
0.0
 11
-25.28010863735005
 21
9.016411884161755
 31
0.0
  0
LINE
  5
99
330
2
100
AcDbEntity
  8
GAIKEI
  6
Continuous
 62
     1
100
AcDbLine
 10
-21.98012055861727
 20
10.25637065152295
 30
0.0
 11
-25.28010863735005
 21
10.25637065155535
 31
0.0
  0
LINE
  5
9A
330
2
100
AcDbEntity
  8
GAIKEI
  6
Continuous
 62
     1
100
AcDbLine
 10
-25.28010863735005
 20
10.25637065155535
 30
0.0
 11
-25.28010863735005
 21
9.016411884161755
 31
0.0
  0
LINE
  5
9B
330
2
100
AcDbEntity
  8
GAIKEI
  6
Continuous
 62
     1
100
AcDbLine
 10
-21.9801205586175
 20
9.016411884161755
 30
0.0
 11
-21.98012055861727
 21
10.25637065152295
 31
0.0
  0
LINE
  5
9C
330
2
100
AcDbEntity
  8
GAIKEI
  6
Continuous
 62
     1
100
AcDbLine
 10
-25.58010763735012
 20
10.25637065152295
 30
0.0
 11
-28.88009571608268
 21
10.25656185433797
 31
0.0
  0
LINE
  5
9D
330
2
100
AcDbEntity
  8
GAIKEI
  6
Continuous
 62
     1
100
AcDbLine
 10
-28.88009571608268
 20
9.01906250077576
 30
0.0
 11
-25.58010763735012
 21
9.016411884161755
 31
0.0
  0
LINE
  5
9E
330
2
100
AcDbEntity
  8
GAIKEI
  6
Continuous
 62
     1
100
AcDbLine
 10
-28.88009571608268
 20
10.25656185433797
 30
0.0
 11
-28.88009571608268
 21
9.01906250077576
 31
0.0
  0
LINE
  5
9F
330
2
100
AcDbEntity
  8
GAIKEI
  6
Continuous
 62
     1
100
AcDbLine
 10
-28.88009571608268
 20
7.756561854338201
 30
0.0
 11
-28.88009571608268
 21
6.519062500775987
 31
0.0
  0
LINE
  5
A0
330
2
100
AcDbEntity
  8
GAIKEI
  6
Continuous
 62
     1
100
AcDbLine
 10
-28.88009571608268
 20
6.519062500775987
 30
0.0
 11
-25.58010763735012
 21
6.516411884161925
 31
0.0
  0
LINE
  5
A1
330
2
100
AcDbEntity
  8
GAIKEI
  6
Continuous
 62
     1
100
AcDbLine
 10
-25.58010763735012
 20
7.756370651523184
 30
0.0
 11
-28.88009571608268
 21
7.756561854338201
 31
0.0
  0
LINE
  5
A2
330
2
100
AcDbEntity
  8
GAIKEI
  6
Continuous
 62
     1
100
AcDbLine
 10
-21.9801205586175
 20
6.516411884161925
 30
0.0
 11
-21.98012055861727
 21
7.756370651523184
 31
0.0
  0
LINE
  5
A3
330
2
100
AcDbEntity
  8
GAIKEI
  6
Continuous
 62
     1
100
AcDbLine
 10
-25.28010863735005
 20
7.756370651555585
 30
0.0
 11
-25.28010863735005
 21
6.516411884161925
 31
0.0
  0
LINE
  5
A4
330
2
100
AcDbEntity
  8
GAIKEI
  6
Continuous
 62
     1
100
AcDbLine
 10
-21.98012055861727
 20
7.756370651523184
 30
0.0
 11
-25.28010863735005
 21
7.756370651555585
 31
0.0
  0
LINE
  5
A5
330
2
100
AcDbEntity
  8
GAIKEI
  6
Continuous
 62
     1
100
AcDbLine
 10
-21.9801205586175
 20
6.516411884161925
 30
0.0
 11
-25.28010863735005
 21
6.516411884161925
 31
0.0
  0
LINE
  5
A6
330
2
100
AcDbEntity
  8
GAIKEI
  6
Continuous
 62
     1
100
AcDbLine
 10
-21.68009571608263
 20
7.756370651555585
 30
0.0
 11
-21.68009571608263
 21
6.516411884161925
 31
0.0
  0
LINE
  5
A7
330
2
100
AcDbEntity
  8
GAIKEI
  6
Continuous
 62
     1
100
AcDbLine
 10
-21.68009571608263
 20
6.516411884161925
 30
0.0
 11
-18.38010763735008
 21
6.516411884161925
 31
0.0
  0
LINE
  5
A8
330
2
100
AcDbEntity
  8
GAIKEI
  6
Continuous
 62
     1
100
AcDbLine
 10
-18.38010763735008
 20
7.756370651523184
 30
0.0
 11
-21.68009571608263
 21
7.756370651555585
 31
0.0
  0
LINE
  5
A9
330
2
100
AcDbEntity
  8
GAIKEI
  6
Continuous
 62
     1
100
AcDbLine
 10
-25.58010763735012
 20
6.516411884161925
 30
0.0
 11
-25.58010763735012
 21
7.756370651523184
 31
0.0
  0
LINE
  5
AA
330
2
100
AcDbEntity
  8
GAIKEI
  6
Continuous
 62
     1
100
AcDbLine
 10
-18.38010763735008
 20
6.516411884161925
 30
0.0
 11
-18.38010763735008
 21
7.756370651523184
 31
0.0
  0
LINE
  5
AB
330
2
100
AcDbEntity
  8
GAIKEI
  6
Continuous
 62
     1
100
AcDbLine
 10
-18.38010763735008
 20
4.01641188416238
 30
0.0
 11
-18.38010763735008
 21
5.256370651523525
 31
0.0
  0
LINE
  5
AC
330
2
100
AcDbEntity
  8
GAIKEI
  6
Continuous
 62
     1
100
AcDbLine
 10
-25.58010763735012
 20
4.01641188416238
 30
0.0
 11
-25.58010763735012
 21
5.256370651523525
 31
0.0
  0
LINE
  5
AD
330
2
100
AcDbEntity
  8
GAIKEI
  6
Continuous
 62
     1
100
AcDbLine
 10
-18.38010763735008
 20
5.256370651523525
 30
0.0
 11
-21.68009571608263
 21
5.256370651556039
 31
0.0
  0
LINE
  5
AE
330
2
100
AcDbEntity
  8
GAIKEI
  6
Continuous
 62
     1
100
AcDbLine
 10
-21.68009571608263
 20
4.01641188416238
 30
0.0
 11
-18.38010763735008
 21
4.01641188416238
 31
0.0
  0
LINE
  5
AF
330
2
100
AcDbEntity
  8
GAIKEI
  6
Continuous
 62
     1
100
AcDbLine
 10
-21.68009571608263
 20
5.256370651556039
 30
0.0
 11
-21.68009571608263
 21
4.01641188416238
 31
0.0
  0
LINE
  5
B0
330
2
100
AcDbEntity
  8
GAIKEI
  6
Continuous
 62
     1
100
AcDbLine
 10
-21.9801205586175
 20
4.01641188416238
 30
0.0
 11
-25.28010863735005
 21
4.01641188416238
 31
0.0
  0
LINE
  5
B1
330
2
100
AcDbEntity
  8
GAIKEI
  6
Continuous
 62
     1
100
AcDbLine
 10
-21.98012055861727
 20
5.256370651523525
 30
0.0
 11
-25.28010863735005
 21
5.256370651556039
 31
0.0
  0
LINE
  5
B2
330
2
100
AcDbEntity
  8
GAIKEI
  6
Continuous
 62
     1
100
AcDbLine
 10
-25.28010863735005
 20
5.256370651556039
 30
0.0
 11
-25.28010863735005
 21
4.01641188416238
 31
0.0
  0
LINE
  5
B3
330
2
100
AcDbEntity
  8
GAIKEI
  6
Continuous
 62
     1
100
AcDbLine
 10
-21.9801205586175
 20
4.01641188416238
 30
0.0
 11
-21.98012055861727
 21
5.256370651523525
 31
0.0
  0
LINE
  5
B4
330
2
100
AcDbEntity
  8
GAIKEI
  6
Continuous
 62
     1
100
AcDbLine
 10
-25.58010763735012
 20
5.256370651523525
 30
0.0
 11
-28.88009571608268
 21
5.256561854338542
 31
0.0
  0
LINE
  5
B5
330
2
100
AcDbEntity
  8
GAIKEI
  6
Continuous
 62
     1
100
AcDbLine
 10
-28.88009571608268
 20
4.019062500776385
 30
0.0
 11
-25.58010763735012
 21
4.01641188416238
 31
0.0
  0
LINE
  5
B6
330
2
100
AcDbEntity
  8
GAIKEI
  6
Continuous
 62
     1
100
AcDbLine
 10
-28.88009571608268
 20
5.256561854338542
 30
0.0
 11
-28.88009571608268
 21
4.019062500776385
 31
0.0
  0
LINE
  5
B7
330
2
100
AcDbEntity
  8
GAIKEI
  6
Continuous
 62
     1
100
AcDbLine
 10
-28.88009571608268
 20
2.756561854338542
 30
0.0
 11
-28.88009571608268
 21
1.519062500776328
 31
0.0
  0
LINE
  5
B8
330
2
100
AcDbEntity
  8
GAIKEI
  6
Continuous
 62
     1
100
AcDbLine
 10
-28.88009571608268
 20
1.519062500776328
 30
0.0
 11
-25.58010763735012
 21
1.51641188416238
 31
0.0
  0
LINE
  5
B9
330
2
100
AcDbEntity
  8
GAIKEI
  6
Continuous
 62
     1
100
AcDbLine
 10
-25.58010763735012
 20
2.756370651523582
 30
0.0
 11
-28.88009571608268
 21
2.756561854338542
 31
0.0
  0
LINE
  5
BA
330
2
100
AcDbEntity
  8
GAIKEI
  6
Continuous
 62
     1
100
AcDbLine
 10
-21.9801205586175
 20
1.51641188416238
 30
0.0
 11
-21.98012055861727
 21
2.756370651523582
 31
0.0
  0
LINE
  5
BB
330
2
100
AcDbEntity
  8
GAIKEI
  6
Continuous
 62
     1
100
AcDbLine
 10
-25.28010863735005
 20
2.756370651555982
 30
0.0
 11
-25.28010863735005
 21
1.51641188416238
 31
0.0
  0
LINE
  5
BC
330
2
100
AcDbEntity
  8
GAIKEI
  6
Continuous
 62
     1
100
AcDbLine
 10
-21.98012055861727
 20
2.756370651523582
 30
0.0
 11
-25.28010863735005
 21
2.756370651555982
 31
0.0
  0
LINE
  5
BD
330
2
100
AcDbEntity
  8
GAIKEI
  6
Continuous
 62
     1
100
AcDbLine
 10
-21.9801205586175
 20
1.51641188416238
 30
0.0
 11
-25.28010863735005
 21
1.51641188416238
 31
0.0
  0
LINE
  5
BE
330
2
100
AcDbEntity
  8
GAIKEI
  6
Continuous
 62
     1
100
AcDbLine
 10
-21.68009571608263
 20
2.756370651555982
 30
0.0
 11
-21.68009571608263
 21
1.51641188416238
 31
0.0
  0
LINE
  5
BF
330
2
100
AcDbEntity
  8
GAIKEI
  6
Continuous
 62
     1
100
AcDbLine
 10
-21.68009571608263
 20
1.51641188416238
 30
0.0
 11
-18.38010763735008
 21
1.51641188416238
 31
0.0
  0
LINE
  5
C0
330
2
100
AcDbEntity
  8
GAIKEI
  6
Continuous
 62
     1
100
AcDbLine
 10
-18.38010763735008
 20
2.756370651523582
 30
0.0
 11
-21.68009571608263
 21
2.756370651555982
 31
0.0
  0
LINE
  5
C1
330
2
100
AcDbEntity
  8
GAIKEI
  6
Continuous
 62
     1
100
AcDbLine
 10
-25.58010763735012
 20
1.51641188416238
 30
0.0
 11
-25.58010763735012
 21
2.756370651523582
 31
0.0
  0
LINE
  5
C2
330
2
100
AcDbEntity
  8
GAIKEI
  6
Continuous
 62
     1
100
AcDbLine
 10
-18.38010763735008
 20
1.51641188416238
 30
0.0
 11
-18.38010763735008
 21
2.756370651523582
 31
0.0
  0
LINE
  5
C3
330
2
100
AcDbEntity
  8
GAIKEI
  6
Continuous
 62
     1
100
AcDbLine
 10
-18.38010763735008
 20
-0.9835881158380175
 30
0.0
 11
-18.38010763735008
 21
0.2563706515231843
 31
0.0
  0
LINE
  5
C4
330
2
100
AcDbEntity
  8
GAIKEI
  6
Continuous
 62
     1
100
AcDbLine
 10
-25.58010763735012
 20
-0.9835881158380175
 30
0.0
 11
-25.58010763735012
 21
0.2563706515231843
 31
0.0
  0
LINE
  5
C5
330
2
100
AcDbEntity
  8
GAIKEI
  6
Continuous
 62
     1
100
AcDbLine
 10
-18.38010763735008
 20
0.2563706515231843
 30
0.0
 11
-21.68009571608263
 21
0.2563706515555282
 31
0.0
  0
LINE
  5
C6
330
2
100
AcDbEntity
  8
GAIKEI
  6
Continuous
 62
     1
100
AcDbLine
 10
-21.68009571608263
 20
-0.9835881158380175
 30
0.0
 11
-18.38010763735008
 21
-0.9835881158380175
 31
0.0
  0
LINE
  5
C7
330
2
100
AcDbEntity
  8
GAIKEI
  6
Continuous
 62
     1
100
AcDbLine
 10
-21.68009571608263
 20
0.2563706515555282
 30
0.0
 11
-21.68009571608263
 21
-0.9835881158380175
 31
0.0
  0
LINE
  5
C8
330
2
100
AcDbEntity
  8
GAIKEI
  6
Continuous
 62
     1
100
AcDbLine
 10
-21.9801205586175
 20
-0.9835881158380175
 30
0.0
 11
-25.28010863735005
 21
-0.9835881158380175
 31
0.0
  0
LINE
  5
C9
330
2
100
AcDbEntity
  8
GAIKEI
  6
Continuous
 62
     1
100
AcDbLine
 10
-21.98012055861727
 20
0.2563706515231843
 30
0.0
 11
-25.28010863735005
 21
0.2563706515555282
 31
0.0
  0
LINE
  5
CA
330
2
100
AcDbEntity
  8
GAIKEI
  6
Continuous
 62
     1
100
AcDbLine
 10
-25.28010863735005
 20
0.2563706515555282
 30
0.0
 11
-25.28010863735005
 21
-0.9835881158380175
 31
0.0
  0
LINE
  5
CB
330
2
100
AcDbEntity
  8
GAIKEI
  6
Continuous
 62
     1
100
AcDbLine
 10
-21.9801205586175
 20
-0.9835881158380175
 30
0.0
 11
-21.98012055861727
 21
0.2563706515231843
 31
0.0
  0
LINE
  5
CC
330
2
100
AcDbEntity
  8
GAIKEI
  6
Continuous
 62
     1
100
AcDbLine
 10
-25.58010763735012
 20
0.2563706515231843
 30
0.0
 11
-28.88009571608268
 21
0.2565618543382016
 31
0.0
  0
LINE
  5
CD
330
2
100
AcDbEntity
  8
GAIKEI
  6
Continuous
 62
     1
100
AcDbLine
 10
-28.88009571608268
 20
-0.9809374992240122
 30
0.0
 11
-25.58010763735012
 21
-0.9835881158380175
 31
0.0
  0
LINE
  5
CE
330
2
100
AcDbEntity
  8
GAIKEI
  6
Continuous
 62
     1
100
AcDbLine
 10
-28.88009571608268
 20
0.2565618543382016
 30
0.0
 11
-28.88009571608268
 21
-0.9809374992240122
 31
0.0
  0
LINE
  5
CF
330
2
100
AcDbEntity
  8
GAIKEI
  6
Continuous
 62
     1
100
AcDbLine
 10
-28.88009571608268
 20
-2.243438145659467
 30
0.0
 11
-28.88009571608268
 21
-3.480937499221624
 31
0.0
  0
LINE
  5
D0
330
2
100
AcDbEntity
  8
GAIKEI
  6
Continuous
 62
     1
100
AcDbLine
 10
-28.88009571608268
 20
-3.480937499221624
 30
0.0
 11
-25.58010763735012
 21
-3.48358811583563
 31
0.0
  0
LINE
  5
D1
330
2
100
AcDbEntity
  8
GAIKEI
  6
Continuous
 62
     1
100
AcDbLine
 10
-25.58010763735012
 20
-2.243629348474428
 30
0.0
 11
-28.88009571608268
 21
-2.243438145659467
 31
0.0
  0
LINE
  5
D2
330
2
100
AcDbEntity
  8
GAIKEI
  6
Continuous
 62
     1
100
AcDbLine
 10
-21.9801205586175
 20
-3.48358811583563
 30
0.0
 11
-21.98012055861727
 21
-2.243629348474428
 31
0.0
  0
LINE
  5
D3
330
2
100
AcDbEntity
  8
GAIKEI
  6
Continuous
 62
     1
100
AcDbLine
 10
-25.28010863735005
 20
-2.243629348442027
 30
0.0
 11
-25.28010863735005
 21
-3.48358811583563
 31
0.0
  0
LINE
  5
D4
330
2
100
AcDbEntity
  8
GAIKEI
  6
Continuous
 62
     1
100
AcDbLine
 10
-21.98012055861727
 20
-2.243629348474428
 30
0.0
 11
-25.28010863735005
 21
-2.243629348442027
 31
0.0
  0
LINE
  5
D5
330
2
100
AcDbEntity
  8
GAIKEI
  6
Continuous
 62
     1
100
AcDbLine
 10
-21.9801205586175
 20
-3.48358811583563
 30
0.0
 11
-25.28010863735005
 21
-3.48358811583563
 31
0.0
  0
LINE
  5
D6
330
2
100
AcDbEntity
  8
GAIKEI
  6
Continuous
 62
     1
100
AcDbLine
 10
-21.68009571608263
 20
-2.243629348442027
 30
0.0
 11
-21.68009571608263
 21
-3.48358811583563
 31
0.0
  0
LINE
  5
D7
330
2
100
AcDbEntity
  8
GAIKEI
  6
Continuous
 62
     1
100
AcDbLine
 10
-21.68009571608263
 20
-3.48358811583563
 30
0.0
 11
-18.38010763735008
 21
-3.48358811583563
 31
0.0
  0
LINE
  5
D8
330
2
100
AcDbEntity
  8
GAIKEI
  6
Continuous
 62
     1
100
AcDbLine
 10
-18.38010763735008
 20
-2.243629348474428
 30
0.0
 11
-21.68009571608263
 21
-2.243629348442027
 31
0.0
  0
LINE
  5
D9
330
2
100
AcDbEntity
  8
GAIKEI
  6
Continuous
 62
     1
100
AcDbLine
 10
-25.58010763735012
 20
-3.48358811583563
 30
0.0
 11
-25.58010763735012
 21
-2.243629348474428
 31
0.0
  0
LINE
  5
DA
330
2
100
AcDbEntity
  8
GAIKEI
  6
Continuous
 62
     1
100
AcDbLine
 10
-18.38010763735008
 20
-3.48358811583563
 30
0.0
 11
-18.38010763735008
 21
-2.243629348474428
 31
0.0
  0
ARC
  5
DB
330
2
100
AcDbEntity
  8
GAIKEI
  6
Continuous
100
AcDbCircle
 10
-13.43504054296807
 20
31.82059937796442
 30
0.0
 40
0.2
100
AcDbArc
 50
0.0
 51
90.0
  0
ARC
  5
DC
330
2
100
AcDbEntity
  8
GAIKEI
  6
Continuous
100
AcDbCircle
 10
-37.43504054296807
 20
31.82059937796442
 30
0.0
 40
0.2
100
AcDbArc
 50
90.0
 51
180.0
  0
SPLINE
  5
DD
330
2
100
AcDbEntity
  8
GAIKEI
  6
Continuous
100
AcDbSpline
210
0.0
220
0.0
230
1.0
 70
     8
 71
     3
 72
    17
 73
    13
 74
    11
 42
0.0000000001
 43
0.0000000001
 44
0.00000001
 40
0.0
 40
0.0
 40
0.0
 40
0.0
 40
0.0252478493385011
 40
0.0504402282948412
 40
0.0670046899939115
 40
0.0835633587395938
 40
0.1000166615386546
 40
0.1164703533644303
 40
0.1329325390025291
 40
0.1494004246139635
 40
0.1738422722888884
 40
0.1983350258874509
 40
0.1983350258874509
 40
0.1983350258874509
 40
0.1983350258874509
 10
-13.26804699110812
 20
-10.88808198823557
 30
0.0
 10
-13.27288425299264
 20
-10.8949819920482
 30
0.0
 10
-13.28254816090944
 20
-10.9087668314001
 30
0.0
 10
-13.29816593082085
 20
-10.92486335106392
 30
0.0
 10
-13.31296595719544
 20
-10.93748357030676
 30
0.0
 10
-13.32642323750983
 20
-10.9471123568172
 30
0.0
 10
-13.34058757344212
 20
-10.95558824649728
 30
0.0
 10
-13.35537919069577
 20
-10.96284218815688
 30
0.0
 10
-13.37072361846592
 20
-10.96886213733958
 30
0.0
 10
-13.38906965179561
 20
-10.97430334455183
 30
0.0
 10
-13.41054939691022
 20
-10.97852294504696
 30
0.0
 10
-13.42687116754769
 20
-10.97910786508853
 30
0.0
 10
-13.43504054296807
 20
-10.97940062203559
 30
0.0
 11
-13.26804699110812
 21
-10.88808198823557
 31
0.0
 11
-13.28308316720006
 21
-10.90836418100792
 31
0.0
 11
-13.30049169093195
 21
-10.92657404978377
 31
0.0
 11
-13.3131136516015
 21
-10.93730100295164
 31
0.0
 11
-13.32657560315181
 21
-10.94694285934775
 31
0.0
 11
-13.34069658679948
 21
-10.9553873260096
 31
0.0
 11
-13.35546798285406
 21
-10.9626350744241
 31
0.0
 11
-13.37079636891735
 21
-10.96863875340551
 31
0.0
 11
-13.38657712776569
 21
-10.97334608094041
 31
0.0
 11
-13.41059516491646
 21
-10.9778779541341
 31
0.0
 11
-13.43504054296807
 21
-10.97940062203559
 31
0.0
  0
SPLINE
  5
DE
330
2
100
AcDbEntity
  8
GAIKEI
  6
Continuous
100
AcDbSpline
210
0.0
220
0.0
230
1.0
 70
     8
 71
     3
 72
    13
 73
     9
 74
     7
 42
0.0000000001
 43
0.0000000001
 44
0.00000001
 40
0.0
 40
0.0
 40
0.0
 40
0.0
 40
0.0222938573350127
 40
0.0445507883048278
 40
0.0593812158204211
 40
0.0742114936758967
 40
0.0961311608981405
 40
0.1180860367810691
 40
0.1180860367810691
 40
0.1180860367810691
 40
0.1180860367810691
 10
-13.23504054296813
 20
-10.77634302575558
 30
0.0
 10
-13.23527200147401
 20
-10.78377791788284
 30
0.0
 10
-13.2357345497862
 20
-10.79863538656957
 30
0.0
 10
-13.23907160089709
 20
-10.81820753723715
 30
0.0
 10
-13.24336721840751
 20
-10.83498236848987
 30
0.0
 10
-13.2488827190684
 20
-10.85127802366059
 30
0.0
 10
-13.25666703710442
 20
-10.86929575988111
 30
0.0
 10
-13.26425164002577
 20
-10.88181656530494
 30
0.0
 10
-13.26804699112813
 20
-10.88808198823557
 30
0.0
 11
-13.23504054296813
 21
-10.77634302575558
 31
0.0
 11
-13.23624603847611
 21
-10.79860426741515
 31
0.0
 11
-13.23984345694293
 21
-10.8205685476102
 31
0.0
 11
-13.24354660457709
 21
-10.83492919863857
 31
0.0
 11
-13.24827827144929
 21
-10.84898439305601
 31
0.0
 11
-13.2571033494653
 21
-10.86904903501221
 31
0.0
 11
-13.26804699112813
 21
-10.88808198823557
 31
0.0
  0
SPLINE
  5
DF
330
2
100
AcDbEntity
  8
GAIKEI
  6
Continuous
100
AcDbSpline
210
0.0
220
0.0
230
1.0
 70
    24
 71
     3
 72
     9
 73
     5
 74
     3
 42
0.0000000001
 43
0.0000000001
 44
0.00000001
 40
0.0
 40
0.0
 40
0.0
 40
0.0
 40
0.0044540276345274
 40
0.0089080552691086
 40
0.0089080552691086
 40
0.0089080552691086
 40
0.0089080552691086
 10
-37.63504054296812
 20
31.81164564810439
 30
0.0
 10
-37.63500049319808
 20
31.81312978370437
 30
0.0
 10
-37.63492039365801
 20
31.81609805490444
 30
0.0
 10
-37.63484029411805
 20
31.81906632610435
 30
0.0
 10
-37.63480024434807
 20
31.82055046170439
 30
0.0
 11
-37.63504054296812
 21
31.81164564810439
 31
0.0
 11
-37.63492039365804
 21
31.81609805490439
 31
0.0
 11
-37.63480024434807
 21
31.82055046170439
 31
0.0
  0
TEXT
  5
E0
330
2
100
AcDbEntity
  8
MOJI1
100
AcDbText
 10
-22.91653491937911
 20
-24.39827745694532
 30
0.0
 40
3.0
  1
幅　約１２２×奥行き　約２１５×高さ　約７１ｍｍ
 41
0.9
100
AcDbText
  0
TEXT
  5
E1
330
2
100
AcDbEntity
  8
MOJI1
100
AcDbText
 10
-62.91653491937911
 20
-24.39827745694532
 30
0.0
 40
3.0
  1
外形寸法
100
AcDbText
  0
LINE
  5
E2
330
2
100
AcDbEntity
  8
WAKU
 62
     1
100
AcDbLine
 10
-65.41653491937911
 20
-25.14827745694555
 30
0.0
 11
59.58346508062089
 21
-25.14827745694555
 31
0.0
  0
LINE
  5
E4
330
2
100
AcDbEntity
  8
WAKU
 62
     4
100
AcDbLine
 10
59.58346508062089
 20
-20.14827745694555
 30
0.0
 11
-65.41653491937911
 21
-20.14827745694555
 31
0.0
  0
LINE
  5
E5
330
2
100
AcDbEntity
  8
WAKU
 62
     1
100
AcDbLine
 10
-65.41653491937911
 20
-30.14827745694555
 30
0.0
 11
59.58346508062089
 21
-30.14827745694555
 31
0.0
  0
LINE
  5
E6
330
2
100
AcDbEntity
  8
WAKU
 62
     1
100
AcDbLine
 10
-65.41653491937911
 20
-35.14827745694555
 30
0.0
 11
59.58346508062089
 21
-35.14827745694555
 31
0.0
  0
LINE
  5
E7
330
2
100
AcDbEntity
  8
WAKU
 62
     1
100
AcDbLine
 10
-65.41653491937911
 20
-40.14827745694555
 30
0.0
 11
59.58346508062089
 21
-40.14827745694555
 31
0.0
  0
LINE
  5
E8
330
2
100
AcDbEntity
  8
WAKU
 62
     1
100
AcDbLine
 10
-65.41653491937911
 20
-45.14827745694555
 30
0.0
 11
59.58346508062089
 21
-45.14827745694555
 31
0.0
  0
LINE
  5
E9
330
2
100
AcDbEntity
  8
WAKU
 62
     1
100
AcDbLine
 10
-65.41653491937911
 20
-50.14827745694555
 30
0.0
 11
59.58346508062089
 21
-50.14827745694555
 31
0.0
  0
LINE
  5
EA
330
2
100
AcDbEntity
  8
WAKU
 62
     4
100
AcDbLine
 10
-65.41653491937911
 20
-55.14827745694555
 30
0.0
 11
59.58346508062089
 21
-55.14827745694555
 31
0.0
  0
LINE
  5
EB
330
2
100
AcDbEntity
  8
WAKU
 62
     4
100
AcDbLine
 10
-65.41653491937911
 20
-20.14827745694555
 30
0.0
 11
-65.41653491937911
 21
-55.14827745694555
 31
0.0
  0
LINE
  5
EC
330
2
100
AcDbEntity
  8
WAKU
 62
     4
100
AcDbLine
 10
-25.41653491937911
 20
-55.14827745694555
 30
0.0
 11
-25.41653491937911
 21
-20.14827745694555
 31
0.0
  0
LINE
  5
ED
330
2
100
AcDbEntity
  8
WAKU
 62
     4
100
AcDbLine
 10
59.58346508062089
 20
-55.14827745694555
 30
0.0
 11
59.58346508062089
 21
-20.14827745694555
 31
0.0
  0
TEXT
  5
EE
330
2
100
AcDbEntity
  8
MOJI1
100
AcDbText
 10
-62.91653491937911
 20
-29.39827745694532
 30
0.0
 40
3.0
  1
質　量
100
AcDbText
  0
TEXT
  5
EF
330
2
100
AcDbEntity
  8
MOJI1
100
AcDbText
 10
-22.91653491937911
 20
-29.39827745694532
 30
0.0
 40
3.0
  1
約８０２ｇ
100
AcDbText
  0
TEXT
  5
F0
330
2
100
AcDbEntity
  8
MOJI1
100
AcDbText
 10
-22.91653491937911
 20
-34.39827745694532
 30
0.0
 40
3.0
  1
－Ｗ：ホワイト、－Ｋ：ブラック
100
AcDbText
  0
TEXT
  5
F1
330
2
100
AcDbEntity
  8
MOJI1
100
AcDbText
 10
-62.91653491937911
 20
-34.39827745694532
 30
0.0
 40
3.0
  1
外観色調
100
AcDbText
  0
ARC
  5
F2
330
2
100
AcDbEntity
  8
GAIKEI
100
AcDbCircle
 10
-13.4365142504397
 20
-10.77792608502105
 30
0.0
 40
0.2014799267395518
100
AcDbArc
 50
270.4190887531754
 51
0.450186524156111
  0
ARC
  5
F3
330
2
100
AcDbEntity
  8
GAIKEI
 62
     1
100
AcDbCircle
 10
-14.53516627846849
 20
-5.16577439305405
 30
0.0
 40
0.3601257554514508
100
AcDbArc
 50
270.0200044388534
 51
0.0190718680054314
  0
LINE
  5
F4
330
2
100
AcDbEntity
  8
GAIKEI
 62
     1
100
AcDbLine
 10
-18.35095938798804
 20
-6.97733346623562
 30
0.0
 11
-18.35099038952808
 21
-8.462244395975631
 31
0.0
  0
LINE
  5
F5
330
2
100
AcDbEntity
  8
GAIKEI
 62
     1
100
AcDbLine
 10
-18.19224591660807
 20
-8.622576035275585
 30
0.0
 11
-15.75787095724806
 21
-8.622599101875607
 31
0.0
  0
LINE
  5
F6
330
2
100
AcDbEntity
  8
GAIKEI
 62
     1
100
AcDbLine
 10
-18.19090837160809
 20
-6.817018928915615
 30
0.0
 11
-15.75788552682809
 21
-6.817043723855647
 31
0.0
  0
LINE
  5
F7
330
2
100
AcDbEntity
  8
GAIKEI
 62
     1
100
AcDbLine
 10
-18.25406281780806
 20
-6.477393610235623
 30
0.0
 11
-15.75504054296812
 21
-6.477393610235594
 31
0.0
  0
LINE
  5
F8
330
2
100
AcDbEntity
  8
GAIKEI
 62
     1
100
AcDbLine
 10
-18.25619706766815
 20
-8.917393610235592
 30
0.0
 11
-15.755040543028
 21
-8.917393610235563
 31
0.0
  0
LINE
  5
F9
330
2
100
AcDbEntity
  8
GAIKEI
 62
     1
100
AcDbLine
 10
-18.67504054234814
 20
-8.497400879255621
 30
0.0
 11
-18.67504054246808
 21
-6.89735401415561
 31
0.0
  0
ARC
  5
FA
330
2
100
AcDbEntity
  8
GAIKEI
 62
     1
100
AcDbCircle
 10
-18.19062597526712
 20
-6.977352094025206
 30
0.0
 40
0.16033341380309
100
AcDbArc
 50
90.10091550144826
 51
179.9933432857067
  0
ARC
  5
FB
330
2
100
AcDbEntity
  8
GAIKEI
 62
     1
100
AcDbCircle
 10
-18.25435042037529
 20
-6.898084267822639
 30
0.0
 40
0.4206907558966439
100
AcDbArc
 50
89.96082995083888
 51
179.9005433955458
  0
ARC
  5
FC
330
2
100
AcDbEntity
  8
GAIKEI
 62
     1
100
AcDbCircle
 10
-18.19156183325492
 20
-8.463146395033874
 30
0.0
 40
0.1594311078730712
100
AcDbArc
 50
179.6758410854502
 51
269.7541558246598
  0
ARC
  5
FD
330
2
100
AcDbEntity
  8
GAIKEI
 62
     1
100
AcDbCircle
 10
-18.25585697254217
 20
-8.498209398660037
 30
0.0
 40
0.4191843495395561
100
AcDbArc
 50
179.8894882924384
 51
269.9535144441564
  0
ARC
  5
FE
330
2
100
AcDbEntity
  8
GAIKEI
 62
     1
100
AcDbCircle
 10
-15.76189288515937
 20
-7.719821445261061
 30
0.0
 40
0.9027866155335797
100
AcDbArc
 50
270.2552544013472
 51
89.74567027308287
  0
ARC
  5
FF
330
2
100
AcDbEntity
  8
GAIKEI
 62
     1
100
AcDbCircle
 10
-15.75505179206021
 20
-7.697393610235621
 30
0.0
 40
1.220000000051802
100
AcDbArc
 50
270.0005282967782
 51
89.99947170228349
  0
ARC
  5
100
330
2
100
AcDbEntity
  8
GAIKEI
 62
     1
100
AcDbCircle
 10
-22.07502929328095
 20
-7.697393610235621
 30
0.0
 40
1.220000000051802
100
AcDbArc
 50
90.00052829771652
 51
269.9994717032218
  0
ARC
  5
101
330
2
100
AcDbEntity
  8
GAIKEI
 62
     1
100
AcDbCircle
 10
-22.06818820018179
 20
-7.719821445261061
 30
0.0
 40
0.9027866155335797
100
AcDbArc
 50
90.2543297269171
 51
269.7447455986528
  0
ARC
  5
102
330
2
100
AcDbEntity
  8
GAIKEI
 62
     1
100
AcDbCircle
 10
-19.57422411279899
 20
-8.498209398660037
 30
0.0
 40
0.4191843495395561
100
AcDbArc
 50
270.0464855558436
 51
0.1105117075615225
  0
ARC
  5
103
330
2
100
AcDbEntity
  8
GAIKEI
 62
     1
100
AcDbCircle
 10
-19.63851925208624
 20
-8.463146395033874
 30
0.0
 40
0.1594311078730712
100
AcDbArc
 50
270.2458441753402
 51
0.3241589145498132
  0
ARC
  5
104
330
2
100
AcDbEntity
  8
GAIKEI
 62
     1
100
AcDbCircle
 10
-19.57573066496587
 20
-6.898084267822639
 30
0.0
 40
0.4206907558966439
100
AcDbArc
 50
0.0994566044541757
 51
90.03917004916113
  0
ARC
  5
105
330
2
100
AcDbEntity
  8
GAIKEI
 62
     1
100
AcDbCircle
 10
-19.63945511007404
 20
-6.977352094025206
 30
0.0
 40
0.16033341380309
100
AcDbArc
 50
0.0066567142933112
 51
89.89908449855175
  0
LINE
  5
106
330
2
100
AcDbEntity
  8
GAIKEI
 62
     1
100
AcDbLine
 10
-19.15504054299302
 20
-8.497400879255621
 30
0.0
 11
-19.15504054287308
 21
-6.89735401415561
 31
0.0
  0
LINE
  5
107
330
2
100
AcDbEntity
  8
GAIKEI
 62
     1
100
AcDbLine
 10
-19.57388401767301
 20
-8.917393610235592
 30
0.0
 11
-22.07504054231316
 21
-8.917393610235563
 31
0.0
  0
LINE
  5
108
330
2
100
AcDbEntity
  8
GAIKEI
 62
     1
100
AcDbLine
 10
-19.5760182675331
 20
-6.477393610235623
 30
0.0
 11
-22.07504054237305
 21
-6.477393610235594
 31
0.0
  0
LINE
  5
109
330
2
100
AcDbEntity
  8
GAIKEI
 62
     1
100
AcDbLine
 10
-19.63917271373307
 20
-6.817018928915615
 30
0.0
 11
-22.07219555851307
 21
-6.817043723855647
 31
0.0
  0
LINE
  5
10A
330
2
100
AcDbEntity
  8
GAIKEI
 62
     1
100
AcDbLine
 10
-19.63783516873309
 20
-8.622576035275585
 30
0.0
 11
-22.07221012809311
 21
-8.622599101875607
 31
0.0
  0
LINE
  5
10B
330
2
100
AcDbEntity
  8
GAIKEI
 62
     1
100
AcDbLine
 10
-19.47912169735312
 20
-6.97733346623562
 30
0.0
 11
-19.47909069581308
 21
-8.462244395975631
 31
0.0
  0
LINE
  5
10C
330
2
100
AcDbEntity
  8
GAIKEI
  6
Continuous
 62
     1
100
AcDbLine
 10
-14.78012055861742
 20
-3.483588115834947
 30
0.0
 11
-14.78012055861742
 21
-2.243629348473746
 31
0.0
  0
LINE
  5
10D
330
2
100
AcDbEntity
  8
GAIKEI
  6
Continuous
 62
     1
100
AcDbLine
 10
-14.78012055861742
 20
-2.243629348473746
 30
0.0
 11
-18.08010863734998
 21
-2.243629348441345
 31
0.0
  0
LINE
  5
10E
330
2
100
AcDbEntity
  8
GAIKEI
  6
Continuous
 62
     1
100
AcDbLine
 10
-18.08010863734998
 20
-3.483588115834947
 30
0.0
 11
-14.78012055861742
 21
-3.483588115834947
 31
0.0
  0
LINE
  5
10F
330
2
100
AcDbEntity
  8
GAIKEI
  6
Continuous
 62
     1
100
AcDbLine
 10
-18.08010863734998
 20
-2.243629348441345
 30
0.0
 11
-18.08010863734998
 21
-3.483588115834947
 31
0.0
  0
LINE
  5
110
330
2
100
AcDbEntity
  8
GAIKEI
  6
Continuous
 62
     1
100
AcDbLine
 10
-29.18012067267628
 20
-3.483588115869025
 30
0.0
 11
-29.18012067267628
 21
-2.243629348507823
 31
0.0
  0
LINE
  5
111
330
2
100
AcDbEntity
  8
GAIKEI
  6
Continuous
 62
     1
100
AcDbLine
 10
-29.18012067267628
 20
-2.243629348507823
 30
0.0
 11
-32.48010875140884
 21
-2.243438145692863
 31
0.0
  0
LINE
  5
112
330
2
100
AcDbEntity
  8
GAIKEI
  6
Continuous
 62
     1
100
AcDbLine
 10
-32.48010875140884
 20
-3.48093749925502
 30
0.0
 11
-29.18012067267628
 21
-3.483588115869025
 31
0.0
  0
LINE
  5
113
330
2
100
AcDbEntity
  8
GAIKEI
  6
Continuous
 62
     1
100
AcDbLine
 10
-32.48010875140884
 20
-2.243438145692863
 30
0.0
 11
-32.48010875140884
 21
-3.48093749925502
 31
0.0
  0
LINE
  5
114
330
2
100
AcDbEntity
  8
GAIKEI
  6
Continuous
 62
     1
100
AcDbLine
 10
-32.48010875140884
 20
0.256561854304806
 30
0.0
 11
-32.48010875140884
 21
-0.9809374992574078
 31
0.0
  0
LINE
  5
115
330
2
100
AcDbEntity
  8
GAIKEI
  6
Continuous
 62
     1
100
AcDbLine
 10
-32.48010875140884
 20
-0.9809374992574078
 30
0.0
 11
-29.18012067267628
 21
-0.983588115871413
 31
0.0
  0
LINE
  5
116
330
2
100
AcDbEntity
  8
GAIKEI
  6
Continuous
 62
     1
100
AcDbLine
 10
-29.18012067267628
 20
0.2563706514897888
 30
0.0
 11
-32.48010875140884
 21
0.256561854304806
 31
0.0
  0
LINE
  5
117
330
2
100
AcDbEntity
  8
GAIKEI
  6
Continuous
 62
     1
100
AcDbLine
 10
-29.18012067267628
 20
-0.983588115871413
 30
0.0
 11
-29.18012067267628
 21
0.2563706514897888
 31
0.0
  0
LINE
  5
118
330
2
100
AcDbEntity
  8
GAIKEI
  6
Continuous
 62
     1
100
AcDbLine
 10
-32.78010763734909
 20
-0.9835881158713846
 30
0.0
 11
-32.78010763734909
 21
0.2563706514898172
 31
0.0
  0
LINE
  5
119
330
2
100
AcDbEntity
  8
GAIKEI
  6
Continuous
 62
     1
100
AcDbLine
 10
-32.78010763734909
 20
0.2563706514898172
 30
0.0
 11
-36.08009571608164
 21
0.2565618543048345
 31
0.0
  0
LINE
  5
11A
330
2
100
AcDbEntity
  8
GAIKEI
  6
Continuous
 62
     1
100
AcDbLine
 10
-36.08009571608164
 20
-0.9809374992573793
 30
0.0
 11
-32.78010763734909
 21
-0.9835881158713846
 31
0.0
  0
LINE
  5
11B
330
2
100
AcDbEntity
  8
GAIKEI
  6
Continuous
 62
     1
100
AcDbLine
 10
-36.08009571608164
 20
0.2565618543048345
 30
0.0
 11
-36.08009571608164
 21
-0.9809374992573793
 31
0.0
  0
LINE
  5
11C
330
2
100
AcDbEntity
  8
GAIKEI
  6
Continuous
 62
     1
100
AcDbLine
 10
-36.08009571608164
 20
-2.243438145692834
 30
0.0
 11
-36.08009571608164
 21
-3.480937499254991
 31
0.0
  0
LINE
  5
11D
330
2
100
AcDbEntity
  8
GAIKEI
  6
Continuous
 62
     1
100
AcDbLine
 10
-36.08009571608164
 20
-3.480937499254991
 30
0.0
 11
-32.78010763734909
 21
-3.483588115868997
 31
0.0
  0
LINE
  5
11E
330
2
100
AcDbEntity
  8
GAIKEI
  6
Continuous
 62
     1
100
AcDbLine
 10
-32.78010763734909
 20
-2.243629348507795
 30
0.0
 11
-36.08009571608164
 21
-2.243438145692834
 31
0.0
  0
LINE
  5
11F
330
2
100
AcDbEntity
  8
GAIKEI
  6
Continuous
 62
     1
100
AcDbLine
 10
-32.78010763734909
 20
-3.483588115868997
 30
0.0
 11
-32.78010763734909
 21
-2.243629348507795
 31
0.0
  0
LINE
  5
120
330
2
100
AcDbEntity
  8
GAIKEI
  6
Continuous
 62
     1
100
AcDbLine
 10
-36.07808766723372
 20
2.75656024140008
 30
0.0
 11
-36.07808766723372
 21
1.519060887837866
 31
0.0
  0
LINE
  5
121
330
2
100
AcDbEntity
  8
GAIKEI
  6
Continuous
 62
     1
100
AcDbLine
 10
-36.07808766723372
 20
1.519060887837866
 30
0.0
 11
-32.77809958850117
 21
1.516410271223861
 31
0.0
  0
LINE
  5
122
330
2
100
AcDbEntity
  8
GAIKEI
  6
Continuous
 62
     1
100
AcDbLine
 10
-32.77809958850117
 20
2.756369038585063
 30
0.0
 11
-36.07808766723372
 21
2.75656024140008
 31
0.0
  0
LINE
  5
123
330
2
100
AcDbEntity
  8
GAIKEI
  6
Continuous
 62
     1
100
AcDbLine
 10
-32.77809958850117
 20
1.516410271223861
 30
0.0
 11
-32.77809958850117
 21
2.756369038585063
 31
0.0
  0
LINE
  5
124
330
2
100
AcDbEntity
  8
GAIKEI
  6
Continuous
 62
     1
100
AcDbLine
 10
-29.17811262382836
 20
1.516410271223833
 30
0.0
 11
-29.17811262382836
 21
2.756369038585035
 31
0.0
  0
LINE
  5
125
330
2
100
AcDbEntity
  8
GAIKEI
  6
Continuous
 62
     1
100
AcDbLine
 10
-29.17811262382836
 20
2.756369038585035
 30
0.0
 11
-32.47810070256091
 21
2.756560241400052
 31
0.0
  0
LINE
  5
126
330
2
100
AcDbEntity
  8
GAIKEI
  6
Continuous
 62
     1
100
AcDbLine
 10
-32.47810070256091
 20
1.519060887837838
 30
0.0
 11
-29.17811262382836
 21
1.516410271223833
 31
0.0
  0
LINE
  5
127
330
2
100
AcDbEntity
  8
GAIKEI
  6
Continuous
 62
     1
100
AcDbLine
 10
-32.47810070256091
 20
2.756560241400052
 30
0.0
 11
-32.47810070256091
 21
1.519060887837838
 31
0.0
  0
LINE
  5
128
330
2
100
AcDbEntity
  8
GAIKEI
  6
Continuous
 62
     1
100
AcDbLine
 10
-32.47609265371293
 20
5.256558628494957
 30
0.0
 11
-32.47609265371293
 21
4.019059274932743
 31
0.0
  0
LINE
  5
129
330
2
100
AcDbEntity
  8
GAIKEI
  6
Continuous
 62
     1
100
AcDbLine
 10
-32.47609265371293
 20
4.019059274932743
 30
0.0
 11
-29.17610457498037
 21
4.016408658318738
 31
0.0
  0
LINE
  5
12A
330
2
100
AcDbEntity
  8
GAIKEI
  6
Continuous
 62
     1
100
AcDbLine
 10
-29.17610457498037
 20
5.25636742567994
 30
0.0
 11
-32.47609265371293
 21
5.256558628494957
 31
0.0
  0
LINE
  5
12B
330
2
100
AcDbEntity
  8
GAIKEI
  6
Continuous
 62
     1
100
AcDbLine
 10
-29.17610457498037
 20
4.016408658318738
 30
0.0
 11
-29.17610457498037
 21
5.25636742567994
 31
0.0
  0
LINE
  5
12C
330
2
100
AcDbEntity
  8
GAIKEI
  6
Continuous
 62
     1
100
AcDbLine
 10
-32.77609153965318
 20
4.016408658318766
 30
0.0
 11
-32.77609153965318
 21
5.256367425679968
 31
0.0
  0
LINE
  5
12D
330
2
100
AcDbEntity
  8
GAIKEI
  6
Continuous
 62
     1
100
AcDbLine
 10
-32.77609153965318
 20
5.256367425679968
 30
0.0
 11
-36.07607961838573
 21
5.256558628494985
 31
0.0
  0
LINE
  5
12E
330
2
100
AcDbEntity
  8
GAIKEI
  6
Continuous
 62
     1
100
AcDbLine
 10
-36.07607961838573
 20
4.019059274932772
 30
0.0
 11
-32.77609153965318
 21
4.016408658318766
 31
0.0
  0
LINE
  5
12F
330
2
100
AcDbEntity
  8
GAIKEI
  6
Continuous
 62
     1
100
AcDbLine
 10
-36.07607961838573
 20
5.256558628494985
 30
0.0
 11
-36.07607961838573
 21
4.019059274932772
 31
0.0
  0
LINE
  5
130
330
2
100
AcDbEntity
  8
GAIKEI
  6
Continuous
 62
     1
100
AcDbLine
 10
-36.0700554718417
 20
12.75655378977964
 30
0.0
 11
-36.0700554718417
 21
11.51905443621743
 31
0.0
  0
LINE
  5
131
330
2
100
AcDbEntity
  8
GAIKEI
  6
Continuous
 62
     1
100
AcDbLine
 10
-36.0700554718417
 20
11.51905443621743
 30
0.0
 11
-32.77006739310915
 21
11.51640381960342
 31
0.0
  0
LINE
  5
132
330
2
100
AcDbEntity
  8
GAIKEI
  6
Continuous
 62
     1
100
AcDbLine
 10
-32.77006739310915
 20
12.75636258696463
 30
0.0
 11
-36.0700554718417
 21
12.75655378977964
 31
0.0
  0
LINE
  5
133
330
2
100
AcDbEntity
  8
GAIKEI
  6
Continuous
 62
     1
100
AcDbLine
 10
-32.77006739310915
 20
11.51640381960342
 30
0.0
 11
-32.77006739310915
 21
12.75636258696463
 31
0.0
  0
LINE
  5
134
330
2
100
AcDbEntity
  8
GAIKEI
  6
Continuous
 62
     1
100
AcDbLine
 10
-29.17008042843633
 20
11.5164038196034
 30
0.0
 11
-29.17008042843633
 21
12.7563625869646
 31
0.0
  0
LINE
  5
135
330
2
100
AcDbEntity
  8
GAIKEI
  6
Continuous
 62
     1
100
AcDbLine
 10
-29.17008042843633
 20
12.7563625869646
 30
0.0
 11
-32.47006850716889
 21
12.75655378977961
 31
0.0
  0
LINE
  5
136
330
2
100
AcDbEntity
  8
GAIKEI
  6
Continuous
 62
     1
100
AcDbLine
 10
-32.47006850716889
 20
11.5190544362174
 30
0.0
 11
-29.17008042843633
 21
11.5164038196034
 31
0.0
  0
LINE
  5
137
330
2
100
AcDbEntity
  8
GAIKEI
  6
Continuous
 62
     1
100
AcDbLine
 10
-32.47006850716889
 20
12.75655378977961
 30
0.0
 11
-32.47006850716889
 21
11.5190544362174
 31
0.0
  0
LINE
  5
138
330
2
100
AcDbEntity
  8
GAIKEI
  6
Continuous
 62
     1
100
AcDbLine
 10
-32.47207655601688
 20
10.25655540268471
 30
0.0
 11
-32.47207655601688
 21
9.019056049122497
 31
0.0
  0
LINE
  5
139
330
2
100
AcDbEntity
  8
GAIKEI
  6
Continuous
 62
     1
100
AcDbLine
 10
-32.47207655601688
 20
9.019056049122497
 30
0.0
 11
-29.17208847728432
 21
9.016405432508491
 31
0.0
  0
LINE
  5
13A
330
2
100
AcDbEntity
  8
GAIKEI
  6
Continuous
 62
     1
100
AcDbLine
 10
-29.17208847728432
 20
10.25636419986969
 30
0.0
 11
-32.47207655601688
 21
10.25655540268471
 31
0.0
  0
LINE
  5
13B
330
2
100
AcDbEntity
  8
GAIKEI
  6
Continuous
 62
     1
100
AcDbLine
 10
-29.17208847728432
 20
9.016405432508491
 30
0.0
 11
-29.17208847728432
 21
10.25636419986969
 31
0.0
  0
LINE
  5
13C
330
2
100
AcDbEntity
  8
GAIKEI
  6
Continuous
 62
     1
100
AcDbLine
 10
-32.77207544195713
 20
9.01640543250852
 30
0.0
 11
-32.77207544195713
 21
10.25636419986972
 31
0.0
  0
LINE
  5
13D
330
2
100
AcDbEntity
  8
GAIKEI
  6
Continuous
 62
     1
100
AcDbLine
 10
-32.77207544195713
 20
10.25636419986972
 30
0.0
 11
-36.07206352068968
 21
10.25655540268474
 31
0.0
  0
LINE
  5
13E
330
2
100
AcDbEntity
  8
GAIKEI
  6
Continuous
 62
     1
100
AcDbLine
 10
-36.07206352068968
 20
9.019056049122525
 30
0.0
 11
-32.77207544195713
 21
9.01640543250852
 31
0.0
  0
LINE
  5
13F
330
2
100
AcDbEntity
  8
GAIKEI
  6
Continuous
 62
     1
100
AcDbLine
 10
-36.07206352068968
 20
10.25655540268474
 30
0.0
 11
-36.07206352068968
 21
9.019056049122525
 31
0.0
  0
LINE
  5
140
330
2
100
AcDbEntity
  8
GAIKEI
  6
Continuous
 62
     1
100
AcDbLine
 10
-36.07407156953761
 20
7.756557015589493
 30
0.0
 11
-36.07407156953761
 21
6.519057662027279
 31
0.0
  0
LINE
  5
141
330
2
100
AcDbEntity
  8
GAIKEI
  6
Continuous
 62
     1
100
AcDbLine
 10
-36.07407156953761
 20
6.519057662027279
 30
0.0
 11
-32.77408349080506
 21
6.516407045413274
 31
0.0
  0
LINE
  5
142
330
2
100
AcDbEntity
  8
GAIKEI
  6
Continuous
 62
     1
100
AcDbLine
 10
-32.77408349080506
 20
7.756365812774475
 30
0.0
 11
-36.07407156953761
 21
7.756557015589493
 31
0.0
  0
LINE
  5
143
330
2
100
AcDbEntity
  8
GAIKEI
  6
Continuous
 62
     1
100
AcDbLine
 10
-32.77408349080506
 20
6.516407045413274
 30
0.0
 11
-32.77408349080506
 21
7.756365812774475
 31
0.0
  0
LINE
  5
144
330
2
100
AcDbEntity
  8
GAIKEI
  6
Continuous
 62
     1
100
AcDbLine
 10
-29.17409652613225
 20
6.516407045413245
 30
0.0
 11
-29.17409652613225
 21
7.756365812774447
 31
0.0
  0
LINE
  5
145
330
2
100
AcDbEntity
  8
GAIKEI
  6
Continuous
 62
     1
100
AcDbLine
 10
-29.17409652613225
 20
7.756365812774447
 30
0.0
 11
-32.4740846048648
 21
7.756557015589464
 31
0.0
  0
LINE
  5
146
330
2
100
AcDbEntity
  8
GAIKEI
  6
Continuous
 62
     1
100
AcDbLine
 10
-32.4740846048648
 20
6.51905766202725
 30
0.0
 11
-29.17409652613225
 21
6.516407045413245
 31
0.0
  0
LINE
  5
147
330
2
100
AcDbEntity
  8
GAIKEI
  6
Continuous
 62
     1
100
AcDbLine
 10
-32.4740846048648
 20
7.756557015589464
 30
0.0
 11
-32.4740846048648
 21
6.51905766202725
 31
0.0
  0
LINE
  5
148
330
2
100
AcDbEntity
  8
GAIKEI
  6
Continuous
 62
     1
100
AcDbLine
 10
-32.46404441596829
 20
20.25648004919776
 30
0.0
 11
-32.46404441596829
 21
19.01898069563555
 31
0.0
  0
LINE
  5
149
330
2
100
AcDbEntity
  8
GAIKEI
  6
Continuous
 62
     1
100
AcDbLine
 10
-32.46404441596829
 20
19.01898069563555
 30
0.0
 11
-29.16405633723574
 21
19.01633007902154
 31
0.0
  0
LINE
  5
14A
330
2
100
AcDbEntity
  8
GAIKEI
  6
Continuous
 62
     1
100
AcDbLine
 10
-29.16405633723574
 20
20.25628884638274
 30
0.0
 11
-32.46404441596829
 21
20.25648004919776
 31
0.0
  0
LINE
  5
14B
330
2
100
AcDbEntity
  8
GAIKEI
  6
Continuous
 62
     1
100
AcDbLine
 10
-29.16405633723574
 20
19.01633007902154
 30
0.0
 11
-29.16405633723574
 21
20.25628884638274
 31
0.0
  0
LINE
  5
14C
330
2
100
AcDbEntity
  8
GAIKEI
  6
Continuous
 62
     1
100
AcDbLine
 10
-32.76404330190854
 20
19.01633007902157
 30
0.0
 11
-32.76404330190854
 21
20.25628884638277
 31
0.0
  0
LINE
  5
14D
330
2
100
AcDbEntity
  8
GAIKEI
  6
Continuous
 62
     1
100
AcDbLine
 10
-32.76404330190854
 20
20.25628884638277
 30
0.0
 11
-36.0640313806411
 21
20.25648004919779
 31
0.0
  0
LINE
  5
14E
330
2
100
AcDbEntity
  8
GAIKEI
  6
Continuous
 62
     1
100
AcDbLine
 10
-36.0640313806411
 20
19.01898069563557
 30
0.0
 11
-32.76404330190854
 21
19.01633007902157
 31
0.0
  0
LINE
  5
14F
330
2
100
AcDbEntity
  8
GAIKEI
  6
Continuous
 62
     1
100
AcDbLine
 10
-36.0640313806411
 20
20.25648004919779
 30
0.0
 11
-36.0640313806411
 21
19.01898069563557
 31
0.0
  0
LINE
  5
150
330
2
100
AcDbEntity
  8
GAIKEI
  6
Continuous
 62
     1
100
AcDbLine
 10
-36.06202333179317
 20
22.75647843629304
 30
0.0
 11
-36.06202333179317
 21
21.51897908273082
 31
0.0
  0
LINE
  5
151
330
2
100
AcDbEntity
  8
GAIKEI
  6
Continuous
 62
     1
100
AcDbLine
 10
-36.06202333179317
 20
21.51897908273082
 30
0.0
 11
-32.76203525306062
 21
21.51632846611682
 31
0.0
  0
LINE
  5
152
330
2
100
AcDbEntity
  8
GAIKEI
  6
Continuous
 62
     1
100
AcDbLine
 10
-32.76203525306062
 20
22.75628723347802
 30
0.0
 11
-36.06202333179317
 21
22.75647843629304
 31
0.0
  0
LINE
  5
153
330
2
100
AcDbEntity
  8
GAIKEI
  6
Continuous
 62
     1
100
AcDbLine
 10
-32.76203525306062
 20
21.51632846611682
 30
0.0
 11
-32.76203525306062
 21
22.75628723347802
 31
0.0
  0
LINE
  5
154
330
2
100
AcDbEntity
  8
GAIKEI
  6
Continuous
 62
     1
100
AcDbLine
 10
-29.16204828838781
 20
21.51632846611679
 30
0.0
 11
-29.16204828838781
 21
22.75628723347799
 31
0.0
  0
LINE
  5
155
330
2
100
AcDbEntity
  8
GAIKEI
  6
Continuous
 62
     1
100
AcDbLine
 10
-29.16204828838781
 20
22.75628723347799
 30
0.0
 11
-32.46203636712036
 21
22.75647843629301
 31
0.0
  0
LINE
  5
156
330
2
100
AcDbEntity
  8
GAIKEI
  6
Continuous
 62
     1
100
AcDbLine
 10
-32.46203636712036
 20
21.51897908273079
 30
0.0
 11
-29.16204828838781
 21
21.51632846611679
 31
0.0
  0
LINE
  5
157
330
2
100
AcDbEntity
  8
GAIKEI
  6
Continuous
 62
     1
100
AcDbLine
 10
-32.46203636712036
 20
22.75647843629301
 30
0.0
 11
-32.46203636712036
 21
21.51897908273079
 31
0.0
  0
LINE
  5
158
330
2
100
AcDbEntity
  8
GAIKEI
  6
Continuous
 62
     1
100
AcDbLine
 10
-36.06603942948922
 20
17.75648166210328
 30
0.0
 11
-36.06603942948922
 21
16.51898230854107
 31
0.0
  0
LINE
  5
159
330
2
100
AcDbEntity
  8
GAIKEI
  6
Continuous
 62
     1
100
AcDbLine
 10
-36.06603942948922
 20
16.51898230854107
 30
0.0
 11
-32.76605135075667
 21
16.51633169192706
 31
0.0
  0
LINE
  5
15A
330
2
100
AcDbEntity
  8
GAIKEI
  6
Continuous
 62
     1
100
AcDbLine
 10
-32.76605135075667
 20
17.75629045928826
 30
0.0
 11
-36.06603942948922
 21
17.75648166210328
 31
0.0
  0
LINE
  5
15B
330
2
100
AcDbEntity
  8
GAIKEI
  6
Continuous
 62
     1
100
AcDbLine
 10
-32.76605135075667
 20
16.51633169192706
 30
0.0
 11
-32.76605135075667
 21
17.75629045928826
 31
0.0
  0
LINE
  5
15C
330
2
100
AcDbEntity
  8
GAIKEI
  6
Continuous
 62
     1
100
AcDbLine
 10
-29.16606438608386
 20
16.51633169192703
 30
0.0
 11
-29.16606438608386
 21
17.75629045928823
 31
0.0
  0
LINE
  5
15D
330
2
100
AcDbEntity
  8
GAIKEI
  6
Continuous
 62
     1
100
AcDbLine
 10
-29.16606438608386
 20
17.75629045928823
 30
0.0
 11
-32.46605246481641
 21
17.75648166210325
 31
0.0
  0
LINE
  5
15E
330
2
100
AcDbEntity
  8
GAIKEI
  6
Continuous
 62
     1
100
AcDbLine
 10
-32.46605246481641
 20
16.51898230854104
 30
0.0
 11
-29.16606438608386
 21
16.51633169192703
 31
0.0
  0
LINE
  5
15F
330
2
100
AcDbEntity
  8
GAIKEI
  6
Continuous
 62
     1
100
AcDbLine
 10
-32.46605246481641
 20
17.75648166210325
 30
0.0
 11
-32.46605246481641
 21
16.51898230854104
 31
0.0
  0
LINE
  5
160
330
2
100
AcDbEntity
  8
GAIKEI
  6
Continuous
 62
     1
100
AcDbLine
 10
-32.4680605136644
 20
15.25648327500835
 30
0.0
 11
-32.4680605136644
 21
14.01898392144613
 31
0.0
  0
LINE
  5
161
330
2
100
AcDbEntity
  8
GAIKEI
  6
Continuous
 62
     1
100
AcDbLine
 10
-32.4680605136644
 20
14.01898392144613
 30
0.0
 11
-29.16807243493185
 21
14.01633330483213
 31
0.0
  0
LINE
  5
162
330
2
100
AcDbEntity
  8
GAIKEI
  6
Continuous
 62
     1
100
AcDbLine
 10
-29.16807243493185
 20
15.25629207219333
 30
0.0
 11
-32.4680605136644
 21
15.25648327500835
 31
0.0
  0
LINE
  5
163
330
2
100
AcDbEntity
  8
GAIKEI
  6
Continuous
 62
     1
100
AcDbLine
 10
-29.16807243493185
 20
14.01633330483213
 30
0.0
 11
-29.16807243493185
 21
15.25629207219333
 31
0.0
  0
LINE
  5
164
330
2
100
AcDbEntity
  8
GAIKEI
  6
Continuous
 62
     1
100
AcDbLine
 10
-32.76805939960465
 20
14.01633330483216
 30
0.0
 11
-32.76805939960465
 21
15.25629207219336
 31
0.0
  0
LINE
  5
165
330
2
100
AcDbEntity
  8
GAIKEI
  6
Continuous
 62
     1
100
AcDbLine
 10
-32.76805939960465
 20
15.25629207219336
 30
0.0
 11
-36.06804747833721
 21
15.25648327500838
 31
0.0
  0
LINE
  5
166
330
2
100
AcDbEntity
  8
GAIKEI
  6
Continuous
 62
     1
100
AcDbLine
 10
-36.06804747833721
 20
14.01898392144616
 30
0.0
 11
-32.76805939960465
 21
14.01633330483216
 31
0.0
  0
LINE
  5
167
330
2
100
AcDbEntity
  8
GAIKEI
  6
Continuous
 62
     1
100
AcDbLine
 10
-36.06804747833721
 20
15.25648327500838
 30
0.0
 11
-36.06804747833721
 21
14.01898392144616
 31
0.0
  0
LINE
  5
168
330
2
100
AcDbEntity
  8
GAIKEI
  6
Continuous
 62
     1
100
AcDbLine
 10
-32.46002829060089
 20
25.2565112743188
 30
0.0
 11
-32.46002829060089
 21
24.01901192075658
 31
0.0
  0
LINE
  5
169
330
2
100
AcDbEntity
  8
GAIKEI
  6
Continuous
 62
     1
100
AcDbLine
 10
-32.46002829060089
 20
24.01901192075658
 30
0.0
 11
-29.16004021186834
 21
24.01636130414258
 31
0.0
  0
LINE
  5
16A
330
2
100
AcDbEntity
  8
GAIKEI
  6
Continuous
 62
     1
100
AcDbLine
 10
-29.16004021186834
 20
25.25632007150378
 30
0.0
 11
-32.46002829060089
 21
25.2565112743188
 31
0.0
  0
LINE
  5
16B
330
2
100
AcDbEntity
  8
GAIKEI
  6
Continuous
 62
     1
100
AcDbLine
 10
-29.16004021186834
 20
24.01636130414258
 30
0.0
 11
-29.16004021186834
 21
25.25632007150378
 31
0.0
  0
LINE
  5
16C
330
2
100
AcDbEntity
  8
GAIKEI
  6
Continuous
 62
     1
100
AcDbLine
 10
-32.76002717654114
 20
24.01636130414261
 30
0.0
 11
-32.76002717654114
 21
25.25632007150381
 31
0.0
  0
LINE
  5
16D
330
2
100
AcDbEntity
  8
GAIKEI
  6
Continuous
 62
     1
100
AcDbLine
 10
-32.76002717654114
 20
25.25632007150381
 30
0.0
 11
-36.0600152552737
 21
25.25651127431883
 31
0.0
  0
LINE
  5
16E
330
2
100
AcDbEntity
  8
GAIKEI
  6
Continuous
 62
     1
100
AcDbLine
 10
-36.0600152552737
 20
24.01901192075661
 30
0.0
 11
-32.76002717654114
 21
24.01636130414261
 31
0.0
  0
LINE
  5
16F
330
2
100
AcDbEntity
  8
GAIKEI
  6
Continuous
 62
     1
100
AcDbLine
 10
-36.0600152552737
 20
25.25651127431883
 30
0.0
 11
-36.0600152552737
 21
24.01901192075661
 31
0.0
  0
ARC
  5
170
330
2
100
AcDbEntity
  8
GAIKEI
100
AcDbCircle
 10
-37.43356683549641
 20
-10.77792608502105
 30
0.0
 40
0.2014799267395518
100
AcDbArc
 50
179.5498134758439
 51
269.5809112468245
  0
SPLINE
  5
171
330
2
100
AcDbEntity
  8
GAIKEI
  6
Continuous
100
AcDbSpline
210
0.0
220
0.0
230
1.0
 70
     8
 71
     3
 72
    13
 73
     9
 74
     7
 42
0.0000000001
 43
0.0000000001
 44
0.00000001
 40
0.0
 40
0.0
 40
0.0
 40
0.0
 40
0.0222938573350127
 40
0.0445507883048278
 40
0.0593812158204211
 40
0.0742114936758967
 40
0.0961311608981405
 40
0.1180860367810691
 40
0.1180860367810691
 40
0.1180860367810691
 40
0.1180860367810691
 10
-37.63504054296797
 20
-10.77634302575558
 30
0.0
 10
-37.63480908446209
 20
-10.78377791788284
 30
0.0
 10
-37.63434653614996
 20
-10.79863538656957
 30
0.0
 10
-37.63100948503902
 20
-10.81820753723715
 30
0.0
 10
-37.62671386752854
 20
-10.83498236848987
 30
0.0
 10
-37.62119836686776
 20
-10.85127802366059
 30
0.0
 10
-37.61341404883172
 20
-10.86929575988111
 30
0.0
 10
-37.60582944591027
 20
-10.88181656530494
 30
0.0
 10
-37.60203409480798
 20
-10.88808198823557
 30
0.0
 11
-37.63504054296797
 21
-10.77634302575558
 31
0.0
 11
-37.63383504746
 21
-10.79860426741515
 31
0.0
 11
-37.63023762899317
 21
-10.8205685476102
 31
0.0
 11
-37.62653448135902
 21
-10.83492919863857
 31
0.0
 11
-37.62180281448681
 21
-10.84898439305601
 31
0.0
 11
-37.61297773647081
 21
-10.86904903501221
 31
0.0
 11
-37.60203409480798
 21
-10.88808198823557
 31
0.0
  0
SPLINE
  5
172
330
2
100
AcDbEntity
  8
GAIKEI
  6
Continuous
100
AcDbSpline
210
0.0
220
0.0
230
1.0
 70
     8
 71
     3
 72
    17
 73
    13
 74
    11
 42
0.0000000001
 43
0.0000000001
 44
0.00000001
 40
0.0
 40
0.0
 40
0.0
 40
0.0
 40
0.0252478493385011
 40
0.0504402282948412
 40
0.0670046899939115
 40
0.0835633587395938
 40
0.1000166615386546
 40
0.1164703533644303
 40
0.1329325390025291
 40
0.1494004246139635
 40
0.1738422722888884
 40
0.1983350258874509
 40
0.1983350258874509
 40
0.1983350258874509
 40
0.1983350258874509
 10
-37.60203409482798
 20
-10.88808198823557
 30
0.0
 10
-37.59719683294341
 20
-10.8949819920482
 30
0.0
 10
-37.58753292502675
 20
-10.9087668314001
 30
0.0
 10
-37.57191515511514
 20
-10.92486335106392
 30
0.0
 10
-37.55711512874069
 20
-10.93748357030676
 30
0.0
 10
-37.54365784842628
 20
-10.9471123568172
 30
0.0
 10
-37.52949351249396
 20
-10.95558824649728
 30
0.0
 10
-37.51470189524042
 20
-10.96284218815688
 30
0.0
 10
-37.49935746747011
 20
-10.96886213733958
 30
0.0
 10
-37.48101143414061
 20
-10.97430334455183
 30
0.0
 10
-37.45953168902577
 20
-10.97852294504696
 30
0.0
 10
-37.44320991838836
 20
-10.97910786508853
 30
0.0
 10
-37.43504054296804
 20
-10.97940062203559
 30
0.0
 11
-37.60203409482798
 21
-10.88808198823557
 31
0.0
 11
-37.58699791873605
 21
-10.90836418100792
 31
0.0
 11
-37.56958939500416
 21
-10.92657404978377
 31
0.0
 11
-37.55696743433461
 21
-10.93730100295164
 31
0.0
 11
-37.5435054827843
 21
-10.94694285934775
 31
0.0
 11
-37.52938449913663
 21
-10.9553873260096
 31
0.0
 11
-37.51461310308204
 21
-10.9626350744241
 31
0.0
 11
-37.49928471701875
 21
-10.96863875340551
 31
0.0
 11
-37.48350395817042
 21
-10.97334608094041
 31
0.0
 11
-37.45948592101965
 21
-10.9778779541341
 31
0.0
 11
-37.43504054296804
 21
-10.97940062203559
 31
0.0
  0
ARC
  5
173
330
2
100
AcDbEntity
  8
GAIKEI
 62
     1
100
AcDbCircle
 10
-36.33491480746761
 20
-5.16577439305405
 30
0.0
 40
0.3601257554514508
100
AcDbArc
 50
179.9809281319945
 51
269.9799955611466
  0
ARC
  5
174
330
2
100
AcDbEntity
  8
GAIKEI
 62
     1
100
AcDbCircle
 10
-14.53516627846849
 20
25.38970542094282
 30
0.0
 40
0.3601257554514508
100
AcDbArc
 50
359.9809281319946
 51
89.97999556114654
  0
ARC
  5
175
330
2
100
AcDbEntity
  8
GAIKEI
 62
     1
100
AcDbCircle
 10
-36.33491480746761
 20
25.38970542094282
 30
0.0
 40
0.3601257554514508
100
AcDbArc
 50
90.02000443885348
 51
180.0190718680054
  0
LINE
  5
176
330
2
100
AcDbEntity
  8
GAIKEI
  6
Continuous
 62
     1
100
AcDbLine
 10
-18.08010863734998
 20
0.2563706515562103
 30
0.0
 11
-18.08010863734998
 21
-0.9835881158373354
 31
0.0
  0
LINE
  5
177
330
2
100
AcDbEntity
  8
GAIKEI
  6
Continuous
 62
     1
100
AcDbLine
 10
-18.08010863734998
 20
-0.9835881158373354
 30
0.0
 11
-14.78012055861742
 21
-0.9835881158373354
 31
0.0
  0
LINE
  5
178
330
2
100
AcDbEntity
  8
GAIKEI
  6
Continuous
 62
     1
100
AcDbLine
 10
-14.78012055861742
 20
0.2563706515238664
 30
0.0
 11
-18.08010863734998
 21
0.2563706515562103
 31
0.0
  0
LINE
  5
179
330
2
100
AcDbEntity
  8
GAIKEI
  6
Continuous
 62
     1
100
AcDbLine
 10
-14.78012055861742
 20
-0.9835881158373354
 30
0.0
 11
-14.78012055861742
 21
0.2563706515238664
 31
0.0
  0
LINE
  5
17A
330
2
100
AcDbEntity
  8
GAIKEI
  6
Continuous
 62
     1
100
AcDbLine
 10
-14.78012055861742
 20
1.516411884163062
 30
0.0
 11
-14.78012055861742
 21
2.756370651524264
 31
0.0
  0
LINE
  5
17B
330
2
100
AcDbEntity
  8
GAIKEI
  6
Continuous
 62
     1
100
AcDbLine
 10
-14.78012055861742
 20
2.756370651524264
 30
0.0
 11
-18.08010863734998
 21
2.756370651556665
 31
0.0
  0
LINE
  5
17C
330
2
100
AcDbEntity
  8
GAIKEI
  6
Continuous
 62
     1
100
AcDbLine
 10
-18.08010863734998
 20
1.516411884163062
 30
0.0
 11
-14.78012055861742
 21
1.516411884163062
 31
0.0
  0
LINE
  5
17D
330
2
100
AcDbEntity
  8
GAIKEI
  6
Continuous
 62
     1
100
AcDbLine
 10
-18.08010863734998
 20
2.756370651556665
 30
0.0
 11
-18.08010863734998
 21
1.516411884163062
 31
0.0
  0
LINE
  5
17E
330
2
100
AcDbEntity
  8
GAIKEI
  6
Continuous
 62
     1
100
AcDbLine
 10
-18.08010863734998
 20
5.256370651556721
 30
0.0
 11
-18.08010863734998
 21
4.016411884163062
 31
0.0
  0
LINE
  5
17F
330
2
100
AcDbEntity
  8
GAIKEI
  6
Continuous
 62
     1
100
AcDbLine
 10
-18.08010863734998
 20
4.016411884163062
 30
0.0
 11
-14.78012055861742
 21
4.016411884163062
 31
0.0
  0
LINE
  5
180
330
2
100
AcDbEntity
  8
GAIKEI
  6
Continuous
 62
     1
100
AcDbLine
 10
-14.78012055861742
 20
5.256370651524207
 30
0.0
 11
-18.08010863734998
 21
5.256370651556721
 31
0.0
  0
LINE
  5
181
330
2
100
AcDbEntity
  8
GAIKEI
  6
Continuous
 62
     1
100
AcDbLine
 10
-14.78012055861742
 20
4.016411884163062
 30
0.0
 11
-14.78012055861742
 21
5.256370651524207
 31
0.0
  0
LINE
  5
182
330
2
100
AcDbEntity
  8
GAIKEI
  6
Continuous
 62
     1
100
AcDbLine
 10
-14.78012055861742
 20
6.516411884162607
 30
0.0
 11
-14.78012055861742
 21
7.756370651523866
 31
0.0
  0
LINE
  5
183
330
2
100
AcDbEntity
  8
GAIKEI
  6
Continuous
 62
     1
100
AcDbLine
 10
-14.78012055861742
 20
7.756370651523866
 30
0.0
 11
-18.08010863734998
 21
7.756370651556267
 31
0.0
  0
LINE
  5
184
330
2
100
AcDbEntity
  8
GAIKEI
  6
Continuous
 62
     1
100
AcDbLine
 10
-18.08010863734998
 20
6.516411884162607
 30
0.0
 11
-14.78012055861742
 21
6.516411884162607
 31
0.0
  0
LINE
  5
185
330
2
100
AcDbEntity
  8
GAIKEI
  6
Continuous
 62
     1
100
AcDbLine
 10
-18.08010863734998
 20
7.756370651556267
 30
0.0
 11
-18.08010863734998
 21
6.516411884162607
 31
0.0
  0
LINE
  5
186
330
2
100
AcDbEntity
  8
GAIKEI
  6
Continuous
 62
     1
100
AcDbLine
 10
-18.08010863734998
 20
10.25637065155604
 30
0.0
 11
-18.08010863734998
 21
9.016411884162437
 31
0.0
  0
LINE
  5
187
330
2
100
AcDbEntity
  8
GAIKEI
  6
Continuous
 62
     1
100
AcDbLine
 10
-18.08010863734998
 20
9.016411884162437
 30
0.0
 11
-14.78012055861742
 21
9.016411884162437
 31
0.0
  0
LINE
  5
188
330
2
100
AcDbEntity
  8
GAIKEI
  6
Continuous
 62
     1
100
AcDbLine
 10
-14.78012055861742
 20
10.25637065152364
 30
0.0
 11
-18.08010863734998
 21
10.25637065155604
 31
0.0
  0
LINE
  5
189
330
2
100
AcDbEntity
  8
GAIKEI
  6
Continuous
 62
     1
100
AcDbLine
 10
-14.78012055861742
 20
9.016411884162437
 30
0.0
 11
-14.78012055861742
 21
10.25637065152364
 31
0.0
  0
LINE
  5
18A
330
2
100
AcDbEntity
  8
GAIKEI
  6
Continuous
 62
     1
100
AcDbLine
 10
-14.78012055861742
 20
11.51634298225326
 30
0.0
 11
-14.78012055861742
 21
12.75630174961463
 31
0.0
  0
LINE
  5
18B
330
2
100
AcDbEntity
  8
GAIKEI
  6
Continuous
 62
     1
100
AcDbLine
 10
-14.78012055861742
 20
12.75630174961463
 30
0.0
 11
-18.08010863734998
 21
12.75630174964703
 31
0.0
  0
LINE
  5
18C
330
2
100
AcDbEntity
  8
GAIKEI
  6
Continuous
 62
     1
100
AcDbLine
 10
-18.08010863734998
 20
11.51634298225326
 30
0.0
 11
-14.78012055861742
 21
11.51634298225326
 31
0.0
  0
LINE
  5
18D
330
2
100
AcDbEntity
  8
GAIKEI
  6
Continuous
 62
     1
100
AcDbLine
 10
-18.08010863734998
 20
12.75630174964703
 30
0.0
 11
-18.08010863734998
 21
11.51634298225326
 31
0.0
  0
LINE
  5
18E
330
2
100
AcDbEntity
  8
GAIKEI
  6
Continuous
 62
     1
100
AcDbLine
 10
-18.08010863734998
 20
15.25630174964607
 30
0.0
 11
-18.08010863734998
 21
14.01634298225241
 31
0.0
  0
LINE
  5
18F
330
2
100
AcDbEntity
  8
GAIKEI
  6
Continuous
 62
     1
100
AcDbLine
 10
-18.08010863734998
 20
14.01634298225241
 30
0.0
 11
-14.78012055861742
 21
14.01634298225241
 31
0.0
  0
LINE
  5
190
330
2
100
AcDbEntity
  8
GAIKEI
  6
Continuous
 62
     1
100
AcDbLine
 10
-14.78012055861742
 20
15.25630174961361
 30
0.0
 11
-18.08010863734998
 21
15.25630174964607
 31
0.0
  0
LINE
  5
191
330
2
100
AcDbEntity
  8
GAIKEI
  6
Continuous
 62
     1
100
AcDbLine
 10
-14.78012055861742
 20
14.01634298225241
 30
0.0
 11
-14.78012055861742
 21
15.25630174961361
 31
0.0
  0
LINE
  5
192
330
2
100
AcDbEntity
  8
GAIKEI
  6
Continuous
 62
     1
100
AcDbLine
 10
-14.78012055861742
 20
16.51644633511461
 30
0.0
 11
-14.78012055861742
 21
17.75640510247581
 31
0.0
  0
LINE
  5
193
330
2
100
AcDbEntity
  8
GAIKEI
  6
Continuous
 62
     1
100
AcDbLine
 10
-14.78012055861742
 20
17.75640510247581
 30
0.0
 11
-18.08010863734998
 21
17.75640510250844
 31
0.0
  0
LINE
  5
194
330
2
100
AcDbEntity
  8
GAIKEI
  6
Continuous
 62
     1
100
AcDbLine
 10
-18.08010863734998
 20
16.51644633511461
 30
0.0
 11
-14.78012055861742
 21
16.51644633511461
 31
0.0
  0
LINE
  5
195
330
2
100
AcDbEntity
  8
GAIKEI
  6
Continuous
 62
     1
100
AcDbLine
 10
-18.08010863734998
 20
17.75640510250844
 30
0.0
 11
-18.08010863734998
 21
16.51644633511461
 31
0.0
  0
LINE
  5
196
330
2
100
AcDbEntity
  8
GAIKEI
  6
Continuous
 62
     1
100
AcDbLine
 10
-18.08010863734998
 20
20.25640510251003
 30
0.0
 11
-18.08010863734998
 21
19.01644633511648
 31
0.0
  0
LINE
  5
197
330
2
100
AcDbEntity
  8
GAIKEI
  6
Continuous
 62
     1
100
AcDbLine
 10
-18.08010863734998
 20
19.01644633511648
 30
0.0
 11
-14.78012055861742
 21
19.01644633511648
 31
0.0
  0
LINE
  5
198
330
2
100
AcDbEntity
  8
GAIKEI
  6
Continuous
 62
     1
100
AcDbLine
 10
-14.78012055861742
 20
20.25640510247769
 30
0.0
 11
-18.08010863734998
 21
20.25640510251003
 31
0.0
  0
LINE
  5
199
330
2
100
AcDbEntity
  8
GAIKEI
  6
Continuous
 62
     1
100
AcDbLine
 10
-14.78012055861742
 20
19.01644633511648
 30
0.0
 11
-14.78012055861742
 21
20.25640510247769
 31
0.0
  0
LINE
  5
19A
330
2
100
AcDbEntity
  8
GAIKEI
  6
Continuous
 62
     1
100
AcDbLine
 10
-14.78012055861742
 20
21.51644633511808
 30
0.0
 11
-14.78012055861742
 21
22.75640510247928
 31
0.0
  0
LINE
  5
19B
330
2
100
AcDbEntity
  8
GAIKEI
  6
Continuous
 62
     1
100
AcDbLine
 10
-14.78012055861742
 20
22.75640510247928
 30
0.0
 11
-18.08010863734998
 21
22.75640510251162
 31
0.0
  0
LINE
  5
19C
330
2
100
AcDbEntity
  8
GAIKEI
  6
Continuous
 62
     1
100
AcDbLine
 10
-18.08010863734998
 20
21.51644633511808
 30
0.0
 11
-14.78012055861742
 21
21.51644633511808
 31
0.0
  0
LINE
  5
19D
330
2
100
AcDbEntity
  8
GAIKEI
  6
Continuous
 62
     1
100
AcDbLine
 10
-18.08010863734998
 20
22.75640510251162
 30
0.0
 11
-18.08010863734998
 21
21.51644633511808
 31
0.0
  0
LINE
  5
19E
330
2
100
AcDbEntity
  8
GAIKEI
  6
Continuous
 62
     1
100
AcDbLine
 10
-18.08010863734998
 20
25.25643955346487
 30
0.0
 11
-18.08010863734998
 21
24.01648078607127
 31
0.0
  0
LINE
  5
19F
330
2
100
AcDbEntity
  8
GAIKEI
  6
Continuous
 62
     1
100
AcDbLine
 10
-18.08010863734998
 20
24.01648078607127
 30
0.0
 11
-14.78012055861742
 21
24.01648078607127
 31
0.0
  0
LINE
  5
1A0
330
2
100
AcDbEntity
  8
GAIKEI
  6
Continuous
 62
     1
100
AcDbLine
 10
-14.78012055861742
 20
25.25643955343241
 30
0.0
 11
-18.08010863734998
 21
25.25643955346487
 31
0.0
  0
LINE
  5
1A1
330
2
100
AcDbEntity
  8
GAIKEI
  6
Continuous
 62
     1
100
AcDbLine
 10
-14.78012055861742
 20
24.01648078607127
 30
0.0
 11
-14.78012055861742
 21
25.25643955343241
 31
0.0
  0
LINE
  5
1A2
330
2
100
AcDbEntity
  8
GAIKEI
 62
     1
100
AcDbLine
 10
-15.23600230884813
 20
-3.643588115835598
 30
0.0
 11
-17.63407877274812
 21
-3.643588115835598
 31
0.0
  0
LINE
  5
1A3
330
2
100
AcDbEntity
  8
GAIKEI
 62
     1
100
AcDbLine
 10
-15.28974275030805
 20
-4.353108218895613
 30
0.0
 11
-17.58027881400801
 21
-4.353129414095633
 31
0.0
  0
LINE
  5
1A4
330
2
100
AcDbEntity
  8
GAIKEI
 62
     1
100
AcDbLine
 10
-15.23384664766808
 20
-4.463588115835648
 30
0.0
 11
-17.63623443682809
 21
-4.463588115835648
 31
0.0
  0
LINE
  5
1A5
330
2
100
AcDbEntity
  8
GAIKEI
 62
     1
100
AcDbLine
 10
-16.93504054296807
 20
-3.643588115835598
 30
0.0
 11
-16.93504054296809
 21
-4.463588115835648
 31
0.0
  0
LINE
  5
1A6
330
2
100
AcDbEntity
  8
GAIKEI
 62
     1
100
AcDbLine
 10
-17.63928343616806
 20
-3.856308551675624
 30
0.0
 11
-17.63926335090807
 21
-4.286148059135598
 31
0.0
  0
LINE
  5
1A7
330
2
100
AcDbEntity
  8
GAIKEI
 62
     1
100
AcDbLine
 10
-17.79504054296808
 20
-3.803495972795644
 30
0.0
 11
-17.79504054296811
 21
-4.303680114155611
 31
0.0
  0
ARC
  5
1A8
330
2
100
AcDbEntity
  8
GAIKEI
 62
     1
100
AcDbCircle
 10
-17.57583624802393
 20
-3.852835685923508
 30
0.0
 40
0.0635421630094731
100
AcDbArc
 50
93.2515896306557
 51
183.1330338370425
  0
ARC
  5
1A9
330
2
100
AcDbEntity
  8
GAIKEI
 62
     1
100
AcDbCircle
 10
-17.57632267676774
 20
-4.290183693180551
 30
0.0
 40
0.0630699199570043
100
AcDbArc
 50
176.3313276167852
 51
266.4036917636163
  0
ARC
  5
1AA
330
2
100
AcDbEntity
  8
GAIKEI
 62
     1
100
AcDbCircle
 10
-17.63594259269129
 20
-4.304488380196005
 30
0.0
 40
0.1591000033823896
100
AcDbArc
 50
179.7089224949198
 51
269.8948857699621
  0
ARC
  5
1AB
330
2
100
AcDbEntity
  8
GAIKEI
 62
     1
100
AcDbCircle
 10
-17.63442015148089
 20
-3.804209730430187
 30
0.0
 40
0.1606219773613265
100
AcDbArc
 50
89.87822757425478
 51
179.7453932810574
  0
ARC
  5
1AC
330
2
100
AcDbEntity
  8
GAIKEI
 62
     1
100
AcDbCircle
 10
-15.23566093011536
 20
-3.804209730430187
 30
0.0
 40
0.1606219773613265
100
AcDbArc
 50
0.2546067189426416
 51
90.12177242574521
  0
ARC
  5
1AD
330
2
100
AcDbEntity
  8
GAIKEI
 62
     1
100
AcDbCircle
 10
-15.23413848890496
 20
-4.304488380196005
 30
0.0
 40
0.1591000033823896
100
AcDbArc
 50
270.1051142300379
 51
0.2910775050801984
  0
ARC
  5
1AE
330
2
100
AcDbEntity
  8
GAIKEI
 62
     1
100
AcDbCircle
 10
-15.29375840482851
 20
-4.290183693180551
 30
0.0
 40
0.0630699199570043
100
AcDbArc
 50
273.5963082363837
 51
3.668672383214778
  0
LINE
  5
1AF
330
2
100
AcDbEntity
  8
GAIKEI
 62
     1
100
AcDbLine
 10
-15.07504053862817
 20
-3.803495972795644
 30
0.0
 11
-15.07504053862814
 21
-4.303680114155611
 31
0.0
  0
LINE
  5
1B0
330
2
100
AcDbEntity
  8
GAIKEI
 62
     1
100
AcDbLine
 10
-15.2307976454282
 20
-3.856308551675624
 30
0.0
 11
-15.23081773068819
 21
-4.286148059135598
 31
0.0
  0
LINE
  5
1B1
330
2
100
AcDbEntity
  8
GAIKEI
 62
     1
100
AcDbLine
 10
-17.57944039046811
 20
-3.789395819615606
 30
0.0
 11
-15.28883038812927
 21
-3.789395819615606
 31
0.0
  0
ARC
  5
1B2
330
2
100
AcDbEntity
  8
GAIKEI
 62
     1
100
AcDbCircle
 10
-15.29375840482851
 20
-3.852272917630671
 30
0.0
 40
0.0630699199570043
100
AcDbArc
 50
356.3313276167852
 51
86.40369176361627
  0
ARC
  5
1B3
330
2
100
AcDbEntity
  8
GAIKEI
 62
     1
100
AcDbCircle
 10
-18.89374548356102
 20
-3.852272917630699
 30
0.0
 40
0.0630699199570043
100
AcDbArc
 50
356.3313276167852
 51
86.40369176361627
  0
LINE
  5
1B4
330
2
100
AcDbEntity
  8
GAIKEI
 62
     1
100
AcDbLine
 10
-21.17942746920062
 20
-3.789395819615634
 30
0.0
 11
-18.88881746686178
 21
-3.789395819615634
 31
0.0
  0
LINE
  5
1B5
330
2
100
AcDbEntity
  8
GAIKEI
 62
     1
100
AcDbLine
 10
-18.83078472416071
 20
-3.856308551675653
 30
0.0
 11
-18.83080480942069
 21
-4.286148059135626
 31
0.0
  0
LINE
  5
1B6
330
2
100
AcDbEntity
  8
GAIKEI
 62
     1
100
AcDbLine
 10
-18.67502761736068
 20
-3.803495972795673
 30
0.0
 11
-18.67502761736065
 21
-4.303680114155639
 31
0.0
  0
ARC
  5
1B7
330
2
100
AcDbEntity
  8
GAIKEI
 62
     1
100
AcDbCircle
 10
-18.89374548356102
 20
-4.29018369318058
 30
0.0
 40
0.0630699199570043
100
AcDbArc
 50
273.5963082363837
 51
3.668672383214778
  0
ARC
  5
1B8
330
2
100
AcDbEntity
  8
GAIKEI
 62
     1
100
AcDbCircle
 10
-18.83412556763747
 20
-4.304488380196033
 30
0.0
 40
0.1591000033823896
100
AcDbArc
 50
270.1051142300379
 51
0.2910775050801984
  0
ARC
  5
1B9
330
2
100
AcDbEntity
  8
GAIKEI
 62
     1
100
AcDbCircle
 10
-18.83564800884787
 20
-3.804209730430216
 30
0.0
 40
0.1606219773613265
100
AcDbArc
 50
0.2546067189426416
 51
90.12177242574521
  0
ARC
  5
1BA
330
2
100
AcDbEntity
  8
GAIKEI
 62
     1
100
AcDbCircle
 10
-21.23440723021341
 20
-3.804209730430216
 30
0.0
 40
0.1606219773613265
100
AcDbArc
 50
89.87822757425478
 51
179.7453932810574
  0
ARC
  5
1BB
330
2
100
AcDbEntity
  8
GAIKEI
 62
     1
100
AcDbCircle
 10
-21.2359296714238
 20
-4.304488380196033
 30
0.0
 40
0.1591000033823896
100
AcDbArc
 50
179.7089224949198
 51
269.8948857699621
  0
ARC
  5
1BC
330
2
100
AcDbEntity
  8
GAIKEI
 62
     1
100
AcDbCircle
 10
-21.17630975550026
 20
-4.29018369318058
 30
0.0
 40
0.0630699199570043
100
AcDbArc
 50
176.3313276167852
 51
266.4036917636163
  0
ARC
  5
1BD
330
2
100
AcDbEntity
  8
GAIKEI
 62
     1
100
AcDbCircle
 10
-21.17582332675644
 20
-3.852835685923537
 30
0.0
 40
0.0635421630094731
100
AcDbArc
 50
93.2515896306557
 51
183.1330338370425
  0
LINE
  5
1BE
330
2
100
AcDbEntity
  8
GAIKEI
 62
     1
100
AcDbLine
 10
-21.39502762170059
 20
-3.803495972795673
 30
0.0
 11
-21.39502762170062
 21
-4.303680114155639
 31
0.0
  0
LINE
  5
1BF
330
2
100
AcDbEntity
  8
GAIKEI
 62
     1
100
AcDbLine
 10
-21.23927051490057
 20
-3.856308551675653
 30
0.0
 11
-21.23925042964058
 21
-4.286148059135626
 31
0.0
  0
LINE
  5
1C0
330
2
100
AcDbEntity
  8
GAIKEI
 62
     1
100
AcDbLine
 10
-20.53502762170058
 20
-3.643588115835626
 30
0.0
 11
-20.53502762170061
 21
-4.463588115835676
 31
0.0
  0
LINE
  5
1C1
330
2
100
AcDbEntity
  8
GAIKEI
 62
     1
100
AcDbLine
 10
-18.8338337264006
 20
-4.463588115835676
 30
0.0
 11
-21.2362215155606
 21
-4.463588115835676
 31
0.0
  0
LINE
  5
1C2
330
2
100
AcDbEntity
  8
GAIKEI
 62
     1
100
AcDbLine
 10
-18.88972982904056
 20
-4.353108218895641
 30
0.0
 11
-21.18026589274052
 21
-4.353129414095661
 31
0.0
  0
LINE
  5
1C3
330
2
100
AcDbEntity
  8
GAIKEI
 62
     1
100
AcDbLine
 10
-18.83598938758064
 20
-3.643588115835626
 30
0.0
 11
-21.23406585148064
 21
-3.643588115835626
 31
0.0
  0
ARC
  5
1C4
330
2
100
AcDbEntity
  8
GAIKEI
100
AcDbCircle
 10
34.10837721187545
 20
13.78448416311727
 30
0.0
 40
19.99999999843464
100
AcDbArc
 50
114.4306280683561
 51
122.2104044540419
  0
ARC
  5
1C5
330
2
100
AcDbEntity
  8
GAIKEI
 62
     1
100
AcDbCircle
 10
17.08837531847652
 20
48.24309225812839
 30
0.0
 40
18.65414616129133
100
AcDbArc
 50
289.9323858080386
 51
298.2553075446999
  0
ARC
  5
1C6
330
2
100
AcDbEntity
  8
GAIKEI
100
AcDbCircle
 10
25.96063084014469
 20
31.72059937796445
 30
0.0
 40
0.3000000000000204
100
AcDbArc
 50
348.5499999999996
 51
114.4306280687861
  0
ARC
  5
1C7
330
2
100
AcDbEntity
  8
GAIKEI
 62
     1
100
AcDbCircle
 10
25.96063083939134
 20
31.72059937768987
 30
0.0
 40
0.0999999999438078
100
AcDbArc
 50
348.550000239796
 51
114.4306276079764
  0
ARC
  5
1C8
330
2
100
AcDbEntity
  8
GAIKEI
100
AcDbCircle
 10
24.60454716986459
 20
-29.28243613397532
 30
0.0
 40
59.99999999999967
100
AcDbArc
 50
91.10470103070928
 51
100.9939352877904
  0
ARC
  5
1C9
330
2
100
AcDbEntity
  8
GAIKEI
 62
     1
100
AcDbCircle
 10
24.40125439204468
 20
-27.46586085875049
 30
0.0
 40
57.97818070344924
100
AcDbArc
 50
91.63171987213949
 51
101.1390751372459
  0
ARC
  5
1CA
330
2
100
AcDbEntity
  8
GAIKEI
100
AcDbCircle
 10
-730570.5110283961
 20
38723.8910329327
 30
0.0
 40
731607.4964206437
100
AcDbArc
 50
356.9672894494724
 51
356.9682320019475
  0
ARC
  5
1CB
330
2
100
AcDbEntity
  8
GAIKEI
100
AcDbCircle
 10
13.20038279623611
 20
29.42007688665976
 30
0.0
 40
0.200000000011636
100
AcDbArc
 50
100.9939352772661
 51
176.9679599406523
  0
ARC
  5
1CC
330
2
100
AcDbEntity
  8
GAIKEI
100
AcDbCircle
 10
100.3760650275798
 20
12.53397341307598
 30
0.0
 40
88.14713249139604
100
AcDbArc
 50
176.8275944818688
 51
182.164952959802
  0
ARC
  5
1CD
330
2
100
AcDbEntity
  8
GAIKEI
100
AcDbCircle
 10
102.040993574597
 20
12.71126366584028
 30
0.0
 40
89.81764273507717
100
AcDbArc
 50
182.2378462111815
 51
195.1537511285732
  0
ARC
  5
1CE
330
2
100
AcDbEntity
  8
GAIKEI
100
AcDbCircle
 10
15.53942084127976
 20
-10.71521527963645
 30
0.0
 40
0.2000000000399479
100
AcDbArc
 50
195.2966479140242
 51
266.9999999962724
  0
LINE
  5
1CF
330
2
100
AcDbEntity
  8
GAIKEI
100
AcDbLine
 10
15.52895365000461
 20
-10.91494118663564
 30
0.0
 11
16.75810198213787
 21
-10.97935812113852
 31
0.0
  0
LINE
  5
1D0
330
2
100
AcDbEntity
  8
GAIKEI
 62
     1
100
AcDbLine
 10
15.5394208412647
 20
-10.71521527967564
 30
0.0
 11
16.70580771954474
 21
-10.77634302575563
 31
0.0
  0
LINE
  5
1D1
330
2
100
AcDbEntity
  8
GAIKEI
100
AcDbLine
 10
16.73496654576467
 20
-10.88808198825563
 30
0.0
 11
16.93891294756463
 21
-10.87739361023563
 31
0.0
  0
LINE
  5
1D2
330
2
100
AcDbEntity
  8
GAIKEI
100
AcDbLine
 10
16.93891294756463
 20
-10.87739361023563
 30
0.0
 11
17.63014463440731
 21
-10.48484228191137
 31
0.0
  0
LINE
  5
1D3
330
2
100
AcDbEntity
  8
GAIKEI
 62
     1
100
AcDbLine
 10
16.88664957750464
 20
-10.67707301547563
 30
0.0
 11
17.57132480643102
 21
-10.28824510768632
 31
0.0
  0
ARC
  5
1D4
330
2
100
AcDbEntity
  8
GAIKEI
100
AcDbCircle
 10
17.48199714780432
 20
-10.22397388162793
 30
0.0
 40
0.300000000088711
100
AcDbArc
 50
299.5922963630571
 51
348.5499999894263
  0
LINE
  5
1D5
330
2
100
AcDbEntity
  8
GAIKEI
100
AcDbLine
 10
18.83859791416466
 20
-4.953588108775647
 30
0.0
 11
17.77602664172468
 21
-10.28352769559564
 31
0.0
  0
LINE
  5
1D6
330
2
100
AcDbEntity
  8
GAIKEI
 62
     1
100
AcDbLine
 10
18.75120585258469
 20
-5.766630493715638
 30
0.0
 11
18.08378094382465
 21
-9.061845279495628
 31
0.0
  0
LINE
  5
1D7
330
2
100
AcDbEntity
  8
GAIKEI
100
AcDbLine
 10
18.01899661657563
 20
-9.064771532168663
 30
0.0
 11
19.57534710294465
 21
-8.994472511335629
 31
0.0
  0
LINE
  5
1D8
330
2
100
AcDbEntity
  8
GAIKEI
 62
     1
100
AcDbLine
 10
19.57534710294465
 20
-8.994472511335629
 30
0.0
 11
20.09899847210466
 21
-6.40909742021563
 31
0.0
  0
LINE
  5
1D9
330
2
100
AcDbEntity
  8
GAIKEI
100
AcDbLine
 10
20.15397886572464
 20
-6.519217553775604
 30
0.0
 11
19.66884462050461
 21
-8.914425639375622
 31
0.0
  0
LINE
  5
1DA
330
2
100
AcDbEntity
  8
GAIKEI
100
AcDbLine
 10
19.71289903012473
 20
-8.69691990939566
 30
0.0
 11
20.0069285239847
 21
-8.756473723295641
 31
0.0
  0
LINE
  5
1DB
330
2
100
AcDbEntity
  8
GAIKEI
100
AcDbLine
 10
20.0069285239847
 20
-8.756473723295641
 30
0.0
 11
20.40395394994471
 21
-6.796277097655661
 31
0.0
  0
LINE
  5
1DC
330
2
100
AcDbEntity
  8
GAIKEI
100
AcDbLine
 10
20.40395394994471
 20
-6.796277097655661
 30
0.0
 11
20.10992445610463
 21
-6.736723283755623
 31
0.0
  0
ARC
  5
1DD
330
2
100
AcDbEntity
  8
GAIKEI
100
AcDbCircle
 10
19.5708347892247
 20
-8.894574368075637
 30
0.0
 40
0.0999999999999637
100
AcDbArc
 50
272.5862434681029
 51
348.5500000000156
  0
ARC
  5
1DE
330
2
100
AcDbEntity
  8
GAIKEI
100
AcDbCircle
 10
20.0559690344447
 20
-6.499366282475648
 30
0.0
 40
0.1000000000000674
100
AcDbArc
 50
348.5500000000028
 51
64.51375653201608
  0
LINE
  5
1DF
330
2
100
AcDbEntity
  8
GAIKEI
100
AcDbLine
 10
20.09899847210466
 20
-6.40909742021563
 30
0.0
 11
18.68299293543862
 21
-5.734114702642301
 31
0.0
  0
LINE
  5
1E0
330
2
100
AcDbEntity
  8
GAIKEI
 62
     1
100
AcDbLine
 10
18.06956459076329
 20
-7.739137945786012
 30
0.0
 11
17.57132480643102
 21
-10.28824510768632
 31
0.0
  0
LINE
  5
1E1
330
2
100
AcDbEntity
  8
GAIKEI
 62
     1
100
AcDbLine
 10
18.9702513299309
 20
-4.303588115835623
 30
0.0
 11
19.34796635264467
 21
-4.303588115835623
 31
0.0
  0
LINE
  5
1E2
330
2
100
AcDbEntity
  8
GAIKEI
 62
     1
100
AcDbLine
 10
19.4459761839247
 20
-4.423439387135601
 30
0.0
 11
19.2353307631447
 21
-5.463439387135622
 31
0.0
  0
ARC
  5
1E3
330
2
100
AcDbEntity
  8
GAIKEI
 62
     1
100
AcDbCircle
 10
19.34796635264473
 20
-4.403588115835589
 30
0.0
 40
0.1000000000000512
100
AcDbArc
 50
348.5499999999741
 51
90.00000000003252
  0
LINE
  5
1E4
330
2
100
AcDbEntity
  8
GAIKEI
 62
     1
100
AcDbLine
 10
19.19737299002463
 20
-5.523549045755657
 30
0.0
 11
18.82614110250461
 21
-5.802350692075606
 31
0.0
  0
ARC
  5
1E5
330
2
100
AcDbEntity
  8
GAIKEI
 62
     1
100
AcDbCircle
 10
19.13732093176622
 20
-5.443588115797723
 30
0.0
 40
0.1000000001040439
100
AcDbArc
 50
306.907190687497
 51
348.5499999899383
  0
LINE
  5
1E6
330
2
100
AcDbEntity
  8
GAIKEI
100
AcDbLine
 10
18.83859791416466
 20
-4.953588108775647
 30
0.0
 11
21.67522206482471
 21
9.051411885044359
 31
0.0
  0
LINE
  5
1E7
330
2
100
AcDbEntity
  8
GAIKEI
 62
     1
100
AcDbLine
 10
14.79272584555053
 20
-8.618263397987902
 30
0.0
 11
14.57758118290468
 21
-8.614933597025611
 31
0.0
  0
LINE
  5
1E8
330
2
100
AcDbEntity
  8
GAIKEI
 62
     1
100
AcDbLine
 10
14.46530831212479
 20
-8.519377129795657
 30
0.0
 11
14.22135304005093
 21
-7.518018484495144
 31
0.0
  0
ARC
  5
1E9
330
2
100
AcDbEntity
  8
GAIKEI
 62
     1
100
AcDbCircle
 10
14.57509211140467
 20
-8.50421567855389
 30
0.0
 40
0.1108257740242846
100
AcDbArc
 50
187.8629713765091
 51
267.4623430269021
  0
ARC
  5
1EA
330
2
100
AcDbEntity
  8
GAIKEI
 62
     1
100
AcDbCircle
 10
39.60505378379605
 20
-1.485171719656904
 30
0.0
 40
26.09075513541197
100
AcDbArc
 50
191.6293657946452
 51
193.369230221424
  0
LINE
  5
1EB
330
2
100
AcDbEntity
  8
GAIKEI
 62
     1
100
AcDbLine
 10
14.3258814629757
 20
-6.608882651712804
 30
0.0
 11
14.13575185597074
 21
-6.612192832865673
 31
0.0
  0
ARC
  5
1EC
330
2
100
AcDbEntity
  8
GAIKEI
 62
     1
100
AcDbCircle
 10
14.15261503366608
 20
-6.717161135800751
 30
0.0
 40
0.1063142106355355
100
AcDbArc
 50
99.12659643789069
 51
194.9262080887382
  0
ARC
  5
1ED
330
2
100
AcDbEntity
  8
GAIKEI
 62
     1
100
AcDbCircle
 10
26.13379888925732
 20
-5.115586608187697
 30
0.0
 40
12.05117575779793
100
AcDbArc
 50
187.1304983194914
 51
196.8803355235582
  0
ARC
  5
1EE
330
2
100
AcDbEntity
  8
GAIKEI
 62
     1
100
AcDbCircle
 10
102.040993574597
 20
12.71126366584028
 30
0.0
 40
89.60414273507717
100
AcDbArc
 50
182.2378462111815
 51
195.1537511285732
  0
ARC
  5
1EF
330
2
100
AcDbEntity
  8
GAIKEI
 62
     1
100
AcDbCircle
 10
100.3760650275798
 20
12.53397341307598
 30
0.0
 40
87.93363249139604
100
AcDbArc
 50
176.8275944818688
 51
182.164952959802
  0
ARC
  5
1F0
330
2
100
AcDbEntity
  8
GAIKEI
 62
     1
100
AcDbCircle
 10
-730570.5110283961
 20
38723.8910329327
 30
0.0
 40
731607.7099206435
100
AcDbArc
 50
356.9672894494724
 51
356.9682320019475
  0
LINE
  5
1F1
330
2
100
AcDbEntity
  8
GAIKEI
100
AcDbLine
 10
26.25466033398922
 20
31.66104556406859
 30
0.0
 11
24.42260371510474
 21
22.61580320086438
 31
0.0
  0
LINE
  5
1F2
330
2
100
AcDbEntity
  8
GAIKEI
 62
     1
100
AcDbLine
 10
26.05864067142466
 20
31.70074810666438
 30
0.0
 11
24.23522638756458
 21
22.6981749299444
 31
0.0
  0
LINE
  5
1F3
330
2
100
AcDbEntity
  8
GAIKEI
100
AcDbLine
 10
25.37980741498472
 20
27.34171579938436
 30
0.0
 11
26.46373124371758
 21
27.06240297652426
 31
0.0
  0
LINE
  5
1F4
330
2
100
AcDbEntity
  8
GAIKEI
 62
     1
100
AcDbLine
 10
25.34005038676469
 20
27.14542713002436
 30
0.0
 11
26.41382423560469
 21
26.8687298226244
 31
0.0
  0
LINE
  5
1F5
330
2
100
AcDbEntity
  8
GAIKEI
 62
     1
100
AcDbLine
 10
26.63299317541873
 20
26.518666286361
 30
0.0
 11
26.40164550030466
 21
25.37645476084435
 31
0.0
  0
LINE
  5
1F6
330
2
100
AcDbEntity
  8
GAIKEI
100
AcDbLine
 10
26.8290128798123
 20
26.47896373529136
 30
0.0
 11
26.60957592564467
 21
25.39555811702439
 31
0.0
  0
ARC
  5
1F7
330
2
100
AcDbEntity
  8
GAIKEI
 62
     1
100
AcDbCircle
 10
26.34460387628855
 20
26.57924508128042
 30
0.0
 40
0.2946831828366264
100
AcDbArc
 50
348.136978084795
 51
79.22198504438314
  0
ARC
  5
1F8
330
2
100
AcDbEntity
  8
GAIKEI
100
AcDbCircle
 10
26.3389637234047
 20
26.57822009178437
 30
0.0
 40
0.500000000000055
100
AcDbArc
 50
348.5500000000111
 51
75.54999999998966
  0
LINE
  5
1F9
330
2
100
AcDbEntity
  8
GAIKEI
 62
     1
100
AcDbLine
 10
25.31999547510463
 20
27.04641188416434
 30
0.0
 11
25.63806320978461
 21
27.04641188416434
 31
0.0
  0
LINE
  5
1FA
330
2
100
AcDbEntity
  8
GAIKEI
 62
     1
100
AcDbLine
 10
24.91490812744462
 20
25.04641188416434
 30
0.0
 11
25.63806320978461
 21
25.04641188416434
 31
0.0
  0
ARC
  5
1FB
330
2
100
AcDbEntity
  8
GAIKEI
 62
     1
100
AcDbCircle
 10
25.63806320978455
 20
25.44641188416446
 30
0.0
 40
0.400000000000091
100
AcDbArc
 50
270.0000000000081
 51
311.4096221093164
  0
ARC
  5
1FC
330
2
100
AcDbEntity
  8
GAIKEI
100
AcDbCircle
 10
25.63806320978458
 20
26.64641188416428
 30
0.0
 40
0.4000000000000626
100
AcDbArc
 50
48.59037789068707
 51
89.99999999999593
  0
ARC
  5
1FD
330
2
100
AcDbEntity
  8
GAIKEI
 62
     1
100
AcDbCircle
 10
25.10891294756473
 20
26.04641188416434
 30
0.0
 40
1.199999999999972
100
AcDbArc
 50
311.4096221092874
 51
48.59037789071258
  0
LINE
  5
1FE
330
2
100
AcDbEntity
  8
GAIKEI
 62
     1
100
AcDbLine
 10
25.51855275794469
 20
25.04641188416434
 30
0.0
 11
24.80184828344466
 21
21.50789369214436
 31
0.0
  0
ARC
  5
1FF
330
2
100
AcDbEntity
  8
GAIKEI
 62
     1
100
AcDbCircle
 10
24.31883234988453
 20
22.14562059914454
 30
0.0
 40
0.800000000000217
100
AcDbArc
 50
259.1494066239157
 51
307.1403778906928
  0
ARC
  5
200
330
2
100
AcDbEntity
  8
GAIKEI
100
AcDbCircle
 10
26.55077002688762
 20
25.40746887978873
 30
0.0
 40
0.0599999999853871
100
AcDbArc
 50
258.5499999942157
 51
348.5500000116426
  0
LINE
  5
201
330
2
100
AcDbEntity
  8
GAIKEI
100
AcDbLine
 10
26.69567499414461
 20
25.31690094694437
 30
0.0
 11
26.20562583774384
 21
25.416157303447
 31
0.0
  0
LINE
  5
202
330
2
100
AcDbEntity
  8
GAIKEI
100
AcDbLine
 10
26.69567499414461
 20
25.31690094694437
 30
0.0
 11
26.29864956818471
 21
23.3567043213244
 31
0.0
  0
LINE
  5
203
330
2
100
AcDbEntity
  8
GAIKEI
100
AcDbLine
 10
26.29864956818471
 20
23.3567043213244
 30
0.0
 11
26.00462007434464
 21
23.41625813522438
 31
0.0
  0
LINE
  5
204
330
2
100
AcDbEntity
  8
GAIKEI
 62
     1
100
AcDbLine
 10
26.20562583774384
 20
25.416157303447
 30
0.0
 11
23.88699734514276
 21
13.96860901075771
 31
0.0
  0
LINE
  5
205
330
2
100
AcDbEntity
  8
GAIKEI
100
AcDbLine
 10
26.40164550030466
 20
25.37645476084435
 30
0.0
 11
24.08301701262474
 21
13.92890646716438
 31
0.0
  0
ARC
  5
206
330
2
100
AcDbEntity
  8
GAIKEI
 62
     1
100
AcDbCircle
 10
22.71087937468477
 20
14.20682426534435
 30
0.0
 40
1.199999994980033
100
AcDbArc
 50
258.9528079513966
 51
348.550000000013
  0
ARC
  5
207
330
2
100
AcDbEntity
  8
GAIKEI
100
AcDbCircle
 10
22.71087937468474
 20
14.20682426534432
 30
0.0
 40
1.399999999999822
100
AcDbArc
 50
258.8935063054048
 51
348.5500000000012
  0
ARC
  5
208
330
2
100
AcDbEntity
  8
GAIKEI
 62
     1
100
AcDbCircle
 10
22.59780849890461
 20
13.60641188416429
 30
0.0
 40
1.099999999999937
100
AcDbArc
 50
270.0000000000029
 51
333.1931517495953
  0
LINE
  5
209
330
2
100
AcDbEntity
  8
GAIKEI
 62
     1
100
AcDbLine
 10
22.87071888250466
 20
12.81597546806438
 30
0.0
 11
22.55527515976462
 21
12.45880361942437
 31
0.0
  0
LINE
  5
20A
330
2
100
AcDbEntity
  8
GAIKEI
 62
     1
100
AcDbLine
 10
22.4705851663951
 20
12.45354957112778
 30
0.0
 11
22.38043046220469
 21
12.53317156714439
 31
0.0
  0
ARC
  5
20B
330
2
100
AcDbEntity
  8
GAIKEI
 62
     1
100
AcDbCircle
 10
22.51030313891695
 20
12.49852159198013
 30
0.0
 40
0.0600000000161149
100
AcDbArc
 50
228.5500000101396
 51
318.5499999936431
  0
ARC
  5
20C
330
2
100
AcDbEntity
  8
GAIKEI
 62
     1
100
AcDbCircle
 10
22.58958810704459
 20
13.60798419622435
 30
0.0
 40
0.3999999999999169
100
AcDbArc
 50
259.753717407121
 51
77.34628259291371
  0
LINE
  5
20D
330
2
100
AcDbEntity
  8
GAIKEI
 62
     1
100
AcDbLine
 10
23.20597484412474
 20
16.60905488818434
 30
0.0
 11
23.34815721711783
 21
16.62647502955818
 31
0.0
  0
ARC
  5
20E
330
2
100
AcDbEntity
  8
GAIKEI
 62
     1
100
AcDbCircle
 10
23.31937447869117
 20
16.93458375783302
 30
0.0
 40
0.2625921630034194
100
AcDbArc
 50
333.4109194622451
 51
88.75445756526445
  0
ARC
  5
20F
330
2
100
AcDbEntity
  8
GAIKEI
 62
     1
100
AcDbCircle
 10
23.31897123516467
 20
16.86469379132444
 30
0.0
 40
0.2400000000000449
100
AcDbArc
 50
276.9849288192058
 51
348.5499367415784
  0
ARC
  5
210
330
2
100
AcDbEntity
  8
GAIKEI
 62
     1
100
AcDbCircle
 10
13.15644447905757
 20
-7.312993210133384
 30
0.0
 40
5.159992313431231
100
AcDbArc
 50
356.6105558828036
 51
8.894709004383116
  0
LINE
  5
211
330
2
100
AcDbEntity
  8
GAIKEI
 62
     1
100
AcDbLine
 10
18.25438352454466
 20
-6.515160036395627
 30
0.0
 11
23.9091711019646
 21
21.7350925694044
 31
0.0
  0
LINE
  5
212
330
2
100
AcDbEntity
  8
GAIKEI
100
AcDbLine
 10
21.67522206482471
 20
9.051411885044359
 30
0.0
 11
24.40872555802469
 21
22.54728605532438
 31
0.0
  0
ARC
  5
213
330
2
100
AcDbEntity
  8
GAIKEI
100
AcDbCircle
 10
17.60872324349773
 20
-7.779912943061674
 30
0.0
 40
0.6533642520202964
100
AcDbArc
 50
350.2517823192442
 51
16.89565372024414
  0
ARC
  5
214
330
2
100
AcDbEntity
  8
GAIKEI
100
AcDbCircle
 10
34.10218828062486
 20
13.79114568480111
 30
0.0
 40
20.19103858287369
100
AcDbArc
 50
123.1403835321198
 51
142.9923466737319
  0
ARC
  5
215
330
2
100
AcDbEntity
  8
GAIKEI
100
AcDbCircle
 10
34.10825392941664
 20
13.78451601012935
 30
0.0
 40
20.19987294959331
100
AcDbArc
 50
142.9876860723636
 51
169.671268891142
  0
ARC
  5
216
330
2
100
AcDbEntity
  8
GAIKEI
100
AcDbCircle
 10
35.47925128105453
 20
13.58454812487807
 30
0.0
 40
21.58456280598216
100
AcDbArc
 50
169.8015675468777
 51
179.9549500974569
  0
ARC
  5
217
330
2
100
AcDbEntity
  8
GAIKEI
100
AcDbCircle
 10
101.8684724029981
 20
11.4715028861471
 30
0.0
 40
87.99955940241421
100
AcDbArc
 50
178.613028551368
 51
184.9235907331169
  0
ARC
  5
218
330
2
100
AcDbEntity
  8
GAIKEI
100
AcDbCircle
 10
105.2448090662589
 20
11.92200296690106
 30
0.0
 40
91.40224105718527
100
AcDbArc
 50
185.0232957902567
 51
194.5104036432175
  0
ARC
  5
219
330
2
100
AcDbEntity
  8
GAIKEI
 62
     1
100
AcDbCircle
 10
105.2978926224704
 20
11.86247061876247
 30
0.0
 40
91.23913044300525
100
AcDbArc
 50
184.9831357772764
 51
194.3023125853329
  0
ARC
  5
21A
330
2
100
AcDbEntity
  8
GAIKEI
 62
     1
100
AcDbCircle
 10
101.8684724029981
 20
11.4715028861471
 30
0.0
 40
87.7887594024142
100
AcDbArc
 50
178.613028551368
 51
184.9235907331169
  0
ARC
  5
21B
330
2
100
AcDbEntity
  8
GAIKEI
 62
     1
100
AcDbCircle
 10
35.47925128105453
 20
13.58454812487807
 30
0.0
 40
21.37376280598216
100
AcDbArc
 50
169.8015675468777
 51
179.9549500974569
  0
ARC
  5
21C
330
2
100
AcDbEntity
  8
GAIKEI
 62
     1
100
AcDbCircle
 10
34.10825392941664
 20
13.78451601012935
 30
0.0
 40
19.9890729495933
100
AcDbArc
 50
142.9876860723636
 51
169.671268891142
  0
ARC
  5
21D
330
2
100
AcDbEntity
  8
GAIKEI
 62
     1
100
AcDbCircle
 10
34.10218828062486
 20
13.79114568480111
 30
0.0
 40
19.98023858287369
100
AcDbArc
 50
122.0787065585839
 51
142.9923466737319
  0
ARC
  5
21E
330
2
100
AcDbEntity
  8
GAIKEI
 62
     1
100
AcDbCircle
 10
23.81618942922898
 20
22.78346469280331
 30
0.0
 40
0.4276287129037073
100
AcDbArc
 50
311.5187744277988
 51
348.4953088078238
  0
ARC
  5
21F
330
2
100
AcDbEntity
  8
GAIKEI
100
AcDbCircle
 10
23.81883221015897
 20
22.79214761183033
 30
0.0
 40
0.6289971235732383
100
AcDbArc
 50
310.8069430051346
 51
343.7184242190846
  0
ARC
  5
220
330
2
100
AcDbEntity
  8
GAIKEI
 62
     1
100
AcDbCircle
 10
39.08435401159443
 20
5.753651071892335
 30
0.0
 40
22.03843571307006
100
AcDbArc
 50
133.517653700966
 51
156.7220354741296
  0
ARC
  5
221
330
2
100
AcDbEntity
  8
GAIKEI
 62
     1
100
AcDbCircle
 10
38.80813897609693
 20
5.835174342636207
 30
0.0
 40
22.19985675733902
100
AcDbArc
 50
131.4945524432269
 51
154.6824046660457
  0
ARC
  5
222
330
2
100
AcDbEntity
  8
GAIKEI
100
AcDbCircle
 10
38.79982543633938
 20
5.834529330702594
 30
0.0
 40
21.99826255705637
100
AcDbArc
 50
131.4772128486498
 51
155.9979467467597
  0
ARC
  5
223
330
2
100
AcDbEntity
  8
GAIKEI
 62
     1
100
AcDbCircle
 10
38.80343291871273
 20
5.837600623573536
 30
0.0
 40
22.19456514771793
100
AcDbArc
 50
154.6828713088499
 51
173.2666517302665
  0
ARC
  5
224
330
2
100
AcDbEntity
  8
GAIKEI
100
AcDbCircle
 10
38.79353167631123
 20
5.837592031693617
 30
0.0
 40
21.99126720121167
100
AcDbArc
 50
155.9985662117554
 51
173.36369136037
  0
ARC
  5
225
330
2
100
AcDbEntity
  8
GAIKEI
 62
     1
100
AcDbCircle
 10
38.91752321498089
 20
5.83849838449808
 30
0.0
 40
21.8516575046349
100
AcDbArc
 50
156.7535270727567
 51
172.9744997301571
  0
ARC
  5
226
330
2
100
AcDbEntity
  8
GAIKEI
 62
     1
100
AcDbCircle
 10
72.58119097323817
 20
4.73677791748895
 30
0.0
 40
55.47979916406952
100
AcDbArc
 50
176.0990212054286
 51
191.7014127367294
  0
ARC
  5
227
330
2
100
AcDbEntity
  8
GAIKEI
100
AcDbCircle
 10
72.40823307355134
 20
4.802991975610325
 30
0.0
 40
55.57379637710108
100
AcDbArc
 50
176.3105881622305
 51
192.8853639368577
  0
ARC
  5
228
330
2
100
AcDbEntity
  8
GAIKEI
 62
     1
100
AcDbCircle
 10
72.03621079495929
 20
4.764875815785217
 30
0.0
 40
55.39629286042906
100
AcDbArc
 50
176.1961832582645
 51
193.0451805804122
  0
DIMENSION
  5
229
330
2
100
AcDbEntity
  8
SUNPO
100
AcDbDimension
  2
*D6
 10
-13.23504054296813
 20
39.82059937014435
 30
0.0
 11
-25.43504054296813
 21
41.57059937014435
 31
0.0
 70
    33
  1
約122
 71
     5
 42
24.39999999999998
  3
STANDARD
100
AcDbAlignedDimension
 13
-37.63504054296812
 23
31.82059937016436
 33
0.0
 14
-13.23504054296813
 24
31.82059937014435
 34
0.0
1001
ACAD
1000
DSTYLE
1002
{
1070
    40
1040
1.0
1070
   140
1040
2.5
1070
   147
1040
0.5
1070
   172
1070
     1
1070
   279
1070
     0
1070
   288
1070
     0
1002
}
  0
DIMENSION
  5
237
330
2
100
AcDbEntity
  8
SUNPO
100
AcDbDimension
  2
*D5
 10
-5.435040542968067
 20
-10.9794006220356
 30
0.0
 11
-7.185040542968064
 21
10.5205993779644
 31
0.0
 70
    33
  1
約215
 71
     5
 42
43.0
  3
STANDARD
100
AcDbAlignedDimension
 13
-13.43504054296807
 23
32.0205993779644
 33
0.0
 14
-13.43504054296807
 24
-10.97940062203559
 34
0.0
1001
ACAD
1000
DSTYLE
1002
{
1070
    40
1040
1.0
1070
   140
1040
2.5
1070
   147
1040
0.5
1070
   172
1070
     1
1070
   279
1070
     0
1070
   288
1070
     0
1002
}
  0
DIMENSION
  5
244
330
2
100
AcDbEntity
  8
SUNPO
100
AcDbDimension
  2
*D4
 10
28.70178683419016
 20
35.22148992878358
 30
0.0
 11
22.07132954914147
 21
38.34998226865018
 31
0.0
 70
    33
  1
約71
 71
     5
 42
14.23909100040577
 51
10.99999999999997
  3
STANDARD
100
AcDbAlignedDimension
 13
13.18292044433326
 23
30.3304995708902
 33
0.0
 14
27.13862950986493
 24
27.50385898601314
 34
0.0
1001
ACAD
1000
DSTYLE
1002
{
1070
    40
1040
1.0
1070
   140
1040
2.5
1070
   147
1040
0.5
1070
   172
1070
     1
1070
   279
1070
     0
1070
   288
1070
     0
1002
}
  0
ENDSEC
  0
SECTION
  2
OBJECTS
  0
DICTIONARY
  5
A
330
0
100
AcDbDictionary
281
     1
  3
ACAD_COLOR
350
33
  3
ACAD_GROUP
350
2F
  3
ACAD_LAYOUT
350
E
  3
ACAD_MATERIAL
350
32
  3
ACAD_MLINESTYLE
350
30
  3
ACAD_PLOTSETTINGS
350
31
  3
ACAD_PLOTSTYLENAME
350
9
  3
ACDBHEADERROUNDTRIPXREC
350
28D
  3
AcDbVariableDictionary
350
288
  0
DICTIONARY
  5
16
330
15
100
AcDbDictionary
280
     1
281
     1
  3
ACAD_LAYERFILTERS
360
17
  3
ACAD_LAYERSTATES
360
19
  0
DICTIONARY
  5
3
330
2
100
AcDbDictionary
280
     1
281
     1
  3
ACAD_LAYOUTSELFREF
360
4
  3
ACAD_SORTENTS
360
5
  0
DICTIONARY
  5
10
330
F
100
AcDbDictionary
280
     1
281
     1
  3
ACAD_LAYOUTSELFREF
360
11
  0
DICTIONARY
  5
33
102
{ACAD_REACTORS
330
A
102
}
330
A
100
AcDbDictionary
281
     1
  0
DICTIONARY
  5
2F
102
{ACAD_REACTORS
330
A
102
}
330
A
100
AcDbDictionary
281
     1
  0
DICTIONARY
  5
E
102
{ACAD_REACTORS
330
A
102
}
330
A
100
AcDbDictionary
281
     1
  3
Model
350
D
  3
ﾚｲｱｳﾄ1
350
14
  0
DICTIONARY
  5
32
102
{ACAD_REACTORS
330
A
102
}
330
A
100
AcDbDictionary
281
     1
  0
DICTIONARY
  5
30
102
{ACAD_REACTORS
330
A
102
}
330
A
100
AcDbDictionary
281
     1
  3
STANDARD
350
35
  0
DICTIONARY
  5
31
102
{ACAD_REACTORS
330
A
102
}
330
A
100
AcDbDictionary
281
     1
  0
ACDBDICTIONARYWDFLT
  5
9
102
{ACAD_REACTORS
330
A
102
}
330
A
100
AcDbDictionary
281
     1
  3
Normal
350
8
100
AcDbDictionaryWithDefault
340
8
  0
DICTIONARY
  5
28D
102
{ACAD_REACTORS
330
A
102
}
330
A
100
AcDbDictionary
281
     1
  3
COLORDICT
350
28F
  3
MATERIALDICT
350
28E
  0
DICTIONARY
  5
288
102
{ACAD_REACTORS
330
A
102
}
330
A
100
AcDbDictionary
281
     1
  3
DIMASSOC
350
28A
  3
HIDETEXT
350
289
  3
PROJECTNAME
350
28B
  0
DICTIONARY
  5
17
102
{ACAD_REACTORS
330
16
102
}
330
16
100
AcDbDictionary
280
     1
281
     1
  3
ロック画層
360
18
  0
DICTIONARY
  5
19
102
{ACAD_REACTORS
330
16
102
}
330
16
100
AcDbDictionary
281
     1
  0
XRECORD
  5
4
102
{ACAD_REACTORS
330
3
102
}
330
3
100
AcDbXrecord
280
     1
340
2
  0
SORTENTSTABLE
  5
5
102
{ACAD_REACTORS
330
3
102
}
330
3
100
AcDbSortentsTable
330
2
  0
XRECORD
  5
11
102
{ACAD_REACTORS
330
10
102
}
330
10
100
AcDbXrecord
280
     1
340
F
  0
LAYOUT
  5
D
102
{ACAD_XDICTIONARY
360
290
102
}
102
{ACAD_REACTORS
330
E
102
}
330
E
100
AcDbPlotSettings
  1

  2
\\URANUS\8FPAM09
  4
A4
  6

 40
4.180416584014892
 41
4.349743366241455
 42
4.222747802734375
 43
4.349761962890625
 44
210.0156707763672
 45
297.0106506347656
 46
6.099999999999999
 47
0.0
 48
-2.479811286862059
 49
-0.2823090592564767
140
260.680882607181
141
392.9895398311683
142
1.0
143
1.367721839684995
 70
 11956
 72
     1
 73
     0
 74
     1
  7
tmsacad.ctb
 75
     0
147
0.731142817921452
148
0.5368645323951569
149
0.096164918057184
100
AcDbLayout
  1
Model
 70
     1
 71
     0
 10
0.0
 20
0.0
 11
12.0
 21
9.0
 12
0.0
 22
0.0
 32
0.0
 14
0.0
 24
0.0
 34
0.0
 15
0.0
 25
0.0
 35
0.0
146
0.0
 13
0.0
 23
0.0
 33
0.0
 16
1.0
 26
0.0
 36
0.0
 17
0.0
 27
1.0
 37
0.0
 76
     0
330
2
  0
LAYOUT
  5
14
102
{ACAD_XDICTIONARY
360
292
102
}
102
{ACAD_REACTORS
330
E
102
}
330
E
100
AcDbPlotSettings
  1

  2
C:\Documents and Settings\10773\Application Data\Autodesk\AutoCAD 2004\R16.0\jpn\plotters\8FPAM09.pc3
  4
A3
  6

 40
4.349750041961669
 41
3.545409202575683
 42
4.3497314453125
 43
3.503082275390625
 44
297.0106506347656
 45
419.9889831542968
 46
0.0
 47
0.0
 48
0.0
 49
0.0
140
0.0
141
0.0
142
1.0
143
1.0
 70
   688
 72
     0
 73
     1
 74
     5
  7
tmsacad.ctb
 75
    16
147
1.0
148
0.0
149
0.0
100
AcDbLayout
  1
ﾚｲｱｳﾄ1
 70
     1
 71
     1
 10
-0.1379166250153789
 20
-0.1712500016520342
 11
16.39708271176796
 21
11.52208270050409
 12
0.0
 22
0.0
 32
0.0
 14
1.000000000000000E+20
 24
1.000000000000000E+20
 34
1.000000000000000E+20
 15
-1.000000000000000E+20
 25
-1.000000000000000E+20
 35
-1.000000000000000E+20
146
0.0
 13
0.0
 23
0.0
 33
0.0
 16
1.0
 26
0.0
 36
0.0
 17
0.0
 27
1.0
 37
0.0
 76
     0
330
F
  0
MLINESTYLE
  5
35
102
{ACAD_REACTORS
330
30
102
}
330
30
100
AcDbMlineStyle
  2
STANDARD
 70
     0
  3

 62
   256
 51
90.0
 52
90.0
 71
     2
 49
0.5
 62
   256
  6
BYLAYER
 49
-0.5
 62
   256
  6
BYLAYER
  0
ACDBPLACEHOLDER
  5
8
102
{ACAD_REACTORS
330
9
102
}
330
9
  0
XRECORD
  5
28F
102
{ACAD_REACTORS
330
28D
102
}
330
28D
100
AcDbXrecord
280
     1
340
33
  0
XRECORD
  5
28E
102
{ACAD_REACTORS
330
28D
102
}
330
28D
100
AcDbXrecord
280
     1
340
32
  0
DICTIONARYVAR
  5
28A
102
{ACAD_REACTORS
330
288
102
}
330
288
100
DictionaryVariables
280
     0
  1
1
  0
DICTIONARYVAR
  5
289
102
{ACAD_REACTORS
330
288
102
}
330
288
100
DictionaryVariables
280
     0
  1
1
  0
DICTIONARYVAR
  5
28B
102
{ACAD_REACTORS
330
288
102
}
330
288
100
DictionaryVariables
280
     0
  1

  0
XRECORD
  5
18
102
{ACAD_REACTORS
330
17
102
}
330
17
100
AcDbXrecord
280
     1
  1
ロック画層
  1
*
  1
*
  1
*
 70
   256
  1
*
  1
*
  0
DICTIONARY
  5
290
330
D
100
AcDbDictionary
280
     1
281
     1
  3
ACAD_XREC_ROUNDTRIP
360
291
  0
DICTIONARY
  5
292
330
14
100
AcDbDictionary
280
     1
281
     1
  3
ACAD_XREC_ROUNDTRIP
360
293
  0
XRECORD
  5
291
102
{ACAD_REACTORS
330
290
102
}
330
290
100
AcDbXrecord
280
     1
102
SHADEPLOT
 70
     0
102
SHADEPLOTRESLEVEL
 70
     2
102
SHADEPLOTCUSTOMDPI
 70
   300
  0
XRECORD
  5
293
102
{ACAD_REACTORS
330
292
102
}
330
292
100
AcDbXrecord
280
     1
102
SHADEPLOT
 70
     0
102
SHADEPLOTRESLEVEL
 70
     2
102
SHADEPLOTCUSTOMDPI
 70
   300
  0
ENDSEC
  0
EOF
