  0
SECTION
  2
HEADER
  9
$ACADVER
  1
AC1015
  9
$ACADMAINTVER
 70
    20
  9
$DWGCODEPAGE
  3
ANSI_932
  9
$INSBASE
 10
0.4999999440410648
 20
372.5008351249344
 30
0.0
  9
$EXTMIN
 10
-62.04894928965825
 20
-47.36700375816667
 30
-0.0015258207003583
  9
$EXTMAX
 10
62.98461970289316
 20
65.38568157421616
 30
0.0000000349246037
  9
$LIMMIN
 10
0.0
 20
0.0
  9
$LIMMAX
 10
420.0
 20
297.0
  9
$ORTHOMODE
 70
     1
  9
$REGENMODE
 70
     0
  9
$FILLMODE
 70
     1
  9
$QTEXTMODE
 70
     0
  9
$MIRRTEXT
 70
     0
  9
$LTSCALE
 40
1.0
  9
$ATTMODE
 70
     1
  9
$TEXTSIZE
 40
2.5
  9
$TRACEWID
 40
1.0
  9
$TEXTSTYLE
  7
Standard
  9
$CLAYER
  8
GAIKEI
  9
$CELTYPE
  6
ByLayer
  9
$CECOLOR
 62
   256
  9
$CELTSCALE
 40
1.0
  9
$DISPSILH
 70
     0
  9
$DIMSCALE
 40
1.0
  9
$DIMASZ
 40
2.0
  9
$DIMEXO
 40
2.0
  9
$DIMDLI
 40
8.0
  9
$DIMRND
 40
0.0
  9
$DIMDLE
 40
0.0
  9
$DIMEXE
 40
2.0
  9
$DIMTP
 40
0.0
  9
$DIMTM
 40
0.0
  9
$DIMTXT
 40
2.5
  9
$DIMCEN
 40
0.0
  9
$DIMTSZ
 40
0.0
  9
$DIMTOL
 70
     0
  9
$DIMLIM
 70
     0
  9
$DIMTIH
 70
     0
  9
$DIMTOH
 70
     0
  9
$DIMSE1
 70
     0
  9
$DIMSE2
 70
     0
  9
$DIMTAD
 70
     3
  9
$DIMZIN
 70
     0
  9
$DIMBLK
  1

  9
$DIMASO
 70
     1
  9
$DIMSHO
 70
     1
  9
$DIMPOST
  1

  9
$DIMAPOST
  1

  9
$DIMALT
 70
     0
  9
$DIMALTD
 70
     2
  9
$DIMALTF
 40
25.4
  9
$DIMLFAC
 40
1.0
  9
$DIMTOFL
 70
     1
  9
$DIMTVP
 40
0.0
  9
$DIMTIX
 70
     0
  9
$DIMSOXD
 70
     0
  9
$DIMSAH
 70
     1
  9
$DIMBLK1
  1
OPEN30
  9
$DIMBLK2
  1
OPEN30
  9
$DIMSTYLE
  2
STANDARD
  9
$DIMCLRD
 70
     0
  9
$DIMCLRE
 70
     0
  9
$DIMCLRT
 70
     0
  9
$DIMTFAC
 40
1.0
  9
$DIMGAP
 40
0.5
  9
$DIMJUST
 70
     0
  9
$DIMSD1
 70
     0
  9
$DIMSD2
 70
     0
  9
$DIMTOLJ
 70
     1
  9
$DIMTZIN
 70
     0
  9
$DIMALTZ
 70
     0
  9
$DIMALTTZ
 70
     0
  9
$DIMUPT
 70
     0
  9
$DIMDEC
 70
     4
  9
$DIMTDEC
 70
     4
  9
$DIMALTU
 70
     2
  9
$DIMALTTD
 70
     2
  9
$DIMTXSTY
  7
Standard
  9
$DIMAUNIT
 70
     0
  9
$DIMADEC
 70
     0
  9
$DIMALTRND
 40
0.0
  9
$DIMAZIN
 70
     0
  9
$DIMDSEP
 70
    46
  9
$DIMATFIT
 70
     3
  9
$DIMFRAC
 70
     0
  9
$DIMLDRBLK
  1
OPEN30
  9
$DIMLUNIT
 70
     2
  9
$DIMLWD
 70
    -2
  9
$DIMLWE
 70
    -2
  9
$DIMTMOVE
 70
     0
  9
$LUNITS
 70
     2
  9
$LUPREC
 70
     4
  9
$SKETCHINC
 40
1.0
  9
$FILLETRAD
 40
0.0
  9
$AUNITS
 70
     0
  9
$AUPREC
 70
     0
  9
$MENU
  1
.
  9
$ELEVATION
 40
0.0
  9
$PELEVATION
 40
0.0
  9
$THICKNESS
 40
0.0
  9
$LIMCHECK
 70
     0
  9
$CHAMFERA
 40
0.0
  9
$CHAMFERB
 40
0.0
  9
$CHAMFERC
 40
0.0
  9
$CHAMFERD
 40
0.0
  9
$SKPOLY
 70
     0
  9
$TDCREATE
 40
2454349.434269746
  9
$TDUCREATE
 40
2454349.059269746
  9
$TDUPDATE
 40
2454729.548704444
  9
$TDUUPDATE
 40
2454729.173704444
  9
$TDINDWG
 40
0.4943633102
  9
$TDUSRTIMER
 40
0.4943633102
  9
$USRTIMER
 70
     1
  9
$ANGBASE
 50
0.0
  9
$ANGDIR
 70
     0
  9
$PDMODE
 70
     0
  9
$PDSIZE
 40
0.0
  9
$PLINEWID
 40
0.0
  9
$SPLFRAME
 70
     0
  9
$SPLINETYPE
 70
     6
  9
$SPLINESEGS
 70
     8
  9
$HANDSEED
  5
208
  9
$SURFTAB1
 70
     6
  9
$SURFTAB2
 70
     6
  9
$SURFTYPE
 70
     6
  9
$SURFU
 70
     6
  9
$SURFV
 70
     6
  9
$UCSBASE
  2

  9
$UCSNAME
  2

  9
$UCSORG
 10
0.0
 20
0.0
 30
0.0
  9
$UCSXDIR
 10
1.0
 20
0.0
 30
0.0
  9
$UCSYDIR
 10
0.0
 20
1.0
 30
0.0
  9
$UCSORTHOREF
  2

  9
$UCSORTHOVIEW
 70
     0
  9
$UCSORGTOP
 10
0.0
 20
0.0
 30
0.0
  9
$UCSORGBOTTOM
 10
0.0
 20
0.0
 30
0.0
  9
$UCSORGLEFT
 10
0.0
 20
0.0
 30
0.0
  9
$UCSORGRIGHT
 10
0.0
 20
0.0
 30
0.0
  9
$UCSORGFRONT
 10
0.0
 20
0.0
 30
0.0
  9
$UCSORGBACK
 10
0.0
 20
0.0
 30
0.0
  9
$PUCSBASE
  2

  9
$PUCSNAME
  2

  9
$PUCSORG
 10
0.0
 20
0.0
 30
0.0
  9
$PUCSXDIR
 10
1.0
 20
0.0
 30
0.0
  9
$PUCSYDIR
 10
0.0
 20
1.0
 30
0.0
  9
$PUCSORTHOREF
  2

  9
$PUCSORTHOVIEW
 70
     0
  9
$PUCSORGTOP
 10
0.0
 20
0.0
 30
0.0
  9
$PUCSORGBOTTOM
 10
0.0
 20
0.0
 30
0.0
  9
$PUCSORGLEFT
 10
0.0
 20
0.0
 30
0.0
  9
$PUCSORGRIGHT
 10
0.0
 20
0.0
 30
0.0
  9
$PUCSORGFRONT
 10
0.0
 20
0.0
 30
0.0
  9
$PUCSORGBACK
 10
0.0
 20
0.0
 30
0.0
  9
$USERI1
 70
     0
  9
$USERI2
 70
     0
  9
$USERI3
 70
     0
  9
$USERI4
 70
     0
  9
$USERI5
 70
     0
  9
$USERR1
 40
0.0
  9
$USERR2
 40
0.0
  9
$USERR3
 40
0.0
  9
$USERR4
 40
0.0
  9
$USERR5
 40
0.0
  9
$WORLDVIEW
 70
     1
  9
$SHADEDGE
 70
     3
  9
$SHADEDIF
 70
    70
  9
$TILEMODE
 70
     1
  9
$MAXACTVP
 70
    64
  9
$PINSBASE
 10
0.0
 20
0.0
 30
0.0
  9
$PLIMCHECK
 70
     0
  9
$PEXTMIN
 10
0.0
 20
0.0
 30
0.0
  9
$PEXTMAX
 10
0.0
 20
0.0
 30
0.0
  9
$PLIMMIN
 10
0.0
 20
0.0
  9
$PLIMMAX
 10
12.0
 20
9.0
  9
$UNITMODE
 70
     0
  9
$VISRETAIN
 70
     1
  9
$PLINEGEN
 70
     0
  9
$PSLTSCALE
 70
     1
  9
$TREEDEPTH
 70
  3020
  9
$CMLSTYLE
  2
Standard
  9
$CMLJUST
 70
     0
  9
$CMLSCALE
 40
20.0
  9
$PROXYGRAPHICS
 70
     1
  9
$MEASUREMENT
 70
     1
  9
$CELWEIGHT
370
    -1
  9
$ENDCAPS
280
     0
  9
$JOINSTYLE
280
     0
  9
$LWDISPLAY
290
     0
  9
$INSUNITS
 70
     4
  9
$HYPERLINKBASE
  1

  9
$STYLESHEET
  1

  9
$XEDIT
290
     1
  9
$CEPSNTYPE
380
     0
  9
$PSTYLEMODE
290
     1
  9
$FINGERPRINTGUID
  2
{FDEAD578-A652-11D2-9A35-0060089B3A3F}
  9
$VERSIONGUID
  2
{C8535FEC-9C61-4E73-BD36-5DF9D990E4A4}
  9
$EXTNAMES
290
     1
  9
$PSVPSCALE
 40
0.0
  9
$OLESTARTUP
290
     0
  0
ENDSEC
  0
SECTION
  2
CLASSES
  0
CLASS
  1
ACDBDICTIONARYWDFLT
  2
AcDbDictionaryWithDefault
  3
ObjectDBX Classes
 90
        0
280
     0
281
     0
  0
CLASS
  1
ACDBPLACEHOLDER
  2
AcDbPlaceHolder
  3
ObjectDBX Classes
 90
        0
280
     0
281
     0
  0
CLASS
  1
LAYOUT
  2
AcDbLayout
  3
ObjectDBX Classes
 90
        0
280
     0
281
     0
  0
CLASS
  1
DICTIONARYVAR
  2
AcDbDictionaryVar
  3
ObjectDBX Classes
 90
        0
280
     0
281
     0
  0
CLASS
  1
DIMASSOC
  2
AcDbDimAssoc
  3
"AcDbDimAssoc|Product Desc:     AcDim ARX App For Dimension|Company:          Autodesk, Inc.|WEB Address:      www.autodesk.com"
 90
    32768
280
     0
281
     0
  0
CLASS
  1
SORTENTSTABLE
  2
AcDbSortentsTable
  3
ObjectDBX Classes
 90
    32768
280
     0
281
     0
  0
ENDSEC
  0
SECTION
  2
TABLES
  0
TABLE
  2
VPORT
  5
1B
330
0
100
AcDbSymbolTable
 70
     3
  0
VPORT
  5
200
330
1B
100
AcDbSymbolTableRecord
100
AcDbViewportTableRecord
  2
*Active
 70
     0
 10
0.0
 20
0.0
 11
1.0
 21
1.0
 12
0.4678352066174441
 22
9.009338908024737
 13
0.0
 23
0.0
 14
10.0
 24
10.0
 15
10.0
 25
10.0
 16
0.0
 26
0.0
 36
1.0
 17
0.0
 27
0.0
 37
0.0
 40
113.627867883475
 41
1.516839378238342
 42
50.0
 43
0.0
 44
0.0
 50
0.0
 51
0.0
 71
     0
 72
  1000
 73
     1
 74
     2
 75
     0
 76
     0
 77
     0
 78
     0
281
     0
 65
     1
110
0.0
120
0.0
130
0.0
111
1.0
121
0.0
131
0.0
112
0.0
122
1.0
132
0.0
 79
     0
146
0.0
  0
ENDTAB
  0
TABLE
  2
LTYPE
  5
16
330
0
100
AcDbSymbolTable
 70
     2
  0
LTYPE
  5
17
330
16
100
AcDbSymbolTableRecord
100
AcDbLinetypeTableRecord
  2
ByBlock
 70
     0
  3

 72
    65
 73
     0
 40
0.0
  0
LTYPE
  5
18
330
16
100
AcDbSymbolTableRecord
100
AcDbLinetypeTableRecord
  2
ByLayer
 70
     0
  3

 72
    65
 73
     0
 40
0.0
  0
LTYPE
  5
8
330
16
100
AcDbSymbolTableRecord
100
AcDbLinetypeTableRecord
  2
Continuous
 70
     0
  3
Solid line
 72
    65
 73
     0
 40
0.0
  0
LTYPE
  5
146
330
16
100
AcDbSymbolTableRecord
100
AcDbLinetypeTableRecord
  2
HIDDEN2
 70
     0
  3
Hidden (.5x) _ _ _ _ _ _ _ _ _ _ _ _ _ _ _ _ _
 72
    65
 73
     2
 40
1.399999999999999
 49
0.7
 74
     0
 49
-0.7
 74
     0
  0
ENDTAB
  0
TABLE
  2
LAYER
  5
10
102
{ACAD_XDICTIONARY
360
11
102
}
330
0
100
AcDbSymbolTable
 70
     7
  0
LAYER
  5
4
330
10
100
AcDbSymbolTableRecord
100
AcDbLayerTableRecord
  2
0
 70
     0
 62
     7
  6
Continuous
370
    -3
390
5
  0
LAYER
  5
1C5
330
10
100
AcDbSymbolTableRecord
100
AcDbLayerTableRecord
  2
WAKU
 70
     0
 62
     4
  6
Continuous
370
    -3
390
5
  0
LAYER
  5
1C2
330
10
100
AcDbSymbolTableRecord
100
AcDbLayerTableRecord
  2
MOJI1
 70
     0
 62
     2
  6
Continuous
370
    -3
390
5
  0
LAYER
  5
1C0
330
10
100
AcDbSymbolTableRecord
100
AcDbLayerTableRecord
  2
TOUROKU
 70
     0
 62
     1
  6
Continuous
370
    -3
390
5
  0
LAYER
  5
2D
330
10
100
AcDbSymbolTableRecord
100
AcDbLayerTableRecord
  2
GAIKEI
 70
     0
 62
     7
  6
Continuous
370
    -3
390
5
  0
LAYER
  5
137
330
10
100
AcDbSymbolTableRecord
100
AcDbLayerTableRecord
  2
SUNPO
 70
     0
 62
     3
  6
Continuous
370
    -3
390
5
  0
LAYER
  5
141
330
10
100
AcDbSymbolTableRecord
100
AcDbLayerTableRecord
  2
Defpoints
 70
     0
 62
     7
  6
Continuous
290
     0
370
    -3
390
5
  0
ENDTAB
  0
TABLE
  2
STYLE
  5
13
330
0
100
AcDbSymbolTable
 70
     1
  0
STYLE
  5
14
330
13
100
AcDbSymbolTableRecord
100
AcDbTextStyleTableRecord
  2
Standard
 70
     0
 40
0.0
 41
1.0
 50
0.0
 71
     0
 42
2.5
  3
MONOTXT.shx
  4
BIGFONT.shx
  0
ENDTAB
  0
TABLE
  2
VIEW
  5
19
330
0
100
AcDbSymbolTable
 70
     0
  0
ENDTAB
  0
TABLE
  2
UCS
  5
1A
330
0
100
AcDbSymbolTable
 70
     0
  0
ENDTAB
  0
TABLE
  2
APPID
  5
1D
330
0
100
AcDbSymbolTable
 70
     1
  0
APPID
  5
1E
330
1D
100
AcDbSymbolTableRecord
100
AcDbRegAppTableRecord
  2
ACAD
 70
     0
  0
ENDTAB
  0
TABLE
  2
DIMSTYLE
  5
1F
330
0
100
AcDbSymbolTable
 70
     1
100
AcDbDimStyleTable
 71
     1
340
20
  0
DIMSTYLE
105
20
102
{ACAD_REACTORS
330
147
330
136
102
}
330
1F
100
AcDbSymbolTableRecord
100
AcDbDimStyleTableRecord
  2
STANDARD
 70
     0
 40
0.0
 41
2.0
 42
2.0
 43
8.0
 44
2.0
 73
     0
 74
     0
 77
     3
140
3.0
141
0.0
173
     1
279
     2
288
     1
340
14
341
21
343
21
344
21
  0
ENDTAB
  0
TABLE
  2
BLOCK_RECORD
  5
1
330
0
100
AcDbSymbolTable
 70
     5
  0
BLOCK_RECORD
  5
2
330
1
100
AcDbSymbolTableRecord
100
AcDbBlockTableRecord
  2
*Model_Space
340
A
  0
BLOCK_RECORD
  5
C
330
1
100
AcDbSymbolTableRecord
100
AcDbBlockTableRecord
  2
*Paper_Space
340
F
  0
BLOCK_RECORD
  5
21
330
1
100
AcDbSymbolTableRecord
100
AcDbBlockTableRecord
  2
_OPEN30
340
0
102
{BLKREFS
331
13D
331
13E
331
14D
331
14E
331
1E8
331
1E9
331
1F4
331
1F5
102
}
  0
BLOCK_RECORD
  5
148
330
1
100
AcDbSymbolTableRecord
100
AcDbBlockTableRecord
  2
*D1
340
0
  0
BLOCK_RECORD
  5
138
330
1
100
AcDbSymbolTableRecord
100
AcDbBlockTableRecord
  2
*D2
340
0
  0
BLOCK_RECORD
  5
1E4
330
1
100
AcDbSymbolTableRecord
100
AcDbBlockTableRecord
  2
*D3
340
0
  0
BLOCK_RECORD
  5
1F0
330
1
100
AcDbSymbolTableRecord
100
AcDbBlockTableRecord
  2
*D4
340
0
  0
ENDTAB
  0
ENDSEC
  0
SECTION
  2
BLOCKS
  0
BLOCK
  5
3
330
2
100
AcDbEntity
  8
0
100
AcDbBlockBegin
  2
*Model_Space
 70
     0
 10
0.0
 20
0.0
 30
0.0
  3
*Model_Space
  1

  0
ENDBLK
  5
9
330
2
100
AcDbEntity
  8
0
100
AcDbBlockEnd
  0
BLOCK
  5
D
330
C
100
AcDbEntity
 67
     1
  8
0
100
AcDbBlockBegin
  2
*Paper_Space
 70
     0
 10
0.0
 20
0.0
 30
0.0
  3
*Paper_Space
  1

  0
ENDBLK
  5
E
330
C
100
AcDbEntity
 67
     1
  8
0
100
AcDbBlockEnd
  0
BLOCK
  5
22
330
21
100
AcDbEntity
  8
0
100
AcDbBlockBegin
  2
_OPEN30
 70
     0
 10
0.0
 20
0.0
 30
0.0
  3
_OPEN30
  1

  0
LINE
  5
23
330
21
100
AcDbEntity
  8
0
  6
ByBlock
 62
     0
100
AcDbLine
 10
-1.0
 20
0.26794919
 30
0.0
 11
0.0
 21
0.0
 31
0.0
  0
LINE
  5
24
330
21
100
AcDbEntity
  8
0
  6
ByBlock
 62
     0
100
AcDbLine
 10
0.0
 20
0.0
 30
0.0
 11
-1.0
 21
-0.26794919
 31
0.0
  0
LINE
  5
25
330
21
100
AcDbEntity
  8
0
  6
ByBlock
 62
     0
100
AcDbLine
 10
0.0
 20
0.0
 30
0.0
 11
-1.0
 21
0.0
 31
0.0
  0
ENDBLK
  5
26
330
21
100
AcDbEntity
  8
0
100
AcDbBlockEnd
  0
BLOCK
  5
149
330
148
100
AcDbEntity
  8
0
100
AcDbBlockBegin
  2
*D1
 70
     1
 10
0.0
 20
0.0
 30
0.0
  3
*D1
  1

  0
LINE
  5
14A
330
148
100
AcDbEntity
  8
SUNPO
 62
     0
370
    -2
100
AcDbLine
 10
76.33506386970492
 20
340.378625098918
 30
0.0
 11
76.33506386970492
 21
348.378625098918
 31
0.0
  0
LINE
  5
14B
330
148
100
AcDbEntity
  8
SUNPO
 62
     0
370
    -2
100
AcDbLine
 10
100.9350602539991
 20
340.378625098918
 30
0.0
 11
100.9350602539991
 21
348.378625098918
 31
0.0
  0
LINE
  5
14C
330
148
100
AcDbEntity
  8
SUNPO
 62
     0
370
    -2
100
AcDbLine
 10
78.33506386970492
 20
346.378625098918
 30
0.0
 11
98.9350602539991
 21
346.378625098918
 31
0.0
  0
INSERT
  5
14D
330
148
100
AcDbEntity
  8
SUNPO
 62
     0
370
    -2
100
AcDbBlockReference
  2
_OPEN30
 10
76.33506386970492
 20
346.378625098918
 30
0.0
 41
2.0
 42
2.0
 43
2.0
 50
180.0
  0
INSERT
  5
14E
330
148
100
AcDbEntity
  8
SUNPO
 62
     0
370
    -2
100
AcDbBlockReference
  2
_OPEN30
 10
100.9350602539991
 20
346.378625098918
 30
0.0
 41
2.0
 42
2.0
 43
2.0
  0
MTEXT
  5
14F
330
148
100
AcDbEntity
  8
SUNPO
 62
     0
100
AcDbMText
 10
88.63506206185201
 20
348.128625098918
 30
0.0
 40
2.5
 41
0.0
 71
     5
 72
     1
  1
\A1;φ1230
 73
     1
 44
1.0
1001
ACAD
1000
MTEXTBEGIN
1070
    73
1070
     1
1070
    44
1040
1.0
1070
    74
1070
     0
1000
MTEXTEND
  0
POINT
  5
150
330
148
100
AcDbEntity
  8
Defpoints
 62
     0
100
AcDbPoint
 10
76.33506386970492
 20
338.378625098918
 30
0.0
  0
POINT
  5
151
330
148
100
AcDbEntity
  8
Defpoints
 62
     0
100
AcDbPoint
 10
100.9350602539991
 20
338.378625098918
 30
0.0
  0
POINT
  5
152
330
148
100
AcDbEntity
  8
Defpoints
 62
     0
100
AcDbPoint
 10
100.9350602539991
 20
346.378625098918
 30
0.0
  0
ENDBLK
  5
153
330
148
100
AcDbEntity
  8
0
100
AcDbBlockEnd
  0
BLOCK
  5
139
330
138
100
AcDbEntity
  8
0
100
AcDbBlockBegin
  2
*D2
 70
     1
 10
0.0
 20
0.0
 30
0.0
  3
*D2
  1

  0
LINE
  5
13A
330
138
100
AcDbEntity
  8
SUNPO
 62
     0
370
    -2
100
AcDbLine
 10
52.91751100401637
 20
342.1344516484487
 30
0.0
 11
60.91751100401638
 21
342.1344516484487
 31
0.0
  0
LINE
  5
13B
330
138
100
AcDbEntity
  8
SUNPO
 62
     0
370
    -2
100
AcDbLine
 10
52.91751100401637
 20
313.9388887769683
 30
0.0
 11
60.91751100401637
 21
313.9388887769683
 31
0.0
  0
LINE
  5
13C
330
138
100
AcDbEntity
  8
SUNPO
 62
     0
370
    -2
100
AcDbLine
 10
58.91751100401638
 20
340.1344516484487
 30
0.0
 11
58.91751100401638
 21
315.9388887769683
 31
0.0
  0
INSERT
  5
13D
330
138
100
AcDbEntity
  8
SUNPO
 62
     0
370
    -2
100
AcDbBlockReference
  2
_OPEN30
 10
58.91751100401638
 20
342.1344516484487
 30
0.0
 41
2.0
 42
2.0
 43
2.0
 50
90.0
  0
INSERT
  5
13E
330
138
100
AcDbEntity
  8
SUNPO
 62
     0
370
    -2
100
AcDbBlockReference
  2
_OPEN30
 10
58.91751100401638
 20
313.9388887769683
 30
0.0
 41
2.0
 42
2.0
 43
2.0
 50
270.0
  0
MTEXT
  5
13F
330
138
100
AcDbEntity
  8
SUNPO
 62
     0
100
AcDbMText
 10
57.16751100401633
 20
328.0366702127085
 30
0.0
 40
2.5
 41
0.0
 71
     5
 72
     1
  1
\A1;950～1820
 11
0.0000000000000001
 21
1.0
 31
0.0
 73
     1
 44
1.0
1001
ACAD
1000
MTEXTBEGIN
1070
    73
1070
     1
1070
    44
1040
1.0
1070
    74
1070
     0
1000
MTEXTEND
  0
POINT
  5
140
330
138
100
AcDbEntity
  8
Defpoints
 62
     0
100
AcDbPoint
 10
50.91751100401637
 20
342.1344516484487
 30
0.0
  0
POINT
  5
142
330
138
100
AcDbEntity
  8
Defpoints
 62
     0
100
AcDbPoint
 10
50.91751100401637
 20
313.9388887769683
 30
0.0
  0
POINT
  5
143
330
138
100
AcDbEntity
  8
Defpoints
 62
     0
100
AcDbPoint
 10
58.91751100401638
 20
313.9388887769683
 30
0.0
  0
ENDBLK
  5
144
330
138
100
AcDbEntity
  8
0
100
AcDbBlockEnd
  0
BLOCK
  5
1EE
330
1E4
100
AcDbEntity
  8
0
100
AcDbBlockBegin
  2
*D3
 70
     1
 10
0.0
 20
0.0
 30
0.0
  3
*D3
  1

  0
LINE
  5
1E5
330
1E4
100
AcDbEntity
  8
SUNPO
 62
     0
370
    -2
100
AcDbLine
 10
11.8045801409184
 20
35.52689412336559
 30
0.0
 11
11.8045801409184
 21
43.52689412336559
 31
0.0
  0
LINE
  5
1E6
330
1E4
100
AcDbEntity
  8
SUNPO
 62
     0
370
    -2
100
AcDbLine
 10
36.40457652521258
 20
35.52689412336559
 30
0.0
 11
36.40457652521258
 21
43.52689412336559
 31
0.0
  0
LINE
  5
1E7
330
1E4
100
AcDbEntity
  8
SUNPO
 62
     0
370
    -2
100
AcDbLine
 10
13.8045801409184
 20
41.52689412336559
 30
0.0
 11
34.40457652521258
 21
41.52689412336559
 31
0.0
  0
INSERT
  5
1E8
330
1E4
100
AcDbEntity
  8
SUNPO
 62
     0
370
    -2
100
AcDbBlockReference
  2
_OPEN30
 10
11.8045801409184
 20
41.52689412336559
 30
0.0
 41
2.0
 42
2.0
 43
2.0
 50
180.0
  0
INSERT
  5
1E9
330
1E4
100
AcDbEntity
  8
SUNPO
 62
     0
370
    -2
100
AcDbBlockReference
  2
_OPEN30
 10
36.40457652521258
 20
41.52689412336559
 30
0.0
 41
2.0
 42
2.0
 43
2.0
  0
MTEXT
  5
1EA
330
1E4
100
AcDbEntity
  8
SUNPO
 62
     0
100
AcDbMText
 10
24.10457833306549
 20
43.27689412336559
 30
0.0
 40
2.5
 41
0.0
 71
     5
 72
     1
  1
\A1;φ1230
 73
     1
 44
1.0
1001
ACAD
1000
MTEXTBEGIN
1070
    73
1070
     1
1070
    44
1040
1.0
1070
    74
1070
     0
1000
MTEXTEND
  0
POINT
  5
1EB
330
1E4
100
AcDbEntity
  8
Defpoints
 62
     0
100
AcDbPoint
 10
11.8045801409184
 20
33.52689412336559
 30
0.0
  0
POINT
  5
1EC
330
1E4
100
AcDbEntity
  8
Defpoints
 62
     0
100
AcDbPoint
 10
36.40457652521258
 20
33.52689412336559
 30
0.0
  0
POINT
  5
1ED
330
1E4
100
AcDbEntity
  8
Defpoints
 62
     0
100
AcDbPoint
 10
36.40457652521258
 20
41.52689412336559
 30
0.0
  0
ENDBLK
  5
1EF
330
1E4
100
AcDbEntity
  8
0
100
AcDbBlockEnd
  0
BLOCK
  5
1FA
330
1F0
100
AcDbEntity
  8
0
100
AcDbBlockBegin
  2
*D4
 70
     1
 10
0.0
 20
0.0
 30
0.0
  3
*D4
  1

  0
LINE
  5
1F1
330
1F0
100
AcDbEntity
  8
SUNPO
 62
     0
370
    -2
100
AcDbLine
 10
-11.61297272477014
 20
37.28272067289623
 30
0.0
 11
-3.612972724770138
 21
37.28272067289623
 31
0.0
  0
LINE
  5
1F2
330
1F0
100
AcDbEntity
  8
SUNPO
 62
     0
370
    -2
100
AcDbLine
 10
-11.61297272477014
 20
9.08715780141591
 30
0.0
 11
-3.612972724770144
 21
9.087157801415909
 31
0.0
  0
LINE
  5
1F3
330
1F0
100
AcDbEntity
  8
SUNPO
 62
     0
370
    -2
100
AcDbLine
 10
-5.612972724770139
 20
35.28272067289623
 30
0.0
 11
-5.612972724770144
 21
11.08715780141591
 31
0.0
  0
INSERT
  5
1F4
330
1F0
100
AcDbEntity
  8
SUNPO
 62
     0
370
    -2
100
AcDbBlockReference
  2
_OPEN30
 10
-5.612972724770139
 20
37.28272067289623
 30
0.0
 41
2.0
 42
2.0
 43
2.0
 50
90.0
  0
INSERT
  5
1F5
330
1F0
100
AcDbEntity
  8
SUNPO
 62
     0
370
    -2
100
AcDbBlockReference
  2
_OPEN30
 10
-5.612972724770145
 20
9.08715780141591
 30
0.0
 41
2.0
 42
2.0
 43
2.0
 50
270.0
  0
MTEXT
  5
1F6
330
1F0
100
AcDbEntity
  8
SUNPO
 62
     0
100
AcDbMText
 10
-7.362972724770145
 20
23.18493923715607
 30
0.0
 40
2.5
 41
0.0
 71
     5
 72
     1
  1
\A1;950～1820
 11
0.0000000000000001
 21
1.0
 31
0.0
 73
     1
 44
1.0
1001
ACAD
1000
MTEXTBEGIN
1070
    73
1070
     1
1070
    44
1040
1.0
1070
    74
1070
     0
1000
MTEXTEND
  0
POINT
  5
1F7
330
1F0
100
AcDbEntity
  8
Defpoints
 62
     0
100
AcDbPoint
 10
-13.61297272477014
 20
37.28272067289623
 30
0.0
  0
POINT
  5
1F8
330
1F0
100
AcDbEntity
  8
Defpoints
 62
     0
100
AcDbPoint
 10
-13.61297272477014
 20
9.087157801415912
 30
0.0
  0
POINT
  5
1F9
330
1F0
100
AcDbEntity
  8
Defpoints
 62
     0
100
AcDbPoint
 10
-5.612972724770145
 20
9.08715780141591
 30
0.0
  0
ENDBLK
  5
1FB
330
1F0
100
AcDbEntity
  8
0
100
AcDbBlockEnd
  0
ENDSEC
  0
SECTION
  2
ENTITIES
  0
ARC
  5
2F
330
2
100
AcDbEntity
  8
GAIKEI
  6
Continuous
100
AcDbCircle
 10
-23.1932278808502
 20
27.73470303382828
 30
0.0
 40
0.0449820791539052
100
AcDbArc
 50
270.0000000000021
 51
0.0000000000032569
  0
ARC
  5
30
330
2
100
AcDbEntity
  8
GAIKEI
  6
Continuous
100
AcDbCircle
 10
-23.88326431509114
 20
27.73470303382828
 30
0.0
 40
0.0449820791539052
100
AcDbArc
 50
180.0
 51
270.0
  0
LINE
  5
31
330
2
100
AcDbEntity
  8
GAIKEI
  6
Continuous
100
AcDbLine
 10
-23.14824580169631
 20
28.01395200422081
 30
0.0
 11
-23.14824580169631
 21
27.73470303382828
 31
0.0
  0
LINE
  5
32
330
2
100
AcDbEntity
  8
GAIKEI
  6
Continuous
100
AcDbLine
 10
-23.92824639424504
 20
27.73470303382828
 30
0.0
 11
-23.92824639424504
 21
28.01395200422081
 31
0.0
  0
LINE
  5
33
330
2
100
AcDbEntity
  8
GAIKEI
  6
Continuous
100
AcDbLine
 10
-23.88326431509114
 20
27.68972095467439
 30
0.0
 11
-23.1932278808502
 21
27.68972095467439
 31
0.0
  0
ARC
  5
34
330
2
100
AcDbEntity
  8
GAIKEI
  6
Continuous
100
AcDbCircle
 10
-23.14597779770531
 20
28.05893408337477
 30
0.0
 40
0.0449820791539052
100
AcDbArc
 50
269.9999999999989
 51
0.0
  0
ARC
  5
35
330
2
100
AcDbEntity
  8
GAIKEI
  6
Continuous
100
AcDbCircle
 10
-23.93051439823592
 20
28.05893408337477
 30
0.0
 40
0.0449820791539052
100
AcDbArc
 50
180.0
 51
269.9999999999978
  0
LINE
  5
36
330
2
100
AcDbEntity
  8
GAIKEI
  6
Continuous
100
AcDbLine
 10
-23.93051439823592
 20
28.01395200422081
 30
0.0
 11
-23.14597779770531
 21
28.01395200422081
 31
0.0
  0
ARC
  5
37
330
2
100
AcDbEntity
  8
GAIKEI
  6
Continuous
100
AcDbCircle
 10
-23.14597779770537
 20
28.29320097461329
 30
0.0
 40
0.0449820791539052
100
AcDbArc
 50
0.0
 51
89.99999999999884
  0
ARC
  5
38
330
2
100
AcDbEntity
  8
GAIKEI
  6
Continuous
100
AcDbCircle
 10
-23.93051439823592
 20
28.29320097461334
 30
0.0
 40
0.0449820791539052
100
AcDbArc
 50
90.0
 51
180.0
  0
ARC
  5
39
330
2
100
AcDbEntity
  8
GAIKEI
  6
Continuous
100
AcDbCircle
 10
24.30652677517406
 20
20.25084090337884
 30
0.0
 40
0.1638581153127658
100
AcDbArc
 50
327.0932887947981
 51
359.9999999998991
  0
LINE
  5
3A
330
2
100
AcDbEntity
  8
GAIKEI
  6
Continuous
100
AcDbLine
 10
24.4703848904868
 20
20.25084090337884
 30
0.0
 11
24.4703848904868
 21
19.70577861730783
 31
0.0
  0
LINE
  5
3B
330
2
100
AcDbEntity
  8
GAIKEI
  6
Continuous
100
AcDbLine
 10
23.69038429793818
 20
20.25084090337884
 30
0.0
 11
23.69038429793818
 21
19.70577861730783
 31
0.0
  0
ARC
  5
3C
330
2
100
AcDbEntity
  8
GAIKEI
  6
Continuous
100
AcDbCircle
 10
24.08038459421244
 20
20.13653587617353
 30
0.0
 40
0.5810783485383827
100
AcDbArc
 50
227.8428435536004
 51
238.9168231643023
  0
ARC
  5
3D
330
2
100
AcDbEntity
  8
GAIKEI
  6
Continuous
100
AcDbCircle
 10
24.08038459421244
 20
20.13653587617353
 30
0.0
 40
0.5810783485383827
100
AcDbArc
 50
238.9168231643023
 51
301.0831768356977
  0
ARC
  5
3E
330
2
100
AcDbEntity
  8
GAIKEI
  6
Continuous
100
AcDbCircle
 10
24.12710849967544
 20
20.43214060815592
 30
0.0
 40
0.4248546151356587
100
AcDbArc
 50
284.8498922232998
 51
323.8995787761987
  0
ARC
  5
3F
330
2
100
AcDbEntity
  8
GAIKEI
  6
Continuous
100
AcDbCircle
 10
24.08038459421244
 20
20.13653587617353
 30
0.0
 40
0.281078120635048
100
AcDbArc
 50
227.8428435536004
 51
312.1571564463001
  0
LINE
  5
40
330
2
100
AcDbEntity
  8
GAIKEI
  6
Continuous
100
AcDbLine
 10
23.78038436630914
 20
19.63888950535215
 30
0.0
 11
23.89173438796218
 21
19.92817078894734
 31
0.0
  0
LINE
  5
41
330
2
100
AcDbEntity
  8
GAIKEI
  6
Continuous
100
AcDbLine
 10
24.38038482211585
 20
19.63888950535215
 30
0.0
 11
24.26903480051004
 21
19.92817078894734
 31
0.0
  0
ARC
  5
42
330
2
100
AcDbEntity
  8
GAIKEI
  6
Continuous
100
AcDbCircle
 10
24.08038459421244
 20
20.13653587617353
 30
0.0
 40
0.5810783485383827
100
AcDbArc
 50
301.0831768356977
 51
312.1571564463995
  0
ARC
  5
43
330
2
100
AcDbEntity
  8
GAIKEI
  6
Continuous
100
AcDbCircle
 10
24.08038459421244
 20
20.60836201810935
 30
0.0
 40
0.6071650883993543
100
AcDbArc
 50
269.999999999899
 51
284.8498922234996
  0
ARC
  5
44
330
2
100
AcDbEntity
  8
GAIKEI
  6
Continuous
100
AcDbCircle
 10
24.08038459421244
 20
20.60836201810935
 30
0.0
 40
0.6071650883993543
100
AcDbArc
 50
255.1501077765004
 51
270.000000000101
  0
ARC
  5
45
330
2
100
AcDbEntity
  8
GAIKEI
  6
Continuous
100
AcDbCircle
 10
24.03366068879672
 20
20.43214060815592
 30
0.0
 40
0.4248546151356587
100
AcDbArc
 50
216.1004212238013
 51
255.1501077765987
  0
LINE
  5
46
330
2
100
AcDbEntity
  8
GAIKEI
  6
Continuous
100
AcDbLine
 10
23.91538446886557
 20
20.51134973241591
 30
0.0
 11
23.91538446886563
 21
20.4776002381829
 31
0.0
  0
LINE
  5
47
330
2
100
AcDbEntity
  8
GAIKEI
  6
Continuous
100
AcDbLine
 10
24.24538471955918
 20
20.51134973241591
 30
0.0
 11
24.24538471955924
 21
20.47944703792268
 31
0.0
  0
ARC
  5
48
330
2
100
AcDbEntity
  8
GAIKEI
  6
Continuous
100
AcDbCircle
 10
24.03366068870218
 20
20.06954119897978
 30
0.0
 40
0.424854614710408
100
AcDbArc
 50
104.8498922230989
 51
106.1642708503026
  0
ARC
  5
49
330
2
100
AcDbEntity
  8
GAIKEI
  6
Continuous
100
AcDbCircle
 10
24.30652677517406
 20
20.25084090337884
 30
0.0
 40
0.1638581153127658
100
AcDbArc
 50
0.0
 51
32.90671120519808
  0
ARC
  5
4A
330
2
100
AcDbEntity
  8
GAIKEI
  6
Continuous
100
AcDbCircle
 10
24.19835405819333
 20
20.18084285960572
 30
0.0
 40
0.2927032271322241
100
AcDbArc
 50
32.90671120529894
 51
57.37619387420116
  0
ARC
  5
4B
330
2
100
AcDbEntity
  8
GAIKEI
  6
Continuous
100
AcDbCircle
 10
24.08038459421244
 20
19.89331978864834
 30
0.0
 40
0.6071650883993543
100
AcDbArc
 50
90.00000000010096
 51
104.8498922232998
  0
ARC
  5
4C
330
2
100
AcDbEntity
  8
GAIKEI
  6
Continuous
100
AcDbCircle
 10
24.10656012170466
 20
20.04878353692447
 30
0.0
 40
0.4524591240101628
100
AcDbArc
 50
75.15010777670018
 51
93.31650970859985
  0
ARC
  5
4D
330
2
100
AcDbEntity
  8
GAIKEI
  6
Continuous
100
AcDbCircle
 10
24.1014257175018
 20
20.02941888948829
 30
0.0
 40
0.4724928874338544
100
AcDbArc
 50
72.26110367619958
 51
75.15010777629952
  0
ARC
  5
4E
330
2
100
AcDbEntity
  8
GAIKEI
  6
Continuous
100
AcDbCircle
 10
24.1014257175018
 20
20.02941888958276
 30
0.0
 40
0.4724928873393542
100
AcDbArc
 50
57.37619387420116
 51
72.26110367609901
  0
ARC
  5
4F
330
2
100
AcDbEntity
  8
GAIKEI
  6
Continuous
100
AcDbCircle
 10
24.03366068879672
 20
20.06954119855453
 30
0.0
 40
0.4248546151356587
100
AcDbArc
 50
106.1642708490999
 51
122.6238061257988
  0
ARC
  5
50
330
2
100
AcDbEntity
  8
GAIKEI
  6
Continuous
100
AcDbCircle
 10
23.96241513027883
 20
20.18084285960572
 30
0.0
 40
0.2927032271322241
100
AcDbArc
 50
122.6238061257988
 51
147.093288794701
  0
ARC
  5
51
330
2
100
AcDbEntity
  8
GAIKEI
  6
Continuous
100
AcDbCircle
 10
23.85424241329815
 20
20.25084090337884
 30
0.0
 40
0.1638581153127658
100
AcDbArc
 50
147.0932887948019
 51
180.0
  0
ARC
  5
52
330
2
100
AcDbEntity
  8
GAIKEI
  6
Continuous
100
AcDbCircle
 10
24.08038459421244
 20
14.36435051962257
 30
0.0
 40
0.6796947877056576
100
AcDbArc
 50
296.1916389543
 51
305.0147563313992
  0
ARC
  5
53
330
2
100
AcDbEntity
  8
GAIKEI
  6
Continuous
100
AcDbCircle
 10
24.08038459421244
 20
15.02021392450092
 30
0.0
 40
0.829885057207187
100
AcDbArc
 50
291.1921063113995
 51
298.0307235359975
  0
ARC
  5
54
330
2
100
AcDbEntity
  8
GAIKEI
  6
Continuous
100
AcDbCircle
 10
24.08038459421244
 20
15.02021392450092
 30
0.0
 40
0.829885057207187
100
AcDbArc
 50
248.8078936886004
 51
291.1921063113995
  0
ARC
  5
55
330
2
100
AcDbEntity
  8
GAIKEI
  6
Continuous
100
AcDbCircle
 10
24.08038459421244
 20
14.36435051962257
 30
0.0
 40
0.6796947877056576
100
AcDbArc
 50
243.8083610456999
 51
296.1916389543
  0
ARC
  5
56
330
2
100
AcDbEntity
  8
GAIKEI
  6
Continuous
100
AcDbCircle
 10
24.08038459421244
 20
14.91518996699983
 30
0.0
 40
0.8298639805043491
100
AcDbArc
 50
241.9685017243028
 51
298.0314982756972
  0
LINE
  5
57
330
2
100
AcDbEntity
  8
GAIKEI
  6
Continuous
100
AcDbLine
 10
24.29038475374478
 20
13.99679564556868
 30
0.0
 11
24.29038475374478
 21
13.71791031558069
 31
0.0
  0
LINE
  5
58
330
2
100
AcDbEntity
  8
GAIKEI
  6
Continuous
100
AcDbLine
 10
24.29038475374478
 20
13.99679564556868
 30
0.0
 11
23.87038443468009
 21
13.99679564556868
 31
0.0
  0
LINE
  5
59
330
2
100
AcDbEntity
  8
GAIKEI
  6
Continuous
100
AcDbLine
 10
23.87038443468009
 20
13.99679564556868
 30
0.0
 11
23.87038443468009
 21
13.71791031558069
 31
0.0
  0
LINE
  5
5A
330
2
100
AcDbEntity
  8
GAIKEI
  6
Continuous
100
AcDbLine
 10
24.4703848904868
 20
14.28767793420741
 30
0.0
 11
24.4703848904868
 21
13.80767756956209
 31
0.0
  0
ARC
  5
5B
330
2
100
AcDbEntity
  8
GAIKEI
  6
Continuous
100
AcDbCircle
 10
24.08038459421244
 20
14.36435051962257
 30
0.0
 40
0.6796947877056576
100
AcDbArc
 50
234.9852436686008
 51
243.8083610456999
  0
LINE
  5
5C
330
2
100
AcDbEntity
  8
GAIKEI
  6
Continuous
100
AcDbLine
 10
23.69038429793818
 20
14.28767793420741
 30
0.0
 11
23.69038429793818
 21
13.80767756956209
 31
0.0
  0
ARC
  5
5D
330
2
100
AcDbEntity
  8
GAIKEI
  6
Continuous
100
AcDbCircle
 10
24.08038459421244
 20
15.02021392450092
 30
0.0
 40
0.829885057207187
100
AcDbArc
 50
241.9692764639993
 51
248.8078936886004
  0
LINE
  5
5E
330
2
100
AcDbEntity
  8
GAIKEI
  6
Continuous
100
AcDbLine
 10
24.38038482211585
 20
19.63888950535215
 30
0.0
 11
24.38038482211585
 21
14.2464509947896
 31
0.0
  0
LINE
  5
5F
330
2
100
AcDbEntity
  8
GAIKEI
  6
Continuous
100
AcDbLine
 10
23.78038436630914
 20
19.63888950535215
 30
0.0
 11
23.78038436630914
 21
14.2464509947896
 31
0.0
  0
ARC
  5
60
330
2
100
AcDbEntity
  8
GAIKEI
  6
Continuous
100
AcDbCircle
 10
24.08038459421244
 20
10.21973436389697
 30
0.0
 40
0.732080986073417
100
AcDbArc
 50
245.8082911256983
 51
294.1917088743016
  0
ARC
  5
61
330
2
100
AcDbEntity
  8
GAIKEI
  6
Continuous
100
AcDbCircle
 10
24.08038459421244
 20
9.550669756256979
 30
0.0
 40
0.4635119548410688
100
AcDbArc
 50
212.7114412944018
 51
327.2885587055982
  0
LINE
  5
62
330
2
100
AcDbEntity
  8
GAIKEI
  6
Continuous
100
AcDbLine
 10
24.4703848904868
 20
9.600184253662177
 30
0.0
 11
24.4703848904868
 21
9.300184025758881
 31
0.0
  0
LINE
  5
63
330
2
100
AcDbEntity
  8
GAIKEI
  6
Continuous
100
AcDbLine
 10
23.69038429793818
 20
9.600184253662177
 30
0.0
 11
23.69038429793818
 21
9.300184025758881
 31
0.0
  0
ARC
  5
64
330
2
100
AcDbEntity
  8
GAIKEI
  6
Continuous
100
AcDbCircle
 10
24.08038459421244
 20
10.21973436389697
 30
0.0
 40
0.732080986073417
100
AcDbArc
 50
237.8100154843025
 51
245.8082911256983
  0
ARC
  5
65
330
2
100
AcDbEntity
  8
GAIKEI
  6
Continuous
100
AcDbCircle
 10
24.08038459421244
 20
10.21973436389697
 30
0.0
 40
0.732080986073417
100
AcDbArc
 50
294.1917088743016
 51
302.1899845156974
  0
LINE
  5
66
330
2
100
AcDbEntity
  8
GAIKEI
  6
Continuous
100
AcDbLine
 10
23.78038436630914
 20
13.75444489767278
 30
0.0
 11
23.78038436630914
 21
9.551945150535289
 31
0.0
  0
LINE
  5
67
330
2
100
AcDbEntity
  8
GAIKEI
  6
Continuous
100
AcDbLine
 10
24.38038482211585
 20
13.75444489767278
 30
0.0
 11
24.38038482211585
 21
9.551945150535289
 31
0.0
  0
LINE
  5
68
330
2
100
AcDbEntity
  8
GAIKEI
  6
Continuous
100
AcDbLine
 10
-23.93051439823592
 20
28.33818305376724
 30
0.0
 11
-23.14597779770537
 21
28.33818305376718
 31
0.0
  0
LINE
  5
69
330
2
100
AcDbEntity
  8
GAIKEI
  6
Continuous
100
AcDbLine
 10
-24.12549659134152
 20
28.1281828942349
 30
0.0
 11
-24.12549659134152
 21
28.27818300818649
 31
0.0
  0
LINE
  5
6A
330
2
100
AcDbEntity
  8
GAIKEI
  6
Continuous
100
AcDbLine
 10
-23.97549647738987
 20
28.1281828942349
 30
0.0
 11
-24.12549659134152
 21
28.1281828942349
 31
0.0
  0
LINE
  5
6B
330
2
100
AcDbEntity
  8
GAIKEI
  6
Continuous
100
AcDbLine
 10
-24.12549659134152
 20
27.91818273470255
 30
0.0
 11
-24.12549659134152
 21
28.1281828942349
 31
0.0
  0
LINE
  5
6C
330
2
100
AcDbEntity
  8
GAIKEI
  6
Continuous
100
AcDbLine
 10
-24.27549670529322
 20
27.91818273470255
 30
0.0
 11
-24.27549670529322
 21
28.48818316771883
 31
0.0
  0
LINE
  5
6D
330
2
100
AcDbEntity
  8
GAIKEI
  6
Continuous
100
AcDbLine
 10
-24.15549661413184
 20
28.5181831905092
 30
0.0
 11
-24.24549668250285
 21
28.5181831905092
 31
0.0
  0
LINE
  5
6E
330
2
100
AcDbEntity
  8
GAIKEI
  6
Continuous
100
AcDbLine
 10
-24.12549659134152
 20
28.27818300818649
 30
0.0
 11
-24.12549659134152
 21
28.48818316771883
 31
0.0
  0
LINE
  5
6F
330
2
100
AcDbEntity
  8
GAIKEI
  6
Continuous
100
AcDbLine
 10
-23.97549647738987
 20
28.2781830081866
 30
0.0
 11
-24.12549659134152
 21
28.27818300818649
 31
0.0
  0
LINE
  5
70
330
2
100
AcDbEntity
  8
GAIKEI
  6
Continuous
100
AcDbLine
 10
-23.97549647738987
 20
28.05893408337477
 30
0.0
 11
-23.97549647738987
 21
28.29320097461334
 31
0.0
  0
ARC
  5
71
330
2
100
AcDbEntity
  8
GAIKEI
  6
Continuous
100
AcDbCircle
 10
-24.24549668250285
 20
27.91818273470255
 30
0.0
 40
0.0300000227903335
100
AcDbArc
 50
180.0
 51
270.0
  0
LINE
  5
72
330
2
100
AcDbEntity
  8
GAIKEI
  6
Continuous
100
AcDbLine
 10
-24.15549661413184
 20
27.88818271191224
 30
0.0
 11
-24.24549668250285
 21
27.88818271191224
 31
0.0
  0
ARC
  5
73
330
2
100
AcDbEntity
  8
GAIKEI
  6
Continuous
100
AcDbCircle
 10
-24.15549661413184
 20
28.48818316771883
 30
0.0
 40
0.0300000227903335
100
AcDbArc
 50
0.0
 51
90.0
  0
ARC
  5
74
330
2
100
AcDbEntity
  8
GAIKEI
  6
Continuous
100
AcDbCircle
 10
-24.24549668250285
 20
28.48818316771883
 30
0.0
 40
0.0300000227903335
100
AcDbArc
 50
90.0
 51
180.0
  0
ARC
  5
75
330
2
100
AcDbEntity
  8
GAIKEI
  6
Continuous
100
AcDbCircle
 10
-24.15549661413184
 20
27.91818273470255
 30
0.0
 40
0.0300000227903335
100
AcDbArc
 50
270.0
 51
0.0
  0
LINE
  5
76
330
2
100
AcDbEntity
  8
GAIKEI
  6
Continuous
100
AcDbLine
 10
-23.10099571855142
 20
28.29320097461329
 30
0.0
 11
-23.10099571855142
 21
28.05893408337477
 31
0.0
  0
ARC
  5
77
330
2
100
AcDbEntity
  8
GAIKEI
  6
Continuous
100
AcDbCircle
 10
-22.78953121507072
 20
22.84464006423411
 30
0.0
 40
0.7329129066165779
100
AcDbArc
 50
327.1800995563002
 51
335.1493746805005
  0
ARC
  5
78
330
2
100
AcDbEntity
  8
GAIKEI
  6
Continuous
100
AcDbCircle
 10
-23.53824609797067
 20
22.67914426137031
 30
0.0
 40
0.4642022141539519
100
AcDbArc
 50
49.73899484800017
 51
130.2610051519998
  0
ARC
  5
79
330
2
100
AcDbEntity
  8
GAIKEI
  6
Continuous
100
AcDbCircle
 10
-23.53824609797067
 20
22.17326345748381
 30
0.0
 40
0.4297013370183212
100
AcDbArc
 50
45.72044439340071
 51
134.2795556065993
  0
ARC
  5
7A
330
2
100
AcDbEntity
  8
GAIKEI
  6
Continuous
100
AcDbCircle
 10
-23.48386737852769
 20
22.24214652672822
 30
0.0
 40
0.4521885253354967
100
AcDbArc
 50
60.63731871829817
 51
76.88180751890229
  0
ARC
  5
7B
330
2
100
AcDbEntity
  8
GAIKEI
  6
Continuous
100
AcDbCircle
 10
-24.03704032484262
 20
23.22599440719114
 30
0.0
 40
0.812521993553813
100
AcDbArc
 50
225.7853833282006
 51
236.9999999999975
  0
ARC
  5
7C
330
2
100
AcDbEntity
  8
GAIKEI
  6
Continuous
100
AcDbCircle
 10
-24.18411950693059
 20
22.28307710861606
 30
0.0
 40
0.1500001139516673
100
AcDbArc
 50
97.88197699800003
 51
180.0
  0
ARC
  5
7D
330
2
100
AcDbEntity
  8
GAIKEI
  6
Continuous
100
AcDbCircle
 10
-23.53824609797067
 20
22.67914426137031
 30
0.0
 40
0.4642022141539519
100
AcDbArc
 50
130.2610051519998
 51
147.1561460800991
  0
ARC
  5
7E
330
2
100
AcDbEntity
  8
GAIKEI
  6
Continuous
100
AcDbCircle
 10
-24.30411959809197
 20
22.23521639086436
 30
0.0
 40
0.0300000227903335
100
AcDbArc
 50
180.0
 51
239.0847563827991
  0
LINE
  5
7F
330
2
100
AcDbEntity
  8
GAIKEI
  6
Continuous
100
AcDbLine
 10
-24.33411962088235
 20
22.28307710861606
 30
0.0
 11
-24.33411962088235
 21
22.23521639086436
 31
0.0
  0
ARC
  5
80
330
2
100
AcDbEntity
  8
GAIKEI
  6
Continuous
100
AcDbCircle
 10
-24.13107757342101
 20
22.54083429852205
 30
0.0
 40
0.0957050972750053
100
AcDbArc
 50
326.5166947511019
 51
327.0000000228016
  0
LINE
  5
81
330
2
100
AcDbEntity
  8
GAIKEI
  6
Continuous
100
AcDbLine
 10
-24.07657959755596
 20
22.44939575977082
 30
0.0
 11
-24.20468946713288
 21
22.43166011881681
 31
0.0
  0
ARC
  5
82
330
2
100
AcDbEntity
  8
GAIKEI
  6
Continuous
100
AcDbCircle
 10
-23.82580949663765
 20
22.49111677525849
 30
0.0
 40
0.1034108548771455
100
AcDbArc
 50
143.638330153199
 51
185.6673643107997
  0
ARC
  5
83
330
2
100
AcDbEntity
  8
GAIKEI
  6
Continuous
100
AcDbCircle
 10
-23.79996162196488
 20
22.48090464828874
 30
0.0
 40
0.1287532552953205
100
AcDbArc
 50
180.0
 51
216.3616698466998
  0
ARC
  5
84
330
2
100
AcDbEntity
  8
GAIKEI
  6
Continuous
100
AcDbCircle
 10
-23.67532860982976
 20
22.57266339442748
 30
0.0
 40
0.2835210013417277
100
AcDbArc
 50
216.3616698465987
 51
234.9267582393019
  0
ARC
  5
85
330
2
100
AcDbEntity
  8
GAIKEI
  6
Continuous
100
AcDbCircle
 10
-24.13107757171997
 20
22.54083429743525
 30
0.0
 40
0.0957050952905019
100
AcDbArc
 50
326.9999999999983
 51
7.871197548099409
  0
ARC
  5
86
330
2
100
AcDbEntity
  8
GAIKEI
  6
Continuous
100
AcDbCircle
 10
-24.28696098087062
 20
22.84464006423411
 30
0.0
 40
0.7329129066165779
100
AcDbArc
 50
261.1452848068003
 51
269.1493746805014
  0
ARC
  5
87
330
2
100
AcDbEntity
  8
GAIKEI
  6
Continuous
100
AcDbCircle
 10
-24.60138587107389
 20
22.4699059826379
 30
0.0
 40
0.4962772560031476
100
AcDbArc
 50
68.21461667190249
 51
82.57891048929957
  0
ARC
  5
88
330
2
100
AcDbEntity
  8
GAIKEI
  6
Continuous
100
AcDbCircle
 10
-24.71875408360569
 20
22.17624727476664
 30
0.0
 40
0.812521993553813
100
AcDbArc
 50
56.99999999999747
 51
68.21461667180137
  0
ARC
  5
89
330
2
100
AcDbEntity
  8
GAIKEI
  6
Continuous
100
AcDbCircle
 10
-23.53824609797067
 20
22.00880355405559
 30
0.0
 40
0.6917839927882472
100
AcDbArc
 50
76.88180751890229
 51
90.00000000010096
  0
LINE
  5
8A
330
2
100
AcDbEntity
  8
GAIKEI
  6
Continuous
100
AcDbLine
 10
-24.25798399358626
 20
22.17262014174275
 30
0.0
 11
-24.2978415619487
 21
22.11180792681512
 31
0.0
  0
LINE
  5
8B
330
2
100
AcDbEntity
  8
GAIKEI
  6
Continuous
100
AcDbLine
 10
-24.25798399358626
 20
22.17262014174275
 30
0.0
 11
-24.31953269546529
 21
22.20947852392959
 31
0.0
  0
ARC
  5
8C
330
2
100
AcDbEntity
  8
GAIKEI
  6
Continuous
100
AcDbCircle
 10
-23.53824609797067
 20
22.00880355405559
 30
0.0
 40
0.6917839927882472
100
AcDbArc
 50
89.99999999989903
 51
103.1181924810976
  0
ARC
  5
8D
330
2
100
AcDbEntity
  8
GAIKEI
  6
Continuous
100
AcDbCircle
 10
-23.59262481741365
 20
22.24214652672822
 30
0.0
 40
0.4521885253354967
100
AcDbArc
 50
103.1181924810976
 51
119.3626812817018
  0
ARC
  5
8E
330
2
100
AcDbEntity
  8
GAIKEI
  6
Continuous
100
AcDbCircle
 10
-23.66685954627076
 20
22.37409281908345
 30
0.0
 40
0.3007929539355258
100
AcDbArc
 50
119.3626812817982
 51
143.6383301533002
  0
LINE
  5
8F
330
2
100
AcDbEntity
  8
GAIKEI
  6
Continuous
100
AcDbLine
 10
-23.83824632587397
 20
21.92126063449882
 30
0.0
 11
-24.25798399358626
 21
22.17262014174275
 31
0.0
  0
LINE
  5
90
330
2
100
AcDbEntity
  8
GAIKEI
  6
Continuous
100
AcDbLine
 10
-23.92824639424492
 20
22.46993113645584
 30
0.0
 11
-24.07657959755596
 21
22.44939575977082
 31
0.0
  0
LINE
  5
91
330
2
100
AcDbEntity
  8
GAIKEI
  6
Continuous
100
AcDbLine
 10
-23.83824632587397
 20
21.92126063449882
 30
0.0
 11
-23.83824632587397
 21
22.48090464828874
 31
0.0
  0
LINE
  5
92
330
2
100
AcDbEntity
  8
GAIKEI
  6
Continuous
100
AcDbLine
 10
-24.05081252515567
 20
22.48870956661637
 30
0.0
 11
-24.07657959755596
 21
22.44939575977082
 31
0.0
  0
LINE
  5
93
330
2
100
AcDbEntity
  8
GAIKEI
  6
Continuous
100
AcDbLine
 10
-23.92824639424492
 20
22.46993113645584
 30
0.0
 11
-23.92824639424492
 21
22.93090499014375
 31
0.0
  0
ARC
  5
94
330
2
100
AcDbEntity
  8
GAIKEI
  6
Continuous
100
AcDbCircle
 10
-24.03704032484262
 20
23.22599440719114
 30
0.0
 40
0.8125219935065628
100
AcDbArc
 50
236.9999999999975
 51
257.9505384222005
  0
ARC
  5
95
330
2
100
AcDbEntity
  8
GAIKEI
  6
Continuous
100
AcDbCircle
 10
-24.57241140358923
 20
22.34907164155152
 30
0.0
 40
0.5885709393276681
100
AcDbArc
 50
45.78538332810026
 51
59.78585297670036
  0
ARC
  5
96
330
2
100
AcDbEntity
  8
GAIKEI
  6
Continuous
100
AcDbCircle
 10
-24.55198548172172
 20
22.37006535973023
 30
0.0
 40
0.5592800791909815
100
AcDbArc
 50
31.42108951070063
 51
45.78538332810026
  0
ARC
  5
97
330
2
100
AcDbEntity
  8
GAIKEI
  6
Continuous
100
AcDbCircle
 10
-24.3138035576788
 20
22.5155725896696
 30
0.0
 40
0.2801690208610767
100
AcDbArc
 50
7.871197548099409
 51
31.42108951080178
  0
LINE
  5
98
330
2
100
AcDbEntity
  8
GAIKEI
  6
Continuous
100
AcDbLine
 10
-22.69824545984125
 20
22.39178800073631
 30
0.0
 11
-22.69824545984125
 21
22.9079788548384
 31
0.0
  0
ARC
  5
99
330
2
100
AcDbEntity
  8
GAIKEI
  6
Continuous
100
AcDbCircle
 10
-22.4005202281852
 20
22.29636175053571
 30
0.0
 40
0.6652061100480229
100
AcDbArc
 50
113.1556497561014
 51
116.587781462803
  0
ARC
  5
9A
330
2
100
AcDbEntity
  8
GAIKEI
  6
Continuous
100
AcDbCircle
 10
-22.42022377022789
 20
22.34243201365746
 30
0.0
 40
0.6150992371691389
100
AcDbArc
 50
100.2696378923993
 51
113.155649755998
  0
ARC
  5
9B
330
2
100
AcDbEntity
  8
GAIKEI
  6
Continuous
100
AcDbCircle
 10
-22.47915642258602
 20
22.66769714106965
 30
0.0
 40
0.2845384097407874
100
AcDbArc
 50
77.67552509419816
 51
100.2696378925015
  0
ARC
  5
9C
330
2
100
AcDbEntity
  8
GAIKEI
  6
Continuous
100
AcDbCircle
 10
-23.11511090561163
 20
23.34250404143893
 30
0.0
 40
0.9287826619632225
100
AcDbArc
 50
296.6686374399975
 51
303.0000000000983
  0
LINE
  5
9D
330
2
100
AcDbEntity
  8
GAIKEI
  6
Continuous
100
AcDbLine
 10
-22.69824545984125
 20
22.9079788548384
 30
0.0
 11
-22.69824545984125
 21
23.07531568787607
 31
0.0
  0
ARC
  5
9E
330
2
100
AcDbEntity
  8
GAIKEI
  6
Continuous
100
AcDbCircle
 10
-23.11511090561163
 20
23.34250404143893
 30
0.0
 40
0.9287826619632225
100
AcDbArc
 50
303.0000000000025
 51
312.8443502441
  0
LINE
  5
9F
330
2
100
AcDbEntity
  8
GAIKEI
  6
Continuous
100
AcDbLine
 10
-22.81850820235508
 20
22.17262014174275
 30
0.0
 11
-22.75695950042877
 21
22.20947852392959
 31
0.0
  0
ARC
  5
A0
330
2
100
AcDbEntity
  8
GAIKEI
  6
Continuous
100
AcDbCircle
 10
-22.85278714972469
 20
23.05965963941099
 30
0.0
 40
0.5430175667894714
100
AcDbArc
 50
312.8443502441
 51
325.7303621074992
  0
LINE
  5
A1
330
2
100
AcDbEntity
  8
GAIKEI
  6
Continuous
100
AcDbLine
 10
-22.742372575059
 20
22.34688264381032
 30
0.0
 11
-22.742372575059
 21
22.23521639086436
 31
0.0
  0
ARC
  5
A2
330
2
100
AcDbEntity
  8
GAIKEI
  6
Continuous
100
AcDbCircle
 10
-22.77237259784937
 20
22.23521639086436
 30
0.0
 40
0.0300000227903335
100
AcDbArc
 50
300.9152436172009
 51
0.0
  0
ARC
  5
A3
330
2
100
AcDbEntity
  8
GAIKEI
  6
Continuous
100
AcDbCircle
 10
-22.63918080109863
 20
22.91411307486419
 30
0.0
 40
0.2845384097407874
100
AcDbArc
 50
325.7303621074007
 51
348.3244749059985
  0
ARC
  5
A4
330
2
100
AcDbEntity
  8
GAIKEI
  6
Continuous
100
AcDbCircle
 10
-22.43455719020756
 20
22.87182871137714
 30
0.0
 40
0.0755915516134228
100
AcDbArc
 50
348.3244749056991
 51
33.00000000009881
  0
ARC
  5
A5
330
2
100
AcDbEntity
  8
GAIKEI
  6
Continuous
100
AcDbCircle
 10
-22.43455719020756
 20
22.87182871137714
 30
0.0
 40
0.0755915516134228
100
AcDbArc
 50
33.00000000000173
 51
77.6755250939987
  0
ARC
  5
A6
330
2
100
AcDbEntity
  8
GAIKEI
  6
Continuous
100
AcDbCircle
 10
-22.78953121507072
 20
22.84464006423411
 30
0.0
 40
0.7329129066165779
100
AcDbArc
 50
270.8506253194987
 51
278.8547151931997
  0
LINE
  5
A7
330
2
100
AcDbEntity
  8
GAIKEI
  6
Continuous
100
AcDbLine
 10
-22.81850820235508
 20
22.17262014174275
 30
0.0
 11
-22.7786506339927
 21
22.11180792681512
 31
0.0
  0
LINE
  5
A8
330
2
100
AcDbEntity
  8
GAIKEI
  6
Continuous
100
AcDbLine
 10
-23.14824580169631
 20
22.67571778475485
 30
0.0
 11
-22.92324563076875
 21
22.67571778475485
 31
0.0
  0
ARC
  5
A9
330
2
100
AcDbEntity
  8
GAIKEI
  6
Continuous
100
AcDbCircle
 10
-23.40116358606429
 20
22.57266339442748
 30
0.0
 40
0.2835210013417277
100
AcDbArc
 50
305.073241760698
 51
323.6383301534983
  0
LINE
  5
AA
330
2
100
AcDbEntity
  8
GAIKEI
  6
Continuous
100
AcDbLine
 10
-22.92324563076875
 20
22.39178800073631
 30
0.0
 11
-22.92324563076875
 21
22.84151619874439
 31
0.0
  0
ARC
  5
AB
330
2
100
AcDbEntity
  8
GAIKEI
  6
Continuous
100
AcDbCircle
 10
-23.53824609797067
 20
22.67914426137031
 30
0.0
 40
0.4642022141539519
100
AcDbArc
 50
32.8438539199009
 51
49.73899484800017
  0
LINE
  5
AC
330
2
100
AcDbEntity
  8
GAIKEI
  6
Continuous
100
AcDbLine
 10
-23.14824580169631
 20
22.84151619874439
 30
0.0
 11
-22.92324563076875
 21
22.84151619874439
 31
0.0
  0
LINE
  5
AD
330
2
100
AcDbEntity
  8
GAIKEI
  6
Continuous
100
AcDbLine
 10
-23.14824580169631
 20
22.46993113645584
 30
0.0
 11
-22.92324563076875
 21
22.43878191854765
 31
0.0
  0
LINE
  5
AE
330
2
100
AcDbEntity
  8
GAIKEI
  6
Continuous
100
AcDbLine
 10
-23.14824580169631
 20
22.46993113645584
 30
0.0
 11
-23.14824580169631
 21
22.84151619874439
 31
0.0
  0
LINE
  5
AF
330
2
100
AcDbEntity
  8
GAIKEI
  6
Continuous
100
AcDbLine
 10
-22.92324563076875
 20
22.84151619874439
 30
0.0
 11
-22.92324563076875
 21
23.07531568787607
 31
0.0
  0
LINE
  5
B0
330
2
100
AcDbEntity
  8
GAIKEI
  6
Continuous
100
AcDbLine
 10
-23.14824580169631
 20
22.84151619874439
 30
0.0
 11
-23.14824580169631
 21
22.93090499014375
 31
0.0
  0
ARC
  5
B1
330
2
100
AcDbEntity
  8
GAIKEI
  6
Continuous
100
AcDbCircle
 10
-23.40116358606429
 20
22.38914590214995
 30
0.0
 40
0.2835210013417277
100
AcDbArc
 50
36.36166984669981
 51
60.63731871829817
  0
ARC
  5
B2
330
2
100
AcDbEntity
  8
GAIKEI
  6
Continuous
100
AcDbCircle
 10
-23.27653057392922
 20
22.48090464828874
 30
0.0
 40
0.1287532552953205
100
AcDbArc
 50
323.6383301533002
 51
0.0
  0
ARC
  5
B3
330
2
100
AcDbEntity
  8
GAIKEI
  6
Continuous
100
AcDbCircle
 10
-23.27653057392922
 20
22.48090464828874
 30
0.0
 40
0.1287532552953205
100
AcDbArc
 50
0.0
 51
36.36166984659871
  0
LINE
  5
B4
330
2
100
AcDbEntity
  8
GAIKEI
  6
Continuous
100
AcDbLine
 10
-23.23824587006732
 20
21.92126063449882
 30
0.0
 11
-23.23824587006732
 21
22.48090464828874
 31
0.0
  0
ARC
  5
B5
330
2
100
AcDbEntity
  8
GAIKEI
  6
Continuous
100
AcDbCircle
 10
-22.81074554530505
 20
22.45820452090407
 30
0.0
 40
0.1306423491042645
100
AcDbArc
 50
210.5562690742012
 51
329.4437309257988
  0
LINE
  5
B6
330
2
100
AcDbEntity
  8
GAIKEI
  6
Continuous
100
AcDbLine
 10
-23.23824587006732
 20
21.92126063449882
 30
0.0
 11
-22.81850820235508
 21
22.17262014174275
 31
0.0
  0
ARC
  5
B7
330
2
100
AcDbEntity
  8
GAIKEI
  6
Continuous
100
AcDbCircle
 10
-22.81074554530505
 20
23.0241498504335
 30
0.0
 40
0.1235888835776973
100
AcDbArc
 50
24.4563776703985
 51
155.5436223296015
  0
LINE
  5
B8
330
2
100
AcDbEntity
  8
GAIKEI
  6
Continuous
100
AcDbLine
 10
-24.70498188338706
 20
22.91353211519959
 30
0.0
 11
-24.95201092022734
 21
22.53663047530387
 31
0.0
  0
ARC
  5
B9
330
2
100
AcDbEntity
  8
GAIKEI
  6
Continuous
100
AcDbCircle
 10
-24.6247168367284
 20
22.86140738447517
 30
0.0
 40
0.0957050952905019
100
AcDbArc
 50
106.128802451701
 51
146.9999998952981
  0
ARC
  5
BA
330
2
100
AcDbEntity
  8
GAIKEI
  6
Continuous
100
AcDbCircle
 10
-24.28696098087062
 20
22.84464006423411
 30
0.0
 40
0.7329129066165779
100
AcDbArc
 50
204.8506253194994
 51
212.8199004436997
  0
ARC
  5
BB
330
2
100
AcDbEntity
  8
GAIKEI
  6
Continuous
100
AcDbCircle
 10
-24.25757295079615
 20
22.99933145272871
 30
0.0
 40
0.4962772560031476
100
AcDbArc
 50
195.5165533275006
 51
225.7853833281003
  0
ARC
  5
BC
330
2
100
AcDbEntity
  8
GAIKEI
  6
Continuous
100
AcDbCircle
 10
-24.57347320098438
 20
22.68420402773535
 30
0.0
 40
0.2801690208610767
100
AcDbArc
 50
82.57891048939836
 51
106.128802451797
  0
ARC
  5
BD
330
2
100
AcDbEntity
  8
GAIKEI
  6
Continuous
100
AcDbCircle
 10
-24.28696098087062
 20
22.84464006423411
 30
0.0
 40
0.7329129066165779
100
AcDbArc
 50
212.8199004436997
 51
261.1452848068003
  0
ARC
  5
BE
330
2
100
AcDbEntity
  8
GAIKEI
  6
Continuous
100
AcDbCircle
 10
-22.78953121507072
 20
22.84464006423411
 30
0.0
 40
0.7329129066165779
100
AcDbArc
 50
278.8547151931997
 51
327.1800995563002
  0
LINE
  5
BF
330
2
100
AcDbEntity
  8
GAIKEI
  6
Continuous
100
AcDbLine
 10
-22.37151031255416
 20
22.91353211519959
 30
0.0
 11
-22.12448127571395
 21
22.53663047530387
 31
0.0
  0
LINE
  5
C0
330
2
100
AcDbEntity
  8
GAIKEI
  6
Continuous
100
AcDbLine
 10
-23.83824632587397
 20
23.0333808474291
 30
0.0
 11
-23.83824632587403
 21
27.68972095467439
 31
0.0
  0
LINE
  5
C1
330
2
100
AcDbEntity
  8
GAIKEI
  6
Continuous
100
AcDbLine
 10
-23.23824587006732
 20
23.0333808474291
 30
0.0
 11
-23.23824587006732
 21
27.68972095467439
 31
0.0
  0
LINE
  5
C2
330
2
100
AcDbEntity
  8
GAIKEI
  6
Continuous
100
AcDbLine
 10
-23.83824632587397
 20
9.907347522621137
 30
0.0
 11
-23.83824632587397
 21
11.92536467601257
 31
0.0
  0
LINE
  5
C3
330
2
100
AcDbEntity
  8
GAIKEI
  6
Continuous
100
AcDbLine
 10
-23.23824587006732
 20
9.907347522621137
 30
0.0
 11
-23.23824587006732
 21
11.92536467601257
 31
0.0
  0
ARC
  5
C4
330
2
100
AcDbEntity
  8
GAIKEI
  6
Continuous
100
AcDbCircle
 10
-23.51221357871407
 20
9.623683271265065
 30
0.0
 40
0.3946224118155128
100
AcDbArc
 50
50.73881863179998
 51
71.29587905230002
  0
ARC
  5
C5
330
2
100
AcDbEntity
  8
GAIKEI
  6
Continuous
100
AcDbCircle
 10
-23.56427861722716
 20
9.623683271265065
 30
0.0
 40
0.3946224118155128
100
AcDbArc
 50
108.7041209476999
 51
129.2611852920988
  0
ARC
  5
C6
330
2
100
AcDbEntity
  8
GAIKEI
  6
Continuous
100
AcDbCircle
 10
-23.53824609797067
 20
9.546791717293842
 30
0.0
 40
0.4758012461179952
100
AcDbArc
 50
71.29587905230002
 51
89.99999999989903
  0
ARC
  5
C7
330
2
100
AcDbEntity
  8
GAIKEI
  6
Continuous
100
AcDbCircle
 10
-23.53824609797067
 20
9.546791717293842
 30
0.0
 40
0.4758012461179952
100
AcDbArc
 50
90.00000000010096
 51
108.7041209476999
  0
ARC
  5
C8
330
2
100
AcDbEntity
  8
GAIKEI
  6
Continuous
100
AcDbCircle
 10
-23.53824609797067
 20
9.187303366755884
 30
0.0
 40
0.5088914141872345
100
AcDbArc
 50
72.44134399280067
 51
89.99999999989903
  0
ARC
  5
C9
330
2
100
AcDbEntity
  8
GAIKEI
  6
Continuous
100
AcDbCircle
 10
-23.53824609797067
 20
9.187303366755884
 30
0.0
 40
0.5088914141872345
100
AcDbArc
 50
90.00000000010096
 51
107.5586560071992
  0
ARC
  5
CA
330
2
100
AcDbEntity
  8
GAIKEI
  6
Continuous
100
AcDbCircle
 10
-23.66587391142633
 20
9.703822420266305
 30
0.0
 40
0.2623724828186779
100
AcDbArc
 50
153.1254668107009
 51
179.999999999899
  0
ARC
  5
CB
330
2
100
AcDbEntity
  8
GAIKEI
  6
Continuous
100
AcDbCircle
 10
-23.60425968237592
 20
9.672598165067938
 30
0.0
 40
0.3314468437412037
100
AcDbArc
 50
129.2611813680996
 51
153.1254668105987
  0
ARC
  5
CC
330
2
100
AcDbEntity
  8
GAIKEI
  6
Continuous
100
AcDbCircle
 10
-23.4722325135653
 20
9.672598165067938
 30
0.0
 40
0.3314468437412037
100
AcDbArc
 50
45.0932300042984
 51
50.73881863179998
  0
ARC
  5
CD
330
2
100
AcDbEntity
  8
GAIKEI
  6
Continuous
100
AcDbCircle
 10
-23.41061828451501
 20
9.703822420266305
 30
0.0
 40
0.2623724828186779
100
AcDbArc
 50
0.0
 51
26.87453318949986
  0
ARC
  5
CE
330
2
100
AcDbEntity
  8
GAIKEI
  6
Continuous
100
AcDbCircle
 10
-23.4722325135653
 20
9.672598165067938
 30
0.0
 40
0.3314468437412037
100
AcDbArc
 50
26.87453318940129
 51
45.09323000400083
  0
ARC
  5
CF
330
2
100
AcDbEntity
  8
GAIKEI
  6
Continuous
100
AcDbCircle
 10
-23.53824609797067
 20
13.90542784224175
 30
0.0
 40
0.4642022141539519
100
AcDbArc
 50
49.73899484800017
 51
130.2610051519998
  0
ARC
  5
D0
330
2
100
AcDbEntity
  8
GAIKEI
  6
Continuous
100
AcDbCircle
 10
-23.48386737852769
 20
13.46843010755242
 30
0.0
 40
0.4521885253354967
100
AcDbArc
 50
60.63731871820179
 51
76.88180751890229
  0
ARC
  5
D1
330
2
100
AcDbEntity
  8
GAIKEI
  6
Continuous
100
AcDbCircle
 10
-23.53824609797067
 20
13.39954703830801
 30
0.0
 40
0.4297013370183212
100
AcDbArc
 50
45.72044439340071
 51
134.2795556065993
  0
ARC
  5
D2
330
2
100
AcDbEntity
  8
GAIKEI
  6
Continuous
100
AcDbCircle
 10
-23.59262481741365
 20
13.46843010755242
 30
0.0
 40
0.4521885253354967
100
AcDbArc
 50
103.1181924810976
 51
119.3626812817982
  0
ARC
  5
D3
330
2
100
AcDbEntity
  8
GAIKEI
  6
Continuous
100
AcDbCircle
 10
-23.66685954627076
 20
13.6003763999077
 30
0.0
 40
0.3007929539355258
100
AcDbArc
 50
119.362681281602
 51
143.6383301534013
  0
ARC
  5
D4
330
2
100
AcDbEntity
  8
GAIKEI
  6
Continuous
100
AcDbCircle
 10
-23.82580949663765
 20
13.71740035608269
 30
0.0
 40
0.1034108548771455
100
AcDbArc
 50
143.6383301533002
 51
172.1301587954992
  0
ARC
  5
D5
330
2
100
AcDbEntity
  8
GAIKEI
  6
Continuous
100
AcDbCircle
 10
-23.53824609797067
 20
13.23508713483255
 30
0.0
 40
0.6917839928354974
100
AcDbArc
 50
90.00000000010096
 51
103.1181924809973
  0
ARC
  5
D6
330
2
100
AcDbEntity
  8
GAIKEI
  6
Continuous
100
AcDbCircle
 10
-23.53824609797067
 20
13.23508713483255
 30
0.0
 40
0.6917839928354974
100
AcDbArc
 50
76.88180751900265
 51
89.99999999989903
  0
LINE
  5
D7
330
2
100
AcDbEntity
  8
GAIKEI
  6
Continuous
100
AcDbLine
 10
-23.83824632587397
 20
13.56690823712677
 30
0.0
 11
-23.83824632587397
 21
13.70718822911294
 31
0.0
  0
LINE
  5
D8
330
2
100
AcDbEntity
  8
GAIKEI
  6
Continuous
100
AcDbLine
 10
-23.92824639424492
 20
13.69621471732739
 30
0.0
 11
-23.92824639424492
 21
14.15718857096794
 31
0.0
  0
ARC
  5
D9
330
2
100
AcDbEntity
  8
GAIKEI
  6
Continuous
100
AcDbCircle
 10
-23.79996162196488
 20
13.70718822911294
 30
0.0
 40
0.1287532552953205
100
AcDbArc
 50
180.0000000001986
 51
216.3616698465016
  0
ARC
  5
DA
330
2
100
AcDbEntity
  8
GAIKEI
  6
Continuous
100
AcDbCircle
 10
-23.82580949663765
 20
13.71740035608269
 30
0.0
 40
0.1034108548771455
100
AcDbArc
 50
172.1301587956012
 51
185.6673643106
  0
ARC
  5
DB
330
2
100
AcDbEntity
  8
GAIKEI
  6
Continuous
100
AcDbCircle
 10
-23.53824609797067
 20
13.90542784224175
 30
0.0
 40
0.4642022141539519
100
AcDbArc
 50
130.2610051519998
 51
147.1561460800991
  0
ARC
  5
DC
330
2
100
AcDbEntity
  8
GAIKEI
  6
Continuous
100
AcDbCircle
 10
-23.67532860982976
 20
13.79894697525162
 30
0.0
 40
0.2835210013417277
100
AcDbArc
 50
216.3616698468009
 51
234.9267582391007
  0
ARC
  5
DD
330
2
100
AcDbEntity
  8
GAIKEI
  6
Continuous
100
AcDbCircle
 10
-23.53824609797067
 20
13.90542784224175
 30
0.0
 40
0.4642022141539519
100
AcDbArc
 50
32.8438539199009
 51
49.73899484800017
  0
LINE
  5
DE
330
2
100
AcDbEntity
  8
GAIKEI
  6
Continuous
100
AcDbLine
 10
-23.23824587006732
 20
13.56690823712677
 30
0.0
 11
-23.23824587006732
 21
13.70718822911294
 31
0.0
  0
ARC
  5
DF
330
2
100
AcDbEntity
  8
GAIKEI
  6
Continuous
100
AcDbCircle
 10
-23.27653057392922
 20
13.70718822911294
 30
0.0
 40
0.1287532552953205
100
AcDbArc
 50
4.889193662901583
 51
36.36166984669981
  0
ARC
  5
E0
330
2
100
AcDbEntity
  8
GAIKEI
  6
Continuous
100
AcDbCircle
 10
-23.40116358606429
 20
13.61542948297426
 30
0.0
 40
0.2835210013417277
100
AcDbArc
 50
36.36166984680093
 51
60.63731871820179
  0
ARC
  5
E1
330
2
100
AcDbEntity
  8
GAIKEI
  6
Continuous
100
AcDbCircle
 10
-23.27653057392922
 20
13.70718822911294
 30
0.0
 40
0.1287532552953205
100
AcDbArc
 50
323.6383301533002
 51
0.0
  0
ARC
  5
E2
330
2
100
AcDbEntity
  8
GAIKEI
  6
Continuous
100
AcDbCircle
 10
-23.40116358606429
 20
13.79894697525162
 30
0.0
 40
0.2835210013417277
100
AcDbArc
 50
305.0732417607999
 51
323.6383301533002
  0
ARC
  5
E3
330
2
100
AcDbEntity
  8
GAIKEI
  6
Continuous
100
AcDbCircle
 10
-23.27653057392922
 20
13.70718822911294
 30
0.0
 40
0.1287532552953205
100
AcDbArc
 50
359.9999999992998
 51
4.88919366349977
  0
LINE
  5
E4
330
2
100
AcDbEntity
  8
GAIKEI
  6
Continuous
100
AcDbLine
 10
-23.14824580169631
 20
13.69621471728015
 30
0.0
 11
-23.14824580169631
 21
14.15718857096794
 31
0.0
  0
LINE
  5
E5
330
2
100
AcDbEntity
  8
GAIKEI
  6
Continuous
100
AcDbLine
 10
-23.9432464056402
 20
12.26603296608994
 30
0.0
 11
-23.9432464056402
 21
12.78692189917222
 31
0.0
  0
LINE
  5
E6
330
2
100
AcDbEntity
  8
GAIKEI
  6
Continuous
100
AcDbLine
 10
-23.83824632587397
 20
11.92536467601257
 30
0.0
 11
-23.83824632587397
 21
13.04192209289005
 31
0.0
  0
LINE
  5
E7
330
2
100
AcDbEntity
  8
GAIKEI
  6
Continuous
100
AcDbLine
 10
-24.2432466335435
 20
12.41603308004164
 30
0.0
 11
-23.9432464056402
 21
12.26603296608994
 31
0.0
  0
LINE
  5
E8
330
2
100
AcDbEntity
  8
GAIKEI
  6
Continuous
100
AcDbLine
 10
-23.9432464056402
 20
12.11603285213834
 30
0.0
 11
-23.83824632587397
 21
11.92536467601257
 31
0.0
  0
LINE
  5
E9
330
2
100
AcDbEntity
  8
GAIKEI
  6
Continuous
100
AcDbLine
 10
-24.2432466335435
 20
12.49795314085702
 30
0.0
 11
-24.2432466335435
 21
12.67619079175801
 31
0.0
  0
LINE
  5
EA
330
2
100
AcDbEntity
  8
GAIKEI
  6
Continuous
100
AcDbLine
 10
-23.9432464056402
 20
12.11603285213834
 30
0.0
 11
-23.9432464056402
 21
12.26603296608994
 31
0.0
  0
LINE
  5
EB
330
2
100
AcDbEntity
  8
GAIKEI
  6
Continuous
100
AcDbLine
 10
-23.9432464056402
 20
12.93692201312387
 30
0.0
 11
-23.83824632587397
 21
13.04192209289005
 31
0.0
  0
LINE
  5
EC
330
2
100
AcDbEntity
  8
GAIKEI
  6
Continuous
100
AcDbLine
 10
-24.2432466335435
 20
12.67619079175801
 30
0.0
 11
-24.2432466335435
 21
12.71192184219637
 31
0.0
  0
LINE
  5
ED
330
2
100
AcDbEntity
  8
GAIKEI
  6
Continuous
100
AcDbLine
 10
-23.9432464056402
 20
12.78692189917222
 30
0.0
 11
-23.9432464056402
 21
12.93692201312387
 31
0.0
  0
LINE
  5
EE
330
2
100
AcDbEntity
  8
GAIKEI
  6
Continuous
100
AcDbLine
 10
-24.2432466335435
 20
12.41603308004164
 30
0.0
 11
-24.2432466335435
 21
12.49795314085702
 31
0.0
  0
LINE
  5
EF
330
2
100
AcDbEntity
  8
GAIKEI
  6
Continuous
100
AcDbLine
 10
-24.2432466335435
 20
12.71192184219637
 30
0.0
 11
-23.9432464056402
 21
12.78692189917222
 31
0.0
  0
LINE
  5
F0
330
2
100
AcDbEntity
  8
GAIKEI
  6
Continuous
100
AcDbLine
 10
-22.83324556239779
 20
12.49795314085702
 30
0.0
 11
-22.83324556239779
 21
12.67619079175801
 31
0.0
  0
LINE
  5
F1
330
2
100
AcDbEntity
  8
GAIKEI
  6
Continuous
100
AcDbLine
 10
-22.83324556239779
 20
12.67619079175801
 30
0.0
 11
-22.83324556239779
 21
12.71192184219637
 31
0.0
  0
LINE
  5
F2
330
2
100
AcDbEntity
  8
GAIKEI
  6
Continuous
100
AcDbLine
 10
-22.83324556239779
 20
12.41603308004164
 30
0.0
 11
-22.83324556239779
 21
12.49795314085702
 31
0.0
  0
LINE
  5
F3
330
2
100
AcDbEntity
  8
GAIKEI
  6
Continuous
100
AcDbLine
 10
-23.23824587006732
 20
11.92536467601257
 30
0.0
 11
-23.23824587006732
 21
13.04192209289005
 31
0.0
  0
LINE
  5
F4
330
2
100
AcDbEntity
  8
GAIKEI
  6
Continuous
100
AcDbLine
 10
-23.13324579030115
 20
12.26603296608994
 30
0.0
 11
-23.13324579030115
 21
12.78692189917222
 31
0.0
  0
LINE
  5
F5
330
2
100
AcDbEntity
  8
GAIKEI
  6
Continuous
100
AcDbLine
 10
-23.13324579030115
 20
12.93692201312387
 30
0.0
 11
-23.23824587006732
 21
13.04192209289005
 31
0.0
  0
LINE
  5
F6
330
2
100
AcDbEntity
  8
GAIKEI
  6
Continuous
100
AcDbLine
 10
-23.13324579030115
 20
12.11603285213834
 30
0.0
 11
-23.13324579030115
 21
12.26603296608994
 31
0.0
  0
LINE
  5
F7
330
2
100
AcDbEntity
  8
GAIKEI
  6
Continuous
100
AcDbLine
 10
-23.13324579030115
 20
12.78692189917222
 30
0.0
 11
-23.13324579030115
 21
12.93692201312387
 31
0.0
  0
LINE
  5
F8
330
2
100
AcDbEntity
  8
GAIKEI
  6
Continuous
100
AcDbLine
 10
-23.13324579030115
 20
12.11603285213834
 30
0.0
 11
-23.23824587006732
 21
11.92536467601257
 31
0.0
  0
LINE
  5
F9
330
2
100
AcDbEntity
  8
GAIKEI
  6
Continuous
100
AcDbLine
 10
-22.83324556239779
 20
12.41603308004164
 30
0.0
 11
-23.13324579030115
 21
12.26603296608994
 31
0.0
  0
LINE
  5
FA
330
2
100
AcDbEntity
  8
GAIKEI
  6
Continuous
100
AcDbLine
 10
-22.83324556239779
 20
12.71192184219637
 30
0.0
 11
-23.13324579030115
 21
12.78692189917222
 31
0.0
  0
LINE
  5
FB
330
2
100
AcDbEntity
  8
GAIKEI
  6
Continuous
100
AcDbLine
 10
-23.83824632587397
 20
13.04192209289005
 30
0.0
 11
-23.83824632587397
 21
13.56690823712677
 31
0.0
  0
LINE
  5
FC
330
2
100
AcDbEntity
  8
GAIKEI
  6
Continuous
100
AcDbLine
 10
-23.23824587006732
 20
13.04192209289005
 30
0.0
 11
-23.23824587006732
 21
13.56690823712677
 31
0.0
  0
ARC
  5
FD
330
2
100
AcDbEntity
  8
GAIKEI
  6
Continuous
100
AcDbCircle
 10
-23.50549386183451
 20
9.505723484195812
 30
0.0
 40
0.4003259839994543
100
AcDbArc
 50
287.5586560071013
 51
307.376814534098
  0
ARC
  5
FE
330
2
100
AcDbEntity
  8
GAIKEI
  6
Continuous
100
AcDbCircle
 10
-23.62118196455668
 20
9.356503123057223
 30
0.0
 40
0.3176585376702464
100
AcDbArc
 50
127.3768145340015
 51
151.5324123484018
  0
ARC
  5
FF
330
2
100
AcDbEntity
  8
GAIKEI
  6
Continuous
100
AcDbCircle
 10
-23.69820539450222
 20
9.398267033209947
 30
0.0
 40
0.2300409997427286
100
AcDbArc
 50
151.5324123484018
 51
180.0
  0
ARC
  5
100
330
2
100
AcDbEntity
  8
GAIKEI
  6
Continuous
100
AcDbCircle
 10
-23.62118196455668
 20
9.440030943362671
 30
0.0
 40
0.3176585376702464
100
AcDbArc
 50
187.5547904594015
 51
232.6231854659985
  0
ARC
  5
101
330
2
100
AcDbEntity
  8
GAIKEI
  6
Continuous
100
AcDbCircle
 10
-23.53824609797067
 20
9.609230699663953
 30
0.0
 40
0.5088914141872345
100
AcDbArc
 50
270.0
 51
287.5586560072972
  0
ARC
  5
102
330
2
100
AcDbEntity
  8
GAIKEI
  6
Continuous
100
AcDbCircle
 10
-23.56275483167156
 20
9.485815891346135
 30
0.0
 40
0.3862549568669993
100
AcDbArc
 50
252.4413439927026
 51
273.6379882831012
  0
ARC
  5
103
330
2
100
AcDbEntity
  8
GAIKEI
  6
Continuous
100
AcDbCircle
 10
-23.54617229700847
 20
9.538221839587095
 30
0.0
 40
0.4412218911775189
100
AcDbArc
 50
232.6231854659985
 51
252.4413439928006
  0
ARC
  5
104
330
2
100
AcDbEntity
  8
GAIKEI
  6
Continuous
100
AcDbCircle
 10
-23.4553102313846
 20
9.356503123057223
 30
0.0
 40
0.3176585376702464
100
AcDbArc
 50
14.83897861629924
 51
52.6231854659985
  0
ARC
  5
105
330
2
100
AcDbEntity
  8
GAIKEI
  6
Continuous
100
AcDbCircle
 10
-23.4553102313846
 20
9.440030943362671
 30
0.0
 40
0.3176585376702464
100
AcDbArc
 50
307.3768145340014
 51
352.4452095404999
  0
ARC
  5
106
330
2
100
AcDbEntity
  8
GAIKEI
  6
Continuous
100
AcDbCircle
 10
-23.50549386183451
 20
9.290810582224082
 30
0.0
 40
0.4003259840467045
100
AcDbArc
 50
52.6231854659985
 51
72.4413439927027
  0
ARC
  5
107
330
2
100
AcDbEntity
  8
GAIKEI
  6
Continuous
100
AcDbCircle
 10
-23.57099833410672
 20
9.290810582224082
 30
0.0
 40
0.4003259840467045
100
AcDbArc
 50
107.5586560072972
 51
127.376814534098
  0
LINE
  5
108
330
2
100
AcDbEntity
  8
GAIKEI
  6
Continuous
100
AcDbLine
 10
-23.92824639424492
 20
9.398267033209947
 30
0.0
 11
-23.92824639424492
 21
9.703822915825185
 31
0.0
  0
LINE
  5
109
330
2
100
AcDbEntity
  8
GAIKEI
  6
Continuous
100
AcDbLine
 10
-23.14824580169631
 20
9.398267033209947
 30
0.0
 11
-23.14824580169631
 21
9.703822420266305
 31
0.0
  0
LINE
  5
10A
330
2
100
AcDbEntity
  8
GAIKEI
  6
Continuous
100
AcDbLine
 10
-23.83824632587397
 20
14.2596644282533
 30
0.0
 11
-23.83824632587397
 21
21.92126063449882
 31
0.0
  0
LINE
  5
10B
330
2
100
AcDbEntity
  8
GAIKEI
  6
Continuous
100
AcDbLine
 10
-23.23824587006732
 20
14.2596644282533
 30
0.0
 11
-23.23824587006732
 21
21.92126063449882
 31
0.0
  0
LINE
  5
10C
330
2
100
AcDbEntity
  8
GAIKEI
  6
Continuous
100
AcDbLine
 10
-30.17756359628317
 20
14.36182984897715
 30
0.0
 11
-33.2245050416218
 21
9.699493179657906
 31
0.0
  0
ARC
  5
10D
330
2
100
AcDbEntity
  8
GAIKEI
  6
Continuous
100
AcDbCircle
 10
-32.65866825186481
 20
10.01953907035135
 30
0.0
 40
0.6500774144216635
100
AcDbArc
 50
200.1348047075014
 51
209.493160356901
  0
LINE
  5
10E
330
2
100
AcDbEntity
  8
GAIKEI
  6
Continuous
100
AcDbLine
 10
-29.91282675927749
 20
14.08165581549656
 30
0.0
 11
-29.67278581832431
 21
14.0475961487698
 31
0.0
  0
ARC
  5
10F
330
2
100
AcDbEntity
  8
GAIKEI
  6
Continuous
100
AcDbCircle
 10
-29.33803644452746
 20
15.09872089247522
 30
0.0
 40
0.655773298733577
100
AcDbArc
 50
237.0000000000991
 51
250.7943043549008
  0
ARC
  5
110
330
2
100
AcDbEntity
  8
GAIKEI
  6
Continuous
100
AcDbCircle
 10
-29.33803644452746
 20
15.09872089247522
 30
0.0
 40
0.6557732986863268
100
AcDbArc
 50
223.2056956449986
 51
236.9999999999975
  0
ARC
  5
111
330
2
100
AcDbEntity
  8
GAIKEI
  6
Continuous
100
AcDbCircle
 10
-29.49538480182366
 20
14.95093151201172
 30
0.0
 40
0.4399024888805477
100
AcDbArc
 50
186.6289565622014
 51
223.2056956450991
  0
LINE
  5
112
330
2
100
AcDbEntity
  8
GAIKEI
  6
Continuous
100
AcDbLine
 10
-29.73985292776922
 20
15.02966173974801
 30
0.0
 11
-29.82089655302928
 21
14.90601038423665
 31
0.0
  0
ARC
  5
113
330
2
100
AcDbEntity
  8
GAIKEI
  6
Continuous
100
AcDbCircle
 10
-29.41533292566328
 20
14.74131739808547
 30
0.0
 40
0.2862267140851566
100
AcDbArc
 50
267.6566326246993
 51
302.2900697098013
  0
ARC
  5
114
330
2
100
AcDbEntity
  8
GAIKEI
  6
Continuous
100
AcDbCircle
 10
-29.40904941909435
 20
14.89486465889172
 30
0.0
 40
0.4399024888805477
100
AcDbArc
 50
250.7943043550001
 51
267.6566326246014
  0
LINE
  5
115
330
2
100
AcDbEntity
  8
GAIKEI
  6
Continuous
100
AcDbLine
 10
-29.24220827448846
 20
14.53020582223917
 30
0.0
 11
-29.34274928088979
 21
14.37680656730987
 31
0.0
  0
LINE
  5
116
330
2
100
AcDbEntity
  8
GAIKEI
  6
Continuous
100
AcDbLine
 10
-29.23714963843986
 20
14.70210633026147
 30
0.0
 11
-29.31768935436799
 21
14.57922380849413
 31
0.0
  0
ARC
  5
117
330
2
100
AcDbEntity
  8
GAIKEI
  6
Continuous
100
AcDbCircle
 10
-29.50548443527572
 20
14.60249624702993
 30
0.0
 40
0.2862267140851566
100
AcDbArc
 50
20.36571531459921
 51
26.34336737520023
  0
ARC
  5
118
330
2
100
AcDbEntity
  8
GAIKEI
  6
Continuous
100
AcDbCircle
 10
-29.69636297524494
 20
14.55135486944346
 30
0.0
 40
0.517178664576614
100
AcDbArc
 50
201.4974287499007
 51
245.2570874652989
  0
ARC
  5
119
330
2
100
AcDbEntity
  8
GAIKEI
  6
Continuous
100
AcDbCircle
 10
-29.16287418445256
 20
14.12674681110059
 30
0.0
 40
0.1500001139516673
100
AcDbArc
 50
17.80103851710008
 51
64.86948101080256
  0
ARC
  5
11A
330
2
100
AcDbEntity
  8
GAIKEI
  6
Continuous
100
AcDbCircle
 10
-29.16287418445256
 20
14.12674681110059
 30
0.0
 40
0.1500001139516673
100
AcDbArc
 50
281.0163342463003
 51
343.3968153312001
  0
LINE
  5
11B
330
2
100
AcDbEntity
  8
GAIKEI
  6
Continuous
100
AcDbLine
 10
-29.63081418022131
 20
14.51193318234198
 30
0.0
 11
-29.09917187807412
 21
14.26254832193933
 31
0.0
  0
LINE
  5
11C
330
2
100
AcDbEntity
  8
GAIKEI
  6
Continuous
100
AcDbLine
 10
-29.89637763281439
 20
14.95502837063338
 30
0.0
 11
-30.20844128728885
 21
14.47890092978639
 31
0.0
  0
ARC
  5
11D
330
2
100
AcDbEntity
  8
GAIKEI
  6
Continuous
100
AcDbCircle
 10
-29.77750269706263
 20
14.8778300847149
 30
0.0
 40
0.1417421098517519
100
AcDbArc
 50
112.0533993432011
 51
146.9999999999012
  0
LINE
  5
11E
330
2
100
AcDbEntity
  8
GAIKEI
  6
Continuous
100
AcDbLine
 10
-29.24286368431353
 20
14.52920583839506
 30
0.0
 11
-29.06250067638291
 21
14.38676812345051
 31
0.0
  0
ARC
  5
11F
330
2
100
AcDbEntity
  8
GAIKEI
  6
Continuous
100
AcDbCircle
 10
-29.69636297524494
 20
14.55135486944346
 30
0.0
 40
0.517178664576614
100
AcDbArc
 50
188.0533205466995
 51
201.4974287499007
  0
ARC
  5
120
330
2
100
AcDbEntity
  8
GAIKEI
  6
Continuous
100
AcDbCircle
 10
-29.16287418445256
 20
14.12674681110059
 30
0.0
 40
0.1500001139516673
100
AcDbArc
 50
261.9241496516
 51
281.0163342463003
  0
ARC
  5
121
330
2
100
AcDbEntity
  8
GAIKEI
  6
Continuous
100
AcDbCircle
 10
-29.1224116526746
 20
14.26360608942218
 30
0.0
 40
0.1369606210086287
100
AcDbArc
 50
318.3604853548018
 51
64.05984457480252
  0
ARC
  5
122
330
2
100
AcDbEntity
  8
GAIKEI
  6
Continuous
100
AcDbCircle
 10
-29.16287418445256
 20
14.12674681110059
 30
0.0
 40
0.1500001139516673
100
AcDbArc
 50
343.3968153312001
 51
17.80103851710008
  0
LINE
  5
123
330
2
100
AcDbEntity
  8
GAIKEI
  6
Continuous
100
AcDbLine
 10
-29.63081418022131
 20
14.51193318234198
 30
0.0
 11
-29.91282675927749
 21
14.08165581549656
 31
0.0
  0
ARC
  5
124
330
2
100
AcDbEntity
  8
GAIKEI
  6
Continuous
100
AcDbCircle
 10
-29.41957100797941
 20
14.97316867486023
 30
0.0
 40
0.4069059216667657
100
AcDbArc
 50
189.4999203955993
 51
284.5000796044004
  0
ARC
  5
125
330
2
100
AcDbEntity
  8
GAIKEI
  6
Continuous
100
AcDbCircle
 10
-29.36108321028735
 20
14.60740410806318
 30
0.0
 40
0.1417421098517519
100
AcDbArc
 50
326.9999999999012
 51
1.94660065700134
  0
ARC
  5
126
330
2
100
AcDbEntity
  8
GAIKEI
  6
Continuous
100
AcDbCircle
 10
-29.50548443522854
 20
14.60249624702993
 30
0.0
 40
0.2862267140851566
100
AcDbArc
 50
1.94660065700134
 51
20.36571531409894
  0
LINE
  5
127
330
2
100
AcDbEntity
  8
GAIKEI
  6
Continuous
100
AcDbLine
 10
-29.67278581832431
 20
14.0475961487698
 30
0.0
 11
-29.18394679047236
 21
13.97823425455385
 31
0.0
  0
ARC
  5
128
330
2
100
AcDbEntity
  8
GAIKEI
  6
Continuous
100
AcDbCircle
 10
-29.7232529816867
 20
14.74391679469261
 30
0.0
 40
0.2862267140851566
100
AcDbArc
 50
93.32477993610117
 51
112.0533993430014
  0
ARC
  5
129
330
2
100
AcDbEntity
  8
GAIKEI
  6
Continuous
100
AcDbCircle
 10
-29.3610832094368
 20
14.60740410749611
 30
0.0
 40
0.1417421088122501
100
AcDbArc
 50
326.5166946649983
 51
326.9999999963013
  0
LINE
  5
12A
330
2
100
AcDbEntity
  8
GAIKEI
  6
Continuous
100
AcDbLine
 10
-32.61484703515021
 20
9.370940314773633
 30
0.0
 11
-32.77930003850708
 21
9.120028084282239
 31
0.0
  0
ARC
  5
12B
330
2
100
AcDbEntity
  8
GAIKEI
  6
Continuous
100
AcDbCircle
 10
-32.65866825186481
 20
10.01953907035135
 30
0.0
 40
0.6500774144216635
100
AcDbArc
 50
264.4593898273009
 51
273.8651952924992
  0
ARC
  5
12C
330
2
100
AcDbEntity
  8
GAIKEI
  6
Continuous
100
AcDbCircle
 10
-32.98257325175541
 20
9.523092296925824
 30
0.0
 40
0.4514208222385876
100
AcDbArc
 50
177.2372917552997
 51
296.7627082446979
  0
LINE
  5
12D
330
2
100
AcDbEntity
  8
GAIKEI
  6
Continuous
100
AcDbLine
 10
-29.67462513870669
 20
14.03463324462052
 30
0.0
 11
-32.7214340366001
 21
9.372498808066779
 31
0.0
  0
LINE
  5
12E
330
2
100
AcDbEntity
  8
GAIKEI
  6
Continuous
100
AcDbLine
 10
-33.2690163934289
 20
9.795762863262382
 30
0.0
 11
-33.43346939673847
 21
9.544850632770931
 31
0.0
  0
ARC
  5
12F
330
2
100
AcDbEntity
  8
GAIKEI
  6
Continuous
100
AcDbCircle
 10
-32.65866825186481
 20
10.01953907035135
 30
0.0
 40
0.6500774144216635
100
AcDbArc
 50
209.493160356901
 51
264.4593898273009
  0
LINE
  5
130
330
2
100
AcDbEntity
  8
GAIKEI
  6
Continuous
100
AcDbLine
 10
-24.90288515832805
 20
22.44740117348897
 30
0.0
 11
-29.73985292776922
 21
15.02966173974801
 31
0.0
  0
LINE
  5
131
330
2
100
AcDbEntity
  8
GAIKEI
  6
Continuous
100
AcDbLine
 10
-24.39977788730835
 20
22.12046213424952
 30
0.0
 11
-29.23714963843986
 21
14.70210633026147
 31
0.0
  0
LINE
  5
132
330
2
100
AcDbEntity
  8
GAIKEI
  6
Continuous
100
AcDbLine
 10
-29.01912807123569
 20
14.08388553354837
 30
0.0
 11
-24.2432466335435
 21
12.67619079175801
 31
0.0
  0
LINE
  5
133
330
2
100
AcDbEntity
  8
GAIKEI
  6
Continuous
100
AcDbLine
 10
-29.13421083726655
 20
13.97951078727556
 30
0.0
 11
-24.2432466335435
 21
12.49795314085702
 31
0.0
  0
LINE
  5
134
330
2
100
AcDbEntity
  8
GAIKEI
  6
Continuous
100
AcDbLine
 10
-23.23824587006732
 20
28.33818305376718
 30
0.0
 11
-23.23824587006732
 21
37.08989976828923
 31
0.0
  0
LINE
  5
135
330
2
100
AcDbEntity
  8
GAIKEI
  6
Continuous
100
AcDbLine
 10
-23.83824632587397
 20
28.33818305376718
 30
0.0
 11
-23.83824632587397
 21
37.08989976828923
 31
0.0
  0
DIMENSION
  5
136
330
2
100
AcDbEntity
  8
SUNPO
100
AcDbDimension
  2
*D4
 10
-5.612972724770145
 20
9.08715780141591
 30
0.0
 11
-7.362972724770145
 21
23.18493923715607
 31
0.0
 70
    33
  1
950～1820
 71
     5
 42
28.19556287148032
  3
STANDARD
100
AcDbAlignedDimension
 13
-13.61297272477014
 23
37.28272067289623
 33
0.0
 14
-13.61297272477014
 24
9.087157801415912
 34
0.0
1001
ACAD
1000
DSTYLE
1002
{
1070
   288
1070
     0
1070
   140
1040
2.5
1070
   172
1070
     1
1070
    40
1040
1.0
1070
   147
1040
0.5
1070
   287
1070
     3
1002
}
  0
CIRCLE
  5
145
330
2
100
AcDbEntity
  8
GAIKEI
  6
HIDDEN2
 62
     1
100
AcDbCircle
 10
24.08038459421244
 20
21.41134973241589
 30
0.0
 40
12.324191931
  0
DIMENSION
  5
147
330
2
100
AcDbEntity
  8
SUNPO
100
AcDbDimension
  2
*D3
 10
36.40457652521258
 20
41.52689412336559
 30
0.0
 11
24.10457833306549
 21
43.27689412336559
 31
0.0
 70
    33
  1
φ1230
 71
     5
 42
24.59999638429418
  3
STANDARD
100
AcDbAlignedDimension
 13
11.8045801409184
 23
33.52689412336559
 33
0.0
 14
36.40457652521258
 24
33.52689412336559
 34
0.0
1001
ACAD
1000
DSTYLE
1002
{
1070
   288
1070
     0
1070
   140
1040
2.5
1070
   172
1070
     1
1070
    40
1040
1.0
1070
   147
1040
0.5
1070
   287
1070
     3
1002
}
  0
LINE
  5
154
330
2
100
AcDbEntity
  8
GAIKEI
100
AcDbLine
 10
-25.32824609797064
 20
37.26342376932695
 30
0.0
 11
-25.32824609797064
 21
37.30342376932697
 31
0.0
  0
LINE
  5
155
330
2
100
AcDbEntity
  8
GAIKEI
100
AcDbLine
 10
-21.74824609797071
 20
37.30342376932697
 30
0.0
 11
-21.74824609797071
 21
37.26342376932695
 31
0.0
  0
LINE
  5
156
330
2
100
AcDbEntity
  8
GAIKEI
100
AcDbLine
 10
-25.32824609797064
 20
37.30342376932697
 30
0.0
 11
-21.74824609797071
 21
37.30342376932697
 31
0.0
  0
LINE
  5
157
330
2
100
AcDbEntity
  8
GAIKEI
100
AcDbLine
 10
-23.83824632587397
 20
36.50342376932696
 30
0.0
 11
-23.23824587006732
 21
36.5034237693269
 31
0.0
  0
LINE
  5
158
330
2
100
AcDbEntity
  8
GAIKEI
100
AcDbLine
 10
-23.86686634761594
 20
37.08989976828923
 30
0.0
 11
-23.20962584832535
 21
37.08989976828923
 31
0.0
  0
LINE
  5
159
330
2
100
AcDbEntity
  8
GAIKEI
100
AcDbLine
 10
-23.86686634761594
 20
37.08989976828923
 30
0.0
 11
-24.11084099519343
 21
37.26342376932695
 31
0.0
  0
LINE
  5
15A
330
2
100
AcDbEntity
  8
GAIKEI
  6
Continuous
100
AcDbLine
 10
-17.94228135867473
 20
13.97951078727556
 30
0.0
 11
-22.83324556239779
 21
12.49795314085702
 31
0.0
  0
LINE
  5
15B
330
2
100
AcDbEntity
  8
GAIKEI
  6
Continuous
100
AcDbLine
 10
-18.0573641247056
 20
14.08388553354837
 30
0.0
 11
-22.83324556239779
 21
12.67619079175801
 31
0.0
  0
LINE
  5
15C
330
2
100
AcDbEntity
  8
GAIKEI
  6
Continuous
100
AcDbLine
 10
-22.67671430863294
 20
22.12046213424952
 30
0.0
 11
-17.83934255750142
 21
14.70210633026147
 31
0.0
  0
LINE
  5
15D
330
2
100
AcDbEntity
  8
GAIKEI
  6
Continuous
100
AcDbLine
 10
-17.40186705723465
 20
14.03463324462052
 30
0.0
 11
-14.35505815934124
 21
9.372498808066779
 31
0.0
  0
ARC
  5
15E
330
2
100
AcDbEntity
  8
GAIKEI
  6
Continuous
100
AcDbCircle
 10
-17.71540898650448
 20
14.60740410749611
 30
0.0
 40
0.1417421088122501
100
AcDbArc
 50
213.0000000036987
 51
213.4833053350017
  0
LINE
  5
15F
330
2
100
AcDbEntity
  8
GAIKEI
  6
Continuous
100
AcDbLine
 10
-17.40370637761697
 20
14.0475961487698
 30
0.0
 11
-17.89254540546898
 21
13.97823425455385
 31
0.0
  0
ARC
  5
160
330
2
100
AcDbEntity
  8
GAIKEI
  6
Continuous
100
AcDbCircle
 10
-17.57100776071274
 20
14.60249624702993
 30
0.0
 40
0.2862267140851566
100
AcDbArc
 50
159.634284685901
 51
178.0533993429986
  0
ARC
  5
161
330
2
100
AcDbEntity
  8
GAIKEI
  6
Continuous
100
AcDbCircle
 10
-17.71540898565399
 20
14.60740410806318
 30
0.0
 40
0.1417421098517519
100
AcDbArc
 50
178.0533993429986
 51
213.0000000000988
  0
ARC
  5
162
330
2
100
AcDbEntity
  8
GAIKEI
  6
Continuous
100
AcDbCircle
 10
-17.65692118796187
 20
14.97316867486023
 30
0.0
 40
0.4069059216667657
100
AcDbArc
 50
255.4999203955996
 51
350.5000796044007
  0
LINE
  5
163
330
2
100
AcDbEntity
  8
GAIKEI
  6
Continuous
100
AcDbLine
 10
-17.44567801571998
 20
14.51193318234198
 30
0.0
 11
-17.16366543666385
 21
14.08165581549656
 31
0.0
  0
ARC
  5
164
330
2
100
AcDbEntity
  8
GAIKEI
  6
Continuous
100
AcDbCircle
 10
-17.91361801148878
 20
14.12674681110059
 30
0.0
 40
0.1500001139516673
100
AcDbArc
 50
162.1989614828999
 51
196.6031846687999
  0
ARC
  5
165
330
2
100
AcDbEntity
  8
GAIKEI
  6
Continuous
100
AcDbCircle
 10
-17.95408054326668
 20
14.26360608942218
 30
0.0
 40
0.1369606210086287
100
AcDbArc
 50
115.9401554251974
 51
221.6395146451982
  0
ARC
  5
166
330
2
100
AcDbEntity
  8
GAIKEI
  6
Continuous
100
AcDbCircle
 10
-17.91361801148878
 20
14.12674681110059
 30
0.0
 40
0.1500001139516673
100
AcDbArc
 50
258.9836657536996
 51
278.0758503483999
  0
ARC
  5
167
330
2
100
AcDbEntity
  8
GAIKEI
  6
Continuous
100
AcDbCircle
 10
-17.3801292206964
 20
14.55135486944346
 30
0.0
 40
0.517178664576614
100
AcDbArc
 50
338.5025712500993
 51
351.9466794533005
  0
LINE
  5
168
330
2
100
AcDbEntity
  8
GAIKEI
  6
Continuous
100
AcDbLine
 10
-17.83362851162781
 20
14.52920583839506
 30
0.0
 11
-18.01399151955837
 21
14.38676812345051
 31
0.0
  0
LINE
  5
169
330
2
100
AcDbEntity
  8
GAIKEI
  6
Continuous
100
AcDbLine
 10
-17.18011456312695
 20
14.95502837063338
 30
0.0
 11
-16.86805090865243
 21
14.47890092978639
 31
0.0
  0
LINE
  5
16A
330
2
100
AcDbEntity
  8
GAIKEI
  6
Continuous
100
AcDbLine
 10
-17.44567801571998
 20
14.51193318234198
 30
0.0
 11
-17.97732031786717
 21
14.26254832193933
 31
0.0
  0
ARC
  5
16B
330
2
100
AcDbEntity
  8
GAIKEI
  6
Continuous
100
AcDbCircle
 10
-17.91361801148878
 20
14.12674681110059
 30
0.0
 40
0.1500001139516673
100
AcDbArc
 50
196.6031846687999
 51
258.9836657536996
  0
ARC
  5
16C
330
2
100
AcDbEntity
  8
GAIKEI
  6
Continuous
100
AcDbCircle
 10
-17.91361801148878
 20
14.12674681110059
 30
0.0
 40
0.1500001139516673
100
AcDbArc
 50
115.1305189891974
 51
162.1989614828999
  0
ARC
  5
16D
330
2
100
AcDbEntity
  8
GAIKEI
  6
Continuous
100
AcDbCircle
 10
-17.3801292206964
 20
14.55135486944346
 30
0.0
 40
0.517178664576614
100
AcDbArc
 50
294.7429125347012
 51
338.5025712500993
  0
ARC
  5
16E
330
2
100
AcDbEntity
  8
GAIKEI
  6
Continuous
100
AcDbCircle
 10
-17.57100776066556
 20
14.60249624702993
 30
0.0
 40
0.2862267140851566
100
AcDbArc
 50
153.6566326247997
 51
159.6342846854008
  0
LINE
  5
16F
330
2
100
AcDbEntity
  8
GAIKEI
  6
Continuous
100
AcDbLine
 10
-17.83934255750142
 20
14.70210633026147
 30
0.0
 11
-17.75880284157335
 21
14.57922380849413
 31
0.0
  0
LINE
  5
170
330
2
100
AcDbEntity
  8
GAIKEI
  6
Continuous
100
AcDbLine
 10
-17.83428392145288
 20
14.53020582223917
 30
0.0
 11
-17.73374291505149
 21
14.37680656730987
 31
0.0
  0
ARC
  5
171
330
2
100
AcDbEntity
  8
GAIKEI
  6
Continuous
100
AcDbCircle
 10
-17.66744277684694
 20
14.89486465889172
 30
0.0
 40
0.4399024888805477
100
AcDbArc
 50
272.3433673753984
 51
289.2056956449999
  0
ARC
  5
172
330
2
100
AcDbEntity
  8
GAIKEI
  6
Continuous
100
AcDbCircle
 10
-17.66115927027806
 20
14.74131739808547
 30
0.0
 40
0.2862267140851566
100
AcDbArc
 50
237.7099302901986
 51
272.3433673753007
  0
ARC
  5
173
330
2
100
AcDbEntity
  8
GAIKEI
  6
Continuous
100
AcDbCircle
 10
-17.58110739411762
 20
14.95093151201172
 30
0.0
 40
0.4399024888805477
100
AcDbArc
 50
316.7943043549009
 51
353.3710434377986
  0
ARC
  5
174
330
2
100
AcDbEntity
  8
GAIKEI
  6
Continuous
100
AcDbCircle
 10
-17.73845575141382
 20
15.09872089247522
 30
0.0
 40
0.6557732986863268
100
AcDbArc
 50
303.0000000000025
 51
316.7943043550015
  0
ARC
  5
175
330
2
100
AcDbEntity
  8
GAIKEI
  6
Continuous
100
AcDbCircle
 10
-17.73845575141382
 20
15.09872089247522
 30
0.0
 40
0.655773298733577
100
AcDbArc
 50
289.2056956450992
 51
302.9999999999009
  0
LINE
  5
176
330
2
100
AcDbEntity
  8
GAIKEI
  6
Continuous
100
AcDbLine
 10
-17.16366543666385
 20
14.08165581549656
 30
0.0
 11
-17.40370637761697
 21
14.0475961487698
 31
0.0
  0
LINE
  5
177
330
2
100
AcDbEntity
  8
GAIKEI
  6
Continuous
100
AcDbLine
 10
-16.89892859965818
 20
14.36182984897715
 30
0.0
 11
-13.85198715431949
 21
9.699493179657906
 31
0.0
  0
ARC
  5
178
330
2
100
AcDbEntity
  8
GAIKEI
  6
Continuous
100
AcDbCircle
 10
-14.41782394407647
 20
10.01953907035135
 30
0.0
 40
0.6500774144216635
100
AcDbArc
 50
275.540610172699
 51
330.506839643099
  0
LINE
  5
179
330
2
100
AcDbEntity
  8
GAIKEI
  6
Continuous
100
AcDbLine
 10
-13.80747580251238
 20
9.795762863262382
 30
0.0
 11
-13.64302279920281
 21
9.544850632770931
 31
0.0
  0
ARC
  5
17A
330
2
100
AcDbEntity
  8
GAIKEI
  6
Continuous
100
AcDbCircle
 10
-14.09391894418593
 20
9.523092296925824
 30
0.0
 40
0.4514208222385876
100
AcDbArc
 50
243.2372917553021
 51
2.762708244700266
  0
ARC
  5
17B
330
2
100
AcDbEntity
  8
GAIKEI
  6
Continuous
100
AcDbCircle
 10
-14.41782394407647
 20
10.01953907035135
 30
0.0
 40
0.6500774144216635
100
AcDbArc
 50
266.1348047075007
 51
275.540610172699
  0
LINE
  5
17C
330
2
100
AcDbEntity
  8
GAIKEI
  6
Continuous
100
AcDbLine
 10
-14.46164516079108
 20
9.370940314773633
 30
0.0
 11
-14.29719215743421
 21
9.120028084282239
 31
0.0
  0
ARC
  5
17D
330
2
100
AcDbEntity
  8
GAIKEI
  6
Continuous
100
AcDbCircle
 10
-14.41782394407647
 20
10.01953907035135
 30
0.0
 40
0.6500774144216635
100
AcDbArc
 50
330.506839643099
 51
339.8651952924986
  0
LINE
  5
17E
330
2
100
AcDbEntity
  8
GAIKEI
  6
Continuous
100
AcDbLine
 10
-22.17360703761324
 20
22.44740117348897
 30
0.0
 11
-17.33663926817212
 21
15.02966173974801
 31
0.0
  0
LINE
  5
17F
330
2
100
AcDbEntity
  8
GAIKEI
100
AcDbLine
 10
22.29038459421247
 20
22.31134973241586
 30
0.0
 11
25.8703845942124
 21
22.31134973241586
 31
0.0
  0
LINE
  5
180
330
2
100
AcDbEntity
  8
GAIKEI
100
AcDbLine
 10
25.8703845942124
 20
22.31134973241586
 30
0.0
 11
25.8703845942124
 21
20.51134973241591
 31
0.0
  0
LINE
  5
181
330
2
100
AcDbEntity
  8
GAIKEI
100
AcDbLine
 10
25.8703845942124
 20
20.51134973241591
 30
0.0
 11
22.29038459421247
 21
20.51134973241591
 31
0.0
  0
LINE
  5
182
330
2
100
AcDbEntity
  8
GAIKEI
100
AcDbLine
 10
22.29038459421247
 20
20.51134973241591
 30
0.0
 11
22.29038459421247
 21
22.31134973241586
 31
0.0
  0
CIRCLE
  5
183
330
2
100
AcDbEntity
  8
GAIKEI
 62
     1
100
AcDbCircle
 10
24.08038459421244
 20
21.41134973241589
 30
0.0
 40
0.5796200000000002
  0
LINE
  5
184
330
2
100
AcDbEntity
  8
GAIKEI
  6
Continuous
100
AcDbLine
 10
30.56145858150819
 20
25.49960996829293
 30
0.0
 11
34.20093012192694
 21
27.60085984186162
 31
0.0
  0
LINE
  5
185
330
2
100
AcDbEntity
  8
GAIKEI
  6
Continuous
100
AcDbLine
 10
30.8614588094116
 20
24.97999433128206
 30
0.0
 11
34.5009303498303
 21
27.08124420485081
 31
0.0
  0
ARC
  5
186
330
2
100
AcDbEntity
  8
GAIKEI
  6
Continuous
100
AcDbCircle
 10
33.77260781273424
 20
27.00715741667534
 30
0.0
 40
0.732080986073417
100
AcDbArc
 50
54.19170887430123
 51
62.18998451569756
  0
ARC
  5
187
330
2
100
AcDbEntity
  8
GAIKEI
  6
Continuous
100
AcDbCircle
 10
33.77260781273424
 20
27.00715741667534
 30
0.0
 40
0.732080986073417
100
AcDbArc
 50
357.8100154843024
 51
5.808291125698695
  0
LINE
  5
188
330
2
100
AcDbEntity
  8
GAIKEI
  6
Continuous
100
AcDbLine
 10
34.50415409525215
 20
26.9791823077357
 30
0.0
 11
34.7639619137575
 21
27.12918242168735
 31
0.0
  0
LINE
  5
189
330
2
100
AcDbEntity
  8
GAIKEI
  6
Continuous
100
AcDbLine
 10
34.11415379897778
 20
27.65468263584978
 30
0.0
 11
34.37396161748319
 21
27.80468274980143
 31
0.0
  0
ARC
  5
18A
330
2
100
AcDbEntity
  8
GAIKEI
  6
Continuous
100
AcDbCircle
 10
34.35203475972355
 20
27.34168972049537
 30
0.0
 40
0.4635119548410688
100
AcDbArc
 50
332.7114412944017
 51
87.28855870559824
  0
ARC
  5
18B
330
2
100
AcDbEntity
  8
GAIKEI
  6
Continuous
100
AcDbCircle
 10
33.77260781273424
 20
27.00715741667534
 30
0.0
 40
0.732080986073417
100
AcDbArc
 50
5.808291125698695
 51
54.19170887430123
  0
LINE
  5
18C
330
2
100
AcDbEntity
  8
GAIKEI
  6
Continuous
100
AcDbLine
 10
25.87038459421246
 20
22.09839628959139
 30
0.0
 11
30.43536903049159
 21
24.73399128272365
 31
0.0
  0
LINE
  5
18D
330
2
100
AcDbEntity
  8
GAIKEI
  6
Continuous
100
AcDbLine
 10
25.46538006409554
 20
22.55738766445325
 30
0.0
 11
30.13536880258823
 21
25.25360691973447
 31
0.0
  0
ARC
  5
18E
330
2
100
AcDbEntity
  8
GAIKEI
  6
Continuous
100
AcDbCircle
 10
29.61527056290322
 20
24.6069176363734
 30
0.0
 40
0.829885057207187
100
AcDbArc
 50
1.96927646400012
 51
8.807893688599992
  0
LINE
  5
18F
330
2
100
AcDbEntity
  8
GAIKEI
  6
Continuous
100
AcDbLine
 10
30.44466548782094
 20
24.63543546746314
 30
0.0
 11
30.86035799742956
 21
24.87543564978575
 31
0.0
  0
ARC
  5
190
330
2
100
AcDbEntity
  8
GAIKEI
  6
Continuous
100
AcDbCircle
 10
30.18326493294046
 20
24.93484933881257
 30
0.0
 40
0.6796947877056576
100
AcDbArc
 50
354.9852436686001
 51
3.80836104570026
  0
LINE
  5
191
330
2
100
AcDbEntity
  8
GAIKEI
  6
Continuous
100
AcDbLine
 10
30.05466519154663
 20
25.31093579557717
 30
0.0
 11
30.47035770115519
 21
25.55093597789983
 31
0.0
  0
LINE
  5
192
330
2
100
AcDbEntity
  8
GAIKEI
  6
Continuous
100
AcDbLine
 10
30.60657687092203
 20
24.93676130288566
 30
0.0
 11
30.8480986514345
 21
25.07620396787968
 31
0.0
  0
LINE
  5
193
330
2
100
AcDbEntity
  8
GAIKEI
  6
Continuous
100
AcDbLine
 10
30.39657671138968
 20
25.30049224879326
 30
0.0
 11
30.60657687092203
 21
24.93676130288566
 31
0.0
  0
LINE
  5
194
330
2
100
AcDbEntity
  8
GAIKEI
  6
Continuous
100
AcDbLine
 10
30.39657671138968
 20
25.30049224879326
 30
0.0
 11
30.6380984919021
 21
25.43993491378728
 31
0.0
  0
ARC
  5
195
330
2
100
AcDbEntity
  8
GAIKEI
  6
Continuous
100
AcDbCircle
 10
29.70622397810519
 20
24.65942961512394
 30
0.0
 40
0.8298639805043491
100
AcDbArc
 50
1.968501724303175
 51
58.03149827569693
  0
ARC
  5
196
330
2
100
AcDbEntity
  8
GAIKEI
  6
Continuous
100
AcDbCircle
 10
30.18326493294046
 20
24.93484933881257
 30
0.0
 40
0.6796947877056576
100
AcDbArc
 50
3.80836104570026
 51
56.19163895429974
  0
ARC
  5
197
330
2
100
AcDbEntity
  8
GAIKEI
  6
Continuous
100
AcDbCircle
 10
29.61527056290322
 20
24.6069176363734
 30
0.0
 40
0.829885057207187
100
AcDbArc
 50
8.807893688599992
 51
51.19210631139996
  0
ARC
  5
198
330
2
100
AcDbEntity
  8
GAIKEI
  6
Continuous
100
AcDbCircle
 10
29.61527056290322
 20
24.6069176363734
 30
0.0
 40
0.829885057207187
100
AcDbArc
 50
51.19210631139996
 51
58.03072353599834
  0
ARC
  5
199
330
2
100
AcDbEntity
  8
GAIKEI
  6
Continuous
100
AcDbCircle
 10
30.18326493294046
 20
24.93484933881257
 30
0.0
 40
0.6796947877056576
100
AcDbArc
 50
56.19163895429974
 51
65.01475633139975
  0
ARC
  5
19A
330
2
100
AcDbEntity
  8
GAIKEI
  6
Continuous
100
AcDbCircle
 10
25.18440577881478
 20
22.04875666053704
 30
0.0
 40
0.5810783485383827
100
AcDbArc
 50
61.0831768356978
 51
72.15715644639914
  0
LINE
  5
19B
330
2
100
AcDbEntity
  8
GAIKEI
  6
Continuous
100
AcDbLine
 10
25.46538006409554
 20
22.55738766445325
 30
0.0
 11
25.27053013446562
 21
22.31631507523303
 31
0.0
  0
ARC
  5
19C
330
2
100
AcDbEntity
  8
GAIKEI
  6
Continuous
100
AcDbCircle
 10
24.90504261870768
 20
21.94141838364084
 30
0.0
 40
0.4248546151356587
100
AcDbArc
 50
60.54294776866859
 51
83.89957877619862
  0
ARC
  5
19D
330
2
100
AcDbEntity
  8
GAIKEI
  6
Continuous
100
AcDbCircle
 10
25.18440577881478
 20
22.04875666053704
 30
0.0
 40
0.5810783485383827
100
AcDbArc
 50
26.86606775933412
 51
61.0831768356978
  0
LINE
  5
19E
330
2
100
AcDbEntity
  8
GAIKEI
  6
Continuous
100
AcDbLine
 10
24.89041457333752
 20
22.32935431099145
 30
0.0
 11
25.36245235971984
 21
22.60188545402696
 31
0.0
  0
ARC
  5
19F
330
2
100
AcDbEntity
  8
GAIKEI
  6
Continuous
100
AcDbCircle
 10
24.97234363099392
 20
22.18744902051435
 30
0.0
 40
0.1638581153127658
100
AcDbArc
 50
87.0932887947981
 51
119.9999999998985
  0
LINE
  5
1A0
330
2
100
AcDbEntity
  8
GAIKEI
  6
Continuous
100
AcDbLine
 10
17.29931037901337
 20
24.979994331282
 30
0.0
 11
13.65983883859462
 21
27.08124420485075
 31
0.0
  0
LINE
  5
1A1
330
2
100
AcDbEntity
  8
GAIKEI
  6
Continuous
100
AcDbLine
 10
17.59931060691673
 20
25.49960996829288
 30
0.0
 11
13.95983906649798
 21
27.60085984186162
 31
0.0
  0
ARC
  5
1A2
330
2
100
AcDbEntity
  8
GAIKEI
  6
Continuous
100
AcDbCircle
 10
14.3881613756908
 20
27.00715741667534
 30
0.0
 40
0.732080986073417
100
AcDbArc
 50
174.1917088743013
 51
182.1899845156975
  0
ARC
  5
1A3
330
2
100
AcDbEntity
  8
GAIKEI
  6
Continuous
100
AcDbCircle
 10
14.3881613756908
 20
27.00715741667534
 30
0.0
 40
0.732080986073417
100
AcDbArc
 50
117.8100154843023
 51
125.8082911256987
  0
LINE
  5
1A4
330
2
100
AcDbEntity
  8
GAIKEI
  6
Continuous
100
AcDbLine
 10
14.04661538944714
 20
27.65468263584973
 30
0.0
 11
13.78680757094173
 21
27.80468274980137
 31
0.0
  0
LINE
  5
1A5
330
2
100
AcDbEntity
  8
GAIKEI
  6
Continuous
100
AcDbLine
 10
13.65661509317283
 20
26.9791823077357
 30
0.0
 11
13.39680727466742
 21
27.12918242168735
 31
0.0
  0
ARC
  5
1A6
330
2
100
AcDbEntity
  8
GAIKEI
  6
Continuous
100
AcDbCircle
 10
13.80873442870143
 20
27.34168972049537
 30
0.0
 40
0.4635119548410688
100
AcDbArc
 50
92.7114412944017
 51
207.2885587055983
  0
ARC
  5
1A7
330
2
100
AcDbEntity
  8
GAIKEI
  6
Continuous
100
AcDbCircle
 10
14.3881613756908
 20
27.00715741667534
 30
0.0
 40
0.732080986073417
100
AcDbArc
 50
125.8082911256987
 51
174.1917088743013
  0
LINE
  5
1A8
330
2
100
AcDbEntity
  8
GAIKEI
  6
Continuous
100
AcDbLine
 10
22.69538912432938
 20
22.55738766445319
 30
0.0
 11
18.02540038583675
 21
25.25360691973447
 31
0.0
  0
LINE
  5
1A9
330
2
100
AcDbEntity
  8
GAIKEI
  6
Continuous
100
AcDbLine
 10
22.29038459421247
 20
22.09839628959139
 30
0.0
 11
17.72540015793333
 21
24.73399128272359
 31
0.0
  0
ARC
  5
1AA
330
2
100
AcDbEntity
  8
GAIKEI
  6
Continuous
100
AcDbCircle
 10
18.54549862552176
 20
24.60691763637334
 30
0.0
 40
0.829885057207187
100
AcDbArc
 50
121.9692764639986
 51
128.8078936886
  0
LINE
  5
1AB
330
2
100
AcDbEntity
  8
GAIKEI
  6
Continuous
100
AcDbLine
 10
18.10610399687834
 20
25.31093579557711
 30
0.0
 11
17.69041148726973
 21
25.55093597789977
 31
0.0
  0
ARC
  5
1AC
330
2
100
AcDbEntity
  8
GAIKEI
  6
Continuous
100
AcDbCircle
 10
17.97750425548457
 20
24.93484933881251
 30
0.0
 40
0.6796947877056576
100
AcDbArc
 50
114.9852436686002
 51
123.8083610457001
  0
LINE
  5
1AD
330
2
100
AcDbEntity
  8
GAIKEI
  6
Continuous
100
AcDbLine
 10
17.71610370060398
 20
24.63543546746308
 30
0.0
 11
17.30041119099536
 21
24.87543564978575
 31
0.0
  0
LINE
  5
1AE
330
2
100
AcDbEntity
  8
GAIKEI
  6
Continuous
100
AcDbLine
 10
17.76419247703529
 20
25.30049224879332
 30
0.0
 11
17.52267069652282
 21
25.43993491378728
 31
0.0
  0
LINE
  5
1AF
330
2
100
AcDbEntity
  8
GAIKEI
  6
Continuous
100
AcDbLine
 10
17.55419231750295
 20
24.93676130288572
 30
0.0
 11
17.76419247703529
 21
25.30049224879332
 31
0.0
  0
LINE
  5
1B0
330
2
100
AcDbEntity
  8
GAIKEI
  6
Continuous
100
AcDbLine
 10
17.55419231750295
 20
24.93676130288572
 30
0.0
 11
17.31267053699048
 21
25.07620396787974
 31
0.0
  0
ARC
  5
1B1
330
2
100
AcDbEntity
  8
GAIKEI
  6
Continuous
100
AcDbCircle
 10
18.45454521031979
 20
24.65942961512394
 30
0.0
 40
0.8298639805043491
100
AcDbArc
 50
121.968501724303
 51
178.0314982756968
  0
ARC
  5
1B2
330
2
100
AcDbEntity
  8
GAIKEI
  6
Continuous
100
AcDbCircle
 10
17.97750425548457
 20
24.93484933881251
 30
0.0
 40
0.6796947877056576
100
AcDbArc
 50
123.8083610457001
 51
176.1916389542997
  0
ARC
  5
1B3
330
2
100
AcDbEntity
  8
GAIKEI
  6
Continuous
100
AcDbCircle
 10
18.54549862552176
 20
24.60691763637334
 30
0.0
 40
0.829885057207187
100
AcDbArc
 50
128.8078936886
 51
171.1921063114
  0
ARC
  5
1B4
330
2
100
AcDbEntity
  8
GAIKEI
  6
Continuous
100
AcDbCircle
 10
18.54549862552176
 20
24.60691763637334
 30
0.0
 40
0.829885057207187
100
AcDbArc
 50
171.1921063114
 51
178.0307235359982
  0
ARC
  5
1B5
330
2
100
AcDbEntity
  8
GAIKEI
  6
Continuous
100
AcDbCircle
 10
17.97750425548457
 20
24.93484933881251
 30
0.0
 40
0.6796947877056576
100
AcDbArc
 50
176.1916389542997
 51
185.0147563313999
  0
ARC
  5
1B6
330
2
100
AcDbEntity
  8
GAIKEI
  6
Continuous
100
AcDbCircle
 10
23.18842555740741
 20
22.18744902047342
 30
0.0
 40
0.1638581153127658
100
AcDbArc
 50
49.125634292639
 51
60.00000000000047
  0
ARC
  5
1B7
330
2
100
AcDbEntity
  8
GAIKEI
  6
Continuous
100
AcDbCircle
 10
23.25572656969365
 20
21.94141838359991
 30
0.0
 40
0.4248546151356587
100
AcDbArc
 50
96.1004212238013
 51
119.4570522201084
  0
LINE
  5
1B8
330
2
100
AcDbEntity
  8
GAIKEI
  6
Continuous
100
AcDbLine
 10
22.69538912432938
 20
22.55738766445319
 30
0.0
 11
22.89023905393571
 21
22.31631507519205
 31
0.0
  0
ARC
  5
1B9
330
2
100
AcDbEntity
  8
GAIKEI
  6
Continuous
100
AcDbCircle
 10
22.9763634096102
 20
22.04875666053704
 30
0.0
 40
0.281078120635048
100
AcDbArc
 50
107.8428435536008
 51
110.8950659379009
  0
ARC
  5
1BA
330
2
100
AcDbEntity
  8
GAIKEI
  6
Continuous
100
AcDbCircle
 10
22.9763634096102
 20
22.04875666053704
 30
0.0
 40
0.5810783485383827
100
AcDbArc
 50
118.9168231643021
 51
153.133932240664
  0
ARC
  5
1BB
330
2
100
AcDbEntity
  8
GAIKEI
  6
Continuous
100
AcDbCircle
 10
22.9763634096102
 20
22.04875666053704
 30
0.0
 40
0.5810783485383827
100
AcDbArc
 50
107.8428435536008
 51
118.9168231643021
  0
LINE
  5
1BC
330
2
100
AcDbEntity
  8
GAIKEI
  6
Continuous
100
AcDbLine
 10
23.2703546150874
 20
22.32935431099145
 30
0.0
 11
22.79831682870508
 21
22.6018854540269
 31
0.0
  0
LINE
  5
1BD
330
2
100
AcDbEntity
  8
GAIKEI
100
AcDbLine
 10
-25.32824609797064
 20
37.26342376932695
 30
0.0
 11
-21.74824609797071
 21
37.26342376932695
 31
0.0
  0
LINE
  5
1BE
330
2
100
AcDbEntity
  8
GAIKEI
100
AcDbLine
 10
-23.2096258483254
 20
37.08989976828923
 30
0.0
 11
-22.96565120074792
 21
37.26342376932695
 31
0.0
  0
TEXT
  5
1BF
330
2
100
AcDbEntity
  8
TOUROKU
100
AcDbText
 10
47.10279958151551
 20
55.64910414938196
 30
0.0
 40
2.0
  1
Ｗ２ＳＳ１５０
 72
     2
 11
62.96946624818218
 21
55.64910414938196
 31
0.0
100
AcDbText
  0
TEXT
  5
1C1
330
2
100
AcDbEntity
  8
MOJI1
100
AcDbText
 10
-35.03048378474546
 20
61.64910414938214
 30
0.0
 40
4.0
  1
スタンド
100
AcDbText
  0
TEXT
  5
1C3
330
2
100
AcDbEntity
  8
MOJI1
100
AcDbText
 10
-59.53048378474523
 20
-16.35089585061786
 30
0.0
 40
3.0
  1
寸　法
100
AcDbText
  0
LINE
  5
1C4
330
2
100
AcDbEntity
  8
WAKU
 62
     4
100
AcDbLine
 10
62.96951621525455
 20
-47.35089585061786
 30
0.0
 11
62.96951621525455
 21
-12.35089585061786
 31
0.0
  0
LINE
  5
1C6
330
2
100
AcDbEntity
  8
WAKU
 62
     4
100
AcDbLine
 10
-22.03048378474546
 20
-47.35089585061786
 30
0.0
 11
-22.03048378474546
 21
-12.35089585061786
 31
0.0
  0
TEXT
  5
1C7
330
2
100
AcDbEntity
  8
MOJI1
100
AcDbText
 10
-19.53048378474545
 20
-16.35089585061786
 30
0.0
 40
3.0
  1
１８２０（最長）×１２３０（最大径）ｍｍ
100
AcDbText
  0
LINE
  5
1C8
330
2
100
AcDbEntity
  8
WAKU
 62
     4
100
AcDbLine
 10
-62.03048378474545
 20
-12.35089585061786
 30
0.0
 11
-62.03048378474545
 21
-47.35089585061786
 31
0.0
  0
LINE
  5
1C9
330
2
100
AcDbEntity
  8
WAKU
 62
     1
100
AcDbLine
 10
-62.03048378474545
 20
-17.35089585061786
 30
0.0
 11
62.96951621525455
 21
-17.35089585061786
 31
0.0
  0
LINE
  5
1CA
330
2
100
AcDbEntity
  8
WAKU
 62
     1
100
AcDbLine
 10
-62.03048378474545
 20
-22.35089585061786
 30
0.0
 11
62.96951621525455
 21
-22.35089585061786
 31
0.0
  0
LINE
  5
1CB
330
2
100
AcDbEntity
  8
WAKU
 62
     1
100
AcDbLine
 10
-62.03048378474545
 20
-27.35089585061786
 30
0.0
 11
62.96951621525455
 21
-27.35089585061786
 31
0.0
  0
LINE
  5
1CC
330
2
100
AcDbEntity
  8
WAKU
 62
     1
100
AcDbLine
 10
-62.03048378474545
 20
-32.35089585061786
 30
0.0
 11
62.96951621525455
 21
-32.35089585061786
 31
0.0
  0
LINE
  5
1CD
330
2
100
AcDbEntity
  8
WAKU
 62
     1
100
AcDbLine
 10
-62.03048378474545
 20
-37.35089585061786
 30
0.0
 11
62.96951621525455
 21
-37.35089585061786
 31
0.0
  0
LINE
  5
1CE
330
2
100
AcDbEntity
  8
WAKU
 62
     1
100
AcDbLine
 10
-62.03048378474545
 20
-42.35089585061786
 30
0.0
 11
62.96951621525455
 21
-42.35089585061786
 31
0.0
  0
LINE
  5
1CF
330
2
100
AcDbEntity
  8
WAKU
 62
     4
100
AcDbLine
 10
62.96951621525455
 20
-12.35089585061786
 30
0.0
 11
-62.03048378474545
 21
-12.35089585061786
 31
0.0
  0
LINE
  5
1D0
330
2
100
AcDbEntity
  8
WAKU
 62
     4
100
AcDbLine
 10
-62.03048378474545
 20
-47.35089585061786
 30
0.0
 11
62.96951621525455
 21
-47.35089585061786
 31
0.0
  0
ENDSEC
  0
SECTION
  2
OBJECTS
  0
DICTIONARY
  5
7
330
0
100
AcDbDictionary
281
     1
  3
ACAD_COLOR
350
2C
  3
ACAD_GROUP
350
28
  3
ACAD_LAYOUT
350
B
  3
ACAD_MATERIAL
350
2B
  3
ACAD_MLINESTYLE
350
29
  3
ACAD_PLOTSETTINGS
350
2A
  3
ACAD_PLOTSTYLENAME
350
6
  3
ACDBHEADERROUNDTRIPXREC
350
201
  3
AcDbVariableDictionary
350
1FC
  0
DICTIONARY
  5
11
330
10
100
AcDbDictionary
280
     1
281
     1
  3
ACAD_LAYERSTATES
360
12
  0
DICTIONARY
  5
2C
102
{ACAD_REACTORS
330
7
102
}
330
7
100
AcDbDictionary
281
     1
  0
DICTIONARY
  5
28
102
{ACAD_REACTORS
330
7
102
}
330
7
100
AcDbDictionary
281
     1
  0
DICTIONARY
  5
B
102
{ACAD_REACTORS
330
7
102
}
330
7
100
AcDbDictionary
281
     1
  3
Model
350
A
  3
レイアウト1
350
F
  0
DICTIONARY
  5
2B
102
{ACAD_REACTORS
330
7
102
}
330
7
100
AcDbDictionary
281
     1
  0
DICTIONARY
  5
29
102
{ACAD_REACTORS
330
7
102
}
330
7
100
AcDbDictionary
281
     1
  3
Standard
350
2E
  0
DICTIONARY
  5
2A
102
{ACAD_REACTORS
330
7
102
}
330
7
100
AcDbDictionary
281
     1
  0
ACDBDICTIONARYWDFLT
  5
6
102
{ACAD_REACTORS
330
7
102
}
330
7
100
AcDbDictionary
281
     1
  3
Normal
350
5
100
AcDbDictionaryWithDefault
340
5
  0
DICTIONARY
  5
201
102
{ACAD_REACTORS
330
7
102
}
330
7
100
AcDbDictionary
281
     1
  3
COLORDICT
350
203
  3
MATERIALDICT
350
202
  0
DICTIONARY
  5
1FC
102
{ACAD_REACTORS
330
7
102
}
330
7
100
AcDbDictionary
281
     1
  3
DIMASSOC
350
1FE
  3
HIDETEXT
350
1FD
  3
PROJECTNAME
350
1FF
  0
DICTIONARY
  5
12
102
{ACAD_REACTORS
330
11
102
}
330
11
100
AcDbDictionary
281
     1
  0
LAYOUT
  5
A
102
{ACAD_XDICTIONARY
360
204
102
}
102
{ACAD_REACTORS
330
B
102
}
330
B
100
AcDbPlotSettings
  1

  2
Ａ４－縦3FRIM01.pc3
  4
A4
  6

 40
5.873749732971191
 41
5.873747825622558
 42
5.873748779296875
 43
5.873748779296875
 44
209.9733276367187
 45
296.9259948730469
 46
5.419999999999999
 47
0.0
 48
0.0
 49
0.0
140
0.0
141
0.0
142
1.0
143
1.382390734828292
 70
 11956
 72
     1
 73
     0
 74
     1
  7
tmsacad.ctb
 75
     0
147
0.7233844779234656
148
0.0287020049358944
149
0.0084365014899959
100
AcDbLayout
  1
Model
 70
     1
 71
     0
 10
0.0
 20
0.0
 11
12.0
 21
9.0
 12
0.0
 22
0.0
 32
0.0
 14
0.0
 24
0.0
 34
0.0
 15
0.0
 25
0.0
 35
0.0
146
0.0
 13
0.0
 23
0.0
 33
0.0
 16
1.0
 26
0.0
 36
0.0
 17
0.0
 27
1.0
 37
0.0
 76
     0
330
2
  0
LAYOUT
  5
F
102
{ACAD_XDICTIONARY
360
206
102
}
102
{ACAD_REACTORS
330
B
102
}
330
B
100
AcDbPlotSettings
  1

  2
None
  4

  6

 40
0.0
 41
0.0
 42
0.0
 43
0.0
 44
0.0
 45
0.0
 46
0.0
 47
0.0
 48
0.0
 49
0.0
140
0.0
141
0.0
142
1.0
143
1.0
 70
   688
 72
     0
 73
     0
 74
     5
  7
tmsacad.ctb
 75
    16
147
1.0
148
0.0
149
0.0
100
AcDbLayout
  1
レイアウト1
 70
     1
 71
     1
 10
0.0
 20
0.0
 11
12.0
 21
9.0
 12
0.0
 22
0.0
 32
0.0
 14
0.0
 24
0.0
 34
0.0
 15
0.0
 25
0.0
 35
0.0
146
0.0
 13
0.0
 23
0.0
 33
0.0
 16
1.0
 26
0.0
 36
0.0
 17
0.0
 27
1.0
 37
0.0
 76
     0
330
C
  0
MLINESTYLE
  5
2E
102
{ACAD_REACTORS
330
29
102
}
330
29
100
AcDbMlineStyle
  2
STANDARD
 70
     0
  3

 62
   256
 51
90.0
 52
90.0
 71
     2
 49
0.5
 62
   256
  6
BYLAYER
 49
-0.5
 62
   256
  6
BYLAYER
  0
ACDBPLACEHOLDER
  5
5
102
{ACAD_REACTORS
330
6
102
}
330
6
  0
XRECORD
  5
203
102
{ACAD_REACTORS
330
201
102
}
330
201
100
AcDbXrecord
280
     1
340
2C
  0
XRECORD
  5
202
102
{ACAD_REACTORS
330
201
102
}
330
201
100
AcDbXrecord
280
     1
340
2B
  0
DICTIONARYVAR
  5
1FE
102
{ACAD_REACTORS
330
1FC
102
}
330
1FC
100
DictionaryVariables
280
     0
  1
1
  0
DICTIONARYVAR
  5
1FD
102
{ACAD_REACTORS
330
1FC
102
}
330
1FC
100
DictionaryVariables
280
     0
  1
1
  0
DICTIONARYVAR
  5
1FF
102
{ACAD_REACTORS
330
1FC
102
}
330
1FC
100
DictionaryVariables
280
     0
  1

  0
DICTIONARY
  5
204
330
A
100
AcDbDictionary
280
     1
281
     1
  3
ACAD_XREC_ROUNDTRIP
360
205
  0
DICTIONARY
  5
206
330
F
100
AcDbDictionary
280
     1
281
     1
  3
ACAD_XREC_ROUNDTRIP
360
207
  0
XRECORD
  5
205
102
{ACAD_REACTORS
330
204
102
}
330
204
100
AcDbXrecord
280
     1
102
SHADEPLOT
 70
     0
102
SHADEPLOTRESLEVEL
 70
     2
102
SHADEPLOTCUSTOMDPI
 70
   300
  0
XRECORD
  5
207
102
{ACAD_REACTORS
330
206
102
}
330
206
100
AcDbXrecord
280
     1
102
SHADEPLOT
 70
     0
102
SHADEPLOTRESLEVEL
 70
     2
102
SHADEPLOTCUSTOMDPI
 70
   300
  0
ENDSEC
  0
EOF
