  0
SECTION
  2
HEADER
  9
$ACADVER
  1
AC1015
  9
$ACADMAINTVER
 70
    20
  9
$DWGCODEPAGE
  3
ANSI_932
  9
$INSBASE
 10
0.0
 20
246.4992141396417
 30
0.0
  9
$EXTMIN
 10
1.9765862576578
 20
131.4387719625501
 30
-0.0015258207003583
  9
$EXTMAX
 10
127.0375023864917
 20
244.554872064512
 30
0.0000000349246037
  9
$LIMMIN
 10
-1101.784450318844
 20
-1579.160531687244
  9
$LIMMAX
 10
-508.2420711400537
 20
-1161.440814074914
  9
$ORTHOMODE
 70
     1
  9
$REGENMODE
 70
     1
  9
$FILLMODE
 70
     1
  9
$QTEXTMODE
 70
     0
  9
$MIRRTEXT
 70
     1
  9
$LTSCALE
 40
1.0
  9
$ATTMODE
 70
     1
  9
$TEXTSIZE
 40
2.5
  9
$TRACEWID
 40
0.5
  9
$TEXTSTYLE
  7
STANDARD
  9
$CLAYER
  8
0
  9
$CELTYPE
  6
ByLayer
  9
$CECOLOR
 62
   256
  9
$CELTSCALE
 40
1.0
  9
$DISPSILH
 70
     0
  9
$DIMSCALE
 40
1.0
  9
$DIMASZ
 40
2.0
  9
$DIMEXO
 40
2.0
  9
$DIMDLI
 40
8.0
  9
$DIMRND
 40
0.0
  9
$DIMDLE
 40
0.0
  9
$DIMEXE
 40
2.0
  9
$DIMTP
 40
0.0
  9
$DIMTM
 40
0.0
  9
$DIMTXT
 40
2.5
  9
$DIMCEN
 40
0.0
  9
$DIMTSZ
 40
0.0
  9
$DIMTOL
 70
     0
  9
$DIMLIM
 70
     0
  9
$DIMTIH
 70
     0
  9
$DIMTOH
 70
     0
  9
$DIMSE1
 70
     0
  9
$DIMSE2
 70
     0
  9
$DIMTAD
 70
     3
  9
$DIMZIN
 70
     0
  9
$DIMBLK
  1

  9
$DIMASO
 70
     1
  9
$DIMSHO
 70
     1
  9
$DIMPOST
  1

  9
$DIMAPOST
  1

  9
$DIMALT
 70
     0
  9
$DIMALTD
 70
     2
  9
$DIMALTF
 40
25.4
  9
$DIMLFAC
 40
1.0
  9
$DIMTOFL
 70
     1
  9
$DIMTVP
 40
0.0
  9
$DIMTIX
 70
     0
  9
$DIMSOXD
 70
     0
  9
$DIMSAH
 70
     1
  9
$DIMBLK1
  1
OPEN30
  9
$DIMBLK2
  1
OPEN30
  9
$DIMSTYLE
  2
STANDARD
  9
$DIMCLRD
 70
     0
  9
$DIMCLRE
 70
     0
  9
$DIMCLRT
 70
     0
  9
$DIMTFAC
 40
1.0
  9
$DIMGAP
 40
0.5
  9
$DIMJUST
 70
     0
  9
$DIMSD1
 70
     0
  9
$DIMSD2
 70
     0
  9
$DIMTOLJ
 70
     1
  9
$DIMTZIN
 70
     0
  9
$DIMALTZ
 70
     0
  9
$DIMALTTZ
 70
     0
  9
$DIMUPT
 70
     0
  9
$DIMDEC
 70
     4
  9
$DIMTDEC
 70
     4
  9
$DIMALTU
 70
     2
  9
$DIMALTTD
 70
     2
  9
$DIMTXSTY
  7
STANDARD
  9
$DIMAUNIT
 70
     0
  9
$DIMADEC
 70
     0
  9
$DIMALTRND
 40
0.0
  9
$DIMAZIN
 70
     0
  9
$DIMDSEP
 70
    46
  9
$DIMATFIT
 70
     3
  9
$DIMFRAC
 70
     0
  9
$DIMLDRBLK
  1

  9
$DIMLUNIT
 70
     2
  9
$DIMLWD
 70
    -2
  9
$DIMLWE
 70
    -2
  9
$DIMTMOVE
 70
     0
  9
$LUNITS
 70
     2
  9
$LUPREC
 70
     4
  9
$SKETCHINC
 40
0.1
  9
$FILLETRAD
 40
0.0
  9
$AUNITS
 70
     0
  9
$AUPREC
 70
     0
  9
$MENU
  1
ACAD
  9
$ELEVATION
 40
0.0
  9
$PELEVATION
 40
0.0
  9
$THICKNESS
 40
0.0
  9
$LIMCHECK
 70
     0
  9
$CHAMFERA
 40
0.0
  9
$CHAMFERB
 40
0.0
  9
$CHAMFERC
 40
0.0
  9
$CHAMFERD
 40
0.0
  9
$SKPOLY
 70
     0
  9
$TDCREATE
 40
2451815.190532581
  9
$TDUCREATE
 40
2451814.815532581
  9
$TDUPDATE
 40
2453731.700310324
  9
$TDUUPDATE
 40
2453731.325310324
  9
$TDINDWG
 40
0.7360025116
  9
$TDUSRTIMER
 40
0.7360025116
  9
$USRTIMER
 70
     1
  9
$ANGBASE
 50
0.0
  9
$ANGDIR
 70
     0
  9
$PDMODE
 70
     0
  9
$PDSIZE
 40
0.0
  9
$PLINEWID
 40
0.0
  9
$SPLFRAME
 70
     0
  9
$SPLINETYPE
 70
     6
  9
$SPLINESEGS
 70
     8
  9
$HANDSEED
  5
74D
  9
$SURFTAB1
 70
     6
  9
$SURFTAB2
 70
     6
  9
$SURFTYPE
 70
     6
  9
$SURFU
 70
     6
  9
$SURFV
 70
     6
  9
$UCSBASE
  2

  9
$UCSNAME
  2

  9
$UCSORG
 10
0.0
 20
0.0
 30
0.0
  9
$UCSXDIR
 10
1.0
 20
0.0
 30
0.0
  9
$UCSYDIR
 10
0.0
 20
1.0
 30
0.0
  9
$UCSORTHOREF
  2

  9
$UCSORTHOVIEW
 70
     0
  9
$UCSORGTOP
 10
0.0
 20
0.0
 30
0.0
  9
$UCSORGBOTTOM
 10
0.0
 20
0.0
 30
0.0
  9
$UCSORGLEFT
 10
0.0
 20
0.0
 30
0.0
  9
$UCSORGRIGHT
 10
0.0
 20
0.0
 30
0.0
  9
$UCSORGFRONT
 10
0.0
 20
0.0
 30
0.0
  9
$UCSORGBACK
 10
0.0
 20
0.0
 30
0.0
  9
$PUCSBASE
  2

  9
$PUCSNAME
  2

  9
$PUCSORG
 10
0.0
 20
0.0
 30
0.0
  9
$PUCSXDIR
 10
1.0
 20
0.0
 30
0.0
  9
$PUCSYDIR
 10
0.0
 20
1.0
 30
0.0
  9
$PUCSORTHOREF
  2

  9
$PUCSORTHOVIEW
 70
     0
  9
$PUCSORGTOP
 10
0.0
 20
0.0
 30
0.0
  9
$PUCSORGBOTTOM
 10
0.0
 20
0.0
 30
0.0
  9
$PUCSORGLEFT
 10
0.0
 20
0.0
 30
0.0
  9
$PUCSORGRIGHT
 10
0.0
 20
0.0
 30
0.0
  9
$PUCSORGFRONT
 10
0.0
 20
0.0
 30
0.0
  9
$PUCSORGBACK
 10
0.0
 20
0.0
 30
0.0
  9
$USERI1
 70
     0
  9
$USERI2
 70
     0
  9
$USERI3
 70
     0
  9
$USERI4
 70
     0
  9
$USERI5
 70
     0
  9
$USERR1
 40
0.0
  9
$USERR2
 40
0.0
  9
$USERR3
 40
0.0
  9
$USERR4
 40
0.0
  9
$USERR5
 40
0.0
  9
$WORLDVIEW
 70
     1
  9
$SHADEDGE
 70
     3
  9
$SHADEDIF
 70
    70
  9
$TILEMODE
 70
     1
  9
$MAXACTVP
 70
    48
  9
$PINSBASE
 10
0.0
 20
0.0
 30
0.0
  9
$PLIMCHECK
 70
     0
  9
$PEXTMIN
 10
1.000000000000000E+20
 20
1.000000000000000E+20
 30
1.000000000000000E+20
  9
$PEXTMAX
 10
-1.000000000000000E+20
 20
-1.000000000000000E+20
 30
-1.000000000000000E+20
  9
$PLIMMIN
 10
0.0
 20
0.0
  9
$PLIMMAX
 10
12.0
 20
9.0
  9
$UNITMODE
 70
     0
  9
$VISRETAIN
 70
     1
  9
$PLINEGEN
 70
     0
  9
$PSLTSCALE
 70
     1
  9
$TREEDEPTH
 70
  3020
  9
$CMLSTYLE
  2
Standard
  9
$CMLJUST
 70
     0
  9
$CMLSCALE
 40
1.0
  9
$PROXYGRAPHICS
 70
     1
  9
$MEASUREMENT
 70
     0
  9
$CELWEIGHT
370
    -1
  9
$ENDCAPS
280
     0
  9
$JOINSTYLE
280
     0
  9
$LWDISPLAY
290
     0
  9
$INSUNITS
 70
     0
  9
$HYPERLINKBASE
  1

  9
$STYLESHEET
  1

  9
$XEDIT
290
     1
  9
$CEPSNTYPE
380
     0
  9
$PSTYLEMODE
290
     1
  9
$FINGERPRINTGUID
  2
{D7EBA0C9-7A72-4982-9F22-0181E3F8D1B6}
  9
$VERSIONGUID
  2
{D14D26E0-E7CE-4F61-B5EA-C6272AD3C6EB}
  9
$EXTNAMES
290
     1
  9
$PSVPSCALE
 40
0.0
  9
$OLESTARTUP
290
     0
  0
ENDSEC
  0
SECTION
  2
CLASSES
  0
CLASS
  1
ACDBDICTIONARYWDFLT
  2
AcDbDictionaryWithDefault
  3
ObjectDBX Classes
 90
        0
280
     0
281
     0
  0
CLASS
  1
DICTIONARYVAR
  2
AcDbDictionaryVar
  3
ObjectDBX Classes
 90
        0
280
     0
281
     0
  0
CLASS
  1
ACDBPLACEHOLDER
  2
AcDbPlaceHolder
  3
ObjectDBX Classes
 90
        0
280
     0
281
     0
  0
CLASS
  1
LAYOUT
  2
AcDbLayout
  3
ObjectDBX Classes
 90
        0
280
     0
281
     0
  0
ENDSEC
  0
SECTION
  2
TABLES
  0
TABLE
  2
VPORT
  5
6E5
330
0
100
AcDbSymbolTable
 70
     2
  0
VPORT
  5
744
330
6E5
100
AcDbSymbolTableRecord
100
AcDbViewportTableRecord
  2
*Active
 70
     0
 10
0.0
 20
0.0
 11
1.0
 21
1.0
 12
64.50704432207476
 22
187.996822013531
 13
0.0
 23
0.0
 14
1.0
 24
1.0
 15
0.0
 25
0.0
 16
0.0
 26
0.0
 36
1.0
 17
0.0
 27
0.0
 37
0.0
 40
114.0856666742643
 41
1.589413447782546
 42
50.0
 43
0.0
 44
0.0
 50
0.0
 51
0.0
 71
     0
 72
 10000
 73
     1
 74
     0
 75
     0
 76
     1
 77
     0
 78
     0
281
     0
 65
     1
110
0.0
120
0.0
130
0.0
111
1.0
121
0.0
131
0.0
112
0.0
122
1.0
132
0.0
 79
     0
146
0.0
  0
ENDTAB
  0
TABLE
  2
LTYPE
  5
6E2
330
0
100
AcDbSymbolTable
 70
     3
  0
LTYPE
  5
6F0
330
6E2
100
AcDbSymbolTableRecord
100
AcDbLinetypeTableRecord
  2
ByBlock
 70
     0
  3

 72
    65
 73
     0
 40
0.0
  0
LTYPE
  5
6F1
330
6E2
100
AcDbSymbolTableRecord
100
AcDbLinetypeTableRecord
  2
ByLayer
 70
     0
  3

 72
    65
 73
     0
 40
0.0
  0
LTYPE
  5
6F2
330
6E2
100
AcDbSymbolTableRecord
100
AcDbLinetypeTableRecord
  2
CONTINUOUS
 70
     0
  3
Solid line
 72
    65
 73
     0
 40
0.0
  0
LTYPE
  5
703
330
6E2
100
AcDbSymbolTableRecord
100
AcDbLinetypeTableRecord
  2
HIDDEN2
 70
     0
  3
Hidden (.5x) _ _ _ _ _ _ _ _ _ _ _ _ _ _ _ _ _
 72
    65
 73
     2
 40
1.399999999999999
 49
0.7
 74
     0
 49
-0.7
 74
     0
  0
LTYPE
  5
704
330
6E2
100
AcDbSymbolTableRecord
100
AcDbLinetypeTableRecord
  2
S10
 70
     0
  3
- - - - - - - - - 1,-1,1,-1
 72
    65
 73
     4
 40
4.0
 49
1.0
 74
     0
 49
-1.0
 74
     0
 49
1.0
 74
     0
 49
-1.0
 74
     0
  0
ENDTAB
  0
TABLE
  2
LAYER
  5
6DF
330
0
100
AcDbSymbolTable
 70
     7
  0
LAYER
  5
6ED
330
6DF
100
AcDbSymbolTableRecord
100
AcDbLayerTableRecord
  2
0
 70
     0
 62
     7
  6
CONTINUOUS
370
    -3
390
6EC
  0
LAYER
  5
701
330
6DF
100
AcDbSymbolTableRecord
100
AcDbLayerTableRecord
  2
MOJI1
 70
     0
 62
     2
  6
CONTINUOUS
370
    -3
390
6EC
  0
LAYER
  5
705
330
6DF
100
AcDbSymbolTableRecord
100
AcDbLayerTableRecord
  2
DEFPOINTS
 70
     0
 62
     7
  6
CONTINUOUS
290
     0
370
    -3
390
6EC
  0
LAYER
  5
706
330
6DF
100
AcDbSymbolTableRecord
100
AcDbLayerTableRecord
  2
WAKU
 70
     0
 62
     4
  6
CONTINUOUS
370
    -3
390
6EC
  0
LAYER
  5
707
330
6DF
100
AcDbSymbolTableRecord
100
AcDbLayerTableRecord
  2
GAIKEI
 70
     0
 62
     7
  6
CONTINUOUS
370
    -3
390
6EC
  0
LAYER
  5
708
330
6DF
100
AcDbSymbolTableRecord
100
AcDbLayerTableRecord
  2
SUNPO
 70
     0
 62
     3
  6
CONTINUOUS
370
    -3
390
6EC
  0
LAYER
  5
709
330
6DF
100
AcDbSymbolTableRecord
100
AcDbLayerTableRecord
  2
TOUROKU
 70
     0
 62
     1
  6
CONTINUOUS
370
    -3
390
6EC
  0
ENDTAB
  0
TABLE
  2
STYLE
  5
6E0
330
0
100
AcDbSymbolTable
 70
     2
  0
STYLE
  5
6EE
330
6E0
100
AcDbSymbolTableRecord
100
AcDbTextStyleTableRecord
  2
STANDARD
 70
     0
 40
0.0
 41
1.0
 50
0.0
 71
     0
 42
2.5
  3
MONOTXT.shx
  4
BIGFONT.shx
  0
ENDTAB
  0
TABLE
  2
VIEW
  5
6E3
330
0
100
AcDbSymbolTable
 70
     0
  0
ENDTAB
  0
TABLE
  2
UCS
  5
6E4
330
0
100
AcDbSymbolTable
 70
     0
  0
ENDTAB
  0
TABLE
  2
APPID
  5
6E6
330
0
100
AcDbSymbolTable
 70
     1
  0
APPID
  5
6EF
330
6E6
100
AcDbSymbolTableRecord
100
AcDbRegAppTableRecord
  2
ACAD
 70
     0
  0
ENDTAB
  0
TABLE
  2
DIMSTYLE
  5
6E7
330
0
100
AcDbSymbolTable
 70
     1
100
AcDbDimStyleTable
 71
     1
340
70B
  0
DIMSTYLE
105
70B
102
{ACAD_REACTORS
330
684
330
63B
330
37E
102
}
330
6E7
100
AcDbSymbolTableRecord
100
AcDbDimStyleTableRecord
  2
STANDARD
 70
     0
 40
0.0
 41
2.0
 42
2.0
 43
8.0
 44
2.0
 73
     0
 74
     0
 77
     3
140
3.0
141
0.0
173
     1
279
     2
340
6EE
  0
ENDTAB
  0
TABLE
  2
BLOCK_RECORD
  5
6DE
330
0
100
AcDbSymbolTable
 70
     9
  0
BLOCK_RECORD
  5
6FD
330
6DE
100
AcDbSymbolTableRecord
100
AcDbBlockTableRecord
  2
*Model_Space
340
700
  0
BLOCK_RECORD
  5
6F9
330
6DE
100
AcDbSymbolTableRecord
100
AcDbBlockTableRecord
  2
*Paper_Space
340
6FC
  0
BLOCK_RECORD
  5
712
330
6DE
100
AcDbSymbolTableRecord
100
AcDbBlockTableRecord
  2
_OPEN30
340
0
102
{BLKREFS
331
68A
331
68B
331
641
331
642
331
387
331
388
331
71F
331
720
331
72B
331
72C
331
739
331
73A
102
}
  0
BLOCK_RECORD
  5
71B
330
6DE
100
AcDbSymbolTableRecord
100
AcDbBlockTableRecord
  2
*D6
340
0
  0
BLOCK_RECORD
  5
727
330
6DE
100
AcDbSymbolTableRecord
100
AcDbBlockTableRecord
  2
*D7
340
0
  0
BLOCK_RECORD
  5
733
330
6DE
100
AcDbSymbolTableRecord
100
AcDbBlockTableRecord
  2
*D8
340
0
  0
ENDTAB
  0
ENDSEC
  0
SECTION
  2
BLOCKS
  0
BLOCK
  5
6FE
330
6FD
100
AcDbEntity
  8
0
100
AcDbBlockBegin
  2
*Model_Space
 70
     0
 10
0.0
 20
0.0
 30
0.0
  3
*Model_Space
  1

  0
ENDBLK
  5
6FF
330
6FD
100
AcDbEntity
  8
0
100
AcDbBlockEnd
  0
BLOCK
  5
6FA
330
6F9
100
AcDbEntity
 67
     1
  8
0
100
AcDbBlockBegin
  2
*Paper_Space
 70
     0
 10
0.0
 20
0.0
 30
0.0
  3
*Paper_Space
  1

  0
ENDBLK
  5
6FB
330
6F9
100
AcDbEntity
 67
     1
  8
0
100
AcDbBlockEnd
  0
BLOCK
  5
713
330
712
100
AcDbEntity
  8
0
100
AcDbBlockBegin
  2
_OPEN30
 70
     0
 10
0.0
 20
0.0
 30
0.0
  3
_OPEN30
  1

  0
LINE
  5
27
330
712
100
AcDbEntity
  8
0
  6
ByBlock
 62
     0
100
AcDbLine
 10
-1.0
 20
0.26794919
 30
0.0
 11
0.0
 21
0.0
 31
0.0
  0
LINE
  5
28
330
712
100
AcDbEntity
  8
0
  6
ByBlock
 62
     0
100
AcDbLine
 10
0.0
 20
0.0
 30
0.0
 11
-1.0
 21
-0.26794919
 31
0.0
  0
LINE
  5
29
330
712
100
AcDbEntity
  8
0
  6
ByBlock
 62
     0
100
AcDbLine
 10
0.0
 20
0.0
 30
0.0
 11
-1.0
 21
0.0
 31
0.0
  0
ENDBLK
  5
2A
330
712
100
AcDbEntity
  8
0
100
AcDbBlockEnd
  0
BLOCK
  5
725
330
71B
100
AcDbEntity
  8
0
100
AcDbBlockBegin
  2
*D6
 70
     1
 10
0.0
 20
0.0
 30
0.0
  3
*D6
  1

  0
LINE
  5
71C
330
71B
100
AcDbEntity
  8
SUNPO
 62
     0
370
    -2
100
AcDbLine
 10
15.00621410225904
 20
205.7278083406556
 30
0.0
 11
15.00621410225904
 21
213.7278083406557
 31
0.0
  0
LINE
  5
71D
330
71B
100
AcDbEntity
  8
SUNPO
 62
     0
370
    -2
100
AcDbLine
 10
57.00620881901205
 20
205.7278083406556
 30
0.0
 11
57.00620881901205
 21
213.7278083406557
 31
0.0
  0
LINE
  5
71E
330
71B
100
AcDbEntity
  8
SUNPO
 62
     0
370
    -2
100
AcDbLine
 10
17.00621410225904
 20
211.7278083406556
 30
0.0
 11
55.00620881901205
 21
211.7278083406556
 31
0.0
  0
INSERT
  5
71F
330
71B
100
AcDbEntity
  8
SUNPO
 62
     0
370
    -2
100
AcDbBlockReference
  2
_OPEN30
 10
15.00621410225904
 20
211.7278083406556
 30
0.0
 41
2.0
 42
2.0
 43
2.0
 50
180.0
  0
INSERT
  5
720
330
71B
100
AcDbEntity
  8
SUNPO
 62
     0
370
    -2
100
AcDbBlockReference
  2
_OPEN30
 10
57.00620881901205
 20
211.7278083406556
 30
0.0
 41
2.0
 42
2.0
 43
2.0
  0
MTEXT
  5
721
330
71B
100
AcDbEntity
  8
SUNPO
 62
     0
100
AcDbMText
 10
36.00621146063555
 20
213.4778083406557
 30
0.0
 40
2.5
 41
0.0
 71
     5
 72
     1
  1
\A1;420
 73
     1
 44
1.0
1001
ACAD
1000
MTEXTBEGIN
1070
    73
1070
     1
1070
    44
1040
1.0
1070
    74
1070
     0
1000
MTEXTEND
  0
POINT
  5
722
330
71B
100
AcDbEntity
  8
DEFPOINTS
 62
     0
100
AcDbPoint
 10
15.00621410225904
 20
203.7278083406556
 30
0.0
  0
POINT
  5
723
330
71B
100
AcDbEntity
  8
DEFPOINTS
 62
     0
100
AcDbPoint
 10
57.00620881901205
 20
203.7278083406556
 30
0.0
  0
POINT
  5
724
330
71B
100
AcDbEntity
  8
DEFPOINTS
 62
     0
100
AcDbPoint
 10
57.00620881901205
 20
211.7278083406556
 30
0.0
  0
ENDBLK
  5
726
330
71B
100
AcDbEntity
  8
0
100
AcDbBlockEnd
  0
BLOCK
  5
731
330
727
100
AcDbEntity
  8
0
100
AcDbBlockBegin
  2
*D7
 70
     1
 10
0.0
 20
0.0
 30
0.0
  3
*D7
  1

  0
LINE
  5
728
330
727
100
AcDbEntity
  8
SUNPO
 62
     0
370
    -2
100
AcDbLine
 10
76.86849042677521
 20
205.7278137803332
 30
0.0
 11
76.86849042677521
 21
213.7278137803335
 31
0.0
  0
LINE
  5
729
330
727
100
AcDbEntity
  8
SUNPO
 62
     0
370
    -2
100
AcDbLine
 10
111.8684900593992
 20
205.7278126598058
 30
0.0
 11
111.8684900593992
 21
213.7278137803335
 31
0.0
  0
LINE
  5
72A
330
727
100
AcDbEntity
  8
SUNPO
 62
     0
370
    -2
100
AcDbLine
 10
78.86849042677521
 20
211.7278137803335
 30
0.0
 11
109.8684900593992
 21
211.7278137803335
 31
0.0
  0
INSERT
  5
72B
330
727
100
AcDbEntity
  8
SUNPO
 62
     0
370
    -2
100
AcDbBlockReference
  2
_OPEN30
 10
76.86849042677521
 20
211.7278137803335
 30
0.0
 41
2.0
 42
2.0
 43
2.0
 50
180.0
  0
INSERT
  5
72C
330
727
100
AcDbEntity
  8
SUNPO
 62
     0
370
    -2
100
AcDbBlockReference
  2
_OPEN30
 10
111.8684900593992
 20
211.7278137803335
 30
0.0
 41
2.0
 42
2.0
 43
2.0
  0
MTEXT
  5
72D
330
727
100
AcDbEntity
  8
SUNPO
 62
     0
100
AcDbMText
 10
94.3684902430872
 20
213.4778137803335
 30
0.0
 40
2.5
 41
0.0
 71
     5
 72
     1
  1
\A1;350
 73
     1
 44
1.0
1001
ACAD
1000
MTEXTBEGIN
1070
    73
1070
     1
1070
    44
1040
1.0
1070
    74
1070
     0
1000
MTEXTEND
  0
POINT
  5
72E
330
727
100
AcDbEntity
  8
DEFPOINTS
 62
     0
100
AcDbPoint
 10
76.86849042677521
 20
203.7278137803332
 30
0.0
  0
POINT
  5
72F
330
727
100
AcDbEntity
  8
DEFPOINTS
 62
     0
100
AcDbPoint
 10
111.8684900593992
 20
203.7278126598058
 30
0.0
  0
POINT
  5
730
330
727
100
AcDbEntity
  8
DEFPOINTS
 62
     0
100
AcDbPoint
 10
111.8684900593992
 20
211.7278137803335
 30
0.0
  0
ENDBLK
  5
732
330
727
100
AcDbEntity
  8
0
100
AcDbBlockEnd
  0
BLOCK
  5
73F
330
733
100
AcDbEntity
  8
0
100
AcDbBlockBegin
  2
*D8
 70
     1
 10
0.0
 20
0.0
 30
0.0
  3
*D8
  1

  0
LINE
  5
734
330
733
100
AcDbEntity
  8
SUNPO
 62
     0
370
    -2
100
AcDbLine
 10
61.99041828260441
 20
199.3348148577952
 30
0.0
 11
69.99041828260442
 21
199.3348148577951
 31
0.0
  0
LINE
  5
735
330
733
100
AcDbEntity
  8
SUNPO
 62
     0
370
    -2
100
AcDbLine
 10
61.99041828260441
 20
203.7348148577953
 30
0.0
 11
69.99041828260442
 21
203.7348148577953
 31
0.0
  0
LINE
  5
736
330
733
100
AcDbEntity
  8
SUNPO
 62
     0
370
    -2
100
AcDbLine
 10
67.99041828260442
 20
197.3348148577951
 30
0.0
 11
67.99041828260442
 21
195.3348148577951
 31
0.0
  0
LINE
  5
737
330
733
100
AcDbEntity
  8
SUNPO
 62
     0
370
    -2
100
AcDbLine
 10
67.99041828260442
 20
205.7348148577953
 30
0.0
 11
67.99041828260442
 21
212.9014815244619
 31
0.0
  0
LINE
  5
738
330
733
100
AcDbEntity
  8
SUNPO
 62
     0
370
    -2
100
AcDbLine
 10
67.99041828260442
 20
199.3348148577951
 30
0.0
 11
67.99041828260442
 21
203.7348148577953
 31
0.0
  0
INSERT
  5
739
330
733
100
AcDbEntity
  8
SUNPO
 62
     0
370
    -2
100
AcDbBlockReference
  2
_OPEN30
 10
67.99041828260442
 20
199.3348148577951
 30
0.0
 41
2.0
 42
2.0
 43
2.0
 50
90.0
  0
INSERT
  5
73A
330
733
100
AcDbEntity
  8
SUNPO
 62
     0
370
    -2
100
AcDbBlockReference
  2
_OPEN30
 10
67.99041828260442
 20
203.7348148577953
 30
0.0
 41
2.0
 42
2.0
 43
2.0
 50
270.0
  0
MTEXT
  5
73B
330
733
100
AcDbEntity
  8
SUNPO
 62
     0
100
AcDbMText
 10
66.24041828260439
 20
210.3181481911287
 30
0.0
 40
2.5
 41
0.0
 71
     5
 72
     1
  1
\A1;44
 11
0.0000000000000001
 21
1.0
 31
0.0
 73
     1
 44
1.0
1001
ACAD
1000
MTEXTBEGIN
1070
    73
1070
     1
1070
    44
1040
1.0
1070
    74
1070
     0
1000
MTEXTEND
  0
POINT
  5
73C
330
733
100
AcDbEntity
  8
DEFPOINTS
 62
     0
100
AcDbPoint
 10
59.99041828260441
 20
199.3348148577952
 30
0.0
  0
POINT
  5
73D
330
733
100
AcDbEntity
  8
DEFPOINTS
 62
     0
100
AcDbPoint
 10
59.99041828260441
 20
203.7348148577953
 30
0.0
  0
POINT
  5
73E
330
733
100
AcDbEntity
  8
DEFPOINTS
 62
     0
100
AcDbPoint
 10
67.99041828260442
 20
203.7348148577953
 30
0.0
  0
ENDBLK
  5
740
330
733
100
AcDbEntity
  8
0
100
AcDbBlockEnd
  0
ENDSEC
  0
SECTION
  2
ENTITIES
  0
LINE
  5
33
330
6FD
100
AcDbEntity
  8
GAIKEI
100
AcDbLine
 10
111.868494604493
 20
203.354815798846
 30
0.0
 11
111.8684949337558
 21
199.5348157882636
 31
0.0
  0
LINE
  5
35
330
6FD
100
AcDbEntity
  8
GAIKEI
100
AcDbLine
 10
111.8684941345243
 20
203.5348152080278
 30
0.0
 11
111.8684945017001
 21
199.3348141152437
 31
0.0
  0
LINE
  5
36
330
6FD
100
AcDbEntity
  8
GAIKEI
100
AcDbLine
 10
111.8684941345243
 20
203.5348152080278
 30
0.0
 11
111.8684945017001
 21
199.3348141152437
 31
0.0
  0
LINE
  5
37
330
6FD
100
AcDbEntity
  8
GAIKEI
100
AcDbLine
 10
111.868494604493
 20
203.354815798846
 30
0.0
 11
111.8684949337558
 21
199.5348157882636
 31
0.0
  0
ARC
  5
38
330
6FD
100
AcDbEntity
  8
GAIKEI
 62
     1
100
AcDbCircle
 10
110.2684945782228
 20
200.1848157882637
 30
0.0
 40
0.3
100
AcDbArc
 50
270.0
 51
0.0
  0
ARC
  5
39
330
6FD
100
AcDbEntity
  8
GAIKEI
 62
     1
100
AcDbCircle
 10
110.2684945782228
 20
200.1848157882637
 30
0.0
 40
0.3
100
AcDbArc
 50
0.0
 51
90.0
  0
ARC
  5
3A
330
6FD
100
AcDbEntity
  8
GAIKEI
 62
     1
100
AcDbCircle
 10
110.2684945782228
 20
200.1848157882637
 30
0.0
 40
0.3
100
AcDbArc
 50
0.0
 51
90.0
  0
ARC
  5
3B
330
6FD
100
AcDbEntity
  8
GAIKEI
 62
     1
100
AcDbCircle
 10
110.2684945782228
 20
200.1848157882637
 30
0.0
 40
0.3
100
AcDbArc
 50
270.0
 51
0.0
  0
LINE
  5
3C
330
6FD
100
AcDbEntity
  8
GAIKEI
100
AcDbLine
 10
108.7684942790158
 20
198.3348149195329
 30
0.0
 11
108.868494279016
 21
199.3348149282758
 31
0.0
  0
LINE
  5
3D
330
6FD
100
AcDbEntity
  8
GAIKEI
100
AcDbLine
 10
108.7684942790158
 20
198.3348149195329
 30
0.0
 11
108.868494279016
 21
199.3348149282758
 31
0.0
  0
ARC
  5
3E
330
6FD
100
AcDbEntity
  8
GAIKEI
 62
     1
100
AcDbCircle
 10
110.2684945782228
 20
200.1848157882637
 30
0.0
 40
0.1
100
AcDbArc
 50
270.0
 51
0.0
  0
ARC
  5
3F
330
6FD
100
AcDbEntity
  8
GAIKEI
 62
     1
100
AcDbCircle
 10
110.2684945782228
 20
200.1848157882637
 30
0.0
 40
0.1
100
AcDbArc
 50
0.0
 51
90.0
  0
ARC
  5
40
330
6FD
100
AcDbEntity
  8
GAIKEI
 62
     1
100
AcDbCircle
 10
110.2684945782228
 20
200.1848157882637
 30
0.0
 40
0.1
100
AcDbArc
 50
0.0
 51
90.0
  0
ARC
  5
41
330
6FD
100
AcDbEntity
  8
GAIKEI
 62
     1
100
AcDbCircle
 10
110.2684945782228
 20
200.1848157882637
 30
0.0
 40
0.1
100
AcDbArc
 50
270.0
 51
0.0
  0
LINE
  5
42
330
6FD
100
AcDbEntity
  8
GAIKEI
100
AcDbLine
 10
111.9017139456428
 20
200.3273172464926
 30
0.0
 11
112.8784943880505
 21
200.3273172464926
 31
0.0
  0
LINE
  5
43
330
6FD
100
AcDbEntity
  8
GAIKEI
100
AcDbLine
 10
111.868494376467
 20
200.3273172464926
 30
0.0
 11
112.8784943880505
 21
200.3273172464926
 31
0.0
  0
LINE
  5
44
330
6FD
100
AcDbEntity
  8
GAIKEI
100
AcDbLine
 10
111.9073017064193
 20
200.5298172464929
 30
0.0
 11
112.4184941896729
 21
200.5298172464929
 31
0.0
  0
LINE
  5
45
330
6FD
100
AcDbEntity
  8
GAIKEI
100
AcDbLine
 10
111.8684945975244
 20
201.3598172464929
 30
0.0
 11
112.4184942612144
 21
201.3598172464929
 31
0.0
  0
LINE
  5
46
330
6FD
100
AcDbEntity
  8
GAIKEI
100
AcDbLine
 10
112.4184942528104
 20
201.262317246493
 30
0.0
 11
111.8684942947266
 21
201.262317246493
 31
0.0
  0
ARC
  5
47
330
6FD
100
AcDbEntity
  8
GAIKEI
100
AcDbCircle
 10
111.6184943880503
 20
199.3348125853449
 30
0.0
 40
0.1
100
AcDbArc
 50
270.0
 51
0.0
  0
ARC
  5
48
330
6FD
100
AcDbEntity
  8
GAIKEI
100
AcDbCircle
 10
111.6184943880503
 20
199.3348125853449
 30
0.0
 40
0.1
100
AcDbArc
 50
270.0
 51
0.0
  0
LINE
  5
49
330
6FD
100
AcDbEntity
  8
GAIKEI
100
AcDbLine
 10
111.6184943880503
 20
199.3348125853447
 30
0.0
 11
111.6184943880503
 21
199.5348157882636
 31
0.0
  0
LINE
  5
4A
330
6FD
100
AcDbEntity
  8
GAIKEI
100
AcDbLine
 10
111.7184943880502
 20
199.3348125853447
 30
0.0
 11
111.7184943880502
 21
199.5348157882636
 31
0.0
  0
LINE
  5
4B
330
6FD
100
AcDbEntity
  8
GAIKEI
100
AcDbLine
 10
111.7884949326976
 20
199.5348157882636
 30
0.0
 11
111.5384949326976
 21
199.5348157882636
 31
0.0
  0
LINE
  5
4C
330
6FD
100
AcDbEntity
  8
GAIKEI
100
AcDbLine
 10
111.7884949326976
 20
199.5348157882636
 30
0.0
 11
111.8684949407416
 21
199.5348157882636
 31
0.0
  0
LINE
  5
4D
330
6FD
100
AcDbEntity
  8
GAIKEI
100
AcDbLine
 10
111.5384949384347
 20
199.4048157882642
 30
0.0
 11
111.5384949326976
 21
199.5348157882636
 31
0.0
  0
LINE
  5
4E
330
6FD
100
AcDbEntity
  8
GAIKEI
100
AcDbLine
 10
111.1184943880503
 20
199.3348125853447
 30
0.0
 11
111.1184943880503
 21
199.2348125853448
 31
0.0
  0
LINE
  5
4F
330
6FD
100
AcDbEntity
  8
GAIKEI
100
AcDbLine
 10
111.6184943880503
 20
199.2348125853448
 30
0.0
 11
111.1184943880503
 21
199.2348125853448
 31
0.0
  0
LINE
  5
50
330
6FD
100
AcDbEntity
  8
GAIKEI
100
AcDbLine
 10
111.6184943880503
 20
199.2348125853448
 30
0.0
 11
111.1184943880503
 21
199.2348125853448
 31
0.0
  0
LINE
  5
51
330
6FD
100
AcDbEntity
  8
GAIKEI
100
AcDbLine
 10
111.1184943880503
 20
199.3348125853447
 30
0.0
 11
111.1184943880503
 21
199.2348125853448
 31
0.0
  0
LINE
  5
52
330
6FD
100
AcDbEntity
  8
GAIKEI
100
AcDbLine
 10
111.5384949384347
 20
199.4048157882642
 30
0.0
 11
111.5384949326976
 21
199.5348157882636
 31
0.0
  0
LINE
  5
53
330
6FD
100
AcDbEntity
  8
GAIKEI
100
AcDbLine
 10
111.7884949326976
 20
199.5348157882636
 30
0.0
 11
111.8684949407416
 21
199.5348157882636
 31
0.0
  0
LINE
  5
54
330
6FD
100
AcDbEntity
  8
GAIKEI
100
AcDbLine
 10
111.7884949326976
 20
199.5348157882636
 30
0.0
 11
111.5384949326976
 21
199.5348157882636
 31
0.0
  0
LINE
  5
55
330
6FD
100
AcDbEntity
  8
GAIKEI
100
AcDbLine
 10
111.7184943880502
 20
199.3348125853447
 30
0.0
 11
111.7184943880502
 21
199.5348157882636
 31
0.0
  0
LINE
  5
56
330
6FD
100
AcDbEntity
  8
GAIKEI
100
AcDbLine
 10
111.6184943880503
 20
199.3348125853447
 30
0.0
 11
111.6184943880503
 21
199.5348157882636
 31
0.0
  0
ARC
  5
57
330
6FD
100
AcDbEntity
  8
GAIKEI
100
AcDbCircle
 10
112.4544943880505
 20
200.7948172464928
 30
0.0
 40
0.0989999999998872
100
AcDbArc
 50
0.0
 51
111.3237903815038
  0
ARC
  5
58
330
6FD
100
AcDbEntity
  8
GAIKEI
100
AcDbCircle
 10
112.4544943880505
 20
200.7948172464928
 30
0.0
 40
0.0989999999998076
100
AcDbArc
 50
248.6761997413657
 51
0.0
  0
LINE
  5
59
330
6FD
100
AcDbEntity
  8
GAIKEI
100
AcDbLine
 10
112.8784943880505
 20
201.262317246493
 30
0.0
 11
112.4184942528104
 21
201.262317246493
 31
0.0
  0
LINE
  5
5A
330
6FD
100
AcDbEntity
  8
GAIKEI
100
AcDbLine
 10
112.8784943880505
 20
200.3273172464926
 30
0.0
 11
112.8784943880505
 21
201.262317246493
 31
0.0
  0
LINE
  5
5B
330
6FD
100
AcDbEntity
  8
GAIKEI
100
AcDbLine
 10
112.8784943880505
 20
200.3273172464926
 30
0.0
 11
112.8784943880505
 21
201.262317246493
 31
0.0
  0
LINE
  5
5C
330
6FD
100
AcDbEntity
  8
GAIKEI
100
AcDbLine
 10
112.4184942612144
 20
201.3598172464929
 30
0.0
 11
112.4184941896729
 21
200.5298172464929
 31
0.0
  0
LINE
  5
5D
330
6FD
100
AcDbEntity
  8
GAIKEI
100
AcDbLine
 10
112.4184942612144
 20
201.3598172464929
 30
0.0
 11
112.4184941896729
 21
200.5298172464929
 31
0.0
  0
LINE
  5
5E
330
6FD
100
AcDbEntity
  8
GAIKEI
100
AcDbLine
 10
111.8684945975244
 20
202.759817246493
 30
0.0
 11
112.4184942612144
 21
202.759817246493
 31
0.0
  0
LINE
  5
5F
330
6FD
100
AcDbEntity
  8
GAIKEI
100
AcDbLine
 10
111.9073017064193
 20
201.929817246493
 30
0.0
 11
112.4184941896729
 21
201.929817246493
 31
0.0
  0
LINE
  5
60
330
6FD
100
AcDbEntity
  8
GAIKEI
100
AcDbLine
 10
111.9017139456428
 20
202.0273172464929
 30
0.0
 11
112.418494198077
 21
202.0273172464929
 31
0.0
  0
LINE
  5
61
330
6FD
100
AcDbEntity
  8
GAIKEI
100
AcDbLine
 10
112.8784943880505
 20
202.9623172464928
 30
0.0
 11
111.8684942947266
 21
202.9623172464928
 31
0.0
  0
ARC
  5
62
330
6FD
100
AcDbEntity
  8
GAIKEI
100
AcDbCircle
 10
112.4544943880505
 20
202.4948172464926
 30
0.0
 40
0.0989999999999104
100
AcDbArc
 50
248.6762158065581
 51
0.0
  0
ARC
  5
63
330
6FD
100
AcDbEntity
  8
GAIKEI
100
AcDbCircle
 10
112.4544943880505
 20
202.4948172464926
 30
0.0
 40
0.0989999999998872
100
AcDbArc
 50
0.0
 51
111.3237743163164
  0
LINE
  5
64
330
6FD
100
AcDbEntity
  8
GAIKEI
100
AcDbLine
 10
112.4184942612144
 20
202.759817246493
 30
0.0
 11
112.4184941896729
 21
201.929817246493
 31
0.0
  0
LINE
  5
65
330
6FD
100
AcDbEntity
  8
GAIKEI
100
AcDbLine
 10
112.8784943880505
 20
202.0273172464929
 30
0.0
 11
112.8784943880505
 21
202.9623172464928
 31
0.0
  0
LINE
  5
66
330
6FD
100
AcDbEntity
  8
GAIKEI
100
AcDbLine
 10
112.8784943880505
 20
202.0273172464929
 30
0.0
 11
112.8784943880505
 21
202.9623172464928
 31
0.0
  0
LINE
  5
67
330
6FD
100
AcDbEntity
  8
GAIKEI
100
AcDbLine
 10
112.418494198077
 20
202.0273172464929
 30
0.0
 11
112.8784943880505
 21
202.0273172464929
 31
0.0
  0
ARC
  5
68
330
6FD
100
AcDbEntity
  8
GAIKEI
100
AcDbCircle
 10
111.7884945825063
 20
203.534817302381
 30
0.0
 40
0.0800000000001092
100
AcDbArc
 50
0.0000028311475953
 51
90.00000504168866
  0
ARC
  5
69
330
6FD
100
AcDbEntity
  8
GAIKEI
100
AcDbCircle
 10
111.7884945825063
 20
203.534817302381
 30
0.0
 40
0.0800000000001092
100
AcDbArc
 50
0.0000028311475953
 51
90.00000504168866
  0
LINE
  5
6A
330
6FD
100
AcDbEntity
  8
GAIKEI
100
AcDbLine
 10
111.7884945754668
 20
203.4300378722619
 30
0.0
 11
111.8684945975244
 21
203.4300378722619
 31
0.0
  0
LINE
  5
6B
330
6FD
100
AcDbEntity
  8
GAIKEI
100
AcDbLine
 10
111.7884945754668
 20
203.6148173023798
 30
0.0
 11
111.7884945754668
 21
203.4300378722619
 31
0.0
  0
LINE
  5
6C
330
6FD
100
AcDbEntity
  8
GAIKEI
100
AcDbLine
 10
111.8684945879427
 20
203.534817306334
 30
0.0
 11
111.8684945975244
 21
203.4348161690039
 31
0.0
  0
LINE
  5
6D
330
6FD
100
AcDbEntity
  8
GAIKEI
100
AcDbLine
 10
111.8684945879427
 20
203.534817306334
 30
0.0
 11
111.8684945975244
 21
203.4348161690039
 31
0.0
  0
LINE
  5
6E
330
6FD
100
AcDbEntity
  8
GAIKEI
 62
     1
100
AcDbLine
 10
100.6884896783367
 20
202.5348157532947
 30
0.0
 11
100.6884896783367
 21
203.0348157532947
 31
0.0
  0
LINE
  5
6F
330
6FD
100
AcDbEntity
  8
GAIKEI
 62
     1
100
AcDbLine
 10
101.1884896783367
 20
202.5348157532947
 30
0.0
 11
101.1884896783367
 21
203.0348157532947
 31
0.0
  0
LINE
  5
70
330
6FD
100
AcDbEntity
  8
GAIKEI
 62
     1
100
AcDbLine
 10
101.6884896783367
 20
202.5348157532947
 30
0.0
 11
101.6884896783367
 21
203.0348157532947
 31
0.0
  0
LINE
  5
71
330
6FD
100
AcDbEntity
  8
GAIKEI
 62
     1
100
AcDbLine
 10
102.1884896783367
 20
202.5348157532947
 30
0.0
 11
102.1884896783367
 21
203.0348157532947
 31
0.0
  0
LINE
  5
72
330
6FD
100
AcDbEntity
  8
GAIKEI
 62
     1
100
AcDbLine
 10
100.9684945783367
 20
202.5348157532947
 30
0.0
 11
100.9684945783367
 21
203.0348157532947
 31
0.0
  0
LINE
  5
73
330
6FD
100
AcDbEntity
  8
GAIKEI
 62
     1
100
AcDbLine
 10
101.4684945783367
 20
202.5348157532947
 30
0.0
 11
101.4684945783367
 21
203.0348157532947
 31
0.0
  0
LINE
  5
74
330
6FD
100
AcDbEntity
  8
GAIKEI
 62
     1
100
AcDbLine
 10
101.9684945783367
 20
202.5348157532947
 30
0.0
 11
101.9684945783367
 21
203.0348157532947
 31
0.0
  0
LINE
  5
75
330
6FD
100
AcDbEntity
  8
GAIKEI
 62
     1
100
AcDbLine
 10
101.9684945783367
 20
202.5348157532947
 30
0.0
 11
101.9684945783367
 21
203.0348157532947
 31
0.0
  0
LINE
  5
76
330
6FD
100
AcDbEntity
  8
GAIKEI
 62
     1
100
AcDbLine
 10
101.4684945783367
 20
202.5348157532947
 30
0.0
 11
101.4684945783367
 21
203.0348157532947
 31
0.0
  0
LINE
  5
77
330
6FD
100
AcDbEntity
  8
GAIKEI
 62
     1
100
AcDbLine
 10
100.9684945783367
 20
202.5348157532947
 30
0.0
 11
100.9684945783367
 21
203.0348157532947
 31
0.0
  0
LINE
  5
78
330
6FD
100
AcDbEntity
  8
GAIKEI
 62
     1
100
AcDbLine
 10
102.1884896783367
 20
202.5348157532947
 30
0.0
 11
102.1884896783367
 21
203.0348157532947
 31
0.0
  0
LINE
  5
79
330
6FD
100
AcDbEntity
  8
GAIKEI
 62
     1
100
AcDbLine
 10
101.6884896783367
 20
202.5348157532947
 30
0.0
 11
101.6884896783367
 21
203.0348157532947
 31
0.0
  0
LINE
  5
7A
330
6FD
100
AcDbEntity
  8
GAIKEI
 62
     1
100
AcDbLine
 10
101.1884896783367
 20
202.5348157532947
 30
0.0
 11
101.1884896783367
 21
203.0348157532947
 31
0.0
  0
LINE
  5
7B
330
6FD
100
AcDbEntity
  8
GAIKEI
 62
     1
100
AcDbLine
 10
100.6884896783367
 20
202.5348157532947
 30
0.0
 11
100.6884896783367
 21
203.0348157532947
 31
0.0
  0
LINE
  5
7C
330
6FD
100
AcDbEntity
  8
GAIKEI
 62
     1
100
AcDbLine
 10
102.6884896783367
 20
202.5348157532947
 30
0.0
 11
102.6884896783367
 21
203.0348157532947
 31
0.0
  0
LINE
  5
7D
330
6FD
100
AcDbEntity
  8
GAIKEI
 62
     1
100
AcDbLine
 10
103.1884896783367
 20
202.5348157532947
 30
0.0
 11
103.1884896783367
 21
203.0348157532947
 31
0.0
  0
LINE
  5
7E
330
6FD
100
AcDbEntity
  8
GAIKEI
 62
     1
100
AcDbLine
 10
102.4684945783367
 20
202.5348157532947
 30
0.0
 11
102.4684945783367
 21
203.0348157532947
 31
0.0
  0
LINE
  5
7F
330
6FD
100
AcDbEntity
  8
GAIKEI
 62
     1
100
AcDbLine
 10
102.9684945783367
 20
202.5348157532947
 30
0.0
 11
102.9684945783367
 21
203.0348157532947
 31
0.0
  0
LINE
  5
80
330
6FD
100
AcDbEntity
  8
GAIKEI
 62
     1
100
AcDbLine
 10
102.9684945783367
 20
202.5348157532947
 30
0.0
 11
102.9684945783367
 21
203.0348157532947
 31
0.0
  0
LINE
  5
81
330
6FD
100
AcDbEntity
  8
GAIKEI
 62
     1
100
AcDbLine
 10
102.4684945783367
 20
202.5348157532947
 30
0.0
 11
102.4684945783367
 21
203.0348157532947
 31
0.0
  0
LINE
  5
82
330
6FD
100
AcDbEntity
  8
GAIKEI
 62
     1
100
AcDbLine
 10
103.1884896783367
 20
202.5348157532947
 30
0.0
 11
103.1884896783367
 21
203.0348157532947
 31
0.0
  0
LINE
  5
83
330
6FD
100
AcDbEntity
  8
GAIKEI
 62
     1
100
AcDbLine
 10
102.6884896783367
 20
202.5348157532947
 30
0.0
 11
102.6884896783367
 21
203.0348157532947
 31
0.0
  0
LINE
  5
84
330
6FD
100
AcDbEntity
  8
GAIKEI
 62
     1
100
AcDbLine
 10
100.6884896783367
 20
201.0348157532947
 30
0.0
 11
100.6884896783367
 21
201.5348157532947
 31
0.0
  0
LINE
  5
85
330
6FD
100
AcDbEntity
  8
GAIKEI
 62
     1
100
AcDbLine
 10
101.1884896783367
 20
201.0348157532947
 30
0.0
 11
101.1884896783367
 21
201.5348157532947
 31
0.0
  0
LINE
  5
86
330
6FD
100
AcDbEntity
  8
GAIKEI
 62
     1
100
AcDbLine
 10
101.6884896783367
 20
201.0348157532947
 30
0.0
 11
101.6884896783367
 21
201.5348157532947
 31
0.0
  0
LINE
  5
87
330
6FD
100
AcDbEntity
  8
GAIKEI
 62
     1
100
AcDbLine
 10
102.1884896783367
 20
201.0348157532947
 30
0.0
 11
102.1884896783367
 21
201.5348157532947
 31
0.0
  0
LINE
  5
88
330
6FD
100
AcDbEntity
  8
GAIKEI
 62
     1
100
AcDbLine
 10
102.6884896783367
 20
201.0348157532947
 30
0.0
 11
102.6884896783367
 21
201.5348157532947
 31
0.0
  0
LINE
  5
89
330
6FD
100
AcDbEntity
  8
GAIKEI
 62
     1
100
AcDbLine
 10
103.1884896783367
 20
201.0348157532947
 30
0.0
 11
103.1884896783367
 21
201.5348157532947
 31
0.0
  0
LINE
  5
8A
330
6FD
100
AcDbEntity
  8
GAIKEI
 62
     1
100
AcDbLine
 10
100.9684945783367
 20
201.0348157532947
 30
0.0
 11
100.9684945783367
 21
201.5348157532947
 31
0.0
  0
LINE
  5
8B
330
6FD
100
AcDbEntity
  8
GAIKEI
 62
     1
100
AcDbLine
 10
101.4684945783367
 20
201.0348157532947
 30
0.0
 11
101.4684945783367
 21
201.5348157532947
 31
0.0
  0
LINE
  5
8C
330
6FD
100
AcDbEntity
  8
GAIKEI
 62
     1
100
AcDbLine
 10
101.9684945783367
 20
201.0348157532947
 30
0.0
 11
101.9684945783367
 21
201.5348157532947
 31
0.0
  0
LINE
  5
8D
330
6FD
100
AcDbEntity
  8
GAIKEI
 62
     1
100
AcDbLine
 10
102.4684945783367
 20
201.0348157532947
 30
0.0
 11
102.4684945783367
 21
201.5348157532947
 31
0.0
  0
LINE
  5
8E
330
6FD
100
AcDbEntity
  8
GAIKEI
 62
     1
100
AcDbLine
 10
102.9684945783367
 20
201.0348157532947
 30
0.0
 11
102.9684945783367
 21
201.5348157532947
 31
0.0
  0
LINE
  5
8F
330
6FD
100
AcDbEntity
  8
GAIKEI
 62
     1
100
AcDbLine
 10
102.9684945783367
 20
201.0348157532947
 30
0.0
 11
102.9684945783367
 21
201.5348157532947
 31
0.0
  0
LINE
  5
90
330
6FD
100
AcDbEntity
  8
GAIKEI
 62
     1
100
AcDbLine
 10
102.4684945783367
 20
201.0348157532947
 30
0.0
 11
102.4684945783367
 21
201.5348157532947
 31
0.0
  0
LINE
  5
91
330
6FD
100
AcDbEntity
  8
GAIKEI
 62
     1
100
AcDbLine
 10
101.9684945783367
 20
201.0348157532947
 30
0.0
 11
101.9684945783367
 21
201.5348157532947
 31
0.0
  0
LINE
  5
92
330
6FD
100
AcDbEntity
  8
GAIKEI
 62
     1
100
AcDbLine
 10
101.4684945783367
 20
201.0348157532947
 30
0.0
 11
101.4684945783367
 21
201.5348157532947
 31
0.0
  0
LINE
  5
93
330
6FD
100
AcDbEntity
  8
GAIKEI
 62
     1
100
AcDbLine
 10
100.9684945783367
 20
201.0348157532947
 30
0.0
 11
100.9684945783367
 21
201.5348157532947
 31
0.0
  0
LINE
  5
94
330
6FD
100
AcDbEntity
  8
GAIKEI
 62
     1
100
AcDbLine
 10
103.1884896783367
 20
201.0348157532947
 30
0.0
 11
103.1884896783367
 21
201.5348157532947
 31
0.0
  0
LINE
  5
95
330
6FD
100
AcDbEntity
  8
GAIKEI
 62
     1
100
AcDbLine
 10
102.6884896783367
 20
201.0348157532947
 30
0.0
 11
102.6884896783367
 21
201.5348157532947
 31
0.0
  0
LINE
  5
96
330
6FD
100
AcDbEntity
  8
GAIKEI
 62
     1
100
AcDbLine
 10
102.1884896783367
 20
201.0348157532947
 30
0.0
 11
102.1884896783367
 21
201.5348157532947
 31
0.0
  0
LINE
  5
97
330
6FD
100
AcDbEntity
  8
GAIKEI
 62
     1
100
AcDbLine
 10
101.6884896783367
 20
201.0348157532947
 30
0.0
 11
101.6884896783367
 21
201.5348157532947
 31
0.0
  0
LINE
  5
98
330
6FD
100
AcDbEntity
  8
GAIKEI
 62
     1
100
AcDbLine
 10
101.1884896783367
 20
201.0348157532947
 30
0.0
 11
101.1884896783367
 21
201.5348157532947
 31
0.0
  0
LINE
  5
99
330
6FD
100
AcDbEntity
  8
GAIKEI
 62
     1
100
AcDbLine
 10
100.6884896783367
 20
201.0348157532947
 30
0.0
 11
100.6884896783367
 21
201.5348157532947
 31
0.0
  0
LINE
  5
9A
330
6FD
100
AcDbEntity
  8
GAIKEI
 62
     1
100
AcDbLine
 10
101.1884896783367
 20
201.0348157532947
 30
0.0
 11
100.9684945783367
 21
201.0348157532947
 31
0.0
  0
LINE
  5
9B
330
6FD
100
AcDbEntity
  8
GAIKEI
 62
     1
100
AcDbLine
 10
101.6884896783367
 20
201.0348157532947
 30
0.0
 11
101.4684945783367
 21
201.0348157532947
 31
0.0
  0
LINE
  5
9C
330
6FD
100
AcDbEntity
  8
GAIKEI
 62
     1
100
AcDbLine
 10
102.1884896783367
 20
201.0348157532947
 30
0.0
 11
101.9684945783367
 21
201.0348157532947
 31
0.0
  0
LINE
  5
9D
330
6FD
100
AcDbEntity
  8
GAIKEI
 62
     1
100
AcDbLine
 10
102.1884896783367
 20
201.0348157532947
 30
0.0
 11
101.9684945783367
 21
201.0348157532947
 31
0.0
  0
LINE
  5
9E
330
6FD
100
AcDbEntity
  8
GAIKEI
 62
     1
100
AcDbLine
 10
101.6884896783367
 20
201.0348157532947
 30
0.0
 11
101.4684945783367
 21
201.0348157532947
 31
0.0
  0
LINE
  5
9F
330
6FD
100
AcDbEntity
  8
GAIKEI
 62
     1
100
AcDbLine
 10
101.1884896783367
 20
201.0348157532947
 30
0.0
 11
100.9684945783367
 21
201.0348157532947
 31
0.0
  0
LINE
  5
A0
330
6FD
100
AcDbEntity
  8
GAIKEI
 62
     1
100
AcDbLine
 10
102.6884896783367
 20
201.0348157532947
 30
0.0
 11
102.4684945783367
 21
201.0348157532947
 31
0.0
  0
LINE
  5
A1
330
6FD
100
AcDbEntity
  8
GAIKEI
 62
     1
100
AcDbLine
 10
103.1884896783367
 20
201.0348157532947
 30
0.0
 11
102.9684945783367
 21
201.0348157532947
 31
0.0
  0
LINE
  5
A2
330
6FD
100
AcDbEntity
  8
GAIKEI
 62
     1
100
AcDbLine
 10
103.1884896783367
 20
201.0348157532947
 30
0.0
 11
102.9684945783367
 21
201.0348157532947
 31
0.0
  0
LINE
  5
A3
330
6FD
100
AcDbEntity
  8
GAIKEI
 62
     1
100
AcDbLine
 10
102.6884896783367
 20
201.0348157532947
 30
0.0
 11
102.4684945783367
 21
201.0348157532947
 31
0.0
  0
LINE
  5
A4
330
6FD
100
AcDbEntity
  8
GAIKEI
 62
     1
100
AcDbLine
 10
100.6884896783367
 20
201.7848157532947
 30
0.0
 11
100.6884896783367
 21
202.2848157532947
 31
0.0
  0
LINE
  5
A5
330
6FD
100
AcDbEntity
  8
GAIKEI
 62
     1
100
AcDbLine
 10
101.1884896783367
 20
201.7848157532947
 30
0.0
 11
101.1884896783367
 21
202.2848157532947
 31
0.0
  0
LINE
  5
A6
330
6FD
100
AcDbEntity
  8
GAIKEI
 62
     1
100
AcDbLine
 10
101.6884896783367
 20
201.7848157532947
 30
0.0
 11
101.6884896783367
 21
202.2848157532947
 31
0.0
  0
LINE
  5
A7
330
6FD
100
AcDbEntity
  8
GAIKEI
 62
     1
100
AcDbLine
 10
102.1884896783367
 20
201.7848157532947
 30
0.0
 11
102.1884896783367
 21
202.2848157532947
 31
0.0
  0
LINE
  5
A8
330
6FD
100
AcDbEntity
  8
GAIKEI
 62
     1
100
AcDbLine
 10
101.1884896783367
 20
202.5348157532947
 30
0.0
 11
100.9684945783367
 21
202.5348157532947
 31
0.0
  0
LINE
  5
A9
330
6FD
100
AcDbEntity
  8
GAIKEI
 62
     1
100
AcDbLine
 10
101.1884896783367
 20
201.7848157532947
 30
0.0
 11
100.9684945783367
 21
201.7848157532947
 31
0.0
  0
LINE
  5
AA
330
6FD
100
AcDbEntity
  8
GAIKEI
 62
     1
100
AcDbLine
 10
101.6884896783367
 20
202.5348157532947
 30
0.0
 11
101.4684945783367
 21
202.5348157532947
 31
0.0
  0
LINE
  5
AB
330
6FD
100
AcDbEntity
  8
GAIKEI
 62
     1
100
AcDbLine
 10
101.6884896783367
 20
201.7848157532947
 30
0.0
 11
101.4684945783367
 21
201.7848157532947
 31
0.0
  0
LINE
  5
AC
330
6FD
100
AcDbEntity
  8
GAIKEI
 62
     1
100
AcDbLine
 10
102.1884896783367
 20
202.5348157532947
 30
0.0
 11
101.9684945783367
 21
202.5348157532947
 31
0.0
  0
LINE
  5
AD
330
6FD
100
AcDbEntity
  8
GAIKEI
 62
     1
100
AcDbLine
 10
102.1884896783367
 20
201.7848157532947
 30
0.0
 11
101.9684945783367
 21
201.7848157532947
 31
0.0
  0
LINE
  5
AE
330
6FD
100
AcDbEntity
  8
GAIKEI
 62
     1
100
AcDbLine
 10
101.1884896783367
 20
202.2848157532947
 30
0.0
 11
100.9684945783367
 21
202.2848157532947
 31
0.0
  0
LINE
  5
AF
330
6FD
100
AcDbEntity
  8
GAIKEI
 62
     1
100
AcDbLine
 10
101.1884896783367
 20
201.5348157532947
 30
0.0
 11
100.9684945783367
 21
201.5348157532947
 31
0.0
  0
LINE
  5
B0
330
6FD
100
AcDbEntity
  8
GAIKEI
 62
     1
100
AcDbLine
 10
101.6884896783367
 20
202.2848157532947
 30
0.0
 11
101.4684945783367
 21
202.2848157532947
 31
0.0
  0
LINE
  5
B1
330
6FD
100
AcDbEntity
  8
GAIKEI
 62
     1
100
AcDbLine
 10
101.6884896783367
 20
201.5348157532947
 30
0.0
 11
101.4684945783367
 21
201.5348157532947
 31
0.0
  0
LINE
  5
B2
330
6FD
100
AcDbEntity
  8
GAIKEI
 62
     1
100
AcDbLine
 10
102.1884896783367
 20
202.2848157532947
 30
0.0
 11
101.9684945783367
 21
202.2848157532947
 31
0.0
  0
LINE
  5
B3
330
6FD
100
AcDbEntity
  8
GAIKEI
 62
     1
100
AcDbLine
 10
102.1884896783367
 20
201.5348157532947
 30
0.0
 11
101.9684945783367
 21
201.5348157532947
 31
0.0
  0
LINE
  5
B4
330
6FD
100
AcDbEntity
  8
GAIKEI
 62
     1
100
AcDbLine
 10
100.9684945783367
 20
201.7848157532947
 30
0.0
 11
100.9684945783367
 21
202.2848157532947
 31
0.0
  0
LINE
  5
B5
330
6FD
100
AcDbEntity
  8
GAIKEI
 62
     1
100
AcDbLine
 10
101.4684945783367
 20
201.7848157532947
 30
0.0
 11
101.4684945783367
 21
202.2848157532947
 31
0.0
  0
LINE
  5
B6
330
6FD
100
AcDbEntity
  8
GAIKEI
 62
     1
100
AcDbLine
 10
101.9684945783367
 20
201.7848157532947
 30
0.0
 11
101.9684945783367
 21
202.2848157532947
 31
0.0
  0
LINE
  5
B7
330
6FD
100
AcDbEntity
  8
GAIKEI
 62
     1
100
AcDbLine
 10
101.9684945783367
 20
201.7848157532947
 30
0.0
 11
101.9684945783367
 21
202.2848157532947
 31
0.0
  0
LINE
  5
B8
330
6FD
100
AcDbEntity
  8
GAIKEI
 62
     1
100
AcDbLine
 10
101.4684945783367
 20
201.7848157532947
 30
0.0
 11
101.4684945783367
 21
202.2848157532947
 31
0.0
  0
LINE
  5
B9
330
6FD
100
AcDbEntity
  8
GAIKEI
 62
     1
100
AcDbLine
 10
100.9684945783367
 20
201.7848157532947
 30
0.0
 11
100.9684945783367
 21
202.2848157532947
 31
0.0
  0
LINE
  5
BA
330
6FD
100
AcDbEntity
  8
GAIKEI
 62
     1
100
AcDbLine
 10
102.1884896783367
 20
201.5348157532947
 30
0.0
 11
101.9684945783367
 21
201.5348157532947
 31
0.0
  0
LINE
  5
BB
330
6FD
100
AcDbEntity
  8
GAIKEI
 62
     1
100
AcDbLine
 10
102.1884896783367
 20
202.2848157532947
 30
0.0
 11
101.9684945783367
 21
202.2848157532947
 31
0.0
  0
LINE
  5
BC
330
6FD
100
AcDbEntity
  8
GAIKEI
 62
     1
100
AcDbLine
 10
101.6884896783367
 20
201.5348157532947
 30
0.0
 11
101.4684945783367
 21
201.5348157532947
 31
0.0
  0
LINE
  5
BD
330
6FD
100
AcDbEntity
  8
GAIKEI
 62
     1
100
AcDbLine
 10
101.6884896783367
 20
202.2848157532947
 30
0.0
 11
101.4684945783367
 21
202.2848157532947
 31
0.0
  0
LINE
  5
BE
330
6FD
100
AcDbEntity
  8
GAIKEI
 62
     1
100
AcDbLine
 10
101.1884896783367
 20
201.5348157532947
 30
0.0
 11
100.9684945783367
 21
201.5348157532947
 31
0.0
  0
LINE
  5
BF
330
6FD
100
AcDbEntity
  8
GAIKEI
 62
     1
100
AcDbLine
 10
101.1884896783367
 20
202.2848157532947
 30
0.0
 11
100.9684945783367
 21
202.2848157532947
 31
0.0
  0
LINE
  5
C0
330
6FD
100
AcDbEntity
  8
GAIKEI
 62
     1
100
AcDbLine
 10
102.1884896783367
 20
201.7848157532947
 30
0.0
 11
101.9684945783367
 21
201.7848157532947
 31
0.0
  0
LINE
  5
C1
330
6FD
100
AcDbEntity
  8
GAIKEI
 62
     1
100
AcDbLine
 10
102.1884896783367
 20
202.5348157532947
 30
0.0
 11
101.9684945783367
 21
202.5348157532947
 31
0.0
  0
LINE
  5
C2
330
6FD
100
AcDbEntity
  8
GAIKEI
 62
     1
100
AcDbLine
 10
101.6884896783367
 20
201.7848157532947
 30
0.0
 11
101.4684945783367
 21
201.7848157532947
 31
0.0
  0
LINE
  5
C3
330
6FD
100
AcDbEntity
  8
GAIKEI
 62
     1
100
AcDbLine
 10
101.6884896783367
 20
202.5348157532947
 30
0.0
 11
101.4684945783367
 21
202.5348157532947
 31
0.0
  0
LINE
  5
C4
330
6FD
100
AcDbEntity
  8
GAIKEI
 62
     1
100
AcDbLine
 10
101.1884896783367
 20
201.7848157532947
 30
0.0
 11
100.9684945783367
 21
201.7848157532947
 31
0.0
  0
LINE
  5
C5
330
6FD
100
AcDbEntity
  8
GAIKEI
 62
     1
100
AcDbLine
 10
101.1884896783367
 20
202.5348157532947
 30
0.0
 11
100.9684945783367
 21
202.5348157532947
 31
0.0
  0
LINE
  5
C6
330
6FD
100
AcDbEntity
  8
GAIKEI
 62
     1
100
AcDbLine
 10
102.1884896783367
 20
201.7848157532947
 30
0.0
 11
102.1884896783367
 21
202.2848157532947
 31
0.0
  0
LINE
  5
C7
330
6FD
100
AcDbEntity
  8
GAIKEI
 62
     1
100
AcDbLine
 10
101.6884896783367
 20
201.7848157532947
 30
0.0
 11
101.6884896783367
 21
202.2848157532947
 31
0.0
  0
LINE
  5
C8
330
6FD
100
AcDbEntity
  8
GAIKEI
 62
     1
100
AcDbLine
 10
101.1884896783367
 20
201.7848157532947
 30
0.0
 11
101.1884896783367
 21
202.2848157532947
 31
0.0
  0
LINE
  5
C9
330
6FD
100
AcDbEntity
  8
GAIKEI
 62
     1
100
AcDbLine
 10
100.6884896783367
 20
201.7848157532947
 30
0.0
 11
100.6884896783367
 21
202.2848157532947
 31
0.0
  0
LINE
  5
CA
330
6FD
100
AcDbEntity
  8
GAIKEI
 62
     1
100
AcDbLine
 10
102.6884896783367
 20
201.7848157532947
 30
0.0
 11
102.6884896783367
 21
202.2848157532947
 31
0.0
  0
LINE
  5
CB
330
6FD
100
AcDbEntity
  8
GAIKEI
 62
     1
100
AcDbLine
 10
103.1884896783367
 20
201.7848157532947
 30
0.0
 11
103.1884896783367
 21
202.2848157532947
 31
0.0
  0
LINE
  5
CC
330
6FD
100
AcDbEntity
  8
GAIKEI
 62
     1
100
AcDbLine
 10
102.6884896783367
 20
202.5348157532947
 30
0.0
 11
102.4684945783367
 21
202.5348157532947
 31
0.0
  0
LINE
  5
CD
330
6FD
100
AcDbEntity
  8
GAIKEI
 62
     1
100
AcDbLine
 10
102.6884896783367
 20
201.7848157532947
 30
0.0
 11
102.4684945783367
 21
201.7848157532947
 31
0.0
  0
LINE
  5
CE
330
6FD
100
AcDbEntity
  8
GAIKEI
 62
     1
100
AcDbLine
 10
103.1884896783367
 20
202.5348157532947
 30
0.0
 11
102.9684945783367
 21
202.5348157532947
 31
0.0
  0
LINE
  5
CF
330
6FD
100
AcDbEntity
  8
GAIKEI
 62
     1
100
AcDbLine
 10
103.1884896783367
 20
201.7848157532947
 30
0.0
 11
102.9684945783367
 21
201.7848157532947
 31
0.0
  0
LINE
  5
D0
330
6FD
100
AcDbEntity
  8
GAIKEI
 62
     1
100
AcDbLine
 10
102.6884896783367
 20
202.2848157532947
 30
0.0
 11
102.4684945783367
 21
202.2848157532947
 31
0.0
  0
LINE
  5
D1
330
6FD
100
AcDbEntity
  8
GAIKEI
 62
     1
100
AcDbLine
 10
102.6884896783367
 20
201.5348157532947
 30
0.0
 11
102.4684945783367
 21
201.5348157532947
 31
0.0
  0
LINE
  5
D2
330
6FD
100
AcDbEntity
  8
GAIKEI
 62
     1
100
AcDbLine
 10
103.1884896783367
 20
202.2848157532947
 30
0.0
 11
102.9684945783367
 21
202.2848157532947
 31
0.0
  0
LINE
  5
D3
330
6FD
100
AcDbEntity
  8
GAIKEI
 62
     1
100
AcDbLine
 10
103.1884896783367
 20
201.5348157532947
 30
0.0
 11
102.9684945783367
 21
201.5348157532947
 31
0.0
  0
LINE
  5
D4
330
6FD
100
AcDbEntity
  8
GAIKEI
 62
     1
100
AcDbLine
 10
102.4684945783367
 20
201.7848157532947
 30
0.0
 11
102.4684945783367
 21
202.2848157532947
 31
0.0
  0
LINE
  5
D5
330
6FD
100
AcDbEntity
  8
GAIKEI
 62
     1
100
AcDbLine
 10
102.9684945783367
 20
201.7848157532947
 30
0.0
 11
102.9684945783367
 21
202.2848157532947
 31
0.0
  0
LINE
  5
D6
330
6FD
100
AcDbEntity
  8
GAIKEI
 62
     1
100
AcDbLine
 10
102.9684945783367
 20
201.7848157532947
 30
0.0
 11
102.9684945783367
 21
202.2848157532947
 31
0.0
  0
LINE
  5
D7
330
6FD
100
AcDbEntity
  8
GAIKEI
 62
     1
100
AcDbLine
 10
102.4684945783367
 20
201.7848157532947
 30
0.0
 11
102.4684945783367
 21
202.2848157532947
 31
0.0
  0
LINE
  5
D8
330
6FD
100
AcDbEntity
  8
GAIKEI
 62
     1
100
AcDbLine
 10
103.1884896783367
 20
201.5348157532947
 30
0.0
 11
102.9684945783367
 21
201.5348157532947
 31
0.0
  0
LINE
  5
D9
330
6FD
100
AcDbEntity
  8
GAIKEI
 62
     1
100
AcDbLine
 10
103.1884896783367
 20
202.2848157532947
 30
0.0
 11
102.9684945783367
 21
202.2848157532947
 31
0.0
  0
LINE
  5
DA
330
6FD
100
AcDbEntity
  8
GAIKEI
 62
     1
100
AcDbLine
 10
102.6884896783367
 20
201.5348157532947
 30
0.0
 11
102.4684945783367
 21
201.5348157532947
 31
0.0
  0
LINE
  5
DB
330
6FD
100
AcDbEntity
  8
GAIKEI
 62
     1
100
AcDbLine
 10
102.6884896783367
 20
202.2848157532947
 30
0.0
 11
102.4684945783367
 21
202.2848157532947
 31
0.0
  0
LINE
  5
DC
330
6FD
100
AcDbEntity
  8
GAIKEI
 62
     1
100
AcDbLine
 10
103.1884896783367
 20
201.7848157532947
 30
0.0
 11
102.9684945783367
 21
201.7848157532947
 31
0.0
  0
LINE
  5
DD
330
6FD
100
AcDbEntity
  8
GAIKEI
 62
     1
100
AcDbLine
 10
103.1884896783367
 20
202.5348157532947
 30
0.0
 11
102.9684945783367
 21
202.5348157532947
 31
0.0
  0
LINE
  5
DE
330
6FD
100
AcDbEntity
  8
GAIKEI
 62
     1
100
AcDbLine
 10
102.6884896783367
 20
201.7848157532947
 30
0.0
 11
102.4684945783367
 21
201.7848157532947
 31
0.0
  0
LINE
  5
DF
330
6FD
100
AcDbEntity
  8
GAIKEI
 62
     1
100
AcDbLine
 10
102.6884896783367
 20
202.5348157532947
 30
0.0
 11
102.4684945783367
 21
202.5348157532947
 31
0.0
  0
LINE
  5
E0
330
6FD
100
AcDbEntity
  8
GAIKEI
 62
     1
100
AcDbLine
 10
103.1884896783367
 20
201.7848157532947
 30
0.0
 11
103.1884896783367
 21
202.2848157532947
 31
0.0
  0
LINE
  5
E1
330
6FD
100
AcDbEntity
  8
GAIKEI
 62
     1
100
AcDbLine
 10
102.6884896783367
 20
201.7848157532947
 30
0.0
 11
102.6884896783367
 21
202.2848157532947
 31
0.0
  0
LINE
  5
E2
330
6FD
100
AcDbEntity
  8
GAIKEI
 62
     1
100
AcDbLine
 10
101.1884896783367
 20
203.0348157532947
 30
0.0
 11
100.9684945783367
 21
203.0348157532947
 31
0.0
  0
LINE
  5
E3
330
6FD
100
AcDbEntity
  8
GAIKEI
 62
     1
100
AcDbLine
 10
101.6884896783367
 20
203.0348157532947
 30
0.0
 11
101.4684945783367
 21
203.0348157532947
 31
0.0
  0
LINE
  5
E4
330
6FD
100
AcDbEntity
  8
GAIKEI
 62
     1
100
AcDbLine
 10
102.1884896783367
 20
203.0348157532947
 30
0.0
 11
101.9684945783367
 21
203.0348157532947
 31
0.0
  0
LINE
  5
E5
330
6FD
100
AcDbEntity
  8
GAIKEI
 62
     1
100
AcDbLine
 10
102.1884896783367
 20
203.0348157532947
 30
0.0
 11
101.9684945783367
 21
203.0348157532947
 31
0.0
  0
LINE
  5
E6
330
6FD
100
AcDbEntity
  8
GAIKEI
 62
     1
100
AcDbLine
 10
101.6884896783367
 20
203.0348157532947
 30
0.0
 11
101.4684945783367
 21
203.0348157532947
 31
0.0
  0
LINE
  5
E7
330
6FD
100
AcDbEntity
  8
GAIKEI
 62
     1
100
AcDbLine
 10
101.1884896783367
 20
203.0348157532947
 30
0.0
 11
100.9684945783367
 21
203.0348157532947
 31
0.0
  0
LINE
  5
E8
330
6FD
100
AcDbEntity
  8
GAIKEI
 62
     1
100
AcDbLine
 10
102.6884896783367
 20
203.0348157532947
 30
0.0
 11
102.4684945783367
 21
203.0348157532947
 31
0.0
  0
LINE
  5
E9
330
6FD
100
AcDbEntity
  8
GAIKEI
 62
     1
100
AcDbLine
 10
103.1884896783367
 20
203.0348157532947
 30
0.0
 11
102.9684945783367
 21
203.0348157532947
 31
0.0
  0
LINE
  5
EA
330
6FD
100
AcDbEntity
  8
GAIKEI
 62
     1
100
AcDbLine
 10
103.1884896783367
 20
203.0348157532947
 30
0.0
 11
102.9684945783367
 21
203.0348157532947
 31
0.0
  0
LINE
  5
EB
330
6FD
100
AcDbEntity
  8
GAIKEI
 62
     1
100
AcDbLine
 10
102.6884896783367
 20
203.0348157532947
 30
0.0
 11
102.4684945783367
 21
203.0348157532947
 31
0.0
  0
LINE
  5
EC
330
6FD
100
AcDbEntity
  8
GAIKEI
100
AcDbLine
 10
106.9684942790159
 20
198.3348147971408
 30
0.0
 11
106.868494279016
 21
199.3348147883987
 31
0.0
  0
LINE
  5
ED
330
6FD
100
AcDbEntity
  8
GAIKEI
100
AcDbLine
 10
106.9684942790159
 20
198.3348147971408
 30
0.0
 11
106.868494279016
 21
199.3348147883987
 31
0.0
  0
LINE
  5
EE
330
6FD
100
AcDbEntity
  8
GAIKEI
100
AcDbLine
 10
107.868494279016
 20
198.3348148583366
 30
0.0
 11
106.9684942790159
 21
198.3348147971408
 31
0.0
  0
LINE
  5
EF
330
6FD
100
AcDbEntity
  8
GAIKEI
100
AcDbLine
 10
107.868494279016
 20
198.3348148583366
 30
0.0
 11
106.9684942790159
 21
198.3348147971408
 31
0.0
  0
ARC
  5
F0
330
6FD
100
AcDbEntity
  8
GAIKEI
 62
     1
100
AcDbCircle
 10
105.5256740421692
 20
200.5848157882635
 30
0.0
 40
0.3
100
AcDbArc
 50
270.0
 51
351.7866989255779
  0
ARC
  5
F1
330
6FD
100
AcDbEntity
  8
GAIKEI
 62
     1
100
AcDbCircle
 10
105.5256740421692
 20
200.5848157882635
 30
0.0
 40
0.1
100
AcDbArc
 50
270.0
 51
351.7866989257226
  0
ARC
  5
F2
330
6FD
100
AcDbEntity
  8
GAIKEI
 62
     1
100
AcDbCircle
 10
105.5256740421692
 20
200.5848157882635
 30
0.0
 40
0.1
100
AcDbArc
 50
270.0
 51
351.7866989257226
  0
ARC
  5
F3
330
6FD
100
AcDbEntity
  8
GAIKEI
 62
     1
100
AcDbCircle
 10
105.5256740421692
 20
200.5848157882635
 30
0.0
 40
0.3
100
AcDbArc
 50
270.0
 51
351.7866989255779
  0
ARC
  5
F4
330
6FD
100
AcDbEntity
  8
GAIKEI
 62
     1
100
AcDbCircle
 10
106.9113143727632
 20
200.5848157882635
 30
0.0
 40
0.3000000000002249
100
AcDbArc
 50
188.2133010744222
 51
270.0
  0
ARC
  5
F5
330
6FD
100
AcDbEntity
  8
GAIKEI
 62
     1
100
AcDbCircle
 10
106.9113143727632
 20
200.5848157882635
 30
0.0
 40
0.1000000000001801
100
AcDbArc
 50
188.2133010742774
 51
270.0
  0
ARC
  5
F6
330
6FD
100
AcDbEntity
  8
GAIKEI
 62
     1
100
AcDbCircle
 10
106.9113143727632
 20
200.5848157882635
 30
0.0
 40
0.1000000000001801
100
AcDbArc
 50
188.2133010742774
 51
270.0
  0
ARC
  5
F7
330
6FD
100
AcDbEntity
  8
GAIKEI
 62
     1
100
AcDbCircle
 10
106.9113143727632
 20
200.5848157882635
 30
0.0
 40
0.3000000000002249
100
AcDbArc
 50
188.2133010744222
 51
270.0
  0
CIRCLE
  5
F8
330
6FD
100
AcDbEntity
  8
GAIKEI
 62
     1
100
AcDbCircle
 10
106.2184945782228
 20
200.4848169684708
 30
0.0
 40
0.314999999999722
  0
CIRCLE
  5
F9
330
6FD
100
AcDbEntity
  8
GAIKEI
 62
     1
100
AcDbCircle
 10
106.2184945782228
 20
200.4848169684708
 30
0.0
 40
0.314999999999722
  0
ARC
  5
FA
330
6FD
100
AcDbEntity
  8
GAIKEI
 62
     1
100
AcDbCircle
 10
106.2184942074659
 20
200.4848146954789
 30
0.0
 40
0.6000000000001418
100
AcDbArc
 50
8.213301074316893
 51
171.7866989256831
  0
ARC
  5
FB
330
6FD
100
AcDbEntity
  8
GAIKEI
 62
     1
100
AcDbCircle
 10
106.2184942074659
 20
200.4848146954789
 30
0.0
 40
0.4000000000000969
100
AcDbArc
 50
8.213301074277406
 51
171.7866989257226
  0
ARC
  5
FC
330
6FD
100
AcDbEntity
  8
GAIKEI
 62
     1
100
AcDbCircle
 10
106.288494578223
 20
200.554816968471
 30
0.0
 40
0.0350000000000136
100
AcDbArc
 50
180.0
 51
270.0
  0
ARC
  5
FD
330
6FD
100
AcDbEntity
  8
GAIKEI
 62
     1
100
AcDbCircle
 10
106.288494578223
 20
200.4148169684709
 30
0.0
 40
0.034999999999809
100
AcDbArc
 50
90.0
 51
180.0
  0
ARC
  5
FE
330
6FD
100
AcDbEntity
  8
GAIKEI
 62
     1
100
AcDbCircle
 10
106.1484945782229
 20
200.4148169684709
 30
0.0
 40
0.0349999999999909
100
AcDbArc
 50
0.0
 51
90.0
  0
ARC
  5
FF
330
6FD
100
AcDbEntity
  8
GAIKEI
 62
     1
100
AcDbCircle
 10
106.1484945782229
 20
200.554816968471
 30
0.0
 40
0.0349999999998118
100
AcDbArc
 50
270.0
 51
0.0
  0
ARC
  5
100
330
6FD
100
AcDbEntity
  8
GAIKEI
 62
     1
100
AcDbCircle
 10
106.1484945782229
 20
200.554816968471
 30
0.0
 40
0.0349999999998118
100
AcDbArc
 50
270.0
 51
0.0
  0
ARC
  5
101
330
6FD
100
AcDbEntity
  8
GAIKEI
 62
     1
100
AcDbCircle
 10
106.1484945782229
 20
200.4148169684709
 30
0.0
 40
0.0349999999999909
100
AcDbArc
 50
0.0
 51
90.0
  0
ARC
  5
102
330
6FD
100
AcDbEntity
  8
GAIKEI
 62
     1
100
AcDbCircle
 10
106.288494578223
 20
200.4148169684709
 30
0.0
 40
0.034999999999809
100
AcDbArc
 50
90.0
 51
180.0
  0
ARC
  5
103
330
6FD
100
AcDbEntity
  8
GAIKEI
 62
     1
100
AcDbCircle
 10
106.288494578223
 20
200.554816968471
 30
0.0
 40
0.0350000000000136
100
AcDbArc
 50
180.0
 51
270.0
  0
ARC
  5
104
330
6FD
100
AcDbEntity
  8
GAIKEI
 62
     1
100
AcDbCircle
 10
106.2184942074659
 20
200.4848146954789
 30
0.0
 40
0.4000000000000969
100
AcDbArc
 50
8.213301074277406
 51
171.7866989257226
  0
ARC
  5
105
330
6FD
100
AcDbEntity
  8
GAIKEI
 62
     1
100
AcDbCircle
 10
106.2184942074659
 20
200.4848146954789
 30
0.0
 40
0.6000000000001418
100
AcDbArc
 50
8.213301074316893
 51
171.7866989256831
  0
LINE
  5
106
330
6FD
100
AcDbEntity
  8
GAIKEI
 62
     1
100
AcDbLine
 10
106.183494578223
 20
200.4148169684706
 30
0.0
 11
106.183494578223
 21
200.304816968471
 31
0.0
  0
LINE
  5
107
330
6FD
100
AcDbEntity
  8
GAIKEI
 62
     1
100
AcDbLine
 10
106.1484945782231
 20
200.4498169684705
 30
0.0
 11
106.038494578223
 21
200.4498169684705
 31
0.0
  0
LINE
  5
108
330
6FD
100
AcDbEntity
  8
GAIKEI
 62
     1
100
AcDbLine
 10
106.2534945782231
 20
200.6648169684706
 30
0.0
 11
106.2534945782231
 21
200.554816968471
 31
0.0
  0
LINE
  5
109
330
6FD
100
AcDbEntity
  8
GAIKEI
 62
     1
100
AcDbLine
 10
106.3984945782231
 20
200.4498169684705
 30
0.0
 11
106.288494578223
 21
200.4498169684705
 31
0.0
  0
LINE
  5
10A
330
6FD
100
AcDbEntity
  8
GAIKEI
 62
     1
100
AcDbLine
 10
106.3984945782231
 20
200.5198169684711
 30
0.0
 11
106.288494578223
 21
200.5198169684711
 31
0.0
  0
LINE
  5
10B
330
6FD
100
AcDbEntity
  8
GAIKEI
 62
     1
100
AcDbLine
 10
106.183494578223
 20
200.6648169684706
 30
0.0
 11
106.183494578223
 21
200.554816968471
 31
0.0
  0
LINE
  5
10C
330
6FD
100
AcDbEntity
  8
GAIKEI
 62
     1
100
AcDbLine
 10
106.2534945782231
 20
200.304816968471
 30
0.0
 11
106.183494578223
 21
200.304816968471
 31
0.0
  0
LINE
  5
10D
330
6FD
100
AcDbEntity
  8
GAIKEI
 62
     1
100
AcDbLine
 10
106.2534945782231
 20
200.6648169684706
 30
0.0
 11
106.183494578223
 21
200.6648169684706
 31
0.0
  0
LINE
  5
10E
330
6FD
100
AcDbEntity
  8
GAIKEI
 62
     1
100
AcDbLine
 10
106.3984945782231
 20
200.5198169684711
 30
0.0
 11
106.3984945782231
 21
200.4498169684705
 31
0.0
  0
LINE
  5
10F
330
6FD
100
AcDbEntity
  8
GAIKEI
 62
     1
100
AcDbLine
 10
106.038494578223
 20
200.5198169684711
 30
0.0
 11
106.038494578223
 21
200.4498169684705
 31
0.0
  0
LINE
  5
110
330
6FD
100
AcDbEntity
  8
GAIKEI
 62
     1
100
AcDbLine
 10
106.2534945782231
 20
200.4148169684706
 30
0.0
 11
106.2534945782231
 21
200.304816968471
 31
0.0
  0
LINE
  5
111
330
6FD
100
AcDbEntity
  8
GAIKEI
 62
     1
100
AcDbLine
 10
106.1484945782231
 20
200.5198169684711
 30
0.0
 11
106.038494578223
 21
200.5198169684711
 31
0.0
  0
LINE
  5
112
330
6FD
100
AcDbEntity
  8
GAIKEI
 62
     1
100
AcDbLine
 10
106.1484945782231
 20
200.5198169684711
 30
0.0
 11
106.038494578223
 21
200.5198169684711
 31
0.0
  0
LINE
  5
113
330
6FD
100
AcDbEntity
  8
GAIKEI
 62
     1
100
AcDbLine
 10
106.2534945782231
 20
200.4148169684706
 30
0.0
 11
106.2534945782231
 21
200.304816968471
 31
0.0
  0
LINE
  5
114
330
6FD
100
AcDbEntity
  8
GAIKEI
 62
     1
100
AcDbLine
 10
106.038494578223
 20
200.5198169684711
 30
0.0
 11
106.038494578223
 21
200.4498169684705
 31
0.0
  0
LINE
  5
115
330
6FD
100
AcDbEntity
  8
GAIKEI
 62
     1
100
AcDbLine
 10
106.3984945782231
 20
200.5198169684711
 30
0.0
 11
106.3984945782231
 21
200.4498169684705
 31
0.0
  0
LINE
  5
116
330
6FD
100
AcDbEntity
  8
GAIKEI
 62
     1
100
AcDbLine
 10
106.2534945782231
 20
200.6648169684706
 30
0.0
 11
106.183494578223
 21
200.6648169684706
 31
0.0
  0
LINE
  5
117
330
6FD
100
AcDbEntity
  8
GAIKEI
 62
     1
100
AcDbLine
 10
106.2534945782231
 20
200.304816968471
 30
0.0
 11
106.183494578223
 21
200.304816968471
 31
0.0
  0
LINE
  5
118
330
6FD
100
AcDbEntity
  8
GAIKEI
 62
     1
100
AcDbLine
 10
106.183494578223
 20
200.6648169684706
 30
0.0
 11
106.183494578223
 21
200.554816968471
 31
0.0
  0
LINE
  5
119
330
6FD
100
AcDbEntity
  8
GAIKEI
 62
     1
100
AcDbLine
 10
106.3984945782231
 20
200.5198169684711
 30
0.0
 11
106.288494578223
 21
200.5198169684711
 31
0.0
  0
LINE
  5
11A
330
6FD
100
AcDbEntity
  8
GAIKEI
 62
     1
100
AcDbLine
 10
106.3984945782231
 20
200.4498169684705
 30
0.0
 11
106.288494578223
 21
200.4498169684705
 31
0.0
  0
LINE
  5
11B
330
6FD
100
AcDbEntity
  8
GAIKEI
 62
     1
100
AcDbLine
 10
106.2534945782231
 20
200.6648169684706
 30
0.0
 11
106.2534945782231
 21
200.554816968471
 31
0.0
  0
LINE
  5
11C
330
6FD
100
AcDbEntity
  8
GAIKEI
 62
     1
100
AcDbLine
 10
106.1484945782231
 20
200.4498169684705
 30
0.0
 11
106.038494578223
 21
200.4498169684705
 31
0.0
  0
LINE
  5
11D
330
6FD
100
AcDbEntity
  8
GAIKEI
 62
     1
100
AcDbLine
 10
106.183494578223
 20
200.4148169684706
 30
0.0
 11
106.183494578223
 21
200.304816968471
 31
0.0
  0
LINE
  5
11E
330
6FD
100
AcDbEntity
  8
GAIKEI
100
AcDbLine
 10
108.7684942790158
 20
198.3348149195329
 30
0.0
 11
107.868494279016
 21
198.3348148583366
 31
0.0
  0
LINE
  5
11F
330
6FD
100
AcDbEntity
  8
GAIKEI
100
AcDbLine
 10
108.7684942790158
 20
198.3348149195329
 30
0.0
 11
107.868494279016
 21
198.3348148583366
 31
0.0
  0
LINE
  5
120
330
6FD
100
AcDbEntity
  8
GAIKEI
 62
     1
100
AcDbLine
 10
106.9113143727632
 20
200.4848157882636
 30
0.0
 11
110.2684945782228
 21
200.4848157882636
 31
0.0
  0
LINE
  5
121
330
6FD
100
AcDbEntity
  8
GAIKEI
 62
     1
100
AcDbLine
 10
110.2684945782228
 20
200.2848157882636
 30
0.0
 11
106.9113143727632
 21
200.2848157882636
 31
0.0
  0
LINE
  5
122
330
6FD
100
AcDbEntity
  8
GAIKEI
 62
     1
100
AcDbLine
 10
110.2684945782228
 20
200.2848157882636
 30
0.0
 11
106.9113143727632
 21
200.2848157882636
 31
0.0
  0
LINE
  5
123
330
6FD
100
AcDbEntity
  8
GAIKEI
 62
     1
100
AcDbLine
 10
106.9113143727632
 20
200.4848157882636
 30
0.0
 11
110.2684945782228
 21
200.4848157882636
 31
0.0
  0
LINE
  5
124
330
6FD
100
AcDbEntity
  8
GAIKEI
 62
     1
100
AcDbLine
 10
98.68849427833678
 20
202.5348157532947
 30
0.0
 11
98.68849427833678
 21
203.0348157532947
 31
0.0
  0
LINE
  5
125
330
6FD
100
AcDbEntity
  8
GAIKEI
 62
     1
100
AcDbLine
 10
98.96849457833672
 20
202.5348157532947
 30
0.0
 11
98.96849457833672
 21
203.0348157532947
 31
0.0
  0
LINE
  5
126
330
6FD
100
AcDbEntity
  8
GAIKEI
 62
     1
100
AcDbLine
 10
98.96849457833672
 20
202.5348157532947
 30
0.0
 11
98.96849457833672
 21
203.0348157532947
 31
0.0
  0
LINE
  5
127
330
6FD
100
AcDbEntity
  8
GAIKEI
 62
     1
100
AcDbLine
 10
98.68849427833678
 20
202.5348157532947
 30
0.0
 11
98.68849427833678
 21
203.0348157532947
 31
0.0
  0
LINE
  5
128
330
6FD
100
AcDbEntity
  8
GAIKEI
 62
     1
100
AcDbLine
 10
99.18849427833677
 20
202.5348157532947
 30
0.0
 11
99.18849427833677
 21
203.0348157532947
 31
0.0
  0
LINE
  5
129
330
6FD
100
AcDbEntity
  8
GAIKEI
 62
     1
100
AcDbLine
 10
99.68849427833678
 20
202.5348157532947
 30
0.0
 11
99.68849427833678
 21
203.0348157532947
 31
0.0
  0
LINE
  5
12A
330
6FD
100
AcDbEntity
  8
GAIKEI
 62
     1
100
AcDbLine
 10
100.1884942783368
 20
202.5348157532947
 30
0.0
 11
100.1884942783368
 21
203.0348157532947
 31
0.0
  0
LINE
  5
12B
330
6FD
100
AcDbEntity
  8
GAIKEI
 62
     1
100
AcDbLine
 10
99.46849457833671
 20
202.5348157532947
 30
0.0
 11
99.46849457833671
 21
203.0348157532947
 31
0.0
  0
LINE
  5
12C
330
6FD
100
AcDbEntity
  8
GAIKEI
 62
     1
100
AcDbLine
 10
99.96849457833672
 20
202.5348157532947
 30
0.0
 11
99.96849457833672
 21
203.0348157532947
 31
0.0
  0
LINE
  5
12D
330
6FD
100
AcDbEntity
  8
GAIKEI
 62
     1
100
AcDbLine
 10
100.4684945783367
 20
202.5348157532947
 30
0.0
 11
100.4684945783367
 21
203.0348157532947
 31
0.0
  0
LINE
  5
12E
330
6FD
100
AcDbEntity
  8
GAIKEI
 62
     1
100
AcDbLine
 10
100.4684945783367
 20
202.5348157532947
 30
0.0
 11
100.4684945783367
 21
203.0348157532947
 31
0.0
  0
LINE
  5
12F
330
6FD
100
AcDbEntity
  8
GAIKEI
 62
     1
100
AcDbLine
 10
99.96849457833672
 20
202.5348157532947
 30
0.0
 11
99.96849457833672
 21
203.0348157532947
 31
0.0
  0
LINE
  5
130
330
6FD
100
AcDbEntity
  8
GAIKEI
 62
     1
100
AcDbLine
 10
99.46849457833671
 20
202.5348157532947
 30
0.0
 11
99.46849457833671
 21
203.0348157532947
 31
0.0
  0
LINE
  5
131
330
6FD
100
AcDbEntity
  8
GAIKEI
 62
     1
100
AcDbLine
 10
100.1884942783368
 20
202.5348157532947
 30
0.0
 11
100.1884942783368
 21
203.0348157532947
 31
0.0
  0
LINE
  5
132
330
6FD
100
AcDbEntity
  8
GAIKEI
 62
     1
100
AcDbLine
 10
99.68849427833678
 20
202.5348157532947
 30
0.0
 11
99.68849427833678
 21
203.0348157532947
 31
0.0
  0
LINE
  5
133
330
6FD
100
AcDbEntity
  8
GAIKEI
 62
     1
100
AcDbLine
 10
99.18849427833677
 20
202.5348157532947
 30
0.0
 11
99.18849427833677
 21
203.0348157532947
 31
0.0
  0
LINE
  5
134
330
6FD
100
AcDbEntity
  8
GAIKEI
 62
     1
100
AcDbLine
 10
95.68849427833677
 20
202.5348157532947
 30
0.0
 11
95.68849427833677
 21
203.0348157532947
 31
0.0
  0
LINE
  5
135
330
6FD
100
AcDbEntity
  8
GAIKEI
 62
     1
100
AcDbLine
 10
95.46849457833671
 20
202.5348157532947
 30
0.0
 11
95.46849457833671
 21
203.0348157532947
 31
0.0
  0
LINE
  5
136
330
6FD
100
AcDbEntity
  8
GAIKEI
 62
     1
100
AcDbLine
 10
95.46849457833671
 20
202.5348157532947
 30
0.0
 11
95.46849457833671
 21
203.0348157532947
 31
0.0
  0
LINE
  5
137
330
6FD
100
AcDbEntity
  8
GAIKEI
 62
     1
100
AcDbLine
 10
95.68849427833677
 20
202.5348157532947
 30
0.0
 11
95.68849427833677
 21
203.0348157532947
 31
0.0
  0
LINE
  5
138
330
6FD
100
AcDbEntity
  8
GAIKEI
 62
     1
100
AcDbLine
 10
96.18849427833678
 20
202.5348157532947
 30
0.0
 11
96.18849427833678
 21
203.0348157532947
 31
0.0
  0
LINE
  5
139
330
6FD
100
AcDbEntity
  8
GAIKEI
 62
     1
100
AcDbLine
 10
96.68849427833677
 20
202.5348157532947
 30
0.0
 11
96.68849427833677
 21
203.0348157532947
 31
0.0
  0
LINE
  5
13A
330
6FD
100
AcDbEntity
  8
GAIKEI
 62
     1
100
AcDbLine
 10
97.18849427833678
 20
202.5348157532947
 30
0.0
 11
97.18849427833678
 21
203.0348157532947
 31
0.0
  0
LINE
  5
13B
330
6FD
100
AcDbEntity
  8
GAIKEI
 62
     1
100
AcDbLine
 10
95.96849457833672
 20
202.5348157532947
 30
0.0
 11
95.96849457833672
 21
203.0348157532947
 31
0.0
  0
LINE
  5
13C
330
6FD
100
AcDbEntity
  8
GAIKEI
 62
     1
100
AcDbLine
 10
96.46849457833672
 20
202.5348157532947
 30
0.0
 11
96.46849457833672
 21
203.0348157532947
 31
0.0
  0
LINE
  5
13D
330
6FD
100
AcDbEntity
  8
GAIKEI
 62
     1
100
AcDbLine
 10
96.96849457833671
 20
202.5348157532947
 30
0.0
 11
96.96849457833671
 21
203.0348157532947
 31
0.0
  0
LINE
  5
13E
330
6FD
100
AcDbEntity
  8
GAIKEI
 62
     1
100
AcDbLine
 10
96.96849457833671
 20
202.5348157532947
 30
0.0
 11
96.96849457833671
 21
203.0348157532947
 31
0.0
  0
LINE
  5
13F
330
6FD
100
AcDbEntity
  8
GAIKEI
 62
     1
100
AcDbLine
 10
96.46849457833672
 20
202.5348157532947
 30
0.0
 11
96.46849457833672
 21
203.0348157532947
 31
0.0
  0
LINE
  5
140
330
6FD
100
AcDbEntity
  8
GAIKEI
 62
     1
100
AcDbLine
 10
95.96849457833672
 20
202.5348157532947
 30
0.0
 11
95.96849457833672
 21
203.0348157532947
 31
0.0
  0
LINE
  5
141
330
6FD
100
AcDbEntity
  8
GAIKEI
 62
     1
100
AcDbLine
 10
97.18849427833678
 20
202.5348157532947
 30
0.0
 11
97.18849427833678
 21
203.0348157532947
 31
0.0
  0
LINE
  5
142
330
6FD
100
AcDbEntity
  8
GAIKEI
 62
     1
100
AcDbLine
 10
96.68849427833677
 20
202.5348157532947
 30
0.0
 11
96.68849427833677
 21
203.0348157532947
 31
0.0
  0
LINE
  5
143
330
6FD
100
AcDbEntity
  8
GAIKEI
 62
     1
100
AcDbLine
 10
96.18849427833678
 20
202.5348157532947
 30
0.0
 11
96.18849427833678
 21
203.0348157532947
 31
0.0
  0
LINE
  5
144
330
6FD
100
AcDbEntity
  8
GAIKEI
 62
     1
100
AcDbLine
 10
97.68849427833679
 20
202.5348157532947
 30
0.0
 11
97.68849427833679
 21
203.0348157532947
 31
0.0
  0
LINE
  5
145
330
6FD
100
AcDbEntity
  8
GAIKEI
 62
     1
100
AcDbLine
 10
98.18849427833677
 20
202.5348157532947
 30
0.0
 11
98.18849427833677
 21
203.0348157532947
 31
0.0
  0
LINE
  5
146
330
6FD
100
AcDbEntity
  8
GAIKEI
 62
     1
100
AcDbLine
 10
97.46849457833672
 20
202.5348157532947
 30
0.0
 11
97.46849457833672
 21
203.0348157532947
 31
0.0
  0
LINE
  5
147
330
6FD
100
AcDbEntity
  8
GAIKEI
 62
     1
100
AcDbLine
 10
97.96849457833673
 20
202.5348157532947
 30
0.0
 11
97.96849457833673
 21
203.0348157532947
 31
0.0
  0
LINE
  5
148
330
6FD
100
AcDbEntity
  8
GAIKEI
 62
     1
100
AcDbLine
 10
98.46849457833672
 20
202.5348157532947
 30
0.0
 11
98.46849457833672
 21
203.0348157532947
 31
0.0
  0
LINE
  5
149
330
6FD
100
AcDbEntity
  8
GAIKEI
 62
     1
100
AcDbLine
 10
98.46849457833672
 20
202.5348157532947
 30
0.0
 11
98.46849457833672
 21
203.0348157532947
 31
0.0
  0
LINE
  5
14A
330
6FD
100
AcDbEntity
  8
GAIKEI
 62
     1
100
AcDbLine
 10
97.96849457833673
 20
202.5348157532947
 30
0.0
 11
97.96849457833673
 21
203.0348157532947
 31
0.0
  0
LINE
  5
14B
330
6FD
100
AcDbEntity
  8
GAIKEI
 62
     1
100
AcDbLine
 10
97.46849457833672
 20
202.5348157532947
 30
0.0
 11
97.46849457833672
 21
203.0348157532947
 31
0.0
  0
LINE
  5
14C
330
6FD
100
AcDbEntity
  8
GAIKEI
 62
     1
100
AcDbLine
 10
98.18849427833677
 20
202.5348157532947
 30
0.0
 11
98.18849427833677
 21
203.0348157532947
 31
0.0
  0
LINE
  5
14D
330
6FD
100
AcDbEntity
  8
GAIKEI
 62
     1
100
AcDbLine
 10
97.68849427833679
 20
202.5348157532947
 30
0.0
 11
97.68849427833679
 21
203.0348157532947
 31
0.0
  0
LINE
  5
14E
330
6FD
100
AcDbEntity
  8
GAIKEI
 62
     1
100
AcDbLine
 10
98.68849427833678
 20
201.0348157532947
 30
0.0
 11
98.46849457833672
 21
201.0348157532947
 31
0.0
  0
LINE
  5
14F
330
6FD
100
AcDbEntity
  8
GAIKEI
 62
     1
100
AcDbLine
 10
98.68849427833678
 20
201.0348157532947
 30
0.0
 11
98.46849457833672
 21
201.0348157532947
 31
0.0
  0
LINE
  5
150
330
6FD
100
AcDbEntity
  8
GAIKEI
 62
     1
100
AcDbLine
 10
98.68849427833678
 20
202.5348157532947
 30
0.0
 11
98.46849457833672
 21
202.5348157532947
 31
0.0
  0
LINE
  5
151
330
6FD
100
AcDbEntity
  8
GAIKEI
 62
     1
100
AcDbLine
 10
98.68849427833678
 20
201.7848157532947
 30
0.0
 11
98.46849457833672
 21
201.7848157532947
 31
0.0
  0
LINE
  5
152
330
6FD
100
AcDbEntity
  8
GAIKEI
 62
     1
100
AcDbLine
 10
98.68849427833678
 20
202.2848157532947
 30
0.0
 11
98.46849457833672
 21
202.2848157532947
 31
0.0
  0
LINE
  5
153
330
6FD
100
AcDbEntity
  8
GAIKEI
 62
     1
100
AcDbLine
 10
98.68849427833678
 20
201.5348157532947
 30
0.0
 11
98.46849457833672
 21
201.5348157532947
 31
0.0
  0
LINE
  5
154
330
6FD
100
AcDbEntity
  8
GAIKEI
 62
     1
100
AcDbLine
 10
98.68849427833678
 20
201.5348157532947
 30
0.0
 11
98.46849457833672
 21
201.5348157532947
 31
0.0
  0
LINE
  5
155
330
6FD
100
AcDbEntity
  8
GAIKEI
 62
     1
100
AcDbLine
 10
98.68849427833678
 20
202.2848157532947
 30
0.0
 11
98.46849457833672
 21
202.2848157532947
 31
0.0
  0
LINE
  5
156
330
6FD
100
AcDbEntity
  8
GAIKEI
 62
     1
100
AcDbLine
 10
98.68849427833678
 20
201.7848157532947
 30
0.0
 11
98.46849457833672
 21
201.7848157532947
 31
0.0
  0
LINE
  5
157
330
6FD
100
AcDbEntity
  8
GAIKEI
 62
     1
100
AcDbLine
 10
98.68849427833678
 20
202.5348157532947
 30
0.0
 11
98.46849457833672
 21
202.5348157532947
 31
0.0
  0
ARC
  5
158
330
6FD
100
AcDbEntity
  8
GAIKEI
 62
     1
100
AcDbCircle
 10
93.16849457833678
 20
200.1848157882637
 30
0.0
 40
0.3
100
AcDbArc
 50
180.0
 51
270.0
  0
ARC
  5
159
330
6FD
100
AcDbEntity
  8
GAIKEI
 62
     1
100
AcDbCircle
 10
93.16849457833678
 20
200.1848157882637
 30
0.0
 40
0.3
100
AcDbArc
 50
90.0
 51
180.0
  0
ARC
  5
15A
330
6FD
100
AcDbEntity
  8
GAIKEI
 62
     1
100
AcDbCircle
 10
93.16849457833678
 20
200.1848157882637
 30
0.0
 40
0.1
100
AcDbArc
 50
180.0
 51
270.0
  0
ARC
  5
15B
330
6FD
100
AcDbEntity
  8
GAIKEI
 62
     1
100
AcDbCircle
 10
93.16849457833678
 20
200.1848157882637
 30
0.0
 40
0.1
100
AcDbArc
 50
90.0
 51
180.0
  0
ARC
  5
15C
330
6FD
100
AcDbEntity
  8
GAIKEI
 62
     1
100
AcDbCircle
 10
93.16849457833678
 20
200.1848157882637
 30
0.0
 40
0.1
100
AcDbArc
 50
90.0
 51
180.0
  0
ARC
  5
15D
330
6FD
100
AcDbEntity
  8
GAIKEI
 62
     1
100
AcDbCircle
 10
93.16849457833678
 20
200.1848157882637
 30
0.0
 40
0.1
100
AcDbArc
 50
180.0
 51
270.0
  0
ARC
  5
15E
330
6FD
100
AcDbEntity
  8
GAIKEI
 62
     1
100
AcDbCircle
 10
93.16849457833678
 20
200.1848157882637
 30
0.0
 40
0.3
100
AcDbArc
 50
90.0
 51
180.0
  0
ARC
  5
15F
330
6FD
100
AcDbEntity
  8
GAIKEI
 62
     1
100
AcDbCircle
 10
93.16849457833678
 20
200.1848157882637
 30
0.0
 40
0.3
100
AcDbArc
 50
180.0
 51
270.0
  0
LINE
  5
160
330
6FD
100
AcDbEntity
  8
GAIKEI
 62
     1
100
AcDbLine
 10
95.68849427833677
 20
201.0348157532947
 30
0.0
 11
95.68849427833677
 21
201.5348157532947
 31
0.0
  0
LINE
  5
161
330
6FD
100
AcDbEntity
  8
GAIKEI
 62
     1
100
AcDbLine
 10
96.18849427833678
 20
201.0348157532947
 30
0.0
 11
96.18849427833678
 21
201.5348157532947
 31
0.0
  0
LINE
  5
162
330
6FD
100
AcDbEntity
  8
GAIKEI
 62
     1
100
AcDbLine
 10
96.68849427833677
 20
201.0348157532947
 30
0.0
 11
96.68849427833677
 21
201.5348157532947
 31
0.0
  0
LINE
  5
163
330
6FD
100
AcDbEntity
  8
GAIKEI
 62
     1
100
AcDbLine
 10
97.18849427833678
 20
201.0348157532947
 30
0.0
 11
97.18849427833678
 21
201.5348157532947
 31
0.0
  0
LINE
  5
164
330
6FD
100
AcDbEntity
  8
GAIKEI
 62
     1
100
AcDbLine
 10
95.46849457833671
 20
201.0348157532947
 30
0.0
 11
95.46849457833671
 21
201.5348157532947
 31
0.0
  0
LINE
  5
165
330
6FD
100
AcDbEntity
  8
GAIKEI
 62
     1
100
AcDbLine
 10
95.96849457833672
 20
201.0348157532947
 30
0.0
 11
95.96849457833672
 21
201.5348157532947
 31
0.0
  0
LINE
  5
166
330
6FD
100
AcDbEntity
  8
GAIKEI
 62
     1
100
AcDbLine
 10
96.46849457833672
 20
201.0348157532947
 30
0.0
 11
96.46849457833672
 21
201.5348157532947
 31
0.0
  0
LINE
  5
167
330
6FD
100
AcDbEntity
  8
GAIKEI
 62
     1
100
AcDbLine
 10
96.96849457833671
 20
201.0348157532947
 30
0.0
 11
96.96849457833671
 21
201.5348157532947
 31
0.0
  0
LINE
  5
168
330
6FD
100
AcDbEntity
  8
GAIKEI
 62
     1
100
AcDbLine
 10
96.96849457833671
 20
201.0348157532947
 30
0.0
 11
96.96849457833671
 21
201.5348157532947
 31
0.0
  0
LINE
  5
169
330
6FD
100
AcDbEntity
  8
GAIKEI
 62
     1
100
AcDbLine
 10
96.46849457833672
 20
201.0348157532947
 30
0.0
 11
96.46849457833672
 21
201.5348157532947
 31
0.0
  0
LINE
  5
16A
330
6FD
100
AcDbEntity
  8
GAIKEI
 62
     1
100
AcDbLine
 10
95.96849457833672
 20
201.0348157532947
 30
0.0
 11
95.96849457833672
 21
201.5348157532947
 31
0.0
  0
LINE
  5
16B
330
6FD
100
AcDbEntity
  8
GAIKEI
 62
     1
100
AcDbLine
 10
95.46849457833671
 20
201.0348157532947
 30
0.0
 11
95.46849457833671
 21
201.5348157532947
 31
0.0
  0
LINE
  5
16C
330
6FD
100
AcDbEntity
  8
GAIKEI
 62
     1
100
AcDbLine
 10
97.18849427833678
 20
201.0348157532947
 30
0.0
 11
97.18849427833678
 21
201.5348157532947
 31
0.0
  0
LINE
  5
16D
330
6FD
100
AcDbEntity
  8
GAIKEI
 62
     1
100
AcDbLine
 10
96.68849427833677
 20
201.0348157532947
 30
0.0
 11
96.68849427833677
 21
201.5348157532947
 31
0.0
  0
LINE
  5
16E
330
6FD
100
AcDbEntity
  8
GAIKEI
 62
     1
100
AcDbLine
 10
96.18849427833678
 20
201.0348157532947
 30
0.0
 11
96.18849427833678
 21
201.5348157532947
 31
0.0
  0
LINE
  5
16F
330
6FD
100
AcDbEntity
  8
GAIKEI
 62
     1
100
AcDbLine
 10
95.68849427833677
 20
201.0348157532947
 30
0.0
 11
95.68849427833677
 21
201.5348157532947
 31
0.0
  0
LINE
  5
170
330
6FD
100
AcDbEntity
  8
GAIKEI
 62
     1
100
AcDbLine
 10
95.68849427833677
 20
201.0348157532947
 30
0.0
 11
95.46849457833671
 21
201.0348157532947
 31
0.0
  0
LINE
  5
171
330
6FD
100
AcDbEntity
  8
GAIKEI
 62
     1
100
AcDbLine
 10
95.68849427833677
 20
201.0348157532947
 30
0.0
 11
95.46849457833671
 21
201.0348157532947
 31
0.0
  0
LINE
  5
172
330
6FD
100
AcDbEntity
  8
GAIKEI
 62
     1
100
AcDbLine
 10
96.18849427833678
 20
201.0348157532947
 30
0.0
 11
95.96849457833672
 21
201.0348157532947
 31
0.0
  0
LINE
  5
173
330
6FD
100
AcDbEntity
  8
GAIKEI
 62
     1
100
AcDbLine
 10
96.68849427833677
 20
201.0348157532947
 30
0.0
 11
96.46849457833672
 21
201.0348157532947
 31
0.0
  0
LINE
  5
174
330
6FD
100
AcDbEntity
  8
GAIKEI
 62
     1
100
AcDbLine
 10
97.18849427833678
 20
201.0348157532947
 30
0.0
 11
96.96849457833671
 21
201.0348157532947
 31
0.0
  0
LINE
  5
175
330
6FD
100
AcDbEntity
  8
GAIKEI
 62
     1
100
AcDbLine
 10
97.18849427833678
 20
201.0348157532947
 30
0.0
 11
96.96849457833671
 21
201.0348157532947
 31
0.0
  0
LINE
  5
176
330
6FD
100
AcDbEntity
  8
GAIKEI
 62
     1
100
AcDbLine
 10
96.68849427833677
 20
201.0348157532947
 30
0.0
 11
96.46849457833672
 21
201.0348157532947
 31
0.0
  0
LINE
  5
177
330
6FD
100
AcDbEntity
  8
GAIKEI
 62
     1
100
AcDbLine
 10
96.18849427833678
 20
201.0348157532947
 30
0.0
 11
95.96849457833672
 21
201.0348157532947
 31
0.0
  0
LINE
  5
178
330
6FD
100
AcDbEntity
  8
GAIKEI
 62
     1
100
AcDbLine
 10
95.68849427833677
 20
202.5348157532947
 30
0.0
 11
95.46849457833671
 21
202.5348157532947
 31
0.0
  0
LINE
  5
179
330
6FD
100
AcDbEntity
  8
GAIKEI
 62
     1
100
AcDbLine
 10
95.68849427833677
 20
201.7848157532947
 30
0.0
 11
95.68849427833677
 21
202.2848157532947
 31
0.0
  0
LINE
  5
17A
330
6FD
100
AcDbEntity
  8
GAIKEI
 62
     1
100
AcDbLine
 10
95.68849427833677
 20
201.7848157532947
 30
0.0
 11
95.46849457833671
 21
201.7848157532947
 31
0.0
  0
LINE
  5
17B
330
6FD
100
AcDbEntity
  8
GAIKEI
 62
     1
100
AcDbLine
 10
95.68849427833677
 20
202.2848157532947
 30
0.0
 11
95.46849457833671
 21
202.2848157532947
 31
0.0
  0
LINE
  5
17C
330
6FD
100
AcDbEntity
  8
GAIKEI
 62
     1
100
AcDbLine
 10
95.68849427833677
 20
201.5348157532947
 30
0.0
 11
95.46849457833671
 21
201.5348157532947
 31
0.0
  0
LINE
  5
17D
330
6FD
100
AcDbEntity
  8
GAIKEI
 62
     1
100
AcDbLine
 10
95.46849457833671
 20
201.7848157532947
 30
0.0
 11
95.46849457833671
 21
202.2848157532947
 31
0.0
  0
LINE
  5
17E
330
6FD
100
AcDbEntity
  8
GAIKEI
 62
     1
100
AcDbLine
 10
95.46849457833671
 20
201.7848157532947
 30
0.0
 11
95.46849457833671
 21
202.2848157532947
 31
0.0
  0
LINE
  5
17F
330
6FD
100
AcDbEntity
  8
GAIKEI
 62
     1
100
AcDbLine
 10
95.68849427833677
 20
201.5348157532947
 30
0.0
 11
95.46849457833671
 21
201.5348157532947
 31
0.0
  0
LINE
  5
180
330
6FD
100
AcDbEntity
  8
GAIKEI
 62
     1
100
AcDbLine
 10
95.68849427833677
 20
202.2848157532947
 30
0.0
 11
95.46849457833671
 21
202.2848157532947
 31
0.0
  0
LINE
  5
181
330
6FD
100
AcDbEntity
  8
GAIKEI
 62
     1
100
AcDbLine
 10
95.68849427833677
 20
201.7848157532947
 30
0.0
 11
95.46849457833671
 21
201.7848157532947
 31
0.0
  0
LINE
  5
182
330
6FD
100
AcDbEntity
  8
GAIKEI
 62
     1
100
AcDbLine
 10
95.68849427833677
 20
201.7848157532947
 30
0.0
 11
95.68849427833677
 21
202.2848157532947
 31
0.0
  0
LINE
  5
183
330
6FD
100
AcDbEntity
  8
GAIKEI
 62
     1
100
AcDbLine
 10
95.68849427833677
 20
202.5348157532947
 30
0.0
 11
95.46849457833671
 21
202.5348157532947
 31
0.0
  0
LINE
  5
184
330
6FD
100
AcDbEntity
  8
GAIKEI
 62
     1
100
AcDbLine
 10
96.18849427833678
 20
201.7848157532947
 30
0.0
 11
96.18849427833678
 21
202.2848157532947
 31
0.0
  0
LINE
  5
185
330
6FD
100
AcDbEntity
  8
GAIKEI
 62
     1
100
AcDbLine
 10
96.68849427833677
 20
201.7848157532947
 30
0.0
 11
96.68849427833677
 21
202.2848157532947
 31
0.0
  0
LINE
  5
186
330
6FD
100
AcDbEntity
  8
GAIKEI
 62
     1
100
AcDbLine
 10
97.18849427833678
 20
201.7848157532947
 30
0.0
 11
97.18849427833678
 21
202.2848157532947
 31
0.0
  0
LINE
  5
187
330
6FD
100
AcDbEntity
  8
GAIKEI
 62
     1
100
AcDbLine
 10
96.18849427833678
 20
202.5348157532947
 30
0.0
 11
95.96849457833672
 21
202.5348157532947
 31
0.0
  0
LINE
  5
188
330
6FD
100
AcDbEntity
  8
GAIKEI
 62
     1
100
AcDbLine
 10
96.18849427833678
 20
201.7848157532947
 30
0.0
 11
95.96849457833672
 21
201.7848157532947
 31
0.0
  0
LINE
  5
189
330
6FD
100
AcDbEntity
  8
GAIKEI
 62
     1
100
AcDbLine
 10
96.68849427833677
 20
202.5348157532947
 30
0.0
 11
96.46849457833672
 21
202.5348157532947
 31
0.0
  0
LINE
  5
18A
330
6FD
100
AcDbEntity
  8
GAIKEI
 62
     1
100
AcDbLine
 10
96.68849427833677
 20
201.7848157532947
 30
0.0
 11
96.46849457833672
 21
201.7848157532947
 31
0.0
  0
LINE
  5
18B
330
6FD
100
AcDbEntity
  8
GAIKEI
 62
     1
100
AcDbLine
 10
97.18849427833678
 20
202.5348157532947
 30
0.0
 11
96.96849457833671
 21
202.5348157532947
 31
0.0
  0
LINE
  5
18C
330
6FD
100
AcDbEntity
  8
GAIKEI
 62
     1
100
AcDbLine
 10
97.18849427833678
 20
201.7848157532947
 30
0.0
 11
96.96849457833671
 21
201.7848157532947
 31
0.0
  0
LINE
  5
18D
330
6FD
100
AcDbEntity
  8
GAIKEI
 62
     1
100
AcDbLine
 10
96.18849427833678
 20
202.2848157532947
 30
0.0
 11
95.96849457833672
 21
202.2848157532947
 31
0.0
  0
LINE
  5
18E
330
6FD
100
AcDbEntity
  8
GAIKEI
 62
     1
100
AcDbLine
 10
96.18849427833678
 20
201.5348157532947
 30
0.0
 11
95.96849457833672
 21
201.5348157532947
 31
0.0
  0
LINE
  5
18F
330
6FD
100
AcDbEntity
  8
GAIKEI
 62
     1
100
AcDbLine
 10
96.68849427833677
 20
202.2848157532947
 30
0.0
 11
96.46849457833672
 21
202.2848157532947
 31
0.0
  0
LINE
  5
190
330
6FD
100
AcDbEntity
  8
GAIKEI
 62
     1
100
AcDbLine
 10
96.68849427833677
 20
201.5348157532947
 30
0.0
 11
96.46849457833672
 21
201.5348157532947
 31
0.0
  0
LINE
  5
191
330
6FD
100
AcDbEntity
  8
GAIKEI
 62
     1
100
AcDbLine
 10
97.18849427833678
 20
202.2848157532947
 30
0.0
 11
96.96849457833671
 21
202.2848157532947
 31
0.0
  0
LINE
  5
192
330
6FD
100
AcDbEntity
  8
GAIKEI
 62
     1
100
AcDbLine
 10
97.18849427833678
 20
201.5348157532947
 30
0.0
 11
96.96849457833671
 21
201.5348157532947
 31
0.0
  0
LINE
  5
193
330
6FD
100
AcDbEntity
  8
GAIKEI
 62
     1
100
AcDbLine
 10
95.96849457833672
 20
201.7848157532947
 30
0.0
 11
95.96849457833672
 21
202.2848157532947
 31
0.0
  0
LINE
  5
194
330
6FD
100
AcDbEntity
  8
GAIKEI
 62
     1
100
AcDbLine
 10
96.46849457833672
 20
201.7848157532947
 30
0.0
 11
96.46849457833672
 21
202.2848157532947
 31
0.0
  0
LINE
  5
195
330
6FD
100
AcDbEntity
  8
GAIKEI
 62
     1
100
AcDbLine
 10
96.96849457833671
 20
201.7848157532947
 30
0.0
 11
96.96849457833671
 21
202.2848157532947
 31
0.0
  0
LINE
  5
196
330
6FD
100
AcDbEntity
  8
GAIKEI
 62
     1
100
AcDbLine
 10
96.96849457833671
 20
201.7848157532947
 30
0.0
 11
96.96849457833671
 21
202.2848157532947
 31
0.0
  0
LINE
  5
197
330
6FD
100
AcDbEntity
  8
GAIKEI
 62
     1
100
AcDbLine
 10
96.46849457833672
 20
201.7848157532947
 30
0.0
 11
96.46849457833672
 21
202.2848157532947
 31
0.0
  0
LINE
  5
198
330
6FD
100
AcDbEntity
  8
GAIKEI
 62
     1
100
AcDbLine
 10
95.96849457833672
 20
201.7848157532947
 30
0.0
 11
95.96849457833672
 21
202.2848157532947
 31
0.0
  0
LINE
  5
199
330
6FD
100
AcDbEntity
  8
GAIKEI
 62
     1
100
AcDbLine
 10
97.18849427833678
 20
201.5348157532947
 30
0.0
 11
96.96849457833671
 21
201.5348157532947
 31
0.0
  0
LINE
  5
19A
330
6FD
100
AcDbEntity
  8
GAIKEI
 62
     1
100
AcDbLine
 10
97.18849427833678
 20
202.2848157532947
 30
0.0
 11
96.96849457833671
 21
202.2848157532947
 31
0.0
  0
LINE
  5
19B
330
6FD
100
AcDbEntity
  8
GAIKEI
 62
     1
100
AcDbLine
 10
96.68849427833677
 20
201.5348157532947
 30
0.0
 11
96.46849457833672
 21
201.5348157532947
 31
0.0
  0
LINE
  5
19C
330
6FD
100
AcDbEntity
  8
GAIKEI
 62
     1
100
AcDbLine
 10
96.68849427833677
 20
202.2848157532947
 30
0.0
 11
96.46849457833672
 21
202.2848157532947
 31
0.0
  0
LINE
  5
19D
330
6FD
100
AcDbEntity
  8
GAIKEI
 62
     1
100
AcDbLine
 10
96.18849427833678
 20
201.5348157532947
 30
0.0
 11
95.96849457833672
 21
201.5348157532947
 31
0.0
  0
LINE
  5
19E
330
6FD
100
AcDbEntity
  8
GAIKEI
 62
     1
100
AcDbLine
 10
96.18849427833678
 20
202.2848157532947
 30
0.0
 11
95.96849457833672
 21
202.2848157532947
 31
0.0
  0
LINE
  5
19F
330
6FD
100
AcDbEntity
  8
GAIKEI
 62
     1
100
AcDbLine
 10
97.18849427833678
 20
201.7848157532947
 30
0.0
 11
96.96849457833671
 21
201.7848157532947
 31
0.0
  0
LINE
  5
1A0
330
6FD
100
AcDbEntity
  8
GAIKEI
 62
     1
100
AcDbLine
 10
97.18849427833678
 20
202.5348157532947
 30
0.0
 11
96.96849457833671
 21
202.5348157532947
 31
0.0
  0
LINE
  5
1A1
330
6FD
100
AcDbEntity
  8
GAIKEI
 62
     1
100
AcDbLine
 10
96.68849427833677
 20
201.7848157532947
 30
0.0
 11
96.46849457833672
 21
201.7848157532947
 31
0.0
  0
LINE
  5
1A2
330
6FD
100
AcDbEntity
  8
GAIKEI
 62
     1
100
AcDbLine
 10
96.68849427833677
 20
202.5348157532947
 30
0.0
 11
96.46849457833672
 21
202.5348157532947
 31
0.0
  0
LINE
  5
1A3
330
6FD
100
AcDbEntity
  8
GAIKEI
 62
     1
100
AcDbLine
 10
96.18849427833678
 20
201.7848157532947
 30
0.0
 11
95.96849457833672
 21
201.7848157532947
 31
0.0
  0
LINE
  5
1A4
330
6FD
100
AcDbEntity
  8
GAIKEI
 62
     1
100
AcDbLine
 10
96.18849427833678
 20
202.5348157532947
 30
0.0
 11
95.96849457833672
 21
202.5348157532947
 31
0.0
  0
LINE
  5
1A5
330
6FD
100
AcDbEntity
  8
GAIKEI
 62
     1
100
AcDbLine
 10
97.18849427833678
 20
201.7848157532947
 30
0.0
 11
97.18849427833678
 21
202.2848157532947
 31
0.0
  0
LINE
  5
1A6
330
6FD
100
AcDbEntity
  8
GAIKEI
 62
     1
100
AcDbLine
 10
96.68849427833677
 20
201.7848157532947
 30
0.0
 11
96.68849427833677
 21
202.2848157532947
 31
0.0
  0
LINE
  5
1A7
330
6FD
100
AcDbEntity
  8
GAIKEI
 62
     1
100
AcDbLine
 10
96.18849427833678
 20
201.7848157532947
 30
0.0
 11
96.18849427833678
 21
202.2848157532947
 31
0.0
  0
LINE
  5
1A8
330
6FD
100
AcDbEntity
  8
GAIKEI
 62
     1
100
AcDbLine
 10
97.68849427833679
 20
201.0348157532947
 30
0.0
 11
97.68849427833679
 21
201.5348157532947
 31
0.0
  0
LINE
  5
1A9
330
6FD
100
AcDbEntity
  8
GAIKEI
 62
     1
100
AcDbLine
 10
98.18849427833677
 20
201.0348157532947
 30
0.0
 11
98.18849427833677
 21
201.5348157532947
 31
0.0
  0
LINE
  5
1AA
330
6FD
100
AcDbEntity
  8
GAIKEI
 62
     1
100
AcDbLine
 10
97.46849457833672
 20
201.0348157532947
 30
0.0
 11
97.46849457833672
 21
201.5348157532947
 31
0.0
  0
LINE
  5
1AB
330
6FD
100
AcDbEntity
  8
GAIKEI
 62
     1
100
AcDbLine
 10
97.96849457833673
 20
201.0348157532947
 30
0.0
 11
97.96849457833673
 21
201.5348157532947
 31
0.0
  0
LINE
  5
1AC
330
6FD
100
AcDbEntity
  8
GAIKEI
 62
     1
100
AcDbLine
 10
98.46849457833672
 20
201.0348157532947
 30
0.0
 11
98.46849457833672
 21
201.5348157532947
 31
0.0
  0
LINE
  5
1AD
330
6FD
100
AcDbEntity
  8
GAIKEI
 62
     1
100
AcDbLine
 10
98.46849457833672
 20
201.0348157532947
 30
0.0
 11
98.46849457833672
 21
201.5348157532947
 31
0.0
  0
LINE
  5
1AE
330
6FD
100
AcDbEntity
  8
GAIKEI
 62
     1
100
AcDbLine
 10
97.96849457833673
 20
201.0348157532947
 30
0.0
 11
97.96849457833673
 21
201.5348157532947
 31
0.0
  0
LINE
  5
1AF
330
6FD
100
AcDbEntity
  8
GAIKEI
 62
     1
100
AcDbLine
 10
97.46849457833672
 20
201.0348157532947
 30
0.0
 11
97.46849457833672
 21
201.5348157532947
 31
0.0
  0
LINE
  5
1B0
330
6FD
100
AcDbEntity
  8
GAIKEI
 62
     1
100
AcDbLine
 10
98.18849427833677
 20
201.0348157532947
 30
0.0
 11
98.18849427833677
 21
201.5348157532947
 31
0.0
  0
LINE
  5
1B1
330
6FD
100
AcDbEntity
  8
GAIKEI
 62
     1
100
AcDbLine
 10
97.68849427833679
 20
201.0348157532947
 30
0.0
 11
97.68849427833679
 21
201.5348157532947
 31
0.0
  0
LINE
  5
1B2
330
6FD
100
AcDbEntity
  8
GAIKEI
 62
     1
100
AcDbLine
 10
97.68849427833679
 20
201.0348157532947
 30
0.0
 11
97.46849457833672
 21
201.0348157532947
 31
0.0
  0
LINE
  5
1B3
330
6FD
100
AcDbEntity
  8
GAIKEI
 62
     1
100
AcDbLine
 10
98.18849427833677
 20
201.0348157532947
 30
0.0
 11
97.96849457833673
 21
201.0348157532947
 31
0.0
  0
LINE
  5
1B4
330
6FD
100
AcDbEntity
  8
GAIKEI
 62
     1
100
AcDbLine
 10
98.18849427833677
 20
201.0348157532947
 30
0.0
 11
97.96849457833673
 21
201.0348157532947
 31
0.0
  0
LINE
  5
1B5
330
6FD
100
AcDbEntity
  8
GAIKEI
 62
     1
100
AcDbLine
 10
97.68849427833679
 20
201.0348157532947
 30
0.0
 11
97.46849457833672
 21
201.0348157532947
 31
0.0
  0
LINE
  5
1B6
330
6FD
100
AcDbEntity
  8
GAIKEI
 62
     1
100
AcDbLine
 10
97.68849427833679
 20
201.7848157532947
 30
0.0
 11
97.68849427833679
 21
202.2848157532947
 31
0.0
  0
LINE
  5
1B7
330
6FD
100
AcDbEntity
  8
GAIKEI
 62
     1
100
AcDbLine
 10
98.18849427833677
 20
201.7848157532947
 30
0.0
 11
98.18849427833677
 21
202.2848157532947
 31
0.0
  0
LINE
  5
1B8
330
6FD
100
AcDbEntity
  8
GAIKEI
 62
     1
100
AcDbLine
 10
97.68849427833679
 20
202.5348157532947
 30
0.0
 11
97.46849457833672
 21
202.5348157532947
 31
0.0
  0
LINE
  5
1B9
330
6FD
100
AcDbEntity
  8
GAIKEI
 62
     1
100
AcDbLine
 10
97.68849427833679
 20
201.7848157532947
 30
0.0
 11
97.46849457833672
 21
201.7848157532947
 31
0.0
  0
LINE
  5
1BA
330
6FD
100
AcDbEntity
  8
GAIKEI
 62
     1
100
AcDbLine
 10
98.18849427833677
 20
202.5348157532947
 30
0.0
 11
97.96849457833673
 21
202.5348157532947
 31
0.0
  0
LINE
  5
1BB
330
6FD
100
AcDbEntity
  8
GAIKEI
 62
     1
100
AcDbLine
 10
98.18849427833677
 20
201.7848157532947
 30
0.0
 11
97.96849457833673
 21
201.7848157532947
 31
0.0
  0
LINE
  5
1BC
330
6FD
100
AcDbEntity
  8
GAIKEI
 62
     1
100
AcDbLine
 10
97.68849427833679
 20
202.2848157532947
 30
0.0
 11
97.46849457833672
 21
202.2848157532947
 31
0.0
  0
LINE
  5
1BD
330
6FD
100
AcDbEntity
  8
GAIKEI
 62
     1
100
AcDbLine
 10
97.68849427833679
 20
201.5348157532947
 30
0.0
 11
97.46849457833672
 21
201.5348157532947
 31
0.0
  0
LINE
  5
1BE
330
6FD
100
AcDbEntity
  8
GAIKEI
 62
     1
100
AcDbLine
 10
98.18849427833677
 20
202.2848157532947
 30
0.0
 11
97.96849457833673
 21
202.2848157532947
 31
0.0
  0
LINE
  5
1BF
330
6FD
100
AcDbEntity
  8
GAIKEI
 62
     1
100
AcDbLine
 10
98.18849427833677
 20
201.5348157532947
 30
0.0
 11
97.96849457833673
 21
201.5348157532947
 31
0.0
  0
LINE
  5
1C0
330
6FD
100
AcDbEntity
  8
GAIKEI
 62
     1
100
AcDbLine
 10
97.46849457833672
 20
201.7848157532947
 30
0.0
 11
97.46849457833672
 21
202.2848157532947
 31
0.0
  0
LINE
  5
1C1
330
6FD
100
AcDbEntity
  8
GAIKEI
 62
     1
100
AcDbLine
 10
97.96849457833673
 20
201.7848157532947
 30
0.0
 11
97.96849457833673
 21
202.2848157532947
 31
0.0
  0
LINE
  5
1C2
330
6FD
100
AcDbEntity
  8
GAIKEI
 62
     1
100
AcDbLine
 10
98.46849457833672
 20
201.7848157532947
 30
0.0
 11
98.46849457833672
 21
202.2848157532947
 31
0.0
  0
LINE
  5
1C3
330
6FD
100
AcDbEntity
  8
GAIKEI
 62
     1
100
AcDbLine
 10
98.46849457833672
 20
201.7848157532947
 30
0.0
 11
98.46849457833672
 21
202.2848157532947
 31
0.0
  0
LINE
  5
1C4
330
6FD
100
AcDbEntity
  8
GAIKEI
 62
     1
100
AcDbLine
 10
97.96849457833673
 20
201.7848157532947
 30
0.0
 11
97.96849457833673
 21
202.2848157532947
 31
0.0
  0
LINE
  5
1C5
330
6FD
100
AcDbEntity
  8
GAIKEI
 62
     1
100
AcDbLine
 10
97.46849457833672
 20
201.7848157532947
 30
0.0
 11
97.46849457833672
 21
202.2848157532947
 31
0.0
  0
LINE
  5
1C6
330
6FD
100
AcDbEntity
  8
GAIKEI
 62
     1
100
AcDbLine
 10
98.18849427833677
 20
201.5348157532947
 30
0.0
 11
97.96849457833673
 21
201.5348157532947
 31
0.0
  0
LINE
  5
1C7
330
6FD
100
AcDbEntity
  8
GAIKEI
 62
     1
100
AcDbLine
 10
98.18849427833677
 20
202.2848157532947
 30
0.0
 11
97.96849457833673
 21
202.2848157532947
 31
0.0
  0
LINE
  5
1C8
330
6FD
100
AcDbEntity
  8
GAIKEI
 62
     1
100
AcDbLine
 10
97.68849427833679
 20
201.5348157532947
 30
0.0
 11
97.46849457833672
 21
201.5348157532947
 31
0.0
  0
LINE
  5
1C9
330
6FD
100
AcDbEntity
  8
GAIKEI
 62
     1
100
AcDbLine
 10
97.68849427833679
 20
202.2848157532947
 30
0.0
 11
97.46849457833672
 21
202.2848157532947
 31
0.0
  0
LINE
  5
1CA
330
6FD
100
AcDbEntity
  8
GAIKEI
 62
     1
100
AcDbLine
 10
98.18849427833677
 20
201.7848157532947
 30
0.0
 11
97.96849457833673
 21
201.7848157532947
 31
0.0
  0
LINE
  5
1CB
330
6FD
100
AcDbEntity
  8
GAIKEI
 62
     1
100
AcDbLine
 10
98.18849427833677
 20
202.5348157532947
 30
0.0
 11
97.96849457833673
 21
202.5348157532947
 31
0.0
  0
LINE
  5
1CC
330
6FD
100
AcDbEntity
  8
GAIKEI
 62
     1
100
AcDbLine
 10
97.68849427833679
 20
201.7848157532947
 30
0.0
 11
97.46849457833672
 21
201.7848157532947
 31
0.0
  0
LINE
  5
1CD
330
6FD
100
AcDbEntity
  8
GAIKEI
 62
     1
100
AcDbLine
 10
97.68849427833679
 20
202.5348157532947
 30
0.0
 11
97.46849457833672
 21
202.5348157532947
 31
0.0
  0
LINE
  5
1CE
330
6FD
100
AcDbEntity
  8
GAIKEI
 62
     1
100
AcDbLine
 10
98.18849427833677
 20
201.7848157532947
 30
0.0
 11
98.18849427833677
 21
202.2848157532947
 31
0.0
  0
LINE
  5
1CF
330
6FD
100
AcDbEntity
  8
GAIKEI
 62
     1
100
AcDbLine
 10
97.68849427833679
 20
201.7848157532947
 30
0.0
 11
97.68849427833679
 21
202.2848157532947
 31
0.0
  0
LINE
  5
1D0
330
6FD
100
AcDbEntity
  8
GAIKEI
 62
     1
100
AcDbLine
 10
98.68849427833678
 20
201.0348157532947
 30
0.0
 11
98.68849427833678
 21
201.5348157532947
 31
0.0
  0
LINE
  5
1D1
330
6FD
100
AcDbEntity
  8
GAIKEI
 62
     1
100
AcDbLine
 10
99.18849427833677
 20
201.0348157532947
 30
0.0
 11
99.18849427833677
 21
201.5348157532947
 31
0.0
  0
LINE
  5
1D2
330
6FD
100
AcDbEntity
  8
GAIKEI
 62
     1
100
AcDbLine
 10
99.68849427833678
 20
201.0348157532947
 30
0.0
 11
99.68849427833678
 21
201.5348157532947
 31
0.0
  0
LINE
  5
1D3
330
6FD
100
AcDbEntity
  8
GAIKEI
 62
     1
100
AcDbLine
 10
100.1884942783368
 20
201.0348157532947
 30
0.0
 11
100.1884942783368
 21
201.5348157532947
 31
0.0
  0
LINE
  5
1D4
330
6FD
100
AcDbEntity
  8
GAIKEI
 62
     1
100
AcDbLine
 10
98.96849457833672
 20
201.0348157532947
 30
0.0
 11
98.96849457833672
 21
201.5348157532947
 31
0.0
  0
LINE
  5
1D5
330
6FD
100
AcDbEntity
  8
GAIKEI
 62
     1
100
AcDbLine
 10
99.46849457833671
 20
201.0348157532947
 30
0.0
 11
99.46849457833671
 21
201.5348157532947
 31
0.0
  0
LINE
  5
1D6
330
6FD
100
AcDbEntity
  8
GAIKEI
 62
     1
100
AcDbLine
 10
99.96849457833672
 20
201.0348157532947
 30
0.0
 11
99.96849457833672
 21
201.5348157532947
 31
0.0
  0
LINE
  5
1D7
330
6FD
100
AcDbEntity
  8
GAIKEI
 62
     1
100
AcDbLine
 10
100.4684945783367
 20
201.0348157532947
 30
0.0
 11
100.4684945783367
 21
201.5348157532947
 31
0.0
  0
LINE
  5
1D8
330
6FD
100
AcDbEntity
  8
GAIKEI
 62
     1
100
AcDbLine
 10
100.4684945783367
 20
201.0348157532947
 30
0.0
 11
100.4684945783367
 21
201.5348157532947
 31
0.0
  0
LINE
  5
1D9
330
6FD
100
AcDbEntity
  8
GAIKEI
 62
     1
100
AcDbLine
 10
99.96849457833672
 20
201.0348157532947
 30
0.0
 11
99.96849457833672
 21
201.5348157532947
 31
0.0
  0
LINE
  5
1DA
330
6FD
100
AcDbEntity
  8
GAIKEI
 62
     1
100
AcDbLine
 10
99.46849457833671
 20
201.0348157532947
 30
0.0
 11
99.46849457833671
 21
201.5348157532947
 31
0.0
  0
LINE
  5
1DB
330
6FD
100
AcDbEntity
  8
GAIKEI
 62
     1
100
AcDbLine
 10
98.96849457833672
 20
201.0348157532947
 30
0.0
 11
98.96849457833672
 21
201.5348157532947
 31
0.0
  0
LINE
  5
1DC
330
6FD
100
AcDbEntity
  8
GAIKEI
 62
     1
100
AcDbLine
 10
100.1884942783368
 20
201.0348157532947
 30
0.0
 11
100.1884942783368
 21
201.5348157532947
 31
0.0
  0
LINE
  5
1DD
330
6FD
100
AcDbEntity
  8
GAIKEI
 62
     1
100
AcDbLine
 10
99.68849427833678
 20
201.0348157532947
 30
0.0
 11
99.68849427833678
 21
201.5348157532947
 31
0.0
  0
LINE
  5
1DE
330
6FD
100
AcDbEntity
  8
GAIKEI
 62
     1
100
AcDbLine
 10
99.18849427833677
 20
201.0348157532947
 30
0.0
 11
99.18849427833677
 21
201.5348157532947
 31
0.0
  0
LINE
  5
1DF
330
6FD
100
AcDbEntity
  8
GAIKEI
 62
     1
100
AcDbLine
 10
98.68849427833678
 20
201.0348157532947
 30
0.0
 11
98.68849427833678
 21
201.5348157532947
 31
0.0
  0
LINE
  5
1E0
330
6FD
100
AcDbEntity
  8
GAIKEI
 62
     1
100
AcDbLine
 10
99.18849427833677
 20
201.0348157532947
 30
0.0
 11
98.96849457833672
 21
201.0348157532947
 31
0.0
  0
LINE
  5
1E1
330
6FD
100
AcDbEntity
  8
GAIKEI
 62
     1
100
AcDbLine
 10
99.18849427833677
 20
201.0348157532947
 30
0.0
 11
98.96849457833672
 21
201.0348157532947
 31
0.0
  0
LINE
  5
1E2
330
6FD
100
AcDbEntity
  8
GAIKEI
 62
     1
100
AcDbLine
 10
99.68849427833678
 20
201.0348157532947
 30
0.0
 11
99.46849457833671
 21
201.0348157532947
 31
0.0
  0
LINE
  5
1E3
330
6FD
100
AcDbEntity
  8
GAIKEI
 62
     1
100
AcDbLine
 10
100.1884942783368
 20
201.0348157532947
 30
0.0
 11
99.96849457833672
 21
201.0348157532947
 31
0.0
  0
LINE
  5
1E4
330
6FD
100
AcDbEntity
  8
GAIKEI
 62
     1
100
AcDbLine
 10
100.1884942783368
 20
201.0348157532947
 30
0.0
 11
99.96849457833672
 21
201.0348157532947
 31
0.0
  0
LINE
  5
1E5
330
6FD
100
AcDbEntity
  8
GAIKEI
 62
     1
100
AcDbLine
 10
99.68849427833678
 20
201.0348157532947
 30
0.0
 11
99.46849457833671
 21
201.0348157532947
 31
0.0
  0
LINE
  5
1E6
330
6FD
100
AcDbEntity
  8
GAIKEI
 62
     1
100
AcDbLine
 10
99.18849427833677
 20
202.5348157532947
 30
0.0
 11
98.96849457833672
 21
202.5348157532947
 31
0.0
  0
LINE
  5
1E7
330
6FD
100
AcDbEntity
  8
GAIKEI
 62
     1
100
AcDbLine
 10
99.18849427833677
 20
201.7848157532947
 30
0.0
 11
98.96849457833672
 21
201.7848157532947
 31
0.0
  0
LINE
  5
1E8
330
6FD
100
AcDbEntity
  8
GAIKEI
 62
     1
100
AcDbLine
 10
99.18849427833677
 20
202.2848157532947
 30
0.0
 11
98.96849457833672
 21
202.2848157532947
 31
0.0
  0
LINE
  5
1E9
330
6FD
100
AcDbEntity
  8
GAIKEI
 62
     1
100
AcDbLine
 10
99.18849427833677
 20
201.5348157532947
 30
0.0
 11
98.96849457833672
 21
201.5348157532947
 31
0.0
  0
LINE
  5
1EA
330
6FD
100
AcDbEntity
  8
GAIKEI
 62
     1
100
AcDbLine
 10
99.18849427833677
 20
201.5348157532947
 30
0.0
 11
98.96849457833672
 21
201.5348157532947
 31
0.0
  0
LINE
  5
1EB
330
6FD
100
AcDbEntity
  8
GAIKEI
 62
     1
100
AcDbLine
 10
99.18849427833677
 20
202.2848157532947
 30
0.0
 11
98.96849457833672
 21
202.2848157532947
 31
0.0
  0
LINE
  5
1EC
330
6FD
100
AcDbEntity
  8
GAIKEI
 62
     1
100
AcDbLine
 10
99.18849427833677
 20
201.7848157532947
 30
0.0
 11
98.96849457833672
 21
201.7848157532947
 31
0.0
  0
LINE
  5
1ED
330
6FD
100
AcDbEntity
  8
GAIKEI
 62
     1
100
AcDbLine
 10
99.18849427833677
 20
202.5348157532947
 30
0.0
 11
98.96849457833672
 21
202.5348157532947
 31
0.0
  0
LINE
  5
1EE
330
6FD
100
AcDbEntity
  8
GAIKEI
 62
     1
100
AcDbLine
 10
98.68849427833678
 20
201.7848157532947
 30
0.0
 11
98.68849427833678
 21
202.2848157532947
 31
0.0
  0
LINE
  5
1EF
330
6FD
100
AcDbEntity
  8
GAIKEI
 62
     1
100
AcDbLine
 10
98.96849457833672
 20
201.7848157532947
 30
0.0
 11
98.96849457833672
 21
202.2848157532947
 31
0.0
  0
LINE
  5
1F0
330
6FD
100
AcDbEntity
  8
GAIKEI
 62
     1
100
AcDbLine
 10
98.96849457833672
 20
201.7848157532947
 30
0.0
 11
98.96849457833672
 21
202.2848157532947
 31
0.0
  0
LINE
  5
1F1
330
6FD
100
AcDbEntity
  8
GAIKEI
 62
     1
100
AcDbLine
 10
98.68849427833678
 20
201.7848157532947
 30
0.0
 11
98.68849427833678
 21
202.2848157532947
 31
0.0
  0
LINE
  5
1F2
330
6FD
100
AcDbEntity
  8
GAIKEI
 62
     1
100
AcDbLine
 10
99.18849427833677
 20
201.7848157532947
 30
0.0
 11
99.18849427833677
 21
202.2848157532947
 31
0.0
  0
LINE
  5
1F3
330
6FD
100
AcDbEntity
  8
GAIKEI
 62
     1
100
AcDbLine
 10
99.68849427833678
 20
201.7848157532947
 30
0.0
 11
99.68849427833678
 21
202.2848157532947
 31
0.0
  0
LINE
  5
1F4
330
6FD
100
AcDbEntity
  8
GAIKEI
 62
     1
100
AcDbLine
 10
100.1884942783368
 20
201.7848157532947
 30
0.0
 11
100.1884942783368
 21
202.2848157532947
 31
0.0
  0
LINE
  5
1F5
330
6FD
100
AcDbEntity
  8
GAIKEI
 62
     1
100
AcDbLine
 10
99.68849427833678
 20
202.5348157532947
 30
0.0
 11
99.46849457833671
 21
202.5348157532947
 31
0.0
  0
LINE
  5
1F6
330
6FD
100
AcDbEntity
  8
GAIKEI
 62
     1
100
AcDbLine
 10
99.68849427833678
 20
201.7848157532947
 30
0.0
 11
99.46849457833671
 21
201.7848157532947
 31
0.0
  0
LINE
  5
1F7
330
6FD
100
AcDbEntity
  8
GAIKEI
 62
     1
100
AcDbLine
 10
100.1884942783368
 20
202.5348157532947
 30
0.0
 11
99.96849457833672
 21
202.5348157532947
 31
0.0
  0
LINE
  5
1F8
330
6FD
100
AcDbEntity
  8
GAIKEI
 62
     1
100
AcDbLine
 10
100.1884942783368
 20
201.7848157532947
 30
0.0
 11
99.96849457833672
 21
201.7848157532947
 31
0.0
  0
LINE
  5
1F9
330
6FD
100
AcDbEntity
  8
GAIKEI
 62
     1
100
AcDbLine
 10
99.68849427833678
 20
202.2848157532947
 30
0.0
 11
99.46849457833671
 21
202.2848157532947
 31
0.0
  0
LINE
  5
1FA
330
6FD
100
AcDbEntity
  8
GAIKEI
 62
     1
100
AcDbLine
 10
99.68849427833678
 20
201.5348157532947
 30
0.0
 11
99.46849457833671
 21
201.5348157532947
 31
0.0
  0
LINE
  5
1FB
330
6FD
100
AcDbEntity
  8
GAIKEI
 62
     1
100
AcDbLine
 10
100.1884942783368
 20
202.2848157532947
 30
0.0
 11
99.96849457833672
 21
202.2848157532947
 31
0.0
  0
LINE
  5
1FC
330
6FD
100
AcDbEntity
  8
GAIKEI
 62
     1
100
AcDbLine
 10
100.1884942783368
 20
201.5348157532947
 30
0.0
 11
99.96849457833672
 21
201.5348157532947
 31
0.0
  0
LINE
  5
1FD
330
6FD
100
AcDbEntity
  8
GAIKEI
 62
     1
100
AcDbLine
 10
99.46849457833671
 20
201.7848157532947
 30
0.0
 11
99.46849457833671
 21
202.2848157532947
 31
0.0
  0
LINE
  5
1FE
330
6FD
100
AcDbEntity
  8
GAIKEI
 62
     1
100
AcDbLine
 10
99.96849457833672
 20
201.7848157532947
 30
0.0
 11
99.96849457833672
 21
202.2848157532947
 31
0.0
  0
LINE
  5
1FF
330
6FD
100
AcDbEntity
  8
GAIKEI
 62
     1
100
AcDbLine
 10
100.4684945783367
 20
201.7848157532947
 30
0.0
 11
100.4684945783367
 21
202.2848157532947
 31
0.0
  0
LINE
  5
200
330
6FD
100
AcDbEntity
  8
GAIKEI
 62
     1
100
AcDbLine
 10
100.4684945783367
 20
201.7848157532947
 30
0.0
 11
100.4684945783367
 21
202.2848157532947
 31
0.0
  0
LINE
  5
201
330
6FD
100
AcDbEntity
  8
GAIKEI
 62
     1
100
AcDbLine
 10
99.96849457833672
 20
201.7848157532947
 30
0.0
 11
99.96849457833672
 21
202.2848157532947
 31
0.0
  0
LINE
  5
202
330
6FD
100
AcDbEntity
  8
GAIKEI
 62
     1
100
AcDbLine
 10
99.46849457833671
 20
201.7848157532947
 30
0.0
 11
99.46849457833671
 21
202.2848157532947
 31
0.0
  0
LINE
  5
203
330
6FD
100
AcDbEntity
  8
GAIKEI
 62
     1
100
AcDbLine
 10
100.1884942783368
 20
201.5348157532947
 30
0.0
 11
99.96849457833672
 21
201.5348157532947
 31
0.0
  0
LINE
  5
204
330
6FD
100
AcDbEntity
  8
GAIKEI
 62
     1
100
AcDbLine
 10
100.1884942783368
 20
202.2848157532947
 30
0.0
 11
99.96849457833672
 21
202.2848157532947
 31
0.0
  0
LINE
  5
205
330
6FD
100
AcDbEntity
  8
GAIKEI
 62
     1
100
AcDbLine
 10
99.68849427833678
 20
201.5348157532947
 30
0.0
 11
99.46849457833671
 21
201.5348157532947
 31
0.0
  0
LINE
  5
206
330
6FD
100
AcDbEntity
  8
GAIKEI
 62
     1
100
AcDbLine
 10
99.68849427833678
 20
202.2848157532947
 30
0.0
 11
99.46849457833671
 21
202.2848157532947
 31
0.0
  0
LINE
  5
207
330
6FD
100
AcDbEntity
  8
GAIKEI
 62
     1
100
AcDbLine
 10
100.1884942783368
 20
201.7848157532947
 30
0.0
 11
99.96849457833672
 21
201.7848157532947
 31
0.0
  0
LINE
  5
208
330
6FD
100
AcDbEntity
  8
GAIKEI
 62
     1
100
AcDbLine
 10
100.1884942783368
 20
202.5348157532947
 30
0.0
 11
99.96849457833672
 21
202.5348157532947
 31
0.0
  0
LINE
  5
209
330
6FD
100
AcDbEntity
  8
GAIKEI
 62
     1
100
AcDbLine
 10
99.68849427833678
 20
201.7848157532947
 30
0.0
 11
99.46849457833671
 21
201.7848157532947
 31
0.0
  0
LINE
  5
20A
330
6FD
100
AcDbEntity
  8
GAIKEI
 62
     1
100
AcDbLine
 10
99.68849427833678
 20
202.5348157532947
 30
0.0
 11
99.46849457833671
 21
202.5348157532947
 31
0.0
  0
LINE
  5
20B
330
6FD
100
AcDbEntity
  8
GAIKEI
 62
     1
100
AcDbLine
 10
100.1884942783368
 20
201.7848157532947
 30
0.0
 11
100.1884942783368
 21
202.2848157532947
 31
0.0
  0
LINE
  5
20C
330
6FD
100
AcDbEntity
  8
GAIKEI
 62
     1
100
AcDbLine
 10
99.68849427833678
 20
201.7848157532947
 30
0.0
 11
99.68849427833678
 21
202.2848157532947
 31
0.0
  0
LINE
  5
20D
330
6FD
100
AcDbEntity
  8
GAIKEI
 62
     1
100
AcDbLine
 10
99.18849427833677
 20
201.7848157532947
 30
0.0
 11
99.18849427833677
 21
202.2848157532947
 31
0.0
  0
LINE
  5
20E
330
6FD
100
AcDbEntity
  8
GAIKEI
 62
     1
100
AcDbLine
 10
98.68849427833678
 20
203.0348157532947
 30
0.0
 11
98.46849457833672
 21
203.0348157532947
 31
0.0
  0
LINE
  5
20F
330
6FD
100
AcDbEntity
  8
GAIKEI
 62
     1
100
AcDbLine
 10
98.68849427833678
 20
203.0348157532947
 30
0.0
 11
98.46849457833672
 21
203.0348157532947
 31
0.0
  0
LINE
  5
210
330
6FD
100
AcDbEntity
  8
GAIKEI
 62
     1
100
AcDbLine
 10
95.68849427833677
 20
203.0348157532947
 30
0.0
 11
95.46849457833671
 21
203.0348157532947
 31
0.0
  0
LINE
  5
211
330
6FD
100
AcDbEntity
  8
GAIKEI
 62
     1
100
AcDbLine
 10
95.68849427833677
 20
203.0348157532947
 30
0.0
 11
95.46849457833671
 21
203.0348157532947
 31
0.0
  0
LINE
  5
212
330
6FD
100
AcDbEntity
  8
GAIKEI
 62
     1
100
AcDbLine
 10
96.18849427833678
 20
203.0348157532947
 30
0.0
 11
95.96849457833672
 21
203.0348157532947
 31
0.0
  0
LINE
  5
213
330
6FD
100
AcDbEntity
  8
GAIKEI
 62
     1
100
AcDbLine
 10
96.68849427833677
 20
203.0348157532947
 30
0.0
 11
96.46849457833672
 21
203.0348157532947
 31
0.0
  0
LINE
  5
214
330
6FD
100
AcDbEntity
  8
GAIKEI
 62
     1
100
AcDbLine
 10
97.18849427833678
 20
203.0348157532947
 30
0.0
 11
96.96849457833671
 21
203.0348157532947
 31
0.0
  0
LINE
  5
215
330
6FD
100
AcDbEntity
  8
GAIKEI
 62
     1
100
AcDbLine
 10
97.18849427833678
 20
203.0348157532947
 30
0.0
 11
96.96849457833671
 21
203.0348157532947
 31
0.0
  0
LINE
  5
216
330
6FD
100
AcDbEntity
  8
GAIKEI
 62
     1
100
AcDbLine
 10
96.68849427833677
 20
203.0348157532947
 30
0.0
 11
96.46849457833672
 21
203.0348157532947
 31
0.0
  0
LINE
  5
217
330
6FD
100
AcDbEntity
  8
GAIKEI
 62
     1
100
AcDbLine
 10
96.18849427833678
 20
203.0348157532947
 30
0.0
 11
95.96849457833672
 21
203.0348157532947
 31
0.0
  0
LINE
  5
218
330
6FD
100
AcDbEntity
  8
GAIKEI
 62
     1
100
AcDbLine
 10
97.68849427833679
 20
203.0348157532947
 30
0.0
 11
97.46849457833672
 21
203.0348157532947
 31
0.0
  0
LINE
  5
219
330
6FD
100
AcDbEntity
  8
GAIKEI
 62
     1
100
AcDbLine
 10
98.18849427833677
 20
203.0348157532947
 30
0.0
 11
97.96849457833673
 21
203.0348157532947
 31
0.0
  0
LINE
  5
21A
330
6FD
100
AcDbEntity
  8
GAIKEI
 62
     1
100
AcDbLine
 10
98.18849427833677
 20
203.0348157532947
 30
0.0
 11
97.96849457833673
 21
203.0348157532947
 31
0.0
  0
LINE
  5
21B
330
6FD
100
AcDbEntity
  8
GAIKEI
 62
     1
100
AcDbLine
 10
97.68849427833679
 20
203.0348157532947
 30
0.0
 11
97.46849457833672
 21
203.0348157532947
 31
0.0
  0
LINE
  5
21C
330
6FD
100
AcDbEntity
  8
GAIKEI
 62
     1
100
AcDbLine
 10
99.18849427833677
 20
203.0348157532947
 30
0.0
 11
98.96849457833672
 21
203.0348157532947
 31
0.0
  0
LINE
  5
21D
330
6FD
100
AcDbEntity
  8
GAIKEI
 62
     1
100
AcDbLine
 10
99.18849427833677
 20
203.0348157532947
 30
0.0
 11
98.96849457833672
 21
203.0348157532947
 31
0.0
  0
LINE
  5
21E
330
6FD
100
AcDbEntity
  8
GAIKEI
 62
     1
100
AcDbLine
 10
99.68849427833678
 20
203.0348157532947
 30
0.0
 11
99.46849457833671
 21
203.0348157532947
 31
0.0
  0
LINE
  5
21F
330
6FD
100
AcDbEntity
  8
GAIKEI
 62
     1
100
AcDbLine
 10
100.1884942783368
 20
203.0348157532947
 30
0.0
 11
99.96849457833672
 21
203.0348157532947
 31
0.0
  0
LINE
  5
220
330
6FD
100
AcDbEntity
  8
GAIKEI
 62
     1
100
AcDbLine
 10
100.1884942783368
 20
203.0348157532947
 30
0.0
 11
99.96849457833672
 21
203.0348157532947
 31
0.0
  0
LINE
  5
221
330
6FD
100
AcDbEntity
  8
GAIKEI
 62
     1
100
AcDbLine
 10
99.68849427833678
 20
203.0348157532947
 30
0.0
 11
99.46849457833671
 21
203.0348157532947
 31
0.0
  0
ARC
  5
222
330
6FD
100
AcDbEntity
  8
GAIKEI
 62
     1
100
AcDbCircle
 10
89.76849457833671
 20
200.1848157882637
 30
0.0
 40
0.3
100
AcDbArc
 50
270.0
 51
0.0
  0
ARC
  5
223
330
6FD
100
AcDbEntity
  8
GAIKEI
 62
     1
100
AcDbCircle
 10
89.76849457833671
 20
200.1848157882637
 30
0.0
 40
0.3
100
AcDbArc
 50
0.0
 51
90.0
  0
ARC
  5
224
330
6FD
100
AcDbEntity
  8
GAIKEI
 62
     1
100
AcDbCircle
 10
89.76849457833671
 20
200.1848157882637
 30
0.0
 40
0.1
100
AcDbArc
 50
270.0
 51
0.0
  0
ARC
  5
225
330
6FD
100
AcDbEntity
  8
GAIKEI
 62
     1
100
AcDbCircle
 10
89.76849457833671
 20
200.1848157882637
 30
0.0
 40
0.1
100
AcDbArc
 50
0.0
 51
90.0
  0
ARC
  5
226
330
6FD
100
AcDbEntity
  8
GAIKEI
 62
     1
100
AcDbCircle
 10
89.76849457833671
 20
200.1848157882637
 30
0.0
 40
0.1
100
AcDbArc
 50
0.0
 51
90.0
  0
ARC
  5
227
330
6FD
100
AcDbEntity
  8
GAIKEI
 62
     1
100
AcDbCircle
 10
89.76849457833671
 20
200.1848157882637
 30
0.0
 40
0.1
100
AcDbArc
 50
270.0
 51
0.0
  0
ARC
  5
228
330
6FD
100
AcDbEntity
  8
GAIKEI
 62
     1
100
AcDbCircle
 10
89.76849457833671
 20
200.1848157882637
 30
0.0
 40
0.3
100
AcDbArc
 50
0.0
 51
90.0
  0
ARC
  5
229
330
6FD
100
AcDbEntity
  8
GAIKEI
 62
     1
100
AcDbCircle
 10
89.76849457833671
 20
200.1848157882637
 30
0.0
 40
0.3
100
AcDbArc
 50
270.0
 51
0.0
  0
LINE
  5
22A
330
6FD
100
AcDbEntity
  8
GAIKEI
 62
     1
100
AcDbLine
 10
105.5256740421694
 20
200.2848157882636
 30
0.0
 11
93.16849457833678
 21
200.2848157882636
 31
0.0
  0
LINE
  5
22B
330
6FD
100
AcDbEntity
  8
GAIKEI
 62
     1
100
AcDbLine
 10
110.2684945782228
 20
199.8848157882637
 30
0.0
 11
93.16849457833678
 21
199.8848157882637
 31
0.0
  0
LINE
  5
22C
330
6FD
100
AcDbEntity
  8
GAIKEI
 62
     1
100
AcDbLine
 10
93.16849457833678
 20
200.4848157882636
 30
0.0
 11
105.5256740421694
 21
200.4848157882636
 31
0.0
  0
LINE
  5
22D
330
6FD
100
AcDbEntity
  8
GAIKEI
 62
     1
100
AcDbLine
 10
93.16849457833678
 20
200.0848157882635
 30
0.0
 11
110.2684945782228
 21
200.0848157882635
 31
0.0
  0
LINE
  5
22E
330
6FD
100
AcDbEntity
  8
GAIKEI
 62
     1
100
AcDbLine
 10
93.16849457833678
 20
200.0848157882635
 30
0.0
 11
110.2684945782228
 21
200.0848157882635
 31
0.0
  0
LINE
  5
22F
330
6FD
100
AcDbEntity
  8
GAIKEI
 62
     1
100
AcDbLine
 10
93.16849457833678
 20
200.4848157882636
 30
0.0
 11
105.5256740421694
 21
200.4848157882636
 31
0.0
  0
LINE
  5
230
330
6FD
100
AcDbEntity
  8
GAIKEI
 62
     1
100
AcDbLine
 10
110.2684945782228
 20
199.8848157882637
 30
0.0
 11
93.16849457833678
 21
199.8848157882637
 31
0.0
  0
LINE
  5
231
330
6FD
100
AcDbEntity
  8
GAIKEI
 62
     1
100
AcDbLine
 10
105.5256740421694
 20
200.2848157882636
 30
0.0
 11
93.16849457833678
 21
200.2848157882636
 31
0.0
  0
LINE
  5
232
330
6FD
100
AcDbEntity
  8
GAIKEI
 62
     1
100
AcDbLine
 10
100.6884896783367
 20
202.5348157532947
 30
0.0
 11
100.4684945783367
 21
202.5348157532947
 31
0.0
  0
LINE
  5
233
330
6FD
100
AcDbEntity
  8
GAIKEI
 62
     1
100
AcDbLine
 10
100.6884896783367
 20
201.7848157532947
 30
0.0
 11
100.4684945783367
 21
201.7848157532947
 31
0.0
  0
LINE
  5
234
330
6FD
100
AcDbEntity
  8
GAIKEI
 62
     1
100
AcDbLine
 10
100.6884896783367
 20
201.0348157532947
 30
0.0
 11
100.4684945783367
 21
201.0348157532947
 31
0.0
  0
LINE
  5
235
330
6FD
100
AcDbEntity
  8
GAIKEI
 62
     1
100
AcDbLine
 10
100.6884896783367
 20
202.2848157532947
 30
0.0
 11
100.4684945783367
 21
202.2848157532947
 31
0.0
  0
LINE
  5
236
330
6FD
100
AcDbEntity
  8
GAIKEI
 62
     1
100
AcDbLine
 10
100.6884896783367
 20
201.5348157532947
 30
0.0
 11
100.4684945783367
 21
201.5348157532947
 31
0.0
  0
LINE
  5
237
330
6FD
100
AcDbEntity
  8
GAIKEI
 62
     1
100
AcDbLine
 10
100.6884896783367
 20
201.5348157532947
 30
0.0
 11
100.4684945783367
 21
201.5348157532947
 31
0.0
  0
LINE
  5
238
330
6FD
100
AcDbEntity
  8
GAIKEI
 62
     1
100
AcDbLine
 10
100.6884896783367
 20
202.2848157532947
 30
0.0
 11
100.4684945783367
 21
202.2848157532947
 31
0.0
  0
LINE
  5
239
330
6FD
100
AcDbEntity
  8
GAIKEI
 62
     1
100
AcDbLine
 10
100.6884896783367
 20
201.0348157532947
 30
0.0
 11
100.4684945783367
 21
201.0348157532947
 31
0.0
  0
LINE
  5
23A
330
6FD
100
AcDbEntity
  8
GAIKEI
 62
     1
100
AcDbLine
 10
100.6884896783367
 20
201.7848157532947
 30
0.0
 11
100.4684945783367
 21
201.7848157532947
 31
0.0
  0
LINE
  5
23B
330
6FD
100
AcDbEntity
  8
GAIKEI
 62
     1
100
AcDbLine
 10
100.6884896783367
 20
202.5348157532947
 30
0.0
 11
100.4684945783367
 21
202.5348157532947
 31
0.0
  0
LINE
  5
23C
330
6FD
100
AcDbEntity
  8
GAIKEI
 62
     1
100
AcDbLine
 10
100.6884896783367
 20
203.0348157532947
 30
0.0
 11
100.4684945783367
 21
203.0348157532947
 31
0.0
  0
LINE
  5
23D
330
6FD
100
AcDbEntity
  8
GAIKEI
 62
     1
100
AcDbLine
 10
100.6884896783367
 20
203.0348157532947
 30
0.0
 11
100.4684945783367
 21
203.0348157532947
 31
0.0
  0
LINE
  5
23E
330
6FD
100
AcDbEntity
  8
GAIKEI
100
AcDbLine
 10
80.86849427901597
 20
198.3348148583366
 30
0.0
 11
79.9684942790159
 21
198.3348147971408
 31
0.0
  0
LINE
  5
23F
330
6FD
100
AcDbEntity
  8
GAIKEI
100
AcDbLine
 10
80.86849427901597
 20
198.3348148583366
 30
0.0
 11
79.9684942790159
 21
198.3348147971408
 31
0.0
  0
LINE
  5
240
330
6FD
100
AcDbEntity
  8
GAIKEI
 62
     1
100
AcDbLine
 10
81.67567441303981
 20
200.2848157882636
 30
0.0
 11
79.9694706023838
 21
200.2848157882636
 31
0.0
  0
LINE
  5
241
330
6FD
100
AcDbEntity
  8
GAIKEI
 62
     1
100
AcDbLine
 10
79.9694706023838
 20
200.4848157882636
 30
0.0
 11
81.67567441304004
 21
200.4848157882636
 31
0.0
  0
LINE
  5
242
330
6FD
100
AcDbEntity
  8
GAIKEI
 62
     1
100
AcDbLine
 10
79.9694706023838
 20
200.4848157882636
 30
0.0
 11
81.67567441304004
 21
200.4848157882636
 31
0.0
  0
LINE
  5
243
330
6FD
100
AcDbEntity
  8
GAIKEI
 62
     1
100
AcDbLine
 10
81.67567441303981
 20
200.2848157882636
 30
0.0
 11
79.9694706023838
 21
200.2848157882636
 31
0.0
  0
LINE
  5
244
330
6FD
100
AcDbEntity
  8
GAIKEI
100
AcDbLine
 10
77.11849422901605
 20
203.3848320518246
 30
0.0
 11
77.11849422901605
 21
199.4848320518247
 31
0.0
  0
LINE
  5
245
330
6FD
100
AcDbEntity
  8
GAIKEI
100
AcDbLine
 10
77.13849432648203
 20
203.269477401512
 30
0.0
 11
77.13849432648203
 21
199.5848388032971
 31
0.0
  0
LINE
  5
246
330
6FD
100
AcDbEntity
  8
GAIKEI
100
AcDbLine
 10
77.13849435540874
 20
203.2394541679216
 30
0.0
 11
77.13849435540874
 21
199.6848146093787
 31
0.0
  0
LINE
  5
247
330
6FD
100
AcDbEntity
  8
GAIKEI
100
AcDbLine
 10
77.06849422901587
 20
199.2419334623007
 30
0.0
 11
77.06849422901587
 21
203.6277399139142
 31
0.0
  0
LINE
  5
248
330
6FD
100
AcDbEntity
  8
GAIKEI
100
AcDbLine
 10
77.06849422901587
 20
199.2419334623007
 30
0.0
 11
77.06849422901587
 21
203.6277399139142
 31
0.0
  0
LINE
  5
249
330
6FD
100
AcDbEntity
  8
GAIKEI
100
AcDbLine
 10
77.13849435540874
 20
203.2394541679216
 30
0.0
 11
77.13849435540874
 21
199.6848146093787
 31
0.0
  0
LINE
  5
24A
330
6FD
100
AcDbEntity
  8
GAIKEI
100
AcDbLine
 10
77.13849432648203
 20
203.269477401512
 30
0.0
 11
77.13849432648203
 21
199.5848388032971
 31
0.0
  0
LINE
  5
24B
330
6FD
100
AcDbEntity
  8
GAIKEI
100
AcDbLine
 10
77.11849422901605
 20
203.3848320518246
 30
0.0
 11
77.11849422901605
 21
199.4848320518247
 31
0.0
  0
LINE
  5
24C
330
6FD
100
AcDbEntity
  8
GAIKEI
100
AcDbLine
 10
79.9684942790159
 20
198.3348147971408
 30
0.0
 11
79.86849427901598
 21
199.3348147883987
 31
0.0
  0
LINE
  5
24D
330
6FD
100
AcDbEntity
  8
GAIKEI
100
AcDbLine
 10
79.9684942790159
 20
198.3348147971408
 30
0.0
 11
79.86849427901598
 21
199.3348147883987
 31
0.0
  0
LINE
  5
24E
330
6FD
100
AcDbEntity
  8
GAIKEI
100
AcDbLine
 10
77.68849444757279
 20
199.4348320518245
 30
0.0
 11
78.16849422901578
 21
199.4348320518245
 31
0.0
  0
LINE
  5
24F
330
6FD
100
AcDbEntity
  8
GAIKEI
100
AcDbLine
 10
77.14849444757283
 20
199.2348320518247
 30
0.0
 11
77.88849444757307
 21
199.2348320518247
 31
0.0
  0
LINE
  5
250
330
6FD
100
AcDbEntity
  8
GAIKEI
100
AcDbLine
 10
78.11849460893269
 20
199.4848388032972
 30
0.0
 11
77.23849432648193
 21
199.4848388032972
 31
0.0
  0
LINE
  5
251
330
6FD
100
AcDbEntity
  8
GAIKEI
100
AcDbLine
 10
78.11849460893269
 20
199.4848388032972
 30
0.0
 11
77.23849432648193
 21
199.4848388032972
 31
0.0
  0
LINE
  5
252
330
6FD
100
AcDbEntity
  8
GAIKEI
100
AcDbLine
 10
77.14849444757283
 20
199.2348320518247
 30
0.0
 11
77.88849444757307
 21
199.2348320518247
 31
0.0
  0
LINE
  5
253
330
6FD
100
AcDbEntity
  8
GAIKEI
100
AcDbLine
 10
77.68849444757279
 20
199.4348320518245
 30
0.0
 11
78.16849422901578
 21
199.4348320518245
 31
0.0
  0
ARC
  5
254
330
6FD
100
AcDbEntity
  8
GAIKEI
100
AcDbCircle
 10
77.23849432648193
 20
199.5848388032971
 30
0.0
 40
0.1
100
AcDbArc
 50
180.0
 51
270.0
  0
ARC
  5
255
330
6FD
100
AcDbEntity
  8
GAIKEI
100
AcDbCircle
 10
77.23849432648193
 20
199.5848388032971
 30
0.0
 40
0.1
100
AcDbArc
 50
180.0
 51
270.0
  0
LINE
  5
256
330
6FD
100
AcDbEntity
  8
GAIKEI
100
AcDbLine
 10
77.34849444757308
 20
199.4348320518245
 30
0.0
 11
77.68849444757279
 21
199.4348320518245
 31
0.0
  0
LINE
  5
257
330
6FD
100
AcDbEntity
  8
GAIKEI
100
AcDbLine
 10
77.11849422901605
 20
199.3848320518246
 30
0.0
 11
77.11849422901605
 21
199.4848320518247
 31
0.0
  0
LINE
  5
258
330
6FD
100
AcDbEntity
  8
GAIKEI
100
AcDbLine
 10
77.16849422901578
 20
199.3848320518246
 30
0.0
 11
77.11849422901605
 21
199.3848320518246
 31
0.0
  0
LINE
  5
259
330
6FD
100
AcDbEntity
  8
GAIKEI
100
AcDbLine
 10
77.16849422901578
 20
199.4348320518245
 30
0.0
 11
77.16849422901578
 21
199.3848320518246
 31
0.0
  0
LINE
  5
25A
330
6FD
100
AcDbEntity
  8
GAIKEI
100
AcDbLine
 10
76.96849422901594
 20
199.2348320518247
 30
0.0
 11
77.14849444757283
 21
199.2348320518247
 31
0.0
  0
LINE
  5
25B
330
6FD
100
AcDbEntity
  8
GAIKEI
100
AcDbLine
 10
77.16849422901578
 20
199.4348320518245
 30
0.0
 11
77.34849444757308
 21
199.4348320518245
 31
0.0
  0
LINE
  5
25C
330
6FD
100
AcDbEntity
  8
GAIKEI
100
AcDbLine
 10
77.16849422901578
 20
199.4348320518245
 30
0.0
 11
77.34849444757308
 21
199.4348320518245
 31
0.0
  0
LINE
  5
25D
330
6FD
100
AcDbEntity
  8
GAIKEI
100
AcDbLine
 10
76.96849422901594
 20
199.2348320518247
 30
0.0
 11
77.14849444757283
 21
199.2348320518247
 31
0.0
  0
LINE
  5
25E
330
6FD
100
AcDbEntity
  8
GAIKEI
100
AcDbLine
 10
77.16849422901578
 20
199.4348320518245
 30
0.0
 11
77.16849422901578
 21
199.3848320518246
 31
0.0
  0
LINE
  5
25F
330
6FD
100
AcDbEntity
  8
GAIKEI
100
AcDbLine
 10
77.16849422901578
 20
199.3848320518246
 30
0.0
 11
77.11849422901605
 21
199.3848320518246
 31
0.0
  0
LINE
  5
260
330
6FD
100
AcDbEntity
  8
GAIKEI
100
AcDbLine
 10
77.11849422901605
 20
199.3848320518246
 30
0.0
 11
77.11849422901605
 21
199.4848320518247
 31
0.0
  0
LINE
  5
261
330
6FD
100
AcDbEntity
  8
GAIKEI
100
AcDbLine
 10
77.34849444757308
 20
199.4348320518245
 30
0.0
 11
77.68849444757279
 21
199.4348320518245
 31
0.0
  0
ARC
  5
262
330
6FD
100
AcDbEntity
  8
GAIKEI
100
AcDbCircle
 10
78.2684942290159
 20
199.4848320518247
 30
0.0
 40
0.05
100
AcDbArc
 50
90.0
 51
180.0
  0
ARC
  5
263
330
6FD
100
AcDbEntity
  8
GAIKEI
100
AcDbCircle
 10
78.46849422901595
 20
199.3848320518246
 30
0.0
 40
0.05
100
AcDbArc
 50
90.0
 51
180.0
  0
ARC
  5
264
330
6FD
100
AcDbEntity
  8
GAIKEI
100
AcDbCircle
 10
78.36849422901605
 20
199.2848320518247
 30
0.0
 40
0.05
100
AcDbArc
 50
270.0
 51
0.0
  0
ARC
  5
265
330
6FD
100
AcDbEntity
  8
GAIKEI
100
AcDbCircle
 10
78.16849422901578
 20
199.4848320518247
 30
0.0
 40
0.05
100
AcDbArc
 50
270.0
 51
0.0
  0
ARC
  5
266
330
6FD
100
AcDbEntity
  8
GAIKEI
100
AcDbCircle
 10
79.26849460893254
 20
199.5348157882636
 30
0.0
 40
0.05
100
AcDbArc
 50
0.0
 51
90.0
  0
ARC
  5
267
330
6FD
100
AcDbEntity
  8
GAIKEI
100
AcDbCircle
 10
78.11849460893245
 20
199.534838803297
 30
0.0
 40
0.05
100
AcDbArc
 50
270.0
 51
0.0
  0
ARC
  5
268
330
6FD
100
AcDbEntity
  8
GAIKEI
100
AcDbCircle
 10
78.21849460893258
 20
199.5348157882636
 30
0.0
 40
0.05
100
AcDbArc
 50
90.0
 51
180.0
  0
ARC
  5
269
330
6FD
100
AcDbEntity
  8
GAIKEI
100
AcDbCircle
 10
78.21849460893258
 20
199.5348157882636
 30
0.0
 40
0.05
100
AcDbArc
 50
90.0
 51
180.0
  0
ARC
  5
26A
330
6FD
100
AcDbEntity
  8
GAIKEI
100
AcDbCircle
 10
78.11849460893245
 20
199.534838803297
 30
0.0
 40
0.05
100
AcDbArc
 50
270.0
 51
0.0
  0
ARC
  5
26B
330
6FD
100
AcDbEntity
  8
GAIKEI
100
AcDbCircle
 10
79.26849460893254
 20
199.5348157882636
 30
0.0
 40
0.05
100
AcDbArc
 50
0.0
 51
90.0
  0
ARC
  5
26C
330
6FD
100
AcDbEntity
  8
GAIKEI
100
AcDbCircle
 10
78.16849422901578
 20
199.4848320518247
 30
0.0
 40
0.05
100
AcDbArc
 50
270.0
 51
0.0
  0
ARC
  5
26D
330
6FD
100
AcDbEntity
  8
GAIKEI
100
AcDbCircle
 10
78.36849422901605
 20
199.2848320518247
 30
0.0
 40
0.05
100
AcDbArc
 50
270.0
 51
0.0
  0
ARC
  5
26E
330
6FD
100
AcDbEntity
  8
GAIKEI
100
AcDbCircle
 10
78.46849422901595
 20
199.3848320518246
 30
0.0
 40
0.05
100
AcDbArc
 50
90.0
 51
180.0
  0
ARC
  5
26F
330
6FD
100
AcDbEntity
  8
GAIKEI
100
AcDbCircle
 10
78.2684942290159
 20
199.4848320518247
 30
0.0
 40
0.05
100
AcDbArc
 50
90.0
 51
180.0
  0
CIRCLE
  5
270
330
6FD
100
AcDbEntity
  8
GAIKEI
 62
     1
100
AcDbCircle
 10
78.46849438971958
 20
200.184836688107
 30
0.0
 40
0.3150000000002194
  0
CIRCLE
  5
271
330
6FD
100
AcDbEntity
  8
GAIKEI
 62
     1
100
AcDbCircle
 10
78.46849438971958
 20
200.184836688107
 30
0.0
 40
0.3150000000002194
  0
ARC
  5
272
330
6FD
100
AcDbEntity
  8
GAIKEI
 62
     1
100
AcDbCircle
 10
78.53849438971952
 20
200.2548366881078
 30
0.0
 40
0.0349999999999909
100
AcDbArc
 50
180.0
 51
270.0
  0
ARC
  5
273
330
6FD
100
AcDbEntity
  8
GAIKEI
 62
     1
100
AcDbCircle
 10
78.53849438971952
 20
200.114836688108
 30
0.0
 40
0.0349999999987006
100
AcDbArc
 50
90.0
 51
180.0
  0
ARC
  5
274
330
6FD
100
AcDbEntity
  8
GAIKEI
 62
     1
100
AcDbCircle
 10
78.39849438971942
 20
200.114836688108
 30
0.0
 40
0.0350000000000136
100
AcDbArc
 50
0.0
 51
90.0
  0
ARC
  5
275
330
6FD
100
AcDbEntity
  8
GAIKEI
 62
     1
100
AcDbCircle
 10
78.39849438971942
 20
200.2548366881078
 30
0.0
 40
0.0350000000010198
100
AcDbArc
 50
270.0
 51
0.0
  0
ARC
  5
276
330
6FD
100
AcDbEntity
  8
GAIKEI
 62
     1
100
AcDbCircle
 10
78.39849438971942
 20
200.2548366881078
 30
0.0
 40
0.0350000000010198
100
AcDbArc
 50
270.0
 51
0.0
  0
ARC
  5
277
330
6FD
100
AcDbEntity
  8
GAIKEI
 62
     1
100
AcDbCircle
 10
78.39849438971942
 20
200.114836688108
 30
0.0
 40
0.0350000000000136
100
AcDbArc
 50
0.0
 51
90.0
  0
ARC
  5
278
330
6FD
100
AcDbEntity
  8
GAIKEI
 62
     1
100
AcDbCircle
 10
78.53849438971952
 20
200.114836688108
 30
0.0
 40
0.0349999999987006
100
AcDbArc
 50
90.0
 51
180.0
  0
ARC
  5
279
330
6FD
100
AcDbEntity
  8
GAIKEI
 62
     1
100
AcDbCircle
 10
78.53849438971952
 20
200.2548366881078
 30
0.0
 40
0.0349999999999909
100
AcDbArc
 50
180.0
 51
270.0
  0
LINE
  5
27A
330
6FD
100
AcDbEntity
  8
GAIKEI
100
AcDbLine
 10
79.26849460893254
 20
199.5848157882635
 30
0.0
 11
79.26849460893254
 21
199.3348125853447
 31
0.0
  0
LINE
  5
27B
330
6FD
100
AcDbEntity
  8
GAIKEI
100
AcDbLine
 10
77.88849444757307
 20
199.2348320518247
 30
0.0
 11
78.36849422901605
 21
199.2348320518247
 31
0.0
  0
LINE
  5
27C
330
6FD
100
AcDbEntity
  8
GAIKEI
100
AcDbLine
 10
79.21849422901594
 20
199.4348320518245
 30
0.0
 11
78.46849422901595
 21
199.4348320518245
 31
0.0
  0
LINE
  5
27D
330
6FD
100
AcDbEntity
  8
GAIKEI
100
AcDbLine
 10
79.21849422901594
 20
199.5348320518244
 30
0.0
 11
79.21849422901594
 21
199.4348320518245
 31
0.0
  0
LINE
  5
27E
330
6FD
100
AcDbEntity
  8
GAIKEI
100
AcDbLine
 10
78.2684942290159
 20
199.5348320518244
 30
0.0
 11
79.21849422901594
 21
199.5348320518244
 31
0.0
  0
LINE
  5
27F
330
6FD
100
AcDbEntity
  8
GAIKEI
100
AcDbLine
 10
78.41849422901578
 20
199.3848320518246
 30
0.0
 11
78.41849422901578
 21
199.2848320518244
 31
0.0
  0
LINE
  5
280
330
6FD
100
AcDbEntity
  8
GAIKEI
100
AcDbLine
 10
78.21849460893282
 20
199.5848157882635
 30
0.0
 11
79.26849460893254
 21
199.5848157882635
 31
0.0
  0
LINE
  5
281
330
6FD
100
AcDbEntity
  8
GAIKEI
100
AcDbLine
 10
79.31849460893271
 20
199.4048137982415
 30
0.0
 11
79.31849460893271
 21
199.4848388032972
 31
0.0
  0
LINE
  5
282
330
6FD
100
AcDbEntity
  8
GAIKEI
100
AcDbLine
 10
79.31849460893271
 20
199.4048157882642
 30
0.0
 11
79.31849460893271
 21
199.5348157882636
 31
0.0
  0
LINE
  5
283
330
6FD
100
AcDbEntity
  8
GAIKEI
 62
     1
100
AcDbLine
 10
78.43349438971974
 20
200.114836688108
 30
0.0
 11
78.43349438971974
 21
200.0048366881076
 31
0.0
  0
LINE
  5
284
330
6FD
100
AcDbEntity
  8
GAIKEI
 62
     1
100
AcDbLine
 10
78.39849438971964
 20
200.1498366881067
 30
0.0
 11
78.28849438971952
 21
200.1498366881067
 31
0.0
  0
LINE
  5
285
330
6FD
100
AcDbEntity
  8
GAIKEI
 62
     1
100
AcDbLine
 10
78.50349438971943
 20
200.364836688108
 30
0.0
 11
78.50349438971943
 21
200.2548366881076
 31
0.0
  0
LINE
  5
286
330
6FD
100
AcDbEntity
  8
GAIKEI
 62
     1
100
AcDbLine
 10
78.64849438971964
 20
200.1498366881067
 30
0.0
 11
78.53849438971952
 21
200.1498366881067
 31
0.0
  0
LINE
  5
287
330
6FD
100
AcDbEntity
  8
GAIKEI
 62
     1
100
AcDbLine
 10
78.64849438971964
 20
200.2198366881069
 30
0.0
 11
78.53849438971952
 21
200.2198366881069
 31
0.0
  0
LINE
  5
288
330
6FD
100
AcDbEntity
  8
GAIKEI
 62
     1
100
AcDbLine
 10
78.43349438971974
 20
200.364836688108
 30
0.0
 11
78.43349438971974
 21
200.2548366881076
 31
0.0
  0
LINE
  5
289
330
6FD
100
AcDbEntity
  8
GAIKEI
 62
     1
100
AcDbLine
 10
78.50349438971943
 20
200.0048366881076
 30
0.0
 11
78.43349438971974
 21
200.0048366881076
 31
0.0
  0
LINE
  5
28A
330
6FD
100
AcDbEntity
  8
GAIKEI
 62
     1
100
AcDbLine
 10
78.50349438971943
 20
200.364836688108
 30
0.0
 11
78.43349438971974
 21
200.364836688108
 31
0.0
  0
LINE
  5
28B
330
6FD
100
AcDbEntity
  8
GAIKEI
 62
     1
100
AcDbLine
 10
78.64849438971964
 20
200.2198366881069
 30
0.0
 11
78.64849438971964
 21
200.1498366881067
 31
0.0
  0
LINE
  5
28C
330
6FD
100
AcDbEntity
  8
GAIKEI
 62
     1
100
AcDbLine
 10
78.28849438971952
 20
200.2198366881069
 30
0.0
 11
78.28849438971952
 21
200.1498366881067
 31
0.0
  0
LINE
  5
28D
330
6FD
100
AcDbEntity
  8
GAIKEI
 62
     1
100
AcDbLine
 10
78.50349438971943
 20
200.114836688108
 30
0.0
 11
78.50349438971943
 21
200.0048366881076
 31
0.0
  0
LINE
  5
28E
330
6FD
100
AcDbEntity
  8
GAIKEI
 62
     1
100
AcDbLine
 10
78.39849438971964
 20
200.2198366881069
 30
0.0
 11
78.28849438971952
 21
200.2198366881069
 31
0.0
  0
LINE
  5
28F
330
6FD
100
AcDbEntity
  8
GAIKEI
 62
     1
100
AcDbLine
 10
78.39849438971964
 20
200.2198366881069
 30
0.0
 11
78.28849438971952
 21
200.2198366881069
 31
0.0
  0
LINE
  5
290
330
6FD
100
AcDbEntity
  8
GAIKEI
 62
     1
100
AcDbLine
 10
78.50349438971943
 20
200.114836688108
 30
0.0
 11
78.50349438971943
 21
200.0048366881076
 31
0.0
  0
LINE
  5
291
330
6FD
100
AcDbEntity
  8
GAIKEI
 62
     1
100
AcDbLine
 10
78.28849438971952
 20
200.2198366881069
 30
0.0
 11
78.28849438971952
 21
200.1498366881067
 31
0.0
  0
LINE
  5
292
330
6FD
100
AcDbEntity
  8
GAIKEI
 62
     1
100
AcDbLine
 10
78.64849438971964
 20
200.2198366881069
 30
0.0
 11
78.64849438971964
 21
200.1498366881067
 31
0.0
  0
LINE
  5
293
330
6FD
100
AcDbEntity
  8
GAIKEI
 62
     1
100
AcDbLine
 10
78.50349438971943
 20
200.364836688108
 30
0.0
 11
78.43349438971974
 21
200.364836688108
 31
0.0
  0
LINE
  5
294
330
6FD
100
AcDbEntity
  8
GAIKEI
 62
     1
100
AcDbLine
 10
78.50349438971943
 20
200.0048366881076
 30
0.0
 11
78.43349438971974
 21
200.0048366881076
 31
0.0
  0
LINE
  5
295
330
6FD
100
AcDbEntity
  8
GAIKEI
 62
     1
100
AcDbLine
 10
78.43349438971974
 20
200.364836688108
 30
0.0
 11
78.43349438971974
 21
200.2548366881076
 31
0.0
  0
LINE
  5
296
330
6FD
100
AcDbEntity
  8
GAIKEI
 62
     1
100
AcDbLine
 10
78.64849438971964
 20
200.2198366881069
 30
0.0
 11
78.53849438971952
 21
200.2198366881069
 31
0.0
  0
LINE
  5
297
330
6FD
100
AcDbEntity
  8
GAIKEI
 62
     1
100
AcDbLine
 10
78.64849438971964
 20
200.1498366881067
 30
0.0
 11
78.53849438971952
 21
200.1498366881067
 31
0.0
  0
LINE
  5
298
330
6FD
100
AcDbEntity
  8
GAIKEI
 62
     1
100
AcDbLine
 10
78.50349438971943
 20
200.364836688108
 30
0.0
 11
78.50349438971943
 21
200.2548366881076
 31
0.0
  0
LINE
  5
299
330
6FD
100
AcDbEntity
  8
GAIKEI
 62
     1
100
AcDbLine
 10
78.39849438971964
 20
200.1498366881067
 30
0.0
 11
78.28849438971952
 21
200.1498366881067
 31
0.0
  0
LINE
  5
29A
330
6FD
100
AcDbEntity
  8
GAIKEI
 62
     1
100
AcDbLine
 10
78.43349438971974
 20
200.114836688108
 30
0.0
 11
78.43349438971974
 21
200.0048366881076
 31
0.0
  0
LINE
  5
29B
330
6FD
100
AcDbEntity
  8
GAIKEI
100
AcDbLine
 10
79.31849460893271
 20
199.4048157882642
 30
0.0
 11
79.31849460893271
 21
199.5348157882636
 31
0.0
  0
LINE
  5
29C
330
6FD
100
AcDbEntity
  8
GAIKEI
100
AcDbLine
 10
79.31849460893271
 20
199.4048137982415
 30
0.0
 11
79.31849460893271
 21
199.4848388032972
 31
0.0
  0
LINE
  5
29D
330
6FD
100
AcDbEntity
  8
GAIKEI
100
AcDbLine
 10
78.21849460893282
 20
199.5848157882635
 30
0.0
 11
79.26849460893254
 21
199.5848157882635
 31
0.0
  0
LINE
  5
29E
330
6FD
100
AcDbEntity
  8
GAIKEI
100
AcDbLine
 10
78.41849422901578
 20
199.3848320518246
 30
0.0
 11
78.41849422901578
 21
199.2848320518244
 31
0.0
  0
LINE
  5
29F
330
6FD
100
AcDbEntity
  8
GAIKEI
100
AcDbLine
 10
78.2684942290159
 20
199.5348320518244
 30
0.0
 11
79.21849422901594
 21
199.5348320518244
 31
0.0
  0
LINE
  5
2A0
330
6FD
100
AcDbEntity
  8
GAIKEI
100
AcDbLine
 10
79.21849422901594
 20
199.5348320518244
 30
0.0
 11
79.21849422901594
 21
199.4348320518245
 31
0.0
  0
LINE
  5
2A1
330
6FD
100
AcDbEntity
  8
GAIKEI
100
AcDbLine
 10
79.21849422901594
 20
199.4348320518245
 30
0.0
 11
78.46849422901595
 21
199.4348320518245
 31
0.0
  0
LINE
  5
2A2
330
6FD
100
AcDbEntity
  8
GAIKEI
100
AcDbLine
 10
77.88849444757307
 20
199.2348320518247
 30
0.0
 11
78.36849422901605
 21
199.2348320518247
 31
0.0
  0
LINE
  5
2A3
330
6FD
100
AcDbEntity
  8
GAIKEI
100
AcDbLine
 10
79.26849460893254
 20
199.5848157882635
 30
0.0
 11
79.26849460893254
 21
199.3348125853447
 31
0.0
  0
ARC
  5
2A4
330
6FD
100
AcDbEntity
  8
GAIKEI
 62
     1
100
AcDbCircle
 10
79.9694706023838
 20
200.1848157882637
 30
0.0
 40
0.3
100
AcDbArc
 50
90.0
 51
180.0
  0
ARC
  5
2A5
330
6FD
100
AcDbEntity
  8
GAIKEI
 62
     1
100
AcDbCircle
 10
79.9694706023838
 20
200.1848157882637
 30
0.0
 40
0.3
100
AcDbArc
 50
180.0
 51
270.0
  0
ARC
  5
2A6
330
6FD
100
AcDbEntity
  8
GAIKEI
 62
     1
100
AcDbCircle
 10
79.9694706023838
 20
200.1848157882637
 30
0.0
 40
0.1
100
AcDbArc
 50
180.0
 51
270.0
  0
ARC
  5
2A7
330
6FD
100
AcDbEntity
  8
GAIKEI
 62
     1
100
AcDbCircle
 10
79.9694706023838
 20
200.1848157882637
 30
0.0
 40
0.1
100
AcDbArc
 50
90.0
 51
180.0
  0
ARC
  5
2A8
330
6FD
100
AcDbEntity
  8
GAIKEI
 62
     1
100
AcDbCircle
 10
79.9694706023838
 20
200.1848157882637
 30
0.0
 40
0.1
100
AcDbArc
 50
90.0
 51
180.0
  0
ARC
  5
2A9
330
6FD
100
AcDbEntity
  8
GAIKEI
 62
     1
100
AcDbCircle
 10
79.9694706023838
 20
200.1848157882637
 30
0.0
 40
0.1
100
AcDbArc
 50
180.0
 51
270.0
  0
ARC
  5
2AA
330
6FD
100
AcDbEntity
  8
GAIKEI
 62
     1
100
AcDbCircle
 10
79.9694706023838
 20
200.1848157882637
 30
0.0
 40
0.3
100
AcDbArc
 50
180.0
 51
270.0
  0
ARC
  5
2AB
330
6FD
100
AcDbEntity
  8
GAIKEI
 62
     1
100
AcDbCircle
 10
79.9694706023838
 20
200.1848157882637
 30
0.0
 40
0.3
100
AcDbArc
 50
90.0
 51
180.0
  0
CIRCLE
  5
2AC
330
6FD
100
AcDbEntity
  8
GAIKEI
 62
     1
100
AcDbCircle
 10
78.46849422901595
 20
202.6848366981078
 30
0.0
 40
0.315000000000208
  0
CIRCLE
  5
2AD
330
6FD
100
AcDbEntity
  8
GAIKEI
 62
     1
100
AcDbCircle
 10
78.46849422901595
 20
202.6848366981078
 30
0.0
 40
0.315000000000208
  0
ARC
  5
2AE
330
6FD
100
AcDbEntity
  8
GAIKEI
 62
     1
100
AcDbCircle
 10
78.53849422901612
 20
202.7548366981066
 30
0.0
 40
0.0350000000000136
100
AcDbArc
 50
180.0
 51
270.0
  0
ARC
  5
2AF
330
6FD
100
AcDbEntity
  8
GAIKEI
 62
     1
100
AcDbCircle
 10
78.53849422901612
 20
202.6148366981081
 30
0.0
 40
0.0349999999987006
100
AcDbArc
 50
90.0
 51
180.0
  0
ARC
  5
2B0
330
6FD
100
AcDbEntity
  8
GAIKEI
 62
     1
100
AcDbCircle
 10
78.39849422901579
 20
202.6148366981081
 30
0.0
 40
0.0349999999999909
100
AcDbArc
 50
0.0
 51
90.0
  0
ARC
  5
2B1
330
6FD
100
AcDbEntity
  8
GAIKEI
 62
     1
100
AcDbCircle
 10
78.39849422901579
 20
202.7548366981066
 30
0.0
 40
0.0349999999990985
100
AcDbArc
 50
270.0
 51
0.0
  0
ARC
  5
2B2
330
6FD
100
AcDbEntity
  8
GAIKEI
 62
     1
100
AcDbCircle
 10
78.39849422901579
 20
202.7548366981066
 30
0.0
 40
0.0349999999990985
100
AcDbArc
 50
270.0
 51
0.0
  0
ARC
  5
2B3
330
6FD
100
AcDbEntity
  8
GAIKEI
 62
     1
100
AcDbCircle
 10
78.39849422901579
 20
202.6148366981081
 30
0.0
 40
0.0349999999999909
100
AcDbArc
 50
0.0
 51
90.0
  0
ARC
  5
2B4
330
6FD
100
AcDbEntity
  8
GAIKEI
 62
     1
100
AcDbCircle
 10
78.53849422901612
 20
202.6148366981081
 30
0.0
 40
0.0349999999987006
100
AcDbArc
 50
90.0
 51
180.0
  0
ARC
  5
2B5
330
6FD
100
AcDbEntity
  8
GAIKEI
 62
     1
100
AcDbCircle
 10
78.53849422901612
 20
202.7548366981066
 30
0.0
 40
0.0350000000000136
100
AcDbArc
 50
180.0
 51
270.0
  0
LINE
  5
2B6
330
6FD
100
AcDbEntity
  8
GAIKEI
 62
     1
100
AcDbLine
 10
78.43349422901612
 20
202.6148366981081
 30
0.0
 11
78.43349422901612
 21
202.5048366981066
 31
0.0
  0
LINE
  5
2B7
330
6FD
100
AcDbEntity
  8
GAIKEI
 62
     1
100
AcDbLine
 10
78.39849422901579
 20
202.6498366981068
 30
0.0
 11
78.28849422901612
 21
202.6498366981068
 31
0.0
  0
LINE
  5
2B8
330
6FD
100
AcDbEntity
  8
GAIKEI
 62
     1
100
AcDbLine
 10
78.50349422901604
 20
202.8648366981081
 30
0.0
 11
78.50349422901604
 21
202.7548366981066
 31
0.0
  0
LINE
  5
2B9
330
6FD
100
AcDbEntity
  8
GAIKEI
 62
     1
100
AcDbLine
 10
78.64849422901579
 20
202.6498366981068
 30
0.0
 11
78.53849422901612
 21
202.6498366981068
 31
0.0
  0
LINE
  5
2BA
330
6FD
100
AcDbEntity
  8
GAIKEI
 62
     1
100
AcDbLine
 10
78.64849422901579
 20
202.7198366981077
 30
0.0
 11
78.53849422901612
 21
202.7198366981077
 31
0.0
  0
LINE
  5
2BB
330
6FD
100
AcDbEntity
  8
GAIKEI
 62
     1
100
AcDbLine
 10
78.43349422901612
 20
202.8648366981081
 30
0.0
 11
78.43349422901612
 21
202.7548366981066
 31
0.0
  0
LINE
  5
2BC
330
6FD
100
AcDbEntity
  8
GAIKEI
 62
     1
100
AcDbLine
 10
78.50349422901604
 20
202.5048366981066
 30
0.0
 11
78.43349422901612
 21
202.5048366981066
 31
0.0
  0
LINE
  5
2BD
330
6FD
100
AcDbEntity
  8
GAIKEI
 62
     1
100
AcDbLine
 10
78.50349422901604
 20
202.8648366981081
 30
0.0
 11
78.43349422901612
 21
202.8648366981081
 31
0.0
  0
LINE
  5
2BE
330
6FD
100
AcDbEntity
  8
GAIKEI
 62
     1
100
AcDbLine
 10
78.64849422901579
 20
202.7198366981077
 30
0.0
 11
78.64849422901579
 21
202.6498366981068
 31
0.0
  0
LINE
  5
2BF
330
6FD
100
AcDbEntity
  8
GAIKEI
 62
     1
100
AcDbLine
 10
78.28849422901612
 20
202.7198366981077
 30
0.0
 11
78.28849422901612
 21
202.6498366981068
 31
0.0
  0
LINE
  5
2C0
330
6FD
100
AcDbEntity
  8
GAIKEI
 62
     1
100
AcDbLine
 10
78.50349422901604
 20
202.6148366981081
 30
0.0
 11
78.50349422901604
 21
202.5048366981066
 31
0.0
  0
LINE
  5
2C1
330
6FD
100
AcDbEntity
  8
GAIKEI
 62
     1
100
AcDbLine
 10
78.39849422901579
 20
202.7198366981077
 30
0.0
 11
78.28849422901612
 21
202.7198366981077
 31
0.0
  0
LINE
  5
2C2
330
6FD
100
AcDbEntity
  8
GAIKEI
 62
     1
100
AcDbLine
 10
78.39849422901579
 20
202.7198366981077
 30
0.0
 11
78.28849422901612
 21
202.7198366981077
 31
0.0
  0
LINE
  5
2C3
330
6FD
100
AcDbEntity
  8
GAIKEI
 62
     1
100
AcDbLine
 10
78.50349422901604
 20
202.6148366981081
 30
0.0
 11
78.50349422901604
 21
202.5048366981066
 31
0.0
  0
LINE
  5
2C4
330
6FD
100
AcDbEntity
  8
GAIKEI
 62
     1
100
AcDbLine
 10
78.28849422901612
 20
202.7198366981077
 30
0.0
 11
78.28849422901612
 21
202.6498366981068
 31
0.0
  0
LINE
  5
2C5
330
6FD
100
AcDbEntity
  8
GAIKEI
 62
     1
100
AcDbLine
 10
78.64849422901579
 20
202.7198366981077
 30
0.0
 11
78.64849422901579
 21
202.6498366981068
 31
0.0
  0
LINE
  5
2C6
330
6FD
100
AcDbEntity
  8
GAIKEI
 62
     1
100
AcDbLine
 10
78.50349422901604
 20
202.8648366981081
 30
0.0
 11
78.43349422901612
 21
202.8648366981081
 31
0.0
  0
LINE
  5
2C7
330
6FD
100
AcDbEntity
  8
GAIKEI
 62
     1
100
AcDbLine
 10
78.50349422901604
 20
202.5048366981066
 30
0.0
 11
78.43349422901612
 21
202.5048366981066
 31
0.0
  0
LINE
  5
2C8
330
6FD
100
AcDbEntity
  8
GAIKEI
 62
     1
100
AcDbLine
 10
78.43349422901612
 20
202.8648366981081
 30
0.0
 11
78.43349422901612
 21
202.7548366981066
 31
0.0
  0
LINE
  5
2C9
330
6FD
100
AcDbEntity
  8
GAIKEI
 62
     1
100
AcDbLine
 10
78.64849422901579
 20
202.7198366981077
 30
0.0
 11
78.53849422901612
 21
202.7198366981077
 31
0.0
  0
LINE
  5
2CA
330
6FD
100
AcDbEntity
  8
GAIKEI
 62
     1
100
AcDbLine
 10
78.64849422901579
 20
202.6498366981068
 30
0.0
 11
78.53849422901612
 21
202.6498366981068
 31
0.0
  0
LINE
  5
2CB
330
6FD
100
AcDbEntity
  8
GAIKEI
 62
     1
100
AcDbLine
 10
78.50349422901604
 20
202.8648366981081
 30
0.0
 11
78.50349422901604
 21
202.7548366981066
 31
0.0
  0
LINE
  5
2CC
330
6FD
100
AcDbEntity
  8
GAIKEI
 62
     1
100
AcDbLine
 10
78.39849422901579
 20
202.6498366981068
 30
0.0
 11
78.28849422901612
 21
202.6498366981068
 31
0.0
  0
LINE
  5
2CD
330
6FD
100
AcDbEntity
  8
GAIKEI
 62
     1
100
AcDbLine
 10
78.43349422901612
 20
202.6148366981081
 30
0.0
 11
78.43349422901612
 21
202.5048366981066
 31
0.0
  0
LINE
  5
2CE
330
6FD
100
AcDbEntity
  8
GAIKEI
100
AcDbLine
 10
77.88849354064359
 20
203.6348320518246
 30
0.0
 11
77.1484953545023
 21
203.6348320518246
 31
0.0
  0
LINE
  5
2CF
330
6FD
100
AcDbEntity
  8
GAIKEI
100
AcDbLine
 10
78.26849408922633
 20
203.4348320518245
 30
0.0
 11
77.34849444757308
 21
203.4348320518245
 31
0.0
  0
LINE
  5
2D0
330
6FD
100
AcDbEntity
  8
GAIKEI
100
AcDbLine
 10
78.36850243259643
 20
203.3648390218539
 30
0.0
 11
77.26849454941021
 21
203.3648390218539
 31
0.0
  0
LINE
  5
2D1
330
6FD
100
AcDbEntity
  8
GAIKEI
100
AcDbLine
 10
78.36850243259643
 20
203.3648390218539
 30
0.0
 11
77.26849454941021
 21
203.3648390218539
 31
0.0
  0
LINE
  5
2D2
330
6FD
100
AcDbEntity
  8
GAIKEI
100
AcDbLine
 10
78.26849408922633
 20
203.4348320518245
 30
0.0
 11
77.34849444757308
 21
203.4348320518245
 31
0.0
  0
LINE
  5
2D3
330
6FD
100
AcDbEntity
  8
GAIKEI
100
AcDbLine
 10
77.88849354064359
 20
203.6348320518246
 30
0.0
 11
77.1484953545023
 21
203.6348320518246
 31
0.0
  0
ARC
  5
2D4
330
6FD
100
AcDbEntity
  8
GAIKEI
100
AcDbCircle
 10
77.16849422901578
 20
203.3848320518246
 30
0.0
 40
0.05
100
AcDbArc
 50
90.0
 51
180.0
  0
ARC
  5
2D5
330
6FD
100
AcDbEntity
  8
GAIKEI
100
AcDbCircle
 10
77.23849432648193
 20
203.264839021854
 30
0.0
 40
0.1
100
AcDbArc
 50
90.0
 51
180.0
  0
ARC
  5
2D6
330
6FD
100
AcDbEntity
  8
GAIKEI
100
AcDbCircle
 10
77.23849432648193
 20
203.264839021854
 30
0.0
 40
0.1
100
AcDbArc
 50
90.0
 51
180.0
  0
ARC
  5
2D7
330
6FD
100
AcDbEntity
  8
GAIKEI
100
AcDbCircle
 10
77.16849422901578
 20
203.3848320518246
 30
0.0
 40
0.05
100
AcDbArc
 50
90.0
 51
180.0
  0
LINE
  5
2D8
330
6FD
100
AcDbEntity
  8
GAIKEI
100
AcDbLine
 10
77.34849444757308
 20
203.4348320518245
 30
0.0
 11
77.16849422901578
 21
203.4348320518245
 31
0.0
  0
LINE
  5
2D9
330
6FD
100
AcDbEntity
  8
GAIKEI
100
AcDbLine
 10
77.1484953545023
 20
203.6348320518246
 30
0.0
 11
76.96848092797608
 21
203.6348320518246
 31
0.0
  0
LINE
  5
2DA
330
6FD
100
AcDbEntity
  8
GAIKEI
100
AcDbLine
 10
77.26849454941021
 20
203.3648390218539
 30
0.0
 11
77.23849432648193
 21
203.3648390218539
 31
0.0
  0
LINE
  5
2DB
330
6FD
100
AcDbEntity
  8
GAIKEI
100
AcDbLine
 10
77.26849454941021
 20
203.3648390218539
 30
0.0
 11
77.23849432648193
 21
203.3648390218539
 31
0.0
  0
LINE
  5
2DC
330
6FD
100
AcDbEntity
  8
GAIKEI
100
AcDbLine
 10
77.26849454941021
 20
203.3648390218539
 30
0.0
 11
77.23849432648193
 21
203.3648390218539
 31
0.0
  0
LINE
  5
2DD
330
6FD
100
AcDbEntity
  8
GAIKEI
100
AcDbLine
 10
77.26849454941021
 20
203.3648390218539
 30
0.0
 11
77.23849432648193
 21
203.3648390218539
 31
0.0
  0
LINE
  5
2DE
330
6FD
100
AcDbEntity
  8
GAIKEI
100
AcDbLine
 10
77.1484953545023
 20
203.6348320518246
 30
0.0
 11
76.96848092797608
 21
203.6348320518246
 31
0.0
  0
LINE
  5
2DF
330
6FD
100
AcDbEntity
  8
GAIKEI
100
AcDbLine
 10
77.34849444757308
 20
203.4348320518245
 30
0.0
 11
77.16849422901578
 21
203.4348320518245
 31
0.0
  0
LINE
  5
2E0
330
6FD
100
AcDbEntity
  8
GAIKEI
100
AcDbLine
 10
79.41849454941007
 20
203.6148124657286
 30
0.0
 11
79.20430716364103
 21
203.6148124468819
 31
0.0
  0
LINE
  5
2E1
330
6FD
100
AcDbEntity
  8
GAIKEI
100
AcDbLine
 10
79.41849454941007
 20
203.6148124657286
 30
0.0
 11
79.20430716364103
 21
203.6148124468819
 31
0.0
  0
ARC
  5
2E2
330
6FD
100
AcDbEntity
  8
GAIKEI
100
AcDbCircle
 10
78.31849427797033
 20
203.5848320518246
 30
0.0
 40
0.0499999999999957
100
AcDbArc
 50
0.0001622128760816
 51
90.0
  0
ARC
  5
2E3
330
6FD
100
AcDbEntity
  8
GAIKEI
100
AcDbCircle
 10
78.31849427797033
 20
203.5848320518246
 30
0.0
 40
0.0499999999999957
100
AcDbArc
 50
0.0001622128760816
 51
90.0
  0
LINE
  5
2E4
330
6FD
100
AcDbEntity
  8
GAIKEI
100
AcDbLine
 10
78.31849427797033
 20
203.6348320518246
 30
0.0
 11
77.88849354064359
 21
203.6348320518246
 31
0.0
  0
LINE
  5
2E5
330
6FD
100
AcDbEntity
  8
GAIKEI
100
AcDbLine
 10
78.26849408922633
 20
203.4348320518245
 30
0.0
 11
78.36849427797007
 21
203.584832193382
 31
0.0
  0
LINE
  5
2E6
330
6FD
100
AcDbEntity
  8
GAIKEI
100
AcDbLine
 10
79.20430716364103
 20
203.6148124468819
 30
0.0
 11
78.6684943903756
 21
203.6148124468819
 31
0.0
  0
LINE
  5
2E7
330
6FD
100
AcDbEntity
  8
GAIKEI
100
AcDbLine
 10
78.56850145229191
 20
203.6148124468819
 30
0.0
 11
78.6684943903756
 21
203.6148124468819
 31
0.0
  0
LINE
  5
2E8
330
6FD
100
AcDbEntity
  8
GAIKEI
100
AcDbLine
 10
78.47447060178502
 20
203.4972858020246
 30
0.0
 11
78.36850243259643
 21
203.3648390218539
 31
0.0
  0
LINE
  5
2E9
330
6FD
100
AcDbEntity
  8
GAIKEI
100
AcDbLine
 10
78.56850145229191
 20
203.6148124468819
 30
0.0
 11
78.50449495236533
 21
203.5348124347072
 31
0.0
  0
LINE
  5
2EA
330
6FD
100
AcDbEntity
  8
GAIKEI
100
AcDbLine
 10
78.50449495236533
 20
203.5348124347072
 30
0.0
 11
78.47447060178502
 21
203.4972858020246
 31
0.0
  0
LINE
  5
2EB
330
6FD
100
AcDbEntity
  8
GAIKEI
100
AcDbLine
 10
78.50449495236533
 20
203.5348124347072
 30
0.0
 11
78.47447060178502
 21
203.4972858020246
 31
0.0
  0
LINE
  5
2EC
330
6FD
100
AcDbEntity
  8
GAIKEI
100
AcDbLine
 10
78.56850145229191
 20
203.6148124468819
 30
0.0
 11
78.50449495236533
 21
203.5348124347072
 31
0.0
  0
LINE
  5
2ED
330
6FD
100
AcDbEntity
  8
GAIKEI
100
AcDbLine
 10
78.47447060178502
 20
203.4972858020246
 30
0.0
 11
78.36850243259643
 21
203.3648390218539
 31
0.0
  0
LINE
  5
2EE
330
6FD
100
AcDbEntity
  8
GAIKEI
100
AcDbLine
 10
78.56850145229191
 20
203.6148124468819
 30
0.0
 11
78.6684943903756
 21
203.6148124468819
 31
0.0
  0
LINE
  5
2EF
330
6FD
100
AcDbEntity
  8
GAIKEI
100
AcDbLine
 10
79.20430716364103
 20
203.6148124468819
 30
0.0
 11
78.6684943903756
 21
203.6148124468819
 31
0.0
  0
LINE
  5
2F0
330
6FD
100
AcDbEntity
  8
GAIKEI
100
AcDbLine
 10
78.26849408922633
 20
203.4348320518245
 30
0.0
 11
78.36849427797007
 21
203.584832193382
 31
0.0
  0
LINE
  5
2F1
330
6FD
100
AcDbEntity
  8
GAIKEI
100
AcDbLine
 10
78.31849427797033
 20
203.6348320518246
 30
0.0
 11
77.88849354064359
 21
203.6348320518246
 31
0.0
  0
LINE
  5
2F2
330
6FD
100
AcDbEntity
  8
GAIKEI
100
AcDbLine
 10
81.76849427901585
 20
198.3348149195329
 30
0.0
 11
81.86849427901597
 21
199.3348149282758
 31
0.0
  0
LINE
  5
2F3
330
6FD
100
AcDbEntity
  8
GAIKEI
100
AcDbLine
 10
81.76849427901585
 20
198.3348149195329
 30
0.0
 11
81.86849427901597
 21
199.3348149282758
 31
0.0
  0
LINE
  5
2F4
330
6FD
100
AcDbEntity
  8
GAIKEI
100
AcDbLine
 10
81.76849427901585
 20
198.3348149195329
 30
0.0
 11
80.86849427901597
 21
198.3348148583366
 31
0.0
  0
LINE
  5
2F5
330
6FD
100
AcDbEntity
  8
GAIKEI
100
AcDbLine
 10
81.76849427901585
 20
198.3348149195329
 30
0.0
 11
80.86849427901597
 21
198.3348148583366
 31
0.0
  0
CIRCLE
  5
2F6
330
6FD
100
AcDbEntity
  8
GAIKEI
 62
     1
100
AcDbCircle
 10
82.3684945783366
 20
200.4848146954789
 30
0.0
 40
0.3150000000002109
  0
CIRCLE
  5
2F7
330
6FD
100
AcDbEntity
  8
GAIKEI
 62
     1
100
AcDbCircle
 10
82.3684945783366
 20
200.4848146954789
 30
0.0
 40
0.3150000000002109
  0
ARC
  5
2F8
330
6FD
100
AcDbEntity
  8
GAIKEI
 62
     1
100
AcDbCircle
 10
82.3684945783366
 20
200.4848146954789
 30
0.0
 40
0.5999999999999617
100
AcDbArc
 50
8.213301074316893
 51
171.7866989256831
  0
ARC
  5
2F9
330
6FD
100
AcDbEntity
  8
GAIKEI
 62
     1
100
AcDbCircle
 10
82.3684945783366
 20
200.4848146954789
 30
0.0
 40
0.3999999999998044
100
AcDbArc
 50
8.213301074277406
 51
171.7866989257226
  0
ARC
  5
2FA
330
6FD
100
AcDbEntity
  8
GAIKEI
 62
     1
100
AcDbCircle
 10
82.3684945783366
 20
200.4848146954789
 30
0.0
 40
0.3999999999998044
100
AcDbArc
 50
8.213301074277406
 51
171.7866989257226
  0
ARC
  5
2FB
330
6FD
100
AcDbEntity
  8
GAIKEI
 62
     1
100
AcDbCircle
 10
82.3684945783366
 20
200.4848146954789
 30
0.0
 40
0.5999999999999617
100
AcDbArc
 50
8.213301074316893
 51
171.7866989256831
  0
ARC
  5
2FC
330
6FD
100
AcDbEntity
  8
GAIKEI
 62
     1
100
AcDbCircle
 10
81.67567441303981
 20
200.5848157882635
 30
0.0
 40
0.3
100
AcDbArc
 50
270.0
 51
351.7866989255779
  0
ARC
  5
2FD
330
6FD
100
AcDbEntity
  8
GAIKEI
 62
     1
100
AcDbCircle
 10
81.67567441303981
 20
200.5848157882635
 30
0.0
 40
0.1
100
AcDbArc
 50
270.0
 51
351.7866989257226
  0
ARC
  5
2FE
330
6FD
100
AcDbEntity
  8
GAIKEI
 62
     1
100
AcDbCircle
 10
81.67567441303981
 20
200.5848157882635
 30
0.0
 40
0.1
100
AcDbArc
 50
270.0
 51
351.7866989257226
  0
ARC
  5
2FF
330
6FD
100
AcDbEntity
  8
GAIKEI
 62
     1
100
AcDbCircle
 10
81.67567441303981
 20
200.5848157882635
 30
0.0
 40
0.3
100
AcDbArc
 50
270.0
 51
351.7866989255779
  0
ARC
  5
300
330
6FD
100
AcDbEntity
  8
GAIKEI
 62
     1
100
AcDbCircle
 10
82.43849457833675
 20
200.5548146954791
 30
0.0
 40
0.034999999999809
100
AcDbArc
 50
180.0
 51
270.0
  0
ARC
  5
301
330
6FD
100
AcDbEntity
  8
GAIKEI
 62
     1
100
AcDbCircle
 10
82.43849457833675
 20
200.4148146954792
 30
0.0
 40
0.0349999999998118
100
AcDbArc
 50
90.0
 51
180.0
  0
ARC
  5
302
330
6FD
100
AcDbEntity
  8
GAIKEI
 62
     1
100
AcDbCircle
 10
82.29849457833688
 20
200.4148146954792
 30
0.0
 40
0.0349999999999
100
AcDbArc
 50
0.0
 51
90.0
  0
ARC
  5
303
330
6FD
100
AcDbEntity
  8
GAIKEI
 62
     1
100
AcDbCircle
 10
82.29849457833688
 20
200.5548146954791
 30
0.0
 40
0.0350000000003092
100
AcDbArc
 50
270.0
 51
0.0
  0
ARC
  5
304
330
6FD
100
AcDbEntity
  8
GAIKEI
 62
     1
100
AcDbCircle
 10
82.29849457833688
 20
200.5548146954791
 30
0.0
 40
0.0350000000003092
100
AcDbArc
 50
270.0
 51
0.0
  0
ARC
  5
305
330
6FD
100
AcDbEntity
  8
GAIKEI
 62
     1
100
AcDbCircle
 10
82.29849457833688
 20
200.4148146954792
 30
0.0
 40
0.0349999999999
100
AcDbArc
 50
0.0
 51
90.0
  0
ARC
  5
306
330
6FD
100
AcDbEntity
  8
GAIKEI
 62
     1
100
AcDbCircle
 10
82.43849457833675
 20
200.4148146954792
 30
0.0
 40
0.0349999999998118
100
AcDbArc
 50
90.0
 51
180.0
  0
ARC
  5
307
330
6FD
100
AcDbEntity
  8
GAIKEI
 62
     1
100
AcDbCircle
 10
82.43849457833675
 20
200.5548146954791
 30
0.0
 40
0.034999999999809
100
AcDbArc
 50
180.0
 51
270.0
  0
LINE
  5
308
330
6FD
100
AcDbEntity
  8
GAIKEI
 62
     1
100
AcDbLine
 10
82.33349457833673
 20
200.4148146954792
 30
0.0
 11
82.33349457833673
 21
200.3048146954791
 31
0.0
  0
LINE
  5
309
330
6FD
100
AcDbEntity
  8
GAIKEI
 62
     1
100
AcDbLine
 10
82.29849457833688
 20
200.4498146954791
 30
0.0
 11
82.18849457833675
 21
200.4498146954791
 31
0.0
  0
LINE
  5
30A
330
6FD
100
AcDbEntity
  8
GAIKEI
 62
     1
100
AcDbLine
 10
82.40349457833691
 20
200.6648146954792
 30
0.0
 11
82.40349457833691
 21
200.5548146954791
 31
0.0
  0
LINE
  5
30B
330
6FD
100
AcDbEntity
  8
GAIKEI
 62
     1
100
AcDbLine
 10
82.54849457833689
 20
200.4498146954791
 30
0.0
 11
82.43849457833675
 21
200.4498146954791
 31
0.0
  0
LINE
  5
30C
330
6FD
100
AcDbEntity
  8
GAIKEI
 62
     1
100
AcDbLine
 10
82.54849457833689
 20
200.5198146954788
 30
0.0
 11
82.43849457833675
 21
200.5198146954788
 31
0.0
  0
LINE
  5
30D
330
6FD
100
AcDbEntity
  8
GAIKEI
 62
     1
100
AcDbLine
 10
82.33349457833673
 20
200.6648146954792
 30
0.0
 11
82.33349457833673
 21
200.5548146954791
 31
0.0
  0
LINE
  5
30E
330
6FD
100
AcDbEntity
  8
GAIKEI
 62
     1
100
AcDbLine
 10
82.40349457833691
 20
200.3048146954791
 30
0.0
 11
82.33349457833673
 21
200.3048146954791
 31
0.0
  0
LINE
  5
30F
330
6FD
100
AcDbEntity
  8
GAIKEI
 62
     1
100
AcDbLine
 10
82.40349457833691
 20
200.6648146954792
 30
0.0
 11
82.33349457833673
 21
200.6648146954792
 31
0.0
  0
LINE
  5
310
330
6FD
100
AcDbEntity
  8
GAIKEI
 62
     1
100
AcDbLine
 10
82.54849457833689
 20
200.5198146954788
 30
0.0
 11
82.54849457833689
 21
200.4498146954791
 31
0.0
  0
LINE
  5
311
330
6FD
100
AcDbEntity
  8
GAIKEI
 62
     1
100
AcDbLine
 10
82.18849457833675
 20
200.5198146954788
 30
0.0
 11
82.18849457833675
 21
200.4498146954791
 31
0.0
  0
LINE
  5
312
330
6FD
100
AcDbEntity
  8
GAIKEI
 62
     1
100
AcDbLine
 10
82.40349457833691
 20
200.4148146954792
 30
0.0
 11
82.40349457833691
 21
200.3048146954791
 31
0.0
  0
LINE
  5
313
330
6FD
100
AcDbEntity
  8
GAIKEI
 62
     1
100
AcDbLine
 10
82.29849457833688
 20
200.5198146954788
 30
0.0
 11
82.18849457833675
 21
200.5198146954788
 31
0.0
  0
LINE
  5
314
330
6FD
100
AcDbEntity
  8
GAIKEI
 62
     1
100
AcDbLine
 10
82.29849457833688
 20
200.5198146954788
 30
0.0
 11
82.18849457833675
 21
200.5198146954788
 31
0.0
  0
LINE
  5
315
330
6FD
100
AcDbEntity
  8
GAIKEI
 62
     1
100
AcDbLine
 10
82.40349457833691
 20
200.4148146954792
 30
0.0
 11
82.40349457833691
 21
200.3048146954791
 31
0.0
  0
LINE
  5
316
330
6FD
100
AcDbEntity
  8
GAIKEI
 62
     1
100
AcDbLine
 10
82.18849457833675
 20
200.5198146954788
 30
0.0
 11
82.18849457833675
 21
200.4498146954791
 31
0.0
  0
LINE
  5
317
330
6FD
100
AcDbEntity
  8
GAIKEI
 62
     1
100
AcDbLine
 10
82.54849457833689
 20
200.5198146954788
 30
0.0
 11
82.54849457833689
 21
200.4498146954791
 31
0.0
  0
LINE
  5
318
330
6FD
100
AcDbEntity
  8
GAIKEI
 62
     1
100
AcDbLine
 10
82.40349457833691
 20
200.6648146954792
 30
0.0
 11
82.33349457833673
 21
200.6648146954792
 31
0.0
  0
LINE
  5
319
330
6FD
100
AcDbEntity
  8
GAIKEI
 62
     1
100
AcDbLine
 10
82.40349457833691
 20
200.3048146954791
 30
0.0
 11
82.33349457833673
 21
200.3048146954791
 31
0.0
  0
LINE
  5
31A
330
6FD
100
AcDbEntity
  8
GAIKEI
 62
     1
100
AcDbLine
 10
82.33349457833673
 20
200.6648146954792
 30
0.0
 11
82.33349457833673
 21
200.5548146954791
 31
0.0
  0
LINE
  5
31B
330
6FD
100
AcDbEntity
  8
GAIKEI
 62
     1
100
AcDbLine
 10
82.54849457833689
 20
200.5198146954788
 30
0.0
 11
82.43849457833675
 21
200.5198146954788
 31
0.0
  0
LINE
  5
31C
330
6FD
100
AcDbEntity
  8
GAIKEI
 62
     1
100
AcDbLine
 10
82.54849457833689
 20
200.4498146954791
 30
0.0
 11
82.43849457833675
 21
200.4498146954791
 31
0.0
  0
LINE
  5
31D
330
6FD
100
AcDbEntity
  8
GAIKEI
 62
     1
100
AcDbLine
 10
82.40349457833691
 20
200.6648146954792
 30
0.0
 11
82.40349457833691
 21
200.5548146954791
 31
0.0
  0
LINE
  5
31E
330
6FD
100
AcDbEntity
  8
GAIKEI
 62
     1
100
AcDbLine
 10
82.29849457833688
 20
200.4498146954791
 30
0.0
 11
82.18849457833675
 21
200.4498146954791
 31
0.0
  0
LINE
  5
31F
330
6FD
100
AcDbEntity
  8
GAIKEI
 62
     1
100
AcDbLine
 10
82.33349457833673
 20
200.4148146954792
 30
0.0
 11
82.33349457833673
 21
200.3048146954791
 31
0.0
  0
ARC
  5
320
330
6FD
100
AcDbEntity
  8
GAIKEI
 62
     1
100
AcDbCircle
 10
83.06131474363317
 20
200.5848157882635
 30
0.0
 40
0.2999999999999324
100
AcDbArc
 50
188.2133010744222
 51
270.0
  0
ARC
  5
321
330
6FD
100
AcDbEntity
  8
GAIKEI
 62
     1
100
AcDbCircle
 10
83.06131474363317
 20
200.5848157882635
 30
0.0
 40
0.0999999999997751
100
AcDbArc
 50
188.2133010742774
 51
270.0
  0
ARC
  5
322
330
6FD
100
AcDbEntity
  8
GAIKEI
 62
     1
100
AcDbCircle
 10
83.06131474363317
 20
200.5848157882635
 30
0.0
 40
0.0999999999997751
100
AcDbArc
 50
188.2133010742774
 51
270.0
  0
ARC
  5
323
330
6FD
100
AcDbEntity
  8
GAIKEI
 62
     1
100
AcDbCircle
 10
83.06131474363317
 20
200.5848157882635
 30
0.0
 40
0.2999999999999324
100
AcDbArc
 50
188.2133010744222
 51
270.0
  0
LINE
  5
324
330
6FD
100
AcDbEntity
  8
GAIKEI
100
AcDbLine
 10
76.86849422901605
 20
203.5348583494458
 30
0.0
 11
76.86849422901605
 21
199.3348320518246
 31
0.0
  0
LINE
  5
325
330
6FD
100
AcDbEntity
  8
GAIKEI
100
AcDbLine
 10
76.86849422901605
 20
203.6348366881077
 30
0.0
 11
76.86849422901605
 21
199.2348366881076
 31
0.0
  0
LINE
  5
326
330
6FD
100
AcDbEntity
  8
GAIKEI
100
AcDbLine
 10
76.86849422901605
 20
203.5348366981077
 30
0.0
 11
76.86849422901605
 21
199.3348366981079
 31
0.0
  0
LINE
  5
327
330
6FD
100
AcDbEntity
  8
GAIKEI
100
AcDbLine
 10
76.86849422901605
 20
203.5348366981077
 30
0.0
 11
76.86849422901605
 21
199.3348366981079
 31
0.0
  0
LINE
  5
328
330
6FD
100
AcDbEntity
  8
GAIKEI
100
AcDbLine
 10
76.86849422901605
 20
203.5348366981077
 30
0.0
 11
76.86849422901605
 21
199.3348366981079
 31
0.0
  0
LINE
  5
329
330
6FD
100
AcDbEntity
  8
GAIKEI
100
AcDbLine
 10
76.86849422901605
 20
203.5348366981077
 30
0.0
 11
76.86849422901605
 21
199.3348366981079
 31
0.0
  0
LINE
  5
32A
330
6FD
100
AcDbEntity
  8
GAIKEI
100
AcDbLine
 10
76.86849422901605
 20
203.6348366881077
 30
0.0
 11
76.86849422901605
 21
199.2348366881076
 31
0.0
  0
LINE
  5
32B
330
6FD
100
AcDbEntity
  8
GAIKEI
100
AcDbLine
 10
76.86849422901605
 20
203.5348583494458
 30
0.0
 11
76.86849422901605
 21
199.3348320518246
 31
0.0
  0
ARC
  5
32C
330
6FD
100
AcDbEntity
  8
GAIKEI
  6
Continuous
100
AcDbCircle
 10
83.74346985658622
 20
201.4348320518245
 30
0.0
 40
8.125000000000488
100
AcDbArc
 50
173.516331271021
 51
180.0
  0
LINE
  5
32D
330
6FD
100
AcDbEntity
  8
GAIKEI
  6
Continuous
100
AcDbLine
 10
75.91846985658595
 20
200.3615581327349
 30
0.0
 11
75.91846985658595
 21
202.5081268633255
 31
0.0
  0
LINE
  5
32E
330
6FD
100
AcDbEntity
  8
GAIKEI
  6
Continuous
100
AcDbLine
 10
75.66846985658594
 20
202.3348320518246
 30
0.0
 11
75.66846985658594
 21
201.4348320518245
 31
0.0
  0
LINE
  5
32F
330
6FD
100
AcDbEntity
  8
GAIKEI
  6
Continuous
100
AcDbLine
 10
75.93323387078182
 20
200.3587213604449
 30
0.0
 11
76.56846985658602
 21
200.3348320518246
 31
0.0
  0
ARC
  5
330
330
6FD
100
AcDbEntity
  8
GAIKEI
  6
Continuous
100
AcDbCircle
 10
83.74346985658622
 20
201.4348320518245
 30
0.0
 40
8.1250000000005
100
AcDbArc
 50
180.0
 51
186.3596602397246
  0
LINE
  5
331
330
6FD
100
AcDbEntity
  8
GAIKEI
  6
Continuous
100
AcDbLine
 10
75.90631908707154
 20
200.3678091262602
 30
0.0
 11
75.66846985658617
 21
200.5348320518244
 31
0.0
  0
ARC
  5
332
330
6FD
100
AcDbEntity
  8
GAIKEI
  6
Continuous
100
AcDbCircle
 10
75.71846985658567
 20
200.5608175126515
 30
0.0
 40
0.05
100
AcDbArc
 50
180.0
 51
234.9226311240769
  0
LINE
  5
333
330
6FD
100
AcDbEntity
  8
GAIKEI
  6
Continuous
100
AcDbLine
 10
75.66846985658594
 20
201.4348320518245
 30
0.0
 11
75.66846985658594
 21
200.5608175126515
 31
0.0
  0
ARC
  5
334
330
6FD
100
AcDbEntity
  8
GAIKEI
  6
Continuous
100
AcDbCircle
 10
75.93511289164235
 20
200.4086860407761
 30
0.0
 40
0.0499999999999968
100
AcDbArc
 50
234.9226311240769
 51
267.8462935564273
  0
POINT
  5
335
330
6FD
100
AcDbEntity
  8
GAIKEI
  6
Continuous
100
AcDbPoint
 10
75.91846985658595
 20
200.3592765904689
 30
0.0
  0
POINT
  5
336
330
6FD
100
AcDbEntity
  8
GAIKEI
  6
Continuous
100
AcDbPoint
 10
75.66846985658594
 20
200.5348320518244
 30
0.0
  0
LINE
  5
337
330
6FD
100
AcDbEntity
  8
GAIKEI
  6
Continuous
100
AcDbLine
 10
76.86849422901605
 20
200.3453091337763
 30
0.0
 11
76.56846985658602
 21
200.3348320518246
 31
0.0
  0
LINE
  5
338
330
6FD
100
AcDbEntity
  8
GAIKEI
  6
Continuous
100
AcDbLine
 10
76.57295919662238
 20
202.5650220891382
 30
0.0
 11
75.93210645826593
 21
202.540921551403
 31
0.0
  0
LINE
  5
339
330
6FD
100
AcDbEntity
  8
GAIKEI
  6
Continuous
100
AcDbLine
 10
76.56846985658602
 20
202.5348320518244
 30
0.0
 11
75.93323387078203
 21
202.5109427432042
 31
0.0
  0
ARC
  5
33A
330
6FD
100
AcDbEntity
  8
GAIKEI
  6
Continuous
100
AcDbCircle
 10
75.93511289164235
 20
202.460978062873
 30
0.0
 40
0.050000000000024
100
AcDbArc
 50
92.15370644342923
 51
125.077368875923
  0
ARC
  5
33B
330
6FD
100
AcDbEntity
  8
GAIKEI
  6
Continuous
100
AcDbCircle
 10
75.93511289164235
 20
202.460978062873
 30
0.0
 40
0.0800000000000596
100
AcDbArc
 50
92.15370644346831
 51
125.077368875923
  0
ARC
  5
33C
330
6FD
100
AcDbEntity
  8
GAIKEI
  6
Continuous
100
AcDbCircle
 10
75.71846985658567
 20
202.3088465909975
 30
0.0
 40
0.0500000000001433
100
AcDbArc
 50
125.0773688758126
 51
180.0
  0
ARC
  5
33D
330
6FD
100
AcDbEntity
  8
GAIKEI
  6
Continuous
100
AcDbCircle
 10
75.72011689338023
 20
202.3466611080737
 30
0.0
 40
0.0499999999999968
100
AcDbArc
 50
125.077368875923
 51
173.5163312710866
  0
LINE
  5
33E
330
6FD
100
AcDbEntity
  8
GAIKEI
  6
Continuous
100
AcDbLine
 10
75.68973575417705
 20
202.3497654296755
 30
0.0
 11
75.90637878923326
 21
202.5018969015509
 31
0.0
  0
LINE
  5
33F
330
6FD
100
AcDbEntity
  8
GAIKEI
  6
Continuous
100
AcDbLine
 10
75.69138279097116
 20
202.3875799467516
 30
0.0
 11
75.8891383277878
 21
202.5264482047576
 31
0.0
  0
POINT
  5
340
330
6FD
100
AcDbEntity
  8
GAIKEI
  6
Continuous
100
AcDbPoint
 10
75.91846985658595
 20
202.5103875131802
 30
0.0
  0
POINT
  5
341
330
6FD
100
AcDbEntity
  8
GAIKEI
  6
Continuous
100
AcDbPoint
 10
75.66846985658594
 20
202.3348320518246
 30
0.0
  0
ARC
  5
342
330
6FD
100
AcDbEntity
  8
GAIKEI
  6
Continuous
100
AcDbCircle
 10
76.57184212488345
 20
202.5150345691886
 30
0.0
 40
0.050000000000018
100
AcDbArc
 50
21.16339671159484
 51
95.58758932063822
  0
ARC
  5
343
330
6FD
100
AcDbEntity
  8
GAIKEI
  6
Continuous
100
AcDbCircle
 10
76.56846985658581
 20
202.5348320518247
 30
0.0
 40
0.030021206781521
100
AcDbArc
 50
90.0
 51
92.13788697638307
  0
LINE
  5
344
330
6FD
100
AcDbEntity
  8
GAIKEI
  6
Continuous
100
AcDbLine
 10
76.56846985658602
 20
202.5348320518244
 30
0.0
 11
76.86849422901605
 21
202.5243549698732
 31
0.0
  0
LINE
  5
345
330
6FD
100
AcDbEntity
  8
GAIKEI
100
AcDbLine
 10
76.96849422901594
 20
199.2348320518247
 30
0.0
 11
76.86849422901605
 21
199.3348320518246
 31
0.0
  0
LINE
  5
346
330
6FD
100
AcDbEntity
  8
GAIKEI
100
AcDbLine
 10
76.96849422901594
 20
199.2348320518247
 30
0.0
 11
76.86849422901605
 21
199.3348320518246
 31
0.0
  0
LINE
  5
347
330
6FD
100
AcDbEntity
  8
GAIKEI
100
AcDbLine
 10
76.96848092797608
 20
203.6348320518246
 30
0.0
 11
76.86849422901605
 21
203.5348583494458
 31
0.0
  0
LINE
  5
348
330
6FD
100
AcDbEntity
  8
GAIKEI
100
AcDbLine
 10
76.96848092797608
 20
203.6348320518246
 30
0.0
 11
76.86849422901605
 21
203.5348583494458
 31
0.0
  0
LINE
  5
349
330
6FD
100
AcDbEntity
  8
GAIKEI
 62
     1
100
AcDbLine
 10
56.70624556174403
 20
201.9348164032415
 30
0.0
 11
55.20624556174404
 21
201.9348164032415
 31
0.0
  0
LINE
  5
34A
330
6FD
100
AcDbEntity
  8
GAIKEI
 62
     1
100
AcDbLine
 10
55.20624556174404
 20
201.1348164032415
 30
0.0
 11
56.70624556174403
 21
201.1348164032415
 31
0.0
  0
ARC
  5
34B
330
6FD
100
AcDbEntity
  8
GAIKEI
 62
     1
100
AcDbCircle
 10
55.60978186489251
 20
203.0948107139232
 30
0.0
 40
0.1
100
AcDbArc
 50
270.0
 51
0.0
  0
ARC
  5
34C
330
6FD
100
AcDbEntity
  8
GAIKEI
  6
Continuous
 62
     1
100
AcDbCircle
 10
53.50624638778527
 20
201.5348165993969
 30
0.0
 40
1.449999999999875
100
AcDbArc
 50
44.99999999999121
 51
90.0
  0
ARC
  5
34D
330
6FD
100
AcDbEntity
  8
GAIKEI
  6
Continuous
 62
     1
100
AcDbCircle
 10
54.98387855060764
 20
203.0948107139232
 30
0.0
 40
0.1
100
AcDbArc
 50
180.0
 51
270.0
  0
LINE
  5
34E
330
6FD
100
AcDbEntity
  8
GAIKEI
 62
     1
100
AcDbLine
 10
55.20624556174404
 20
201.9348164032415
 30
0.0
 11
55.20624556174404
 21
201.1348164032415
 31
0.0
  0
LINE
  5
34F
330
6FD
100
AcDbEntity
  8
GAIKEI
 62
     1
100
AcDbLine
 10
54.05621492830004
 20
200.5822200529285
 30
0.0
 11
53.95621492829991
 21
200.7554251336853
 31
0.0
  0
LINE
  5
350
330
6FD
100
AcDbEntity
  8
GAIKEI
 62
     1
100
AcDbLine
 10
53.50621492829986
 20
200.4348479970915
 30
0.0
 11
53.50621492829986
 21
200.6348479970914
 31
0.0
  0
LINE
  5
351
330
6FD
100
AcDbEntity
  8
GAIKEI
 62
     1
100
AcDbLine
 10
54.45884287246282
 20
200.9848479970915
 30
0.0
 11
54.28563779170598
 21
201.0848479970916
 31
0.0
  0
LINE
  5
352
330
6FD
100
AcDbEntity
  8
GAIKEI
 62
     1
100
AcDbLine
 10
54.05621492829982
 20
202.4874759412544
 30
0.0
 11
53.95621492829991
 21
202.3142708604976
 31
0.0
  0
LINE
  5
353
330
6FD
100
AcDbEntity
  8
GAIKEI
 62
     1
100
AcDbLine
 10
53.50621492829986
 20
202.6348479970916
 30
0.0
 11
53.50621492829986
 21
202.4348479970915
 31
0.0
  0
LINE
  5
354
330
6FD
100
AcDbEntity
  8
GAIKEI
 62
     1
100
AcDbLine
 10
54.45884287246282
 20
202.0848479970916
 30
0.0
 11
54.28563779170577
 21
201.9848479970915
 31
0.0
  0
LINE
  5
355
330
6FD
100
AcDbEntity
  8
GAIKEI
 62
     1
100
AcDbLine
 10
54.6062149283
 20
201.5348479970917
 30
0.0
 11
54.40621492829996
 21
201.5348479970917
 31
0.0
  0
LINE
  5
356
330
6FD
100
AcDbEntity
  8
GAIKEI
  6
Continuous
 62
     1
100
AcDbLine
 10
54.53155122050565
 20
202.5601214321173
 30
0.0
 11
54.33703589165907
 21
202.7794110086388
 31
0.0
  0
LINE
  5
357
330
6FD
100
AcDbEntity
  8
GAIKEI
  6
Continuous
 62
     1
100
AcDbLine
 10
54.28155122050565
 20
202.7051214321175
 30
0.0
 11
54.53155122050565
 21
202.5601214321173
 31
0.0
  0
LINE
  5
358
330
6FD
100
AcDbEntity
  8
GAIKEI
  6
Continuous
 62
     1
100
AcDbLine
 10
54.28155122050565
 20
202.7051214321175
 30
0.0
 11
54.33703589165907
 21
202.7794110086388
 31
0.0
  0
LINE
  5
359
330
6FD
100
AcDbEntity
  8
GAIKEI
 62
     1
100
AcDbLine
 10
55.60978186489251
 20
202.9948107139232
 30
0.0
 11
54.98387855060764
 21
202.9948107139232
 31
0.0
  0
LINE
  5
35A
330
6FD
100
AcDbEntity
  8
GAIKEI
 62
     1
100
AcDbLine
 10
55.60978186489251
 20
202.9948107139232
 30
0.0
 11
54.98387855060764
 21
202.9948107139232
 31
0.0
  0
ARC
  5
35B
330
6FD
100
AcDbEntity
  8
GAIKEI
 62
     1
100
AcDbCircle
 10
55.60978186489251
 20
203.2947886156715
 30
0.0
 40
0.1
100
AcDbArc
 50
0.0
 51
90.0
  0
LINE
  5
35C
330
6FD
100
AcDbEntity
  8
GAIKEI
  6
Continuous
 62
     1
100
AcDbLine
 10
54.88387855060772
 20
203.0948107139232
 30
0.0
 11
54.88387855060772
 21
203.2947886156715
 31
0.0
  0
ARC
  5
35D
330
6FD
100
AcDbEntity
  8
GAIKEI
 62
     1
100
AcDbCircle
 10
54.98387855060764
 20
203.2947886156715
 30
0.0
 40
0.1
100
AcDbArc
 50
90.0
 51
180.0
  0
LINE
  5
35E
330
6FD
100
AcDbEntity
  8
GAIKEI
 62
     1
100
AcDbLine
 10
54.98387855060764
 20
203.3947886156716
 30
0.0
 11
55.60978186489251
 21
203.3947886156716
 31
0.0
  0
LINE
  5
35F
330
6FD
100
AcDbEntity
  8
GAIKEI
 62
     1
100
AcDbLine
 10
54.91371408620171
 20
203.3656695938357
 30
0.0
 11
54.91848796088629
 21
203.3704434685201
 31
0.0
  0
LINE
  5
360
330
6FD
100
AcDbEntity
  8
GAIKEI
 62
     1
100
AcDbLine
 10
55.70978186489242
 20
203.2947886156715
 30
0.0
 11
55.70978186489242
 21
203.0948107139232
 31
0.0
  0
ARC
  5
361
330
6FD
100
AcDbEntity
  8
GAIKEI
  6
HIDDEN2
 62
     1
100
AcDbCircle
 10
59.15622983200227
 20
203.1248148577952
 30
0.0
 40
0.3
100
AcDbArc
 50
90.0
 51
270.0
  0
ARC
  5
363
330
6FD
100
AcDbEntity
  8
GAIKEI
  6
HIDDEN2
 62
     1
100
AcDbCircle
 10
59.15622983200227
 20
203.1248148577952
 30
0.0
 40
0.3
100
AcDbArc
 50
90.0
 51
270.0
  0
LINE
  5
364
330
6FD
100
AcDbEntity
  8
GAIKEI
  6
HIDDEN2
 62
     1
100
AcDbLine
 10
57.20624556174403
 20
203.7348148577953
 30
0.0
 11
57.20624556174403
 21
199.3348148577952
 31
0.0
  0
LINE
  5
365
330
6FD
100
AcDbEntity
  8
GAIKEI
  6
HIDDEN2
100
AcDbLine
 10
57.20624556174403
 20
203.7348148577953
 30
0.0
 11
57.20624556174403
 21
199.3348148577952
 31
0.0
  0
LINE
  5
366
330
6FD
100
AcDbEntity
  8
GAIKEI
100
AcDbLine
 10
57.00621410225903
 20
203.7348148577953
 30
0.0
 11
57.00621410225903
 21
199.3348148577952
 31
0.0
  0
LINE
  5
367
330
6FD
100
AcDbEntity
  8
GAIKEI
  6
HIDDEN2
 62
     1
100
AcDbLine
 10
60.00622983200242
 20
203.5348148577953
 30
0.0
 11
60.00622983200242
 21
199.5348148577953
 31
0.0
  0
LINE
  5
368
330
6FD
100
AcDbEntity
  8
GAIKEI
  6
HIDDEN2
 62
     1
100
AcDbLine
 10
60.00622983200242
 20
203.5348148577953
 30
0.0
 11
60.00622983200242
 21
199.5348148577953
 31
0.0
  0
ARC
  5
369
330
6FD
100
AcDbEntity
  8
GAIKEI
  6
HIDDEN2
 62
     1
100
AcDbCircle
 10
59.55622983200236
 20
203.1248148577952
 30
0.0
 40
0.3
100
AcDbArc
 50
270.0
 51
0.0
  0
ARC
  5
36A
330
6FD
100
AcDbEntity
  8
GAIKEI
  6
HIDDEN2
 62
     1
100
AcDbCircle
 10
59.55622983200236
 20
203.1248148577952
 30
0.0
 40
0.3
100
AcDbArc
 50
270.0
 51
0.0
  0
LINE
  5
36B
330
6FD
100
AcDbEntity
  8
GAIKEI
  6
HIDDEN2
 62
     1
100
AcDbLine
 10
57.00624556174397
 20
199.3348148577952
 30
0.0
 11
59.80622983200237
 21
199.3348148577952
 31
0.0
  0
LINE
  5
36C
330
6FD
100
AcDbEntity
  8
GAIKEI
  6
HIDDEN2
 62
     1
100
AcDbLine
 10
57.00624556174397
 20
199.3348148577952
 30
0.0
 11
59.80622983200237
 21
199.3348148577952
 31
0.0
  0
LINE
  5
36D
330
6FD
100
AcDbEntity
  8
GAIKEI
 62
     1
100
AcDbLine
 10
56.70624556174403
 20
201.1348164032415
 30
0.0
 11
56.70624556174403
 21
201.9348164032415
 31
0.0
  0
ARC
  5
36E
330
6FD
100
AcDbEntity
  8
GAIKEI
  6
HIDDEN2
 62
     1
100
AcDbCircle
 10
59.80622983200237
 20
199.5348148577953
 30
0.0
 40
0.2
100
AcDbArc
 50
270.0
 51
0.0
  0
ARC
  5
36F
330
6FD
100
AcDbEntity
  8
GAIKEI
  6
HIDDEN2
 62
     1
100
AcDbCircle
 10
59.80622983200237
 20
199.5348148577953
 30
0.0
 40
0.2
100
AcDbArc
 50
270.0
 51
0.0
  0
LINE
  5
370
330
6FD
100
AcDbEntity
  8
GAIKEI
  6
HIDDEN2
 62
     1
100
AcDbLine
 10
59.15622983200227
 20
202.8248148577952
 30
0.0
 11
59.55622983200236
 21
202.8248148577952
 31
0.0
  0
LINE
  5
371
330
6FD
100
AcDbEntity
  8
GAIKEI
  6
HIDDEN2
 62
     1
100
AcDbLine
 10
59.15622983200227
 20
202.8248148577952
 30
0.0
 11
59.55622983200236
 21
202.8248148577952
 31
0.0
  0
LWPOLYLINE
  5
372
330
6FD
100
AcDbEntity
  8
GAIKEI
  6
HIDDEN2
 62
     1
100
AcDbPolyline
 90
        6
 70
     1
 43
0.0
 10
59.15622983200227
 20
200.2448148577953
 10
59.55622983200236
 20
200.2448148577953
 10
59.15622983200227
 20
200.2448148577953
 42
1.0
 10
59.15622983200227
 20
199.6448148577954
 10
59.55622983200236
 20
199.6448148577954
 10
59.15622983200227
 20
199.6448148577954
 42
-1.0
  0
LWPOLYLINE
  5
373
330
6FD
100
AcDbEntity
  8
GAIKEI
  6
HIDDEN2
 62
     1
100
AcDbPolyline
 90
        3
 70
     0
 43
0.0
 10
59.55622983200236
 20
199.6448148577954
 42
0.4142135623730951
 10
59.85622983200233
 20
199.9448148577953
 42
0.4142135623730951
 10
59.55622983200236
 20
200.2448148577953
  0
LINE
  5
374
330
6FD
100
AcDbEntity
  8
GAIKEI
  6
HIDDEN2
 62
     1
100
AcDbLine
 10
57.00624556174397
 20
203.7348148577953
 30
0.0
 11
59.80622983200237
 21
203.7348148577953
 31
0.0
  0
LINE
  5
375
330
6FD
100
AcDbEntity
  8
GAIKEI
  6
HIDDEN2
 62
     1
100
AcDbLine
 10
57.00624556174397
 20
203.7348148577953
 30
0.0
 11
59.80622983200237
 21
203.7348148577953
 31
0.0
  0
LINE
  5
376
330
6FD
100
AcDbEntity
  8
GAIKEI
100
AcDbLine
 10
57.00621410225903
 20
203.3347884758307
 30
0.0
 11
57.00621410225903
 21
203.1347898527395
 31
0.0
  0
LINE
  5
377
330
6FD
100
AcDbEntity
  8
GAIKEI
100
AcDbLine
 10
57.00621410225903
 20
203.7348148577953
 30
0.0
 11
57.00621410225903
 21
203.3347884758307
 31
0.0
  0
ARC
  5
378
330
6FD
100
AcDbEntity
  8
GAIKEI
  6
HIDDEN2
 62
     1
100
AcDbCircle
 10
59.80622983200237
 20
203.5348148577953
 30
0.0
 40
0.2
100
AcDbArc
 50
0.0
 51
90.0
  0
ARC
  5
379
330
6FD
100
AcDbEntity
  8
GAIKEI
  6
HIDDEN2
 62
     1
100
AcDbCircle
 10
59.80622983200237
 20
203.5348148577953
 30
0.0
 40
0.2
100
AcDbArc
 50
0.0
 51
90.0
  0
ARC
  5
37A
330
6FD
100
AcDbEntity
  8
GAIKEI
  6
HIDDEN2
 62
     1
100
AcDbCircle
 10
59.55622983200236
 20
203.1248148577952
 30
0.0
 40
0.3
100
AcDbArc
 50
0.0
 51
90.0
  0
ARC
  5
37B
330
6FD
100
AcDbEntity
  8
GAIKEI
  6
HIDDEN2
 62
     1
100
AcDbCircle
 10
59.55622983200236
 20
203.1248148577952
 30
0.0
 40
0.3
100
AcDbArc
 50
0.0
 51
90.0
  0
LINE
  5
37C
330
6FD
100
AcDbEntity
  8
GAIKEI
  6
HIDDEN2
 62
     1
100
AcDbLine
 10
59.15622983200227
 20
203.4248148577951
 30
0.0
 11
59.55622983200236
 21
203.4248148577951
 31
0.0
  0
LINE
  5
37D
330
6FD
100
AcDbEntity
  8
GAIKEI
  6
HIDDEN2
 62
     1
100
AcDbLine
 10
59.15622983200227
 20
203.4248148577951
 30
0.0
 11
59.55622983200236
 21
203.4248148577951
 31
0.0
  0
DIMENSION
  5
37E
330
6FD
100
AcDbEntity
  8
SUNPO
100
AcDbDimension
  2
*D8
 10
67.99041828260442
 20
203.7348148577953
 30
0.0
 11
66.24041828260439
 21
210.3181481911287
 31
0.0
 70
    33
  1
44
 71
     5
 42
4.400000000000119
  3
STANDARD
100
AcDbAlignedDimension
 13
59.99041828260441
 23
199.3348148577952
 33
0.0
 14
59.99041828260441
 24
203.7348148577953
 34
0.0
1001
ACAD
1000
DSTYLE
1002
{
1070
    40
1040
1.0
1070
   140
1040
2.5
1070
   147
1040
0.5
1070
   172
1070
     1
1070
   279
1070
     0
1070
   343
1005
712
1070
   344
1005
712
1002
}
  0
ARC
  5
38F
330
6FD
100
AcDbEntity
  8
GAIKEI
 62
     1
100
AcDbCircle
 10
45.83187231922875
 20
203.0428537950108
 30
0.0
 40
0.05
100
AcDbArc
 50
180.0
 51
270.0
  0
ARC
  5
390
330
6FD
100
AcDbEntity
  8
GAIKEI
 62
     1
100
AcDbCircle
 10
46.8818723192287
 20
203.0428537950111
 30
0.0
 40
0.05
100
AcDbArc
 50
270.0
 51
0.0
  0
LINE
  5
391
330
6FD
100
AcDbEntity
  8
GAIKEI
 62
     1
100
AcDbLine
 10
49.63124523570286
 20
201.0597878355154
 30
0.0
 11
50.63124523570309
 21
201.0597878355154
 31
0.0
  0
LINE
  5
392
330
6FD
100
AcDbEntity
  8
GAIKEI
 62
     1
100
AcDbLine
 10
50.63124523570309
 20
200.4097878355155
 30
0.0
 11
49.63124523570286
 21
200.4097878355155
 31
0.0
  0
LINE
  5
393
330
6FD
100
AcDbEntity
  8
GAIKEI
 62
     1
100
AcDbLine
 10
49.63124523570286
 20
201.0597878355154
 30
0.0
 11
50.63124523570309
 21
201.0597878355154
 31
0.0
  0
LINE
  5
394
330
6FD
100
AcDbEntity
  8
GAIKEI
 62
     1
100
AcDbLine
 10
50.63124523570309
 20
200.4097878355155
 30
0.0
 11
49.63124523570286
 21
200.4097878355155
 31
0.0
  0
LINE
  5
395
330
6FD
100
AcDbEntity
  8
GAIKEI
 62
     1
100
AcDbLine
 10
50.63124556174444
 20
200.4097708574475
 30
0.0
 11
49.63124556174444
 21
200.4097708574475
 31
0.0
  0
LINE
  5
396
330
6FD
100
AcDbEntity
  8
GAIKEI
 62
     1
100
AcDbLine
 10
50.63124556174444
 20
200.4097708574475
 30
0.0
 11
49.63124556174444
 21
200.4097708574475
 31
0.0
  0
LINE
  5
397
330
6FD
100
AcDbEntity
  8
GAIKEI
 62
     1
100
AcDbLine
 10
49.63124556174444
 20
201.0597659506432
 30
0.0
 11
50.63124556174444
 21
201.0597659506432
 31
0.0
  0
LINE
  5
398
330
6FD
100
AcDbEntity
  8
GAIKEI
 62
     1
100
AcDbLine
 10
49.63124556174444
 20
201.0597659506432
 30
0.0
 11
50.63124556174444
 21
201.0597659506432
 31
0.0
  0
LINE
  5
399
330
6FD
100
AcDbEntity
  8
GAIKEI
 62
     1
100
AcDbLine
 10
50.63124556174444
 20
200.4097708574475
 30
0.0
 11
49.63124556174444
 21
200.4097708574475
 31
0.0
  0
LINE
  5
39A
330
6FD
100
AcDbEntity
  8
GAIKEI
 62
     1
100
AcDbLine
 10
50.63124556174444
 20
200.4097708574475
 30
0.0
 11
49.63124556174444
 21
200.4097708574475
 31
0.0
  0
LINE
  5
39B
330
6FD
100
AcDbEntity
  8
GAIKEI
 62
     1
100
AcDbLine
 10
49.63124556174444
 20
201.0597659506432
 30
0.0
 11
50.63124556174444
 21
201.0597659506432
 31
0.0
  0
LINE
  5
39C
330
6FD
100
AcDbEntity
  8
GAIKEI
 62
     1
100
AcDbLine
 10
49.63124556174444
 20
201.0597659506432
 30
0.0
 11
50.63124556174444
 21
201.0597659506432
 31
0.0
  0
LINE
  5
39D
330
6FD
100
AcDbEntity
  8
GAIKEI
 62
     1
100
AcDbLine
 10
50.63124556174444
 20
200.4097708574475
 30
0.0
 11
49.63124556174444
 21
200.4097708574475
 31
0.0
  0
LINE
  5
39E
330
6FD
100
AcDbEntity
  8
GAIKEI
 62
     1
100
AcDbLine
 10
49.63124556174444
 20
201.0597659506432
 30
0.0
 11
50.63124556174444
 21
201.0597659506432
 31
0.0
  0
LINE
  5
39F
330
6FD
100
AcDbEntity
  8
GAIKEI
 62
     1
100
AcDbLine
 10
49.63124556174444
 20
201.0597659506432
 30
0.0
 11
50.63124556174444
 21
201.0597659506432
 31
0.0
  0
LINE
  5
3A0
330
6FD
100
AcDbEntity
  8
GAIKEI
 62
     1
100
AcDbLine
 10
50.63124556174444
 20
200.4097708574475
 30
0.0
 11
49.63124556174444
 21
200.4097708574475
 31
0.0
  0
LINE
  5
3A1
330
6FD
100
AcDbEntity
  8
GAIKEI
 62
     1
100
AcDbLine
 10
49.63124556174444
 20
201.0597659506432
 30
0.0
 11
50.63124556174444
 21
201.0597659506432
 31
0.0
  0
LINE
  5
3A2
330
6FD
100
AcDbEntity
  8
GAIKEI
 62
     1
100
AcDbLine
 10
50.63124556174444
 20
200.4097708574475
 30
0.0
 11
49.63124556174444
 21
200.4097708574475
 31
0.0
  0
LINE
  5
3A3
330
6FD
100
AcDbEntity
  8
GAIKEI
 62
     1
100
AcDbLine
 10
49.63124556174444
 20
201.0597659506432
 30
0.0
 11
50.63124556174444
 21
201.0597659506432
 31
0.0
  0
LINE
  5
3A4
330
6FD
100
AcDbEntity
  8
GAIKEI
 62
     1
100
AcDbLine
 10
50.63124556174444
 20
200.4097880488945
 30
0.0
 11
49.63124556174444
 21
200.4097880488945
 31
0.0
  0
LINE
  5
3A5
330
6FD
100
AcDbEntity
  8
GAIKEI
 62
     1
100
AcDbLine
 10
49.63124556174444
 20
201.0597659506432
 30
0.0
 11
50.63124556174444
 21
201.0597659506432
 31
0.0
  0
LINE
  5
3A6
330
6FD
100
AcDbEntity
  8
GAIKEI
 62
     1
100
AcDbLine
 10
50.63124556174444
 20
200.4097880488945
 30
0.0
 11
49.63124556174444
 21
200.4097880488945
 31
0.0
  0
LINE
  5
3A7
330
6FD
100
AcDbEntity
  8
GAIKEI
 62
     1
100
AcDbLine
 10
49.63124556174444
 20
201.0597659506432
 30
0.0
 11
50.63124556174444
 21
201.0597659506432
 31
0.0
  0
LINE
  5
3A8
330
6FD
100
AcDbEntity
  8
GAIKEI
 62
     1
100
AcDbLine
 10
50.63124556174444
 20
200.4097659506431
 30
0.0
 11
49.63124556174444
 21
200.4097659506431
 31
0.0
  0
LINE
  5
3A9
330
6FD
100
AcDbEntity
  8
GAIKEI
 62
     1
100
AcDbLine
 10
49.63124556174444
 20
201.0597659506432
 30
0.0
 11
50.63124556174444
 21
201.0597659506432
 31
0.0
  0
LINE
  5
3AA
330
6FD
100
AcDbEntity
  8
GAIKEI
 62
     1
100
AcDbLine
 10
50.63124556174444
 20
200.4097659506431
 30
0.0
 11
49.63124556174444
 21
200.4097659506431
 31
0.0
  0
LINE
  5
3AB
330
6FD
100
AcDbEntity
  8
GAIKEI
 62
     1
100
AcDbLine
 10
49.63124556174444
 20
201.0597659506432
 30
0.0
 11
50.63124556174444
 21
201.0597659506432
 31
0.0
  0
LINE
  5
3AC
330
6FD
100
AcDbEntity
  8
GAIKEI
 62
     1
100
AcDbLine
 10
50.63124556174444
 20
200.4097659506431
 30
0.0
 11
49.63124556174444
 21
200.4097659506431
 31
0.0
  0
LINE
  5
3AD
330
6FD
100
AcDbEntity
  8
GAIKEI
 62
     1
100
AcDbLine
 10
49.63124556174444
 20
201.0597659506432
 30
0.0
 11
50.63124556174444
 21
201.0597659506432
 31
0.0
  0
LINE
  5
3AE
330
6FD
100
AcDbEntity
  8
GAIKEI
 62
     1
100
AcDbLine
 10
50.63124556174444
 20
200.4097659506431
 30
0.0
 11
49.63124556174444
 21
200.4097659506431
 31
0.0
  0
LINE
  5
3AF
330
6FD
100
AcDbEntity
  8
GAIKEI
 62
     1
100
AcDbLine
 10
49.63124556174444
 20
201.0597659506432
 30
0.0
 11
50.63124556174444
 21
201.0597659506432
 31
0.0
  0
LINE
  5
3B0
330
6FD
100
AcDbEntity
  8
GAIKEI
 62
     1
100
AcDbLine
 10
50.63124556174444
 20
200.4097659506431
 30
0.0
 11
49.63124556174444
 21
200.4097659506431
 31
0.0
  0
LINE
  5
3B1
330
6FD
100
AcDbEntity
  8
GAIKEI
 62
     1
100
AcDbLine
 10
49.63124556174444
 20
201.0597659506432
 30
0.0
 11
50.63124556174444
 21
201.0597659506432
 31
0.0
  0
LINE
  5
3B2
330
6FD
100
AcDbEntity
  8
GAIKEI
 62
     1
100
AcDbLine
 10
50.63124556174444
 20
200.4097659506431
 30
0.0
 11
49.63124556174444
 21
200.4097659506431
 31
0.0
  0
LINE
  5
3B3
330
6FD
100
AcDbEntity
  8
GAIKEI
 62
     1
100
AcDbLine
 10
50.53124551025621
 20
200.4848420590063
 30
0.0
 11
49.73124551025627
 21
200.4848420590063
 31
0.0
  0
LINE
  5
3B4
330
6FD
100
AcDbEntity
  8
GAIKEI
 62
     1
100
AcDbLine
 10
49.73124551025627
 20
200.9848420590063
 30
0.0
 11
50.53124551025621
 21
200.9848420590063
 31
0.0
  0
LINE
  5
3B5
330
6FD
100
AcDbEntity
  8
GAIKEI
 62
     1
100
AcDbLine
 10
49.63124523570286
 20
202.4597878355155
 30
0.0
 11
50.63124523570309
 21
202.4597878355155
 31
0.0
  0
LINE
  5
3B6
330
6FD
100
AcDbEntity
  8
GAIKEI
 62
     1
100
AcDbLine
 10
50.63124523570309
 20
201.8097878355154
 30
0.0
 11
49.63124523570286
 21
201.8097878355154
 31
0.0
  0
LINE
  5
3B7
330
6FD
100
AcDbEntity
  8
GAIKEI
 62
     1
100
AcDbLine
 10
49.63124523570286
 20
202.4597878355155
 30
0.0
 11
50.63124523570309
 21
202.4597878355155
 31
0.0
  0
LINE
  5
3B8
330
6FD
100
AcDbEntity
  8
GAIKEI
 62
     1
100
AcDbLine
 10
50.63124523570309
 20
201.8097878355154
 30
0.0
 11
49.63124523570286
 21
201.8097878355154
 31
0.0
  0
LINE
  5
3B9
330
6FD
100
AcDbEntity
  8
GAIKEI
 62
     1
100
AcDbLine
 10
50.63124556174444
 20
201.8098027693072
 30
0.0
 11
49.63124556174444
 21
201.8098027693072
 31
0.0
  0
LINE
  5
3BA
330
6FD
100
AcDbEntity
  8
GAIKEI
 62
     1
100
AcDbLine
 10
50.63124556174444
 20
201.8098027693072
 30
0.0
 11
49.63124556174444
 21
201.8098027693072
 31
0.0
  0
LINE
  5
3BB
330
6FD
100
AcDbEntity
  8
GAIKEI
 62
     1
100
AcDbLine
 10
49.63124556174444
 20
202.4597978625031
 30
0.0
 11
50.63124556174444
 21
202.4597978625031
 31
0.0
  0
LINE
  5
3BC
330
6FD
100
AcDbEntity
  8
GAIKEI
 62
     1
100
AcDbLine
 10
49.63124556174444
 20
202.4597978625031
 30
0.0
 11
50.63124556174444
 21
202.4597978625031
 31
0.0
  0
LINE
  5
3BD
330
6FD
100
AcDbEntity
  8
GAIKEI
 62
     1
100
AcDbLine
 10
50.63124556174444
 20
201.8098027693072
 30
0.0
 11
49.63124556174444
 21
201.8098027693072
 31
0.0
  0
LINE
  5
3BE
330
6FD
100
AcDbEntity
  8
GAIKEI
 62
     1
100
AcDbLine
 10
50.63124556174444
 20
201.8098027693072
 30
0.0
 11
49.63124556174444
 21
201.8098027693072
 31
0.0
  0
LINE
  5
3BF
330
6FD
100
AcDbEntity
  8
GAIKEI
 62
     1
100
AcDbLine
 10
49.63124556174444
 20
202.4597978625031
 30
0.0
 11
50.63124556174444
 21
202.4597978625031
 31
0.0
  0
LINE
  5
3C0
330
6FD
100
AcDbEntity
  8
GAIKEI
 62
     1
100
AcDbLine
 10
49.63124556174444
 20
202.4597978625031
 30
0.0
 11
50.63124556174444
 21
202.4597978625031
 31
0.0
  0
LINE
  5
3C1
330
6FD
100
AcDbEntity
  8
GAIKEI
 62
     1
100
AcDbLine
 10
50.63124556174444
 20
201.8098027693072
 30
0.0
 11
49.63124556174444
 21
201.8098027693072
 31
0.0
  0
LINE
  5
3C2
330
6FD
100
AcDbEntity
  8
GAIKEI
 62
     1
100
AcDbLine
 10
49.63124556174444
 20
202.4597978625031
 30
0.0
 11
50.63124556174444
 21
202.4597978625031
 31
0.0
  0
LINE
  5
3C3
330
6FD
100
AcDbEntity
  8
GAIKEI
 62
     1
100
AcDbLine
 10
49.63124556174444
 20
202.4597978625031
 30
0.0
 11
50.63124556174444
 21
202.4597978625031
 31
0.0
  0
LINE
  5
3C4
330
6FD
100
AcDbEntity
  8
GAIKEI
 62
     1
100
AcDbLine
 10
50.63124556174444
 20
201.8098027693072
 30
0.0
 11
49.63124556174444
 21
201.8098027693072
 31
0.0
  0
LINE
  5
3C5
330
6FD
100
AcDbEntity
  8
GAIKEI
 62
     1
100
AcDbLine
 10
49.63124556174444
 20
202.4597978625031
 30
0.0
 11
50.63124556174444
 21
202.4597978625031
 31
0.0
  0
LINE
  5
3C6
330
6FD
100
AcDbEntity
  8
GAIKEI
 62
     1
100
AcDbLine
 10
50.63124556174444
 20
201.8098027693072
 30
0.0
 11
49.63124556174444
 21
201.8098027693072
 31
0.0
  0
LINE
  5
3C7
330
6FD
100
AcDbEntity
  8
GAIKEI
 62
     1
100
AcDbLine
 10
49.63124556174444
 20
202.4597978625031
 30
0.0
 11
50.63124556174444
 21
202.4597978625031
 31
0.0
  0
LINE
  5
3C8
330
6FD
100
AcDbEntity
  8
GAIKEI
 62
     1
100
AcDbLine
 10
50.63124556174444
 20
201.8098199607546
 30
0.0
 11
49.63124556174444
 21
201.8098199607546
 31
0.0
  0
LINE
  5
3C9
330
6FD
100
AcDbEntity
  8
GAIKEI
 62
     1
100
AcDbLine
 10
49.63124556174444
 20
202.4597978625031
 30
0.0
 11
50.63124556174444
 21
202.4597978625031
 31
0.0
  0
LINE
  5
3CA
330
6FD
100
AcDbEntity
  8
GAIKEI
 62
     1
100
AcDbLine
 10
50.63124556174444
 20
201.8098199607546
 30
0.0
 11
49.63124556174444
 21
201.8098199607546
 31
0.0
  0
LINE
  5
3CB
330
6FD
100
AcDbEntity
  8
GAIKEI
 62
     1
100
AcDbLine
 10
49.63124556174444
 20
202.4597978625031
 30
0.0
 11
50.63124556174444
 21
202.4597978625031
 31
0.0
  0
LINE
  5
3CC
330
6FD
100
AcDbEntity
  8
GAIKEI
 62
     1
100
AcDbLine
 10
50.63124556174444
 20
201.8097978625031
 30
0.0
 11
49.63124556174444
 21
201.8097978625031
 31
0.0
  0
LINE
  5
3CD
330
6FD
100
AcDbEntity
  8
GAIKEI
 62
     1
100
AcDbLine
 10
49.63124556174444
 20
202.4597978625031
 30
0.0
 11
50.63124556174444
 21
202.4597978625031
 31
0.0
  0
LINE
  5
3CE
330
6FD
100
AcDbEntity
  8
GAIKEI
 62
     1
100
AcDbLine
 10
50.63124556174444
 20
201.8097978625031
 30
0.0
 11
49.63124556174444
 21
201.8097978625031
 31
0.0
  0
LINE
  5
3CF
330
6FD
100
AcDbEntity
  8
GAIKEI
 62
     1
100
AcDbLine
 10
49.63124556174444
 20
202.4597978625031
 30
0.0
 11
50.63124556174444
 21
202.4597978625031
 31
0.0
  0
LINE
  5
3D0
330
6FD
100
AcDbEntity
  8
GAIKEI
 62
     1
100
AcDbLine
 10
50.63124556174444
 20
201.8097978625031
 30
0.0
 11
49.63124556174444
 21
201.8097978625031
 31
0.0
  0
LINE
  5
3D1
330
6FD
100
AcDbEntity
  8
GAIKEI
 62
     1
100
AcDbLine
 10
49.63124556174444
 20
202.4597978625031
 30
0.0
 11
50.63124556174444
 21
202.4597978625031
 31
0.0
  0
LINE
  5
3D2
330
6FD
100
AcDbEntity
  8
GAIKEI
 62
     1
100
AcDbLine
 10
50.63124556174444
 20
201.8097978625031
 30
0.0
 11
49.63124556174444
 21
201.8097978625031
 31
0.0
  0
LINE
  5
3D3
330
6FD
100
AcDbEntity
  8
GAIKEI
 62
     1
100
AcDbLine
 10
49.63124556174444
 20
202.4597978625031
 30
0.0
 11
50.63124556174444
 21
202.4597978625031
 31
0.0
  0
LINE
  5
3D4
330
6FD
100
AcDbEntity
  8
GAIKEI
 62
     1
100
AcDbLine
 10
50.63124556174444
 20
201.8097978625031
 30
0.0
 11
49.63124556174444
 21
201.8097978625031
 31
0.0
  0
LINE
  5
3D5
330
6FD
100
AcDbEntity
  8
GAIKEI
 62
     1
100
AcDbLine
 10
49.63124556174444
 20
202.4597978625031
 30
0.0
 11
50.63124556174444
 21
202.4597978625031
 31
0.0
  0
LINE
  5
3D6
330
6FD
100
AcDbEntity
  8
GAIKEI
 62
     1
100
AcDbLine
 10
50.63124556174444
 20
201.8097978625031
 30
0.0
 11
49.63124556174444
 21
201.8097978625031
 31
0.0
  0
LINE
  5
3D7
330
6FD
100
AcDbEntity
  8
GAIKEI
 62
     1
100
AcDbLine
 10
50.53124551025621
 20
201.8848641572579
 30
0.0
 11
49.73124551025627
 21
201.8848641572579
 31
0.0
  0
LINE
  5
3D8
330
6FD
100
AcDbEntity
  8
GAIKEI
 62
     1
100
AcDbLine
 10
49.73124551025627
 20
202.3848641572579
 30
0.0
 11
50.53124551025621
 21
202.3848641572579
 31
0.0
  0
ARC
  5
3D9
330
6FD
100
AcDbEntity
  8
GAIKEI
 62
     1
100
AcDbCircle
 10
49.0812455617447
 20
200.4597880488948
 30
0.0
 40
0.05
100
AcDbArc
 50
180.0
 51
270.0
  0
ARC
  5
3DA
330
6FD
100
AcDbEntity
  8
GAIKEI
 62
     1
100
AcDbCircle
 10
49.0812455617447
 20
201.0097929450005
 30
0.0
 40
0.05
100
AcDbArc
 50
90.0
 51
180.0
  0
ARC
  5
3DB
330
6FD
100
AcDbEntity
  8
GAIKEI
 62
     1
100
AcDbCircle
 10
49.11124157037147
 20
201.8348437261768
 30
0.0
 40
0.05
100
AcDbArc
 50
180.0
 51
270.0
  0
ARC
  5
3DC
330
6FD
100
AcDbEntity
  8
GAIKEI
 62
     1
100
AcDbCircle
 10
49.11124157037125
 20
202.4348885817965
 30
0.0
 40
0.05
100
AcDbArc
 50
90.0
 51
180.0
  0
LINE
  5
3DD
330
6FD
100
AcDbEntity
  8
GAIKEI
 62
     1
100
AcDbLine
 10
47.60624523570323
 20
200.4097880488945
 30
0.0
 11
47.20624523570314
 21
200.4097880488945
 31
0.0
  0
LINE
  5
3DE
330
6FD
100
AcDbEntity
  8
GAIKEI
 62
     1
100
AcDbLine
 10
47.20624523570314
 20
201.0597929450005
 30
0.0
 11
47.60624523570323
 21
201.0597929450005
 31
0.0
  0
ARC
  5
3DF
330
6FD
100
AcDbEntity
  8
GAIKEI
 62
     1
100
AcDbCircle
 10
47.20624523570314
 20
200.4597880488948
 30
0.0
 40
0.05
100
AcDbArc
 50
180.0
 51
270.0
  0
ARC
  5
3E0
330
6FD
100
AcDbEntity
  8
GAIKEI
 62
     1
100
AcDbCircle
 10
47.20624523570314
 20
201.0097929450005
 30
0.0
 40
0.05
100
AcDbArc
 50
90.0
 51
180.0
  0
ARC
  5
3E1
330
6FD
100
AcDbEntity
  8
GAIKEI
 62
     1
100
AcDbCircle
 10
46.78124551025621
 20
200.5348420590062
 30
0.0
 40
0.05
100
AcDbArc
 50
270.0
 51
0.0
  0
ARC
  5
3E2
330
6FD
100
AcDbEntity
  8
GAIKEI
 62
     1
100
AcDbCircle
 10
45.98124551025626
 20
200.9348420590063
 30
0.0
 40
0.05
100
AcDbArc
 50
90.0
 51
180.0
  0
ARC
  5
3E3
330
6FD
100
AcDbEntity
  8
GAIKEI
 62
     1
100
AcDbCircle
 10
45.98124551025626
 20
200.5348420590062
 30
0.0
 40
0.05
100
AcDbArc
 50
180.0
 51
270.0
  0
ARC
  5
3E4
330
6FD
100
AcDbEntity
  8
GAIKEI
 62
     1
100
AcDbCircle
 10
46.78124551025621
 20
200.9348420590063
 30
0.0
 40
0.05
100
AcDbArc
 50
0.0
 51
90.0
  0
LINE
  5
3E5
330
6FD
100
AcDbEntity
  8
GAIKEI
 62
     1
100
AcDbLine
 10
45.88124490966129
 20
201.0597657372639
 30
0.0
 11
46.88124490966129
 21
201.0597657372639
 31
0.0
  0
LINE
  5
3E6
330
6FD
100
AcDbEntity
  8
GAIKEI
 62
     1
100
AcDbLine
 10
46.88124490966129
 20
201.0597657372639
 30
0.0
 11
46.88124490966129
 21
200.4097878355155
 31
0.0
  0
LINE
  5
3E7
330
6FD
100
AcDbEntity
  8
GAIKEI
 62
     1
100
AcDbLine
 10
46.88124490966129
 20
200.4097878355155
 30
0.0
 11
45.88124490966129
 21
200.4097878355155
 31
0.0
  0
LINE
  5
3E8
330
6FD
100
AcDbEntity
  8
GAIKEI
 62
     1
100
AcDbLine
 10
45.88124490966129
 20
200.4097878355155
 30
0.0
 11
45.88124490966129
 21
201.0597657372639
 31
0.0
  0
LINE
  5
3E9
330
6FD
100
AcDbEntity
  8
GAIKEI
 62
     1
100
AcDbLine
 10
45.88124490966129
 20
201.0597657372639
 30
0.0
 11
46.88124490966129
 21
201.0597657372639
 31
0.0
  0
LINE
  5
3EA
330
6FD
100
AcDbEntity
  8
GAIKEI
 62
     1
100
AcDbLine
 10
46.88124490966129
 20
201.0597657372639
 30
0.0
 11
46.88124490966129
 21
200.4097878355155
 31
0.0
  0
LINE
  5
3EB
330
6FD
100
AcDbEntity
  8
GAIKEI
 62
     1
100
AcDbLine
 10
46.88124490966129
 20
200.4097878355155
 30
0.0
 11
45.88124490966129
 21
200.4097878355155
 31
0.0
  0
LINE
  5
3EC
330
6FD
100
AcDbEntity
  8
GAIKEI
 62
     1
100
AcDbLine
 10
45.88124490966129
 20
200.4097878355155
 30
0.0
 11
45.88124490966129
 21
201.0597657372639
 31
0.0
  0
LINE
  5
3ED
330
6FD
100
AcDbEntity
  8
GAIKEI
 62
     1
100
AcDbLine
 10
47.15624523570318
 20
200.4597880488948
 30
0.0
 11
47.15624523570318
 21
201.0097929450005
 31
0.0
  0
LINE
  5
3EE
330
6FD
100
AcDbEntity
  8
GAIKEI
 62
     1
100
AcDbLine
 10
46.88124490966152
 20
201.0597659506432
 30
0.0
 11
46.88124490966152
 21
200.4097708574475
 31
0.0
  0
LINE
  5
3EF
330
6FD
100
AcDbEntity
  8
GAIKEI
 62
     1
100
AcDbLine
 10
46.88124490966152
 20
200.4097708574475
 30
0.0
 11
45.88124490966152
 21
200.4097708574475
 31
0.0
  0
LINE
  5
3F0
330
6FD
100
AcDbEntity
  8
GAIKEI
 62
     1
100
AcDbLine
 10
46.88124490966152
 20
201.0597659506432
 30
0.0
 11
46.88124490966152
 21
200.4097708574475
 31
0.0
  0
LINE
  5
3F1
330
6FD
100
AcDbEntity
  8
GAIKEI
 62
     1
100
AcDbLine
 10
46.88124490966152
 20
200.4097708574475
 30
0.0
 11
45.88124490966152
 21
200.4097708574475
 31
0.0
  0
LINE
  5
3F2
330
6FD
100
AcDbEntity
  8
GAIKEI
 62
     1
100
AcDbLine
 10
45.88124490966152
 20
201.0597659506432
 30
0.0
 11
46.88124490966152
 21
201.0597659506432
 31
0.0
  0
LINE
  5
3F3
330
6FD
100
AcDbEntity
  8
GAIKEI
 62
     1
100
AcDbLine
 10
45.88124490966152
 20
200.4097708574475
 30
0.0
 11
45.88124490966152
 21
201.0597659506432
 31
0.0
  0
LINE
  5
3F4
330
6FD
100
AcDbEntity
  8
GAIKEI
 62
     1
100
AcDbLine
 10
45.88124490966152
 20
201.0597659506432
 30
0.0
 11
46.88124490966152
 21
201.0597659506432
 31
0.0
  0
LINE
  5
3F5
330
6FD
100
AcDbEntity
  8
GAIKEI
 62
     1
100
AcDbLine
 10
45.88124490966152
 20
200.4097708574475
 30
0.0
 11
45.88124490966152
 21
201.0597659506432
 31
0.0
  0
LINE
  5
3F6
330
6FD
100
AcDbEntity
  8
GAIKEI
 62
     1
100
AcDbLine
 10
46.88124490966152
 20
200.4097708574475
 30
0.0
 11
45.88124490966152
 21
200.4097708574475
 31
0.0
  0
LINE
  5
3F7
330
6FD
100
AcDbEntity
  8
GAIKEI
 62
     1
100
AcDbLine
 10
46.88124490966152
 20
201.0597659506432
 30
0.0
 11
46.88124490966152
 21
200.4097708574475
 31
0.0
  0
LINE
  5
3F8
330
6FD
100
AcDbEntity
  8
GAIKEI
 62
     1
100
AcDbLine
 10
46.88124490966152
 20
200.4097708574475
 30
0.0
 11
45.88124490966152
 21
200.4097708574475
 31
0.0
  0
LINE
  5
3F9
330
6FD
100
AcDbEntity
  8
GAIKEI
 62
     1
100
AcDbLine
 10
45.88124490966152
 20
201.0597659506432
 30
0.0
 11
46.88124490966152
 21
201.0597659506432
 31
0.0
  0
LINE
  5
3FA
330
6FD
100
AcDbEntity
  8
GAIKEI
 62
     1
100
AcDbLine
 10
45.88124490966152
 20
201.0597659506432
 30
0.0
 11
46.88124490966152
 21
201.0597659506432
 31
0.0
  0
LINE
  5
3FB
330
6FD
100
AcDbEntity
  8
GAIKEI
 62
     1
100
AcDbLine
 10
45.88124490966152
 20
200.4097708574475
 30
0.0
 11
45.88124490966152
 21
201.0597659506432
 31
0.0
  0
LINE
  5
3FC
330
6FD
100
AcDbEntity
  8
GAIKEI
 62
     1
100
AcDbLine
 10
46.88124490966152
 20
201.0597659506432
 30
0.0
 11
46.88124490966152
 21
200.4097708574475
 31
0.0
  0
LINE
  5
3FD
330
6FD
100
AcDbEntity
  8
GAIKEI
 62
     1
100
AcDbLine
 10
46.88124490966152
 20
200.4097708574475
 30
0.0
 11
45.88124490966152
 21
200.4097708574475
 31
0.0
  0
LINE
  5
3FE
330
6FD
100
AcDbEntity
  8
GAIKEI
 62
     1
100
AcDbLine
 10
46.88124490966152
 20
201.0597659506432
 30
0.0
 11
46.88124490966152
 21
200.4097708574475
 31
0.0
  0
LINE
  5
3FF
330
6FD
100
AcDbEntity
  8
GAIKEI
 62
     1
100
AcDbLine
 10
45.88124490966152
 20
201.0597659506432
 30
0.0
 11
46.88124490966152
 21
201.0597659506432
 31
0.0
  0
LINE
  5
400
330
6FD
100
AcDbEntity
  8
GAIKEI
 62
     1
100
AcDbLine
 10
45.88124490966152
 20
200.4097708574475
 30
0.0
 11
45.88124490966152
 21
201.0597659506432
 31
0.0
  0
LINE
  5
401
330
6FD
100
AcDbEntity
  8
GAIKEI
 62
     1
100
AcDbLine
 10
45.88124490966152
 20
200.4097708574475
 30
0.0
 11
45.88124490966152
 21
201.0597659506432
 31
0.0
  0
LINE
  5
402
330
6FD
100
AcDbEntity
  8
GAIKEI
 62
     1
100
AcDbLine
 10
45.88124490966152
 20
201.0597659506432
 30
0.0
 11
46.88124490966152
 21
201.0597659506432
 31
0.0
  0
LINE
  5
403
330
6FD
100
AcDbEntity
  8
GAIKEI
 62
     1
100
AcDbLine
 10
46.88124490966152
 20
201.0597659506432
 30
0.0
 11
46.88124490966152
 21
200.4097708574475
 31
0.0
  0
LINE
  5
404
330
6FD
100
AcDbEntity
  8
GAIKEI
 62
     1
100
AcDbLine
 10
46.88124490966152
 20
200.4097708574475
 30
0.0
 11
45.88124490966152
 21
200.4097708574475
 31
0.0
  0
LINE
  5
405
330
6FD
100
AcDbEntity
  8
GAIKEI
 62
     1
100
AcDbLine
 10
45.88124490966152
 20
200.4097708574475
 30
0.0
 11
45.88124490966152
 21
201.0597659506432
 31
0.0
  0
LINE
  5
406
330
6FD
100
AcDbEntity
  8
GAIKEI
 62
     1
100
AcDbLine
 10
45.88124490966152
 20
201.0597659506432
 30
0.0
 11
46.88124490966152
 21
201.0597659506432
 31
0.0
  0
LINE
  5
407
330
6FD
100
AcDbEntity
  8
GAIKEI
 62
     1
100
AcDbLine
 10
46.88124490966152
 20
201.0597659506432
 30
0.0
 11
46.88124490966152
 21
200.4097708574475
 31
0.0
  0
LINE
  5
408
330
6FD
100
AcDbEntity
  8
GAIKEI
 62
     1
100
AcDbLine
 10
46.88124490966152
 20
200.4097708574475
 30
0.0
 11
45.88124490966152
 21
200.4097708574475
 31
0.0
  0
LINE
  5
409
330
6FD
100
AcDbEntity
  8
GAIKEI
 62
     1
100
AcDbLine
 10
45.88124490966152
 20
200.4097708574475
 30
0.0
 11
45.88124490966152
 21
201.0597659506432
 31
0.0
  0
LINE
  5
40A
330
6FD
100
AcDbEntity
  8
GAIKEI
 62
     1
100
AcDbLine
 10
45.88124490966152
 20
201.0597659506432
 30
0.0
 11
46.88124490966152
 21
201.0597659506432
 31
0.0
  0
LINE
  5
40B
330
6FD
100
AcDbEntity
  8
GAIKEI
 62
     1
100
AcDbLine
 10
46.88124490966152
 20
201.0597659506432
 30
0.0
 11
46.88124490966152
 21
200.4097880488945
 31
0.0
  0
LINE
  5
40C
330
6FD
100
AcDbEntity
  8
GAIKEI
 62
     1
100
AcDbLine
 10
46.88124490966152
 20
200.4097880488945
 30
0.0
 11
45.88124490966152
 21
200.4097880488945
 31
0.0
  0
LINE
  5
40D
330
6FD
100
AcDbEntity
  8
GAIKEI
 62
     1
100
AcDbLine
 10
45.88124490966152
 20
200.4097880488945
 30
0.0
 11
45.88124490966152
 21
201.0597659506432
 31
0.0
  0
LINE
  5
40E
330
6FD
100
AcDbEntity
  8
GAIKEI
 62
     1
100
AcDbLine
 10
45.88124490966152
 20
201.0597659506432
 30
0.0
 11
46.88124490966152
 21
201.0597659506432
 31
0.0
  0
LINE
  5
40F
330
6FD
100
AcDbEntity
  8
GAIKEI
 62
     1
100
AcDbLine
 10
46.88124490966152
 20
201.0597659506432
 30
0.0
 11
46.88124490966152
 21
200.4097880488945
 31
0.0
  0
LINE
  5
410
330
6FD
100
AcDbEntity
  8
GAIKEI
 62
     1
100
AcDbLine
 10
46.88124490966152
 20
200.4097880488945
 30
0.0
 11
45.88124490966152
 21
200.4097880488945
 31
0.0
  0
LINE
  5
411
330
6FD
100
AcDbEntity
  8
GAIKEI
 62
     1
100
AcDbLine
 10
45.88124490966152
 20
200.4097880488945
 30
0.0
 11
45.88124490966152
 21
201.0597659506432
 31
0.0
  0
LINE
  5
412
330
6FD
100
AcDbEntity
  8
GAIKEI
 62
     1
100
AcDbLine
 10
45.88124490966152
 20
201.0597659506432
 30
0.0
 11
46.88124490966152
 21
201.0597659506432
 31
0.0
  0
LINE
  5
413
330
6FD
100
AcDbEntity
  8
GAIKEI
 62
     1
100
AcDbLine
 10
46.88124490966152
 20
201.0597659506432
 30
0.0
 11
46.88124490966152
 21
200.4097659506431
 31
0.0
  0
LINE
  5
414
330
6FD
100
AcDbEntity
  8
GAIKEI
 62
     1
100
AcDbLine
 10
46.88124490966152
 20
200.4097659506431
 30
0.0
 11
45.88124490966152
 21
200.4097659506431
 31
0.0
  0
LINE
  5
415
330
6FD
100
AcDbEntity
  8
GAIKEI
 62
     1
100
AcDbLine
 10
45.88124490966152
 20
200.4097659506431
 30
0.0
 11
45.88124490966152
 21
201.0597659506432
 31
0.0
  0
LINE
  5
416
330
6FD
100
AcDbEntity
  8
GAIKEI
 62
     1
100
AcDbLine
 10
45.88124490966152
 20
201.0597659506432
 30
0.0
 11
46.88124490966152
 21
201.0597659506432
 31
0.0
  0
LINE
  5
417
330
6FD
100
AcDbEntity
  8
GAIKEI
 62
     1
100
AcDbLine
 10
46.88124490966152
 20
201.0597659506432
 30
0.0
 11
46.88124490966152
 21
200.4097659506431
 31
0.0
  0
LINE
  5
418
330
6FD
100
AcDbEntity
  8
GAIKEI
 62
     1
100
AcDbLine
 10
46.88124490966152
 20
200.4097659506431
 30
0.0
 11
45.88124490966152
 21
200.4097659506431
 31
0.0
  0
LINE
  5
419
330
6FD
100
AcDbEntity
  8
GAIKEI
 62
     1
100
AcDbLine
 10
45.88124490966152
 20
200.4097659506431
 30
0.0
 11
45.88124490966152
 21
201.0597659506432
 31
0.0
  0
LINE
  5
41A
330
6FD
100
AcDbEntity
  8
GAIKEI
 62
     1
100
AcDbLine
 10
45.88124490966152
 20
201.0597659506432
 30
0.0
 11
46.88124490966152
 21
201.0597659506432
 31
0.0
  0
LINE
  5
41B
330
6FD
100
AcDbEntity
  8
GAIKEI
 62
     1
100
AcDbLine
 10
46.88124490966152
 20
201.0597659506432
 30
0.0
 11
46.88124490966152
 21
200.4097659506431
 31
0.0
  0
LINE
  5
41C
330
6FD
100
AcDbEntity
  8
GAIKEI
 62
     1
100
AcDbLine
 10
46.88124490966152
 20
200.4097659506431
 30
0.0
 11
45.88124490966152
 21
200.4097659506431
 31
0.0
  0
LINE
  5
41D
330
6FD
100
AcDbEntity
  8
GAIKEI
 62
     1
100
AcDbLine
 10
45.88124490966152
 20
200.4097659506431
 30
0.0
 11
45.88124490966152
 21
201.0597659506432
 31
0.0
  0
LINE
  5
41E
330
6FD
100
AcDbEntity
  8
GAIKEI
 62
     1
100
AcDbLine
 10
45.88124490966152
 20
201.0597659506432
 30
0.0
 11
46.88124490966152
 21
201.0597659506432
 31
0.0
  0
LINE
  5
41F
330
6FD
100
AcDbEntity
  8
GAIKEI
 62
     1
100
AcDbLine
 10
46.88124490966152
 20
201.0597659506432
 30
0.0
 11
46.88124490966152
 21
200.4097659506431
 31
0.0
  0
LINE
  5
420
330
6FD
100
AcDbEntity
  8
GAIKEI
 62
     1
100
AcDbLine
 10
46.88124490966152
 20
200.4097659506431
 30
0.0
 11
45.88124490966152
 21
200.4097659506431
 31
0.0
  0
LINE
  5
421
330
6FD
100
AcDbEntity
  8
GAIKEI
 62
     1
100
AcDbLine
 10
45.88124490966152
 20
200.4097659506431
 30
0.0
 11
45.88124490966152
 21
201.0597659506432
 31
0.0
  0
LINE
  5
422
330
6FD
100
AcDbEntity
  8
GAIKEI
 62
     1
100
AcDbLine
 10
45.88124490966152
 20
201.0597659506432
 30
0.0
 11
46.88124490966152
 21
201.0597659506432
 31
0.0
  0
LINE
  5
423
330
6FD
100
AcDbEntity
  8
GAIKEI
 62
     1
100
AcDbLine
 10
46.88124490966152
 20
201.0597659506432
 30
0.0
 11
46.88124490966152
 21
200.4097659506431
 31
0.0
  0
LINE
  5
424
330
6FD
100
AcDbEntity
  8
GAIKEI
 62
     1
100
AcDbLine
 10
46.88124490966152
 20
200.4097659506431
 30
0.0
 11
45.88124490966152
 21
200.4097659506431
 31
0.0
  0
LINE
  5
425
330
6FD
100
AcDbEntity
  8
GAIKEI
 62
     1
100
AcDbLine
 10
45.88124490966152
 20
200.4097659506431
 30
0.0
 11
45.88124490966152
 21
201.0597659506432
 31
0.0
  0
LINE
  5
426
330
6FD
100
AcDbEntity
  8
GAIKEI
 62
     1
100
AcDbLine
 10
45.88124490966152
 20
201.0597659506432
 30
0.0
 11
46.88124490966152
 21
201.0597659506432
 31
0.0
  0
LINE
  5
427
330
6FD
100
AcDbEntity
  8
GAIKEI
 62
     1
100
AcDbLine
 10
46.88124490966152
 20
201.0597659506432
 30
0.0
 11
46.88124490966152
 21
200.4097659506431
 31
0.0
  0
LINE
  5
428
330
6FD
100
AcDbEntity
  8
GAIKEI
 62
     1
100
AcDbLine
 10
46.88124490966152
 20
200.4097659506431
 30
0.0
 11
45.88124490966152
 21
200.4097659506431
 31
0.0
  0
LINE
  5
429
330
6FD
100
AcDbEntity
  8
GAIKEI
 62
     1
100
AcDbLine
 10
45.88124490966152
 20
200.4097659506431
 30
0.0
 11
45.88124490966152
 21
201.0597659506432
 31
0.0
  0
LINE
  5
42A
330
6FD
100
AcDbEntity
  8
GAIKEI
 62
     1
100
AcDbLine
 10
45.93124551025629
 20
200.5348420590062
 30
0.0
 11
45.93124551025629
 21
200.9348420590063
 31
0.0
  0
LINE
  5
42B
330
6FD
100
AcDbEntity
  8
GAIKEI
 62
     1
100
AcDbLine
 10
46.78124551025621
 20
200.4848420590063
 30
0.0
 11
45.98124551025626
 21
200.4848420590063
 31
0.0
  0
LINE
  5
42C
330
6FD
100
AcDbEntity
  8
GAIKEI
 62
     1
100
AcDbLine
 10
46.83124551025617
 20
200.9348420590063
 30
0.0
 11
46.83124551025617
 21
200.5348420590062
 31
0.0
  0
LINE
  5
42D
330
6FD
100
AcDbEntity
  8
GAIKEI
 62
     1
100
AcDbLine
 10
45.98124551025626
 20
200.9848420590063
 30
0.0
 11
46.78124551025621
 21
200.9848420590063
 31
0.0
  0
LINE
  5
42E
330
6FD
100
AcDbEntity
  8
GAIKEI
 62
     1
100
AcDbLine
 10
46.55624588778619
 20
200.8048420590064
 30
0.0
 11
46.55624588778619
 21
200.9848420590063
 31
0.0
  0
LINE
  5
42F
330
6FD
100
AcDbEntity
  8
GAIKEI
 62
     1
100
AcDbLine
 10
46.20624588778627
 20
200.8048420590064
 30
0.0
 11
46.55624588778619
 21
200.8048420590064
 31
0.0
  0
LINE
  5
430
330
6FD
100
AcDbEntity
  8
GAIKEI
 62
     1
100
AcDbLine
 10
46.20624588778627
 20
200.9848420590063
 30
0.0
 11
46.20624588778627
 21
200.8048420590064
 31
0.0
  0
ARC
  5
431
330
6FD
100
AcDbEntity
  8
GAIKEI
 62
     1
100
AcDbCircle
 10
47.60624523570323
 20
200.4597880488948
 30
0.0
 40
0.05
100
AcDbArc
 50
270.0
 51
0.0
  0
ARC
  5
432
330
6FD
100
AcDbEntity
  8
GAIKEI
 62
     1
100
AcDbCircle
 10
47.60624523570323
 20
201.0097929450005
 30
0.0
 40
0.05
100
AcDbArc
 50
0.0
 51
90.0
  0
ARC
  5
433
330
6FD
100
AcDbEntity
  8
GAIKEI
 62
     1
100
AcDbCircle
 10
48.65624551025621
 20
200.5348420590062
 30
0.0
 40
0.05
100
AcDbArc
 50
270.0
 51
0.0
  0
ARC
  5
434
330
6FD
100
AcDbEntity
  8
GAIKEI
 62
     1
100
AcDbCircle
 10
47.85624551025626
 20
200.9348420590063
 30
0.0
 40
0.05
100
AcDbArc
 50
90.0
 51
180.0
  0
ARC
  5
435
330
6FD
100
AcDbEntity
  8
GAIKEI
 62
     1
100
AcDbCircle
 10
47.85624551025626
 20
200.5348420590062
 30
0.0
 40
0.05
100
AcDbArc
 50
180.0
 51
270.0
  0
ARC
  5
436
330
6FD
100
AcDbEntity
  8
GAIKEI
 62
     1
100
AcDbCircle
 10
48.65624551025621
 20
200.9348420590063
 30
0.0
 40
0.05
100
AcDbArc
 50
0.0
 51
90.0
  0
LINE
  5
437
330
6FD
100
AcDbEntity
  8
GAIKEI
 62
     1
100
AcDbLine
 10
47.75624523570285
 20
201.0597657372639
 30
0.0
 11
48.75624523570285
 21
201.0597657372639
 31
0.0
  0
LINE
  5
438
330
6FD
100
AcDbEntity
  8
GAIKEI
 62
     1
100
AcDbLine
 10
48.75624523570285
 20
201.0597657372639
 30
0.0
 11
48.75624523570285
 21
200.4097878355155
 31
0.0
  0
LINE
  5
439
330
6FD
100
AcDbEntity
  8
GAIKEI
 62
     1
100
AcDbLine
 10
48.75624523570285
 20
200.4097878355155
 30
0.0
 11
47.75624523570285
 21
200.4097878355155
 31
0.0
  0
LINE
  5
43A
330
6FD
100
AcDbEntity
  8
GAIKEI
 62
     1
100
AcDbLine
 10
47.75624523570285
 20
200.4097878355155
 30
0.0
 11
47.75624523570285
 21
201.0597657372639
 31
0.0
  0
LINE
  5
43B
330
6FD
100
AcDbEntity
  8
GAIKEI
 62
     1
100
AcDbLine
 10
47.75624523570285
 20
201.0597657372639
 30
0.0
 11
48.75624523570285
 21
201.0597657372639
 31
0.0
  0
LINE
  5
43C
330
6FD
100
AcDbEntity
  8
GAIKEI
 62
     1
100
AcDbLine
 10
48.75624523570285
 20
201.0597657372639
 30
0.0
 11
48.75624523570285
 21
200.4097878355155
 31
0.0
  0
LINE
  5
43D
330
6FD
100
AcDbEntity
  8
GAIKEI
 62
     1
100
AcDbLine
 10
48.75624523570285
 20
200.4097878355155
 30
0.0
 11
47.75624523570285
 21
200.4097878355155
 31
0.0
  0
LINE
  5
43E
330
6FD
100
AcDbEntity
  8
GAIKEI
 62
     1
100
AcDbLine
 10
47.75624523570285
 20
200.4097878355155
 30
0.0
 11
47.75624523570285
 21
201.0597657372639
 31
0.0
  0
LINE
  5
43F
330
6FD
100
AcDbEntity
  8
GAIKEI
 62
     1
100
AcDbLine
 10
47.65624523570318
 20
201.0097929450005
 30
0.0
 11
47.65624523570318
 21
200.4597880488948
 31
0.0
  0
LINE
  5
440
330
6FD
100
AcDbEntity
  8
GAIKEI
 62
     1
100
AcDbLine
 10
49.03124556174475
 20
200.4597880488948
 30
0.0
 11
49.03124556174475
 21
201.0097929450005
 31
0.0
  0
LINE
  5
441
330
6FD
100
AcDbEntity
  8
GAIKEI
 62
     1
100
AcDbLine
 10
48.75624523570285
 20
201.0597659506432
 30
0.0
 11
48.75624523570285
 21
200.4097708574475
 31
0.0
  0
LINE
  5
442
330
6FD
100
AcDbEntity
  8
GAIKEI
 62
     1
100
AcDbLine
 10
48.75624523570285
 20
200.4097708574475
 30
0.0
 11
47.75624523570285
 21
200.4097708574475
 31
0.0
  0
LINE
  5
443
330
6FD
100
AcDbEntity
  8
GAIKEI
 62
     1
100
AcDbLine
 10
48.75624523570285
 20
201.0597659506432
 30
0.0
 11
48.75624523570285
 21
200.4097708574475
 31
0.0
  0
LINE
  5
444
330
6FD
100
AcDbEntity
  8
GAIKEI
 62
     1
100
AcDbLine
 10
48.75624523570285
 20
200.4097708574475
 30
0.0
 11
47.75624523570285
 21
200.4097708574475
 31
0.0
  0
LINE
  5
445
330
6FD
100
AcDbEntity
  8
GAIKEI
 62
     1
100
AcDbLine
 10
47.75624523570285
 20
201.0597659506432
 30
0.0
 11
48.75624523570285
 21
201.0597659506432
 31
0.0
  0
LINE
  5
446
330
6FD
100
AcDbEntity
  8
GAIKEI
 62
     1
100
AcDbLine
 10
47.75624523570285
 20
200.4097708574475
 30
0.0
 11
47.75624523570285
 21
201.0597659506432
 31
0.0
  0
LINE
  5
447
330
6FD
100
AcDbEntity
  8
GAIKEI
 62
     1
100
AcDbLine
 10
47.75624523570285
 20
201.0597659506432
 30
0.0
 11
48.75624523570285
 21
201.0597659506432
 31
0.0
  0
LINE
  5
448
330
6FD
100
AcDbEntity
  8
GAIKEI
 62
     1
100
AcDbLine
 10
47.75624523570285
 20
200.4097708574475
 30
0.0
 11
47.75624523570285
 21
201.0597659506432
 31
0.0
  0
LINE
  5
449
330
6FD
100
AcDbEntity
  8
GAIKEI
 62
     1
100
AcDbLine
 10
48.75624523570285
 20
200.4097708574475
 30
0.0
 11
47.75624523570285
 21
200.4097708574475
 31
0.0
  0
LINE
  5
44A
330
6FD
100
AcDbEntity
  8
GAIKEI
 62
     1
100
AcDbLine
 10
48.75624523570285
 20
201.0597659506432
 30
0.0
 11
48.75624523570285
 21
200.4097708574475
 31
0.0
  0
LINE
  5
44B
330
6FD
100
AcDbEntity
  8
GAIKEI
 62
     1
100
AcDbLine
 10
48.75624523570285
 20
200.4097708574475
 30
0.0
 11
47.75624523570285
 21
200.4097708574475
 31
0.0
  0
LINE
  5
44C
330
6FD
100
AcDbEntity
  8
GAIKEI
 62
     1
100
AcDbLine
 10
47.75624523570285
 20
201.0597659506432
 30
0.0
 11
48.75624523570285
 21
201.0597659506432
 31
0.0
  0
LINE
  5
44D
330
6FD
100
AcDbEntity
  8
GAIKEI
 62
     1
100
AcDbLine
 10
47.75624523570285
 20
201.0597659506432
 30
0.0
 11
48.75624523570285
 21
201.0597659506432
 31
0.0
  0
LINE
  5
44E
330
6FD
100
AcDbEntity
  8
GAIKEI
 62
     1
100
AcDbLine
 10
47.75624523570285
 20
200.4097708574475
 30
0.0
 11
47.75624523570285
 21
201.0597659506432
 31
0.0
  0
LINE
  5
44F
330
6FD
100
AcDbEntity
  8
GAIKEI
 62
     1
100
AcDbLine
 10
48.75624523570285
 20
201.0597659506432
 30
0.0
 11
48.75624523570285
 21
200.4097708574475
 31
0.0
  0
LINE
  5
450
330
6FD
100
AcDbEntity
  8
GAIKEI
 62
     1
100
AcDbLine
 10
48.75624523570285
 20
200.4097708574475
 30
0.0
 11
47.75624523570285
 21
200.4097708574475
 31
0.0
  0
LINE
  5
451
330
6FD
100
AcDbEntity
  8
GAIKEI
 62
     1
100
AcDbLine
 10
48.75624523570285
 20
201.0597659506432
 30
0.0
 11
48.75624523570285
 21
200.4097708574475
 31
0.0
  0
LINE
  5
452
330
6FD
100
AcDbEntity
  8
GAIKEI
 62
     1
100
AcDbLine
 10
47.75624523570285
 20
201.0597659506432
 30
0.0
 11
48.75624523570285
 21
201.0597659506432
 31
0.0
  0
LINE
  5
453
330
6FD
100
AcDbEntity
  8
GAIKEI
 62
     1
100
AcDbLine
 10
47.75624523570285
 20
200.4097708574475
 30
0.0
 11
47.75624523570285
 21
201.0597659506432
 31
0.0
  0
LINE
  5
454
330
6FD
100
AcDbEntity
  8
GAIKEI
 62
     1
100
AcDbLine
 10
47.75624523570285
 20
200.4097708574475
 30
0.0
 11
47.75624523570285
 21
201.0597659506432
 31
0.0
  0
LINE
  5
455
330
6FD
100
AcDbEntity
  8
GAIKEI
 62
     1
100
AcDbLine
 10
47.75624523570285
 20
201.0597659506432
 30
0.0
 11
48.75624523570285
 21
201.0597659506432
 31
0.0
  0
LINE
  5
456
330
6FD
100
AcDbEntity
  8
GAIKEI
 62
     1
100
AcDbLine
 10
48.75624523570285
 20
201.0597659506432
 30
0.0
 11
48.75624523570285
 21
200.4097708574475
 31
0.0
  0
LINE
  5
457
330
6FD
100
AcDbEntity
  8
GAIKEI
 62
     1
100
AcDbLine
 10
48.75624523570285
 20
200.4097708574475
 30
0.0
 11
47.75624523570285
 21
200.4097708574475
 31
0.0
  0
LINE
  5
458
330
6FD
100
AcDbEntity
  8
GAIKEI
 62
     1
100
AcDbLine
 10
47.75624523570285
 20
200.4097708574475
 30
0.0
 11
47.75624523570285
 21
201.0597659506432
 31
0.0
  0
LINE
  5
459
330
6FD
100
AcDbEntity
  8
GAIKEI
 62
     1
100
AcDbLine
 10
47.75624523570285
 20
201.0597659506432
 30
0.0
 11
48.75624523570285
 21
201.0597659506432
 31
0.0
  0
LINE
  5
45A
330
6FD
100
AcDbEntity
  8
GAIKEI
 62
     1
100
AcDbLine
 10
48.75624523570285
 20
201.0597659506432
 30
0.0
 11
48.75624523570285
 21
200.4097708574475
 31
0.0
  0
LINE
  5
45B
330
6FD
100
AcDbEntity
  8
GAIKEI
 62
     1
100
AcDbLine
 10
48.75624523570285
 20
200.4097708574475
 30
0.0
 11
47.75624523570285
 21
200.4097708574475
 31
0.0
  0
LINE
  5
45C
330
6FD
100
AcDbEntity
  8
GAIKEI
 62
     1
100
AcDbLine
 10
47.75624523570285
 20
200.4097708574475
 30
0.0
 11
47.75624523570285
 21
201.0597659506432
 31
0.0
  0
LINE
  5
45D
330
6FD
100
AcDbEntity
  8
GAIKEI
 62
     1
100
AcDbLine
 10
47.75624523570285
 20
201.0597659506432
 30
0.0
 11
48.75624523570285
 21
201.0597659506432
 31
0.0
  0
LINE
  5
45E
330
6FD
100
AcDbEntity
  8
GAIKEI
 62
     1
100
AcDbLine
 10
48.75624523570285
 20
201.0597659506432
 30
0.0
 11
48.75624523570285
 21
200.4097880488945
 31
0.0
  0
LINE
  5
45F
330
6FD
100
AcDbEntity
  8
GAIKEI
 62
     1
100
AcDbLine
 10
48.75624523570285
 20
200.4097880488945
 30
0.0
 11
47.75624523570285
 21
200.4097880488945
 31
0.0
  0
LINE
  5
460
330
6FD
100
AcDbEntity
  8
GAIKEI
 62
     1
100
AcDbLine
 10
47.75624523570285
 20
200.4097880488945
 30
0.0
 11
47.75624523570285
 21
201.0597659506432
 31
0.0
  0
LINE
  5
461
330
6FD
100
AcDbEntity
  8
GAIKEI
 62
     1
100
AcDbLine
 10
47.75624523570285
 20
201.0597659506432
 30
0.0
 11
48.75624523570285
 21
201.0597659506432
 31
0.0
  0
LINE
  5
462
330
6FD
100
AcDbEntity
  8
GAIKEI
 62
     1
100
AcDbLine
 10
48.75624523570285
 20
201.0597659506432
 30
0.0
 11
48.75624523570285
 21
200.4097880488945
 31
0.0
  0
LINE
  5
463
330
6FD
100
AcDbEntity
  8
GAIKEI
 62
     1
100
AcDbLine
 10
48.75624523570285
 20
200.4097880488945
 30
0.0
 11
47.75624523570285
 21
200.4097880488945
 31
0.0
  0
LINE
  5
464
330
6FD
100
AcDbEntity
  8
GAIKEI
 62
     1
100
AcDbLine
 10
47.75624523570285
 20
200.4097880488945
 30
0.0
 11
47.75624523570285
 21
201.0597659506432
 31
0.0
  0
LINE
  5
465
330
6FD
100
AcDbEntity
  8
GAIKEI
 62
     1
100
AcDbLine
 10
47.75624523570285
 20
201.0597659506432
 30
0.0
 11
48.75624523570285
 21
201.0597659506432
 31
0.0
  0
LINE
  5
466
330
6FD
100
AcDbEntity
  8
GAIKEI
 62
     1
100
AcDbLine
 10
48.75624523570285
 20
201.0597659506432
 30
0.0
 11
48.75624523570285
 21
200.4097659506431
 31
0.0
  0
LINE
  5
467
330
6FD
100
AcDbEntity
  8
GAIKEI
 62
     1
100
AcDbLine
 10
48.75624523570285
 20
200.4097659506431
 30
0.0
 11
47.75624523570285
 21
200.4097659506431
 31
0.0
  0
LINE
  5
468
330
6FD
100
AcDbEntity
  8
GAIKEI
 62
     1
100
AcDbLine
 10
47.75624523570285
 20
200.4097659506431
 30
0.0
 11
47.75624523570285
 21
201.0597659506432
 31
0.0
  0
LINE
  5
469
330
6FD
100
AcDbEntity
  8
GAIKEI
 62
     1
100
AcDbLine
 10
47.75624523570285
 20
201.0597659506432
 30
0.0
 11
48.75624523570285
 21
201.0597659506432
 31
0.0
  0
LINE
  5
46A
330
6FD
100
AcDbEntity
  8
GAIKEI
 62
     1
100
AcDbLine
 10
48.75624523570285
 20
201.0597659506432
 30
0.0
 11
48.75624523570285
 21
200.4097659506431
 31
0.0
  0
LINE
  5
46B
330
6FD
100
AcDbEntity
  8
GAIKEI
 62
     1
100
AcDbLine
 10
48.75624523570285
 20
200.4097659506431
 30
0.0
 11
47.75624523570285
 21
200.4097659506431
 31
0.0
  0
LINE
  5
46C
330
6FD
100
AcDbEntity
  8
GAIKEI
 62
     1
100
AcDbLine
 10
47.75624523570285
 20
200.4097659506431
 30
0.0
 11
47.75624523570285
 21
201.0597659506432
 31
0.0
  0
LINE
  5
46D
330
6FD
100
AcDbEntity
  8
GAIKEI
 62
     1
100
AcDbLine
 10
47.75624523570285
 20
201.0597659506432
 30
0.0
 11
48.75624523570285
 21
201.0597659506432
 31
0.0
  0
LINE
  5
46E
330
6FD
100
AcDbEntity
  8
GAIKEI
 62
     1
100
AcDbLine
 10
48.75624523570285
 20
201.0597659506432
 30
0.0
 11
48.75624523570285
 21
200.4097659506431
 31
0.0
  0
LINE
  5
46F
330
6FD
100
AcDbEntity
  8
GAIKEI
 62
     1
100
AcDbLine
 10
48.75624523570285
 20
200.4097659506431
 30
0.0
 11
47.75624523570285
 21
200.4097659506431
 31
0.0
  0
LINE
  5
470
330
6FD
100
AcDbEntity
  8
GAIKEI
 62
     1
100
AcDbLine
 10
47.75624523570285
 20
200.4097659506431
 30
0.0
 11
47.75624523570285
 21
201.0597659506432
 31
0.0
  0
LINE
  5
471
330
6FD
100
AcDbEntity
  8
GAIKEI
 62
     1
100
AcDbLine
 10
47.75624523570285
 20
201.0597659506432
 30
0.0
 11
48.75624523570285
 21
201.0597659506432
 31
0.0
  0
LINE
  5
472
330
6FD
100
AcDbEntity
  8
GAIKEI
 62
     1
100
AcDbLine
 10
48.75624523570285
 20
201.0597659506432
 30
0.0
 11
48.75624523570285
 21
200.4097659506431
 31
0.0
  0
LINE
  5
473
330
6FD
100
AcDbEntity
  8
GAIKEI
 62
     1
100
AcDbLine
 10
48.75624523570285
 20
200.4097659506431
 30
0.0
 11
47.75624523570285
 21
200.4097659506431
 31
0.0
  0
LINE
  5
474
330
6FD
100
AcDbEntity
  8
GAIKEI
 62
     1
100
AcDbLine
 10
47.75624523570285
 20
200.4097659506431
 30
0.0
 11
47.75624523570285
 21
201.0597659506432
 31
0.0
  0
LINE
  5
475
330
6FD
100
AcDbEntity
  8
GAIKEI
 62
     1
100
AcDbLine
 10
47.75624523570285
 20
201.0597659506432
 30
0.0
 11
48.75624523570285
 21
201.0597659506432
 31
0.0
  0
LINE
  5
476
330
6FD
100
AcDbEntity
  8
GAIKEI
 62
     1
100
AcDbLine
 10
48.75624523570285
 20
201.0597659506432
 30
0.0
 11
48.75624523570285
 21
200.4097659506431
 31
0.0
  0
LINE
  5
477
330
6FD
100
AcDbEntity
  8
GAIKEI
 62
     1
100
AcDbLine
 10
48.75624523570285
 20
200.4097659506431
 30
0.0
 11
47.75624523570285
 21
200.4097659506431
 31
0.0
  0
LINE
  5
478
330
6FD
100
AcDbEntity
  8
GAIKEI
 62
     1
100
AcDbLine
 10
47.75624523570285
 20
200.4097659506431
 30
0.0
 11
47.75624523570285
 21
201.0597659506432
 31
0.0
  0
LINE
  5
479
330
6FD
100
AcDbEntity
  8
GAIKEI
 62
     1
100
AcDbLine
 10
47.75624523570285
 20
201.0597659506432
 30
0.0
 11
48.75624523570285
 21
201.0597659506432
 31
0.0
  0
LINE
  5
47A
330
6FD
100
AcDbEntity
  8
GAIKEI
 62
     1
100
AcDbLine
 10
48.75624523570285
 20
201.0597659506432
 30
0.0
 11
48.75624523570285
 21
200.4097659506431
 31
0.0
  0
LINE
  5
47B
330
6FD
100
AcDbEntity
  8
GAIKEI
 62
     1
100
AcDbLine
 10
48.75624523570285
 20
200.4097659506431
 30
0.0
 11
47.75624523570285
 21
200.4097659506431
 31
0.0
  0
LINE
  5
47C
330
6FD
100
AcDbEntity
  8
GAIKEI
 62
     1
100
AcDbLine
 10
47.75624523570285
 20
200.4097659506431
 30
0.0
 11
47.75624523570285
 21
201.0597659506432
 31
0.0
  0
LINE
  5
47D
330
6FD
100
AcDbEntity
  8
GAIKEI
 62
     1
100
AcDbLine
 10
47.80624551025629
 20
200.5348420590062
 30
0.0
 11
47.80624551025629
 21
200.9348420590063
 31
0.0
  0
LINE
  5
47E
330
6FD
100
AcDbEntity
  8
GAIKEI
 62
     1
100
AcDbLine
 10
48.65624551025621
 20
200.4848420590063
 30
0.0
 11
47.85624551025626
 21
200.4848420590063
 31
0.0
  0
LINE
  5
47F
330
6FD
100
AcDbEntity
  8
GAIKEI
 62
     1
100
AcDbLine
 10
48.70624551025617
 20
200.9348420590063
 30
0.0
 11
48.70624551025617
 21
200.5348420590062
 31
0.0
  0
LINE
  5
480
330
6FD
100
AcDbEntity
  8
GAIKEI
 62
     1
100
AcDbLine
 10
47.85624551025626
 20
200.9848420590063
 30
0.0
 11
48.65624551025621
 21
200.9848420590063
 31
0.0
  0
LINE
  5
481
330
6FD
100
AcDbEntity
  8
GAIKEI
 62
     1
100
AcDbLine
 10
48.43124588778643
 20
200.8048420590064
 30
0.0
 11
48.43124588778643
 21
200.9848420590063
 31
0.0
  0
LINE
  5
482
330
6FD
100
AcDbEntity
  8
GAIKEI
 62
     1
100
AcDbLine
 10
48.08124588778628
 20
200.8048420590064
 30
0.0
 11
48.43124588778643
 21
200.8048420590064
 31
0.0
  0
LINE
  5
483
330
6FD
100
AcDbEntity
  8
GAIKEI
 62
     1
100
AcDbLine
 10
48.08124588778628
 20
200.9848420590063
 30
0.0
 11
48.08124588778628
 21
200.8048420590064
 31
0.0
  0
ARC
  5
484
330
6FD
100
AcDbEntity
  8
GAIKEI
 62
     1
100
AcDbCircle
 10
46.78124551025621
 20
201.9348641572578
 30
0.0
 40
0.05
100
AcDbArc
 50
270.0
 51
0.0
  0
ARC
  5
485
330
6FD
100
AcDbEntity
  8
GAIKEI
 62
     1
100
AcDbCircle
 10
45.98124551025626
 20
202.3348641572577
 30
0.0
 40
0.05
100
AcDbArc
 50
90.0
 51
180.0
  0
ARC
  5
486
330
6FD
100
AcDbEntity
  8
GAIKEI
 62
     1
100
AcDbCircle
 10
45.98124551025626
 20
201.9348641572578
 30
0.0
 40
0.05
100
AcDbArc
 50
180.0
 51
270.0
  0
ARC
  5
487
330
6FD
100
AcDbEntity
  8
GAIKEI
 62
     1
100
AcDbCircle
 10
46.78124551025621
 20
202.3348641572577
 30
0.0
 40
0.05
100
AcDbArc
 50
0.0
 51
90.0
  0
LINE
  5
488
330
6FD
100
AcDbEntity
  8
GAIKEI
 62
     1
100
AcDbLine
 10
46.8818723192287
 20
202.9928537950111
 30
0.0
 11
45.83187231922875
 21
202.9928537950109
 31
0.0
  0
LINE
  5
489
330
6FD
100
AcDbEntity
  8
GAIKEI
 62
     1
100
AcDbLine
 10
45.8812452357031
 20
202.459765737264
 30
0.0
 11
46.88124523570285
 21
202.459765737264
 31
0.0
  0
LINE
  5
48A
330
6FD
100
AcDbEntity
  8
GAIKEI
 62
     1
100
AcDbLine
 10
46.88124523570285
 20
202.459765737264
 30
0.0
 11
46.88124523570285
 21
201.8097878355154
 31
0.0
  0
LINE
  5
48B
330
6FD
100
AcDbEntity
  8
GAIKEI
 62
     1
100
AcDbLine
 10
46.88124523570285
 20
201.8097878355154
 30
0.0
 11
45.8812452357031
 21
201.8097878355154
 31
0.0
  0
LINE
  5
48C
330
6FD
100
AcDbEntity
  8
GAIKEI
 62
     1
100
AcDbLine
 10
45.8812452357031
 20
201.8097878355154
 30
0.0
 11
45.8812452357031
 21
202.459765737264
 31
0.0
  0
LINE
  5
48D
330
6FD
100
AcDbEntity
  8
GAIKEI
 62
     1
100
AcDbLine
 10
45.8812452357031
 20
202.459765737264
 30
0.0
 11
46.88124523570285
 21
202.459765737264
 31
0.0
  0
LINE
  5
48E
330
6FD
100
AcDbEntity
  8
GAIKEI
 62
     1
100
AcDbLine
 10
46.88124523570285
 20
202.459765737264
 30
0.0
 11
46.88124523570285
 21
201.8097878355154
 31
0.0
  0
LINE
  5
48F
330
6FD
100
AcDbEntity
  8
GAIKEI
 62
     1
100
AcDbLine
 10
46.88124523570285
 20
201.8097878355154
 30
0.0
 11
45.8812452357031
 21
201.8097878355154
 31
0.0
  0
LINE
  5
490
330
6FD
100
AcDbEntity
  8
GAIKEI
 62
     1
100
AcDbLine
 10
45.8812452357031
 20
201.8097878355154
 30
0.0
 11
45.8812452357031
 21
202.459765737264
 31
0.0
  0
LINE
  5
491
330
6FD
100
AcDbEntity
  8
GAIKEI
 62
     1
100
AcDbLine
 10
46.88124490966152
 20
202.4597978625031
 30
0.0
 11
46.88124490966152
 21
201.8098027693072
 31
0.0
  0
LINE
  5
492
330
6FD
100
AcDbEntity
  8
GAIKEI
 62
     1
100
AcDbLine
 10
46.88124490966152
 20
201.8098027693072
 30
0.0
 11
45.88124490966152
 21
201.8098027693072
 31
0.0
  0
LINE
  5
493
330
6FD
100
AcDbEntity
  8
GAIKEI
 62
     1
100
AcDbLine
 10
46.88124490966152
 20
202.4597978625031
 30
0.0
 11
46.88124490966152
 21
201.8098027693072
 31
0.0
  0
LINE
  5
494
330
6FD
100
AcDbEntity
  8
GAIKEI
 62
     1
100
AcDbLine
 10
46.88124490966152
 20
201.8098027693072
 30
0.0
 11
45.88124490966152
 21
201.8098027693072
 31
0.0
  0
LINE
  5
495
330
6FD
100
AcDbEntity
  8
GAIKEI
 62
     1
100
AcDbLine
 10
45.88124490966152
 20
202.4597978625031
 30
0.0
 11
46.88124490966152
 21
202.4597978625031
 31
0.0
  0
LINE
  5
496
330
6FD
100
AcDbEntity
  8
GAIKEI
 62
     1
100
AcDbLine
 10
45.88124490966152
 20
201.8098027693072
 30
0.0
 11
45.88124490966152
 21
202.4597978625031
 31
0.0
  0
LINE
  5
497
330
6FD
100
AcDbEntity
  8
GAIKEI
 62
     1
100
AcDbLine
 10
45.88124490966152
 20
202.4597978625031
 30
0.0
 11
46.88124490966152
 21
202.4597978625031
 31
0.0
  0
LINE
  5
498
330
6FD
100
AcDbEntity
  8
GAIKEI
 62
     1
100
AcDbLine
 10
45.88124490966152
 20
201.8098027693072
 30
0.0
 11
45.88124490966152
 21
202.4597978625031
 31
0.0
  0
LINE
  5
499
330
6FD
100
AcDbEntity
  8
GAIKEI
 62
     1
100
AcDbLine
 10
46.88124490966152
 20
201.8098027693072
 30
0.0
 11
45.88124490966152
 21
201.8098027693072
 31
0.0
  0
LINE
  5
49A
330
6FD
100
AcDbEntity
  8
GAIKEI
 62
     1
100
AcDbLine
 10
46.88124490966152
 20
202.4597978625031
 30
0.0
 11
46.88124490966152
 21
201.8098027693072
 31
0.0
  0
LINE
  5
49B
330
6FD
100
AcDbEntity
  8
GAIKEI
 62
     1
100
AcDbLine
 10
46.88124490966152
 20
201.8098027693072
 30
0.0
 11
45.88124490966152
 21
201.8098027693072
 31
0.0
  0
LINE
  5
49C
330
6FD
100
AcDbEntity
  8
GAIKEI
 62
     1
100
AcDbLine
 10
45.88124490966152
 20
202.4597978625031
 30
0.0
 11
46.88124490966152
 21
202.4597978625031
 31
0.0
  0
LINE
  5
49D
330
6FD
100
AcDbEntity
  8
GAIKEI
 62
     1
100
AcDbLine
 10
45.88124490966152
 20
202.4597978625031
 30
0.0
 11
46.88124490966152
 21
202.4597978625031
 31
0.0
  0
LINE
  5
49E
330
6FD
100
AcDbEntity
  8
GAIKEI
 62
     1
100
AcDbLine
 10
45.88124490966152
 20
201.8098027693072
 30
0.0
 11
45.88124490966152
 21
202.4597978625031
 31
0.0
  0
LINE
  5
49F
330
6FD
100
AcDbEntity
  8
GAIKEI
 62
     1
100
AcDbLine
 10
46.88124490966152
 20
202.4597978625031
 30
0.0
 11
46.88124490966152
 21
201.8098027693072
 31
0.0
  0
LINE
  5
4A0
330
6FD
100
AcDbEntity
  8
GAIKEI
 62
     1
100
AcDbLine
 10
46.88124490966152
 20
201.8098027693072
 30
0.0
 11
45.88124490966152
 21
201.8098027693072
 31
0.0
  0
LINE
  5
4A1
330
6FD
100
AcDbEntity
  8
GAIKEI
 62
     1
100
AcDbLine
 10
46.88124490966152
 20
202.4597978625031
 30
0.0
 11
46.88124490966152
 21
201.8098027693072
 31
0.0
  0
LINE
  5
4A2
330
6FD
100
AcDbEntity
  8
GAIKEI
 62
     1
100
AcDbLine
 10
45.88124490966152
 20
202.4597978625031
 30
0.0
 11
46.88124490966152
 21
202.4597978625031
 31
0.0
  0
LINE
  5
4A3
330
6FD
100
AcDbEntity
  8
GAIKEI
 62
     1
100
AcDbLine
 10
45.88124490966152
 20
201.8098027693072
 30
0.0
 11
45.88124490966152
 21
202.4597978625031
 31
0.0
  0
LINE
  5
4A4
330
6FD
100
AcDbEntity
  8
GAIKEI
 62
     1
100
AcDbLine
 10
45.88124490966152
 20
201.8098027693072
 30
0.0
 11
45.88124490966152
 21
202.4597978625031
 31
0.0
  0
LINE
  5
4A5
330
6FD
100
AcDbEntity
  8
GAIKEI
 62
     1
100
AcDbLine
 10
45.88124490966152
 20
202.4597978625031
 30
0.0
 11
46.88124490966152
 21
202.4597978625031
 31
0.0
  0
LINE
  5
4A6
330
6FD
100
AcDbEntity
  8
GAIKEI
 62
     1
100
AcDbLine
 10
46.88124490966152
 20
202.4597978625031
 30
0.0
 11
46.88124490966152
 21
201.8098027693072
 31
0.0
  0
LINE
  5
4A7
330
6FD
100
AcDbEntity
  8
GAIKEI
 62
     1
100
AcDbLine
 10
46.88124490966152
 20
201.8098027693072
 30
0.0
 11
45.88124490966152
 21
201.8098027693072
 31
0.0
  0
LINE
  5
4A8
330
6FD
100
AcDbEntity
  8
GAIKEI
 62
     1
100
AcDbLine
 10
45.88124490966152
 20
201.8098027693072
 30
0.0
 11
45.88124490966152
 21
202.4597978625031
 31
0.0
  0
LINE
  5
4A9
330
6FD
100
AcDbEntity
  8
GAIKEI
 62
     1
100
AcDbLine
 10
45.88124490966152
 20
202.4597978625031
 30
0.0
 11
46.88124490966152
 21
202.4597978625031
 31
0.0
  0
LINE
  5
4AA
330
6FD
100
AcDbEntity
  8
GAIKEI
 62
     1
100
AcDbLine
 10
46.88124490966152
 20
202.4597978625031
 30
0.0
 11
46.88124490966152
 21
201.8098027693072
 31
0.0
  0
LINE
  5
4AB
330
6FD
100
AcDbEntity
  8
GAIKEI
 62
     1
100
AcDbLine
 10
46.88124490966152
 20
201.8098027693072
 30
0.0
 11
45.88124490966152
 21
201.8098027693072
 31
0.0
  0
LINE
  5
4AC
330
6FD
100
AcDbEntity
  8
GAIKEI
 62
     1
100
AcDbLine
 10
45.88124490966152
 20
201.8098027693072
 30
0.0
 11
45.88124490966152
 21
202.4597978625031
 31
0.0
  0
LINE
  5
4AD
330
6FD
100
AcDbEntity
  8
GAIKEI
 62
     1
100
AcDbLine
 10
45.88124490966152
 20
202.4597978625031
 30
0.0
 11
46.88124490966152
 21
202.4597978625031
 31
0.0
  0
LINE
  5
4AE
330
6FD
100
AcDbEntity
  8
GAIKEI
 62
     1
100
AcDbLine
 10
46.88124490966152
 20
202.4597978625031
 30
0.0
 11
46.88124490966152
 21
201.8098199607546
 31
0.0
  0
LINE
  5
4AF
330
6FD
100
AcDbEntity
  8
GAIKEI
 62
     1
100
AcDbLine
 10
46.88124490966152
 20
201.8098199607546
 30
0.0
 11
45.88124490966152
 21
201.8098199607546
 31
0.0
  0
LINE
  5
4B0
330
6FD
100
AcDbEntity
  8
GAIKEI
 62
     1
100
AcDbLine
 10
45.88124490966152
 20
201.8098199607546
 30
0.0
 11
45.88124490966152
 21
202.4597978625031
 31
0.0
  0
LINE
  5
4B1
330
6FD
100
AcDbEntity
  8
GAIKEI
 62
     1
100
AcDbLine
 10
45.88124490966152
 20
202.4597978625031
 30
0.0
 11
46.88124490966152
 21
202.4597978625031
 31
0.0
  0
LINE
  5
4B2
330
6FD
100
AcDbEntity
  8
GAIKEI
 62
     1
100
AcDbLine
 10
46.88124490966152
 20
202.4597978625031
 30
0.0
 11
46.88124490966152
 21
201.8098199607546
 31
0.0
  0
LINE
  5
4B3
330
6FD
100
AcDbEntity
  8
GAIKEI
 62
     1
100
AcDbLine
 10
46.88124490966152
 20
201.8098199607546
 30
0.0
 11
45.88124490966152
 21
201.8098199607546
 31
0.0
  0
LINE
  5
4B4
330
6FD
100
AcDbEntity
  8
GAIKEI
 62
     1
100
AcDbLine
 10
45.88124490966152
 20
201.8098199607546
 30
0.0
 11
45.88124490966152
 21
202.4597978625031
 31
0.0
  0
LINE
  5
4B5
330
6FD
100
AcDbEntity
  8
GAIKEI
 62
     1
100
AcDbLine
 10
45.88124490966152
 20
202.4597978625031
 30
0.0
 11
46.88124490966152
 21
202.4597978625031
 31
0.0
  0
LINE
  5
4B6
330
6FD
100
AcDbEntity
  8
GAIKEI
 62
     1
100
AcDbLine
 10
46.88124490966152
 20
202.4597978625031
 30
0.0
 11
46.88124490966152
 21
201.8097978625031
 31
0.0
  0
LINE
  5
4B7
330
6FD
100
AcDbEntity
  8
GAIKEI
 62
     1
100
AcDbLine
 10
46.88124490966152
 20
201.8097978625031
 30
0.0
 11
45.88124490966152
 21
201.8097978625031
 31
0.0
  0
LINE
  5
4B8
330
6FD
100
AcDbEntity
  8
GAIKEI
 62
     1
100
AcDbLine
 10
45.88124490966152
 20
201.8097978625031
 30
0.0
 11
45.88124490966152
 21
202.4597978625031
 31
0.0
  0
LINE
  5
4B9
330
6FD
100
AcDbEntity
  8
GAIKEI
 62
     1
100
AcDbLine
 10
45.88124490966152
 20
202.4597978625031
 30
0.0
 11
46.88124490966152
 21
202.4597978625031
 31
0.0
  0
LINE
  5
4BA
330
6FD
100
AcDbEntity
  8
GAIKEI
 62
     1
100
AcDbLine
 10
46.88124490966152
 20
202.4597978625031
 30
0.0
 11
46.88124490966152
 21
201.8097978625031
 31
0.0
  0
LINE
  5
4BB
330
6FD
100
AcDbEntity
  8
GAIKEI
 62
     1
100
AcDbLine
 10
46.88124490966152
 20
201.8097978625031
 30
0.0
 11
45.88124490966152
 21
201.8097978625031
 31
0.0
  0
LINE
  5
4BC
330
6FD
100
AcDbEntity
  8
GAIKEI
 62
     1
100
AcDbLine
 10
45.88124490966152
 20
201.8097978625031
 30
0.0
 11
45.88124490966152
 21
202.4597978625031
 31
0.0
  0
LINE
  5
4BD
330
6FD
100
AcDbEntity
  8
GAIKEI
 62
     1
100
AcDbLine
 10
45.88124490966152
 20
202.4597978625031
 30
0.0
 11
46.88124490966152
 21
202.4597978625031
 31
0.0
  0
LINE
  5
4BE
330
6FD
100
AcDbEntity
  8
GAIKEI
 62
     1
100
AcDbLine
 10
46.88124490966152
 20
202.4597978625031
 30
0.0
 11
46.88124490966152
 21
201.8097978625031
 31
0.0
  0
LINE
  5
4BF
330
6FD
100
AcDbEntity
  8
GAIKEI
 62
     1
100
AcDbLine
 10
46.88124490966152
 20
201.8097978625031
 30
0.0
 11
45.88124490966152
 21
201.8097978625031
 31
0.0
  0
LINE
  5
4C0
330
6FD
100
AcDbEntity
  8
GAIKEI
 62
     1
100
AcDbLine
 10
45.88124490966152
 20
201.8097978625031
 30
0.0
 11
45.88124490966152
 21
202.4597978625031
 31
0.0
  0
LINE
  5
4C1
330
6FD
100
AcDbEntity
  8
GAIKEI
 62
     1
100
AcDbLine
 10
45.88124490966152
 20
202.4597978625031
 30
0.0
 11
46.88124490966152
 21
202.4597978625031
 31
0.0
  0
LINE
  5
4C2
330
6FD
100
AcDbEntity
  8
GAIKEI
 62
     1
100
AcDbLine
 10
46.88124490966152
 20
202.4597978625031
 30
0.0
 11
46.88124490966152
 21
201.8097978625031
 31
0.0
  0
LINE
  5
4C3
330
6FD
100
AcDbEntity
  8
GAIKEI
 62
     1
100
AcDbLine
 10
46.88124490966152
 20
201.8097978625031
 30
0.0
 11
45.88124490966152
 21
201.8097978625031
 31
0.0
  0
LINE
  5
4C4
330
6FD
100
AcDbEntity
  8
GAIKEI
 62
     1
100
AcDbLine
 10
45.88124490966152
 20
201.8097978625031
 30
0.0
 11
45.88124490966152
 21
202.4597978625031
 31
0.0
  0
LINE
  5
4C5
330
6FD
100
AcDbEntity
  8
GAIKEI
 62
     1
100
AcDbLine
 10
45.88124490966152
 20
202.4597978625031
 30
0.0
 11
46.88124490966152
 21
202.4597978625031
 31
0.0
  0
LINE
  5
4C6
330
6FD
100
AcDbEntity
  8
GAIKEI
 62
     1
100
AcDbLine
 10
46.88124490966152
 20
202.4597978625031
 30
0.0
 11
46.88124490966152
 21
201.8097978625031
 31
0.0
  0
LINE
  5
4C7
330
6FD
100
AcDbEntity
  8
GAIKEI
 62
     1
100
AcDbLine
 10
46.88124490966152
 20
201.8097978625031
 30
0.0
 11
45.88124490966152
 21
201.8097978625031
 31
0.0
  0
LINE
  5
4C8
330
6FD
100
AcDbEntity
  8
GAIKEI
 62
     1
100
AcDbLine
 10
45.88124490966152
 20
201.8097978625031
 30
0.0
 11
45.88124490966152
 21
202.4597978625031
 31
0.0
  0
LINE
  5
4C9
330
6FD
100
AcDbEntity
  8
GAIKEI
 62
     1
100
AcDbLine
 10
45.88124490966152
 20
202.4597978625031
 30
0.0
 11
46.88124490966152
 21
202.4597978625031
 31
0.0
  0
LINE
  5
4CA
330
6FD
100
AcDbEntity
  8
GAIKEI
 62
     1
100
AcDbLine
 10
46.88124490966152
 20
202.4597978625031
 30
0.0
 11
46.88124490966152
 21
201.8097978625031
 31
0.0
  0
LINE
  5
4CB
330
6FD
100
AcDbEntity
  8
GAIKEI
 62
     1
100
AcDbLine
 10
46.88124490966152
 20
201.8097978625031
 30
0.0
 11
45.88124490966152
 21
201.8097978625031
 31
0.0
  0
LINE
  5
4CC
330
6FD
100
AcDbEntity
  8
GAIKEI
 62
     1
100
AcDbLine
 10
45.88124490966152
 20
201.8097978625031
 30
0.0
 11
45.88124490966152
 21
202.4597978625031
 31
0.0
  0
LINE
  5
4CD
330
6FD
100
AcDbEntity
  8
GAIKEI
 62
     1
100
AcDbLine
 10
45.93124551025629
 20
201.9348641572578
 30
0.0
 11
45.93124551025629
 21
202.3348641572577
 31
0.0
  0
LINE
  5
4CE
330
6FD
100
AcDbEntity
  8
GAIKEI
 62
     1
100
AcDbLine
 10
46.78124551025621
 20
201.8848641572579
 30
0.0
 11
45.98124551025626
 21
201.8848641572579
 31
0.0
  0
LINE
  5
4CF
330
6FD
100
AcDbEntity
  8
GAIKEI
 62
     1
100
AcDbLine
 10
46.83124551025617
 20
202.3348641572577
 30
0.0
 11
46.83124551025617
 21
201.9348641572578
 31
0.0
  0
LINE
  5
4D0
330
6FD
100
AcDbEntity
  8
GAIKEI
 62
     1
100
AcDbLine
 10
45.98124551025626
 20
202.3848641572579
 30
0.0
 11
46.78124551025621
 21
202.3848641572579
 31
0.0
  0
ARC
  5
4D1
330
6FD
100
AcDbEntity
  8
GAIKEI
 62
     1
100
AcDbCircle
 10
48.65624551025621
 20
201.9348641572578
 30
0.0
 40
0.05
100
AcDbArc
 50
270.0
 51
0.0
  0
ARC
  5
4D2
330
6FD
100
AcDbEntity
  8
GAIKEI
 62
     1
100
AcDbCircle
 10
47.85624551025626
 20
202.3348641572577
 30
0.0
 40
0.05
100
AcDbArc
 50
90.0
 51
180.0
  0
ARC
  5
4D3
330
6FD
100
AcDbEntity
  8
GAIKEI
 62
     1
100
AcDbCircle
 10
47.85624551025626
 20
201.9348641572578
 30
0.0
 40
0.05
100
AcDbArc
 50
180.0
 51
270.0
  0
ARC
  5
4D4
330
6FD
100
AcDbEntity
  8
GAIKEI
 62
     1
100
AcDbCircle
 10
48.65624551025621
 20
202.3348641572577
 30
0.0
 40
0.05
100
AcDbArc
 50
0.0
 51
90.0
  0
LINE
  5
4D5
330
6FD
100
AcDbEntity
  8
GAIKEI
 62
     1
100
AcDbLine
 10
47.75624523570285
 20
202.4597878355155
 30
0.0
 11
48.75624523570285
 21
202.4597878355155
 31
0.0
  0
LINE
  5
4D6
330
6FD
100
AcDbEntity
  8
GAIKEI
 62
     1
100
AcDbLine
 10
48.75624523570285
 20
202.4597878355155
 30
0.0
 11
48.75624523570285
 21
201.8097878355154
 31
0.0
  0
LINE
  5
4D7
330
6FD
100
AcDbEntity
  8
GAIKEI
 62
     1
100
AcDbLine
 10
48.75624523570285
 20
201.8097878355154
 30
0.0
 11
47.75624523570285
 21
201.8097878355154
 31
0.0
  0
LINE
  5
4D8
330
6FD
100
AcDbEntity
  8
GAIKEI
 62
     1
100
AcDbLine
 10
47.75624523570285
 20
201.8097878355154
 30
0.0
 11
47.75624523570285
 21
202.4597878355155
 31
0.0
  0
LINE
  5
4D9
330
6FD
100
AcDbEntity
  8
GAIKEI
 62
     1
100
AcDbLine
 10
47.75624523570285
 20
202.4597878355155
 30
0.0
 11
48.75624523570285
 21
202.4597878355155
 31
0.0
  0
LINE
  5
4DA
330
6FD
100
AcDbEntity
  8
GAIKEI
 62
     1
100
AcDbLine
 10
48.75624523570285
 20
202.4597878355155
 30
0.0
 11
48.75624523570285
 21
201.8097878355154
 31
0.0
  0
LINE
  5
4DB
330
6FD
100
AcDbEntity
  8
GAIKEI
 62
     1
100
AcDbLine
 10
48.75624523570285
 20
201.8097878355154
 30
0.0
 11
47.75624523570285
 21
201.8097878355154
 31
0.0
  0
LINE
  5
4DC
330
6FD
100
AcDbEntity
  8
GAIKEI
 62
     1
100
AcDbLine
 10
47.75624523570285
 20
201.8097878355154
 30
0.0
 11
47.75624523570285
 21
202.4597878355155
 31
0.0
  0
LINE
  5
4DD
330
6FD
100
AcDbEntity
  8
GAIKEI
 62
     1
100
AcDbLine
 10
48.75624523570285
 20
202.4597978625031
 30
0.0
 11
48.75624523570285
 21
201.8098027693072
 31
0.0
  0
LINE
  5
4DE
330
6FD
100
AcDbEntity
  8
GAIKEI
 62
     1
100
AcDbLine
 10
48.75624523570285
 20
201.8098027693072
 30
0.0
 11
47.75624523570285
 21
201.8098027693072
 31
0.0
  0
LINE
  5
4DF
330
6FD
100
AcDbEntity
  8
GAIKEI
 62
     1
100
AcDbLine
 10
48.75624523570285
 20
202.4597978625031
 30
0.0
 11
48.75624523570285
 21
201.8098027693072
 31
0.0
  0
LINE
  5
4E0
330
6FD
100
AcDbEntity
  8
GAIKEI
 62
     1
100
AcDbLine
 10
48.75624523570285
 20
201.8098027693072
 30
0.0
 11
47.75624523570285
 21
201.8098027693072
 31
0.0
  0
LINE
  5
4E1
330
6FD
100
AcDbEntity
  8
GAIKEI
 62
     1
100
AcDbLine
 10
47.75624523570285
 20
202.4597978625031
 30
0.0
 11
48.75624523570285
 21
202.4597978625031
 31
0.0
  0
LINE
  5
4E2
330
6FD
100
AcDbEntity
  8
GAIKEI
 62
     1
100
AcDbLine
 10
47.75624523570285
 20
201.8098027693072
 30
0.0
 11
47.75624523570285
 21
202.4597978625031
 31
0.0
  0
LINE
  5
4E3
330
6FD
100
AcDbEntity
  8
GAIKEI
 62
     1
100
AcDbLine
 10
47.75624523570285
 20
202.4597978625031
 30
0.0
 11
48.75624523570285
 21
202.4597978625031
 31
0.0
  0
LINE
  5
4E4
330
6FD
100
AcDbEntity
  8
GAIKEI
 62
     1
100
AcDbLine
 10
47.75624523570285
 20
201.8098027693072
 30
0.0
 11
47.75624523570285
 21
202.4597978625031
 31
0.0
  0
LINE
  5
4E5
330
6FD
100
AcDbEntity
  8
GAIKEI
 62
     1
100
AcDbLine
 10
48.75624523570285
 20
201.8098027693072
 30
0.0
 11
47.75624523570285
 21
201.8098027693072
 31
0.0
  0
LINE
  5
4E6
330
6FD
100
AcDbEntity
  8
GAIKEI
 62
     1
100
AcDbLine
 10
48.75624523570285
 20
202.4597978625031
 30
0.0
 11
48.75624523570285
 21
201.8098027693072
 31
0.0
  0
LINE
  5
4E7
330
6FD
100
AcDbEntity
  8
GAIKEI
 62
     1
100
AcDbLine
 10
48.75624523570285
 20
201.8098027693072
 30
0.0
 11
47.75624523570285
 21
201.8098027693072
 31
0.0
  0
LINE
  5
4E8
330
6FD
100
AcDbEntity
  8
GAIKEI
 62
     1
100
AcDbLine
 10
47.75624523570285
 20
202.4597978625031
 30
0.0
 11
48.75624523570285
 21
202.4597978625031
 31
0.0
  0
LINE
  5
4E9
330
6FD
100
AcDbEntity
  8
GAIKEI
 62
     1
100
AcDbLine
 10
47.75624523570285
 20
202.4597978625031
 30
0.0
 11
48.75624523570285
 21
202.4597978625031
 31
0.0
  0
LINE
  5
4EA
330
6FD
100
AcDbEntity
  8
GAIKEI
 62
     1
100
AcDbLine
 10
47.75624523570285
 20
201.8098027693072
 30
0.0
 11
47.75624523570285
 21
202.4597978625031
 31
0.0
  0
LINE
  5
4EB
330
6FD
100
AcDbEntity
  8
GAIKEI
 62
     1
100
AcDbLine
 10
48.75624523570285
 20
202.4597978625031
 30
0.0
 11
48.75624523570285
 21
201.8098027693072
 31
0.0
  0
LINE
  5
4EC
330
6FD
100
AcDbEntity
  8
GAIKEI
 62
     1
100
AcDbLine
 10
48.75624523570285
 20
201.8098027693072
 30
0.0
 11
47.75624523570285
 21
201.8098027693072
 31
0.0
  0
LINE
  5
4ED
330
6FD
100
AcDbEntity
  8
GAIKEI
 62
     1
100
AcDbLine
 10
48.75624523570285
 20
202.4597978625031
 30
0.0
 11
48.75624523570285
 21
201.8098027693072
 31
0.0
  0
LINE
  5
4EE
330
6FD
100
AcDbEntity
  8
GAIKEI
 62
     1
100
AcDbLine
 10
47.75624523570285
 20
202.4597978625031
 30
0.0
 11
48.75624523570285
 21
202.4597978625031
 31
0.0
  0
LINE
  5
4EF
330
6FD
100
AcDbEntity
  8
GAIKEI
 62
     1
100
AcDbLine
 10
47.75624523570285
 20
201.8098027693072
 30
0.0
 11
47.75624523570285
 21
202.4597978625031
 31
0.0
  0
LINE
  5
4F0
330
6FD
100
AcDbEntity
  8
GAIKEI
 62
     1
100
AcDbLine
 10
47.75624523570285
 20
201.8098027693072
 30
0.0
 11
47.75624523570285
 21
202.4597978625031
 31
0.0
  0
LINE
  5
4F1
330
6FD
100
AcDbEntity
  8
GAIKEI
 62
     1
100
AcDbLine
 10
47.75624523570285
 20
202.4597978625031
 30
0.0
 11
48.75624523570285
 21
202.4597978625031
 31
0.0
  0
LINE
  5
4F2
330
6FD
100
AcDbEntity
  8
GAIKEI
 62
     1
100
AcDbLine
 10
48.75624523570285
 20
202.4597978625031
 30
0.0
 11
48.75624523570285
 21
201.8098027693072
 31
0.0
  0
LINE
  5
4F3
330
6FD
100
AcDbEntity
  8
GAIKEI
 62
     1
100
AcDbLine
 10
48.75624523570285
 20
201.8098027693072
 30
0.0
 11
47.75624523570285
 21
201.8098027693072
 31
0.0
  0
LINE
  5
4F4
330
6FD
100
AcDbEntity
  8
GAIKEI
 62
     1
100
AcDbLine
 10
47.75624523570285
 20
201.8098027693072
 30
0.0
 11
47.75624523570285
 21
202.4597978625031
 31
0.0
  0
LINE
  5
4F5
330
6FD
100
AcDbEntity
  8
GAIKEI
 62
     1
100
AcDbLine
 10
47.75624523570285
 20
202.4597978625031
 30
0.0
 11
48.75624523570285
 21
202.4597978625031
 31
0.0
  0
LINE
  5
4F6
330
6FD
100
AcDbEntity
  8
GAIKEI
 62
     1
100
AcDbLine
 10
48.75624523570285
 20
202.4597978625031
 30
0.0
 11
48.75624523570285
 21
201.8098027693072
 31
0.0
  0
LINE
  5
4F7
330
6FD
100
AcDbEntity
  8
GAIKEI
 62
     1
100
AcDbLine
 10
48.75624523570285
 20
201.8098027693072
 30
0.0
 11
47.75624523570285
 21
201.8098027693072
 31
0.0
  0
LINE
  5
4F8
330
6FD
100
AcDbEntity
  8
GAIKEI
 62
     1
100
AcDbLine
 10
47.75624523570285
 20
201.8098027693072
 30
0.0
 11
47.75624523570285
 21
202.4597978625031
 31
0.0
  0
LINE
  5
4F9
330
6FD
100
AcDbEntity
  8
GAIKEI
 62
     1
100
AcDbLine
 10
47.75624523570285
 20
202.4597978625031
 30
0.0
 11
48.75624523570285
 21
202.4597978625031
 31
0.0
  0
LINE
  5
4FA
330
6FD
100
AcDbEntity
  8
GAIKEI
 62
     1
100
AcDbLine
 10
48.75624523570285
 20
202.4597978625031
 30
0.0
 11
48.75624523570285
 21
201.8098199607546
 31
0.0
  0
LINE
  5
4FB
330
6FD
100
AcDbEntity
  8
GAIKEI
 62
     1
100
AcDbLine
 10
48.75624523570285
 20
201.8098199607546
 30
0.0
 11
47.75624523570285
 21
201.8098199607546
 31
0.0
  0
LINE
  5
4FC
330
6FD
100
AcDbEntity
  8
GAIKEI
 62
     1
100
AcDbLine
 10
47.75624523570285
 20
201.8098199607546
 30
0.0
 11
47.75624523570285
 21
202.4597978625031
 31
0.0
  0
LINE
  5
4FD
330
6FD
100
AcDbEntity
  8
GAIKEI
 62
     1
100
AcDbLine
 10
47.75624523570285
 20
202.4597978625031
 30
0.0
 11
48.75624523570285
 21
202.4597978625031
 31
0.0
  0
LINE
  5
4FE
330
6FD
100
AcDbEntity
  8
GAIKEI
 62
     1
100
AcDbLine
 10
48.75624523570285
 20
202.4597978625031
 30
0.0
 11
48.75624523570285
 21
201.8098199607546
 31
0.0
  0
LINE
  5
4FF
330
6FD
100
AcDbEntity
  8
GAIKEI
 62
     1
100
AcDbLine
 10
48.75624523570285
 20
201.8098199607546
 30
0.0
 11
47.75624523570285
 21
201.8098199607546
 31
0.0
  0
LINE
  5
500
330
6FD
100
AcDbEntity
  8
GAIKEI
 62
     1
100
AcDbLine
 10
47.75624523570285
 20
201.8098199607546
 30
0.0
 11
47.75624523570285
 21
202.4597978625031
 31
0.0
  0
LINE
  5
501
330
6FD
100
AcDbEntity
  8
GAIKEI
 62
     1
100
AcDbLine
 10
47.75624523570285
 20
202.4597978625031
 30
0.0
 11
48.75624523570285
 21
202.4597978625031
 31
0.0
  0
LINE
  5
502
330
6FD
100
AcDbEntity
  8
GAIKEI
 62
     1
100
AcDbLine
 10
48.75624523570285
 20
202.4597978625031
 30
0.0
 11
48.75624523570285
 21
201.8097978625031
 31
0.0
  0
LINE
  5
503
330
6FD
100
AcDbEntity
  8
GAIKEI
 62
     1
100
AcDbLine
 10
48.75624523570285
 20
201.8097978625031
 30
0.0
 11
47.75624523570285
 21
201.8097978625031
 31
0.0
  0
LINE
  5
504
330
6FD
100
AcDbEntity
  8
GAIKEI
 62
     1
100
AcDbLine
 10
47.75624523570285
 20
201.8097978625031
 30
0.0
 11
47.75624523570285
 21
202.4597978625031
 31
0.0
  0
LINE
  5
505
330
6FD
100
AcDbEntity
  8
GAIKEI
 62
     1
100
AcDbLine
 10
47.75624523570285
 20
202.4597978625031
 30
0.0
 11
48.75624523570285
 21
202.4597978625031
 31
0.0
  0
LINE
  5
506
330
6FD
100
AcDbEntity
  8
GAIKEI
 62
     1
100
AcDbLine
 10
48.75624523570285
 20
202.4597978625031
 30
0.0
 11
48.75624523570285
 21
201.8097978625031
 31
0.0
  0
LINE
  5
507
330
6FD
100
AcDbEntity
  8
GAIKEI
 62
     1
100
AcDbLine
 10
48.75624523570285
 20
201.8097978625031
 30
0.0
 11
47.75624523570285
 21
201.8097978625031
 31
0.0
  0
LINE
  5
508
330
6FD
100
AcDbEntity
  8
GAIKEI
 62
     1
100
AcDbLine
 10
47.75624523570285
 20
201.8097978625031
 30
0.0
 11
47.75624523570285
 21
202.4597978625031
 31
0.0
  0
LINE
  5
509
330
6FD
100
AcDbEntity
  8
GAIKEI
 62
     1
100
AcDbLine
 10
47.75624523570285
 20
202.4597978625031
 30
0.0
 11
48.75624523570285
 21
202.4597978625031
 31
0.0
  0
LINE
  5
50A
330
6FD
100
AcDbEntity
  8
GAIKEI
 62
     1
100
AcDbLine
 10
48.75624523570285
 20
202.4597978625031
 30
0.0
 11
48.75624523570285
 21
201.8097978625031
 31
0.0
  0
LINE
  5
50B
330
6FD
100
AcDbEntity
  8
GAIKEI
 62
     1
100
AcDbLine
 10
48.75624523570285
 20
201.8097978625031
 30
0.0
 11
47.75624523570285
 21
201.8097978625031
 31
0.0
  0
LINE
  5
50C
330
6FD
100
AcDbEntity
  8
GAIKEI
 62
     1
100
AcDbLine
 10
47.75624523570285
 20
201.8097978625031
 30
0.0
 11
47.75624523570285
 21
202.4597978625031
 31
0.0
  0
LINE
  5
50D
330
6FD
100
AcDbEntity
  8
GAIKEI
 62
     1
100
AcDbLine
 10
47.75624523570285
 20
202.4597978625031
 30
0.0
 11
48.75624523570285
 21
202.4597978625031
 31
0.0
  0
LINE
  5
50E
330
6FD
100
AcDbEntity
  8
GAIKEI
 62
     1
100
AcDbLine
 10
48.75624523570285
 20
202.4597978625031
 30
0.0
 11
48.75624523570285
 21
201.8097978625031
 31
0.0
  0
LINE
  5
50F
330
6FD
100
AcDbEntity
  8
GAIKEI
 62
     1
100
AcDbLine
 10
48.75624523570285
 20
201.8097978625031
 30
0.0
 11
47.75624523570285
 21
201.8097978625031
 31
0.0
  0
LINE
  5
510
330
6FD
100
AcDbEntity
  8
GAIKEI
 62
     1
100
AcDbLine
 10
47.75624523570285
 20
201.8097978625031
 30
0.0
 11
47.75624523570285
 21
202.4597978625031
 31
0.0
  0
LINE
  5
511
330
6FD
100
AcDbEntity
  8
GAIKEI
 62
     1
100
AcDbLine
 10
47.75624523570285
 20
202.4597978625031
 30
0.0
 11
48.75624523570285
 21
202.4597978625031
 31
0.0
  0
LINE
  5
512
330
6FD
100
AcDbEntity
  8
GAIKEI
 62
     1
100
AcDbLine
 10
48.75624523570285
 20
202.4597978625031
 30
0.0
 11
48.75624523570285
 21
201.8097978625031
 31
0.0
  0
LINE
  5
513
330
6FD
100
AcDbEntity
  8
GAIKEI
 62
     1
100
AcDbLine
 10
48.75624523570285
 20
201.8097978625031
 30
0.0
 11
47.75624523570285
 21
201.8097978625031
 31
0.0
  0
LINE
  5
514
330
6FD
100
AcDbEntity
  8
GAIKEI
 62
     1
100
AcDbLine
 10
47.75624523570285
 20
201.8097978625031
 30
0.0
 11
47.75624523570285
 21
202.4597978625031
 31
0.0
  0
LINE
  5
515
330
6FD
100
AcDbEntity
  8
GAIKEI
 62
     1
100
AcDbLine
 10
47.75624523570285
 20
202.4597978625031
 30
0.0
 11
48.75624523570285
 21
202.4597978625031
 31
0.0
  0
LINE
  5
516
330
6FD
100
AcDbEntity
  8
GAIKEI
 62
     1
100
AcDbLine
 10
48.75624523570285
 20
202.4597978625031
 30
0.0
 11
48.75624523570285
 21
201.8097978625031
 31
0.0
  0
LINE
  5
517
330
6FD
100
AcDbEntity
  8
GAIKEI
 62
     1
100
AcDbLine
 10
48.75624523570285
 20
201.8097978625031
 30
0.0
 11
47.75624523570285
 21
201.8097978625031
 31
0.0
  0
LINE
  5
518
330
6FD
100
AcDbEntity
  8
GAIKEI
 62
     1
100
AcDbLine
 10
47.75624523570285
 20
201.8097978625031
 30
0.0
 11
47.75624523570285
 21
202.4597978625031
 31
0.0
  0
LINE
  5
519
330
6FD
100
AcDbEntity
  8
GAIKEI
 62
     1
100
AcDbLine
 10
47.80624551025629
 20
201.9348641572578
 30
0.0
 11
47.80624551025629
 21
202.3348641572577
 31
0.0
  0
LINE
  5
51A
330
6FD
100
AcDbEntity
  8
GAIKEI
 62
     1
100
AcDbLine
 10
48.65624551025621
 20
201.8848641572579
 30
0.0
 11
47.85624551025626
 21
201.8848641572579
 31
0.0
  0
LINE
  5
51B
330
6FD
100
AcDbEntity
  8
GAIKEI
 62
     1
100
AcDbLine
 10
48.70624551025617
 20
202.3348641572577
 30
0.0
 11
48.70624551025617
 21
201.9348641572578
 31
0.0
  0
LINE
  5
51C
330
6FD
100
AcDbEntity
  8
GAIKEI
 62
     1
100
AcDbLine
 10
47.85624551025626
 20
202.3848641572579
 30
0.0
 11
48.65624551025621
 21
202.3848641572579
 31
0.0
  0
LINE
  5
51D
330
6FD
100
AcDbEntity
  8
GAIKEI
 62
     1
100
AcDbLine
 10
48.43124588778643
 20
202.204864157258
 30
0.0
 11
48.43124588778643
 21
202.3848641572579
 31
0.0
  0
LINE
  5
51E
330
6FD
100
AcDbEntity
  8
GAIKEI
 62
     1
100
AcDbLine
 10
48.08124588778628
 20
202.204864157258
 30
0.0
 11
48.43124588778643
 21
202.204864157258
 31
0.0
  0
LINE
  5
51F
330
6FD
100
AcDbEntity
  8
GAIKEI
 62
     1
100
AcDbLine
 10
48.08124588778628
 20
202.3848641572579
 30
0.0
 11
48.08124588778628
 21
202.204864157258
 31
0.0
  0
ARC
  5
520
330
6FD
100
AcDbEntity
  8
GAIKEI
 62
     1
100
AcDbCircle
 10
49.48124556174479
 20
200.4597880488948
 30
0.0
 40
0.05
100
AcDbArc
 50
270.0
 51
0.0
  0
ARC
  5
521
330
6FD
100
AcDbEntity
  8
GAIKEI
 62
     1
100
AcDbCircle
 10
49.48124556174479
 20
201.0097929450005
 30
0.0
 40
0.05
100
AcDbArc
 50
0.0
 51
90.0
  0
ARC
  5
522
330
6FD
100
AcDbEntity
  8
GAIKEI
 62
     1
100
AcDbCircle
 10
49.73124551025627
 20
200.9348420590063
 30
0.0
 40
0.05
100
AcDbArc
 50
90.0
 51
180.0
  0
ARC
  5
523
330
6FD
100
AcDbEntity
  8
GAIKEI
 62
     1
100
AcDbCircle
 10
49.73124551025627
 20
200.5348420590062
 30
0.0
 40
0.05
100
AcDbArc
 50
180.0
 51
270.0
  0
LINE
  5
524
330
6FD
100
AcDbEntity
  8
GAIKEI
 62
     1
100
AcDbLine
 10
49.63124523570286
 20
200.4097878355155
 30
0.0
 11
49.63124523570286
 21
201.0597878355154
 31
0.0
  0
LINE
  5
525
330
6FD
100
AcDbEntity
  8
GAIKEI
 62
     1
100
AcDbLine
 10
49.63124523570286
 20
200.4097878355155
 30
0.0
 11
49.63124523570286
 21
201.0597878355154
 31
0.0
  0
LINE
  5
526
330
6FD
100
AcDbEntity
  8
GAIKEI
 62
     1
100
AcDbLine
 10
49.53124556174475
 20
200.4097880488945
 30
0.0
 11
49.53124556174475
 21
200.4097659506431
 31
0.0
  0
LINE
  5
527
330
6FD
100
AcDbEntity
  8
GAIKEI
 62
     1
100
AcDbLine
 10
49.48124556174479
 20
200.4097880488945
 30
0.0
 11
49.13124556174489
 21
200.4097880488945
 31
0.0
  0
LINE
  5
528
330
6FD
100
AcDbEntity
  8
GAIKEI
 62
     1
100
AcDbLine
 10
49.48124556174479
 20
200.4097880488945
 30
0.0
 11
49.0812455617447
 21
200.4097880488945
 31
0.0
  0
LINE
  5
529
330
6FD
100
AcDbEntity
  8
GAIKEI
 62
     1
100
AcDbLine
 10
49.53124556174475
 20
201.0097929450005
 30
0.0
 11
49.53124556174475
 21
200.4597880488948
 31
0.0
  0
LINE
  5
52A
330
6FD
100
AcDbEntity
  8
GAIKEI
 62
     1
100
AcDbLine
 10
49.0812455617447
 20
201.0597929450005
 30
0.0
 11
49.48124556174479
 21
201.0597929450005
 31
0.0
  0
LINE
  5
52B
330
6FD
100
AcDbEntity
  8
GAIKEI
 62
     1
100
AcDbLine
 10
49.63124556174444
 20
200.4097708574475
 30
0.0
 11
49.63124556174444
 21
201.0597659506432
 31
0.0
  0
LINE
  5
52C
330
6FD
100
AcDbEntity
  8
GAIKEI
 62
     1
100
AcDbLine
 10
49.63124556174444
 20
200.4097708574475
 30
0.0
 11
49.63124556174444
 21
201.0597659506432
 31
0.0
  0
LINE
  5
52D
330
6FD
100
AcDbEntity
  8
GAIKEI
 62
     1
100
AcDbLine
 10
49.63124556174444
 20
200.4097708574475
 30
0.0
 11
49.63124556174444
 21
201.0597659506432
 31
0.0
  0
LINE
  5
52E
330
6FD
100
AcDbEntity
  8
GAIKEI
 62
     1
100
AcDbLine
 10
49.63124556174444
 20
200.4097708574475
 30
0.0
 11
49.63124556174444
 21
201.0597659506432
 31
0.0
  0
LINE
  5
52F
330
6FD
100
AcDbEntity
  8
GAIKEI
 62
     1
100
AcDbLine
 10
49.63124556174444
 20
200.4097708574475
 30
0.0
 11
49.63124556174444
 21
201.0597659506432
 31
0.0
  0
LINE
  5
530
330
6FD
100
AcDbEntity
  8
GAIKEI
 62
     1
100
AcDbLine
 10
49.63124556174444
 20
200.4097708574475
 30
0.0
 11
49.63124556174444
 21
201.0597659506432
 31
0.0
  0
LINE
  5
531
330
6FD
100
AcDbEntity
  8
GAIKEI
 62
     1
100
AcDbLine
 10
49.63124556174444
 20
200.4097708574475
 30
0.0
 11
49.63124556174444
 21
201.0597659506432
 31
0.0
  0
LINE
  5
532
330
6FD
100
AcDbEntity
  8
GAIKEI
 62
     1
100
AcDbLine
 10
49.63124556174444
 20
200.4097880488945
 30
0.0
 11
49.63124556174444
 21
201.0597659506432
 31
0.0
  0
LINE
  5
533
330
6FD
100
AcDbEntity
  8
GAIKEI
 62
     1
100
AcDbLine
 10
49.63124556174444
 20
200.4097880488945
 30
0.0
 11
49.63124556174444
 21
201.0597659506432
 31
0.0
  0
LINE
  5
534
330
6FD
100
AcDbEntity
  8
GAIKEI
 62
     1
100
AcDbLine
 10
49.63124556174444
 20
200.4097659506431
 30
0.0
 11
49.63124556174444
 21
201.0597659506432
 31
0.0
  0
LINE
  5
535
330
6FD
100
AcDbEntity
  8
GAIKEI
 62
     1
100
AcDbLine
 10
49.63124556174444
 20
200.4097659506431
 30
0.0
 11
49.63124556174444
 21
201.0597659506432
 31
0.0
  0
LINE
  5
536
330
6FD
100
AcDbEntity
  8
GAIKEI
 62
     1
100
AcDbLine
 10
49.63124556174444
 20
200.4097659506431
 30
0.0
 11
49.63124556174444
 21
201.0597659506432
 31
0.0
  0
LINE
  5
537
330
6FD
100
AcDbEntity
  8
GAIKEI
 62
     1
100
AcDbLine
 10
49.63124556174444
 20
200.4097659506431
 30
0.0
 11
49.63124556174444
 21
201.0597659506432
 31
0.0
  0
LINE
  5
538
330
6FD
100
AcDbEntity
  8
GAIKEI
 62
     1
100
AcDbLine
 10
49.63124556174444
 20
200.4097659506431
 30
0.0
 11
49.63124556174444
 21
201.0597659506432
 31
0.0
  0
LINE
  5
539
330
6FD
100
AcDbEntity
  8
GAIKEI
 62
     1
100
AcDbLine
 10
49.63124556174444
 20
200.4097659506431
 30
0.0
 11
49.63124556174444
 21
201.0597659506432
 31
0.0
  0
LINE
  5
53A
330
6FD
100
AcDbEntity
  8
GAIKEI
 62
     1
100
AcDbLine
 10
49.68124551025629
 20
200.5348420590062
 30
0.0
 11
49.68124551025629
 21
200.9348420590063
 31
0.0
  0
LINE
  5
53B
330
6FD
100
AcDbEntity
  8
GAIKEI
 62
     1
100
AcDbLine
 10
50.30624588778643
 20
200.8048420590064
 30
0.0
 11
50.30624588778643
 21
200.9848420590063
 31
0.0
  0
LINE
  5
53C
330
6FD
100
AcDbEntity
  8
GAIKEI
 62
     1
100
AcDbLine
 10
49.95624588778628
 20
200.8048420590064
 30
0.0
 11
50.30624588778643
 21
200.8048420590064
 31
0.0
  0
LINE
  5
53D
330
6FD
100
AcDbEntity
  8
GAIKEI
 62
     1
100
AcDbLine
 10
49.95624588778628
 20
200.9848420590063
 30
0.0
 11
49.95624588778628
 21
200.8048420590064
 31
0.0
  0
ARC
  5
53E
330
6FD
100
AcDbEntity
  8
GAIKEI
 62
     1
100
AcDbCircle
 10
49.73124551025627
 20
202.3348641572577
 30
0.0
 40
0.05
100
AcDbArc
 50
90.0
 51
180.0
  0
ARC
  5
53F
330
6FD
100
AcDbEntity
  8
GAIKEI
 62
     1
100
AcDbCircle
 10
49.73124551025627
 20
201.9348641572578
 30
0.0
 40
0.05
100
AcDbArc
 50
180.0
 51
270.0
  0
ARC
  5
540
330
6FD
100
AcDbEntity
  8
GAIKEI
 62
     1
100
AcDbCircle
 10
49.58124548853493
 20
202.4349334374163
 30
0.0
 40
0.05
100
AcDbArc
 50
0.0
 51
92.42713275492624
  0
ARC
  5
541
330
6FD
100
AcDbEntity
  8
GAIKEI
 62
     1
100
AcDbCircle
 10
49.58124548853493
 20
201.8348437261768
 30
0.0
 40
0.0499999999997954
100
AcDbArc
 50
270.0
 51
0.0
  0
LINE
  5
542
330
6FD
100
AcDbEntity
  8
GAIKEI
 62
     1
100
AcDbLine
 10
49.63124523570286
 20
201.8097878355154
 30
0.0
 11
49.63124523570286
 21
202.4597878355155
 31
0.0
  0
LINE
  5
543
330
6FD
100
AcDbEntity
  8
GAIKEI
 62
     1
100
AcDbLine
 10
49.63124523570286
 20
201.8097878355154
 30
0.0
 11
49.63124523570286
 21
202.4597878355155
 31
0.0
  0
LINE
  5
544
330
6FD
100
AcDbEntity
  8
GAIKEI
 62
     1
100
AcDbLine
 10
49.63124556174444
 20
201.8098027693072
 30
0.0
 11
49.63124556174444
 21
202.4597978625031
 31
0.0
  0
LINE
  5
545
330
6FD
100
AcDbEntity
  8
GAIKEI
 62
     1
100
AcDbLine
 10
49.63124556174444
 20
201.8098027693072
 30
0.0
 11
49.63124556174444
 21
202.4597978625031
 31
0.0
  0
LINE
  5
546
330
6FD
100
AcDbEntity
  8
GAIKEI
 62
     1
100
AcDbLine
 10
49.63124556174444
 20
201.8098027693072
 30
0.0
 11
49.63124556174444
 21
202.4597978625031
 31
0.0
  0
LINE
  5
547
330
6FD
100
AcDbEntity
  8
GAIKEI
 62
     1
100
AcDbLine
 10
49.63124556174444
 20
201.8098027693072
 30
0.0
 11
49.63124556174444
 21
202.4597978625031
 31
0.0
  0
LINE
  5
548
330
6FD
100
AcDbEntity
  8
GAIKEI
 62
     1
100
AcDbLine
 10
49.63124556174444
 20
201.8098027693072
 30
0.0
 11
49.63124556174444
 21
202.4597978625031
 31
0.0
  0
LINE
  5
549
330
6FD
100
AcDbEntity
  8
GAIKEI
 62
     1
100
AcDbLine
 10
49.63124556174444
 20
201.8098027693072
 30
0.0
 11
49.63124556174444
 21
202.4597978625031
 31
0.0
  0
LINE
  5
54A
330
6FD
100
AcDbEntity
  8
GAIKEI
 62
     1
100
AcDbLine
 10
49.63124556174444
 20
201.8098027693072
 30
0.0
 11
49.63124556174444
 21
202.4597978625031
 31
0.0
  0
LINE
  5
54B
330
6FD
100
AcDbEntity
  8
GAIKEI
 62
     1
100
AcDbLine
 10
49.63124556174444
 20
201.8098199607546
 30
0.0
 11
49.63124556174444
 21
202.4597978625031
 31
0.0
  0
LINE
  5
54C
330
6FD
100
AcDbEntity
  8
GAIKEI
 62
     1
100
AcDbLine
 10
49.63124556174444
 20
201.8098199607546
 30
0.0
 11
49.63124556174444
 21
202.4597978625031
 31
0.0
  0
LINE
  5
54D
330
6FD
100
AcDbEntity
  8
GAIKEI
 62
     1
100
AcDbLine
 10
49.63124556174444
 20
201.8097978625031
 30
0.0
 11
49.63124556174444
 21
202.4597978625031
 31
0.0
  0
LINE
  5
54E
330
6FD
100
AcDbEntity
  8
GAIKEI
 62
     1
100
AcDbLine
 10
49.63124556174444
 20
201.8097978625031
 30
0.0
 11
49.63124556174444
 21
202.4597978625031
 31
0.0
  0
LINE
  5
54F
330
6FD
100
AcDbEntity
  8
GAIKEI
 62
     1
100
AcDbLine
 10
49.63124556174444
 20
201.8097978625031
 30
0.0
 11
49.63124556174444
 21
202.4597978625031
 31
0.0
  0
LINE
  5
550
330
6FD
100
AcDbEntity
  8
GAIKEI
 62
     1
100
AcDbLine
 10
49.63124556174444
 20
201.8097978625031
 30
0.0
 11
49.63124556174444
 21
202.4597978625031
 31
0.0
  0
LINE
  5
551
330
6FD
100
AcDbEntity
  8
GAIKEI
 62
     1
100
AcDbLine
 10
49.63124556174444
 20
201.8097978625031
 30
0.0
 11
49.63124556174444
 21
202.4597978625031
 31
0.0
  0
LINE
  5
552
330
6FD
100
AcDbEntity
  8
GAIKEI
 62
     1
100
AcDbLine
 10
49.63124556174444
 20
201.8097978625031
 30
0.0
 11
49.63124556174444
 21
202.4597978625031
 31
0.0
  0
LINE
  5
553
330
6FD
100
AcDbEntity
  8
GAIKEI
 62
     1
100
AcDbLine
 10
49.68124551025629
 20
201.9348641572578
 30
0.0
 11
49.68124551025629
 21
202.3348641572577
 31
0.0
  0
LINE
  5
554
330
6FD
100
AcDbEntity
  8
GAIKEI
 62
     1
100
AcDbLine
 10
50.30624588778643
 20
202.204864157258
 30
0.0
 11
50.30624588778643
 21
202.3848641572579
 31
0.0
  0
LINE
  5
555
330
6FD
100
AcDbEntity
  8
GAIKEI
 62
     1
100
AcDbLine
 10
49.95624588778628
 20
202.204864157258
 30
0.0
 11
50.30624588778643
 21
202.204864157258
 31
0.0
  0
LINE
  5
556
330
6FD
100
AcDbEntity
  8
GAIKEI
 62
     1
100
AcDbLine
 10
49.95624588778628
 20
202.3848641572579
 30
0.0
 11
49.95624588778628
 21
202.204864157258
 31
0.0
  0
LINE
  5
557
330
6FD
100
AcDbEntity
  8
GAIKEI
 62
     1
100
AcDbLine
 10
49.11124157037125
 20
202.4848885817967
 30
0.0
 11
49.57912804905823
 21
202.4848885817967
 31
0.0
  0
LINE
  5
558
330
6FD
100
AcDbEntity
  8
GAIKEI
 62
     1
100
AcDbLine
 10
49.06124157037129
 20
201.8348437261768
 30
0.0
 11
49.06124157037129
 21
202.4348885817965
 31
0.0
  0
LINE
  5
559
330
6FD
100
AcDbEntity
  8
GAIKEI
 62
     1
100
AcDbLine
 10
49.38124443153606
 20
201.7848885817966
 30
0.0
 11
49.38124443153606
 21
201.7848437261769
 31
0.0
  0
LINE
  5
55A
330
6FD
100
AcDbEntity
  8
GAIKEI
 62
     1
100
AcDbLine
 10
49.11124157037147
 20
201.7848437261769
 30
0.0
 11
49.58124548853493
 21
201.7848437261771
 31
0.0
  0
LINE
  5
55B
330
6FD
100
AcDbEntity
  8
GAIKEI
100
AcDbLine
 10
51.00623959237829
 20
199.3348148577952
 30
0.0
 11
51.10623959237819
 21
198.3348148577952
 31
0.0
  0
LINE
  5
55C
330
6FD
100
AcDbEntity
  8
GAIKEI
100
AcDbLine
 10
51.00623959237829
 20
199.3348148577952
 30
0.0
 11
51.10623959237819
 21
198.3348148577952
 31
0.0
  0
LINE
  5
55D
330
6FD
100
AcDbEntity
  8
GAIKEI
100
AcDbLine
 10
52.90623959237814
 20
198.3348148577952
 30
0.0
 11
53.00623959237804
 21
199.3348148577952
 31
0.0
  0
LINE
  5
55E
330
6FD
100
AcDbEntity
  8
GAIKEI
100
AcDbLine
 10
52.90623959237814
 20
198.3348148577952
 30
0.0
 11
52.00623959237828
 21
198.3348148577952
 31
0.0
  0
LINE
  5
55F
330
6FD
100
AcDbEntity
  8
GAIKEI
100
AcDbLine
 10
52.90623959237814
 20
198.3348148577952
 30
0.0
 11
52.00623959237828
 21
198.3348148577952
 31
0.0
  0
LINE
  5
560
330
6FD
100
AcDbEntity
  8
GAIKEI
100
AcDbLine
 10
52.00623959237828
 20
198.3348148577952
 30
0.0
 11
51.10623959237819
 21
198.3348148577952
 31
0.0
  0
LINE
  5
561
330
6FD
100
AcDbEntity
  8
GAIKEI
100
AcDbLine
 10
52.00623959237828
 20
198.3348148577952
 30
0.0
 11
51.10623959237819
 21
198.3348148577952
 31
0.0
  0
ARC
  5
562
330
6FD
100
AcDbEntity
  8
GAIKEI
 62
     1
100
AcDbCircle
 10
50.53124551025621
 20
200.5348420590062
 30
0.0
 40
0.05
100
AcDbArc
 50
270.0
 51
0.0
  0
ARC
  5
563
330
6FD
100
AcDbEntity
  8
GAIKEI
 62
     1
100
AcDbCircle
 10
50.53124551025621
 20
200.9348420590063
 30
0.0
 40
0.05
100
AcDbArc
 50
0.0
 51
90.0
  0
LINE
  5
564
330
6FD
100
AcDbEntity
  8
GAIKEI
 62
     1
100
AcDbLine
 10
50.63124523570309
 20
201.0597878355154
 30
0.0
 11
50.63124523570309
 21
200.4097878355155
 31
0.0
  0
LINE
  5
565
330
6FD
100
AcDbEntity
  8
GAIKEI
 62
     1
100
AcDbLine
 10
50.63124523570309
 20
201.0597878355154
 30
0.0
 11
50.63124523570309
 21
200.4097878355155
 31
0.0
  0
LINE
  5
566
330
6FD
100
AcDbEntity
  8
GAIKEI
 62
     1
100
AcDbLine
 10
50.63124556174444
 20
201.0597659506432
 30
0.0
 11
50.63124556174444
 21
200.4097708574475
 31
0.0
  0
LINE
  5
567
330
6FD
100
AcDbEntity
  8
GAIKEI
 62
     1
100
AcDbLine
 10
50.63124556174444
 20
201.0597659506432
 30
0.0
 11
50.63124556174444
 21
200.4097708574475
 31
0.0
  0
LINE
  5
568
330
6FD
100
AcDbEntity
  8
GAIKEI
 62
     1
100
AcDbLine
 10
50.63124556174444
 20
201.0597659506432
 30
0.0
 11
50.63124556174444
 21
200.4097708574475
 31
0.0
  0
LINE
  5
569
330
6FD
100
AcDbEntity
  8
GAIKEI
 62
     1
100
AcDbLine
 10
50.63124556174444
 20
201.0597659506432
 30
0.0
 11
50.63124556174444
 21
200.4097708574475
 31
0.0
  0
LINE
  5
56A
330
6FD
100
AcDbEntity
  8
GAIKEI
 62
     1
100
AcDbLine
 10
50.63124556174444
 20
201.0597659506432
 30
0.0
 11
50.63124556174444
 21
200.4097708574475
 31
0.0
  0
LINE
  5
56B
330
6FD
100
AcDbEntity
  8
GAIKEI
 62
     1
100
AcDbLine
 10
50.63124556174444
 20
201.0597659506432
 30
0.0
 11
50.63124556174444
 21
200.4097708574475
 31
0.0
  0
LINE
  5
56C
330
6FD
100
AcDbEntity
  8
GAIKEI
 62
     1
100
AcDbLine
 10
50.63124556174444
 20
201.0597659506432
 30
0.0
 11
50.63124556174444
 21
200.4097708574475
 31
0.0
  0
LINE
  5
56D
330
6FD
100
AcDbEntity
  8
GAIKEI
 62
     1
100
AcDbLine
 10
50.63124556174444
 20
201.0597659506432
 30
0.0
 11
50.63124556174444
 21
200.4097880488945
 31
0.0
  0
LINE
  5
56E
330
6FD
100
AcDbEntity
  8
GAIKEI
 62
     1
100
AcDbLine
 10
50.63124556174444
 20
201.0597659506432
 30
0.0
 11
50.63124556174444
 21
200.4097880488945
 31
0.0
  0
LINE
  5
56F
330
6FD
100
AcDbEntity
  8
GAIKEI
 62
     1
100
AcDbLine
 10
50.63124556174444
 20
201.0597659506432
 30
0.0
 11
50.63124556174444
 21
200.4097659506431
 31
0.0
  0
LINE
  5
570
330
6FD
100
AcDbEntity
  8
GAIKEI
 62
     1
100
AcDbLine
 10
50.63124556174444
 20
201.0597659506432
 30
0.0
 11
50.63124556174444
 21
200.4097659506431
 31
0.0
  0
LINE
  5
571
330
6FD
100
AcDbEntity
  8
GAIKEI
 62
     1
100
AcDbLine
 10
50.63124556174444
 20
201.0597659506432
 30
0.0
 11
50.63124556174444
 21
200.4097659506431
 31
0.0
  0
LINE
  5
572
330
6FD
100
AcDbEntity
  8
GAIKEI
 62
     1
100
AcDbLine
 10
50.63124556174444
 20
201.0597659506432
 30
0.0
 11
50.63124556174444
 21
200.4097659506431
 31
0.0
  0
LINE
  5
573
330
6FD
100
AcDbEntity
  8
GAIKEI
 62
     1
100
AcDbLine
 10
50.63124556174444
 20
201.0597659506432
 30
0.0
 11
50.63124556174444
 21
200.4097659506431
 31
0.0
  0
LINE
  5
574
330
6FD
100
AcDbEntity
  8
GAIKEI
 62
     1
100
AcDbLine
 10
50.63124556174444
 20
201.0597659506432
 30
0.0
 11
50.63124556174444
 21
200.4097659506431
 31
0.0
  0
LINE
  5
575
330
6FD
100
AcDbEntity
  8
GAIKEI
 62
     1
100
AcDbLine
 10
50.58124551025617
 20
200.9348420590063
 30
0.0
 11
50.58124551025617
 21
200.5348420590062
 31
0.0
  0
LINE
  5
576
330
6FD
100
AcDbEntity
  8
GAIKEI
 62
     1
100
AcDbLine
 10
50.68124498287079
 20
201.7848885817966
 30
0.0
 11
50.85124603986992
 21
201.7848885817966
 31
0.0
  0
LINE
  5
577
330
6FD
100
AcDbEntity
  8
GAIKEI
 62
     1
100
AcDbLine
 10
50.85124603986992
 20
202.4849334374162
 30
0.0
 11
50.68124498287079
 21
202.4849334374162
 31
0.0
  0
ARC
  5
578
330
6FD
100
AcDbEntity
  8
GAIKEI
 62
     1
100
AcDbCircle
 10
50.53124551025621
 20
201.9348641572578
 30
0.0
 40
0.05
100
AcDbArc
 50
270.0
 51
0.0
  0
ARC
  5
579
330
6FD
100
AcDbEntity
  8
GAIKEI
 62
     1
100
AcDbCircle
 10
50.53124551025621
 20
202.3348641572577
 30
0.0
 40
0.05
100
AcDbArc
 50
0.0
 51
90.0
  0
ARC
  5
57A
330
6FD
100
AcDbEntity
  8
GAIKEI
 62
     1
100
AcDbCircle
 10
50.68124498287079
 20
202.4349334374163
 30
0.0
 40
0.05
100
AcDbArc
 50
90.0
 51
180.0
  0
ARC
  5
57B
330
6FD
100
AcDbEntity
  8
GAIKEI
 62
     1
100
AcDbCircle
 10
50.68124498287079
 20
201.8348885817966
 30
0.0
 40
0.05
100
AcDbArc
 50
180.0
 51
270.0
  0
LINE
  5
57C
330
6FD
100
AcDbEntity
  8
GAIKEI
 62
     1
100
AcDbLine
 10
50.63124523570309
 20
202.4597878355155
 30
0.0
 11
50.63124523570309
 21
201.8097878355154
 31
0.0
  0
LINE
  5
57D
330
6FD
100
AcDbEntity
  8
GAIKEI
 62
     1
100
AcDbLine
 10
50.63124523570309
 20
202.4597878355155
 30
0.0
 11
50.63124523570309
 21
201.8097878355154
 31
0.0
  0
LINE
  5
57E
330
6FD
100
AcDbEntity
  8
GAIKEI
 62
     1
100
AcDbLine
 10
50.63124556174444
 20
202.4597978625031
 30
0.0
 11
50.63124556174444
 21
201.8098027693072
 31
0.0
  0
LINE
  5
57F
330
6FD
100
AcDbEntity
  8
GAIKEI
 62
     1
100
AcDbLine
 10
50.63124556174444
 20
202.4597978625031
 30
0.0
 11
50.63124556174444
 21
201.8098027693072
 31
0.0
  0
LINE
  5
580
330
6FD
100
AcDbEntity
  8
GAIKEI
 62
     1
100
AcDbLine
 10
50.63124556174444
 20
202.4597978625031
 30
0.0
 11
50.63124556174444
 21
201.8098027693072
 31
0.0
  0
LINE
  5
581
330
6FD
100
AcDbEntity
  8
GAIKEI
 62
     1
100
AcDbLine
 10
50.63124556174444
 20
202.4597978625031
 30
0.0
 11
50.63124556174444
 21
201.8098027693072
 31
0.0
  0
LINE
  5
582
330
6FD
100
AcDbEntity
  8
GAIKEI
 62
     1
100
AcDbLine
 10
50.63124556174444
 20
202.4597978625031
 30
0.0
 11
50.63124556174444
 21
201.8098027693072
 31
0.0
  0
LINE
  5
583
330
6FD
100
AcDbEntity
  8
GAIKEI
 62
     1
100
AcDbLine
 10
50.63124556174444
 20
202.4597978625031
 30
0.0
 11
50.63124556174444
 21
201.8098027693072
 31
0.0
  0
LINE
  5
584
330
6FD
100
AcDbEntity
  8
GAIKEI
 62
     1
100
AcDbLine
 10
50.63124556174444
 20
202.4597978625031
 30
0.0
 11
50.63124556174444
 21
201.8098027693072
 31
0.0
  0
LINE
  5
585
330
6FD
100
AcDbEntity
  8
GAIKEI
 62
     1
100
AcDbLine
 10
50.63124556174444
 20
202.4597978625031
 30
0.0
 11
50.63124556174444
 21
201.8098199607546
 31
0.0
  0
LINE
  5
586
330
6FD
100
AcDbEntity
  8
GAIKEI
 62
     1
100
AcDbLine
 10
50.63124556174444
 20
202.4597978625031
 30
0.0
 11
50.63124556174444
 21
201.8098199607546
 31
0.0
  0
LINE
  5
587
330
6FD
100
AcDbEntity
  8
GAIKEI
 62
     1
100
AcDbLine
 10
50.63124556174444
 20
202.4597978625031
 30
0.0
 11
50.63124556174444
 21
201.8097978625031
 31
0.0
  0
LINE
  5
588
330
6FD
100
AcDbEntity
  8
GAIKEI
 62
     1
100
AcDbLine
 10
50.63124556174444
 20
202.4597978625031
 30
0.0
 11
50.63124556174444
 21
201.8097978625031
 31
0.0
  0
LINE
  5
589
330
6FD
100
AcDbEntity
  8
GAIKEI
 62
     1
100
AcDbLine
 10
50.63124556174444
 20
202.4597978625031
 30
0.0
 11
50.63124556174444
 21
201.8097978625031
 31
0.0
  0
LINE
  5
58A
330
6FD
100
AcDbEntity
  8
GAIKEI
 62
     1
100
AcDbLine
 10
50.63124556174444
 20
202.4597978625031
 30
0.0
 11
50.63124556174444
 21
201.8097978625031
 31
0.0
  0
LINE
  5
58B
330
6FD
100
AcDbEntity
  8
GAIKEI
 62
     1
100
AcDbLine
 10
50.63124556174444
 20
202.4597978625031
 30
0.0
 11
50.63124556174444
 21
201.8097978625031
 31
0.0
  0
LINE
  5
58C
330
6FD
100
AcDbEntity
  8
GAIKEI
 62
     1
100
AcDbLine
 10
50.63124556174444
 20
202.4597978625031
 30
0.0
 11
50.63124556174444
 21
201.8097978625031
 31
0.0
  0
LINE
  5
58D
330
6FD
100
AcDbEntity
  8
GAIKEI
 62
     1
100
AcDbLine
 10
50.58124551025617
 20
202.3348641572577
 30
0.0
 11
50.58124551025617
 21
201.9348641572578
 31
0.0
  0
LINE
  5
58E
330
6FD
100
AcDbEntity
  8
GAIKEI
 62
     1
100
AcDbLine
 10
50.63124498287084
 20
202.4349334374163
 30
0.0
 11
50.63124498287084
 21
201.8348885817966
 31
0.0
  0
ARC
  5
58F
330
6FD
100
AcDbEntity
  8
GAIKEI
 62
     1
100
AcDbCircle
 10
51.1512489010347
 20
201.8348437261768
 30
0.0
 40
0.05
100
AcDbArc
 50
270.0
 51
0.0
  0
ARC
  5
590
330
6FD
100
AcDbEntity
  8
GAIKEI
 62
     1
100
AcDbCircle
 10
51.1512489010347
 20
202.4348885817965
 30
0.0
 40
0.05
100
AcDbArc
 50
0.0
 51
90.0
  0
LINE
  5
591
330
6FD
100
AcDbEntity
  8
GAIKEI
 62
     1
100
AcDbLine
 10
50.85288595607199
 20
202.4848885817967
 30
0.0
 11
51.1512489010347
 21
202.4848885817967
 31
0.0
  0
LINE
  5
592
330
6FD
100
AcDbEntity
  8
GAIKEI
 62
     1
100
AcDbLine
 10
51.20124890103466
 20
202.4348885817965
 30
0.0
 11
51.20124890103466
 21
201.8348437261768
 31
0.0
  0
LINE
  5
593
330
6FD
100
AcDbEntity
  8
GAIKEI
 62
     1
100
AcDbLine
 10
50.88124603986989
 20
201.7848437261769
 30
0.0
 11
50.88124603986989
 21
201.7848885817966
 31
0.0
  0
LINE
  5
594
330
6FD
100
AcDbEntity
  8
GAIKEI
 62
     1
100
AcDbLine
 10
50.85255519996121
 20
201.7848437261769
 30
0.0
 11
51.1512489010347
 21
201.7848437261769
 31
0.0
  0
LINE
  5
595
330
6FD
100
AcDbEntity
  8
GAIKEI
 62
     1
100
AcDbLine
 10
52.9562149282999
 20
200.5822200529285
 30
0.0
 11
53.05621492829981
 21
200.7554251336856
 31
0.0
  0
LINE
  5
596
330
6FD
100
AcDbEntity
  8
GAIKEI
 62
     1
100
AcDbLine
 10
52.55358698413694
 20
200.9848479970915
 30
0.0
 11
52.72679206489375
 21
201.0848479970916
 31
0.0
  0
LINE
  5
597
330
6FD
100
AcDbEntity
  8
GAIKEI
 62
     1
100
AcDbLine
 10
52.40621492829973
 20
201.5348479970915
 30
0.0
 11
52.60621492829978
 21
201.5348479970915
 31
0.0
  0
LINE
  5
598
330
6FD
100
AcDbEntity
  8
GAIKEI
 62
     1
100
AcDbLine
 10
52.55358698413694
 20
202.0848479970916
 30
0.0
 11
52.72679206489375
 21
201.9848479970917
 31
0.0
  0
LINE
  5
599
330
6FD
100
AcDbEntity
  8
GAIKEI
 62
     1
100
AcDbLine
 10
52.9562149282999
 20
202.4874759412544
 30
0.0
 11
53.05621492829981
 21
202.3142708604976
 31
0.0
  0
LINE
  5
59A
330
6FD
100
AcDbEntity
  8
GAIKEI
  6
Continuous
 62
     1
100
AcDbLine
 10
52.67545688391123
 20
202.7794110086388
 30
0.0
 11
52.48094155506464
 21
202.5601214321173
 31
0.0
  0
LINE
  5
59B
330
6FD
100
AcDbEntity
  8
GAIKEI
  6
Continuous
 62
     1
100
AcDbLine
 10
52.48094155506464
 20
202.5601214321173
 30
0.0
 11
52.73094155506464
 21
202.7051214321175
 31
0.0
  0
LINE
  5
59C
330
6FD
100
AcDbEntity
  8
GAIKEI
  6
Continuous
 62
     1
100
AcDbLine
 10
52.67545688391123
 20
202.7794110086388
 30
0.0
 11
52.73094155506464
 21
202.7051214321175
 31
0.0
  0
ARC
  5
59D
330
6FD
100
AcDbEntity
  8
GAIKEI
 62
     1
100
AcDbCircle
 10
45.83187231922875
 20
203.342853795011
 30
0.0
 40
0.05
100
AcDbArc
 50
90.0
 51
180.0
  0
ARC
  5
59E
330
6FD
100
AcDbEntity
  8
GAIKEI
 62
     1
100
AcDbCircle
 10
46.8818723192287
 20
203.342853795011
 30
0.0
 40
0.05
100
AcDbArc
 50
0.0
 51
90.0
  0
LINE
  5
59F
330
6FD
100
AcDbEntity
  8
GAIKEI
 62
     1
100
AcDbLine
 10
45.83187231922875
 20
203.392853795011
 30
0.0
 11
46.8818723192287
 21
203.392853795011
 31
0.0
  0
LINE
  5
5A0
330
6FD
100
AcDbEntity
  8
GAIKEI
 62
     1
100
AcDbLine
 10
45.78187231922857
 20
203.0428537950108
 30
0.0
 11
45.78187231922857
 21
203.342853795011
 31
0.0
  0
LINE
  5
5A1
330
6FD
100
AcDbEntity
  8
GAIKEI
 62
     1
100
AcDbLine
 10
46.93187231922865
 20
203.342853795011
 30
0.0
 11
46.93187231922865
 21
203.0428537950111
 31
0.0
  0
LINE
  5
5A2
330
6FD
100
AcDbEntity
  8
GAIKEI
 62
     1
100
AcDbLine
 10
41.75624533078667
 20
200.5148415431727
 30
0.0
 11
41.75624533078667
 21
202.3898415431727
 31
0.0
  0
LINE
  5
5A3
330
6FD
100
AcDbEntity
  8
GAIKEI
 62
     1
100
AcDbLine
 10
41.41124427378803
 20
200.7998415431728
 30
0.0
 11
41.41124427378803
 21
202.0998415431727
 31
0.0
  0
ARC
  5
5A4
330
6FD
100
AcDbEntity
  8
GAIKEI
 62
     1
100
AcDbCircle
 10
41.70624533078671
 20
200.5148415431727
 30
0.0
 40
0.05
100
AcDbArc
 50
270.0
 51
0.0
  0
ARC
  5
5A5
330
6FD
100
AcDbEntity
  8
GAIKEI
 62
     1
100
AcDbCircle
 10
41.70624533078671
 20
202.3898415431727
 30
0.0
 40
0.05
100
AcDbArc
 50
0.0
 51
90.0
  0
LINE
  5
5A6
330
6FD
100
AcDbEntity
  8
GAIKEI
 62
     1
100
AcDbLine
 10
44.20618104280402
 20
201.6876894080483
 30
0.0
 11
43.92333725549702
 21
201.4048456207413
 31
0.0
  0
LINE
  5
5A7
330
6FD
100
AcDbEntity
  8
GAIKEI
 62
     1
100
AcDbLine
 10
43.49907318678514
 20
201.4048456207413
 30
0.0
 11
43.21626555561146
 21
201.6876532519152
 31
0.0
  0
ARC
  5
5A8
330
6FD
100
AcDbEntity
  8
GAIKEI
 62
     1
100
AcDbCircle
 10
43.71120522114096
 20
201.6169776550971
 30
0.0
 40
0.2999999999999864
100
AcDbArc
 50
224.9999999999912
 51
315.0000000000088
  0
CIRCLE
  5
5A9
330
6FD
100
AcDbEntity
  8
GAIKEI
 62
     1
100
AcDbCircle
 10
43.7112424952545
 20
200.4497433985573
 30
0.0
 40
0.1999716746142013
  0
LINE
  5
5AA
330
6FD
100
AcDbEntity
  8
GAIKEI
 62
     1
100
AcDbLine
 10
43.92337341163056
 20
202.3947611079341
 30
0.0
 11
44.20618104280402
 21
202.1119534767602
 31
0.0
  0
ARC
  5
5AB
330
6FD
100
AcDbEntity
  8
GAIKEI
 62
     1
100
AcDbCircle
 10
43.42839758996752
 20
201.899785286271
 30
0.0
 40
0.3
100
AcDbArc
 50
180.0
 51
224.9999999999912
  0
ARC
  5
5AC
330
6FD
100
AcDbEntity
  8
GAIKEI
 62
     1
100
AcDbCircle
 10
43.42839758996752
 20
201.899785286271
 30
0.0
 40
0.2999999999999864
100
AcDbArc
 50
135.0000000000088
 51
180.0
  0
ARC
  5
5AD
330
6FD
100
AcDbEntity
  8
GAIKEI
 62
     1
100
AcDbCircle
 10
43.71124137727452
 20
202.182629073578
 30
0.0
 40
0.2999999999999704
100
AcDbArc
 50
44.99999999999121
 51
135.0000000000088
  0
CIRCLE
  5
5AE
330
6FD
100
AcDbEntity
  8
GAIKEI
 62
     1
100
AcDbCircle
 10
43.93124075488822
 20
201.8997859086571
 30
0.0
 40
0.0400000000000091
  0
CIRCLE
  5
5AF
330
6FD
100
AcDbEntity
  8
GAIKEI
 62
     1
100
AcDbCircle
 10
43.71124137727452
 20
201.899785286271
 30
0.0
 40
0.3499993776139007
  0
CIRCLE
  5
5B0
330
6FD
100
AcDbEntity
  8
GAIKEI
 62
     1
100
AcDbCircle
 10
43.71124075488842
 20
202.119784663885
 30
0.0
 40
0.0399999999998698
  0
CIRCLE
  5
5B1
330
6FD
100
AcDbEntity
  8
GAIKEI
 62
     1
100
AcDbCircle
 10
43.49124199966036
 20
201.8997846638849
 30
0.0
 40
0.0399999999999864
  0
CIRCLE
  5
5B2
330
6FD
100
AcDbEntity
  8
GAIKEI
 62
     1
100
AcDbCircle
 10
43.71124199966039
 20
201.6797859086571
 30
0.0
 40
0.0399999999998798
  0
CIRCLE
  5
5B3
330
6FD
100
AcDbEntity
  8
GAIKEI
 62
     1
100
AcDbCircle
 10
43.71124137727452
 20
201.899785286271
 30
0.0
 40
0.2783875957552908
  0
LINE
  5
5B4
330
6FD
100
AcDbEntity
  8
GAIKEI
 62
     1
100
AcDbLine
 10
43.21626555561146
 20
202.1119173206271
 30
0.0
 11
43.49910934291847
 21
202.3947611079341
 31
0.0
  0
ARC
  5
5B5
330
6FD
100
AcDbEntity
  8
GAIKEI
 62
     1
100
AcDbCircle
 10
43.99404984705189
 20
201.8998214424044
 30
0.0
 40
0.3000000000000496
100
AcDbArc
 50
315.0000000000088
 51
359.9930946872134
  0
ARC
  5
5B6
330
6FD
100
AcDbEntity
  8
GAIKEI
 62
     1
100
AcDbCircle
 10
43.99404900844797
 20
201.8998214424044
 30
0.0
 40
0.3000000000001673
100
AcDbArc
 50
359.9930946872134
 51
44.99999999999121
  0
LINE
  5
5B7
330
6FD
100
AcDbEntity
  8
GAIKEI
 62
     1
100
AcDbLine
 10
45.00624533078667
 20
199.9348587764741
 30
0.0
 11
45.00624533078667
 21
203.1048243098712
 31
0.0
  0
ARC
  5
5B8
330
6FD
100
AcDbEntity
  8
GAIKEI
 62
     1
100
AcDbCircle
 10
44.9262453307865
 20
199.9348587764741
 30
0.0
 40
0.0800000000000182
100
AcDbArc
 50
270.0
 51
0.0
  0
ARC
  5
5B9
330
6FD
100
AcDbEntity
  8
GAIKEI
 62
     1
100
AcDbCircle
 10
44.9262453307865
 20
203.1048243098712
 30
0.0
 40
0.0800000000002001
100
AcDbArc
 50
0.0
 51
90.0
  0
LINE
  5
5BA
330
6FD
100
AcDbEntity
  8
GAIKEI
 62
     1
100
AcDbLine
 10
33.20621410225886
 20
200.2848878281575
 30
0.0
 11
31.05621515925759
 21
200.2848878281575
 31
0.0
  0
LINE
  5
5BB
330
6FD
100
AcDbEntity
  8
GAIKEI
 62
     1
100
AcDbLine
 10
32.90621410225867
 20
200.5848878281574
 30
0.0
 11
31.20621410225863
 21
200.5848878281577
 31
0.0
  0
LINE
  5
5BC
330
6FD
100
AcDbEntity
  8
GAIKEI
 62
     1
100
AcDbLine
 10
32.90621410225867
 20
202.3248878281577
 30
0.0
 11
31.45621410225863
 21
202.3248878281577
 31
0.0
  0
LINE
  5
5BD
330
6FD
100
AcDbEntity
  8
GAIKEI
 62
     1
100
AcDbLine
 10
32.89621410225868
 20
202.2348867409839
 30
0.0
 11
32.39621410225868
 21
202.2348867409837
 31
0.0
  0
LINE
  5
5BE
330
6FD
100
AcDbEntity
  8
GAIKEI
 62
     1
100
AcDbLine
 10
32.86621410225871
 20
200.6048867409838
 30
0.0
 11
30.55621410225877
 21
200.6048867409838
 31
0.0
  0
LINE
  5
5BF
330
6FD
100
AcDbEntity
  8
GAIKEI
 62
     1
100
AcDbLine
 10
31.20621410225863
 20
200.5848878281577
 30
0.0
 11
30.52621518943261
 21
200.5848878281574
 31
0.0
  0
ARC
  5
5C0
330
6FD
100
AcDbEntity
  8
GAIKEI
 62
     1
100
AcDbCircle
 10
30.41650773003857
 20
200.9848867409837
 30
0.0
 40
0.0500000000000796
100
AcDbArc
 50
13.0918930644323
 51
90.0
  0
LINE
  5
5C1
330
6FD
100
AcDbEntity
  8
GAIKEI
 62
     1
100
AcDbLine
 10
30.70621410225886
 20
200.5848878281574
 30
0.0
 11
30.70621410225863
 21
200.2848878281575
 31
0.0
  0
LINE
  5
5C2
330
6FD
100
AcDbEntity
  8
GAIKEI
 62
     1
100
AcDbLine
 10
30.41877359689193
 20
201.0348867409837
 30
0.0
 11
30.45621410225886
 21
201.0348867409837
 31
0.0
  0
LINE
  5
5C3
330
6FD
100
AcDbEntity
  8
GAIKEI
 62
     1
100
AcDbLine
 10
30.46544523769512
 20
200.9951928586077
 30
0.0
 11
30.45621410225886
 21
201.0348867409837
 31
0.0
  0
LINE
  5
5C4
330
6FD
100
AcDbEntity
  8
GAIKEI
 62
     1
100
AcDbLine
 10
30.55621410225877
 20
200.6048867409838
 30
0.0
 11
30.46520813139068
 21
200.9962124157169
 31
0.0
  0
LINE
  5
5C5
330
6FD
100
AcDbEntity
  8
GAIKEI
 62
     1
100
AcDbLine
 10
30.45621410225886
 20
200.6048867409838
 30
0.0
 11
30.45621410225886
 21
200.5048867409837
 31
0.0
  0
LINE
  5
5C6
330
6FD
100
AcDbEntity
  8
GAIKEI
 62
     1
100
AcDbLine
 10
30.45621410225886
 20
200.5048867409837
 30
0.0
 11
30.55621410225877
 21
200.6048867409838
 31
0.0
  0
LINE
  5
5C7
330
6FD
100
AcDbEntity
  8
GAIKEI
 62
     1
100
AcDbLine
 10
30.45621410225886
 20
200.9364835603824
 30
0.0
 11
30.45621410225886
 21
200.6048867409838
 31
0.0
  0
LINE
  5
5C8
330
6FD
100
AcDbEntity
  8
GAIKEI
 62
     1
100
AcDbLine
 10
31.84621410225873
 20
200.6048867409838
 30
0.0
 11
31.84621410225873
 21
200.5848878281577
 31
0.0
  0
LINE
  5
5C9
330
6FD
100
AcDbEntity
  8
GAIKEI
 62
     1
100
AcDbLine
 10
32.24621410225882
 20
200.5848878281577
 30
0.0
 11
32.24621410225882
 21
200.6048867409838
 31
0.0
  0
LINE
  5
5CA
330
6FD
100
AcDbEntity
  8
GAIKEI
 62
     1
100
AcDbLine
 10
31.45621410225863
 20
202.3048878281577
 30
0.0
 11
30.95621410225863
 21
202.3048878281577
 31
0.0
  0
LINE
  5
5CB
330
6FD
100
AcDbEntity
  8
GAIKEI
 62
     1
100
AcDbLine
 10
30.95621410225863
 20
202.3048878281577
 30
0.0
 11
30.95621410225863
 21
202.3883655412126
 31
0.0
  0
LINE
  5
5CC
330
6FD
100
AcDbEntity
  8
GAIKEI
 62
     1
100
AcDbLine
 10
31.45621410225863
 20
202.3883655412126
 30
0.0
 11
31.45621410225863
 21
202.3048878281577
 31
0.0
  0
LINE
  5
5CD
330
6FD
100
AcDbEntity
  8
GAIKEI
 62
     1
100
AcDbLine
 10
34.43624533078673
 20
203.1048243098712
 30
0.0
 11
34.43624533078673
 21
199.9348587764741
 31
0.0
  0
ARC
  5
5CE
330
6FD
100
AcDbEntity
  8
GAIKEI
 62
     1
100
AcDbCircle
 10
32.60621410225895
 20
202.2348867409837
 30
0.0
 40
0.0299999999999727
100
AcDbArc
 50
0.0
 51
180.0
  0
LINE
  5
5CF
330
6FD
100
AcDbEntity
  8
GAIKEI
 62
     1
100
AcDbLine
 10
32.60621410225895
 20
202.2738867409837
 30
0.0
 11
32.60621410225895
 21
202.1958867409837
 31
0.0
  0
LINE
  5
5D0
330
6FD
100
AcDbEntity
  8
GAIKEI
 62
     1
100
AcDbLine
 10
32.64521410225916
 20
202.2348867409837
 30
0.0
 11
32.56721410225896
 21
202.2348867409837
 31
0.0
  0
LINE
  5
5D1
330
6FD
100
AcDbEntity
  8
GAIKEI
 62
     1
100
AcDbLine
 10
35.28124533078676
 20
202.3898415431727
 30
0.0
 11
35.28124533078676
 21
200.5148415431727
 31
0.0
  0
LINE
  5
5D2
330
6FD
100
AcDbEntity
  8
GAIKEI
 62
     1
100
AcDbLine
 10
35.61124427378786
 20
202.0998415431727
 30
0.0
 11
35.61124427378786
 21
200.7998415431728
 31
0.0
  0
LINE
  5
5D3
330
6FD
100
AcDbEntity
  8
GAIKEI
 62
     1
100
AcDbLine
 10
32.90621410225867
 20
201.5348867409837
 30
0.0
 11
32.90621410225867
 21
200.5848878281574
 31
0.0
  0
LINE
  5
5D4
330
6FD
100
AcDbEntity
  8
GAIKEI
 62
     1
100
AcDbLine
 10
33.20621410225863
 20
202.5848867409836
 30
0.0
 11
33.20621410225886
 21
200.2848878281575
 31
0.0
  0
LINE
  5
5D5
330
6FD
100
AcDbEntity
  8
GAIKEI
 62
     1
100
AcDbLine
 10
33.30621410225877
 20
202.5848867409836
 30
0.0
 11
33.30621410225877
 21
200.2848878281575
 31
0.0
  0
LINE
  5
5D6
330
6FD
100
AcDbEntity
  8
GAIKEI
 62
     1
100
AcDbLine
 10
32.89621410225868
 20
202.2348867409839
 30
0.0
 11
32.89621410225868
 21
200.6348867409838
 31
0.0
  0
ARC
  5
5D7
330
6FD
100
AcDbEntity
  8
GAIKEI
 62
     1
100
AcDbCircle
 10
33.20621410225886
 20
200.2848878281575
 30
0.0
 40
0.1
100
AcDbArc
 50
270.0
 51
0.0
  0
ARC
  5
5D8
330
6FD
100
AcDbEntity
  8
GAIKEI
 62
     1
100
AcDbCircle
 10
32.86621410225871
 20
200.6348867409838
 30
0.0
 40
0.0300000000001091
100
AcDbArc
 50
270.0
 51
0.0
  0
LINE
  5
5D9
330
6FD
100
AcDbEntity
  8
GAIKEI
 62
     1
100
AcDbLine
 10
33.20621410225886
 20
200.2848878281575
 30
0.0
 11
33.27692478037739
 21
200.214177150039
 31
0.0
  0
ARC
  5
5DA
330
6FD
100
AcDbEntity
  8
GAIKEI
 62
     1
100
AcDbCircle
 10
35.33124533078671
 20
200.5148415431727
 30
0.0
 40
0.05
100
AcDbArc
 50
180.0
 51
270.0
  0
ARC
  5
5DB
330
6FD
100
AcDbEntity
  8
GAIKEI
 62
     1
100
AcDbCircle
 10
34.51624533078666
 20
199.9348587764741
 30
0.0
 40
0.0799999999998818
100
AcDbArc
 50
180.0
 51
270.0
  0
ARC
  5
5DC
330
6FD
100
AcDbEntity
  8
GAIKEI
 62
     1
100
AcDbCircle
 10
33.20621410225863
 20
202.5848867409836
 30
0.0
 40
0.1
100
AcDbArc
 50
0.0
 51
90.0
  0
LINE
  5
5DD
330
6FD
100
AcDbEntity
  8
GAIKEI
 62
     1
100
AcDbLine
 10
32.90621410225867
 20
202.3883655412126
 30
0.0
 11
32.90621410225867
 21
201.5348867409837
 31
0.0
  0
LINE
  5
5DE
330
6FD
100
AcDbEntity
  8
GAIKEI
 62
     1
100
AcDbLine
 10
33.20621410225863
 20
202.5848867409836
 30
0.0
 11
33.27692478037716
 21
202.6555974191024
 31
0.0
  0
LINE
  5
5DF
330
6FD
100
AcDbEntity
  8
GAIKEI
 62
     1
100
AcDbLine
 10
32.90621410225867
 20
202.3883655412126
 30
0.0
 11
32.90621410225867
 21
201.6848867409838
 31
0.0
  0
ARC
  5
5E0
330
6FD
100
AcDbEntity
  8
GAIKEI
 62
     1
100
AcDbCircle
 10
35.33124533078671
 20
202.3898415431727
 30
0.0
 40
0.05
100
AcDbArc
 50
90.0
 51
180.0
  0
ARC
  5
5E1
330
6FD
100
AcDbEntity
  8
GAIKEI
 62
     1
100
AcDbCircle
 10
34.51624533078666
 20
203.1048243098712
 30
0.0
 40
0.0799999999999955
100
AcDbArc
 50
90.0
 51
180.0
  0
LINE
  5
5E2
330
6FD
100
AcDbEntity
  8
GAIKEI
 62
     1
100
AcDbLine
 10
34.43687558947431
 20
203.114831739417
 30
0.0
 11
34.50623790124064
 21
203.1841940511833
 31
0.0
  0
LINE
  5
5E3
330
6FD
100
AcDbEntity
  8
GAIKEI
 62
     1
100
AcDbLine
 10
27.80621410225876
 20
200.5848878281574
 30
0.0
 11
26.10621410225872
 21
200.5848878281574
 31
0.0
  0
LINE
  5
5E4
330
6FD
100
AcDbEntity
  8
GAIKEI
 62
     1
100
AcDbLine
 10
27.55621410225876
 20
202.3248878281577
 30
0.0
 11
26.10621410225872
 21
202.3248878281577
 31
0.0
  0
LINE
  5
5E5
330
6FD
100
AcDbEntity
  8
GAIKEI
 62
     1
100
AcDbLine
 10
26.61621410225871
 20
202.2348867409839
 30
0.0
 11
26.11621410225871
 21
202.2348867409839
 31
0.0
  0
LINE
  5
5E6
330
6FD
100
AcDbEntity
  8
GAIKEI
 62
     1
100
AcDbLine
 10
28.45621410225886
 20
200.6048867409838
 30
0.0
 11
26.14621410225868
 21
200.6048867409838
 31
0.0
  0
ARC
  5
5E7
330
6FD
100
AcDbEntity
  8
GAIKEI
 62
     1
100
AcDbCircle
 10
26.40621410225913
 20
202.2348867409837
 30
0.0
 40
0.029999999999967
100
AcDbArc
 50
0.0
 51
180.0
  0
LINE
  5
5E8
330
6FD
100
AcDbEntity
  8
GAIKEI
 62
     1
100
AcDbLine
 10
22.25624523570264
 20
201.43484075845
 30
0.0
 11
22.25624523570264
 21
201.6348407584501
 31
0.0
  0
LINE
  5
5E9
330
6FD
100
AcDbEntity
  8
GAIKEI
 62
     1
100
AcDbLine
 10
22.25624557704191
 20
201.4347880488947
 30
0.0
 11
22.25624557704191
 21
201.6347880488945
 31
0.0
  0
LINE
  5
5EA
330
6FD
100
AcDbEntity
  8
GAIKEI
 62
     1
100
AcDbLine
 10
22.25624654644571
 20
202.3848371197425
 30
0.0
 11
22.25624654644571
 21
202.5848371197426
 31
0.0
  0
LINE
  5
5EB
330
6FD
100
AcDbEntity
  8
GAIKEI
 62
     1
100
AcDbLine
 10
22.25624557704191
 20
202.3847880488947
 30
0.0
 11
22.25624557704191
 21
202.5847880488948
 31
0.0
  0
ARC
  5
5EC
330
6FD
100
AcDbEntity
  8
GAIKEI
 62
     1
100
AcDbCircle
 10
26.14621410225868
 20
200.6348867409838
 30
0.0
 40
0.0300000000001148
100
AcDbArc
 50
180.0
 51
270.0
  0
ARC
  5
5ED
330
6FD
100
AcDbEntity
  8
GAIKEI
 62
     1
100
AcDbCircle
 10
26.14621410225868
 20
200.6348867409838
 30
0.0
 40
0.0300000000001148
100
AcDbArc
 50
180.0
 51
270.0
  0
LINE
  5
5EE
330
6FD
100
AcDbEntity
  8
GAIKEI
 62
     1
100
AcDbLine
 10
24.13124417870358
 20
201.43484075845
 30
0.0
 11
24.13124417870358
 21
201.6348407584501
 31
0.0
  0
LINE
  5
5EF
330
6FD
100
AcDbEntity
  8
GAIKEI
 62
     1
100
AcDbLine
 10
23.63124417870358
 20
201.6348407584501
 30
0.0
 11
23.63124417870358
 21
201.43484075845
 31
0.0
  0
LINE
  5
5F0
330
6FD
100
AcDbEntity
  8
GAIKEI
 62
     1
100
AcDbLine
 10
23.63124654644571
 20
201.6347880488947
 30
0.0
 11
23.63124654644571
 21
201.4347880488947
 31
0.0
  0
LINE
  5
5F1
330
6FD
100
AcDbEntity
  8
GAIKEI
 62
     1
100
AcDbLine
 10
24.13124654644571
 20
201.4347880488947
 30
0.0
 11
24.13124654644571
 21
201.6347880488945
 31
0.0
  0
LINE
  5
5F2
330
6FD
100
AcDbEntity
  8
GAIKEI
 62
     1
100
AcDbLine
 10
26.10621410225872
 20
200.5848878281574
 30
0.0
 11
26.10621410225872
 21
202.3883655412126
 31
0.0
  0
LINE
  5
5F3
330
6FD
100
AcDbEntity
  8
GAIKEI
 62
     1
100
AcDbLine
 10
25.80621410225877
 20
200.2848878281575
 30
0.0
 11
25.80621410225877
 21
202.5848867409836
 31
0.0
  0
LINE
  5
5F4
330
6FD
100
AcDbEntity
  8
GAIKEI
 62
     1
100
AcDbLine
 10
25.70621410225863
 20
202.5848867409836
 30
0.0
 11
25.70621410225863
 21
200.2848878281575
 31
0.0
  0
LINE
  5
5F5
330
6FD
100
AcDbEntity
  8
GAIKEI
 62
     1
100
AcDbLine
 10
26.11621410225871
 20
200.6348867409838
 30
0.0
 11
26.11621410225871
 21
202.2348867409839
 31
0.0
  0
LINE
  5
5F6
330
6FD
100
AcDbEntity
  8
GAIKEI
 62
     1
100
AcDbLine
 10
26.11621410225871
 20
202.2348867409839
 30
0.0
 11
26.11621410225871
 21
200.6348867409838
 31
0.0
  0
LINE
  5
5F7
330
6FD
100
AcDbEntity
  8
GAIKEI
 62
     1
100
AcDbLine
 10
23.63124417870358
 20
201.43484075845
 30
0.0
 11
24.13124417870358
 21
201.43484075845
 31
0.0
  0
LINE
  5
5F8
330
6FD
100
AcDbEntity
  8
GAIKEI
 62
     1
100
AcDbLine
 10
23.63124417870358
 20
200.4848455866652
 30
0.0
 11
24.13124417870358
 21
200.4848455866652
 31
0.0
  0
LINE
  5
5F9
330
6FD
100
AcDbEntity
  8
GAIKEI
 62
     1
100
AcDbLine
 10
24.13124417870358
 20
200.4848455866652
 30
0.0
 11
24.13124417870358
 21
200.6848455866652
 31
0.0
  0
LINE
  5
5FA
330
6FD
100
AcDbEntity
  8
GAIKEI
 62
     1
100
AcDbLine
 10
24.13124417870358
 20
200.6848455866652
 30
0.0
 11
23.63124417870358
 21
200.6848455866652
 31
0.0
  0
LINE
  5
5FB
330
6FD
100
AcDbEntity
  8
GAIKEI
 62
     1
100
AcDbLine
 10
23.63124417870358
 20
200.6848455866652
 30
0.0
 11
23.63124417870358
 21
200.4848455866652
 31
0.0
  0
LINE
  5
5FC
330
6FD
100
AcDbEntity
  8
GAIKEI
 62
     1
100
AcDbLine
 10
23.63124654644571
 20
201.4347880488947
 30
0.0
 11
24.13124654644571
 21
201.4347880488947
 31
0.0
  0
LINE
  5
5FD
330
6FD
100
AcDbEntity
  8
GAIKEI
 62
     1
100
AcDbLine
 10
23.63124654644571
 20
200.6847880488947
 30
0.0
 11
23.63124654644571
 21
200.4847880488949
 31
0.0
  0
LINE
  5
5FE
330
6FD
100
AcDbEntity
  8
GAIKEI
 62
     1
100
AcDbLine
 10
24.13124654644571
 20
200.6847880488947
 30
0.0
 11
23.63124654644571
 21
200.6847880488947
 31
0.0
  0
LINE
  5
5FF
330
6FD
100
AcDbEntity
  8
GAIKEI
 62
     1
100
AcDbLine
 10
24.13124654644571
 20
200.4847880488949
 30
0.0
 11
24.13124654644571
 21
200.6847880488947
 31
0.0
  0
LINE
  5
600
330
6FD
100
AcDbEntity
  8
GAIKEI
 62
     1
100
AcDbLine
 10
23.63124654644571
 20
200.4847880488949
 30
0.0
 11
24.13124654644571
 21
200.4847880488949
 31
0.0
  0
ARC
  5
601
330
6FD
100
AcDbEntity
  8
GAIKEI
 62
     1
100
AcDbCircle
 10
25.80621410225877
 20
200.2848878281575
 30
0.0
 40
0.1
100
AcDbArc
 50
180.0
 51
270.0
  0
LINE
  5
602
330
6FD
100
AcDbEntity
  8
GAIKEI
 62
     1
100
AcDbLine
 10
25.80621410225877
 20
200.2848878281575
 30
0.0
 11
25.73550342414001
 21
200.214177150039
 31
0.0
  0
LINE
  5
603
330
6FD
100
AcDbEntity
  8
GAIKEI
 62
     1
100
AcDbLine
 10
23.63124417870358
 20
202.3848359302349
 30
0.0
 11
24.13124417870358
 21
202.3848359302349
 31
0.0
  0
LINE
  5
604
330
6FD
100
AcDbEntity
  8
GAIKEI
 62
     1
100
AcDbLine
 10
24.13124417870358
 20
202.3848359302349
 30
0.0
 11
24.13124417870358
 21
202.5848359302349
 31
0.0
  0
LINE
  5
605
330
6FD
100
AcDbEntity
  8
GAIKEI
 62
     1
100
AcDbLine
 10
24.13124417870358
 20
202.5848359302349
 30
0.0
 11
23.63124417870358
 21
202.5848359302349
 31
0.0
  0
LINE
  5
606
330
6FD
100
AcDbEntity
  8
GAIKEI
 62
     1
100
AcDbLine
 10
23.63124417870358
 20
202.5848359302349
 30
0.0
 11
23.63124417870358
 21
202.3848359302349
 31
0.0
  0
LINE
  5
607
330
6FD
100
AcDbEntity
  8
GAIKEI
 62
     1
100
AcDbLine
 10
24.13124417870358
 20
201.6348407584501
 30
0.0
 11
23.63124417870358
 21
201.6348407584501
 31
0.0
  0
LINE
  5
608
330
6FD
100
AcDbEntity
  8
GAIKEI
 62
     1
100
AcDbLine
 10
24.13124654644571
 20
201.6347880488945
 30
0.0
 11
23.63124654644571
 21
201.6347880488947
 31
0.0
  0
LINE
  5
609
330
6FD
100
AcDbEntity
  8
GAIKEI
 62
     1
100
AcDbLine
 10
23.63124654644571
 20
202.5847880488948
 30
0.0
 11
23.63124654644571
 21
202.3847880488947
 31
0.0
  0
LINE
  5
60A
330
6FD
100
AcDbEntity
  8
GAIKEI
 62
     1
100
AcDbLine
 10
24.13124654644571
 20
202.5847880488948
 30
0.0
 11
23.63124654644571
 21
202.5847880488948
 31
0.0
  0
LINE
  5
60B
330
6FD
100
AcDbEntity
  8
GAIKEI
 62
     1
100
AcDbLine
 10
24.13124654644571
 20
202.3847880488947
 30
0.0
 11
24.13124654644571
 21
202.5847880488948
 31
0.0
  0
LINE
  5
60C
330
6FD
100
AcDbEntity
  8
GAIKEI
 62
     1
100
AcDbLine
 10
23.63124654644571
 20
202.3847880488947
 30
0.0
 11
24.13124654644571
 21
202.3847880488947
 31
0.0
  0
ARC
  5
60D
330
6FD
100
AcDbEntity
  8
GAIKEI
 62
     1
100
AcDbCircle
 10
25.80621410225877
 20
202.5848867409836
 30
0.0
 40
0.1
100
AcDbArc
 50
90.0
 51
180.0
  0
LINE
  5
60E
330
6FD
100
AcDbEntity
  8
GAIKEI
 62
     1
100
AcDbLine
 10
26.10621410225872
 20
201.6848867409838
 30
0.0
 11
26.10621410225872
 21
202.3883655412126
 31
0.0
  0
LINE
  5
60F
330
6FD
100
AcDbEntity
  8
GAIKEI
 62
     1
100
AcDbLine
 10
25.80621410225877
 20
202.5848867409836
 30
0.0
 11
25.73550342414001
 21
202.6555974191024
 31
0.0
  0
LINE
  5
610
330
6FD
100
AcDbEntity
  8
GAIKEI
 62
     1
100
AcDbLine
 10
26.74621410225882
 20
200.6048867409838
 30
0.0
 11
26.74621410225882
 21
200.5848878281574
 31
0.0
  0
LINE
  5
611
330
6FD
100
AcDbEntity
  8
GAIKEI
 62
     1
100
AcDbLine
 10
27.14621410225868
 20
200.5848878281574
 30
0.0
 11
27.14621410225868
 21
200.6048867409838
 31
0.0
  0
ARC
  5
612
330
6FD
100
AcDbEntity
  8
GAIKEI
 62
     1
100
AcDbCircle
 10
28.59592047447882
 20
200.9848867409837
 30
0.0
 40
0.05
100
AcDbArc
 50
90.0
 51
166.9081069355276
  0
LINE
  5
613
330
6FD
100
AcDbEntity
  8
GAIKEI
 62
     1
100
AcDbLine
 10
28.30621410225877
 20
200.5848878281574
 30
0.0
 11
28.30621410225877
 21
200.2848878281575
 31
0.0
  0
LINE
  5
614
330
6FD
100
AcDbEntity
  8
GAIKEI
 62
     1
100
AcDbLine
 10
28.55621410225877
 20
201.0348867409837
 30
0.0
 11
28.59365460762547
 21
201.0348867409837
 31
0.0
  0
LINE
  5
615
330
6FD
100
AcDbEntity
  8
GAIKEI
 62
     1
100
AcDbLine
 10
28.55621410225877
 20
201.0348867409837
 30
0.0
 11
28.5469829668225
 21
200.9951928586077
 31
0.0
  0
LINE
  5
616
330
6FD
100
AcDbEntity
  8
GAIKEI
 62
     1
100
AcDbLine
 10
28.55621410225877
 20
200.5048867409837
 30
0.0
 11
28.45621410225886
 21
200.6048867409838
 31
0.0
  0
LINE
  5
617
330
6FD
100
AcDbEntity
  8
GAIKEI
 62
     1
100
AcDbLine
 10
28.54722007312694
 20
200.9962124157169
 30
0.0
 11
28.45621410225886
 21
200.6048867409838
 31
0.0
  0
LINE
  5
618
330
6FD
100
AcDbEntity
  8
GAIKEI
 62
     1
100
AcDbLine
 10
28.55621410225877
 20
200.5048867409837
 30
0.0
 11
28.55621410225877
 21
200.6048867409838
 31
0.0
  0
LINE
  5
619
330
6FD
100
AcDbEntity
  8
GAIKEI
 62
     1
100
AcDbLine
 10
28.55621410225877
 20
200.6048867409838
 30
0.0
 11
28.55621410225877
 21
200.9364835603824
 31
0.0
  0
LINE
  5
61A
330
6FD
100
AcDbEntity
  8
GAIKEI
 62
     1
100
AcDbLine
 10
28.47621301508502
 20
200.5848878281574
 30
0.0
 11
27.81621410225853
 21
200.5848878281574
 31
0.0
  0
LINE
  5
61B
330
6FD
100
AcDbEntity
  8
GAIKEI
 62
     1
100
AcDbLine
 10
28.05621410225877
 20
202.3048878281577
 30
0.0
 11
27.55621410225876
 21
202.3048878281577
 31
0.0
  0
LINE
  5
61C
330
6FD
100
AcDbEntity
  8
GAIKEI
 62
     1
100
AcDbLine
 10
27.55621410225876
 20
202.3048878281577
 30
0.0
 11
27.55621410225876
 21
202.3883655412126
 31
0.0
  0
LINE
  5
61D
330
6FD
100
AcDbEntity
  8
GAIKEI
 62
     1
100
AcDbLine
 10
28.05621410225877
 20
202.3883655412126
 30
0.0
 11
28.05621410225877
 21
202.3048878281577
 31
0.0
  0
LINE
  5
61E
330
6FD
100
AcDbEntity
  8
GAIKEI
 62
     1
100
AcDbLine
 10
25.80621410225877
 20
202.5848867409836
 30
0.0
 11
33.20621410225863
 21
202.5848867409836
 31
0.0
  0
LINE
  5
61F
330
6FD
100
AcDbEntity
  8
GAIKEI
 62
     1
100
AcDbLine
 10
25.80621410225877
 20
202.6848867409838
 30
0.0
 11
33.20621410225863
 21
202.6848867409838
 31
0.0
  0
LINE
  5
620
330
6FD
100
AcDbEntity
  8
GAIKEI
 62
     1
100
AcDbLine
 10
33.20621410225863
 20
200.1848878281576
 30
0.0
 11
25.80621410225877
 21
200.1848878281576
 31
0.0
  0
LINE
  5
621
330
6FD
100
AcDbEntity
  8
GAIKEI
 62
     1
100
AcDbLine
 10
26.10621410225872
 20
202.3883655412126
 30
0.0
 11
32.90621410225867
 21
202.3883655412126
 31
0.0
  0
LINE
  5
622
330
6FD
100
AcDbEntity
  8
GAIKEI
 62
     1
100
AcDbLine
 10
31.05621515925759
 20
200.2848878281575
 30
0.0
 11
25.80621410225877
 21
200.2848878281575
 31
0.0
  0
LINE
  5
623
330
6FD
100
AcDbEntity
  8
GAIKEI
 62
     1
100
AcDbLine
 10
30.95621410225863
 20
202.3248878281577
 30
0.0
 11
28.05621410225877
 21
202.3248878281577
 31
0.0
  0
LINE
  5
624
330
6FD
100
AcDbEntity
  8
GAIKEI
 62
     1
100
AcDbLine
 10
32.38621410225869
 20
202.2348867409837
 30
0.0
 11
26.60621410225872
 21
202.2348867409839
 31
0.0
  0
LINE
  5
625
330
6FD
100
AcDbEntity
  8
GAIKEI
 62
     1
100
AcDbLine
 10
28.55621410225877
 20
200.5048867409837
 30
0.0
 11
30.45621410225886
 21
200.5048867409837
 31
0.0
  0
LINE
  5
626
330
6FD
100
AcDbEntity
  8
GAIKEI
 62
     1
100
AcDbLine
 10
28.59592047447882
 20
201.0348867409837
 30
0.0
 11
30.41650773003857
 21
201.0348867409837
 31
0.0
  0
LINE
  5
627
330
6FD
100
AcDbEntity
  8
GAIKEI
 62
     1
100
AcDbLine
 10
34.51624533078666
 20
199.854858776474
 30
0.0
 11
44.9262453307865
 21
199.8548587764742
 31
0.0
  0
LINE
  5
628
330
6FD
100
AcDbEntity
  8
GAIKEI
 62
     1
100
AcDbLine
 10
44.9262453307865
 20
203.1848243098712
 30
0.0
 11
34.51624533078666
 21
203.1848243098712
 31
0.0
  0
LINE
  5
629
330
6FD
100
AcDbEntity
  8
GAIKEI
 62
     1
100
AcDbLine
 10
41.70624533078671
 20
202.4398415431726
 30
0.0
 11
35.33124533078671
 21
202.4398415431726
 31
0.0
  0
LINE
  5
62A
330
6FD
100
AcDbEntity
  8
GAIKEI
 62
     1
100
AcDbLine
 10
35.33124533078671
 20
200.4648415431727
 30
0.0
 11
41.70624533078671
 21
200.4648415431727
 31
0.0
  0
LINE
  5
62B
330
6FD
100
AcDbEntity
  8
GAIKEI
 62
     1
100
AcDbLine
 10
41.41124427378803
 20
202.0998415431727
 30
0.0
 11
35.61124427378786
 21
202.0998415431727
 31
0.0
  0
LINE
  5
62C
330
6FD
100
AcDbEntity
  8
GAIKEI
 62
     1
100
AcDbLine
 10
35.61124427378786
 20
200.7998415431728
 30
0.0
 11
41.41124427378803
 21
200.7998415431728
 31
0.0
  0
ARC
  5
62D
330
6FD
100
AcDbEntity
  8
GAIKEI
  6
Continuous
 62
     1
100
AcDbCircle
 10
53.50624638778527
 20
201.5348165993969
 30
0.0
 40
1.449999999999909
100
AcDbArc
 50
90.0
 51
135.0000000000088
  0
CIRCLE
  5
62E
330
6FD
100
AcDbEntity
  8
GAIKEI
  6
Continuous
 62
     1
100
AcDbCircle
 10
53.50621492829986
 20
201.5348479970915
 30
0.0
 40
1.20000000000009
  0
CIRCLE
  5
62F
330
6FD
100
AcDbEntity
  8
GAIKEI
  6
Continuous
 62
     1
100
AcDbCircle
 10
53.50621492829986
 20
201.5348479970915
 30
0.0
 40
0.9000000000000911
  0
CIRCLE
  5
630
330
6FD
100
AcDbEntity
  8
GAIKEI
  6
Continuous
 62
     1
100
AcDbCircle
 10
53.50621492829986
 20
201.5348479970915
 30
0.0
 40
1.10000000000009
  0
LINE
  5
631
330
6FD
100
AcDbEntity
  8
GAIKEI
 62
     1
100
AcDbLine
 10
89.76849457833671
 20
199.8848157882637
 30
0.0
 11
79.9694706023838
 21
199.8848157882637
 31
0.0
  0
LINE
  5
632
330
6FD
100
AcDbEntity
  8
GAIKEI
 62
     1
100
AcDbLine
 10
79.9694706023838
 20
200.0848157882635
 30
0.0
 11
89.76849457833671
 21
200.0848157882635
 31
0.0
  0
LINE
  5
633
330
6FD
100
AcDbEntity
  8
GAIKEI
100
AcDbLine
 10
111.7884945754668
 20
203.6148173023798
 30
0.0
 11
79.20430719256772
 21
203.6148144369038
 31
0.0
  0
LINE
  5
634
330
6FD
100
AcDbEntity
  8
GAIKEI
100
AcDbLine
 10
79.31849460893271
 20
199.4048157882642
 30
0.0
 11
111.5384949455129
 21
199.4048157882642
 31
0.0
  0
LINE
  5
635
330
6FD
100
AcDbEntity
  8
GAIKEI
100
AcDbLine
 10
111.6184943880503
 20
199.3348125853447
 30
0.0
 11
79.26849460893254
 21
199.3348125853447
 31
0.0
  0
LINE
  5
636
330
6FD
100
AcDbEntity
  8
GAIKEI
100
AcDbLine
 10
111.6184943880503
 20
199.3348125853447
 30
0.0
 11
79.26849460893254
 21
199.3348125853447
 31
0.0
  0
LINE
  5
637
330
6FD
100
AcDbEntity
  8
GAIKEI
100
AcDbLine
 10
79.31849460893271
 20
199.4048157882642
 30
0.0
 11
111.5384949455129
 21
199.4048157882642
 31
0.0
  0
LINE
  5
638
330
6FD
100
AcDbEntity
  8
GAIKEI
100
AcDbLine
 10
111.7884945754668
 20
203.6148173023798
 30
0.0
 11
79.20430719256772
 21
203.6148144369038
 31
0.0
  0
LINE
  5
639
330
6FD
100
AcDbEntity
  8
GAIKEI
 62
     1
100
AcDbLine
 10
79.9694706023838
 20
200.0848157882635
 30
0.0
 11
89.76849457833671
 21
200.0848157882635
 31
0.0
  0
LINE
  5
63A
330
6FD
100
AcDbEntity
  8
GAIKEI
 62
     1
100
AcDbLine
 10
89.76849457833671
 20
199.8848157882637
 30
0.0
 11
79.9694706023838
 21
199.8848157882637
 31
0.0
  0
DIMENSION
  5
63B
330
6FD
100
AcDbEntity
  8
SUNPO
100
AcDbDimension
  2
*D7
 10
111.8684900593992
 20
211.7278137803335
 30
0.0
 11
94.3684902430872
 21
213.4778137803335
 31
0.0
 70
    33
  1
350
 71
     5
 42
34.999999632624
  3
STANDARD
100
AcDbAlignedDimension
 13
76.86849042677521
 23
203.7278137803332
 33
0.0
 14
111.8684900593992
 24
203.7278126598058
 34
0.0
1001
ACAD
1000
DSTYLE
1002
{
1070
    40
1040
1.0
1070
   140
1040
2.5
1070
   147
1040
0.5
1070
   172
1070
     1
1070
   279
1070
     0
1070
   343
1005
712
1070
   344
1005
712
1002
}
  0
LINE
  5
648
330
6FD
100
AcDbEntity
  8
GAIKEI
 62
     1
100
AcDbLine
 10
83.06131474363338
 20
200.4848157882636
 30
0.0
 11
89.76849457833671
 21
200.4848157882636
 31
0.0
  0
LINE
  5
649
330
6FD
100
AcDbEntity
  8
GAIKEI
 62
     1
100
AcDbLine
 10
89.76849457833671
 20
200.2848157882636
 30
0.0
 11
83.06131474363338
 21
200.2848157882636
 31
0.0
  0
LINE
  5
64A
330
6FD
100
AcDbEntity
  8
GAIKEI
 62
     1
100
AcDbLine
 10
89.76849457833671
 20
200.2848157882636
 30
0.0
 11
83.06131474363338
 21
200.2848157882636
 31
0.0
  0
LINE
  5
64B
330
6FD
100
AcDbEntity
  8
GAIKEI
 62
     1
100
AcDbLine
 10
83.06131474363338
 20
200.4848157882636
 30
0.0
 11
89.76849457833671
 21
200.4848157882636
 31
0.0
  0
LINE
  5
64C
330
6FD
100
AcDbEntity
  8
GAIKEI
100
AcDbLine
 10
20.90623959237814
 20
198.3348148577952
 30
0.0
 11
20.00623959237828
 21
198.3348148577952
 31
0.0
  0
LINE
  5
64D
330
6FD
100
AcDbEntity
  8
GAIKEI
100
AcDbLine
 10
20.90623959237814
 20
198.3348148577952
 30
0.0
 11
20.00623959237828
 21
198.3348148577952
 31
0.0
  0
LINE
  5
64E
330
6FD
100
AcDbEntity
  8
GAIKEI
  6
S10
 62
     1
100
AcDbLine
 10
14.80621410225899
 20
199.3348148577952
 30
0.0
 11
14.80621410225899
 21
203.7348148577953
 31
0.0
  0
LINE
  5
650
330
6FD
100
AcDbEntity
  8
GAIKEI
  6
S10
100
AcDbLine
 10
14.80621410225899
 20
199.3348148577952
 30
0.0
 11
14.80621410225899
 21
203.7348148577953
 31
0.0
  0
LINE
  5
651
330
6FD
100
AcDbEntity
  8
GAIKEI
100
AcDbLine
 10
15.00621410225904
 20
203.7348418628508
 30
0.0
 11
15.00621410225904
 21
199.3348418628509
 31
0.0
  0
LINE
  5
652
330
6FD
100
AcDbEntity
  8
GAIKEI
100
AcDbLine
 10
19.00623959237828
 20
199.3348148577952
 30
0.0
 11
19.10623959237819
 21
198.3348148577952
 31
0.0
  0
LINE
  5
653
330
6FD
100
AcDbEntity
  8
GAIKEI
100
AcDbLine
 10
19.00623959237828
 20
199.3348148577952
 30
0.0
 11
19.10623959237819
 21
198.3348148577952
 31
0.0
  0
LINE
  5
654
330
6FD
100
AcDbEntity
  8
GAIKEI
100
AcDbLine
 10
20.00623959237828
 20
198.3348148577952
 30
0.0
 11
19.10623959237819
 21
198.3348148577952
 31
0.0
  0
LINE
  5
655
330
6FD
100
AcDbEntity
  8
GAIKEI
100
AcDbLine
 10
20.00623959237828
 20
198.3348148577952
 30
0.0
 11
19.10623959237819
 21
198.3348148577952
 31
0.0
  0
LINE
  5
656
330
6FD
100
AcDbEntity
  8
GAIKEI
 62
     1
100
AcDbLine
 10
17.55624007704228
 20
202.4348394194176
 30
0.0
 11
17.55624007704228
 21
200.2348394194175
 31
0.0
  0
LINE
  5
657
330
6FD
100
AcDbEntity
  8
GAIKEI
 62
     1
100
AcDbLine
 10
19.45624007704237
 20
200.2348394194175
 30
0.0
 11
19.45624007704237
 21
202.4348394194176
 31
0.0
  0
LINE
  5
658
330
6FD
100
AcDbEntity
  8
GAIKEI
 62
     1
100
AcDbLine
 10
17.60624007704246
 20
200.1848394194176
 30
0.0
 11
19.40624007704241
 21
200.1848394194176
 31
0.0
  0
ARC
  5
659
330
6FD
100
AcDbEntity
  8
GAIKEI
 62
     1
100
AcDbCircle
 10
17.60624007704246
 20
200.2348394194175
 30
0.0
 40
0.05
100
AcDbArc
 50
180.0
 51
270.0
  0
ARC
  5
65A
330
6FD
100
AcDbEntity
  8
GAIKEI
 62
     1
100
AcDbCircle
 10
19.40624007704241
 20
200.2348394194175
 30
0.0
 40
0.05
100
AcDbArc
 50
270.0
 51
0.0
  0
LINE
  5
65B
330
6FD
100
AcDbEntity
  8
GAIKEI
 62
     1
100
AcDbLine
 10
19.40624007704241
 20
202.4848394194175
 30
0.0
 11
17.60624007704246
 21
202.4848394194175
 31
0.0
  0
ARC
  5
65C
330
6FD
100
AcDbEntity
  8
GAIKEI
 62
     1
100
AcDbCircle
 10
17.60624007704246
 20
202.4348394194176
 30
0.0
 40
0.05
100
AcDbArc
 50
90.0
 51
180.0
  0
ARC
  5
65D
330
6FD
100
AcDbEntity
  8
GAIKEI
 62
     1
100
AcDbCircle
 10
19.40624007704241
 20
202.4348394194176
 30
0.0
 40
0.05
100
AcDbArc
 50
0.0
 51
90.0
  0
LINE
  5
65E
330
6FD
100
AcDbEntity
  8
GAIKEI
100
AcDbLine
 10
20.90623959237814
 20
198.3348148577952
 30
0.0
 11
21.00623959237805
 21
199.3348148577952
 31
0.0
  0
LINE
  5
65F
330
6FD
100
AcDbEntity
  8
GAIKEI
 62
     1
100
AcDbLine
 10
21.75624523570264
 20
201.6348407584501
 30
0.0
 11
21.75624523570264
 21
201.43484075845
 31
0.0
  0
LINE
  5
660
330
6FD
100
AcDbEntity
  8
GAIKEI
 62
     1
100
AcDbLine
 10
21.75624557704191
 20
201.6347880488947
 30
0.0
 11
21.75624557704191
 21
201.4347880488947
 31
0.0
  0
LINE
  5
661
330
6FD
100
AcDbEntity
  8
GAIKEI
 62
     1
100
AcDbLine
 10
21.75624654644571
 20
202.5848371197426
 30
0.0
 11
21.75624654644571
 21
202.3848371197425
 31
0.0
  0
LINE
  5
662
330
6FD
100
AcDbEntity
  8
GAIKEI
 62
     1
100
AcDbLine
 10
21.75624557704191
 20
202.5847880488948
 30
0.0
 11
21.75624557704191
 21
202.3847880488947
 31
0.0
  0
ARC
  5
663
330
6FD
100
AcDbEntity
  8
GAIKEI
  6
HIDDEN2
 62
     1
100
AcDbCircle
 10
12.8562298320021
 20
203.1248148577952
 30
0.0
 40
0.3
100
AcDbArc
 50
270.0
 51
90.0
  0
ARC
  5
664
330
6FD
100
AcDbEntity
  8
GAIKEI
  6
HIDDEN2
 62
     1
100
AcDbCircle
 10
12.8562298320021
 20
203.1248148577952
 30
0.0
 40
0.3
100
AcDbArc
 50
270.0
 51
90.0
  0
LINE
  5
665
330
6FD
100
AcDbEntity
  8
GAIKEI
  6
HIDDEN2
 62
     1
100
AcDbLine
 10
12.00622983200219
 20
199.5348148577953
 30
0.0
 11
12.00622983200219
 21
203.5348148577953
 31
0.0
  0
LINE
  5
666
330
6FD
100
AcDbEntity
  8
GAIKEI
  6
HIDDEN2
 62
     1
100
AcDbLine
 10
12.00622983200219
 20
199.5348148577953
 30
0.0
 11
12.00622983200219
 21
203.5348148577953
 31
0.0
  0
ARC
  5
667
330
6FD
100
AcDbEntity
  8
GAIKEI
  6
HIDDEN2
 62
     1
100
AcDbCircle
 10
12.45622983200201
 20
203.1248148577952
 30
0.0
 40
0.3
100
AcDbArc
 50
180.0
 51
270.0
  0
ARC
  5
668
330
6FD
100
AcDbEntity
  8
GAIKEI
  6
HIDDEN2
 62
     1
100
AcDbCircle
 10
12.45622983200201
 20
203.1248148577952
 30
0.0
 40
0.3
100
AcDbArc
 50
180.0
 51
270.0
  0
ARC
  5
669
330
6FD
100
AcDbEntity
  8
GAIKEI
  6
HIDDEN2
 62
     1
100
AcDbCircle
 10
12.8562298320021
 20
199.9448148577953
 30
0.0
 40
0.3
100
AcDbArc
 50
270.0
 51
90.0
  0
ARC
  5
66A
330
6FD
100
AcDbEntity
  8
GAIKEI
  6
HIDDEN2
 62
     1
100
AcDbCircle
 10
12.8562298320021
 20
199.9448148577953
 30
0.0
 40
0.3
100
AcDbArc
 50
270.0
 51
90.0
  0
ARC
  5
66B
330
6FD
100
AcDbEntity
  8
GAIKEI
  6
HIDDEN2
 62
     1
100
AcDbCircle
 10
12.20622983200201
 20
199.5348148577953
 30
0.0
 40
0.2
100
AcDbArc
 50
180.0
 51
270.0
  0
ARC
  5
66C
330
6FD
100
AcDbEntity
  8
GAIKEI
  6
HIDDEN2
 62
     1
100
AcDbCircle
 10
12.20622983200201
 20
199.5348148577953
 30
0.0
 40
0.2
100
AcDbArc
 50
180.0
 51
270.0
  0
ARC
  5
66D
330
6FD
100
AcDbEntity
  8
GAIKEI
  6
HIDDEN2
 62
     1
100
AcDbCircle
 10
12.45622983200201
 20
199.9448148577953
 30
0.0
 40
0.3
100
AcDbArc
 50
180.0
 51
270.0
  0
ARC
  5
66E
330
6FD
100
AcDbEntity
  8
GAIKEI
  6
HIDDEN2
 62
     1
100
AcDbCircle
 10
12.45622983200201
 20
199.9448148577953
 30
0.0
 40
0.3
100
AcDbArc
 50
90.0
 51
180.0
  0
ARC
  5
66F
330
6FD
100
AcDbEntity
  8
GAIKEI
  6
HIDDEN2
 62
     1
100
AcDbCircle
 10
12.45622983200201
 20
199.9448148577953
 30
0.0
 40
0.3
100
AcDbArc
 50
90.0
 51
180.0
  0
ARC
  5
670
330
6FD
100
AcDbEntity
  8
GAIKEI
  6
HIDDEN2
 62
     1
100
AcDbCircle
 10
12.45622983200201
 20
199.9448148577953
 30
0.0
 40
0.3
100
AcDbArc
 50
180.0
 51
270.0
  0
LINE
  5
671
330
6FD
100
AcDbEntity
  8
GAIKEI
  6
HIDDEN2
 62
     1
100
AcDbLine
 10
12.45622983200201
 20
199.6448148577954
 30
0.0
 11
12.8562298320021
 21
199.6448148577954
 31
0.0
  0
LINE
  5
672
330
6FD
100
AcDbEntity
  8
GAIKEI
  6
HIDDEN2
 62
     1
100
AcDbLine
 10
12.45622983200201
 20
200.2448148577953
 30
0.0
 11
12.8562298320021
 21
200.2448148577953
 31
0.0
  0
LINE
  5
673
330
6FD
100
AcDbEntity
  8
GAIKEI
  6
HIDDEN2
 62
     1
100
AcDbLine
 10
12.45622983200201
 20
200.2448148577953
 30
0.0
 11
12.8562298320021
 21
200.2448148577953
 31
0.0
  0
LINE
  5
674
330
6FD
100
AcDbEntity
  8
GAIKEI
  6
HIDDEN2
 62
     1
100
AcDbLine
 10
12.45622983200201
 20
199.6448148577954
 30
0.0
 11
12.8562298320021
 21
199.6448148577954
 31
0.0
  0
LINE
  5
675
330
6FD
100
AcDbEntity
  8
GAIKEI
  6
HIDDEN2
 62
     1
100
AcDbLine
 10
12.45622983200201
 20
202.8248148577952
 30
0.0
 11
12.8562298320021
 21
202.8248148577952
 31
0.0
  0
LINE
  5
676
330
6FD
100
AcDbEntity
  8
GAIKEI
  6
HIDDEN2
 62
     1
100
AcDbLine
 10
12.45622983200201
 20
202.8248148577952
 30
0.0
 11
12.8562298320021
 21
202.8248148577952
 31
0.0
  0
ARC
  5
677
330
6FD
100
AcDbEntity
  8
GAIKEI
  6
HIDDEN2
 62
     1
100
AcDbCircle
 10
12.20622983200201
 20
203.5348148577953
 30
0.0
 40
0.2
100
AcDbArc
 50
90.0
 51
180.0
  0
ARC
  5
678
330
6FD
100
AcDbEntity
  8
GAIKEI
  6
HIDDEN2
 62
     1
100
AcDbCircle
 10
12.20622983200201
 20
203.5348148577953
 30
0.0
 40
0.2
100
AcDbArc
 50
90.0
 51
180.0
  0
ARC
  5
679
330
6FD
100
AcDbEntity
  8
GAIKEI
  6
HIDDEN2
 62
     1
100
AcDbCircle
 10
12.45622983200201
 20
203.1248148577952
 30
0.0
 40
0.3
100
AcDbArc
 50
90.0
 51
180.0
  0
ARC
  5
67A
330
6FD
100
AcDbEntity
  8
GAIKEI
  6
HIDDEN2
 62
     1
100
AcDbCircle
 10
12.45622983200201
 20
203.1248148577952
 30
0.0
 40
0.3
100
AcDbArc
 50
90.0
 51
180.0
  0
LINE
  5
67B
330
6FD
100
AcDbEntity
  8
GAIKEI
  6
HIDDEN2
 62
     1
100
AcDbLine
 10
12.45622983200201
 20
203.4248148577951
 30
0.0
 11
12.8562298320021
 21
203.4248148577951
 31
0.0
  0
LINE
  5
67C
330
6FD
100
AcDbEntity
  8
GAIKEI
  6
HIDDEN2
 62
     1
100
AcDbLine
 10
12.45622983200201
 20
203.4248148577951
 30
0.0
 11
12.8562298320021
 21
203.4248148577951
 31
0.0
  0
LINE
  5
67D
330
6FD
100
AcDbEntity
  8
GAIKEI
  6
HIDDEN2
 62
     1
100
AcDbLine
 10
12.20622983200201
 20
199.3348148577952
 30
0.0
 11
15.00621410225904
 21
199.3348148577952
 31
0.0
  0
LINE
  5
67E
330
6FD
100
AcDbEntity
  8
GAIKEI
  6
HIDDEN2
 62
     1
100
AcDbLine
 10
12.20622983200201
 20
199.3348148577952
 30
0.0
 11
15.00621410225904
 21
199.3348148577952
 31
0.0
  0
LINE
  5
67F
330
6FD
100
AcDbEntity
  8
GAIKEI
  6
HIDDEN2
 62
     1
100
AcDbLine
 10
12.20622983200201
 20
203.7348148577953
 30
0.0
 11
15.00621410225904
 21
203.7348148577953
 31
0.0
  0
LINE
  5
680
330
6FD
100
AcDbEntity
  8
GAIKEI
  6
HIDDEN2
 62
     1
100
AcDbLine
 10
12.20622983200201
 20
203.7348148577953
 30
0.0
 11
15.00621410225904
 21
203.7348148577953
 31
0.0
  0
LINE
  5
681
330
6FD
100
AcDbEntity
  8
GAIKEI
100
AcDbLine
 10
15.00621410225904
 20
203.7348418628508
 30
0.0
 11
57.00621410225903
 21
203.7348148577953
 31
0.0
  0
LINE
  5
682
330
6FD
100
AcDbEntity
  8
GAIKEI
100
AcDbLine
 10
15.00621410225904
 20
199.3348418628509
 30
0.0
 11
57.00621410225903
 21
199.3348148577952
 31
0.0
  0
LINE
  5
683
330
6FD
100
AcDbEntity
  8
GAIKEI
100
AcDbLine
 10
15.00624556174421
 20
199.3348418456269
 30
0.0
 11
57.00624556174397
 21
199.3348418456269
 31
0.0
  0
DIMENSION
  5
684
330
6FD
100
AcDbEntity
  8
SUNPO
100
AcDbDimension
  2
*D6
 10
57.00620881901205
 20
211.7278083406556
 30
0.0
 11
36.00621146063555
 21
213.4778083406557
 31
0.0
 70
    33
  1
420
 71
     5
 42
41.999994716753
  3
STANDARD
100
AcDbAlignedDimension
 13
15.00621410225904
 23
203.7278083406556
 33
0.0
 14
57.00620881901205
 24
203.7278083406556
 34
0.0
1001
ACAD
1000
DSTYLE
1002
{
1070
    40
1040
1.0
1070
   140
1040
2.5
1070
   147
1040
0.5
1070
   172
1070
     1
1070
   279
1070
     0
1070
   343
1005
712
1070
   344
1005
712
1002
}
  0
LINE
  5
691
330
6FD
100
AcDbEntity
  8
GAIKEI
 62
     1
100
AcDbLine
 10
21.75624523570264
 20
201.43484075845
 30
0.0
 11
22.25624523570264
 21
201.43484075845
 31
0.0
  0
LINE
  5
692
330
6FD
100
AcDbEntity
  8
GAIKEI
 62
     1
100
AcDbLine
 10
21.75624557704191
 20
201.4347880488947
 30
0.0
 11
22.25624557704191
 21
201.4347880488947
 31
0.0
  0
LINE
  5
693
330
6FD
100
AcDbEntity
  8
GAIKEI
 62
     1
100
AcDbLine
 10
22.25624523570264
 20
201.6348407584501
 30
0.0
 11
21.75624523570264
 21
201.6348407584501
 31
0.0
  0
LINE
  5
694
330
6FD
100
AcDbEntity
  8
GAIKEI
 62
     1
100
AcDbLine
 10
21.75624654644571
 20
202.3848371197425
 30
0.0
 11
22.25624654644571
 21
202.3848371197425
 31
0.0
  0
LINE
  5
695
330
6FD
100
AcDbEntity
  8
GAIKEI
 62
     1
100
AcDbLine
 10
22.25624654644571
 20
202.5848371197426
 30
0.0
 11
21.75624654644571
 21
202.5848371197426
 31
0.0
  0
LINE
  5
696
330
6FD
100
AcDbEntity
  8
GAIKEI
 62
     1
100
AcDbLine
 10
22.25624557704191
 20
202.5847880488948
 30
0.0
 11
21.75624557704191
 21
202.5847880488948
 31
0.0
  0
LINE
  5
697
330
6FD
100
AcDbEntity
  8
GAIKEI
 62
     1
100
AcDbLine
 10
21.75624557704191
 20
202.3847880488947
 30
0.0
 11
22.25624557704191
 21
202.3847880488947
 31
0.0
  0
LINE
  5
698
330
6FD
100
AcDbEntity
  8
GAIKEI
 62
     1
100
AcDbLine
 10
22.25624557704191
 20
201.6347880488945
 30
0.0
 11
21.75624557704191
 21
201.6347880488947
 31
0.0
  0
TEXT
  5
699
330
6FD
100
AcDbEntity
  8
TOUROKU
100
AcDbText
 10
106.0666166995939
 20
234.4992141396418
 30
0.0
 40
2.0
  1
ＷＪＨＤ１００ＡＶ
 72
     2
 11
126.9999500329273
 21
234.4992141396418
 31
0.0
100
AcDbText
  0
TEXT
  5
69B
330
6FD
100
AcDbEntity
  8
MOJI1
100
AcDbText
 10
29.0
 20
240.4992141396417
 30
0.0
 40
4.0
  1
デジタルディスクレコーダー
100
AcDbText
  0
TEXT
  5
69C
330
6FD
100
AcDbEntity
  8
MOJI1
100
AcDbText
 10
44.5
 20
157.4992141396417
 30
0.0
 40
3.0
  1
映像×１、音声×１
100
AcDbText
  0
TEXT
  5
69D
330
6FD
100
AcDbEntity
  8
MOJI1
100
AcDbText
 10
44.5
 20
147.4992141396417
 30
0.0
 40
3.0
  1
１２０ＧＢ以上
100
AcDbText
  0
TEXT
  5
69E
330
6FD
100
AcDbEntity
  8
MOJI1
100
AcDbText
 10
44.5
 20
152.4992141396417
 30
0.0
 40
3.0
  1
映像×１、音声×１
100
AcDbText
  0
TEXT
  5
69F
330
6FD
100
AcDbEntity
  8
MOJI1
100
AcDbText
 10
44.5
 20
162.4992141396417
 30
0.0
 40
3.0
  1
ＡＣ１００Ｖ　５０／６０Ｈｚ
100
AcDbText
  0
TEXT
  5
6A0
330
6FD
100
AcDbEntity
  8
MOJI1
100
AcDbText
 10
44.5
 20
142.4992141396417
 30
0.0
 40
3.0
  1
モーションディテクター内蔵
100
AcDbText
  0
TEXT
  5
6A1
330
6FD
100
AcDbEntity
  8
MOJI1
100
AcDbText
 10
4.5
 20
162.4992141396417
 30
0.0
 40
3.0
  1
電　源
100
AcDbText
  0
TEXT
  5
6A2
330
6FD
100
AcDbEntity
  8
MOJI1
100
AcDbText
 10
4.5
 20
142.4992141396417
 30
0.0
 40
3.0
  1
機  能
100
AcDbText
  0
TEXT
  5
6A3
330
6FD
100
AcDbEntity
  8
MOJI1
100
AcDbText
 10
4.5
 20
152.4992141396417
 30
0.0
 40
3.0
  1
出  力　　　
100
AcDbText
  0
TEXT
  5
6A4
330
6FD
100
AcDbEntity
  8
MOJI1
100
AcDbText
 10
4.5
 20
157.4992141396417
 30
0.0
 40
3.0
  1
入  力
100
AcDbText
  0
LINE
  5
6A5
330
6FD
100
AcDbEntity
  8
WAKU
 62
     4
100
AcDbLine
 10
127.0
 20
166.4992141396417
 30
0.0
 11
2.0
 21
166.4992141396417
 31
0.0
  0
LINE
  5
6A7
330
6FD
100
AcDbEntity
  8
WAKU
 62
     1
100
AcDbLine
 10
2.0
 20
141.4992141396417
 30
0.0
 11
127.0
 21
141.4992141396417
 31
0.0
  0
LINE
  5
6A8
330
6FD
100
AcDbEntity
  8
WAKU
 62
     1
100
AcDbLine
 10
2.0
 20
146.4992141396417
 30
0.0
 11
127.0
 21
146.4992141396417
 31
0.0
  0
LINE
  5
6A9
330
6FD
100
AcDbEntity
  8
WAKU
 62
     1
100
AcDbLine
 10
2.0
 20
151.4992141396417
 30
0.0
 11
127.0
 21
151.4992141396417
 31
0.0
  0
LINE
  5
6AA
330
6FD
100
AcDbEntity
  8
WAKU
 62
     1
100
AcDbLine
 10
2.0
 20
156.4992141396416
 30
0.0
 11
127.0
 21
156.4992141396416
 31
0.0
  0
LINE
  5
6AB
330
6FD
100
AcDbEntity
  8
WAKU
 62
     1
100
AcDbLine
 10
2.0
 20
161.4992141396417
 30
0.0
 11
127.0
 21
161.4992141396417
 31
0.0
  0
TEXT
  5
6AC
330
6FD
100
AcDbEntity
  8
MOJI1
100
AcDbText
 10
4.5
 20
147.4992141396417
 30
0.0
 40
3.0
  1
内蔵ハードディスク
100
AcDbText
  0
LINE
  5
6AD
330
6FD
100
AcDbEntity
  8
WAKU
 62
     4
100
AcDbLine
 10
2.0
 20
131.4992141396417
 30
0.0
 11
127.0
 21
131.4992141396417
 31
0.0
  0
LINE
  5
6AE
330
6FD
100
AcDbEntity
  8
WAKU
 62
     1
100
AcDbLine
 10
2.0
 20
136.4992141396417
 30
0.0
 11
127.0
 21
136.4992141396417
 31
0.0
  0
LINE
  5
6AF
330
6FD
100
AcDbEntity
  8
WAKU
 62
     4
100
AcDbLine
 10
2.0
 20
166.4992141396417
 30
0.0
 11
2.0
 21
131.4992141396417
 31
0.0
  0
LINE
  5
6B0
330
6FD
100
AcDbEntity
  8
WAKU
 62
     4
100
AcDbLine
 10
127.0
 20
131.4992141396417
 30
0.0
 11
127.0
 21
166.4992141396417
 31
0.0
  0
LINE
  5
6B1
330
6FD
100
AcDbEntity
  8
WAKU
 62
     4
100
AcDbLine
 10
42.0
 20
131.4992141396417
 30
0.0
 11
42.0
 21
166.4992141396417
 31
0.0
  0
TEXT
  5
6B2
330
6FD
100
AcDbEntity
  8
MOJI1
100
AcDbText
 10
44.5
 20
137.4992141396417
 30
0.0
 40
3.0
  1
ＰＣカードスロットル内蔵
100
AcDbText
  0
ENDSEC
  0
SECTION
  2
OBJECTS
  0
DICTIONARY
  5
6E9
330
0
100
AcDbDictionary
281
     1
  3
ACAD_COLOR
350
6F8
  3
ACAD_GROUP
350
6EA
  3
ACAD_LAYOUT
350
6F6
  3
ACAD_MATERIAL
350
6F7
  3
ACAD_MLINESTYLE
350
6F3
  3
ACAD_PLOTSETTINGS
350
6F5
  3
ACAD_PLOTSTYLENAME
350
6EB
  3
ACDBHEADERROUNDTRIPXREC
350
746
  3
AcDbVariableDictionary
350
741
  3
DWGPROPS
350
745
  0
DICTIONARY
  5
6F8
102
{ACAD_REACTORS
330
6E9
102
}
330
6E9
100
AcDbDictionary
281
     1
  0
DICTIONARY
  5
6EA
102
{ACAD_REACTORS
330
6E9
102
}
330
6E9
100
AcDbDictionary
281
     1
  0
DICTIONARY
  5
6F6
102
{ACAD_REACTORS
330
6E9
102
}
330
6E9
100
AcDbDictionary
281
     1
  3
Model
350
700
  3
レイアウト1
350
6FC
  0
DICTIONARY
  5
6F7
102
{ACAD_REACTORS
330
6E9
102
}
330
6E9
100
AcDbDictionary
281
     1
  0
DICTIONARY
  5
6F3
102
{ACAD_REACTORS
330
6E9
102
}
330
6E9
100
AcDbDictionary
281
     1
  3
Standard
350
6F4
  0
DICTIONARY
  5
6F5
102
{ACAD_REACTORS
330
6E9
102
}
330
6E9
100
AcDbDictionary
281
     1
  0
ACDBDICTIONARYWDFLT
  5
6EB
102
{ACAD_REACTORS
330
6E9
102
}
330
6E9
100
AcDbDictionary
281
     1
  3
Normal
350
6EC
100
AcDbDictionaryWithDefault
340
6EC
  0
DICTIONARY
  5
746
102
{ACAD_REACTORS
330
6E9
102
}
330
6E9
100
AcDbDictionary
281
     1
  3
COLORDICT
350
748
  3
MATERIALDICT
350
747
  0
DICTIONARY
  5
741
102
{ACAD_REACTORS
330
6E9
102
}
330
6E9
100
AcDbDictionary
281
     1
  3
DIMASSOC
350
742
  3
PROJECTNAME
350
743
  0
XRECORD
  5
745
102
{ACAD_REACTORS
330
6E9
102
}
330
6E9
100
AcDbXrecord
280
     1
  1
DWGPROPS COOKIE
  2

  3

  4

  6

  7

  8

  9

300
=
301
=
302
=
303
=
304
=
305
=
306
=
307
=
308
=
309
=
 40
0.7360023263888889
 41
2451815.190532581
 42
2453731.700310324
  1

 90
        0
  0
LAYOUT
  5
700
102
{ACAD_XDICTIONARY
360
74B
102
}
102
{ACAD_REACTORS
330
6F6
102
}
330
6F6
100
AcDbPlotSettings
  1

  2
\\Uranus\BFACN02M
  4

  6

 40
0.0
 41
0.0
 42
0.0
 43
0.0
 44
0.0
 45
0.0
 46
0.0
 47
0.0
 48
0.0
 49
0.0
140
0.0
141
0.0
142
1.0
143
1.0
 70
  1712
 72
     0
 73
     0
 74
     0
  7
SSC.ctb
 75
     0
147
1.0
148
0.0
149
0.0
100
AcDbLayout
  1
Model
 70
     1
 71
     0
 10
0.0
 20
0.0
 11
12.0
 21
9.0
 12
0.0
 22
0.0
 32
0.0
 14
0.0
 24
0.0
 34
0.0
 15
0.0
 25
0.0
 35
0.0
146
0.0
 13
0.0
 23
0.0
 33
0.0
 16
1.0
 26
0.0
 36
0.0
 17
0.0
 27
1.0
 37
0.0
 76
     0
330
6FD
  0
LAYOUT
  5
6FC
102
{ACAD_XDICTIONARY
360
749
102
}
102
{ACAD_REACTORS
330
6F6
102
}
330
6F6
100
AcDbPlotSettings
  1

  2
\\Uranus\BFACN02M
  4

  6

 40
0.0
 41
0.0
 42
0.0
 43
0.0
 44
0.0
 45
0.0
 46
0.0
 47
0.0
 48
0.0
 49
0.0
140
0.0
141
0.0
142
1.0
143
1.0
 70
   688
 72
     0
 73
     0
 74
     5
  7
SSC.ctb
 75
    16
147
1.0
148
0.0
149
0.0
100
AcDbLayout
  1
レイアウト1
 70
     1
 71
     1
 10
0.0
 20
0.0
 11
12.0
 21
9.0
 12
0.0
 22
0.0
 32
0.0
 14
1.000000000000000E+20
 24
1.000000000000000E+20
 34
1.000000000000000E+20
 15
-1.000000000000000E+20
 25
-1.000000000000000E+20
 35
-1.000000000000000E+20
146
0.0
 13
0.0
 23
0.0
 33
0.0
 16
1.0
 26
0.0
 36
0.0
 17
0.0
 27
1.0
 37
0.0
 76
     0
330
6F9
  0
MLINESTYLE
  5
6F4
102
{ACAD_REACTORS
330
6F3
102
}
330
6F3
100
AcDbMlineStyle
  2
STANDARD
 70
     0
  3

 62
   256
 51
90.0
 52
90.0
 71
     2
 49
0.5
 62
   256
  6
BYLAYER
 49
-0.5
 62
   256
  6
BYLAYER
  0
ACDBPLACEHOLDER
  5
6EC
102
{ACAD_REACTORS
330
6EB
102
}
330
6EB
  0
XRECORD
  5
748
102
{ACAD_REACTORS
330
746
102
}
330
746
100
AcDbXrecord
280
     1
340
6F8
  0
XRECORD
  5
747
102
{ACAD_REACTORS
330
746
102
}
330
746
100
AcDbXrecord
280
     1
340
6F7
  0
DICTIONARYVAR
  5
742
102
{ACAD_REACTORS
330
741
102
}
330
741
100
DictionaryVariables
280
     0
  1
1
  0
DICTIONARYVAR
  5
743
102
{ACAD_REACTORS
330
741
102
}
330
741
100
DictionaryVariables
280
     0
  1

  0
DICTIONARY
  5
74B
330
700
100
AcDbDictionary
280
     1
281
     1
  3
ACAD_XREC_ROUNDTRIP
360
74C
  0
DICTIONARY
  5
749
330
6FC
100
AcDbDictionary
280
     1
281
     1
  3
ACAD_XREC_ROUNDTRIP
360
74A
  0
XRECORD
  5
74C
102
{ACAD_REACTORS
330
74B
102
}
330
74B
100
AcDbXrecord
280
     1
102
SHADEPLOT
 70
     0
102
SHADEPLOTRESLEVEL
 70
     2
102
SHADEPLOTCUSTOMDPI
 70
   300
  0
XRECORD
  5
74A
102
{ACAD_REACTORS
330
749
102
}
330
749
100
AcDbXrecord
280
     1
102
SHADEPLOT
 70
     0
102
SHADEPLOTRESLEVEL
 70
     2
102
SHADEPLOTCUSTOMDPI
 70
   300
  0
ENDSEC
  0
EOF
