  0
SECTION
  2
HEADER
  9
$ACADVER
  1
AC1015
  9
$ACADMAINTVER
 70
    20
  9
$DWGCODEPAGE
  3
ANSI_932
  9
$INSBASE
 10
0.0
 20
372.4992141396417
 30
0.0
  9
$EXTMIN
 10
-58.28485083699025
 20
-52.63466596044782
 30
-0.0000000349181948
  9
$EXTMAX
 10
66.80742148374747
 20
60.45429507022527
 30
0.0000000814935747
  9
$LIMMIN
 10
-1101.784450318844
 20
-1579.160531687244
  9
$LIMMAX
 10
-508.2420711400536
 20
-1161.440814074914
  9
$ORTHOMODE
 70
     1
  9
$REGENMODE
 70
     1
  9
$FILLMODE
 70
     1
  9
$QTEXTMODE
 70
     0
  9
$MIRRTEXT
 70
     1
  9
$LTSCALE
 40
1.0
  9
$ATTMODE
 70
     1
  9
$TEXTSIZE
 40
2.5
  9
$TRACEWID
 40
0.5
  9
$TEXTSTYLE
  7
STANDARD
  9
$CLAYER
  8
0
  9
$CELTYPE
  6
BYLAYER
  9
$CECOLOR
 62
   256
  9
$CELTSCALE
 40
1.0
  9
$DISPSILH
 70
     0
  9
$DIMSCALE
 40
1.0
  9
$DIMASZ
 40
2.0
  9
$DIMEXO
 40
2.0
  9
$DIMDLI
 40
8.0
  9
$DIMRND
 40
0.0
  9
$DIMDLE
 40
0.0
  9
$DIMEXE
 40
2.0
  9
$DIMTP
 40
0.0
  9
$DIMTM
 40
0.0
  9
$DIMTXT
 40
2.5
  9
$DIMCEN
 40
0.0
  9
$DIMTSZ
 40
0.0
  9
$DIMTOL
 70
     0
  9
$DIMLIM
 70
     0
  9
$DIMTIH
 70
     0
  9
$DIMTOH
 70
     0
  9
$DIMSE1
 70
     0
  9
$DIMSE2
 70
     0
  9
$DIMTAD
 70
     3
  9
$DIMZIN
 70
     0
  9
$DIMBLK
  1

  9
$DIMASO
 70
     1
  9
$DIMSHO
 70
     1
  9
$DIMPOST
  1

  9
$DIMAPOST
  1

  9
$DIMALT
 70
     0
  9
$DIMALTD
 70
     2
  9
$DIMALTF
 40
25.4
  9
$DIMLFAC
 40
1.0
  9
$DIMTOFL
 70
     1
  9
$DIMTVP
 40
0.0
  9
$DIMTIX
 70
     0
  9
$DIMSOXD
 70
     0
  9
$DIMSAH
 70
     1
  9
$DIMBLK1
  1
OPEN30
  9
$DIMBLK2
  1
OPEN30
  9
$DIMSTYLE
  2
STANDARD
  9
$DIMCLRD
 70
     0
  9
$DIMCLRE
 70
     0
  9
$DIMCLRT
 70
     0
  9
$DIMTFAC
 40
1.0
  9
$DIMGAP
 40
0.5
  9
$DIMJUST
 70
     0
  9
$DIMSD1
 70
     0
  9
$DIMSD2
 70
     0
  9
$DIMTOLJ
 70
     1
  9
$DIMTZIN
 70
     0
  9
$DIMALTZ
 70
     0
  9
$DIMALTTZ
 70
     0
  9
$DIMUPT
 70
     0
  9
$DIMDEC
 70
     4
  9
$DIMTDEC
 70
     4
  9
$DIMALTU
 70
     2
  9
$DIMALTTD
 70
     2
  9
$DIMTXSTY
  7
STANDARD
  9
$DIMAUNIT
 70
     0
  9
$DIMADEC
 70
     0
  9
$DIMALTRND
 40
0.0
  9
$DIMAZIN
 70
     0
  9
$DIMDSEP
 70
    46
  9
$DIMATFIT
 70
     3
  9
$DIMFRAC
 70
     0
  9
$DIMLDRBLK
  1
OPEN30
  9
$DIMLUNIT
 70
     2
  9
$DIMLWD
 70
    -2
  9
$DIMLWE
 70
    -2
  9
$DIMTMOVE
 70
     0
  9
$LUNITS
 70
     2
  9
$LUPREC
 70
     4
  9
$SKETCHINC
 40
0.1
  9
$FILLETRAD
 40
0.8
  9
$AUNITS
 70
     0
  9
$AUPREC
 70
     0
  9
$MENU
  1
ACAD
  9
$ELEVATION
 40
0.0
  9
$PELEVATION
 40
0.0
  9
$THICKNESS
 40
0.0
  9
$LIMCHECK
 70
     0
  9
$CHAMFERA
 40
0.0
  9
$CHAMFERB
 40
0.0
  9
$CHAMFERC
 40
0.0
  9
$CHAMFERD
 40
0.0
  9
$SKPOLY
 70
     0
  9
$TDCREATE
 40
2451815.565532581
  9
$TDUCREATE
 40
2451815.190532581
  9
$TDUPDATE
 40
2453732.407670532
  9
$TDUUPDATE
 40
2453732.032670532
  9
$TDINDWG
 40
0.9354950810
  9
$TDUSRTIMER
 40
0.9354948958
  9
$USRTIMER
 70
     1
  9
$ANGBASE
 50
0.0
  9
$ANGDIR
 70
     0
  9
$PDMODE
 70
     0
  9
$PDSIZE
 40
0.0
  9
$PLINEWID
 40
0.0
  9
$SPLFRAME
 70
     0
  9
$SPLINETYPE
 70
     6
  9
$SPLINESEGS
 70
     8
  9
$HANDSEED
  5
73D
  9
$SURFTAB1
 70
     6
  9
$SURFTAB2
 70
     6
  9
$SURFTYPE
 70
     6
  9
$SURFU
 70
     6
  9
$SURFV
 70
     6
  9
$UCSBASE
  2

  9
$UCSNAME
  2

  9
$UCSORG
 10
0.0
 20
0.0
 30
0.0
  9
$UCSXDIR
 10
1.0
 20
0.0
 30
0.0
  9
$UCSYDIR
 10
0.0
 20
1.0
 30
0.0
  9
$UCSORTHOREF
  2

  9
$UCSORTHOVIEW
 70
     0
  9
$UCSORGTOP
 10
0.0
 20
0.0
 30
0.0
  9
$UCSORGBOTTOM
 10
0.0
 20
0.0
 30
0.0
  9
$UCSORGLEFT
 10
0.0
 20
0.0
 30
0.0
  9
$UCSORGRIGHT
 10
0.0
 20
0.0
 30
0.0
  9
$UCSORGFRONT
 10
0.0
 20
0.0
 30
0.0
  9
$UCSORGBACK
 10
0.0
 20
0.0
 30
0.0
  9
$PUCSBASE
  2

  9
$PUCSNAME
  2

  9
$PUCSORG
 10
0.0
 20
0.0
 30
0.0
  9
$PUCSXDIR
 10
1.0
 20
0.0
 30
0.0
  9
$PUCSYDIR
 10
0.0
 20
1.0
 30
0.0
  9
$PUCSORTHOREF
  2

  9
$PUCSORTHOVIEW
 70
     0
  9
$PUCSORGTOP
 10
0.0
 20
0.0
 30
0.0
  9
$PUCSORGBOTTOM
 10
0.0
 20
0.0
 30
0.0
  9
$PUCSORGLEFT
 10
0.0
 20
0.0
 30
0.0
  9
$PUCSORGRIGHT
 10
0.0
 20
0.0
 30
0.0
  9
$PUCSORGFRONT
 10
0.0
 20
0.0
 30
0.0
  9
$PUCSORGBACK
 10
0.0
 20
0.0
 30
0.0
  9
$USERI1
 70
     0
  9
$USERI2
 70
     0
  9
$USERI3
 70
     0
  9
$USERI4
 70
     0
  9
$USERI5
 70
     0
  9
$USERR1
 40
0.0
  9
$USERR2
 40
0.0
  9
$USERR3
 40
0.0
  9
$USERR4
 40
0.0
  9
$USERR5
 40
0.0
  9
$WORLDVIEW
 70
     1
  9
$SHADEDGE
 70
     3
  9
$SHADEDIF
 70
    70
  9
$TILEMODE
 70
     1
  9
$MAXACTVP
 70
    48
  9
$PINSBASE
 10
0.0
 20
0.0
 30
0.0
  9
$PLIMCHECK
 70
     0
  9
$PEXTMIN
 10
1.000000000000000E+20
 20
1.000000000000000E+20
 30
1.000000000000000E+20
  9
$PEXTMAX
 10
-1.000000000000000E+20
 20
-1.000000000000000E+20
 30
-1.000000000000000E+20
  9
$PLIMMIN
 10
0.0
 20
0.0
  9
$PLIMMAX
 10
12.0
 20
9.0
  9
$UNITMODE
 70
     0
  9
$VISRETAIN
 70
     1
  9
$PLINEGEN
 70
     0
  9
$PSLTSCALE
 70
     1
  9
$TREEDEPTH
 70
  3020
  9
$CMLSTYLE
  2
STANDARD
  9
$CMLJUST
 70
     0
  9
$CMLSCALE
 40
1.0
  9
$PROXYGRAPHICS
 70
     1
  9
$MEASUREMENT
 70
     0
  9
$CELWEIGHT
370
    -1
  9
$ENDCAPS
280
     0
  9
$JOINSTYLE
280
     0
  9
$LWDISPLAY
290
     0
  9
$INSUNITS
 70
     0
  9
$HYPERLINKBASE
  1

  9
$STYLESHEET
  1

  9
$XEDIT
290
     1
  9
$CEPSNTYPE
380
     0
  9
$PSTYLEMODE
290
     1
  9
$FINGERPRINTGUID
  2
{1754B7AB-9B3C-11D4-AD9E-00104B1004F2}
  9
$VERSIONGUID
  2
{777A23D4-39D8-44B4-A7CD-3A8AB38E22C6}
  9
$EXTNAMES
290
     1
  9
$PSVPSCALE
 40
0.0
  9
$OLESTARTUP
290
     0
  0
ENDSEC
  0
SECTION
  2
CLASSES
  0
CLASS
  1
ACDBDICTIONARYWDFLT
  2
AcDbDictionaryWithDefault
  3
ObjectDBX Classes
 90
        0
280
     0
281
     0
  0
CLASS
  1
ACDBPLACEHOLDER
  2
AcDbPlaceHolder
  3
ObjectDBX Classes
 90
        0
280
     0
281
     0
  0
CLASS
  1
LAYOUT
  2
AcDbLayout
  3
ObjectDBX Classes
 90
        0
280
     0
281
     0
  0
CLASS
  1
DICTIONARYVAR
  2
AcDbDictionaryVar
  3
ObjectDBX Classes
 90
        0
280
     0
281
     0
  0
CLASS
  1
SORTENTSTABLE
  2
AcDbSortentsTable
  3
ObjectDBX Classes
 90
        0
280
     0
281
     0
  0
ENDSEC
  0
SECTION
  2
TABLES
  0
TABLE
  2
VPORT
  5
20
330
0
100
AcDbSymbolTable
 70
     2
  0
VPORT
  5
735
330
20
100
AcDbSymbolTableRecord
100
AcDbViewportTableRecord
  2
*Active
 70
     0
 10
0.0
 20
0.0
 11
1.0
 21
1.0
 12
4.261285323378615
 22
3.909814554888725
 13
0.0
 23
0.0
 14
1.0
 24
1.0
 15
0.0
 25
0.0
 16
0.0
 26
0.0
 36
1.0
 17
0.0
 27
0.0
 37
0.0
 40
114.0582949823645
 41
1.589413447782546
 42
50.0
 43
0.0
 44
0.0
 50
0.0
 51
0.0
 71
     0
 72
 10000
 73
     1
 74
     0
 75
     0
 76
     1
 77
     0
 78
     0
281
     0
 65
     1
110
0.0
120
0.0
130
0.0
111
1.0
121
0.0
131
0.0
112
0.0
122
1.0
132
0.0
 79
     0
146
0.0
  0
ENDTAB
  0
TABLE
  2
LTYPE
  5
1B
330
0
100
AcDbSymbolTable
 70
     3
  0
LTYPE
  5
1C
330
1B
100
AcDbSymbolTableRecord
100
AcDbLinetypeTableRecord
  2
BYBLOCK
 70
     0
  3

 72
    65
 73
     0
 40
0.0
  0
LTYPE
  5
1D
330
1B
100
AcDbSymbolTableRecord
100
AcDbLinetypeTableRecord
  2
BYLAYER
 70
     0
  3

 72
    65
 73
     0
 40
0.0
  0
LTYPE
  5
B
330
1B
100
AcDbSymbolTableRecord
100
AcDbLinetypeTableRecord
  2
CONTINUOUS
 70
     0
  3
Solid line
 72
    65
 73
     0
 40
0.0
  0
LTYPE
  5
5B5
330
1B
100
AcDbSymbolTableRecord
100
AcDbLinetypeTableRecord
  2
AI9-LTYPE1
 70
     0
  3
Illustrator Dash Style No.1
 72
    65
 73
     4
 40
11.28888888888889
 49
9.524999999999996
 74
     0
 49
-0.5291666666666666
 74
     0
 49
0.7055555555555557
 74
     0
 49
-0.5291666666666666
 74
     0
  0
LTYPE
  5
611
330
1B
100
AcDbSymbolTableRecord
100
AcDbLinetypeTableRecord
  2
HIDDEN2
 70
     0
  3
Hidden (.5x) _ _ _ _ _ _ _ _ _ _ _ _ _ _ _ _ _
 72
    65
 73
     2
 40
1.399999999999999
 49
0.7
 74
     0
 49
-0.7
 74
     0
  0
ENDTAB
  0
TABLE
  2
LAYER
  5
15
102
{ACAD_XDICTIONARY
360
16
102
}
330
0
100
AcDbSymbolTable
 70
     8
  0
LAYER
  5
7
330
15
100
AcDbSymbolTableRecord
100
AcDbLayerTableRecord
  2
0
 70
     0
 62
     7
  6
CONTINUOUS
370
    -3
390
8
  0
LAYER
  5
6A5
330
15
100
AcDbSymbolTableRecord
100
AcDbLayerTableRecord
  2
DEFPOINTS
 70
     0
 62
     7
  6
CONTINUOUS
290
     0
370
    -3
390
8
  0
LAYER
  5
6C4
330
15
100
AcDbSymbolTableRecord
100
AcDbLayerTableRecord
  2
WAKU
 70
     0
 62
     4
  6
CONTINUOUS
370
    -3
390
8
  0
LAYER
  5
37
330
15
100
AcDbSymbolTableRecord
100
AcDbLayerTableRecord
  2
MOJI1
 70
     0
 62
     2
  6
CONTINUOUS
370
    -3
390
8
  0
LAYER
  5
39
330
15
100
AcDbSymbolTableRecord
100
AcDbLayerTableRecord
  2
GAIKEI
 70
     0
 62
     7
  6
CONTINUOUS
370
    -3
390
8
  0
LAYER
  5
35
330
15
100
AcDbSymbolTableRecord
100
AcDbLayerTableRecord
  2
TOUROKU
 70
     0
 62
     1
  6
CONTINUOUS
370
    -3
390
8
  0
LAYER
  5
69B
330
15
100
AcDbSymbolTableRecord
100
AcDbLayerTableRecord
  2
SUNPO
 70
     0
 62
     3
  6
CONTINUOUS
370
    -3
390
8
  0
ENDTAB
  0
TABLE
  2
STYLE
  5
18
330
0
100
AcDbSymbolTable
 70
     2
  0
STYLE
  5
19
330
18
100
AcDbSymbolTableRecord
100
AcDbTextStyleTableRecord
  2
STANDARD
 70
     0
 40
0.0
 41
1.0
 50
0.0
 71
     0
 42
2.5
  3
MONOTXT.shx
  4
BIGFONT.shx
  0
STYLE
  5
3D
330
18
100
AcDbSymbolTableRecord
100
AcDbTextStyleTableRecord
  2
STD
 70
     0
 40
0.0
 41
1.0
 50
0.0
 71
     0
 42
0.0
  3
txt
  4

  0
ENDTAB
  0
TABLE
  2
VIEW
  5
1E
330
0
100
AcDbSymbolTable
 70
     0
  0
ENDTAB
  0
TABLE
  2
UCS
  5
1F
330
0
100
AcDbSymbolTable
 70
     0
  0
ENDTAB
  0
TABLE
  2
APPID
  5
22
330
0
100
AcDbSymbolTable
 70
     1
  0
APPID
  5
23
330
22
100
AcDbSymbolTableRecord
100
AcDbRegAppTableRecord
  2
ACAD
 70
     0
  0
ENDTAB
  0
TABLE
  2
DIMSTYLE
  5
24
330
0
100
AcDbSymbolTable
 70
     1
100
AcDbDimStyleTable
 71
     1
340
25
  0
DIMSTYLE
105
25
102
{ACAD_REACTORS
330
6B6
330
6A9
330
69A
102
}
330
24
100
AcDbSymbolTableRecord
100
AcDbDimStyleTableRecord
  2
STANDARD
 70
     0
 40
0.0
 41
2.0
 42
2.0
 43
8.0
 44
2.0
 73
     0
 74
     0
 77
     3
140
3.0
141
0.0
173
     1
279
     2
288
     1
340
19
341
26
343
26
344
26
  0
ENDTAB
  0
TABLE
  2
BLOCK_RECORD
  5
1
330
0
100
AcDbSymbolTable
 70
     7
  0
BLOCK_RECORD
  5
2
102
{ACAD_XDICTIONARY
360
3
102
}
330
1
100
AcDbSymbolTableRecord
100
AcDbBlockTableRecord
  2
*MODEL_SPACE
340
D
  0
BLOCK_RECORD
  5
F
102
{ACAD_XDICTIONARY
360
10
102
}
330
1
100
AcDbSymbolTableRecord
100
AcDbBlockTableRecord
  2
*PAPER_SPACE
340
14
  0
BLOCK_RECORD
  5
26
330
1
100
AcDbSymbolTableRecord
100
AcDbBlockTableRecord
  2
_OPEN30
340
0
102
{BLKREFS
331
6BC
331
6BD
331
6AF
331
6B0
331
6A1
331
6A2
331
71D
331
71E
331
726
331
727
331
72F
331
730
102
}
  0
BLOCK_RECORD
  5
6E4
330
1
100
AcDbSymbolTableRecord
100
AcDbBlockTableRecord
  2
*D4
340
0
  0
BLOCK_RECORD
  5
6F0
330
1
100
AcDbSymbolTableRecord
100
AcDbBlockTableRecord
  2
*D5
340
0
  0
BLOCK_RECORD
  5
6FC
330
1
100
AcDbSymbolTableRecord
100
AcDbBlockTableRecord
  2
*D6
340
0
  0
ENDTAB
  0
ENDSEC
  0
SECTION
  2
BLOCKS
  0
BLOCK
  5
6
330
2
100
AcDbEntity
  8
0
100
AcDbBlockBegin
  2
*MODEL_SPACE
 70
     0
 10
0.0
 20
0.0
 30
0.0
  3
*MODEL_SPACE
  1

  0
ENDBLK
  5
C
330
2
100
AcDbEntity
  8
0
100
AcDbBlockEnd
  0
BLOCK
  5
12
330
F
100
AcDbEntity
 67
     1
  8
0
100
AcDbBlockBegin
  2
*PAPER_SPACE
 70
     0
 10
0.0
 20
0.0
 30
0.0
  3
*PAPER_SPACE
  1

  0
ENDBLK
  5
13
330
F
100
AcDbEntity
 67
     1
  8
0
100
AcDbBlockEnd
  0
BLOCK
  5
27
330
26
100
AcDbEntity
  8
0
100
AcDbBlockBegin
  2
_OPEN30
 70
     0
 10
0.0
 20
0.0
 30
0.0
  3
_OPEN30
  1

  0
LINE
  5
28
330
26
100
AcDbEntity
  8
0
  6
ByBlock
 62
     0
100
AcDbLine
 10
-1.0
 20
0.26794919
 30
0.0
 11
0.0
 21
0.0
 31
0.0
  0
LINE
  5
29
330
26
100
AcDbEntity
  8
0
  6
ByBlock
 62
     0
100
AcDbLine
 10
0.0
 20
0.0
 30
0.0
 11
-1.0
 21
-0.26794919
 31
0.0
  0
LINE
  5
2A
330
26
100
AcDbEntity
  8
0
  6
ByBlock
 62
     0
100
AcDbLine
 10
0.0
 20
0.0
 30
0.0
 11
-1.0
 21
0.0
 31
0.0
  0
ENDBLK
  5
2B
330
26
100
AcDbEntity
  8
0
100
AcDbBlockEnd
  0
BLOCK
  5
6EE
330
6E4
100
AcDbEntity
  8
0
100
AcDbBlockBegin
  2
*D4
 70
     1
 10
0.0
 20
0.0
 30
0.0
  3
*D4
  1

  0
LINE
  5
71A
330
6E4
100
AcDbEntity
  8
SUNPO
 62
     0
370
    -2
100
AcDbLine
 10
21.70068317583667
 20
24.4964145864555
 30
0.0
 11
21.70068317583667
 21
32.4964145864555
 31
0.0
  0
LINE
  5
71B
330
6E4
100
AcDbEntity
  8
SUNPO
 62
     0
370
    -2
100
AcDbLine
 10
56.67538820560849
 20
24.4964145864555
 30
0.0
 11
56.67538820560849
 21
32.4964145864555
 31
0.0
  0
LINE
  5
71C
330
6E4
100
AcDbEntity
  8
SUNPO
 62
     0
370
    -2
100
AcDbLine
 10
23.70068317583667
 20
30.4964145864555
 30
0.0
 11
54.67538820560849
 21
30.4964145864555
 31
0.0
  0
INSERT
  5
71D
330
6E4
100
AcDbEntity
  8
SUNPO
 62
     0
370
    -2
100
AcDbBlockReference
  2
_OPEN30
 10
21.70068317583667
 20
30.4964145864555
 30
0.0
 41
2.0
 42
2.0
 43
2.0
 50
180.0
  0
INSERT
  5
71E
330
6E4
100
AcDbEntity
  8
SUNPO
 62
     0
370
    -2
100
AcDbBlockReference
  2
_OPEN30
 10
56.67538820560849
 20
30.4964145864555
 30
0.0
 41
2.0
 42
2.0
 43
2.0
  0
MTEXT
  5
71F
330
6E4
100
AcDbEntity
  8
SUNPO
 62
     0
100
AcDbMText
 10
39.18803569072259
 20
32.2464145864555
 30
0.0
 40
2.5
 41
0.0
 71
     5
 72
     1
  1
\A1;350
 73
     1
 44
1.0
1001
ACAD
1000
MTEXTBEGIN
1070
    73
1070
     1
1070
    44
1040
1.0
1070
    74
1070
     0
1000
MTEXTEND
  0
POINT
  5
720
330
6E4
100
AcDbEntity
  8
DEFPOINTS
 62
     0
100
AcDbPoint
 10
21.70068317583667
 20
22.4964145864555
 30
0.0
  0
POINT
  5
721
330
6E4
100
AcDbEntity
  8
DEFPOINTS
 62
     0
100
AcDbPoint
 10
56.67538820560849
 20
22.4964145864555
 30
0.0
  0
POINT
  5
722
330
6E4
100
AcDbEntity
  8
DEFPOINTS
 62
     0
100
AcDbPoint
 10
56.67538820560849
 20
30.4964145864555
 30
0.0
  0
ENDBLK
  5
6EF
330
6E4
100
AcDbEntity
  8
0
100
AcDbBlockEnd
  0
BLOCK
  5
6FA
330
6F0
100
AcDbEntity
  8
0
100
AcDbBlockBegin
  2
*D5
 70
     1
 10
0.0
 20
0.0
 30
0.0
  3
*D5
  1

  0
LINE
  5
723
330
6F0
100
AcDbEntity
  8
SUNPO
 62
     0
370
    -2
100
AcDbLine
 10
2.690675257381599
 20
13.68781847899083
 30
0.0
 11
10.69067525738159
 21
13.68781847899082
 31
0.0
  0
LINE
  5
724
330
6F0
100
AcDbEntity
  8
SUNPO
 62
     0
370
    -2
100
AcDbLine
 10
2.690675257381599
 20
22.48762480423261
 30
0.0
 11
10.6906752573816
 21
22.48762480423261
 31
0.0
  0
LINE
  5
725
330
6F0
100
AcDbEntity
  8
SUNPO
 62
     0
370
    -2
100
AcDbLine
 10
8.690675257381597
 20
15.68781847899083
 30
0.0
 11
8.690675257381599
 21
20.48762480423261
 31
0.0
  0
INSERT
  5
726
330
6F0
100
AcDbEntity
  8
SUNPO
 62
     0
370
    -2
100
AcDbBlockReference
  2
_OPEN30
 10
8.690675257381597
 20
13.68781847899082
 30
0.0
 41
2.0
 42
2.0
 43
2.0
 50
270.0
  0
INSERT
  5
727
330
6F0
100
AcDbEntity
  8
SUNPO
 62
     0
370
    -2
100
AcDbBlockReference
  2
_OPEN30
 10
8.690675257381599
 20
22.48762480423261
 30
0.0
 41
2.0
 42
2.0
 43
2.0
 50
90.0
  0
MTEXT
  5
728
330
6F0
100
AcDbEntity
  8
SUNPO
 62
     0
100
AcDbMText
 10
6.940675257381594
 20
18.08772164161172
 30
0.0
 40
2.5
 41
0.0
 71
     5
 72
     1
  1
\A1;88
 11
0.0000000000000001
 21
1.0
 31
0.0
 73
     1
 44
1.0
1001
ACAD
1000
MTEXTBEGIN
1070
    73
1070
     1
1070
    44
1040
1.0
1070
    74
1070
     0
1000
MTEXTEND
  0
POINT
  5
729
330
6F0
100
AcDbEntity
  8
DEFPOINTS
 62
     0
100
AcDbPoint
 10
0.6906752573815993
 20
13.68781847899083
 30
0.0
  0
POINT
  5
72A
330
6F0
100
AcDbEntity
  8
DEFPOINTS
 62
     0
100
AcDbPoint
 10
0.6906752573815993
 20
22.48762480423261
 30
0.0
  0
POINT
  5
72B
330
6F0
100
AcDbEntity
  8
DEFPOINTS
 62
     0
100
AcDbPoint
 10
8.690675257381599
 20
22.48762480423261
 30
0.0
  0
ENDBLK
  5
6FB
330
6F0
100
AcDbEntity
  8
0
100
AcDbBlockEnd
  0
BLOCK
  5
706
330
6FC
100
AcDbEntity
  8
0
100
AcDbBlockBegin
  2
*D6
 70
     1
 10
0.0
 20
0.0
 30
0.0
  3
*D6
  1

  0
LINE
  5
72C
330
6FC
100
AcDbEntity
  8
SUNPO
 62
     0
370
    -2
100
AcDbLine
 10
-44.2525999279445
 20
24.44225550854634
 30
0.0
 11
-44.2525999279445
 21
32.44225550854634
 31
0.0
  0
LINE
  5
72D
330
6FC
100
AcDbEntity
  8
SUNPO
 62
     0
370
    -2
100
AcDbLine
 10
-2.252598084810983
 20
24.44225550854634
 30
0.0
 11
-2.252598084810982
 21
32.44225550854634
 31
0.0
  0
LINE
  5
72E
330
6FC
100
AcDbEntity
  8
SUNPO
 62
     0
370
    -2
100
AcDbLine
 10
-42.25259992794451
 20
30.44225550854634
 30
0.0
 11
-4.252598084810982
 21
30.44225550854634
 31
0.0
  0
INSERT
  5
72F
330
6FC
100
AcDbEntity
  8
SUNPO
 62
     0
370
    -2
100
AcDbBlockReference
  2
_OPEN30
 10
-44.2525999279445
 20
30.44225550854634
 30
0.0
 41
2.0
 42
2.0
 43
2.0
 50
180.0
  0
INSERT
  5
730
330
6FC
100
AcDbEntity
  8
SUNPO
 62
     0
370
    -2
100
AcDbBlockReference
  2
_OPEN30
 10
-2.252598084810982
 20
30.44225550854634
 30
0.0
 41
2.0
 42
2.0
 43
2.0
  0
MTEXT
  5
731
330
6FC
100
AcDbEntity
  8
SUNPO
 62
     0
100
AcDbMText
 10
-23.25259900637774
 20
32.19225550854634
 30
0.0
 40
2.5
 41
0.0
 71
     5
 72
     1
  1
\A1;420
 73
     1
 44
1.0
1001
ACAD
1000
MTEXTBEGIN
1070
    73
1070
     1
1070
    44
1040
1.0
1070
    74
1070
     0
1000
MTEXTEND
  0
POINT
  5
732
330
6FC
100
AcDbEntity
  8
DEFPOINTS
 62
     0
100
AcDbPoint
 10
-44.2525999279445
 20
22.44225550854634
 30
0.0
  0
POINT
  5
733
330
6FC
100
AcDbEntity
  8
DEFPOINTS
 62
     0
100
AcDbPoint
 10
-2.252598084810983
 20
22.44225550854634
 30
0.0
  0
POINT
  5
734
330
6FC
100
AcDbEntity
  8
DEFPOINTS
 62
     0
100
AcDbPoint
 10
-2.252598084810982
 20
30.44225550854634
 30
0.0
  0
ENDBLK
  5
707
330
6FC
100
AcDbEntity
  8
0
100
AcDbBlockEnd
  0
ENDSEC
  0
SECTION
  2
ENTITIES
  0
TEXT
  5
34
330
2
100
AcDbEntity
  8
TOUROKU
100
AcDbText
 10
48.92402096468202
 20
50.420531483722
 30
0.0
 40
2.0
  1
ＷＪＨＤ１５０１
 72
     2
 11
66.79068763134869
 21
50.420531483722
 31
0.0
100
AcDbText
  0
TEXT
  5
36
330
2
100
AcDbEntity
  8
MOJI1
100
AcDbText
 10
-31.20926240157905
 20
56.42053148372202
 30
0.0
 40
4.0
  1
デジタルディスクレコーダー
100
AcDbText
  0
LINE
  5
38
330
2
100
AcDbEntity
  8
GAIKEI
 62
     1
100
AcDbLine
 10
-3.787159405744773
 20
20.78083033837606
 30
0.0
 11
-3.566894245158835
 21
20.64251329129837
 31
0.0
  0
LINE
  5
3A
330
2
100
AcDbEntity
  8
GAIKEI
 62
     1
100
AcDbLine
 10
-3.787159405744773
 20
20.50400676881378
 30
0.0
 11
-3.787159405744773
 21
20.78083033837606
 31
0.0
  0
LINE
  5
3B
330
2
100
AcDbEntity
  8
GAIKEI
 62
     1
100
AcDbLine
 10
-3.566894245158835
 20
20.64251329129837
 30
0.0
 11
-3.787159405744773
 21
20.50400676881378
 31
0.0
  0
TEXT
  5
3C
330
2
100
AcDbEntity
  8
GAIKEI
  6
Continuous
 62
     1
100
AcDbText
 10
-30.78552539186218
 20
19.24437426337249
 30
0.0
 40
0.4267337906561385
  1
1
  7
STD
100
AcDbText
  0
TEXT
  5
3E
330
2
100
AcDbEntity
  8
GAIKEI
  6
Continuous
 62
     1
100
AcDbText
 10
-28.9269611250341
 20
19.24437426337249
 30
0.0
 40
0.4267337906561385
  1
2
  7
STD
100
AcDbText
  0
TEXT
  5
3F
330
2
100
AcDbEntity
  8
GAIKEI
  6
Continuous
 62
     1
100
AcDbText
 10
-27.06820738279907
 20
19.24437426337249
 30
0.0
 40
0.4267337906561385
  1
3
  7
STD
100
AcDbText
  0
TEXT
  5
40
330
2
100
AcDbEntity
  8
GAIKEI
  6
Continuous
 62
     1
100
AcDbText
 10
-25.20945364056405
 20
19.24437426337249
 30
0.0
 40
0.4267337906561385
  1
4
  7
STD
100
AcDbText
  0
SPLINE
  5
41
330
2
100
AcDbEntity
  8
GAIKEI
 62
     1
100
AcDbSpline
210
0.0
220
0.0
230
1.0
 70
    24
 71
     3
 72
     8
 73
     4
 74
     0
 42
0.0000000001
 43
0.0000000001
 40
5.0
 40
5.0
 40
5.0
 40
5.0
 40
6.0
 40
6.0
 40
6.0
 40
6.0
 10
-31.56853251110647
 20
17.64387550081812
 30
0.0
 10
-31.56853251110647
 20
17.64387550081812
 30
0.0
 10
-24.18154955782956
 20
17.64387550081812
 30
0.0
 10
-24.18154955782956
 20
17.64387550081812
 30
0.0
  0
SPLINE
  5
42
330
2
100
AcDbEntity
  8
GAIKEI
 62
     1
100
AcDbSpline
210
0.0
220
0.0
230
1.0
 70
    24
 71
     3
 72
     8
 73
     4
 74
     0
 42
0.0000000001
 43
0.0000000001
 40
1.0
 40
1.0
 40
1.0
 40
1.0
 40
2.0
 40
2.0
 40
2.0
 40
2.0
 10
-24.18154955782956
 20
14.97909337739367
 30
0.0
 10
-24.18154955782956
 20
14.97909337739367
 30
0.0
 10
-31.56853251110647
 20
14.97909337739367
 30
0.0
 10
-31.56853251110647
 20
14.97909337739367
 30
0.0
  0
SPLINE
  5
43
330
2
100
AcDbEntity
  8
GAIKEI
 62
     1
100
AcDbSpline
210
0.0
220
0.0
230
1.0
 70
    24
 71
     3
 72
     8
 73
     4
 74
     0
 42
0.0000000001
 43
0.0000000001
 40
3.0
 40
3.0
 40
3.0
 40
3.0
 40
4.0
 40
4.0
 40
4.0
 40
4.0
 10
-24.19784444282778
 20
17.54629566623589
 30
0.0
 10
-24.38485666949299
 20
17.54629566623589
 30
0.0
 10
-31.36503592403602
 20
17.54629566623589
 30
0.0
 10
-31.55223762610831
 20
17.54629566623589
 30
0.0
  0
SPLINE
  5
44
330
2
100
AcDbEntity
  8
GAIKEI
 62
     1
100
AcDbSpline
210
0.0
220
0.0
230
1.0
 70
    24
 71
     3
 72
     8
 73
     4
 74
     0
 42
0.0000000001
 43
0.0000000001
 40
1.0
 40
1.0
 40
1.0
 40
1.0
 40
2.0
 40
2.0
 40
2.0
 40
2.0
 10
-31.55223762610831
 20
15.07648373656889
 30
0.0
 10
-31.36503592403602
 20
15.07648373656889
 30
0.0
 10
-24.38485666949299
 20
15.07648373656889
 30
0.0
 10
-24.19784444282778
 20
15.07648373656889
 30
0.0
  0
LINE
  5
45
330
2
100
AcDbEntity
  8
GAIKEI
 62
     1
100
AcDbLine
 10
-19.08011370095539
 20
17.4727792083371
 30
0.0
 11
-19.37929536853835
 21
17.61299100948429
 31
0.0
  0
LINE
  5
46
330
2
100
AcDbEntity
  8
GAIKEI
 62
     1
100
AcDbLine
 10
-19.08011370095539
 20
17.75377123685234
 30
0.0
 11
-19.08011370095539
 21
17.4727792083371
 31
0.0
  0
LINE
  5
47
330
2
100
AcDbEntity
  8
GAIKEI
 62
     1
100
AcDbLine
 10
-19.37929536853835
 20
17.61299100948429
 30
0.0
 11
-19.08011370095539
 21
17.75377123685234
 31
0.0
  0
LINE
  5
48
330
2
100
AcDbEntity
  8
GAIKEI
 62
     1
100
AcDbLine
 10
-19.01332362000346
 20
17.75415018766625
 30
0.0
 11
-18.95723889954462
 21
17.75415018766625
 31
0.0
  0
LINE
  5
49
330
2
100
AcDbEntity
  8
GAIKEI
 62
     1
100
AcDbLine
 10
-19.01332362000346
 20
17.47372658537187
 30
0.0
 11
-19.01332362000346
 21
17.75415018766625
 31
0.0
  0
LINE
  5
4A
330
2
100
AcDbEntity
  8
GAIKEI
 62
     1
100
AcDbLine
 10
-18.95723889954462
 20
17.47372658537187
 30
0.0
 11
-19.01332362000346
 21
17.47372658537187
 31
0.0
  0
LINE
  5
4B
330
2
100
AcDbEntity
  8
GAIKEI
 62
     1
100
AcDbLine
 10
-18.95723889954462
 20
17.75415018766625
 30
0.0
 11
-18.95723889954462
 21
17.47372658537187
 31
0.0
  0
LINE
  5
4C
330
2
100
AcDbEntity
  8
GAIKEI
 62
     1
100
AcDbLine
 10
-18.89224883495888
 20
17.75415018766625
 30
0.0
 11
-18.83654306531389
 21
17.75415018766625
 31
0.0
  0
LINE
  5
4D
330
2
100
AcDbEntity
  8
GAIKEI
 62
     1
100
AcDbLine
 10
-18.89224883495888
 20
17.47372658537187
 30
0.0
 11
-18.89224883495888
 21
17.75415018766625
 31
0.0
  0
LINE
  5
4E
330
2
100
AcDbEntity
  8
GAIKEI
 62
     1
100
AcDbLine
 10
-18.83654306531389
 20
17.47372658537187
 30
0.0
 11
-18.89224883495888
 21
17.47372658537187
 31
0.0
  0
LINE
  5
4F
330
2
100
AcDbEntity
  8
GAIKEI
 62
     1
100
AcDbLine
 10
-18.83654306531389
 20
17.75415018766625
 30
0.0
 11
-18.83654306531389
 21
17.47372658537187
 31
0.0
  0
LINE
  5
50
330
2
100
AcDbEntity
  8
GAIKEI
 62
     1
100
AcDbLine
 10
-18.62935170780781
 20
17.75661336795667
 30
0.0
 11
-18.57326698734897
 21
17.75661336795667
 31
0.0
  0
LINE
  5
51
330
2
100
AcDbEntity
  8
GAIKEI
 62
     1
100
AcDbLine
 10
-18.62935170780781
 20
17.47600029025534
 30
0.0
 11
-18.62935170780781
 21
17.75661336795667
 31
0.0
  0
LINE
  5
52
330
2
100
AcDbEntity
  8
GAIKEI
 62
     1
100
AcDbLine
 10
-18.57326698734897
 20
17.47600029025534
 30
0.0
 11
-18.62935170780781
 21
17.47600029025534
 31
0.0
  0
LINE
  5
53
330
2
100
AcDbEntity
  8
GAIKEI
 62
     1
100
AcDbLine
 10
-18.57326698734897
 20
17.75661336795667
 30
0.0
 11
-18.57326698734897
 21
17.47600029025534
 31
0.0
  0
LINE
  5
54
330
2
100
AcDbEntity
  8
GAIKEI
 62
     1
100
AcDbLine
 10
-18.50808744735622
 20
17.75661336795667
 30
0.0
 11
-18.45200272689737
 21
17.75661336795667
 31
0.0
  0
LINE
  5
55
330
2
100
AcDbEntity
  8
GAIKEI
 62
     1
100
AcDbLine
 10
-18.50808744735622
 20
17.47600029025534
 30
0.0
 11
-18.50808744735622
 21
17.75661336795667
 31
0.0
  0
LINE
  5
56
330
2
100
AcDbEntity
  8
GAIKEI
 62
     1
100
AcDbLine
 10
-18.45200272689737
 20
17.47600029025534
 30
0.0
 11
-18.50808744735622
 21
17.47600029025534
 31
0.0
  0
LINE
  5
57
330
2
100
AcDbEntity
  8
GAIKEI
 62
     1
100
AcDbLine
 10
-18.45200272689737
 20
17.75661336795667
 30
0.0
 11
-18.45200272689737
 21
17.47600029025534
 31
0.0
  0
LINE
  5
58
330
2
100
AcDbEntity
  8
GAIKEI
 62
     1
100
AcDbLine
 10
-18.05391489688355
 20
17.61602261599557
 30
0.0
 11
-18.38549685905593
 21
17.47543186403447
 31
0.0
  0
LINE
  5
59
330
2
100
AcDbEntity
  8
GAIKEI
 62
     1
100
AcDbLine
 10
-18.38549685905593
 20
17.75585546632885
 30
0.0
 11
-18.05391489688355
 21
17.61602261599557
 31
0.0
  0
LINE
  5
5A
330
2
100
AcDbEntity
  8
GAIKEI
 62
     1
100
AcDbLine
 10
-18.38549685905593
 20
17.47543186403447
 30
0.0
 11
-18.38549685905593
 21
17.75585546632885
 31
0.0
  0
LINE
  5
5B
330
2
100
AcDbEntity
  8
GAIKEI
 62
     1
100
AcDbLine
 10
-16.73156603173993
 20
19.84861133615413
 30
0.0
 11
-16.39515244669013
 21
19.84861133615413
 31
0.0
  0
LINE
  5
5C
330
2
100
AcDbEntity
  8
GAIKEI
 62
     1
100
AcDbLine
 10
-16.73156603173993
 20
19.07972013472806
 30
0.0
 11
-16.73156603173993
 21
19.84861133615413
 31
0.0
  0
LINE
  5
5D
330
2
100
AcDbEntity
  8
GAIKEI
 62
     1
100
AcDbLine
 10
-16.39515244669013
 20
19.07972013472806
 30
0.0
 11
-16.73156603173993
 21
19.07972013472806
 31
0.0
  0
LINE
  5
5E
330
2
100
AcDbEntity
  8
GAIKEI
 62
     1
100
AcDbLine
 10
-16.39515244669013
 20
19.84861133615413
 30
0.0
 11
-16.39515244669013
 21
19.07972013472806
 31
0.0
  0
LINE
  5
5F
330
2
100
AcDbEntity
  8
GAIKEI
 62
     1
100
AcDbLine
 10
-17.46616218450708
 20
19.76960009145364
 30
0.0
 11
-18.05562017554609
 21
19.76960009145364
 31
0.0
  0
LINE
  5
60
330
2
100
AcDbEntity
  8
GAIKEI
 62
     1
100
AcDbLine
 10
-17.46616218450708
 20
19.58997740565962
 30
0.0
 11
-17.46616218450708
 21
19.76960009145364
 31
0.0
  0
LINE
  5
61
330
2
100
AcDbEntity
  8
GAIKEI
 62
     1
100
AcDbLine
 10
-18.05562017554609
 20
19.58997740565962
 30
0.0
 11
-17.46616218450708
 21
19.58997740565962
 31
0.0
  0
LINE
  5
62
330
2
100
AcDbEntity
  8
GAIKEI
 62
     1
100
AcDbLine
 10
-18.05562017554609
 20
19.76960009145364
 30
0.0
 11
-18.05562017554609
 21
19.58997740565962
 31
0.0
  0
LINE
  5
63
330
2
100
AcDbEntity
  8
GAIKEI
 62
     1
100
AcDbLine
 10
-14.34048113366299
 20
19.84861133615413
 30
0.0
 11
-14.00368859779928
 21
19.84861133615413
 31
0.0
  0
LINE
  5
64
330
2
100
AcDbEntity
  8
GAIKEI
 62
     1
100
AcDbLine
 10
-14.34048113366299
 20
19.07972013472806
 30
0.0
 11
-14.34048113366299
 21
19.84861133615413
 31
0.0
  0
LINE
  5
65
330
2
100
AcDbEntity
  8
GAIKEI
 62
     1
100
AcDbLine
 10
-14.00368859779928
 20
19.07972013472806
 30
0.0
 11
-14.34048113366299
 21
19.07972013472806
 31
0.0
  0
LINE
  5
66
330
2
100
AcDbEntity
  8
GAIKEI
 62
     1
100
AcDbLine
 10
-14.00368859779928
 20
19.84861133615413
 30
0.0
 11
-14.00368859779928
 21
19.07972013472806
 31
0.0
  0
LINE
  5
67
330
2
100
AcDbEntity
  8
GAIKEI
 62
     1
100
AcDbLine
 10
-15.07488781102313
 20
19.76960009145364
 30
0.0
 11
-15.66406158895176
 21
19.76960009145364
 31
0.0
  0
LINE
  5
68
330
2
100
AcDbEntity
  8
GAIKEI
 62
     1
100
AcDbLine
 10
-15.07488781102313
 20
19.58997740565968
 30
0.0
 11
-15.07488781102313
 21
19.76960009145364
 31
0.0
  0
LINE
  5
69
330
2
100
AcDbEntity
  8
GAIKEI
 62
     1
100
AcDbLine
 10
-15.66406158895176
 20
19.58997740565968
 30
0.0
 11
-15.07488781102313
 21
19.58997740565968
 31
0.0
  0
LINE
  5
6A
330
2
100
AcDbEntity
  8
GAIKEI
 62
     1
100
AcDbLine
 10
-15.66406158895176
 20
19.76960009145364
 30
0.0
 11
-15.66406158895176
 21
19.58997740565968
 31
0.0
  0
LINE
  5
6B
330
2
100
AcDbEntity
  8
GAIKEI
 62
     1
100
AcDbLine
 10
-12.970858154484
 20
18.90672908817748
 30
0.0
 11
-13.22740785550195
 21
19.00696157845709
 31
0.0
  0
LINE
  5
6C
330
2
100
AcDbEntity
  8
GAIKEI
 62
     1
100
AcDbLine
 10
-12.970858154484
 20
19.10738354414354
 30
0.0
 11
-12.970858154484
 21
18.90672908817748
 31
0.0
  0
LINE
  5
6D
330
2
100
AcDbEntity
  8
GAIKEI
 62
     1
100
AcDbLine
 10
-13.22740785550195
 20
19.00696157845709
 30
0.0
 11
-12.970858154484
 21
19.10738354414354
 31
0.0
  0
LINE
  5
6E
330
2
100
AcDbEntity
  8
GAIKEI
 62
     1
100
AcDbLine
 10
-12.9262366961459
 20
19.10757301955056
 30
0.0
 11
-12.87773099196522
 21
19.10757301955056
 31
0.0
  0
LINE
  5
6F
330
2
100
AcDbEntity
  8
GAIKEI
 62
     1
100
AcDbLine
 10
-12.9262366961459
 20
18.90729751439835
 30
0.0
 11
-12.9262366961459
 21
19.10757301955056
 31
0.0
  0
LINE
  5
70
330
2
100
AcDbEntity
  8
GAIKEI
 62
     1
100
AcDbLine
 10
-12.87773099196522
 20
18.90729751439835
 30
0.0
 11
-12.9262366961459
 21
18.90729751439835
 31
0.0
  0
LINE
  5
71
330
2
100
AcDbEntity
  8
GAIKEI
 62
     1
100
AcDbLine
 10
-12.87773099196522
 20
19.10757301955056
 30
0.0
 11
-12.87773099196522
 21
18.90729751439835
 31
0.0
  0
LINE
  5
72
330
2
100
AcDbEntity
  8
GAIKEI
 62
     1
100
AcDbLine
 10
-12.84239382856805
 20
19.10757301955056
 30
0.0
 11
-12.79464602601524
 21
19.10757301955056
 31
0.0
  0
LINE
  5
73
330
2
100
AcDbEntity
  8
GAIKEI
 62
     1
100
AcDbLine
 10
-12.84239382856805
 20
18.90729751439835
 30
0.0
 11
-12.84239382856805
 21
19.10757301955056
 31
0.0
  0
LINE
  5
74
330
2
100
AcDbEntity
  8
GAIKEI
 62
     1
100
AcDbLine
 10
-12.79464602601524
 20
18.90729751439835
 30
0.0
 11
-12.84239382856805
 21
18.90729751439835
 31
0.0
  0
LINE
  5
75
330
2
100
AcDbEntity
  8
GAIKEI
 62
     1
100
AcDbLine
 10
-12.79464602601524
 20
19.10757301955056
 30
0.0
 11
-12.79464602601524
 21
18.90729751439835
 31
0.0
  0
LINE
  5
76
330
2
100
AcDbEntity
  8
GAIKEI
 62
     1
100
AcDbLine
 10
-8.953979527023987
 20
19.00696157845709
 30
0.0
 11
-9.210529228041991
 21
18.90672908817748
 31
0.0
  0
LINE
  5
77
330
2
100
AcDbEntity
  8
GAIKEI
 62
     1
100
AcDbLine
 10
-9.210529228041991
 20
19.10738354414354
 30
0.0
 11
-8.953979527023987
 21
19.00696157845709
 31
0.0
  0
LINE
  5
78
330
2
100
AcDbEntity
  8
GAIKEI
 62
     1
100
AcDbLine
 10
-9.210529228041991
 20
18.90672908817748
 30
0.0
 11
-9.210529228041991
 21
19.10738354414354
 31
0.0
  0
LINE
  5
79
330
2
100
AcDbEntity
  8
GAIKEI
 62
     1
100
AcDbLine
 10
-9.303466915153704
 20
19.10757301955056
 30
0.0
 11
-9.255340161786987
 21
19.10757301955056
 31
0.0
  0
LINE
  5
7A
330
2
100
AcDbEntity
  8
GAIKEI
 62
     1
100
AcDbLine
 10
-9.303466915153704
 20
18.90729751439835
 30
0.0
 11
-9.303466915153704
 21
19.10757301955056
 31
0.0
  0
LINE
  5
7B
330
2
100
AcDbEntity
  8
GAIKEI
 62
     1
100
AcDbLine
 10
-9.255340161786987
 20
18.90729751439835
 30
0.0
 11
-9.303466915153704
 21
18.90729751439835
 31
0.0
  0
LINE
  5
7C
330
2
100
AcDbEntity
  8
GAIKEI
 62
     1
100
AcDbLine
 10
-9.255340161786987
 20
19.10757301955056
 30
0.0
 11
-9.255340161786987
 21
18.90729751439835
 31
0.0
  0
LINE
  5
7D
330
2
100
AcDbEntity
  8
GAIKEI
 62
     1
100
AcDbLine
 10
-9.386930831917707
 20
19.10757301955056
 30
0.0
 11
-9.338804078550936
 21
19.10757301955056
 31
0.0
  0
LINE
  5
7E
330
2
100
AcDbEntity
  8
GAIKEI
 62
     1
100
AcDbLine
 10
-9.386930831917707
 20
18.90729751439835
 30
0.0
 11
-9.386930831917707
 21
19.10757301955056
 31
0.0
  0
LINE
  5
7F
330
2
100
AcDbEntity
  8
GAIKEI
 62
     1
100
AcDbLine
 10
-9.338804078550936
 20
18.90729751439835
 30
0.0
 11
-9.386930831917707
 21
18.90729751439835
 31
0.0
  0
LINE
  5
80
330
2
100
AcDbEntity
  8
GAIKEI
 62
     1
100
AcDbLine
 10
-9.338804078550936
 20
19.10757301955056
 30
0.0
 11
-9.338804078550936
 21
18.90729751439835
 31
0.0
  0
LINE
  5
81
330
2
100
AcDbEntity
  8
GAIKEI
 62
     1
100
AcDbLine
 10
26.52477844880315
 20
16.83007862794352
 30
0.0
 11
26.52477844880315
 21
17.33427268585251
 31
0.0
  0
LINE
  5
82
330
2
100
AcDbEntity
  8
GAIKEI
 62
     1
100
AcDbLine
 10
26.27978674760948
 20
16.83007862794352
 30
0.0
 11
26.52477844880315
 21
16.83007862794352
 31
0.0
  0
LINE
  5
83
330
2
100
AcDbEntity
  8
GAIKEI
 62
     1
100
AcDbLine
 10
26.27978674760948
 20
17.33427268585251
 30
0.0
 11
26.27978674760948
 21
16.83007862794352
 31
0.0
  0
LINE
  5
84
330
2
100
AcDbEntity
  8
GAIKEI
 62
     1
100
AcDbLine
 10
26.52477844880315
 20
17.33427268585251
 30
0.0
 11
26.27978674760948
 21
17.33427268585251
 31
0.0
  0
LINE
  5
85
330
2
100
AcDbEntity
  8
GAIKEI
 62
     1
100
AcDbLine
 10
27.02082506421311
 20
16.83007862794352
 30
0.0
 11
27.02082506421311
 21
17.33427268585251
 31
0.0
  0
LINE
  5
86
330
2
100
AcDbEntity
  8
GAIKEI
 62
     1
100
AcDbLine
 10
26.77583336301939
 20
16.83007862794352
 30
0.0
 11
27.02082506421311
 21
16.83007862794352
 31
0.0
  0
LINE
  5
87
330
2
100
AcDbEntity
  8
GAIKEI
 62
     1
100
AcDbLine
 10
26.77583336301939
 20
17.33427268585251
 30
0.0
 11
26.77583336301939
 21
16.83007862794352
 31
0.0
  0
LINE
  5
88
330
2
100
AcDbEntity
  8
GAIKEI
 62
     1
100
AcDbLine
 10
27.02082506421311
 20
17.33427268585251
 30
0.0
 11
26.77583336301939
 21
17.33427268585251
 31
0.0
  0
LINE
  5
89
330
2
100
AcDbEntity
  8
GAIKEI
 62
     1
100
AcDbLine
 10
27.51687167962302
 20
16.83007862794352
 30
0.0
 11
27.51687167962302
 21
17.33427268585251
 31
0.0
  0
LINE
  5
8A
330
2
100
AcDbEntity
  8
GAIKEI
 62
     1
100
AcDbLine
 10
27.2718799784293
 20
16.83007862794352
 30
0.0
 11
27.51687167962302
 21
16.83007862794352
 31
0.0
  0
LINE
  5
8B
330
2
100
AcDbEntity
  8
GAIKEI
 62
     1
100
AcDbLine
 10
27.2718799784293
 20
17.33427268585251
 30
0.0
 11
27.2718799784293
 21
16.83007862794352
 31
0.0
  0
LINE
  5
8C
330
2
100
AcDbEntity
  8
GAIKEI
 62
     1
100
AcDbLine
 10
27.51687167962302
 20
17.33427268585251
 30
0.0
 11
27.2718799784293
 21
17.33427268585251
 31
0.0
  0
LINE
  5
8D
330
2
100
AcDbEntity
  8
GAIKEI
 62
     1
100
AcDbLine
 10
28.01329724584686
 20
16.83007862794352
 30
0.0
 11
28.01329724584686
 21
17.33427268585251
 31
0.0
  0
LINE
  5
8E
330
2
100
AcDbEntity
  8
GAIKEI
 62
     1
100
AcDbLine
 10
27.76792659383926
 20
16.83007862794352
 30
0.0
 11
28.01329724584686
 21
16.83007862794352
 31
0.0
  0
LINE
  5
8F
330
2
100
AcDbEntity
  8
GAIKEI
 62
     1
100
AcDbLine
 10
27.76792659383926
 20
17.33427268585251
 30
0.0
 11
27.76792659383926
 21
16.83007862794352
 31
0.0
  0
LINE
  5
90
330
2
100
AcDbEntity
  8
GAIKEI
 62
     1
100
AcDbLine
 10
28.01329724584686
 20
17.33427268585251
 30
0.0
 11
27.76792659383926
 21
17.33427268585251
 31
0.0
  0
LINE
  5
91
330
2
100
AcDbEntity
  8
GAIKEI
 62
     1
100
AcDbLine
 10
28.5091543858498
 20
16.83007862794352
 30
0.0
 11
28.5091543858498
 21
17.33427268585251
 31
0.0
  0
LINE
  5
92
330
2
100
AcDbEntity
  8
GAIKEI
 62
     1
100
AcDbLine
 10
28.26416268465613
 20
16.83007862794352
 30
0.0
 11
28.5091543858498
 21
16.83007862794352
 31
0.0
  0
LINE
  5
93
330
2
100
AcDbEntity
  8
GAIKEI
 62
     1
100
AcDbLine
 10
28.26416268465613
 20
17.33427268585251
 30
0.0
 11
28.26416268465613
 21
16.83007862794352
 31
0.0
  0
LINE
  5
94
330
2
100
AcDbEntity
  8
GAIKEI
 62
     1
100
AcDbLine
 10
28.5091543858498
 20
17.33427268585251
 30
0.0
 11
28.26416268465613
 21
17.33427268585251
 31
0.0
  0
LINE
  5
95
330
2
100
AcDbEntity
  8
GAIKEI
 62
     1
100
AcDbLine
 10
29.00557995207362
 20
16.83007862794352
 30
0.0
 11
29.00557995207362
 21
17.33427268585251
 31
0.0
  0
LINE
  5
96
330
2
100
AcDbEntity
  8
GAIKEI
 62
     1
100
AcDbLine
 10
28.76039877547299
 20
16.83007862794352
 30
0.0
 11
29.00557995207362
 21
16.83007862794352
 31
0.0
  0
LINE
  5
97
330
2
100
AcDbEntity
  8
GAIKEI
 62
     1
100
AcDbLine
 10
28.76039877547299
 20
17.33427268585251
 30
0.0
 11
28.76039877547299
 21
16.83007862794352
 31
0.0
  0
LINE
  5
98
330
2
100
AcDbEntity
  8
GAIKEI
 62
     1
100
AcDbLine
 10
29.00557995207362
 20
17.33427268585251
 30
0.0
 11
28.76039877547299
 21
17.33427268585251
 31
0.0
  0
LINE
  5
99
330
2
100
AcDbEntity
  8
GAIKEI
 62
     1
100
AcDbLine
 10
29.50162656748353
 20
16.83007862794352
 30
0.0
 11
29.50162656748353
 21
17.33427268585251
 31
0.0
  0
LINE
  5
9A
330
2
100
AcDbEntity
  8
GAIKEI
 62
     1
100
AcDbLine
 10
29.25663486628986
 20
16.83007862794352
 30
0.0
 11
29.50162656748353
 21
16.83007862794352
 31
0.0
  0
LINE
  5
9B
330
2
100
AcDbEntity
  8
GAIKEI
 62
     1
100
AcDbLine
 10
29.25663486628986
 20
17.33427268585251
 30
0.0
 11
29.25663486628986
 21
16.83007862794352
 31
0.0
  0
LINE
  5
9C
330
2
100
AcDbEntity
  8
GAIKEI
 62
     1
100
AcDbLine
 10
29.50162656748353
 20
17.33427268585251
 30
0.0
 11
29.25663486628986
 21
17.33427268585251
 31
0.0
  0
LINE
  5
9D
330
2
100
AcDbEntity
  8
GAIKEI
 62
     1
100
AcDbLine
 10
29.99767318289343
 20
16.83007862794352
 30
0.0
 11
29.99767318289343
 21
17.33427268585251
 31
0.0
  0
LINE
  5
9E
330
2
100
AcDbEntity
  8
GAIKEI
 62
     1
100
AcDbLine
 10
29.75249200629287
 20
16.83007862794352
 30
0.0
 11
29.99767318289343
 21
16.83007862794352
 31
0.0
  0
LINE
  5
9F
330
2
100
AcDbEntity
  8
GAIKEI
 62
     1
100
AcDbLine
 10
29.75249200629287
 20
17.33427268585251
 30
0.0
 11
29.75249200629287
 21
16.83007862794352
 31
0.0
  0
LINE
  5
A0
330
2
100
AcDbEntity
  8
GAIKEI
 62
     1
100
AcDbLine
 10
29.99767318289343
 20
17.33427268585251
 30
0.0
 11
29.75249200629287
 21
17.33427268585251
 31
0.0
  0
LINE
  5
A1
330
2
100
AcDbEntity
  8
GAIKEI
 62
     1
100
AcDbLine
 10
30.4939092737103
 20
16.83007862794352
 30
0.0
 11
30.4939092737103
 21
17.33427268585251
 31
0.0
  0
LINE
  5
A2
330
2
100
AcDbEntity
  8
GAIKEI
 62
     1
100
AcDbLine
 10
30.24872809710968
 20
16.83007862794352
 30
0.0
 11
30.4939092737103
 21
16.83007862794352
 31
0.0
  0
LINE
  5
A3
330
2
100
AcDbEntity
  8
GAIKEI
 62
     1
100
AcDbLine
 10
30.24872809710968
 20
17.33427268585251
 30
0.0
 11
30.24872809710968
 21
16.83007862794352
 31
0.0
  0
LINE
  5
A4
330
2
100
AcDbEntity
  8
GAIKEI
 62
     1
100
AcDbLine
 10
30.4939092737103
 20
17.33427268585251
 30
0.0
 11
30.24872809710968
 21
17.33427268585251
 31
0.0
  0
LINE
  5
A5
330
2
100
AcDbEntity
  8
GAIKEI
 62
     1
100
AcDbLine
 10
30.98976641371331
 20
16.83007862794352
 30
0.0
 11
30.98976641371331
 21
17.33427268585251
 31
0.0
  0
LINE
  5
A6
330
2
100
AcDbEntity
  8
GAIKEI
 62
     1
100
AcDbLine
 10
30.74496418792654
 20
16.83007862794352
 30
0.0
 11
30.98976641371331
 21
16.83007862794352
 31
0.0
  0
LINE
  5
A7
330
2
100
AcDbEntity
  8
GAIKEI
 62
     1
100
AcDbLine
 10
30.74496418792654
 20
17.33427268585251
 30
0.0
 11
30.74496418792654
 21
16.83007862794352
 31
0.0
  0
LINE
  5
A8
330
2
100
AcDbEntity
  8
GAIKEI
 62
     1
100
AcDbLine
 10
30.98976641371331
 20
17.33427268585251
 30
0.0
 11
30.74496418792654
 21
17.33427268585251
 31
0.0
  0
LINE
  5
A9
330
2
100
AcDbEntity
  8
GAIKEI
 62
     1
100
AcDbLine
 10
31.48619197993713
 20
16.83007862794352
 30
0.0
 11
31.48619197993713
 21
17.33427268585251
 31
0.0
  0
LINE
  5
AA
330
2
100
AcDbEntity
  8
GAIKEI
 62
     1
100
AcDbLine
 10
31.24101080333651
 20
16.83007862794352
 30
0.0
 11
31.48619197993713
 21
16.83007862794352
 31
0.0
  0
LINE
  5
AB
330
2
100
AcDbEntity
  8
GAIKEI
 62
     1
100
AcDbLine
 10
31.24101080333651
 20
17.33427268585251
 30
0.0
 11
31.24101080333651
 21
16.83007862794352
 31
0.0
  0
LINE
  5
AC
330
2
100
AcDbEntity
  8
GAIKEI
 62
     1
100
AcDbLine
 10
31.48619197993713
 20
17.33427268585251
 30
0.0
 11
31.24101080333651
 21
17.33427268585251
 31
0.0
  0
LINE
  5
AD
330
2
100
AcDbEntity
  8
GAIKEI
 62
     1
100
AcDbLine
 10
31.982428070754
 20
16.83007862794352
 30
0.0
 11
31.982428070754
 21
17.33427268585251
 31
0.0
  0
LINE
  5
AE
330
2
100
AcDbEntity
  8
GAIKEI
 62
     1
100
AcDbLine
 10
31.73705741874643
 20
16.83007862794352
 30
0.0
 11
31.982428070754
 21
16.83007862794352
 31
0.0
  0
LINE
  5
AF
330
2
100
AcDbEntity
  8
GAIKEI
 62
     1
100
AcDbLine
 10
31.73705741874643
 20
17.33427268585251
 30
0.0
 11
31.73705741874643
 21
16.83007862794352
 31
0.0
  0
LINE
  5
B0
330
2
100
AcDbEntity
  8
GAIKEI
 62
     1
100
AcDbLine
 10
31.982428070754
 20
17.33427268585251
 30
0.0
 11
31.73705741874643
 21
17.33427268585251
 31
0.0
  0
LINE
  5
B1
330
2
100
AcDbEntity
  8
GAIKEI
 62
     1
100
AcDbLine
 10
32.47828521075695
 20
16.83007862794352
 30
0.0
 11
32.47828521075695
 21
17.33427268585251
 31
0.0
  0
LINE
  5
B2
330
2
100
AcDbEntity
  8
GAIKEI
 62
     1
100
AcDbLine
 10
32.23329350956328
 20
16.83007862794352
 30
0.0
 11
32.47828521075695
 21
16.83007862794352
 31
0.0
  0
LINE
  5
B3
330
2
100
AcDbEntity
  8
GAIKEI
 62
     1
100
AcDbLine
 10
32.23329350956328
 20
17.33427268585251
 30
0.0
 11
32.23329350956328
 21
16.83007862794352
 31
0.0
  0
LINE
  5
B4
330
2
100
AcDbEntity
  8
GAIKEI
 62
     1
100
AcDbLine
 10
32.47828521075695
 20
17.33427268585251
 30
0.0
 11
32.23329350956328
 21
17.33427268585251
 31
0.0
  0
LINE
  5
B5
330
2
100
AcDbEntity
  8
GAIKEI
 62
     1
100
AcDbLine
 10
32.97452130157387
 20
16.83007862794352
 30
0.0
 11
32.97452130157387
 21
17.33427268585251
 31
0.0
  0
LINE
  5
B6
330
2
100
AcDbEntity
  8
GAIKEI
 62
     1
100
AcDbLine
 10
32.72934012497319
 20
16.83007862794352
 30
0.0
 11
32.97452130157387
 21
16.83007862794352
 31
0.0
  0
LINE
  5
B7
330
2
100
AcDbEntity
  8
GAIKEI
 62
     1
100
AcDbLine
 10
32.72934012497319
 20
17.33427268585251
 30
0.0
 11
32.72934012497319
 21
16.83007862794352
 31
0.0
  0
LINE
  5
B8
330
2
100
AcDbEntity
  8
GAIKEI
 62
     1
100
AcDbLine
 10
32.97452130157387
 20
17.33427268585251
 30
0.0
 11
32.72934012497319
 21
17.33427268585251
 31
0.0
  0
LINE
  5
B9
330
2
100
AcDbEntity
  8
GAIKEI
 62
     1
100
AcDbLine
 10
33.47075739239074
 20
16.83007862794352
 30
0.0
 11
33.47075739239074
 21
17.33427268585251
 31
0.0
  0
LINE
  5
BA
330
2
100
AcDbEntity
  8
GAIKEI
 62
     1
100
AcDbLine
 10
33.22576569119707
 20
16.83007862794352
 30
0.0
 11
33.47075739239074
 21
16.83007862794352
 31
0.0
  0
LINE
  5
BB
330
2
100
AcDbEntity
  8
GAIKEI
 62
     1
100
AcDbLine
 10
33.22576569119707
 20
17.33427268585251
 30
0.0
 11
33.22576569119707
 21
16.83007862794352
 31
0.0
  0
LINE
  5
BC
330
2
100
AcDbEntity
  8
GAIKEI
 62
     1
100
AcDbLine
 10
33.47075739239074
 20
17.33427268585251
 30
0.0
 11
33.22576569119707
 21
17.33427268585251
 31
0.0
  0
LINE
  5
BD
330
2
100
AcDbEntity
  8
GAIKEI
 62
     1
100
AcDbLine
 10
33.96680400780065
 20
16.83007862794352
 30
0.0
 11
33.96680400780065
 21
17.33427268585251
 31
0.0
  0
LINE
  5
BE
330
2
100
AcDbEntity
  8
GAIKEI
 62
     1
100
AcDbLine
 10
33.72162283120001
 20
16.83007862794352
 30
0.0
 11
33.96680400780065
 21
16.83007862794352
 31
0.0
  0
LINE
  5
BF
330
2
100
AcDbEntity
  8
GAIKEI
 62
     1
100
AcDbLine
 10
33.72162283120001
 20
17.33427268585251
 30
0.0
 11
33.72162283120001
 21
16.83007862794352
 31
0.0
  0
LINE
  5
C0
330
2
100
AcDbEntity
  8
GAIKEI
 62
     1
100
AcDbLine
 10
33.96680400780065
 20
17.33427268585251
 30
0.0
 11
33.72162283120001
 21
17.33427268585251
 31
0.0
  0
LINE
  5
C1
330
2
100
AcDbEntity
  8
GAIKEI
 62
     1
100
AcDbLine
 10
26.52477844880315
 20
17.58570655088272
 30
0.0
 11
26.52477844880315
 21
18.08971113338475
 31
0.0
  0
LINE
  5
C2
330
2
100
AcDbEntity
  8
GAIKEI
 62
     1
100
AcDbLine
 10
26.27978674760948
 20
17.58570655088272
 30
0.0
 11
26.52477844880315
 21
17.58570655088272
 31
0.0
  0
LINE
  5
C3
330
2
100
AcDbEntity
  8
GAIKEI
 62
     1
100
AcDbLine
 10
26.27978674760948
 20
18.08971113338475
 30
0.0
 11
26.27978674760948
 21
17.58570655088272
 31
0.0
  0
LINE
  5
C4
330
2
100
AcDbEntity
  8
GAIKEI
 62
     1
100
AcDbLine
 10
26.52477844880315
 20
18.08971113338475
 30
0.0
 11
26.27978674760948
 21
18.08971113338475
 31
0.0
  0
LINE
  5
C5
330
2
100
AcDbEntity
  8
GAIKEI
 62
     1
100
AcDbLine
 10
27.02082506421311
 20
17.58570655088272
 30
0.0
 11
27.02082506421311
 21
18.08971113338475
 31
0.0
  0
LINE
  5
C6
330
2
100
AcDbEntity
  8
GAIKEI
 62
     1
100
AcDbLine
 10
26.77583336301939
 20
17.58570655088272
 30
0.0
 11
27.02082506421311
 21
17.58570655088272
 31
0.0
  0
LINE
  5
C7
330
2
100
AcDbEntity
  8
GAIKEI
 62
     1
100
AcDbLine
 10
26.77583336301939
 20
18.08971113338475
 30
0.0
 11
26.77583336301939
 21
17.58570655088272
 31
0.0
  0
LINE
  5
C8
330
2
100
AcDbEntity
  8
GAIKEI
 62
     1
100
AcDbLine
 10
27.02082506421311
 20
18.08971113338475
 30
0.0
 11
26.77583336301939
 21
18.08971113338475
 31
0.0
  0
LINE
  5
C9
330
2
100
AcDbEntity
  8
GAIKEI
 62
     1
100
AcDbLine
 10
27.51687167962302
 20
17.58570655088272
 30
0.0
 11
27.51687167962302
 21
18.08971113338475
 31
0.0
  0
LINE
  5
CA
330
2
100
AcDbEntity
  8
GAIKEI
 62
     1
100
AcDbLine
 10
27.2718799784293
 20
17.58570655088272
 30
0.0
 11
27.51687167962302
 21
17.58570655088272
 31
0.0
  0
LINE
  5
CB
330
2
100
AcDbEntity
  8
GAIKEI
 62
     1
100
AcDbLine
 10
27.2718799784293
 20
18.08971113338475
 30
0.0
 11
27.2718799784293
 21
17.58570655088272
 31
0.0
  0
LINE
  5
CC
330
2
100
AcDbEntity
  8
GAIKEI
 62
     1
100
AcDbLine
 10
27.51687167962302
 20
18.08971113338475
 30
0.0
 11
27.2718799784293
 21
18.08971113338475
 31
0.0
  0
LINE
  5
CD
330
2
100
AcDbEntity
  8
GAIKEI
 62
     1
100
AcDbLine
 10
28.01329724584686
 20
17.58570655088272
 30
0.0
 11
28.01329724584686
 21
18.08971113338475
 31
0.0
  0
LINE
  5
CE
330
2
100
AcDbEntity
  8
GAIKEI
 62
     1
100
AcDbLine
 10
27.76792659383926
 20
17.58570655088272
 30
0.0
 11
28.01329724584686
 21
17.58570655088272
 31
0.0
  0
LINE
  5
CF
330
2
100
AcDbEntity
  8
GAIKEI
 62
     1
100
AcDbLine
 10
27.76792659383926
 20
18.08971113338475
 30
0.0
 11
27.76792659383926
 21
17.58570655088272
 31
0.0
  0
LINE
  5
D0
330
2
100
AcDbEntity
  8
GAIKEI
 62
     1
100
AcDbLine
 10
28.01329724584686
 20
18.08971113338475
 30
0.0
 11
27.76792659383926
 21
18.08971113338475
 31
0.0
  0
LINE
  5
D1
330
2
100
AcDbEntity
  8
GAIKEI
 62
     1
100
AcDbLine
 10
28.5091543858498
 20
17.58570655088272
 30
0.0
 11
28.5091543858498
 21
18.08971113338475
 31
0.0
  0
LINE
  5
D2
330
2
100
AcDbEntity
  8
GAIKEI
 62
     1
100
AcDbLine
 10
28.26416268465613
 20
17.58570655088272
 30
0.0
 11
28.5091543858498
 21
17.58570655088272
 31
0.0
  0
LINE
  5
D3
330
2
100
AcDbEntity
  8
GAIKEI
 62
     1
100
AcDbLine
 10
28.26416268465613
 20
18.08971113338475
 30
0.0
 11
28.26416268465613
 21
17.58570655088272
 31
0.0
  0
LINE
  5
D4
330
2
100
AcDbEntity
  8
GAIKEI
 62
     1
100
AcDbLine
 10
28.5091543858498
 20
18.08971113338475
 30
0.0
 11
28.26416268465613
 21
18.08971113338475
 31
0.0
  0
LINE
  5
D5
330
2
100
AcDbEntity
  8
GAIKEI
 62
     1
100
AcDbLine
 10
29.00557995207362
 20
17.58570655088272
 30
0.0
 11
29.00557995207362
 21
18.08971113338475
 31
0.0
  0
LINE
  5
D6
330
2
100
AcDbEntity
  8
GAIKEI
 62
     1
100
AcDbLine
 10
28.76039877547299
 20
17.58570655088272
 30
0.0
 11
29.00557995207362
 21
17.58570655088272
 31
0.0
  0
LINE
  5
D7
330
2
100
AcDbEntity
  8
GAIKEI
 62
     1
100
AcDbLine
 10
28.76039877547299
 20
18.08971113338475
 30
0.0
 11
28.76039877547299
 21
17.58570655088272
 31
0.0
  0
LINE
  5
D8
330
2
100
AcDbEntity
  8
GAIKEI
 62
     1
100
AcDbLine
 10
29.00557995207362
 20
18.08971113338475
 30
0.0
 11
28.76039877547299
 21
18.08971113338475
 31
0.0
  0
LINE
  5
D9
330
2
100
AcDbEntity
  8
GAIKEI
 62
     1
100
AcDbLine
 10
29.50162656748359
 20
17.58570655088272
 30
0.0
 11
29.50162656748359
 21
18.08971113338475
 31
0.0
  0
LINE
  5
DA
330
2
100
AcDbEntity
  8
GAIKEI
 62
     1
100
AcDbLine
 10
29.25663486628991
 20
17.58570655088272
 30
0.0
 11
29.50162656748359
 21
17.58570655088272
 31
0.0
  0
LINE
  5
DB
330
2
100
AcDbEntity
  8
GAIKEI
 62
     1
100
AcDbLine
 10
29.25663486628991
 20
18.08971113338475
 30
0.0
 11
29.25663486628991
 21
17.58570655088272
 31
0.0
  0
LINE
  5
DC
330
2
100
AcDbEntity
  8
GAIKEI
 62
     1
100
AcDbLine
 10
29.50162656748359
 20
18.08971113338475
 30
0.0
 11
29.25663486628991
 21
18.08971113338475
 31
0.0
  0
LINE
  5
DD
330
2
100
AcDbEntity
  8
GAIKEI
 62
     1
100
AcDbLine
 10
29.99767318289349
 20
17.58570655088272
 30
0.0
 11
29.99767318289349
 21
18.08971113338475
 31
0.0
  0
LINE
  5
DE
330
2
100
AcDbEntity
  8
GAIKEI
 62
     1
100
AcDbLine
 10
29.75249200629287
 20
17.58570655088272
 30
0.0
 11
29.99767318289349
 21
17.58570655088272
 31
0.0
  0
LINE
  5
DF
330
2
100
AcDbEntity
  8
GAIKEI
 62
     1
100
AcDbLine
 10
29.75249200629287
 20
18.08971113338475
 30
0.0
 11
29.75249200629287
 21
17.58570655088272
 31
0.0
  0
LINE
  5
E0
330
2
100
AcDbEntity
  8
GAIKEI
 62
     1
100
AcDbLine
 10
29.99767318289349
 20
18.08971113338475
 30
0.0
 11
29.75249200629287
 21
18.08971113338475
 31
0.0
  0
LINE
  5
E1
330
2
100
AcDbEntity
  8
GAIKEI
 62
     1
100
AcDbLine
 10
30.49390927371036
 20
17.58570655088272
 30
0.0
 11
30.49390927371036
 21
18.08971113338475
 31
0.0
  0
LINE
  5
E2
330
2
100
AcDbEntity
  8
GAIKEI
 62
     1
100
AcDbLine
 10
30.24872809710974
 20
17.58570655088272
 30
0.0
 11
30.49390927371036
 21
17.58570655088272
 31
0.0
  0
LINE
  5
E3
330
2
100
AcDbEntity
  8
GAIKEI
 62
     1
100
AcDbLine
 10
30.24872809710974
 20
18.08971113338475
 30
0.0
 11
30.24872809710974
 21
17.58570655088272
 31
0.0
  0
LINE
  5
E4
330
2
100
AcDbEntity
  8
GAIKEI
 62
     1
100
AcDbLine
 10
30.49390927371036
 20
18.08971113338475
 30
0.0
 11
30.24872809710974
 21
18.08971113338475
 31
0.0
  0
LINE
  5
E5
330
2
100
AcDbEntity
  8
GAIKEI
 62
     1
100
AcDbLine
 10
30.98976641371331
 20
17.58570655088272
 30
0.0
 11
30.98976641371331
 21
18.08971113338475
 31
0.0
  0
LINE
  5
E6
330
2
100
AcDbEntity
  8
GAIKEI
 62
     1
100
AcDbLine
 10
30.7449641879266
 20
17.58570655088272
 30
0.0
 11
30.98976641371331
 21
17.58570655088272
 31
0.0
  0
LINE
  5
E7
330
2
100
AcDbEntity
  8
GAIKEI
 62
     1
100
AcDbLine
 10
30.7449641879266
 20
18.08971113338475
 30
0.0
 11
30.7449641879266
 21
17.58570655088272
 31
0.0
  0
LINE
  5
E8
330
2
100
AcDbEntity
  8
GAIKEI
 62
     1
100
AcDbLine
 10
30.98976641371331
 20
18.08971113338475
 30
0.0
 11
30.7449641879266
 21
18.08971113338475
 31
0.0
  0
LINE
  5
E9
330
2
100
AcDbEntity
  8
GAIKEI
 62
     1
100
AcDbLine
 10
31.48619197993713
 20
17.58570655088272
 30
0.0
 11
31.48619197993713
 21
18.08971113338475
 31
0.0
  0
LINE
  5
EA
330
2
100
AcDbEntity
  8
GAIKEI
 62
     1
100
AcDbLine
 10
31.24101080333651
 20
17.58570655088272
 30
0.0
 11
31.48619197993713
 21
17.58570655088272
 31
0.0
  0
LINE
  5
EB
330
2
100
AcDbEntity
  8
GAIKEI
 62
     1
100
AcDbLine
 10
31.24101080333651
 20
18.08971113338475
 30
0.0
 11
31.24101080333651
 21
17.58570655088272
 31
0.0
  0
LINE
  5
EC
330
2
100
AcDbEntity
  8
GAIKEI
 62
     1
100
AcDbLine
 10
31.48619197993713
 20
18.08971113338475
 30
0.0
 11
31.24101080333651
 21
18.08971113338475
 31
0.0
  0
LINE
  5
ED
330
2
100
AcDbEntity
  8
GAIKEI
 62
     1
100
AcDbLine
 10
31.982428070754
 20
17.58570655088272
 30
0.0
 11
31.982428070754
 21
18.08971113338475
 31
0.0
  0
LINE
  5
EE
330
2
100
AcDbEntity
  8
GAIKEI
 62
     1
100
AcDbLine
 10
31.73705741874643
 20
17.58570655088272
 30
0.0
 11
31.982428070754
 21
17.58570655088272
 31
0.0
  0
LINE
  5
EF
330
2
100
AcDbEntity
  8
GAIKEI
 62
     1
100
AcDbLine
 10
31.73705741874643
 20
18.08971113338475
 30
0.0
 11
31.73705741874643
 21
17.58570655088272
 31
0.0
  0
LINE
  5
F0
330
2
100
AcDbEntity
  8
GAIKEI
 62
     1
100
AcDbLine
 10
31.982428070754
 20
18.08971113338475
 30
0.0
 11
31.73705741874643
 21
18.08971113338475
 31
0.0
  0
LINE
  5
F1
330
2
100
AcDbEntity
  8
GAIKEI
 62
     1
100
AcDbLine
 10
32.47828521075695
 20
17.58570655088272
 30
0.0
 11
32.47828521075695
 21
18.08971113338475
 31
0.0
  0
LINE
  5
F2
330
2
100
AcDbEntity
  8
GAIKEI
 62
     1
100
AcDbLine
 10
32.23329350956334
 20
17.58570655088272
 30
0.0
 11
32.47828521075695
 21
17.58570655088272
 31
0.0
  0
LINE
  5
F3
330
2
100
AcDbEntity
  8
GAIKEI
 62
     1
100
AcDbLine
 10
32.23329350956334
 20
18.08971113338475
 30
0.0
 11
32.23329350956334
 21
17.58570655088272
 31
0.0
  0
LINE
  5
F4
330
2
100
AcDbEntity
  8
GAIKEI
 62
     1
100
AcDbLine
 10
32.47828521075695
 20
18.08971113338475
 30
0.0
 11
32.23329350956334
 21
18.08971113338475
 31
0.0
  0
LINE
  5
F5
330
2
100
AcDbEntity
  8
GAIKEI
 62
     1
100
AcDbLine
 10
32.97452130157387
 20
17.58570655088272
 30
0.0
 11
32.97452130157387
 21
18.08971113338475
 31
0.0
  0
LINE
  5
F6
330
2
100
AcDbEntity
  8
GAIKEI
 62
     1
100
AcDbLine
 10
32.72934012497325
 20
17.58570655088272
 30
0.0
 11
32.97452130157387
 21
17.58570655088272
 31
0.0
  0
LINE
  5
F7
330
2
100
AcDbEntity
  8
GAIKEI
 62
     1
100
AcDbLine
 10
32.72934012497325
 20
18.08971113338475
 30
0.0
 11
32.72934012497325
 21
17.58570655088272
 31
0.0
  0
LINE
  5
F8
330
2
100
AcDbEntity
  8
GAIKEI
 62
     1
100
AcDbLine
 10
32.97452130157387
 20
18.08971113338475
 30
0.0
 11
32.72934012497325
 21
18.08971113338475
 31
0.0
  0
LINE
  5
F9
330
2
100
AcDbEntity
  8
GAIKEI
 62
     1
100
AcDbLine
 10
33.47075739239074
 20
17.58570655088272
 30
0.0
 11
33.47075739239074
 21
18.08971113338475
 31
0.0
  0
LINE
  5
FA
330
2
100
AcDbEntity
  8
GAIKEI
 62
     1
100
AcDbLine
 10
33.22576569119707
 20
17.58570655088272
 30
0.0
 11
33.47075739239074
 21
17.58570655088272
 31
0.0
  0
LINE
  5
FB
330
2
100
AcDbEntity
  8
GAIKEI
 62
     1
100
AcDbLine
 10
33.22576569119707
 20
18.08971113338475
 30
0.0
 11
33.22576569119707
 21
17.58570655088272
 31
0.0
  0
LINE
  5
FC
330
2
100
AcDbEntity
  8
GAIKEI
 62
     1
100
AcDbLine
 10
33.47075739239074
 20
18.08971113338475
 30
0.0
 11
33.22576569119707
 21
18.08971113338475
 31
0.0
  0
LINE
  5
FD
330
2
100
AcDbEntity
  8
GAIKEI
 62
     1
100
AcDbLine
 10
33.96680400780065
 20
17.58570655088272
 30
0.0
 11
33.96680400780065
 21
18.08971113338475
 31
0.0
  0
LINE
  5
FE
330
2
100
AcDbEntity
  8
GAIKEI
 62
     1
100
AcDbLine
 10
33.72162283120001
 20
17.58570655088272
 30
0.0
 11
33.96680400780065
 21
17.58570655088272
 31
0.0
  0
LINE
  5
FF
330
2
100
AcDbEntity
  8
GAIKEI
 62
     1
100
AcDbLine
 10
33.72162283120001
 20
18.08971113338475
 30
0.0
 11
33.72162283120001
 21
17.58570655088272
 31
0.0
  0
LINE
  5
100
330
2
100
AcDbEntity
  8
GAIKEI
 62
     1
100
AcDbLine
 10
33.96680400780065
 20
18.08971113338475
 30
0.0
 11
33.72162283120001
 21
18.08971113338475
 31
0.0
  0
LINE
  5
101
330
2
100
AcDbEntity
  8
GAIKEI
 62
     1
100
AcDbLine
 10
26.52477844880321
 20
18.34114499841496
 30
0.0
 11
26.52477844880321
 21
18.84533905632395
 31
0.0
  0
LINE
  5
102
330
2
100
AcDbEntity
  8
GAIKEI
 62
     1
100
AcDbLine
 10
26.27978674760948
 20
18.34114499841496
 30
0.0
 11
26.52477844880321
 21
18.34114499841496
 31
0.0
  0
LINE
  5
103
330
2
100
AcDbEntity
  8
GAIKEI
 62
     1
100
AcDbLine
 10
26.27978674760948
 20
18.84533905632395
 30
0.0
 11
26.27978674760948
 21
18.34114499841496
 31
0.0
  0
LINE
  5
104
330
2
100
AcDbEntity
  8
GAIKEI
 62
     1
100
AcDbLine
 10
26.52477844880321
 20
18.84533905632395
 30
0.0
 11
26.27978674760948
 21
18.84533905632395
 31
0.0
  0
LINE
  5
105
330
2
100
AcDbEntity
  8
GAIKEI
 62
     1
100
AcDbLine
 10
27.02082506421311
 20
18.34114499841496
 30
0.0
 11
27.02082506421311
 21
18.84533905632395
 31
0.0
  0
LINE
  5
106
330
2
100
AcDbEntity
  8
GAIKEI
 62
     1
100
AcDbLine
 10
26.77583336301939
 20
18.34114499841496
 30
0.0
 11
27.02082506421311
 21
18.34114499841496
 31
0.0
  0
LINE
  5
107
330
2
100
AcDbEntity
  8
GAIKEI
 62
     1
100
AcDbLine
 10
26.77583336301939
 20
18.84533905632395
 30
0.0
 11
26.77583336301939
 21
18.34114499841496
 31
0.0
  0
LINE
  5
108
330
2
100
AcDbEntity
  8
GAIKEI
 62
     1
100
AcDbLine
 10
27.02082506421311
 20
18.84533905632395
 30
0.0
 11
26.77583336301939
 21
18.84533905632395
 31
0.0
  0
LINE
  5
109
330
2
100
AcDbEntity
  8
GAIKEI
 62
     1
100
AcDbLine
 10
27.51687167962302
 20
18.34114499841496
 30
0.0
 11
27.51687167962302
 21
18.84533905632395
 31
0.0
  0
LINE
  5
10A
330
2
100
AcDbEntity
  8
GAIKEI
 62
     1
100
AcDbLine
 10
27.2718799784293
 20
18.34114499841496
 30
0.0
 11
27.51687167962302
 21
18.34114499841496
 31
0.0
  0
LINE
  5
10B
330
2
100
AcDbEntity
  8
GAIKEI
 62
     1
100
AcDbLine
 10
27.2718799784293
 20
18.84533905632395
 30
0.0
 11
27.2718799784293
 21
18.34114499841496
 31
0.0
  0
LINE
  5
10C
330
2
100
AcDbEntity
  8
GAIKEI
 62
     1
100
AcDbLine
 10
27.51687167962302
 20
18.84533905632395
 30
0.0
 11
27.2718799784293
 21
18.84533905632395
 31
0.0
  0
LINE
  5
10D
330
2
100
AcDbEntity
  8
GAIKEI
 62
     1
100
AcDbLine
 10
28.01329724584686
 20
18.34114499841496
 30
0.0
 11
28.01329724584686
 21
18.84533905632395
 31
0.0
  0
LINE
  5
10E
330
2
100
AcDbEntity
  8
GAIKEI
 62
     1
100
AcDbLine
 10
27.76792659383926
 20
18.34114499841496
 30
0.0
 11
28.01329724584686
 21
18.34114499841496
 31
0.0
  0
LINE
  5
10F
330
2
100
AcDbEntity
  8
GAIKEI
 62
     1
100
AcDbLine
 10
27.76792659383926
 20
18.84533905632395
 30
0.0
 11
27.76792659383926
 21
18.34114499841496
 31
0.0
  0
LINE
  5
110
330
2
100
AcDbEntity
  8
GAIKEI
 62
     1
100
AcDbLine
 10
28.01329724584686
 20
18.84533905632395
 30
0.0
 11
27.76792659383926
 21
18.84533905632395
 31
0.0
  0
LINE
  5
111
330
2
100
AcDbEntity
  8
GAIKEI
 62
     1
100
AcDbLine
 10
28.5091543858498
 20
18.34114499841496
 30
0.0
 11
28.5091543858498
 21
18.84533905632395
 31
0.0
  0
LINE
  5
112
330
2
100
AcDbEntity
  8
GAIKEI
 62
     1
100
AcDbLine
 10
28.26416268465613
 20
18.34114499841496
 30
0.0
 11
28.5091543858498
 21
18.34114499841496
 31
0.0
  0
LINE
  5
113
330
2
100
AcDbEntity
  8
GAIKEI
 62
     1
100
AcDbLine
 10
28.26416268465613
 20
18.84533905632395
 30
0.0
 11
28.26416268465613
 21
18.34114499841496
 31
0.0
  0
LINE
  5
114
330
2
100
AcDbEntity
  8
GAIKEI
 62
     1
100
AcDbLine
 10
28.5091543858498
 20
18.84533905632395
 30
0.0
 11
28.26416268465613
 21
18.84533905632395
 31
0.0
  0
LINE
  5
115
330
2
100
AcDbEntity
  8
GAIKEI
 62
     1
100
AcDbLine
 10
29.00557995207362
 20
18.34114499841496
 30
0.0
 11
29.00557995207362
 21
18.84533905632395
 31
0.0
  0
LINE
  5
116
330
2
100
AcDbEntity
  8
GAIKEI
 62
     1
100
AcDbLine
 10
28.76039877547299
 20
18.34114499841496
 30
0.0
 11
29.00557995207362
 21
18.34114499841496
 31
0.0
  0
LINE
  5
117
330
2
100
AcDbEntity
  8
GAIKEI
 62
     1
100
AcDbLine
 10
28.76039877547299
 20
18.84533905632395
 30
0.0
 11
28.76039877547299
 21
18.34114499841496
 31
0.0
  0
LINE
  5
118
330
2
100
AcDbEntity
  8
GAIKEI
 62
     1
100
AcDbLine
 10
29.00557995207362
 20
18.84533905632395
 30
0.0
 11
28.76039877547299
 21
18.84533905632395
 31
0.0
  0
LINE
  5
119
330
2
100
AcDbEntity
  8
GAIKEI
 62
     1
100
AcDbLine
 10
29.50162656748359
 20
18.34114499841496
 30
0.0
 11
29.50162656748359
 21
18.84533905632395
 31
0.0
  0
LINE
  5
11A
330
2
100
AcDbEntity
  8
GAIKEI
 62
     1
100
AcDbLine
 10
29.25663486628991
 20
18.34114499841496
 30
0.0
 11
29.50162656748359
 21
18.34114499841496
 31
0.0
  0
LINE
  5
11B
330
2
100
AcDbEntity
  8
GAIKEI
 62
     1
100
AcDbLine
 10
29.25663486628991
 20
18.84533905632395
 30
0.0
 11
29.25663486628991
 21
18.34114499841496
 31
0.0
  0
LINE
  5
11C
330
2
100
AcDbEntity
  8
GAIKEI
 62
     1
100
AcDbLine
 10
29.50162656748359
 20
18.84533905632395
 30
0.0
 11
29.25663486628991
 21
18.84533905632395
 31
0.0
  0
LINE
  5
11D
330
2
100
AcDbEntity
  8
GAIKEI
 62
     1
100
AcDbLine
 10
29.99767318289349
 20
18.34114499841496
 30
0.0
 11
29.99767318289349
 21
18.84533905632395
 31
0.0
  0
LINE
  5
11E
330
2
100
AcDbEntity
  8
GAIKEI
 62
     1
100
AcDbLine
 10
29.75249200629287
 20
18.34114499841496
 30
0.0
 11
29.99767318289349
 21
18.34114499841496
 31
0.0
  0
LINE
  5
11F
330
2
100
AcDbEntity
  8
GAIKEI
 62
     1
100
AcDbLine
 10
29.75249200629287
 20
18.84533905632395
 30
0.0
 11
29.75249200629287
 21
18.34114499841496
 31
0.0
  0
LINE
  5
120
330
2
100
AcDbEntity
  8
GAIKEI
 62
     1
100
AcDbLine
 10
29.99767318289349
 20
18.84533905632395
 30
0.0
 11
29.75249200629287
 21
18.84533905632395
 31
0.0
  0
LINE
  5
121
330
2
100
AcDbEntity
  8
GAIKEI
 62
     1
100
AcDbLine
 10
30.49390927371036
 20
18.34114499841496
 30
0.0
 11
30.49390927371036
 21
18.84533905632395
 31
0.0
  0
LINE
  5
122
330
2
100
AcDbEntity
  8
GAIKEI
 62
     1
100
AcDbLine
 10
30.24872809710974
 20
18.34114499841496
 30
0.0
 11
30.49390927371036
 21
18.34114499841496
 31
0.0
  0
LINE
  5
123
330
2
100
AcDbEntity
  8
GAIKEI
 62
     1
100
AcDbLine
 10
30.24872809710974
 20
18.84533905632395
 30
0.0
 11
30.24872809710974
 21
18.34114499841496
 31
0.0
  0
LINE
  5
124
330
2
100
AcDbEntity
  8
GAIKEI
 62
     1
100
AcDbLine
 10
30.49390927371036
 20
18.84533905632395
 30
0.0
 11
30.24872809710974
 21
18.84533905632395
 31
0.0
  0
LINE
  5
125
330
2
100
AcDbEntity
  8
GAIKEI
 62
     1
100
AcDbLine
 10
30.98976641371331
 20
18.34114499841496
 30
0.0
 11
30.98976641371331
 21
18.84533905632395
 31
0.0
  0
LINE
  5
126
330
2
100
AcDbEntity
  8
GAIKEI
 62
     1
100
AcDbLine
 10
30.7449641879266
 20
18.34114499841496
 30
0.0
 11
30.98976641371331
 21
18.34114499841496
 31
0.0
  0
LINE
  5
127
330
2
100
AcDbEntity
  8
GAIKEI
 62
     1
100
AcDbLine
 10
30.7449641879266
 20
18.84533905632395
 30
0.0
 11
30.7449641879266
 21
18.34114499841496
 31
0.0
  0
LINE
  5
128
330
2
100
AcDbEntity
  8
GAIKEI
 62
     1
100
AcDbLine
 10
30.98976641371331
 20
18.84533905632395
 30
0.0
 11
30.7449641879266
 21
18.84533905632395
 31
0.0
  0
LINE
  5
129
330
2
100
AcDbEntity
  8
GAIKEI
 62
     1
100
AcDbLine
 10
31.48619197993713
 20
18.34114499841496
 30
0.0
 11
31.48619197993713
 21
18.84533905632395
 31
0.0
  0
LINE
  5
12A
330
2
100
AcDbEntity
  8
GAIKEI
 62
     1
100
AcDbLine
 10
31.24101080333651
 20
18.34114499841496
 30
0.0
 11
31.48619197993713
 21
18.34114499841496
 31
0.0
  0
LINE
  5
12B
330
2
100
AcDbEntity
  8
GAIKEI
 62
     1
100
AcDbLine
 10
31.24101080333651
 20
18.84533905632395
 30
0.0
 11
31.24101080333651
 21
18.34114499841496
 31
0.0
  0
LINE
  5
12C
330
2
100
AcDbEntity
  8
GAIKEI
 62
     1
100
AcDbLine
 10
31.48619197993713
 20
18.84533905632395
 30
0.0
 11
31.24101080333651
 21
18.84533905632395
 31
0.0
  0
LINE
  5
12D
330
2
100
AcDbEntity
  8
GAIKEI
 62
     1
100
AcDbLine
 10
31.982428070754
 20
18.34114499841496
 30
0.0
 11
31.982428070754
 21
18.84533905632395
 31
0.0
  0
LINE
  5
12E
330
2
100
AcDbEntity
  8
GAIKEI
 62
     1
100
AcDbLine
 10
31.73705741874643
 20
18.34114499841496
 30
0.0
 11
31.982428070754
 21
18.34114499841496
 31
0.0
  0
LINE
  5
12F
330
2
100
AcDbEntity
  8
GAIKEI
 62
     1
100
AcDbLine
 10
31.73705741874643
 20
18.84533905632395
 30
0.0
 11
31.73705741874643
 21
18.34114499841496
 31
0.0
  0
LINE
  5
130
330
2
100
AcDbEntity
  8
GAIKEI
 62
     1
100
AcDbLine
 10
31.982428070754
 20
18.84533905632395
 30
0.0
 11
31.73705741874643
 21
18.84533905632395
 31
0.0
  0
LINE
  5
131
330
2
100
AcDbEntity
  8
GAIKEI
 62
     1
100
AcDbLine
 10
32.47828521075695
 20
18.34114499841496
 30
0.0
 11
32.47828521075695
 21
18.84533905632395
 31
0.0
  0
LINE
  5
132
330
2
100
AcDbEntity
  8
GAIKEI
 62
     1
100
AcDbLine
 10
32.23329350956334
 20
18.34114499841496
 30
0.0
 11
32.47828521075695
 21
18.34114499841496
 31
0.0
  0
LINE
  5
133
330
2
100
AcDbEntity
  8
GAIKEI
 62
     1
100
AcDbLine
 10
32.23329350956334
 20
18.84533905632395
 30
0.0
 11
32.23329350956334
 21
18.34114499841496
 31
0.0
  0
LINE
  5
134
330
2
100
AcDbEntity
  8
GAIKEI
 62
     1
100
AcDbLine
 10
32.47828521075695
 20
18.84533905632395
 30
0.0
 11
32.23329350956334
 21
18.84533905632395
 31
0.0
  0
LINE
  5
135
330
2
100
AcDbEntity
  8
GAIKEI
 62
     1
100
AcDbLine
 10
32.97452130157387
 20
18.34114499841496
 30
0.0
 11
32.97452130157387
 21
18.84533905632395
 31
0.0
  0
LINE
  5
136
330
2
100
AcDbEntity
  8
GAIKEI
 62
     1
100
AcDbLine
 10
32.72934012497325
 20
18.34114499841496
 30
0.0
 11
32.97452130157387
 21
18.34114499841496
 31
0.0
  0
LINE
  5
137
330
2
100
AcDbEntity
  8
GAIKEI
 62
     1
100
AcDbLine
 10
32.72934012497325
 20
18.84533905632395
 30
0.0
 11
32.72934012497325
 21
18.34114499841496
 31
0.0
  0
LINE
  5
138
330
2
100
AcDbEntity
  8
GAIKEI
 62
     1
100
AcDbLine
 10
32.97452130157387
 20
18.84533905632395
 30
0.0
 11
32.72934012497325
 21
18.84533905632395
 31
0.0
  0
LINE
  5
139
330
2
100
AcDbEntity
  8
GAIKEI
 62
     1
100
AcDbLine
 10
33.47075739239074
 20
18.34114499841496
 30
0.0
 11
33.47075739239074
 21
18.84533905632395
 31
0.0
  0
LINE
  5
13A
330
2
100
AcDbEntity
  8
GAIKEI
 62
     1
100
AcDbLine
 10
33.22576569119707
 20
18.34114499841496
 30
0.0
 11
33.47075739239074
 21
18.34114499841496
 31
0.0
  0
LINE
  5
13B
330
2
100
AcDbEntity
  8
GAIKEI
 62
     1
100
AcDbLine
 10
33.22576569119707
 20
18.84533905632395
 30
0.0
 11
33.22576569119707
 21
18.34114499841496
 31
0.0
  0
LINE
  5
13C
330
2
100
AcDbEntity
  8
GAIKEI
 62
     1
100
AcDbLine
 10
33.47075739239074
 20
18.84533905632395
 30
0.0
 11
33.22576569119707
 21
18.84533905632395
 31
0.0
  0
LINE
  5
13D
330
2
100
AcDbEntity
  8
GAIKEI
 62
     1
100
AcDbLine
 10
33.96680400780065
 20
18.34114499841496
 30
0.0
 11
33.96680400780065
 21
18.84533905632395
 31
0.0
  0
LINE
  5
13E
330
2
100
AcDbEntity
  8
GAIKEI
 62
     1
100
AcDbLine
 10
33.72162283120001
 20
18.34114499841496
 30
0.0
 11
33.96680400780065
 21
18.34114499841496
 31
0.0
  0
LINE
  5
13F
330
2
100
AcDbEntity
  8
GAIKEI
 62
     1
100
AcDbLine
 10
33.72162283120001
 20
18.84533905632395
 30
0.0
 11
33.72162283120001
 21
18.34114499841496
 31
0.0
  0
LINE
  5
140
330
2
100
AcDbEntity
  8
GAIKEI
 62
     1
100
AcDbLine
 10
33.96680400780065
 20
18.84533905632395
 30
0.0
 11
33.72162283120001
 21
18.84533905632395
 31
0.0
  0
LINE
  5
141
330
2
100
AcDbEntity
  8
GAIKEI
 62
     1
100
AcDbLine
 10
26.52477844880321
 20
19.293637869181
 30
0.0
 11
26.52477844880321
 21
19.79764245168309
 31
0.0
  0
LINE
  5
142
330
2
100
AcDbEntity
  8
GAIKEI
 62
     1
100
AcDbLine
 10
26.27978674760948
 20
19.293637869181
 30
0.0
 11
26.52477844880321
 21
19.293637869181
 31
0.0
  0
LINE
  5
143
330
2
100
AcDbEntity
  8
GAIKEI
 62
     1
100
AcDbLine
 10
26.27978674760948
 20
19.79764245168309
 30
0.0
 11
26.27978674760948
 21
19.293637869181
 31
0.0
  0
LINE
  5
144
330
2
100
AcDbEntity
  8
GAIKEI
 62
     1
100
AcDbLine
 10
26.52477844880321
 20
19.79764245168309
 30
0.0
 11
26.27978674760948
 21
19.79764245168309
 31
0.0
  0
LINE
  5
145
330
2
100
AcDbEntity
  8
GAIKEI
 62
     1
100
AcDbLine
 10
27.02082506421311
 20
19.293637869181
 30
0.0
 11
27.02082506421311
 21
19.79764245168309
 31
0.0
  0
LINE
  5
146
330
2
100
AcDbEntity
  8
GAIKEI
 62
     1
100
AcDbLine
 10
26.77583336301939
 20
19.293637869181
 30
0.0
 11
27.02082506421311
 21
19.293637869181
 31
0.0
  0
LINE
  5
147
330
2
100
AcDbEntity
  8
GAIKEI
 62
     1
100
AcDbLine
 10
26.77583336301939
 20
19.79764245168309
 30
0.0
 11
26.77583336301939
 21
19.293637869181
 31
0.0
  0
LINE
  5
148
330
2
100
AcDbEntity
  8
GAIKEI
 62
     1
100
AcDbLine
 10
27.02082506421311
 20
19.79764245168309
 30
0.0
 11
26.77583336301939
 21
19.79764245168309
 31
0.0
  0
LINE
  5
149
330
2
100
AcDbEntity
  8
GAIKEI
 62
     1
100
AcDbLine
 10
27.51687167962302
 20
19.293637869181
 30
0.0
 11
27.51687167962302
 21
19.79764245168309
 31
0.0
  0
LINE
  5
14A
330
2
100
AcDbEntity
  8
GAIKEI
 62
     1
100
AcDbLine
 10
27.2718799784293
 20
19.293637869181
 30
0.0
 11
27.51687167962302
 21
19.293637869181
 31
0.0
  0
LINE
  5
14B
330
2
100
AcDbEntity
  8
GAIKEI
 62
     1
100
AcDbLine
 10
27.2718799784293
 20
19.79764245168309
 30
0.0
 11
27.2718799784293
 21
19.293637869181
 31
0.0
  0
LINE
  5
14C
330
2
100
AcDbEntity
  8
GAIKEI
 62
     1
100
AcDbLine
 10
27.51687167962302
 20
19.79764245168309
 30
0.0
 11
27.2718799784293
 21
19.79764245168309
 31
0.0
  0
LINE
  5
14D
330
2
100
AcDbEntity
  8
GAIKEI
 62
     1
100
AcDbLine
 10
28.01329724584686
 20
19.293637869181
 30
0.0
 11
28.01329724584686
 21
19.79764245168309
 31
0.0
  0
LINE
  5
14E
330
2
100
AcDbEntity
  8
GAIKEI
 62
     1
100
AcDbLine
 10
27.76792659383926
 20
19.293637869181
 30
0.0
 11
28.01329724584686
 21
19.293637869181
 31
0.0
  0
LINE
  5
14F
330
2
100
AcDbEntity
  8
GAIKEI
 62
     1
100
AcDbLine
 10
27.76792659383926
 20
19.79764245168309
 30
0.0
 11
27.76792659383926
 21
19.293637869181
 31
0.0
  0
LINE
  5
150
330
2
100
AcDbEntity
  8
GAIKEI
 62
     1
100
AcDbLine
 10
28.01329724584686
 20
19.79764245168309
 30
0.0
 11
27.76792659383926
 21
19.79764245168309
 31
0.0
  0
LINE
  5
151
330
2
100
AcDbEntity
  8
GAIKEI
 62
     1
100
AcDbLine
 10
28.5091543858498
 20
19.293637869181
 30
0.0
 11
28.5091543858498
 21
19.79764245168309
 31
0.0
  0
LINE
  5
152
330
2
100
AcDbEntity
  8
GAIKEI
 62
     1
100
AcDbLine
 10
28.26416268465613
 20
19.293637869181
 30
0.0
 11
28.5091543858498
 21
19.293637869181
 31
0.0
  0
LINE
  5
153
330
2
100
AcDbEntity
  8
GAIKEI
 62
     1
100
AcDbLine
 10
28.26416268465613
 20
19.79764245168309
 30
0.0
 11
28.26416268465613
 21
19.293637869181
 31
0.0
  0
LINE
  5
154
330
2
100
AcDbEntity
  8
GAIKEI
 62
     1
100
AcDbLine
 10
28.5091543858498
 20
19.79764245168309
 30
0.0
 11
28.26416268465613
 21
19.79764245168309
 31
0.0
  0
LINE
  5
155
330
2
100
AcDbEntity
  8
GAIKEI
 62
     1
100
AcDbLine
 10
29.00557995207362
 20
19.293637869181
 30
0.0
 11
29.00557995207362
 21
19.79764245168309
 31
0.0
  0
LINE
  5
156
330
2
100
AcDbEntity
  8
GAIKEI
 62
     1
100
AcDbLine
 10
28.76039877547299
 20
19.293637869181
 30
0.0
 11
29.00557995207362
 21
19.293637869181
 31
0.0
  0
LINE
  5
157
330
2
100
AcDbEntity
  8
GAIKEI
 62
     1
100
AcDbLine
 10
28.76039877547299
 20
19.79764245168309
 30
0.0
 11
28.76039877547299
 21
19.293637869181
 31
0.0
  0
LINE
  5
158
330
2
100
AcDbEntity
  8
GAIKEI
 62
     1
100
AcDbLine
 10
29.00557995207362
 20
19.79764245168309
 30
0.0
 11
28.76039877547299
 21
19.79764245168309
 31
0.0
  0
LINE
  5
159
330
2
100
AcDbEntity
  8
GAIKEI
 62
     1
100
AcDbLine
 10
29.50162656748359
 20
19.293637869181
 30
0.0
 11
29.50162656748359
 21
19.79764245168309
 31
0.0
  0
LINE
  5
15A
330
2
100
AcDbEntity
  8
GAIKEI
 62
     1
100
AcDbLine
 10
29.25663486628991
 20
19.293637869181
 30
0.0
 11
29.50162656748359
 21
19.293637869181
 31
0.0
  0
LINE
  5
15B
330
2
100
AcDbEntity
  8
GAIKEI
 62
     1
100
AcDbLine
 10
29.25663486628991
 20
19.79764245168309
 30
0.0
 11
29.25663486628991
 21
19.293637869181
 31
0.0
  0
LINE
  5
15C
330
2
100
AcDbEntity
  8
GAIKEI
 62
     1
100
AcDbLine
 10
29.50162656748359
 20
19.79764245168309
 30
0.0
 11
29.25663486628991
 21
19.79764245168309
 31
0.0
  0
LINE
  5
15D
330
2
100
AcDbEntity
  8
GAIKEI
 62
     1
100
AcDbLine
 10
29.99767318289349
 20
19.293637869181
 30
0.0
 11
29.99767318289349
 21
19.79764245168309
 31
0.0
  0
LINE
  5
15E
330
2
100
AcDbEntity
  8
GAIKEI
 62
     1
100
AcDbLine
 10
29.75249200629287
 20
19.293637869181
 30
0.0
 11
29.99767318289349
 21
19.293637869181
 31
0.0
  0
LINE
  5
15F
330
2
100
AcDbEntity
  8
GAIKEI
 62
     1
100
AcDbLine
 10
29.75249200629287
 20
19.79764245168309
 30
0.0
 11
29.75249200629287
 21
19.293637869181
 31
0.0
  0
LINE
  5
160
330
2
100
AcDbEntity
  8
GAIKEI
 62
     1
100
AcDbLine
 10
29.99767318289349
 20
19.79764245168309
 30
0.0
 11
29.75249200629287
 21
19.79764245168309
 31
0.0
  0
LINE
  5
161
330
2
100
AcDbEntity
  8
GAIKEI
 62
     1
100
AcDbLine
 10
30.49390927371036
 20
19.293637869181
 30
0.0
 11
30.49390927371036
 21
19.79764245168309
 31
0.0
  0
LINE
  5
162
330
2
100
AcDbEntity
  8
GAIKEI
 62
     1
100
AcDbLine
 10
30.24872809710974
 20
19.293637869181
 30
0.0
 11
30.49390927371036
 21
19.293637869181
 31
0.0
  0
LINE
  5
163
330
2
100
AcDbEntity
  8
GAIKEI
 62
     1
100
AcDbLine
 10
30.24872809710974
 20
19.79764245168309
 30
0.0
 11
30.24872809710974
 21
19.293637869181
 31
0.0
  0
LINE
  5
164
330
2
100
AcDbEntity
  8
GAIKEI
 62
     1
100
AcDbLine
 10
30.49390927371036
 20
19.79764245168309
 30
0.0
 11
30.24872809710974
 21
19.79764245168309
 31
0.0
  0
LINE
  5
165
330
2
100
AcDbEntity
  8
GAIKEI
 62
     1
100
AcDbLine
 10
30.98976641371331
 20
19.293637869181
 30
0.0
 11
30.98976641371331
 21
19.79764245168309
 31
0.0
  0
LINE
  5
166
330
2
100
AcDbEntity
  8
GAIKEI
 62
     1
100
AcDbLine
 10
30.7449641879266
 20
19.293637869181
 30
0.0
 11
30.98976641371331
 21
19.293637869181
 31
0.0
  0
LINE
  5
167
330
2
100
AcDbEntity
  8
GAIKEI
 62
     1
100
AcDbLine
 10
30.7449641879266
 20
19.79764245168309
 30
0.0
 11
30.7449641879266
 21
19.293637869181
 31
0.0
  0
LINE
  5
168
330
2
100
AcDbEntity
  8
GAIKEI
 62
     1
100
AcDbLine
 10
30.98976641371331
 20
19.79764245168309
 30
0.0
 11
30.7449641879266
 21
19.79764245168309
 31
0.0
  0
LINE
  5
169
330
2
100
AcDbEntity
  8
GAIKEI
 62
     1
100
AcDbLine
 10
31.48619197993713
 20
19.293637869181
 30
0.0
 11
31.48619197993713
 21
19.79764245168309
 31
0.0
  0
LINE
  5
16A
330
2
100
AcDbEntity
  8
GAIKEI
 62
     1
100
AcDbLine
 10
31.24101080333651
 20
19.293637869181
 30
0.0
 11
31.48619197993713
 21
19.293637869181
 31
0.0
  0
LINE
  5
16B
330
2
100
AcDbEntity
  8
GAIKEI
 62
     1
100
AcDbLine
 10
31.24101080333651
 20
19.79764245168309
 30
0.0
 11
31.24101080333651
 21
19.293637869181
 31
0.0
  0
LINE
  5
16C
330
2
100
AcDbEntity
  8
GAIKEI
 62
     1
100
AcDbLine
 10
31.48619197993713
 20
19.79764245168309
 30
0.0
 11
31.24101080333651
 21
19.79764245168309
 31
0.0
  0
LINE
  5
16D
330
2
100
AcDbEntity
  8
GAIKEI
 62
     1
100
AcDbLine
 10
31.982428070754
 20
19.293637869181
 30
0.0
 11
31.982428070754
 21
19.79764245168309
 31
0.0
  0
LINE
  5
16E
330
2
100
AcDbEntity
  8
GAIKEI
 62
     1
100
AcDbLine
 10
31.73705741874643
 20
19.293637869181
 30
0.0
 11
31.982428070754
 21
19.293637869181
 31
0.0
  0
LINE
  5
16F
330
2
100
AcDbEntity
  8
GAIKEI
 62
     1
100
AcDbLine
 10
31.73705741874643
 20
19.79764245168309
 30
0.0
 11
31.73705741874643
 21
19.293637869181
 31
0.0
  0
LINE
  5
170
330
2
100
AcDbEntity
  8
GAIKEI
 62
     1
100
AcDbLine
 10
31.982428070754
 20
19.79764245168309
 30
0.0
 11
31.73705741874643
 21
19.79764245168309
 31
0.0
  0
LINE
  5
171
330
2
100
AcDbEntity
  8
GAIKEI
 62
     1
100
AcDbLine
 10
32.47828521075695
 20
19.293637869181
 30
0.0
 11
32.47828521075695
 21
19.79764245168309
 31
0.0
  0
LINE
  5
172
330
2
100
AcDbEntity
  8
GAIKEI
 62
     1
100
AcDbLine
 10
32.23329350956334
 20
19.293637869181
 30
0.0
 11
32.47828521075695
 21
19.293637869181
 31
0.0
  0
LINE
  5
173
330
2
100
AcDbEntity
  8
GAIKEI
 62
     1
100
AcDbLine
 10
32.23329350956334
 20
19.79764245168309
 30
0.0
 11
32.23329350956334
 21
19.293637869181
 31
0.0
  0
LINE
  5
174
330
2
100
AcDbEntity
  8
GAIKEI
 62
     1
100
AcDbLine
 10
32.47828521075695
 20
19.79764245168309
 30
0.0
 11
32.23329350956334
 21
19.79764245168309
 31
0.0
  0
LINE
  5
175
330
2
100
AcDbEntity
  8
GAIKEI
 62
     1
100
AcDbLine
 10
32.97452130157387
 20
19.293637869181
 30
0.0
 11
32.97452130157387
 21
19.79764245168309
 31
0.0
  0
LINE
  5
176
330
2
100
AcDbEntity
  8
GAIKEI
 62
     1
100
AcDbLine
 10
32.72934012497325
 20
19.293637869181
 30
0.0
 11
32.97452130157387
 21
19.293637869181
 31
0.0
  0
LINE
  5
177
330
2
100
AcDbEntity
  8
GAIKEI
 62
     1
100
AcDbLine
 10
32.72934012497325
 20
19.79764245168309
 30
0.0
 11
32.72934012497325
 21
19.293637869181
 31
0.0
  0
LINE
  5
178
330
2
100
AcDbEntity
  8
GAIKEI
 62
     1
100
AcDbLine
 10
32.97452130157387
 20
19.79764245168309
 30
0.0
 11
32.72934012497325
 21
19.79764245168309
 31
0.0
  0
LINE
  5
179
330
2
100
AcDbEntity
  8
GAIKEI
 62
     1
100
AcDbLine
 10
33.47075739239074
 20
19.293637869181
 30
0.0
 11
33.47075739239074
 21
19.79764245168309
 31
0.0
  0
LINE
  5
17A
330
2
100
AcDbEntity
  8
GAIKEI
 62
     1
100
AcDbLine
 10
33.22576569119707
 20
19.293637869181
 30
0.0
 11
33.47075739239074
 21
19.293637869181
 31
0.0
  0
LINE
  5
17B
330
2
100
AcDbEntity
  8
GAIKEI
 62
     1
100
AcDbLine
 10
33.22576569119707
 20
19.79764245168309
 30
0.0
 11
33.22576569119707
 21
19.293637869181
 31
0.0
  0
LINE
  5
17C
330
2
100
AcDbEntity
  8
GAIKEI
 62
     1
100
AcDbLine
 10
33.47075739239074
 20
19.79764245168309
 30
0.0
 11
33.22576569119707
 21
19.79764245168309
 31
0.0
  0
LINE
  5
17D
330
2
100
AcDbEntity
  8
GAIKEI
 62
     1
100
AcDbLine
 10
33.96680400780065
 20
19.293637869181
 30
0.0
 11
33.96680400780065
 21
19.79764245168309
 31
0.0
  0
LINE
  5
17E
330
2
100
AcDbEntity
  8
GAIKEI
 62
     1
100
AcDbLine
 10
33.72162283120001
 20
19.293637869181
 30
0.0
 11
33.96680400780065
 21
19.293637869181
 31
0.0
  0
LINE
  5
17F
330
2
100
AcDbEntity
  8
GAIKEI
 62
     1
100
AcDbLine
 10
33.72162283120001
 20
19.79764245168309
 30
0.0
 11
33.72162283120001
 21
19.293637869181
 31
0.0
  0
LINE
  5
180
330
2
100
AcDbEntity
  8
GAIKEI
 62
     1
100
AcDbLine
 10
33.96680400780065
 20
19.79764245168309
 30
0.0
 11
33.72162283120001
 21
19.79764245168309
 31
0.0
  0
LINE
  5
181
330
2
100
AcDbEntity
  8
GAIKEI
 62
     1
100
AcDbLine
 10
26.52477844880321
 20
20.04926579212019
 30
0.0
 11
26.52477844880321
 21
20.55327037462223
 31
0.0
  0
LINE
  5
182
330
2
100
AcDbEntity
  8
GAIKEI
 62
     1
100
AcDbLine
 10
26.27978674760948
 20
20.04926579212019
 30
0.0
 11
26.52477844880321
 21
20.04926579212019
 31
0.0
  0
LINE
  5
183
330
2
100
AcDbEntity
  8
GAIKEI
 62
     1
100
AcDbLine
 10
26.27978674760948
 20
20.55327037462223
 30
0.0
 11
26.27978674760948
 21
20.04926579212019
 31
0.0
  0
LINE
  5
184
330
2
100
AcDbEntity
  8
GAIKEI
 62
     1
100
AcDbLine
 10
26.52477844880321
 20
20.55327037462223
 30
0.0
 11
26.27978674760948
 21
20.55327037462223
 31
0.0
  0
LINE
  5
185
330
2
100
AcDbEntity
  8
GAIKEI
 62
     1
100
AcDbLine
 10
27.02082506421311
 20
20.04926579212019
 30
0.0
 11
27.02082506421311
 21
20.55327037462223
 31
0.0
  0
LINE
  5
186
330
2
100
AcDbEntity
  8
GAIKEI
 62
     1
100
AcDbLine
 10
26.77583336301939
 20
20.04926579212019
 30
0.0
 11
27.02082506421311
 21
20.04926579212019
 31
0.0
  0
LINE
  5
187
330
2
100
AcDbEntity
  8
GAIKEI
 62
     1
100
AcDbLine
 10
26.77583336301939
 20
20.55327037462223
 30
0.0
 11
26.77583336301939
 21
20.04926579212019
 31
0.0
  0
LINE
  5
188
330
2
100
AcDbEntity
  8
GAIKEI
 62
     1
100
AcDbLine
 10
27.02082506421311
 20
20.55327037462223
 30
0.0
 11
26.77583336301939
 21
20.55327037462223
 31
0.0
  0
LINE
  5
189
330
2
100
AcDbEntity
  8
GAIKEI
 62
     1
100
AcDbLine
 10
27.51687167962302
 20
20.04926579212019
 30
0.0
 11
27.51687167962302
 21
20.55327037462223
 31
0.0
  0
LINE
  5
18A
330
2
100
AcDbEntity
  8
GAIKEI
 62
     1
100
AcDbLine
 10
27.2718799784293
 20
20.04926579212019
 30
0.0
 11
27.51687167962302
 21
20.04926579212019
 31
0.0
  0
LINE
  5
18B
330
2
100
AcDbEntity
  8
GAIKEI
 62
     1
100
AcDbLine
 10
27.2718799784293
 20
20.55327037462223
 30
0.0
 11
27.2718799784293
 21
20.04926579212019
 31
0.0
  0
LINE
  5
18C
330
2
100
AcDbEntity
  8
GAIKEI
 62
     1
100
AcDbLine
 10
27.51687167962302
 20
20.55327037462223
 30
0.0
 11
27.2718799784293
 21
20.55327037462223
 31
0.0
  0
LINE
  5
18D
330
2
100
AcDbEntity
  8
GAIKEI
 62
     1
100
AcDbLine
 10
28.01329724584686
 20
20.04926579212019
 30
0.0
 11
28.01329724584686
 21
20.55327037462223
 31
0.0
  0
LINE
  5
18E
330
2
100
AcDbEntity
  8
GAIKEI
 62
     1
100
AcDbLine
 10
27.76792659383926
 20
20.04926579212019
 30
0.0
 11
28.01329724584686
 21
20.04926579212019
 31
0.0
  0
LINE
  5
18F
330
2
100
AcDbEntity
  8
GAIKEI
 62
     1
100
AcDbLine
 10
27.76792659383926
 20
20.55327037462223
 30
0.0
 11
27.76792659383926
 21
20.04926579212019
 31
0.0
  0
LINE
  5
190
330
2
100
AcDbEntity
  8
GAIKEI
 62
     1
100
AcDbLine
 10
28.01329724584686
 20
20.55327037462223
 30
0.0
 11
27.76792659383926
 21
20.55327037462223
 31
0.0
  0
LINE
  5
191
330
2
100
AcDbEntity
  8
GAIKEI
 62
     1
100
AcDbLine
 10
28.5091543858498
 20
20.04926579212019
 30
0.0
 11
28.5091543858498
 21
20.55327037462223
 31
0.0
  0
LINE
  5
192
330
2
100
AcDbEntity
  8
GAIKEI
 62
     1
100
AcDbLine
 10
28.26416268465613
 20
20.04926579212019
 30
0.0
 11
28.5091543858498
 21
20.04926579212019
 31
0.0
  0
LINE
  5
193
330
2
100
AcDbEntity
  8
GAIKEI
 62
     1
100
AcDbLine
 10
28.26416268465613
 20
20.55327037462223
 30
0.0
 11
28.26416268465613
 21
20.04926579212019
 31
0.0
  0
LINE
  5
194
330
2
100
AcDbEntity
  8
GAIKEI
 62
     1
100
AcDbLine
 10
28.5091543858498
 20
20.55327037462223
 30
0.0
 11
28.26416268465613
 21
20.55327037462223
 31
0.0
  0
LINE
  5
195
330
2
100
AcDbEntity
  8
GAIKEI
 62
     1
100
AcDbLine
 10
29.00557995207362
 20
20.04926579212019
 30
0.0
 11
29.00557995207362
 21
20.55327037462223
 31
0.0
  0
LINE
  5
196
330
2
100
AcDbEntity
  8
GAIKEI
 62
     1
100
AcDbLine
 10
28.76039877547299
 20
20.04926579212019
 30
0.0
 11
29.00557995207362
 21
20.04926579212019
 31
0.0
  0
LINE
  5
197
330
2
100
AcDbEntity
  8
GAIKEI
 62
     1
100
AcDbLine
 10
28.76039877547299
 20
20.55327037462223
 30
0.0
 11
28.76039877547299
 21
20.04926579212019
 31
0.0
  0
LINE
  5
198
330
2
100
AcDbEntity
  8
GAIKEI
 62
     1
100
AcDbLine
 10
29.00557995207362
 20
20.55327037462223
 30
0.0
 11
28.76039877547299
 21
20.55327037462223
 31
0.0
  0
LINE
  5
199
330
2
100
AcDbEntity
  8
GAIKEI
 62
     1
100
AcDbLine
 10
29.50162656748359
 20
20.04926579212019
 30
0.0
 11
29.50162656748359
 21
20.55327037462223
 31
0.0
  0
LINE
  5
19A
330
2
100
AcDbEntity
  8
GAIKEI
 62
     1
100
AcDbLine
 10
29.25663486628991
 20
20.04926579212019
 30
0.0
 11
29.50162656748359
 21
20.04926579212019
 31
0.0
  0
LINE
  5
19B
330
2
100
AcDbEntity
  8
GAIKEI
 62
     1
100
AcDbLine
 10
29.25663486628991
 20
20.55327037462223
 30
0.0
 11
29.25663486628991
 21
20.04926579212019
 31
0.0
  0
LINE
  5
19C
330
2
100
AcDbEntity
  8
GAIKEI
 62
     1
100
AcDbLine
 10
29.50162656748359
 20
20.55327037462223
 30
0.0
 11
29.25663486628991
 21
20.55327037462223
 31
0.0
  0
LINE
  5
19D
330
2
100
AcDbEntity
  8
GAIKEI
 62
     1
100
AcDbLine
 10
29.99767318289349
 20
20.04926579212019
 30
0.0
 11
29.99767318289349
 21
20.55327037462223
 31
0.0
  0
LINE
  5
19E
330
2
100
AcDbEntity
  8
GAIKEI
 62
     1
100
AcDbLine
 10
29.75249200629287
 20
20.04926579212019
 30
0.0
 11
29.99767318289349
 21
20.04926579212019
 31
0.0
  0
LINE
  5
19F
330
2
100
AcDbEntity
  8
GAIKEI
 62
     1
100
AcDbLine
 10
29.75249200629287
 20
20.55327037462223
 30
0.0
 11
29.75249200629287
 21
20.04926579212019
 31
0.0
  0
LINE
  5
1A0
330
2
100
AcDbEntity
  8
GAIKEI
 62
     1
100
AcDbLine
 10
29.99767318289349
 20
20.55327037462223
 30
0.0
 11
29.75249200629287
 21
20.55327037462223
 31
0.0
  0
LINE
  5
1A1
330
2
100
AcDbEntity
  8
GAIKEI
 62
     1
100
AcDbLine
 10
30.49390927371036
 20
20.04926579212019
 30
0.0
 11
30.49390927371036
 21
20.55327037462223
 31
0.0
  0
LINE
  5
1A2
330
2
100
AcDbEntity
  8
GAIKEI
 62
     1
100
AcDbLine
 10
30.24872809710974
 20
20.04926579212019
 30
0.0
 11
30.49390927371036
 21
20.04926579212019
 31
0.0
  0
LINE
  5
1A3
330
2
100
AcDbEntity
  8
GAIKEI
 62
     1
100
AcDbLine
 10
30.24872809710974
 20
20.55327037462223
 30
0.0
 11
30.24872809710974
 21
20.04926579212019
 31
0.0
  0
LINE
  5
1A4
330
2
100
AcDbEntity
  8
GAIKEI
 62
     1
100
AcDbLine
 10
30.49390927371036
 20
20.55327037462223
 30
0.0
 11
30.24872809710974
 21
20.55327037462223
 31
0.0
  0
LINE
  5
1A5
330
2
100
AcDbEntity
  8
GAIKEI
 62
     1
100
AcDbLine
 10
30.98976641371331
 20
20.04926579212019
 30
0.0
 11
30.98976641371331
 21
20.55327037462223
 31
0.0
  0
LINE
  5
1A6
330
2
100
AcDbEntity
  8
GAIKEI
 62
     1
100
AcDbLine
 10
30.7449641879266
 20
20.04926579212019
 30
0.0
 11
30.98976641371331
 21
20.04926579212019
 31
0.0
  0
LINE
  5
1A7
330
2
100
AcDbEntity
  8
GAIKEI
 62
     1
100
AcDbLine
 10
30.7449641879266
 20
20.55327037462223
 30
0.0
 11
30.7449641879266
 21
20.04926579212019
 31
0.0
  0
LINE
  5
1A8
330
2
100
AcDbEntity
  8
GAIKEI
 62
     1
100
AcDbLine
 10
30.98976641371331
 20
20.55327037462223
 30
0.0
 11
30.7449641879266
 21
20.55327037462223
 31
0.0
  0
LINE
  5
1A9
330
2
100
AcDbEntity
  8
GAIKEI
 62
     1
100
AcDbLine
 10
31.48619197993713
 20
20.04926579212019
 30
0.0
 11
31.48619197993713
 21
20.55327037462223
 31
0.0
  0
LINE
  5
1AA
330
2
100
AcDbEntity
  8
GAIKEI
 62
     1
100
AcDbLine
 10
31.24101080333651
 20
20.04926579212019
 30
0.0
 11
31.48619197993713
 21
20.04926579212019
 31
0.0
  0
LINE
  5
1AB
330
2
100
AcDbEntity
  8
GAIKEI
 62
     1
100
AcDbLine
 10
31.24101080333651
 20
20.55327037462223
 30
0.0
 11
31.24101080333651
 21
20.04926579212019
 31
0.0
  0
LINE
  5
1AC
330
2
100
AcDbEntity
  8
GAIKEI
 62
     1
100
AcDbLine
 10
31.48619197993713
 20
20.55327037462223
 30
0.0
 11
31.24101080333651
 21
20.55327037462223
 31
0.0
  0
LINE
  5
1AD
330
2
100
AcDbEntity
  8
GAIKEI
 62
     1
100
AcDbLine
 10
31.982428070754
 20
20.04926579212019
 30
0.0
 11
31.982428070754
 21
20.55327037462223
 31
0.0
  0
LINE
  5
1AE
330
2
100
AcDbEntity
  8
GAIKEI
 62
     1
100
AcDbLine
 10
31.73705741874643
 20
20.04926579212019
 30
0.0
 11
31.982428070754
 21
20.04926579212019
 31
0.0
  0
LINE
  5
1AF
330
2
100
AcDbEntity
  8
GAIKEI
 62
     1
100
AcDbLine
 10
31.73705741874643
 20
20.55327037462223
 30
0.0
 11
31.73705741874643
 21
20.04926579212019
 31
0.0
  0
LINE
  5
1B0
330
2
100
AcDbEntity
  8
GAIKEI
 62
     1
100
AcDbLine
 10
31.982428070754
 20
20.55327037462223
 30
0.0
 11
31.73705741874643
 21
20.55327037462223
 31
0.0
  0
LINE
  5
1B1
330
2
100
AcDbEntity
  8
GAIKEI
 62
     1
100
AcDbLine
 10
32.47828521075695
 20
20.04926579212019
 30
0.0
 11
32.47828521075695
 21
20.55327037462223
 31
0.0
  0
LINE
  5
1B2
330
2
100
AcDbEntity
  8
GAIKEI
 62
     1
100
AcDbLine
 10
32.23329350956334
 20
20.04926579212019
 30
0.0
 11
32.47828521075695
 21
20.04926579212019
 31
0.0
  0
LINE
  5
1B3
330
2
100
AcDbEntity
  8
GAIKEI
 62
     1
100
AcDbLine
 10
32.23329350956334
 20
20.55327037462223
 30
0.0
 11
32.23329350956334
 21
20.04926579212019
 31
0.0
  0
LINE
  5
1B4
330
2
100
AcDbEntity
  8
GAIKEI
 62
     1
100
AcDbLine
 10
32.47828521075695
 20
20.55327037462223
 30
0.0
 11
32.23329350956334
 21
20.55327037462223
 31
0.0
  0
LINE
  5
1B5
330
2
100
AcDbEntity
  8
GAIKEI
 62
     1
100
AcDbLine
 10
32.97452130157387
 20
20.04926579212019
 30
0.0
 11
32.97452130157387
 21
20.55327037462223
 31
0.0
  0
LINE
  5
1B6
330
2
100
AcDbEntity
  8
GAIKEI
 62
     1
100
AcDbLine
 10
32.72934012497325
 20
20.04926579212019
 30
0.0
 11
32.97452130157387
 21
20.04926579212019
 31
0.0
  0
LINE
  5
1B7
330
2
100
AcDbEntity
  8
GAIKEI
 62
     1
100
AcDbLine
 10
32.72934012497325
 20
20.55327037462223
 30
0.0
 11
32.72934012497325
 21
20.04926579212019
 31
0.0
  0
LINE
  5
1B8
330
2
100
AcDbEntity
  8
GAIKEI
 62
     1
100
AcDbLine
 10
32.97452130157387
 20
20.55327037462223
 30
0.0
 11
32.72934012497325
 21
20.55327037462223
 31
0.0
  0
LINE
  5
1B9
330
2
100
AcDbEntity
  8
GAIKEI
 62
     1
100
AcDbLine
 10
33.47075739239074
 20
20.04926579212019
 30
0.0
 11
33.47075739239074
 21
20.55327037462223
 31
0.0
  0
LINE
  5
1BA
330
2
100
AcDbEntity
  8
GAIKEI
 62
     1
100
AcDbLine
 10
33.22576569119707
 20
20.04926579212019
 30
0.0
 11
33.47075739239074
 21
20.04926579212019
 31
0.0
  0
LINE
  5
1BB
330
2
100
AcDbEntity
  8
GAIKEI
 62
     1
100
AcDbLine
 10
33.22576569119707
 20
20.55327037462223
 30
0.0
 11
33.22576569119707
 21
20.04926579212019
 31
0.0
  0
LINE
  5
1BC
330
2
100
AcDbEntity
  8
GAIKEI
 62
     1
100
AcDbLine
 10
33.47075739239074
 20
20.55327037462223
 30
0.0
 11
33.22576569119707
 21
20.55327037462223
 31
0.0
  0
LINE
  5
1BD
330
2
100
AcDbEntity
  8
GAIKEI
 62
     1
100
AcDbLine
 10
33.96680400780065
 20
20.04926579212019
 30
0.0
 11
33.96680400780065
 21
20.55327037462223
 31
0.0
  0
LINE
  5
1BE
330
2
100
AcDbEntity
  8
GAIKEI
 62
     1
100
AcDbLine
 10
33.72162283120001
 20
20.04926579212019
 30
0.0
 11
33.96680400780065
 21
20.04926579212019
 31
0.0
  0
LINE
  5
1BF
330
2
100
AcDbEntity
  8
GAIKEI
 62
     1
100
AcDbLine
 10
33.72162283120001
 20
20.55327037462223
 30
0.0
 11
33.72162283120001
 21
20.04926579212019
 31
0.0
  0
LINE
  5
1C0
330
2
100
AcDbEntity
  8
GAIKEI
 62
     1
100
AcDbLine
 10
33.96680400780065
 20
20.55327037462223
 30
0.0
 11
33.72162283120001
 21
20.55327037462223
 31
0.0
  0
LINE
  5
1C1
330
2
100
AcDbEntity
  8
GAIKEI
 62
     1
100
AcDbLine
 10
26.52477844880321
 20
20.80470423965244
 30
0.0
 11
26.52477844880321
 21
21.30870882215447
 31
0.0
  0
LINE
  5
1C2
330
2
100
AcDbEntity
  8
GAIKEI
 62
     1
100
AcDbLine
 10
26.27978674760948
 20
20.80470423965244
 30
0.0
 11
26.52477844880321
 21
20.80470423965244
 31
0.0
  0
LINE
  5
1C3
330
2
100
AcDbEntity
  8
GAIKEI
 62
     1
100
AcDbLine
 10
26.27978674760948
 20
21.30870882215447
 30
0.0
 11
26.27978674760948
 21
20.80470423965244
 31
0.0
  0
LINE
  5
1C4
330
2
100
AcDbEntity
  8
GAIKEI
 62
     1
100
AcDbLine
 10
26.52477844880321
 20
21.30870882215447
 30
0.0
 11
26.27978674760948
 21
21.30870882215447
 31
0.0
  0
LINE
  5
1C5
330
2
100
AcDbEntity
  8
GAIKEI
 62
     1
100
AcDbLine
 10
27.02082506421311
 20
20.80470423965244
 30
0.0
 11
27.02082506421311
 21
21.30870882215447
 31
0.0
  0
LINE
  5
1C6
330
2
100
AcDbEntity
  8
GAIKEI
 62
     1
100
AcDbLine
 10
26.77583336301939
 20
20.80470423965244
 30
0.0
 11
27.02082506421311
 21
20.80470423965244
 31
0.0
  0
LINE
  5
1C7
330
2
100
AcDbEntity
  8
GAIKEI
 62
     1
100
AcDbLine
 10
26.77583336301939
 20
21.30870882215447
 30
0.0
 11
26.77583336301939
 21
20.80470423965244
 31
0.0
  0
LINE
  5
1C8
330
2
100
AcDbEntity
  8
GAIKEI
 62
     1
100
AcDbLine
 10
27.02082506421311
 20
21.30870882215447
 30
0.0
 11
26.77583336301939
 21
21.30870882215447
 31
0.0
  0
LINE
  5
1C9
330
2
100
AcDbEntity
  8
GAIKEI
 62
     1
100
AcDbLine
 10
27.51687167962302
 20
20.80470423965244
 30
0.0
 11
27.51687167962302
 21
21.30870882215447
 31
0.0
  0
LINE
  5
1CA
330
2
100
AcDbEntity
  8
GAIKEI
 62
     1
100
AcDbLine
 10
27.2718799784293
 20
20.80470423965244
 30
0.0
 11
27.51687167962302
 21
20.80470423965244
 31
0.0
  0
LINE
  5
1CB
330
2
100
AcDbEntity
  8
GAIKEI
 62
     1
100
AcDbLine
 10
27.2718799784293
 20
21.30870882215447
 30
0.0
 11
27.2718799784293
 21
20.80470423965244
 31
0.0
  0
LINE
  5
1CC
330
2
100
AcDbEntity
  8
GAIKEI
 62
     1
100
AcDbLine
 10
27.51687167962302
 20
21.30870882215447
 30
0.0
 11
27.2718799784293
 21
21.30870882215447
 31
0.0
  0
LINE
  5
1CD
330
2
100
AcDbEntity
  8
GAIKEI
 62
     1
100
AcDbLine
 10
28.01329724584686
 20
20.80470423965244
 30
0.0
 11
28.01329724584686
 21
21.30870882215447
 31
0.0
  0
LINE
  5
1CE
330
2
100
AcDbEntity
  8
GAIKEI
 62
     1
100
AcDbLine
 10
27.76792659383926
 20
20.80470423965244
 30
0.0
 11
28.01329724584686
 21
20.80470423965244
 31
0.0
  0
LINE
  5
1CF
330
2
100
AcDbEntity
  8
GAIKEI
 62
     1
100
AcDbLine
 10
27.76792659383926
 20
21.30870882215447
 30
0.0
 11
27.76792659383926
 21
20.80470423965244
 31
0.0
  0
LINE
  5
1D0
330
2
100
AcDbEntity
  8
GAIKEI
 62
     1
100
AcDbLine
 10
28.01329724584686
 20
21.30870882215447
 30
0.0
 11
27.76792659383926
 21
21.30870882215447
 31
0.0
  0
LINE
  5
1D1
330
2
100
AcDbEntity
  8
GAIKEI
 62
     1
100
AcDbLine
 10
28.5091543858498
 20
20.80470423965244
 30
0.0
 11
28.5091543858498
 21
21.30870882215447
 31
0.0
  0
LINE
  5
1D2
330
2
100
AcDbEntity
  8
GAIKEI
 62
     1
100
AcDbLine
 10
28.26416268465613
 20
20.80470423965244
 30
0.0
 11
28.5091543858498
 21
20.80470423965244
 31
0.0
  0
LINE
  5
1D3
330
2
100
AcDbEntity
  8
GAIKEI
 62
     1
100
AcDbLine
 10
28.26416268465613
 20
21.30870882215447
 30
0.0
 11
28.26416268465613
 21
20.80470423965244
 31
0.0
  0
LINE
  5
1D4
330
2
100
AcDbEntity
  8
GAIKEI
 62
     1
100
AcDbLine
 10
28.5091543858498
 20
21.30870882215447
 30
0.0
 11
28.26416268465613
 21
21.30870882215447
 31
0.0
  0
LINE
  5
1D5
330
2
100
AcDbEntity
  8
GAIKEI
 62
     1
100
AcDbLine
 10
29.00557995207362
 20
20.80470423965244
 30
0.0
 11
29.00557995207362
 21
21.30870882215447
 31
0.0
  0
LINE
  5
1D6
330
2
100
AcDbEntity
  8
GAIKEI
 62
     1
100
AcDbLine
 10
28.76039877547299
 20
20.80470423965244
 30
0.0
 11
29.00557995207362
 21
20.80470423965244
 31
0.0
  0
LINE
  5
1D7
330
2
100
AcDbEntity
  8
GAIKEI
 62
     1
100
AcDbLine
 10
28.76039877547299
 20
21.30870882215447
 30
0.0
 11
28.76039877547299
 21
20.80470423965244
 31
0.0
  0
LINE
  5
1D8
330
2
100
AcDbEntity
  8
GAIKEI
 62
     1
100
AcDbLine
 10
29.00557995207362
 20
21.30870882215447
 30
0.0
 11
28.76039877547299
 21
21.30870882215447
 31
0.0
  0
LINE
  5
1D9
330
2
100
AcDbEntity
  8
GAIKEI
 62
     1
100
AcDbLine
 10
29.50162656748359
 20
20.80470423965244
 30
0.0
 11
29.50162656748359
 21
21.30870882215447
 31
0.0
  0
LINE
  5
1DA
330
2
100
AcDbEntity
  8
GAIKEI
 62
     1
100
AcDbLine
 10
29.25663486628991
 20
20.80470423965244
 30
0.0
 11
29.50162656748359
 21
20.80470423965244
 31
0.0
  0
LINE
  5
1DB
330
2
100
AcDbEntity
  8
GAIKEI
 62
     1
100
AcDbLine
 10
29.25663486628991
 20
21.30870882215447
 30
0.0
 11
29.25663486628991
 21
20.80470423965244
 31
0.0
  0
LINE
  5
1DC
330
2
100
AcDbEntity
  8
GAIKEI
 62
     1
100
AcDbLine
 10
29.50162656748359
 20
21.30870882215447
 30
0.0
 11
29.25663486628991
 21
21.30870882215447
 31
0.0
  0
LINE
  5
1DD
330
2
100
AcDbEntity
  8
GAIKEI
 62
     1
100
AcDbLine
 10
29.99767318289349
 20
20.80470423965244
 30
0.0
 11
29.99767318289349
 21
21.30870882215447
 31
0.0
  0
LINE
  5
1DE
330
2
100
AcDbEntity
  8
GAIKEI
 62
     1
100
AcDbLine
 10
29.75249200629287
 20
20.80470423965244
 30
0.0
 11
29.99767318289349
 21
20.80470423965244
 31
0.0
  0
LINE
  5
1DF
330
2
100
AcDbEntity
  8
GAIKEI
 62
     1
100
AcDbLine
 10
29.75249200629287
 20
21.30870882215447
 30
0.0
 11
29.75249200629287
 21
20.80470423965244
 31
0.0
  0
LINE
  5
1E0
330
2
100
AcDbEntity
  8
GAIKEI
 62
     1
100
AcDbLine
 10
29.99767318289349
 20
21.30870882215447
 30
0.0
 11
29.75249200629287
 21
21.30870882215447
 31
0.0
  0
LINE
  5
1E1
330
2
100
AcDbEntity
  8
GAIKEI
 62
     1
100
AcDbLine
 10
30.49390927371036
 20
20.80470423965244
 30
0.0
 11
30.49390927371036
 21
21.30870882215447
 31
0.0
  0
LINE
  5
1E2
330
2
100
AcDbEntity
  8
GAIKEI
 62
     1
100
AcDbLine
 10
30.24872809710968
 20
20.80470423965244
 30
0.0
 11
30.49390927371036
 21
20.80470423965244
 31
0.0
  0
LINE
  5
1E3
330
2
100
AcDbEntity
  8
GAIKEI
 62
     1
100
AcDbLine
 10
30.24872809710968
 20
21.30870882215447
 30
0.0
 11
30.24872809710968
 21
20.80470423965244
 31
0.0
  0
LINE
  5
1E4
330
2
100
AcDbEntity
  8
GAIKEI
 62
     1
100
AcDbLine
 10
30.49390927371036
 20
21.30870882215447
 30
0.0
 11
30.24872809710968
 21
21.30870882215447
 31
0.0
  0
LINE
  5
1E5
330
2
100
AcDbEntity
  8
GAIKEI
 62
     1
100
AcDbLine
 10
30.98976641371331
 20
20.80470423965244
 30
0.0
 11
30.98976641371331
 21
21.30870882215447
 31
0.0
  0
LINE
  5
1E6
330
2
100
AcDbEntity
  8
GAIKEI
 62
     1
100
AcDbLine
 10
30.7449641879266
 20
20.80470423965244
 30
0.0
 11
30.98976641371331
 21
20.80470423965244
 31
0.0
  0
LINE
  5
1E7
330
2
100
AcDbEntity
  8
GAIKEI
 62
     1
100
AcDbLine
 10
30.7449641879266
 20
21.30870882215447
 30
0.0
 11
30.7449641879266
 21
20.80470423965244
 31
0.0
  0
LINE
  5
1E8
330
2
100
AcDbEntity
  8
GAIKEI
 62
     1
100
AcDbLine
 10
30.98976641371331
 20
21.30870882215447
 30
0.0
 11
30.7449641879266
 21
21.30870882215447
 31
0.0
  0
LINE
  5
1E9
330
2
100
AcDbEntity
  8
GAIKEI
 62
     1
100
AcDbLine
 10
31.48619197993713
 20
20.80470423965244
 30
0.0
 11
31.48619197993713
 21
21.30870882215447
 31
0.0
  0
LINE
  5
1EA
330
2
100
AcDbEntity
  8
GAIKEI
 62
     1
100
AcDbLine
 10
31.24101080333651
 20
20.80470423965244
 30
0.0
 11
31.48619197993713
 21
20.80470423965244
 31
0.0
  0
LINE
  5
1EB
330
2
100
AcDbEntity
  8
GAIKEI
 62
     1
100
AcDbLine
 10
31.24101080333651
 20
21.30870882215447
 30
0.0
 11
31.24101080333651
 21
20.80470423965244
 31
0.0
  0
LINE
  5
1EC
330
2
100
AcDbEntity
  8
GAIKEI
 62
     1
100
AcDbLine
 10
31.48619197993713
 20
21.30870882215447
 30
0.0
 11
31.24101080333651
 21
21.30870882215447
 31
0.0
  0
LINE
  5
1ED
330
2
100
AcDbEntity
  8
GAIKEI
 62
     1
100
AcDbLine
 10
31.982428070754
 20
20.80470423965244
 30
0.0
 11
31.982428070754
 21
21.30870882215447
 31
0.0
  0
LINE
  5
1EE
330
2
100
AcDbEntity
  8
GAIKEI
 62
     1
100
AcDbLine
 10
31.73705741874643
 20
20.80470423965244
 30
0.0
 11
31.982428070754
 21
20.80470423965244
 31
0.0
  0
LINE
  5
1EF
330
2
100
AcDbEntity
  8
GAIKEI
 62
     1
100
AcDbLine
 10
31.73705741874643
 20
21.30870882215447
 30
0.0
 11
31.73705741874643
 21
20.80470423965244
 31
0.0
  0
LINE
  5
1F0
330
2
100
AcDbEntity
  8
GAIKEI
 62
     1
100
AcDbLine
 10
31.982428070754
 20
21.30870882215447
 30
0.0
 11
31.73705741874643
 21
21.30870882215447
 31
0.0
  0
LINE
  5
1F1
330
2
100
AcDbEntity
  8
GAIKEI
 62
     1
100
AcDbLine
 10
32.47828521075695
 20
20.80470423965244
 30
0.0
 11
32.47828521075695
 21
21.30870882215447
 31
0.0
  0
LINE
  5
1F2
330
2
100
AcDbEntity
  8
GAIKEI
 62
     1
100
AcDbLine
 10
32.23329350956334
 20
20.80470423965244
 30
0.0
 11
32.47828521075695
 21
20.80470423965244
 31
0.0
  0
LINE
  5
1F3
330
2
100
AcDbEntity
  8
GAIKEI
 62
     1
100
AcDbLine
 10
32.23329350956334
 20
21.30870882215447
 30
0.0
 11
32.23329350956334
 21
20.80470423965244
 31
0.0
  0
LINE
  5
1F4
330
2
100
AcDbEntity
  8
GAIKEI
 62
     1
100
AcDbLine
 10
32.47828521075695
 20
21.30870882215447
 30
0.0
 11
32.23329350956334
 21
21.30870882215447
 31
0.0
  0
LINE
  5
1F5
330
2
100
AcDbEntity
  8
GAIKEI
 62
     1
100
AcDbLine
 10
32.97452130157387
 20
20.80470423965244
 30
0.0
 11
32.97452130157387
 21
21.30870882215447
 31
0.0
  0
LINE
  5
1F6
330
2
100
AcDbEntity
  8
GAIKEI
 62
     1
100
AcDbLine
 10
32.72934012497325
 20
20.80470423965244
 30
0.0
 11
32.97452130157387
 21
20.80470423965244
 31
0.0
  0
LINE
  5
1F7
330
2
100
AcDbEntity
  8
GAIKEI
 62
     1
100
AcDbLine
 10
32.72934012497325
 20
21.30870882215447
 30
0.0
 11
32.72934012497325
 21
20.80470423965244
 31
0.0
  0
LINE
  5
1F8
330
2
100
AcDbEntity
  8
GAIKEI
 62
     1
100
AcDbLine
 10
32.97452130157387
 20
21.30870882215447
 30
0.0
 11
32.72934012497325
 21
21.30870882215447
 31
0.0
  0
LINE
  5
1F9
330
2
100
AcDbEntity
  8
GAIKEI
 62
     1
100
AcDbLine
 10
33.47075739239074
 20
20.80470423965244
 30
0.0
 11
33.47075739239074
 21
21.30870882215447
 31
0.0
  0
LINE
  5
1FA
330
2
100
AcDbEntity
  8
GAIKEI
 62
     1
100
AcDbLine
 10
33.22576569119707
 20
20.80470423965244
 30
0.0
 11
33.47075739239074
 21
20.80470423965244
 31
0.0
  0
LINE
  5
1FB
330
2
100
AcDbEntity
  8
GAIKEI
 62
     1
100
AcDbLine
 10
33.22576569119707
 20
21.30870882215447
 30
0.0
 11
33.22576569119707
 21
20.80470423965244
 31
0.0
  0
LINE
  5
1FC
330
2
100
AcDbEntity
  8
GAIKEI
 62
     1
100
AcDbLine
 10
33.47075739239074
 20
21.30870882215447
 30
0.0
 11
33.22576569119707
 21
21.30870882215447
 31
0.0
  0
LINE
  5
1FD
330
2
100
AcDbEntity
  8
GAIKEI
 62
     1
100
AcDbLine
 10
33.96680400780065
 20
20.80470423965244
 30
0.0
 11
33.96680400780065
 21
21.30870882215447
 31
0.0
  0
LINE
  5
1FE
330
2
100
AcDbEntity
  8
GAIKEI
 62
     1
100
AcDbLine
 10
33.72162283120001
 20
20.80470423965244
 30
0.0
 11
33.96680400780065
 21
20.80470423965244
 31
0.0
  0
LINE
  5
1FF
330
2
100
AcDbEntity
  8
GAIKEI
 62
     1
100
AcDbLine
 10
33.72162283120001
 20
21.30870882215447
 30
0.0
 11
33.72162283120001
 21
20.80470423965244
 31
0.0
  0
LINE
  5
200
330
2
100
AcDbEntity
  8
GAIKEI
 62
     1
100
AcDbLine
 10
33.96680400780065
 20
21.30870882215447
 30
0.0
 11
33.72162283120001
 21
21.30870882215447
 31
0.0
  0
LINE
  5
201
330
2
100
AcDbEntity
  8
GAIKEI
 62
     1
100
AcDbLine
 10
35.18304664504905
 20
16.83007862794352
 30
0.0
 11
35.18304664504905
 21
17.33427268585251
 31
0.0
  0
LINE
  5
202
330
2
100
AcDbEntity
  8
GAIKEI
 62
     1
100
AcDbLine
 10
34.93805494385539
 20
16.83007862794352
 30
0.0
 11
35.18304664504905
 21
16.83007862794352
 31
0.0
  0
LINE
  5
203
330
2
100
AcDbEntity
  8
GAIKEI
 62
     1
100
AcDbLine
 10
34.93805494385539
 20
17.33427268585251
 30
0.0
 11
34.93805494385539
 21
16.83007862794352
 31
0.0
  0
LINE
  5
204
330
2
100
AcDbEntity
  8
GAIKEI
 62
     1
100
AcDbLine
 10
35.18304664504905
 20
17.33427268585251
 30
0.0
 11
34.93805494385539
 21
17.33427268585251
 31
0.0
  0
LINE
  5
205
330
2
100
AcDbEntity
  8
GAIKEI
 62
     1
100
AcDbLine
 10
35.67909326045896
 20
16.83007862794352
 30
0.0
 11
35.67909326045896
 21
17.33427268585251
 31
0.0
  0
LINE
  5
206
330
2
100
AcDbEntity
  8
GAIKEI
 62
     1
100
AcDbLine
 10
35.43410155926529
 20
16.83007862794352
 30
0.0
 11
35.67909326045896
 21
16.83007862794352
 31
0.0
  0
LINE
  5
207
330
2
100
AcDbEntity
  8
GAIKEI
 62
     1
100
AcDbLine
 10
35.43410155926529
 20
17.33427268585251
 30
0.0
 11
35.43410155926529
 21
16.83007862794352
 31
0.0
  0
LINE
  5
208
330
2
100
AcDbEntity
  8
GAIKEI
 62
     1
100
AcDbLine
 10
35.67909326045896
 20
17.33427268585251
 30
0.0
 11
35.43410155926529
 21
17.33427268585251
 31
0.0
  0
LINE
  5
209
330
2
100
AcDbEntity
  8
GAIKEI
 62
     1
100
AcDbLine
 10
36.1754240889793
 20
16.83007862794352
 30
0.0
 11
36.1754240889793
 21
17.33427268585251
 31
0.0
  0
LINE
  5
20A
330
2
100
AcDbEntity
  8
GAIKEI
 62
     1
100
AcDbLine
 10
35.9301481746752
 20
16.83007862794352
 30
0.0
 11
36.1754240889793
 21
16.83007862794352
 31
0.0
  0
LINE
  5
20B
330
2
100
AcDbEntity
  8
GAIKEI
 62
     1
100
AcDbLine
 10
35.9301481746752
 20
17.33427268585251
 30
0.0
 11
35.9301481746752
 21
16.83007862794352
 31
0.0
  0
LINE
  5
20C
330
2
100
AcDbEntity
  8
GAIKEI
 62
     1
100
AcDbLine
 10
36.1754240889793
 20
17.33427268585251
 30
0.0
 11
35.9301481746752
 21
17.33427268585251
 31
0.0
  0
LINE
  5
20D
330
2
100
AcDbEntity
  8
GAIKEI
 62
     1
100
AcDbLine
 10
36.67156544209269
 20
16.83007862794352
 30
0.0
 11
36.67156544209269
 21
17.33427268585251
 31
0.0
  0
LINE
  5
20E
330
2
100
AcDbEntity
  8
GAIKEI
 62
     1
100
AcDbLine
 10
36.42647900319554
 20
16.83007862794352
 30
0.0
 11
36.67156544209269
 21
16.83007862794352
 31
0.0
  0
LINE
  5
20F
330
2
100
AcDbEntity
  8
GAIKEI
 62
     1
100
AcDbLine
 10
36.42647900319554
 20
17.33427268585251
 30
0.0
 11
36.42647900319554
 21
16.83007862794352
 31
0.0
  0
LINE
  5
210
330
2
100
AcDbEntity
  8
GAIKEI
 62
     1
100
AcDbLine
 10
36.67156544209269
 20
17.33427268585251
 30
0.0
 11
36.42647900319554
 21
17.33427268585251
 31
0.0
  0
LINE
  5
211
330
2
100
AcDbEntity
  8
GAIKEI
 62
     1
100
AcDbLine
 10
37.16761205750265
 20
16.83007862794352
 30
0.0
 11
37.16761205750265
 21
17.33427268585251
 31
0.0
  0
LINE
  5
212
330
2
100
AcDbEntity
  8
GAIKEI
 62
     1
100
AcDbLine
 10
36.92262035630893
 20
16.83007862794352
 30
0.0
 11
37.16761205750265
 21
16.83007862794352
 31
0.0
  0
LINE
  5
213
330
2
100
AcDbEntity
  8
GAIKEI
 62
     1
100
AcDbLine
 10
36.92262035630893
 20
17.33427268585251
 30
0.0
 11
36.92262035630893
 21
16.83007862794352
 31
0.0
  0
LINE
  5
214
330
2
100
AcDbEntity
  8
GAIKEI
 62
     1
100
AcDbLine
 10
37.16761205750265
 20
17.33427268585251
 30
0.0
 11
36.92262035630893
 21
17.33427268585251
 31
0.0
  0
LINE
  5
215
330
2
100
AcDbEntity
  8
GAIKEI
 62
     1
100
AcDbLine
 10
37.66375341061604
 20
16.83007862794352
 30
0.0
 11
37.66375341061604
 21
17.33427268585251
 31
0.0
  0
LINE
  5
216
330
2
100
AcDbEntity
  8
GAIKEI
 62
     1
100
AcDbLine
 10
37.41847749631189
 20
16.83007862794352
 30
0.0
 11
37.66375341061604
 21
16.83007862794352
 31
0.0
  0
LINE
  5
217
330
2
100
AcDbEntity
  8
GAIKEI
 62
     1
100
AcDbLine
 10
37.41847749631189
 20
17.33427268585251
 30
0.0
 11
37.41847749631189
 21
16.83007862794352
 31
0.0
  0
LINE
  5
218
330
2
100
AcDbEntity
  8
GAIKEI
 62
     1
100
AcDbLine
 10
37.66375341061604
 20
17.33427268585251
 30
0.0
 11
37.41847749631189
 21
17.33427268585251
 31
0.0
  0
LINE
  5
219
330
2
100
AcDbEntity
  8
GAIKEI
 62
     1
100
AcDbLine
 10
38.15989476372943
 20
16.83007862794352
 30
0.0
 11
38.15989476372943
 21
17.33427268585251
 31
0.0
  0
LINE
  5
21A
330
2
100
AcDbEntity
  8
GAIKEI
 62
     1
100
AcDbLine
 10
37.91480832483228
 20
16.83007862794352
 30
0.0
 11
38.15989476372943
 21
16.83007862794352
 31
0.0
  0
LINE
  5
21B
330
2
100
AcDbEntity
  8
GAIKEI
 62
     1
100
AcDbLine
 10
37.91480832483228
 20
17.33427268585251
 30
0.0
 11
37.91480832483228
 21
16.83007862794352
 31
0.0
  0
LINE
  5
21C
330
2
100
AcDbEntity
  8
GAIKEI
 62
     1
100
AcDbLine
 10
38.15989476372943
 20
17.33427268585251
 30
0.0
 11
37.91480832483228
 21
17.33427268585251
 31
0.0
  0
LINE
  5
21D
330
2
100
AcDbEntity
  8
GAIKEI
 62
     1
100
AcDbLine
 10
38.65603611684282
 20
16.83007862794352
 30
0.0
 11
38.65603611684282
 21
17.33427268585251
 31
0.0
  0
LINE
  5
21E
330
2
100
AcDbEntity
  8
GAIKEI
 62
     1
100
AcDbLine
 10
38.41094967794568
 20
16.83007862794352
 30
0.0
 11
38.65603611684282
 21
16.83007862794352
 31
0.0
  0
LINE
  5
21F
330
2
100
AcDbEntity
  8
GAIKEI
 62
     1
100
AcDbLine
 10
38.41094967794568
 20
17.33427268585251
 30
0.0
 11
38.41094967794568
 21
16.83007862794352
 31
0.0
  0
LINE
  5
220
330
2
100
AcDbEntity
  8
GAIKEI
 62
     1
100
AcDbLine
 10
38.65603611684282
 20
17.33427268585251
 30
0.0
 11
38.41094967794568
 21
17.33427268585251
 31
0.0
  0
LINE
  5
221
330
2
100
AcDbEntity
  8
GAIKEI
 62
     1
100
AcDbLine
 10
39.15208273225271
 20
16.83007862794352
 30
0.0
 11
39.15208273225271
 21
17.33427268585251
 31
0.0
  0
LINE
  5
222
330
2
100
AcDbEntity
  8
GAIKEI
 62
     1
100
AcDbLine
 10
38.90709103105905
 20
16.83007862794352
 30
0.0
 11
39.15208273225271
 21
16.83007862794352
 31
0.0
  0
LINE
  5
223
330
2
100
AcDbEntity
  8
GAIKEI
 62
     1
100
AcDbLine
 10
38.90709103105905
 20
17.33427268585251
 30
0.0
 11
38.90709103105905
 21
16.83007862794352
 31
0.0
  0
LINE
  5
224
330
2
100
AcDbEntity
  8
GAIKEI
 62
     1
100
AcDbLine
 10
39.15208273225271
 20
17.33427268585251
 30
0.0
 11
38.90709103105905
 21
17.33427268585251
 31
0.0
  0
LINE
  5
225
330
2
100
AcDbEntity
  8
GAIKEI
 62
     1
100
AcDbLine
 10
39.64822408536611
 20
16.83007862794352
 30
0.0
 11
39.64822408536611
 21
17.33427268585251
 31
0.0
  0
LINE
  5
226
330
2
100
AcDbEntity
  8
GAIKEI
 62
     1
100
AcDbLine
 10
39.40313764646896
 20
16.83007862794352
 30
0.0
 11
39.64822408536611
 21
16.83007862794352
 31
0.0
  0
LINE
  5
227
330
2
100
AcDbEntity
  8
GAIKEI
 62
     1
100
AcDbLine
 10
39.40313764646896
 20
17.33427268585251
 30
0.0
 11
39.40313764646896
 21
16.83007862794352
 31
0.0
  0
LINE
  5
228
330
2
100
AcDbEntity
  8
GAIKEI
 62
     1
100
AcDbLine
 10
39.64822408536611
 20
17.33427268585251
 30
0.0
 11
39.40313764646896
 21
17.33427268585251
 31
0.0
  0
LINE
  5
229
330
2
100
AcDbEntity
  8
GAIKEI
 62
     1
100
AcDbLine
 10
40.14455491388651
 20
16.83007862794352
 30
0.0
 11
40.14455491388651
 21
17.33427268585251
 31
0.0
  0
LINE
  5
22A
330
2
100
AcDbEntity
  8
GAIKEI
 62
     1
100
AcDbLine
 10
39.89946847498931
 20
16.83007862794352
 30
0.0
 11
40.14455491388651
 21
16.83007862794352
 31
0.0
  0
LINE
  5
22B
330
2
100
AcDbEntity
  8
GAIKEI
 62
     1
100
AcDbLine
 10
39.89946847498931
 20
17.33427268585251
 30
0.0
 11
39.89946847498931
 21
16.83007862794352
 31
0.0
  0
LINE
  5
22C
330
2
100
AcDbEntity
  8
GAIKEI
 62
     1
100
AcDbLine
 10
40.14455491388651
 20
17.33427268585251
 30
0.0
 11
39.89946847498931
 21
17.33427268585251
 31
0.0
  0
LINE
  5
22D
330
2
100
AcDbEntity
  8
GAIKEI
 62
     1
100
AcDbLine
 10
40.64069626699988
 20
16.83007862794352
 30
0.0
 11
40.64069626699988
 21
17.33427268585251
 31
0.0
  0
LINE
  5
22E
330
2
100
AcDbEntity
  8
GAIKEI
 62
     1
100
AcDbLine
 10
40.39560982810274
 20
16.83007862794352
 30
0.0
 11
40.64069626699988
 21
16.83007862794352
 31
0.0
  0
LINE
  5
22F
330
2
100
AcDbEntity
  8
GAIKEI
 62
     1
100
AcDbLine
 10
40.39560982810274
 20
17.33427268585251
 30
0.0
 11
40.39560982810274
 21
16.83007862794352
 31
0.0
  0
LINE
  5
230
330
2
100
AcDbEntity
  8
GAIKEI
 62
     1
100
AcDbLine
 10
40.64069626699988
 20
17.33427268585251
 30
0.0
 11
40.39560982810274
 21
17.33427268585251
 31
0.0
  0
LINE
  5
231
330
2
100
AcDbEntity
  8
GAIKEI
 62
     1
100
AcDbLine
 10
41.1367428824098
 20
16.83007862794352
 30
0.0
 11
41.1367428824098
 21
17.33427268585251
 31
0.0
  0
LINE
  5
232
330
2
100
AcDbEntity
  8
GAIKEI
 62
     1
100
AcDbLine
 10
40.89175118121613
 20
16.83007862794352
 30
0.0
 11
41.1367428824098
 21
16.83007862794352
 31
0.0
  0
LINE
  5
233
330
2
100
AcDbEntity
  8
GAIKEI
 62
     1
100
AcDbLine
 10
40.89175118121613
 20
17.33427268585251
 30
0.0
 11
40.89175118121613
 21
16.83007862794352
 31
0.0
  0
LINE
  5
234
330
2
100
AcDbEntity
  8
GAIKEI
 62
     1
100
AcDbLine
 10
41.1367428824098
 20
17.33427268585251
 30
0.0
 11
40.89175118121613
 21
17.33427268585251
 31
0.0
  0
LINE
  5
235
330
2
100
AcDbEntity
  8
GAIKEI
 62
     1
100
AcDbLine
 10
41.63288423552319
 20
16.83007862794352
 30
0.0
 11
41.63288423552319
 21
17.33427268585251
 31
0.0
  0
LINE
  5
236
330
2
100
AcDbEntity
  8
GAIKEI
 62
     1
100
AcDbLine
 10
41.38779779662605
 20
16.83007862794352
 30
0.0
 11
41.63288423552319
 21
16.83007862794352
 31
0.0
  0
LINE
  5
237
330
2
100
AcDbEntity
  8
GAIKEI
 62
     1
100
AcDbLine
 10
41.38779779662605
 20
17.33427268585251
 30
0.0
 11
41.38779779662605
 21
16.83007862794352
 31
0.0
  0
LINE
  5
238
330
2
100
AcDbEntity
  8
GAIKEI
 62
     1
100
AcDbLine
 10
41.63288423552319
 20
17.33427268585251
 30
0.0
 11
41.38779779662605
 21
17.33427268585251
 31
0.0
  0
LINE
  5
239
330
2
100
AcDbEntity
  8
GAIKEI
 62
     1
100
AcDbLine
 10
42.12902558863663
 20
16.83007862794352
 30
0.0
 11
42.12902558863663
 21
17.33427268585251
 31
0.0
  0
LINE
  5
23A
330
2
100
AcDbEntity
  8
GAIKEI
 62
     1
100
AcDbLine
 10
41.88393914973942
 20
16.83007862794352
 30
0.0
 11
42.12902558863663
 21
16.83007862794352
 31
0.0
  0
LINE
  5
23B
330
2
100
AcDbEntity
  8
GAIKEI
 62
     1
100
AcDbLine
 10
41.88393914973942
 20
17.33427268585251
 30
0.0
 11
41.88393914973942
 21
16.83007862794352
 31
0.0
  0
LINE
  5
23C
330
2
100
AcDbEntity
  8
GAIKEI
 62
     1
100
AcDbLine
 10
42.12902558863663
 20
17.33427268585251
 30
0.0
 11
41.88393914973942
 21
17.33427268585251
 31
0.0
  0
LINE
  5
23D
330
2
100
AcDbEntity
  8
GAIKEI
 62
     1
100
AcDbLine
 10
42.62507220404653
 20
16.83007862794352
 30
0.0
 11
42.62507220404653
 21
17.33427268585251
 31
0.0
  0
LINE
  5
23E
330
2
100
AcDbEntity
  8
GAIKEI
 62
     1
100
AcDbLine
 10
42.38008050285282
 20
16.83007862794352
 30
0.0
 11
42.62507220404653
 21
16.83007862794352
 31
0.0
  0
LINE
  5
23F
330
2
100
AcDbEntity
  8
GAIKEI
 62
     1
100
AcDbLine
 10
42.38008050285282
 20
17.33427268585251
 30
0.0
 11
42.38008050285282
 21
16.83007862794352
 31
0.0
  0
LINE
  5
240
330
2
100
AcDbEntity
  8
GAIKEI
 62
     1
100
AcDbLine
 10
42.62507220404653
 20
17.33427268585251
 30
0.0
 11
42.38008050285282
 21
17.33427268585251
 31
0.0
  0
LINE
  5
241
330
2
100
AcDbEntity
  8
GAIKEI
 62
     1
100
AcDbLine
 10
35.18304664504905
 20
17.58570655088272
 30
0.0
 11
35.18304664504905
 21
18.08971113338475
 31
0.0
  0
LINE
  5
242
330
2
100
AcDbEntity
  8
GAIKEI
 62
     1
100
AcDbLine
 10
34.93805494385539
 20
17.58570655088272
 30
0.0
 11
35.18304664504905
 21
17.58570655088272
 31
0.0
  0
LINE
  5
243
330
2
100
AcDbEntity
  8
GAIKEI
 62
     1
100
AcDbLine
 10
34.93805494385539
 20
18.08971113338475
 30
0.0
 11
34.93805494385539
 21
17.58570655088272
 31
0.0
  0
LINE
  5
244
330
2
100
AcDbEntity
  8
GAIKEI
 62
     1
100
AcDbLine
 10
35.18304664504905
 20
18.08971113338475
 30
0.0
 11
34.93805494385539
 21
18.08971113338475
 31
0.0
  0
LINE
  5
245
330
2
100
AcDbEntity
  8
GAIKEI
 62
     1
100
AcDbLine
 10
35.67909326045896
 20
17.58570655088272
 30
0.0
 11
35.67909326045896
 21
18.08971113338475
 31
0.0
  0
LINE
  5
246
330
2
100
AcDbEntity
  8
GAIKEI
 62
     1
100
AcDbLine
 10
35.43410155926529
 20
17.58570655088272
 30
0.0
 11
35.67909326045896
 21
17.58570655088272
 31
0.0
  0
LINE
  5
247
330
2
100
AcDbEntity
  8
GAIKEI
 62
     1
100
AcDbLine
 10
35.43410155926529
 20
18.08971113338475
 30
0.0
 11
35.43410155926529
 21
17.58570655088272
 31
0.0
  0
LINE
  5
248
330
2
100
AcDbEntity
  8
GAIKEI
 62
     1
100
AcDbLine
 10
35.67909326045896
 20
18.08971113338475
 30
0.0
 11
35.43410155926529
 21
18.08971113338475
 31
0.0
  0
LINE
  5
249
330
2
100
AcDbEntity
  8
GAIKEI
 62
     1
100
AcDbLine
 10
36.1754240889793
 20
17.58570655088272
 30
0.0
 11
36.1754240889793
 21
18.08971113338475
 31
0.0
  0
LINE
  5
24A
330
2
100
AcDbEntity
  8
GAIKEI
 62
     1
100
AcDbLine
 10
35.9301481746752
 20
17.58570655088272
 30
0.0
 11
36.1754240889793
 21
17.58570655088272
 31
0.0
  0
LINE
  5
24B
330
2
100
AcDbEntity
  8
GAIKEI
 62
     1
100
AcDbLine
 10
35.9301481746752
 20
18.08971113338475
 30
0.0
 11
35.9301481746752
 21
17.58570655088272
 31
0.0
  0
LINE
  5
24C
330
2
100
AcDbEntity
  8
GAIKEI
 62
     1
100
AcDbLine
 10
36.1754240889793
 20
18.08971113338475
 30
0.0
 11
35.9301481746752
 21
18.08971113338475
 31
0.0
  0
LINE
  5
24D
330
2
100
AcDbEntity
  8
GAIKEI
 62
     1
100
AcDbLine
 10
36.67156544209269
 20
17.58570655088272
 30
0.0
 11
36.67156544209269
 21
18.08971113338475
 31
0.0
  0
LINE
  5
24E
330
2
100
AcDbEntity
  8
GAIKEI
 62
     1
100
AcDbLine
 10
36.42647900319554
 20
17.58570655088272
 30
0.0
 11
36.67156544209269
 21
17.58570655088272
 31
0.0
  0
LINE
  5
24F
330
2
100
AcDbEntity
  8
GAIKEI
 62
     1
100
AcDbLine
 10
36.42647900319554
 20
18.08971113338475
 30
0.0
 11
36.42647900319554
 21
17.58570655088272
 31
0.0
  0
LINE
  5
250
330
2
100
AcDbEntity
  8
GAIKEI
 62
     1
100
AcDbLine
 10
36.67156544209269
 20
18.08971113338475
 30
0.0
 11
36.42647900319554
 21
18.08971113338475
 31
0.0
  0
LINE
  5
251
330
2
100
AcDbEntity
  8
GAIKEI
 62
     1
100
AcDbLine
 10
37.16761205750265
 20
17.58570655088272
 30
0.0
 11
37.16761205750265
 21
18.08971113338475
 31
0.0
  0
LINE
  5
252
330
2
100
AcDbEntity
  8
GAIKEI
 62
     1
100
AcDbLine
 10
36.922620356309
 20
17.58570655088272
 30
0.0
 11
37.16761205750265
 21
17.58570655088272
 31
0.0
  0
LINE
  5
253
330
2
100
AcDbEntity
  8
GAIKEI
 62
     1
100
AcDbLine
 10
36.922620356309
 20
18.08971113338475
 30
0.0
 11
36.922620356309
 21
17.58570655088272
 31
0.0
  0
LINE
  5
254
330
2
100
AcDbEntity
  8
GAIKEI
 62
     1
100
AcDbLine
 10
37.16761205750265
 20
18.08971113338475
 30
0.0
 11
36.922620356309
 21
18.08971113338475
 31
0.0
  0
LINE
  5
255
330
2
100
AcDbEntity
  8
GAIKEI
 62
     1
100
AcDbLine
 10
37.66375341061604
 20
17.58570655088272
 30
0.0
 11
37.66375341061604
 21
18.08971113338475
 31
0.0
  0
LINE
  5
256
330
2
100
AcDbEntity
  8
GAIKEI
 62
     1
100
AcDbLine
 10
37.41847749631189
 20
17.58570655088272
 30
0.0
 11
37.66375341061604
 21
17.58570655088272
 31
0.0
  0
LINE
  5
257
330
2
100
AcDbEntity
  8
GAIKEI
 62
     1
100
AcDbLine
 10
37.41847749631189
 20
18.08971113338475
 30
0.0
 11
37.41847749631189
 21
17.58570655088272
 31
0.0
  0
LINE
  5
258
330
2
100
AcDbEntity
  8
GAIKEI
 62
     1
100
AcDbLine
 10
37.66375341061604
 20
18.08971113338475
 30
0.0
 11
37.41847749631189
 21
18.08971113338475
 31
0.0
  0
LINE
  5
259
330
2
100
AcDbEntity
  8
GAIKEI
 62
     1
100
AcDbLine
 10
38.15989476372943
 20
17.58570655088272
 30
0.0
 11
38.15989476372943
 21
18.08971113338475
 31
0.0
  0
LINE
  5
25A
330
2
100
AcDbEntity
  8
GAIKEI
 62
     1
100
AcDbLine
 10
37.91480832483228
 20
17.58570655088272
 30
0.0
 11
38.15989476372943
 21
17.58570655088272
 31
0.0
  0
LINE
  5
25B
330
2
100
AcDbEntity
  8
GAIKEI
 62
     1
100
AcDbLine
 10
37.91480832483228
 20
18.08971113338475
 30
0.0
 11
37.91480832483228
 21
17.58570655088272
 31
0.0
  0
LINE
  5
25C
330
2
100
AcDbEntity
  8
GAIKEI
 62
     1
100
AcDbLine
 10
38.15989476372943
 20
18.08971113338475
 30
0.0
 11
37.91480832483228
 21
18.08971113338475
 31
0.0
  0
LINE
  5
25D
330
2
100
AcDbEntity
  8
GAIKEI
 62
     1
100
AcDbLine
 10
38.65603611684282
 20
17.58570655088272
 30
0.0
 11
38.65603611684282
 21
18.08971113338475
 31
0.0
  0
LINE
  5
25E
330
2
100
AcDbEntity
  8
GAIKEI
 62
     1
100
AcDbLine
 10
38.41094967794568
 20
17.58570655088272
 30
0.0
 11
38.65603611684282
 21
17.58570655088272
 31
0.0
  0
LINE
  5
25F
330
2
100
AcDbEntity
  8
GAIKEI
 62
     1
100
AcDbLine
 10
38.41094967794568
 20
18.08971113338475
 30
0.0
 11
38.41094967794568
 21
17.58570655088272
 31
0.0
  0
LINE
  5
260
330
2
100
AcDbEntity
  8
GAIKEI
 62
     1
100
AcDbLine
 10
38.65603611684282
 20
18.08971113338475
 30
0.0
 11
38.41094967794568
 21
18.08971113338475
 31
0.0
  0
LINE
  5
261
330
2
100
AcDbEntity
  8
GAIKEI
 62
     1
100
AcDbLine
 10
39.15208273225271
 20
17.58570655088272
 30
0.0
 11
39.15208273225271
 21
18.08971113338475
 31
0.0
  0
LINE
  5
262
330
2
100
AcDbEntity
  8
GAIKEI
 62
     1
100
AcDbLine
 10
38.90709103105905
 20
17.58570655088272
 30
0.0
 11
39.15208273225271
 21
17.58570655088272
 31
0.0
  0
LINE
  5
263
330
2
100
AcDbEntity
  8
GAIKEI
 62
     1
100
AcDbLine
 10
38.90709103105905
 20
18.08971113338475
 30
0.0
 11
38.90709103105905
 21
17.58570655088272
 31
0.0
  0
LINE
  5
264
330
2
100
AcDbEntity
  8
GAIKEI
 62
     1
100
AcDbLine
 10
39.15208273225271
 20
18.08971113338475
 30
0.0
 11
38.90709103105905
 21
18.08971113338475
 31
0.0
  0
LINE
  5
265
330
2
100
AcDbEntity
  8
GAIKEI
 62
     1
100
AcDbLine
 10
39.64822408536611
 20
17.58570655088272
 30
0.0
 11
39.64822408536611
 21
18.08971113338475
 31
0.0
  0
LINE
  5
266
330
2
100
AcDbEntity
  8
GAIKEI
 62
     1
100
AcDbLine
 10
39.40313764646896
 20
17.58570655088272
 30
0.0
 11
39.64822408536611
 21
17.58570655088272
 31
0.0
  0
LINE
  5
267
330
2
100
AcDbEntity
  8
GAIKEI
 62
     1
100
AcDbLine
 10
39.40313764646896
 20
18.08971113338475
 30
0.0
 11
39.40313764646896
 21
17.58570655088272
 31
0.0
  0
LINE
  5
268
330
2
100
AcDbEntity
  8
GAIKEI
 62
     1
100
AcDbLine
 10
39.64822408536611
 20
18.08971113338475
 30
0.0
 11
39.40313764646896
 21
18.08971113338475
 31
0.0
  0
LINE
  5
269
330
2
100
AcDbEntity
  8
GAIKEI
 62
     1
100
AcDbLine
 10
40.14455491388651
 20
17.58570655088272
 30
0.0
 11
40.14455491388651
 21
18.08971113338475
 31
0.0
  0
LINE
  5
26A
330
2
100
AcDbEntity
  8
GAIKEI
 62
     1
100
AcDbLine
 10
39.89946847498931
 20
17.58570655088272
 30
0.0
 11
40.14455491388651
 21
17.58570655088272
 31
0.0
  0
LINE
  5
26B
330
2
100
AcDbEntity
  8
GAIKEI
 62
     1
100
AcDbLine
 10
39.89946847498931
 20
18.08971113338475
 30
0.0
 11
39.89946847498931
 21
17.58570655088272
 31
0.0
  0
LINE
  5
26C
330
2
100
AcDbEntity
  8
GAIKEI
 62
     1
100
AcDbLine
 10
40.14455491388651
 20
18.08971113338475
 30
0.0
 11
39.89946847498931
 21
18.08971113338475
 31
0.0
  0
LINE
  5
26D
330
2
100
AcDbEntity
  8
GAIKEI
 62
     1
100
AcDbLine
 10
40.64069626699988
 20
17.58570655088272
 30
0.0
 11
40.64069626699988
 21
18.08971113338475
 31
0.0
  0
LINE
  5
26E
330
2
100
AcDbEntity
  8
GAIKEI
 62
     1
100
AcDbLine
 10
40.39560982810274
 20
17.58570655088272
 30
0.0
 11
40.64069626699988
 21
17.58570655088272
 31
0.0
  0
LINE
  5
26F
330
2
100
AcDbEntity
  8
GAIKEI
 62
     1
100
AcDbLine
 10
40.39560982810274
 20
18.08971113338475
 30
0.0
 11
40.39560982810274
 21
17.58570655088272
 31
0.0
  0
LINE
  5
270
330
2
100
AcDbEntity
  8
GAIKEI
 62
     1
100
AcDbLine
 10
40.64069626699988
 20
18.08971113338475
 30
0.0
 11
40.39560982810274
 21
18.08971113338475
 31
0.0
  0
LINE
  5
271
330
2
100
AcDbEntity
  8
GAIKEI
 62
     1
100
AcDbLine
 10
41.1367428824098
 20
17.58570655088272
 30
0.0
 11
41.1367428824098
 21
18.08971113338475
 31
0.0
  0
LINE
  5
272
330
2
100
AcDbEntity
  8
GAIKEI
 62
     1
100
AcDbLine
 10
40.89175118121613
 20
17.58570655088272
 30
0.0
 11
41.1367428824098
 21
17.58570655088272
 31
0.0
  0
LINE
  5
273
330
2
100
AcDbEntity
  8
GAIKEI
 62
     1
100
AcDbLine
 10
40.89175118121613
 20
18.08971113338475
 30
0.0
 11
40.89175118121613
 21
17.58570655088272
 31
0.0
  0
LINE
  5
274
330
2
100
AcDbEntity
  8
GAIKEI
 62
     1
100
AcDbLine
 10
41.1367428824098
 20
18.08971113338475
 30
0.0
 11
40.89175118121613
 21
18.08971113338475
 31
0.0
  0
LINE
  5
275
330
2
100
AcDbEntity
  8
GAIKEI
 62
     1
100
AcDbLine
 10
41.63288423552319
 20
17.58570655088272
 30
0.0
 11
41.63288423552319
 21
18.08971113338475
 31
0.0
  0
LINE
  5
276
330
2
100
AcDbEntity
  8
GAIKEI
 62
     1
100
AcDbLine
 10
41.38779779662605
 20
17.58570655088272
 30
0.0
 11
41.63288423552319
 21
17.58570655088272
 31
0.0
  0
LINE
  5
277
330
2
100
AcDbEntity
  8
GAIKEI
 62
     1
100
AcDbLine
 10
41.38779779662605
 20
18.08971113338475
 30
0.0
 11
41.38779779662605
 21
17.58570655088272
 31
0.0
  0
LINE
  5
278
330
2
100
AcDbEntity
  8
GAIKEI
 62
     1
100
AcDbLine
 10
41.63288423552319
 20
18.08971113338475
 30
0.0
 11
41.38779779662605
 21
18.08971113338475
 31
0.0
  0
LINE
  5
279
330
2
100
AcDbEntity
  8
GAIKEI
 62
     1
100
AcDbLine
 10
42.12902558863663
 20
17.58570655088272
 30
0.0
 11
42.12902558863663
 21
18.08971113338475
 31
0.0
  0
LINE
  5
27A
330
2
100
AcDbEntity
  8
GAIKEI
 62
     1
100
AcDbLine
 10
41.88393914973942
 20
17.58570655088272
 30
0.0
 11
42.12902558863663
 21
17.58570655088272
 31
0.0
  0
LINE
  5
27B
330
2
100
AcDbEntity
  8
GAIKEI
 62
     1
100
AcDbLine
 10
41.88393914973942
 20
18.08971113338475
 30
0.0
 11
41.88393914973942
 21
17.58570655088272
 31
0.0
  0
LINE
  5
27C
330
2
100
AcDbEntity
  8
GAIKEI
 62
     1
100
AcDbLine
 10
42.12902558863663
 20
18.08971113338475
 30
0.0
 11
41.88393914973942
 21
18.08971113338475
 31
0.0
  0
LINE
  5
27D
330
2
100
AcDbEntity
  8
GAIKEI
 62
     1
100
AcDbLine
 10
42.62507220404653
 20
17.58570655088272
 30
0.0
 11
42.62507220404653
 21
18.08971113338475
 31
0.0
  0
LINE
  5
27E
330
2
100
AcDbEntity
  8
GAIKEI
 62
     1
100
AcDbLine
 10
42.38008050285282
 20
17.58570655088272
 30
0.0
 11
42.62507220404653
 21
17.58570655088272
 31
0.0
  0
LINE
  5
27F
330
2
100
AcDbEntity
  8
GAIKEI
 62
     1
100
AcDbLine
 10
42.38008050285282
 20
18.08971113338475
 30
0.0
 11
42.38008050285282
 21
17.58570655088272
 31
0.0
  0
LINE
  5
280
330
2
100
AcDbEntity
  8
GAIKEI
 62
     1
100
AcDbLine
 10
42.62507220404653
 20
18.08971113338475
 30
0.0
 11
42.38008050285282
 21
18.08971113338475
 31
0.0
  0
LINE
  5
281
330
2
100
AcDbEntity
  8
GAIKEI
 62
     1
100
AcDbLine
 10
35.18304664504905
 20
18.34114499841496
 30
0.0
 11
35.18304664504905
 21
18.84533905632395
 31
0.0
  0
LINE
  5
282
330
2
100
AcDbEntity
  8
GAIKEI
 62
     1
100
AcDbLine
 10
34.93805494385539
 20
18.34114499841496
 30
0.0
 11
35.18304664504905
 21
18.34114499841496
 31
0.0
  0
LINE
  5
283
330
2
100
AcDbEntity
  8
GAIKEI
 62
     1
100
AcDbLine
 10
34.93805494385539
 20
18.84533905632395
 30
0.0
 11
34.93805494385539
 21
18.34114499841496
 31
0.0
  0
LINE
  5
284
330
2
100
AcDbEntity
  8
GAIKEI
 62
     1
100
AcDbLine
 10
35.18304664504905
 20
18.84533905632395
 30
0.0
 11
34.93805494385539
 21
18.84533905632395
 31
0.0
  0
LINE
  5
285
330
2
100
AcDbEntity
  8
GAIKEI
 62
     1
100
AcDbLine
 10
35.67909326045896
 20
18.34114499841496
 30
0.0
 11
35.67909326045896
 21
18.84533905632395
 31
0.0
  0
LINE
  5
286
330
2
100
AcDbEntity
  8
GAIKEI
 62
     1
100
AcDbLine
 10
35.43410155926529
 20
18.34114499841496
 30
0.0
 11
35.67909326045896
 21
18.34114499841496
 31
0.0
  0
LINE
  5
287
330
2
100
AcDbEntity
  8
GAIKEI
 62
     1
100
AcDbLine
 10
35.43410155926529
 20
18.84533905632395
 30
0.0
 11
35.43410155926529
 21
18.34114499841496
 31
0.0
  0
LINE
  5
288
330
2
100
AcDbEntity
  8
GAIKEI
 62
     1
100
AcDbLine
 10
35.67909326045896
 20
18.84533905632395
 30
0.0
 11
35.43410155926529
 21
18.84533905632395
 31
0.0
  0
LINE
  5
289
330
2
100
AcDbEntity
  8
GAIKEI
 62
     1
100
AcDbLine
 10
36.1754240889793
 20
18.34114499841496
 30
0.0
 11
36.1754240889793
 21
18.84533905632395
 31
0.0
  0
LINE
  5
28A
330
2
100
AcDbEntity
  8
GAIKEI
 62
     1
100
AcDbLine
 10
35.9301481746752
 20
18.34114499841496
 30
0.0
 11
36.1754240889793
 21
18.34114499841496
 31
0.0
  0
LINE
  5
28B
330
2
100
AcDbEntity
  8
GAIKEI
 62
     1
100
AcDbLine
 10
35.9301481746752
 20
18.84533905632395
 30
0.0
 11
35.9301481746752
 21
18.34114499841496
 31
0.0
  0
LINE
  5
28C
330
2
100
AcDbEntity
  8
GAIKEI
 62
     1
100
AcDbLine
 10
36.1754240889793
 20
18.84533905632395
 30
0.0
 11
35.9301481746752
 21
18.84533905632395
 31
0.0
  0
LINE
  5
28D
330
2
100
AcDbEntity
  8
GAIKEI
 62
     1
100
AcDbLine
 10
36.67156544209269
 20
18.34114499841496
 30
0.0
 11
36.67156544209269
 21
18.84533905632395
 31
0.0
  0
LINE
  5
28E
330
2
100
AcDbEntity
  8
GAIKEI
 62
     1
100
AcDbLine
 10
36.42647900319554
 20
18.34114499841496
 30
0.0
 11
36.67156544209269
 21
18.34114499841496
 31
0.0
  0
LINE
  5
28F
330
2
100
AcDbEntity
  8
GAIKEI
 62
     1
100
AcDbLine
 10
36.42647900319554
 20
18.84533905632395
 30
0.0
 11
36.42647900319554
 21
18.34114499841496
 31
0.0
  0
LINE
  5
290
330
2
100
AcDbEntity
  8
GAIKEI
 62
     1
100
AcDbLine
 10
36.67156544209269
 20
18.84533905632395
 30
0.0
 11
36.42647900319554
 21
18.84533905632395
 31
0.0
  0
LINE
  5
291
330
2
100
AcDbEntity
  8
GAIKEI
 62
     1
100
AcDbLine
 10
37.16761205750265
 20
18.34114499841496
 30
0.0
 11
37.16761205750265
 21
18.84533905632395
 31
0.0
  0
LINE
  5
292
330
2
100
AcDbEntity
  8
GAIKEI
 62
     1
100
AcDbLine
 10
36.922620356309
 20
18.34114499841496
 30
0.0
 11
37.16761205750265
 21
18.34114499841496
 31
0.0
  0
LINE
  5
293
330
2
100
AcDbEntity
  8
GAIKEI
 62
     1
100
AcDbLine
 10
36.922620356309
 20
18.84533905632395
 30
0.0
 11
36.922620356309
 21
18.34114499841496
 31
0.0
  0
LINE
  5
294
330
2
100
AcDbEntity
  8
GAIKEI
 62
     1
100
AcDbLine
 10
37.16761205750265
 20
18.84533905632395
 30
0.0
 11
36.922620356309
 21
18.84533905632395
 31
0.0
  0
LINE
  5
295
330
2
100
AcDbEntity
  8
GAIKEI
 62
     1
100
AcDbLine
 10
37.66375341061604
 20
18.34114499841496
 30
0.0
 11
37.66375341061604
 21
18.84533905632395
 31
0.0
  0
LINE
  5
296
330
2
100
AcDbEntity
  8
GAIKEI
 62
     1
100
AcDbLine
 10
37.41847749631189
 20
18.34114499841496
 30
0.0
 11
37.66375341061604
 21
18.34114499841496
 31
0.0
  0
LINE
  5
297
330
2
100
AcDbEntity
  8
GAIKEI
 62
     1
100
AcDbLine
 10
37.41847749631189
 20
18.84533905632395
 30
0.0
 11
37.41847749631189
 21
18.34114499841496
 31
0.0
  0
LINE
  5
298
330
2
100
AcDbEntity
  8
GAIKEI
 62
     1
100
AcDbLine
 10
37.66375341061604
 20
18.84533905632395
 30
0.0
 11
37.41847749631189
 21
18.84533905632395
 31
0.0
  0
LINE
  5
299
330
2
100
AcDbEntity
  8
GAIKEI
 62
     1
100
AcDbLine
 10
38.15989476372943
 20
18.34114499841496
 30
0.0
 11
38.15989476372943
 21
18.84533905632395
 31
0.0
  0
LINE
  5
29A
330
2
100
AcDbEntity
  8
GAIKEI
 62
     1
100
AcDbLine
 10
37.91480832483228
 20
18.34114499841496
 30
0.0
 11
38.15989476372943
 21
18.34114499841496
 31
0.0
  0
LINE
  5
29B
330
2
100
AcDbEntity
  8
GAIKEI
 62
     1
100
AcDbLine
 10
37.91480832483228
 20
18.84533905632395
 30
0.0
 11
37.91480832483228
 21
18.34114499841496
 31
0.0
  0
LINE
  5
29C
330
2
100
AcDbEntity
  8
GAIKEI
 62
     1
100
AcDbLine
 10
38.15989476372943
 20
18.84533905632395
 30
0.0
 11
37.91480832483228
 21
18.84533905632395
 31
0.0
  0
LINE
  5
29D
330
2
100
AcDbEntity
  8
GAIKEI
 62
     1
100
AcDbLine
 10
38.65603611684282
 20
18.34114499841496
 30
0.0
 11
38.65603611684282
 21
18.84533905632395
 31
0.0
  0
LINE
  5
29E
330
2
100
AcDbEntity
  8
GAIKEI
 62
     1
100
AcDbLine
 10
38.41094967794568
 20
18.34114499841496
 30
0.0
 11
38.65603611684282
 21
18.34114499841496
 31
0.0
  0
LINE
  5
29F
330
2
100
AcDbEntity
  8
GAIKEI
 62
     1
100
AcDbLine
 10
38.41094967794568
 20
18.84533905632395
 30
0.0
 11
38.41094967794568
 21
18.34114499841496
 31
0.0
  0
LINE
  5
2A0
330
2
100
AcDbEntity
  8
GAIKEI
 62
     1
100
AcDbLine
 10
38.65603611684282
 20
18.84533905632395
 30
0.0
 11
38.41094967794568
 21
18.84533905632395
 31
0.0
  0
LINE
  5
2A1
330
2
100
AcDbEntity
  8
GAIKEI
 62
     1
100
AcDbLine
 10
39.15208273225271
 20
18.34114499841496
 30
0.0
 11
39.15208273225271
 21
18.84533905632395
 31
0.0
  0
LINE
  5
2A2
330
2
100
AcDbEntity
  8
GAIKEI
 62
     1
100
AcDbLine
 10
38.90709103105905
 20
18.34114499841496
 30
0.0
 11
39.15208273225271
 21
18.34114499841496
 31
0.0
  0
LINE
  5
2A3
330
2
100
AcDbEntity
  8
GAIKEI
 62
     1
100
AcDbLine
 10
38.90709103105905
 20
18.84533905632395
 30
0.0
 11
38.90709103105905
 21
18.34114499841496
 31
0.0
  0
LINE
  5
2A4
330
2
100
AcDbEntity
  8
GAIKEI
 62
     1
100
AcDbLine
 10
39.15208273225271
 20
18.84533905632395
 30
0.0
 11
38.90709103105905
 21
18.84533905632395
 31
0.0
  0
LINE
  5
2A5
330
2
100
AcDbEntity
  8
GAIKEI
 62
     1
100
AcDbLine
 10
39.64822408536611
 20
18.34114499841496
 30
0.0
 11
39.64822408536611
 21
18.84533905632395
 31
0.0
  0
LINE
  5
2A6
330
2
100
AcDbEntity
  8
GAIKEI
 62
     1
100
AcDbLine
 10
39.40313764646896
 20
18.34114499841496
 30
0.0
 11
39.64822408536611
 21
18.34114499841496
 31
0.0
  0
LINE
  5
2A7
330
2
100
AcDbEntity
  8
GAIKEI
 62
     1
100
AcDbLine
 10
39.40313764646896
 20
18.84533905632395
 30
0.0
 11
39.40313764646896
 21
18.34114499841496
 31
0.0
  0
LINE
  5
2A8
330
2
100
AcDbEntity
  8
GAIKEI
 62
     1
100
AcDbLine
 10
39.64822408536611
 20
18.84533905632395
 30
0.0
 11
39.40313764646896
 21
18.84533905632395
 31
0.0
  0
LINE
  5
2A9
330
2
100
AcDbEntity
  8
GAIKEI
 62
     1
100
AcDbLine
 10
40.14455491388651
 20
18.34114499841496
 30
0.0
 11
40.14455491388651
 21
18.84533905632395
 31
0.0
  0
LINE
  5
2AA
330
2
100
AcDbEntity
  8
GAIKEI
 62
     1
100
AcDbLine
 10
39.89946847498931
 20
18.34114499841496
 30
0.0
 11
40.14455491388651
 21
18.34114499841496
 31
0.0
  0
LINE
  5
2AB
330
2
100
AcDbEntity
  8
GAIKEI
 62
     1
100
AcDbLine
 10
39.89946847498931
 20
18.84533905632395
 30
0.0
 11
39.89946847498931
 21
18.34114499841496
 31
0.0
  0
LINE
  5
2AC
330
2
100
AcDbEntity
  8
GAIKEI
 62
     1
100
AcDbLine
 10
40.14455491388651
 20
18.84533905632395
 30
0.0
 11
39.89946847498931
 21
18.84533905632395
 31
0.0
  0
LINE
  5
2AD
330
2
100
AcDbEntity
  8
GAIKEI
 62
     1
100
AcDbLine
 10
40.64069626699988
 20
18.34114499841496
 30
0.0
 11
40.64069626699988
 21
18.84533905632395
 31
0.0
  0
LINE
  5
2AE
330
2
100
AcDbEntity
  8
GAIKEI
 62
     1
100
AcDbLine
 10
40.39560982810274
 20
18.34114499841496
 30
0.0
 11
40.64069626699988
 21
18.34114499841496
 31
0.0
  0
LINE
  5
2AF
330
2
100
AcDbEntity
  8
GAIKEI
 62
     1
100
AcDbLine
 10
40.39560982810274
 20
18.84533905632395
 30
0.0
 11
40.39560982810274
 21
18.34114499841496
 31
0.0
  0
LINE
  5
2B0
330
2
100
AcDbEntity
  8
GAIKEI
 62
     1
100
AcDbLine
 10
40.64069626699988
 20
18.84533905632395
 30
0.0
 11
40.39560982810274
 21
18.84533905632395
 31
0.0
  0
LINE
  5
2B1
330
2
100
AcDbEntity
  8
GAIKEI
 62
     1
100
AcDbLine
 10
41.1367428824098
 20
18.34114499841496
 30
0.0
 11
41.1367428824098
 21
18.84533905632395
 31
0.0
  0
LINE
  5
2B2
330
2
100
AcDbEntity
  8
GAIKEI
 62
     1
100
AcDbLine
 10
40.89175118121613
 20
18.34114499841496
 30
0.0
 11
41.1367428824098
 21
18.34114499841496
 31
0.0
  0
LINE
  5
2B3
330
2
100
AcDbEntity
  8
GAIKEI
 62
     1
100
AcDbLine
 10
40.89175118121613
 20
18.84533905632395
 30
0.0
 11
40.89175118121613
 21
18.34114499841496
 31
0.0
  0
LINE
  5
2B4
330
2
100
AcDbEntity
  8
GAIKEI
 62
     1
100
AcDbLine
 10
41.1367428824098
 20
18.84533905632395
 30
0.0
 11
40.89175118121613
 21
18.84533905632395
 31
0.0
  0
LINE
  5
2B5
330
2
100
AcDbEntity
  8
GAIKEI
 62
     1
100
AcDbLine
 10
41.63288423552319
 20
18.34114499841496
 30
0.0
 11
41.63288423552319
 21
18.84533905632395
 31
0.0
  0
LINE
  5
2B6
330
2
100
AcDbEntity
  8
GAIKEI
 62
     1
100
AcDbLine
 10
41.38779779662605
 20
18.34114499841496
 30
0.0
 11
41.63288423552319
 21
18.34114499841496
 31
0.0
  0
LINE
  5
2B7
330
2
100
AcDbEntity
  8
GAIKEI
 62
     1
100
AcDbLine
 10
41.38779779662605
 20
18.84533905632395
 30
0.0
 11
41.38779779662605
 21
18.34114499841496
 31
0.0
  0
LINE
  5
2B8
330
2
100
AcDbEntity
  8
GAIKEI
 62
     1
100
AcDbLine
 10
41.63288423552319
 20
18.84533905632395
 30
0.0
 11
41.38779779662605
 21
18.84533905632395
 31
0.0
  0
LINE
  5
2B9
330
2
100
AcDbEntity
  8
GAIKEI
 62
     1
100
AcDbLine
 10
42.12902558863663
 20
18.34114499841496
 30
0.0
 11
42.12902558863663
 21
18.84533905632395
 31
0.0
  0
LINE
  5
2BA
330
2
100
AcDbEntity
  8
GAIKEI
 62
     1
100
AcDbLine
 10
41.88393914973942
 20
18.34114499841496
 30
0.0
 11
42.12902558863663
 21
18.34114499841496
 31
0.0
  0
LINE
  5
2BB
330
2
100
AcDbEntity
  8
GAIKEI
 62
     1
100
AcDbLine
 10
41.88393914973942
 20
18.84533905632395
 30
0.0
 11
41.88393914973942
 21
18.34114499841496
 31
0.0
  0
LINE
  5
2BC
330
2
100
AcDbEntity
  8
GAIKEI
 62
     1
100
AcDbLine
 10
42.12902558863663
 20
18.84533905632395
 30
0.0
 11
41.88393914973942
 21
18.84533905632395
 31
0.0
  0
LINE
  5
2BD
330
2
100
AcDbEntity
  8
GAIKEI
 62
     1
100
AcDbLine
 10
42.62507220404653
 20
18.34114499841496
 30
0.0
 11
42.62507220404653
 21
18.84533905632395
 31
0.0
  0
LINE
  5
2BE
330
2
100
AcDbEntity
  8
GAIKEI
 62
     1
100
AcDbLine
 10
42.38008050285282
 20
18.34114499841496
 30
0.0
 11
42.62507220404653
 21
18.34114499841496
 31
0.0
  0
LINE
  5
2BF
330
2
100
AcDbEntity
  8
GAIKEI
 62
     1
100
AcDbLine
 10
42.38008050285282
 20
18.84533905632395
 30
0.0
 11
42.38008050285282
 21
18.34114499841496
 31
0.0
  0
LINE
  5
2C0
330
2
100
AcDbEntity
  8
GAIKEI
 62
     1
100
AcDbLine
 10
42.62507220404653
 20
18.84533905632395
 30
0.0
 11
42.38008050285282
 21
18.84533905632395
 31
0.0
  0
LINE
  5
2C1
330
2
100
AcDbEntity
  8
GAIKEI
 62
     1
100
AcDbLine
 10
35.18304664504905
 20
19.293637869181
 30
0.0
 11
35.18304664504905
 21
19.79764245168309
 31
0.0
  0
LINE
  5
2C2
330
2
100
AcDbEntity
  8
GAIKEI
 62
     1
100
AcDbLine
 10
34.93805494385539
 20
19.293637869181
 30
0.0
 11
35.18304664504905
 21
19.293637869181
 31
0.0
  0
LINE
  5
2C3
330
2
100
AcDbEntity
  8
GAIKEI
 62
     1
100
AcDbLine
 10
34.93805494385539
 20
19.79764245168309
 30
0.0
 11
34.93805494385539
 21
19.293637869181
 31
0.0
  0
LINE
  5
2C4
330
2
100
AcDbEntity
  8
GAIKEI
 62
     1
100
AcDbLine
 10
35.18304664504905
 20
19.79764245168309
 30
0.0
 11
34.93805494385539
 21
19.79764245168309
 31
0.0
  0
LINE
  5
2C5
330
2
100
AcDbEntity
  8
GAIKEI
 62
     1
100
AcDbLine
 10
35.67909326045896
 20
19.293637869181
 30
0.0
 11
35.67909326045896
 21
19.79764245168309
 31
0.0
  0
LINE
  5
2C6
330
2
100
AcDbEntity
  8
GAIKEI
 62
     1
100
AcDbLine
 10
35.43410155926529
 20
19.293637869181
 30
0.0
 11
35.67909326045896
 21
19.293637869181
 31
0.0
  0
LINE
  5
2C7
330
2
100
AcDbEntity
  8
GAIKEI
 62
     1
100
AcDbLine
 10
35.43410155926529
 20
19.79764245168309
 30
0.0
 11
35.43410155926529
 21
19.293637869181
 31
0.0
  0
LINE
  5
2C8
330
2
100
AcDbEntity
  8
GAIKEI
 62
     1
100
AcDbLine
 10
35.67909326045896
 20
19.79764245168309
 30
0.0
 11
35.43410155926529
 21
19.79764245168309
 31
0.0
  0
LINE
  5
2C9
330
2
100
AcDbEntity
  8
GAIKEI
 62
     1
100
AcDbLine
 10
36.1754240889793
 20
19.293637869181
 30
0.0
 11
36.1754240889793
 21
19.79764245168309
 31
0.0
  0
LINE
  5
2CA
330
2
100
AcDbEntity
  8
GAIKEI
 62
     1
100
AcDbLine
 10
35.9301481746752
 20
19.293637869181
 30
0.0
 11
36.1754240889793
 21
19.293637869181
 31
0.0
  0
LINE
  5
2CB
330
2
100
AcDbEntity
  8
GAIKEI
 62
     1
100
AcDbLine
 10
35.9301481746752
 20
19.79764245168309
 30
0.0
 11
35.9301481746752
 21
19.293637869181
 31
0.0
  0
LINE
  5
2CC
330
2
100
AcDbEntity
  8
GAIKEI
 62
     1
100
AcDbLine
 10
36.1754240889793
 20
19.79764245168309
 30
0.0
 11
35.9301481746752
 21
19.79764245168309
 31
0.0
  0
LINE
  5
2CD
330
2
100
AcDbEntity
  8
GAIKEI
 62
     1
100
AcDbLine
 10
36.67156544209269
 20
19.293637869181
 30
0.0
 11
36.67156544209269
 21
19.79764245168309
 31
0.0
  0
LINE
  5
2CE
330
2
100
AcDbEntity
  8
GAIKEI
 62
     1
100
AcDbLine
 10
36.42647900319554
 20
19.293637869181
 30
0.0
 11
36.67156544209269
 21
19.293637869181
 31
0.0
  0
LINE
  5
2CF
330
2
100
AcDbEntity
  8
GAIKEI
 62
     1
100
AcDbLine
 10
36.42647900319554
 20
19.79764245168309
 30
0.0
 11
36.42647900319554
 21
19.293637869181
 31
0.0
  0
LINE
  5
2D0
330
2
100
AcDbEntity
  8
GAIKEI
 62
     1
100
AcDbLine
 10
36.67156544209269
 20
19.79764245168309
 30
0.0
 11
36.42647900319554
 21
19.79764245168309
 31
0.0
  0
LINE
  5
2D1
330
2
100
AcDbEntity
  8
GAIKEI
 62
     1
100
AcDbLine
 10
37.16761205750265
 20
19.293637869181
 30
0.0
 11
37.16761205750265
 21
19.79764245168309
 31
0.0
  0
LINE
  5
2D2
330
2
100
AcDbEntity
  8
GAIKEI
 62
     1
100
AcDbLine
 10
36.922620356309
 20
19.293637869181
 30
0.0
 11
37.16761205750265
 21
19.293637869181
 31
0.0
  0
LINE
  5
2D3
330
2
100
AcDbEntity
  8
GAIKEI
 62
     1
100
AcDbLine
 10
36.922620356309
 20
19.79764245168309
 30
0.0
 11
36.922620356309
 21
19.293637869181
 31
0.0
  0
LINE
  5
2D4
330
2
100
AcDbEntity
  8
GAIKEI
 62
     1
100
AcDbLine
 10
37.16761205750265
 20
19.79764245168309
 30
0.0
 11
36.922620356309
 21
19.79764245168309
 31
0.0
  0
LINE
  5
2D5
330
2
100
AcDbEntity
  8
GAIKEI
 62
     1
100
AcDbLine
 10
37.66375341061604
 20
19.293637869181
 30
0.0
 11
37.66375341061604
 21
19.79764245168309
 31
0.0
  0
LINE
  5
2D6
330
2
100
AcDbEntity
  8
GAIKEI
 62
     1
100
AcDbLine
 10
37.41847749631189
 20
19.293637869181
 30
0.0
 11
37.66375341061604
 21
19.293637869181
 31
0.0
  0
LINE
  5
2D7
330
2
100
AcDbEntity
  8
GAIKEI
 62
     1
100
AcDbLine
 10
37.41847749631189
 20
19.79764245168309
 30
0.0
 11
37.41847749631189
 21
19.293637869181
 31
0.0
  0
LINE
  5
2D8
330
2
100
AcDbEntity
  8
GAIKEI
 62
     1
100
AcDbLine
 10
37.66375341061604
 20
19.79764245168309
 30
0.0
 11
37.41847749631189
 21
19.79764245168309
 31
0.0
  0
LINE
  5
2D9
330
2
100
AcDbEntity
  8
GAIKEI
 62
     1
100
AcDbLine
 10
38.15989476372943
 20
19.293637869181
 30
0.0
 11
38.15989476372943
 21
19.79764245168309
 31
0.0
  0
LINE
  5
2DA
330
2
100
AcDbEntity
  8
GAIKEI
 62
     1
100
AcDbLine
 10
37.91480832483228
 20
19.293637869181
 30
0.0
 11
38.15989476372943
 21
19.293637869181
 31
0.0
  0
LINE
  5
2DB
330
2
100
AcDbEntity
  8
GAIKEI
 62
     1
100
AcDbLine
 10
37.91480832483228
 20
19.79764245168309
 30
0.0
 11
37.91480832483228
 21
19.293637869181
 31
0.0
  0
LINE
  5
2DC
330
2
100
AcDbEntity
  8
GAIKEI
 62
     1
100
AcDbLine
 10
38.15989476372943
 20
19.79764245168309
 30
0.0
 11
37.91480832483228
 21
19.79764245168309
 31
0.0
  0
LINE
  5
2DD
330
2
100
AcDbEntity
  8
GAIKEI
 62
     1
100
AcDbLine
 10
38.65603611684282
 20
19.293637869181
 30
0.0
 11
38.65603611684282
 21
19.79764245168309
 31
0.0
  0
LINE
  5
2DE
330
2
100
AcDbEntity
  8
GAIKEI
 62
     1
100
AcDbLine
 10
38.41094967794568
 20
19.293637869181
 30
0.0
 11
38.65603611684282
 21
19.293637869181
 31
0.0
  0
LINE
  5
2DF
330
2
100
AcDbEntity
  8
GAIKEI
 62
     1
100
AcDbLine
 10
38.41094967794568
 20
19.79764245168309
 30
0.0
 11
38.41094967794568
 21
19.293637869181
 31
0.0
  0
LINE
  5
2E0
330
2
100
AcDbEntity
  8
GAIKEI
 62
     1
100
AcDbLine
 10
38.65603611684282
 20
19.79764245168309
 30
0.0
 11
38.41094967794568
 21
19.79764245168309
 31
0.0
  0
LINE
  5
2E1
330
2
100
AcDbEntity
  8
GAIKEI
 62
     1
100
AcDbLine
 10
39.15208273225271
 20
19.293637869181
 30
0.0
 11
39.15208273225271
 21
19.79764245168309
 31
0.0
  0
LINE
  5
2E2
330
2
100
AcDbEntity
  8
GAIKEI
 62
     1
100
AcDbLine
 10
38.90709103105905
 20
19.293637869181
 30
0.0
 11
39.15208273225271
 21
19.293637869181
 31
0.0
  0
LINE
  5
2E3
330
2
100
AcDbEntity
  8
GAIKEI
 62
     1
100
AcDbLine
 10
38.90709103105905
 20
19.79764245168309
 30
0.0
 11
38.90709103105905
 21
19.293637869181
 31
0.0
  0
LINE
  5
2E4
330
2
100
AcDbEntity
  8
GAIKEI
 62
     1
100
AcDbLine
 10
39.15208273225271
 20
19.79764245168309
 30
0.0
 11
38.90709103105905
 21
19.79764245168309
 31
0.0
  0
LINE
  5
2E5
330
2
100
AcDbEntity
  8
GAIKEI
 62
     1
100
AcDbLine
 10
39.64822408536611
 20
19.293637869181
 30
0.0
 11
39.64822408536611
 21
19.79764245168309
 31
0.0
  0
LINE
  5
2E6
330
2
100
AcDbEntity
  8
GAIKEI
 62
     1
100
AcDbLine
 10
39.40313764646896
 20
19.293637869181
 30
0.0
 11
39.64822408536611
 21
19.293637869181
 31
0.0
  0
LINE
  5
2E7
330
2
100
AcDbEntity
  8
GAIKEI
 62
     1
100
AcDbLine
 10
39.40313764646896
 20
19.79764245168309
 30
0.0
 11
39.40313764646896
 21
19.293637869181
 31
0.0
  0
LINE
  5
2E8
330
2
100
AcDbEntity
  8
GAIKEI
 62
     1
100
AcDbLine
 10
39.64822408536611
 20
19.79764245168309
 30
0.0
 11
39.40313764646896
 21
19.79764245168309
 31
0.0
  0
LINE
  5
2E9
330
2
100
AcDbEntity
  8
GAIKEI
 62
     1
100
AcDbLine
 10
40.14455491388651
 20
19.293637869181
 30
0.0
 11
40.14455491388651
 21
19.79764245168309
 31
0.0
  0
LINE
  5
2EA
330
2
100
AcDbEntity
  8
GAIKEI
 62
     1
100
AcDbLine
 10
39.89946847498931
 20
19.293637869181
 30
0.0
 11
40.14455491388651
 21
19.293637869181
 31
0.0
  0
LINE
  5
2EB
330
2
100
AcDbEntity
  8
GAIKEI
 62
     1
100
AcDbLine
 10
39.89946847498931
 20
19.79764245168309
 30
0.0
 11
39.89946847498931
 21
19.293637869181
 31
0.0
  0
LINE
  5
2EC
330
2
100
AcDbEntity
  8
GAIKEI
 62
     1
100
AcDbLine
 10
40.14455491388651
 20
19.79764245168309
 30
0.0
 11
39.89946847498931
 21
19.79764245168309
 31
0.0
  0
LINE
  5
2ED
330
2
100
AcDbEntity
  8
GAIKEI
 62
     1
100
AcDbLine
 10
40.64069626699988
 20
19.293637869181
 30
0.0
 11
40.64069626699988
 21
19.79764245168309
 31
0.0
  0
LINE
  5
2EE
330
2
100
AcDbEntity
  8
GAIKEI
 62
     1
100
AcDbLine
 10
40.39560982810274
 20
19.293637869181
 30
0.0
 11
40.64069626699988
 21
19.293637869181
 31
0.0
  0
LINE
  5
2EF
330
2
100
AcDbEntity
  8
GAIKEI
 62
     1
100
AcDbLine
 10
40.39560982810274
 20
19.79764245168309
 30
0.0
 11
40.39560982810274
 21
19.293637869181
 31
0.0
  0
LINE
  5
2F0
330
2
100
AcDbEntity
  8
GAIKEI
 62
     1
100
AcDbLine
 10
40.64069626699988
 20
19.79764245168309
 30
0.0
 11
40.39560982810274
 21
19.79764245168309
 31
0.0
  0
LINE
  5
2F1
330
2
100
AcDbEntity
  8
GAIKEI
 62
     1
100
AcDbLine
 10
41.1367428824098
 20
19.293637869181
 30
0.0
 11
41.1367428824098
 21
19.79764245168309
 31
0.0
  0
LINE
  5
2F2
330
2
100
AcDbEntity
  8
GAIKEI
 62
     1
100
AcDbLine
 10
40.89175118121613
 20
19.293637869181
 30
0.0
 11
41.1367428824098
 21
19.293637869181
 31
0.0
  0
LINE
  5
2F3
330
2
100
AcDbEntity
  8
GAIKEI
 62
     1
100
AcDbLine
 10
40.89175118121613
 20
19.79764245168309
 30
0.0
 11
40.89175118121613
 21
19.293637869181
 31
0.0
  0
LINE
  5
2F4
330
2
100
AcDbEntity
  8
GAIKEI
 62
     1
100
AcDbLine
 10
41.1367428824098
 20
19.79764245168309
 30
0.0
 11
40.89175118121613
 21
19.79764245168309
 31
0.0
  0
LINE
  5
2F5
330
2
100
AcDbEntity
  8
GAIKEI
 62
     1
100
AcDbLine
 10
41.63288423552319
 20
19.293637869181
 30
0.0
 11
41.63288423552319
 21
19.79764245168309
 31
0.0
  0
LINE
  5
2F6
330
2
100
AcDbEntity
  8
GAIKEI
 62
     1
100
AcDbLine
 10
41.38779779662605
 20
19.293637869181
 30
0.0
 11
41.63288423552319
 21
19.293637869181
 31
0.0
  0
LINE
  5
2F7
330
2
100
AcDbEntity
  8
GAIKEI
 62
     1
100
AcDbLine
 10
41.38779779662605
 20
19.79764245168309
 30
0.0
 11
41.38779779662605
 21
19.293637869181
 31
0.0
  0
LINE
  5
2F8
330
2
100
AcDbEntity
  8
GAIKEI
 62
     1
100
AcDbLine
 10
41.63288423552319
 20
19.79764245168309
 30
0.0
 11
41.38779779662605
 21
19.79764245168309
 31
0.0
  0
LINE
  5
2F9
330
2
100
AcDbEntity
  8
GAIKEI
 62
     1
100
AcDbLine
 10
42.12902558863663
 20
19.293637869181
 30
0.0
 11
42.12902558863663
 21
19.79764245168309
 31
0.0
  0
LINE
  5
2FA
330
2
100
AcDbEntity
  8
GAIKEI
 62
     1
100
AcDbLine
 10
41.88393914973942
 20
19.293637869181
 30
0.0
 11
42.12902558863663
 21
19.293637869181
 31
0.0
  0
LINE
  5
2FB
330
2
100
AcDbEntity
  8
GAIKEI
 62
     1
100
AcDbLine
 10
41.88393914973942
 20
19.79764245168309
 30
0.0
 11
41.88393914973942
 21
19.293637869181
 31
0.0
  0
LINE
  5
2FC
330
2
100
AcDbEntity
  8
GAIKEI
 62
     1
100
AcDbLine
 10
42.12902558863663
 20
19.79764245168309
 30
0.0
 11
41.88393914973942
 21
19.79764245168309
 31
0.0
  0
LINE
  5
2FD
330
2
100
AcDbEntity
  8
GAIKEI
 62
     1
100
AcDbLine
 10
42.62507220404653
 20
19.293637869181
 30
0.0
 11
42.62507220404653
 21
19.79764245168309
 31
0.0
  0
LINE
  5
2FE
330
2
100
AcDbEntity
  8
GAIKEI
 62
     1
100
AcDbLine
 10
42.38008050285282
 20
19.293637869181
 30
0.0
 11
42.62507220404653
 21
19.293637869181
 31
0.0
  0
LINE
  5
2FF
330
2
100
AcDbEntity
  8
GAIKEI
 62
     1
100
AcDbLine
 10
42.38008050285282
 20
19.79764245168309
 30
0.0
 11
42.38008050285282
 21
19.293637869181
 31
0.0
  0
LINE
  5
300
330
2
100
AcDbEntity
  8
GAIKEI
 62
     1
100
AcDbLine
 10
42.62507220404653
 20
19.79764245168309
 30
0.0
 11
42.38008050285282
 21
19.79764245168309
 31
0.0
  0
LINE
  5
301
330
2
100
AcDbEntity
  8
GAIKEI
 62
     1
100
AcDbLine
 10
35.18304664504905
 20
20.04926579212019
 30
0.0
 11
35.18304664504905
 21
20.55327037462223
 31
0.0
  0
LINE
  5
302
330
2
100
AcDbEntity
  8
GAIKEI
 62
     1
100
AcDbLine
 10
34.93805494385539
 20
20.04926579212019
 30
0.0
 11
35.18304664504905
 21
20.04926579212019
 31
0.0
  0
LINE
  5
303
330
2
100
AcDbEntity
  8
GAIKEI
 62
     1
100
AcDbLine
 10
34.93805494385539
 20
20.55327037462223
 30
0.0
 11
34.93805494385539
 21
20.04926579212019
 31
0.0
  0
LINE
  5
304
330
2
100
AcDbEntity
  8
GAIKEI
 62
     1
100
AcDbLine
 10
35.18304664504905
 20
20.55327037462223
 30
0.0
 11
34.93805494385539
 21
20.55327037462223
 31
0.0
  0
LINE
  5
305
330
2
100
AcDbEntity
  8
GAIKEI
 62
     1
100
AcDbLine
 10
35.67909326045896
 20
20.04926579212019
 30
0.0
 11
35.67909326045896
 21
20.55327037462223
 31
0.0
  0
LINE
  5
306
330
2
100
AcDbEntity
  8
GAIKEI
 62
     1
100
AcDbLine
 10
35.43410155926529
 20
20.04926579212019
 30
0.0
 11
35.67909326045896
 21
20.04926579212019
 31
0.0
  0
LINE
  5
307
330
2
100
AcDbEntity
  8
GAIKEI
 62
     1
100
AcDbLine
 10
35.43410155926529
 20
20.55327037462223
 30
0.0
 11
35.43410155926529
 21
20.04926579212019
 31
0.0
  0
LINE
  5
308
330
2
100
AcDbEntity
  8
GAIKEI
 62
     1
100
AcDbLine
 10
35.67909326045896
 20
20.55327037462223
 30
0.0
 11
35.43410155926529
 21
20.55327037462223
 31
0.0
  0
LINE
  5
309
330
2
100
AcDbEntity
  8
GAIKEI
 62
     1
100
AcDbLine
 10
36.1754240889793
 20
20.04926579212019
 30
0.0
 11
36.1754240889793
 21
20.55327037462223
 31
0.0
  0
LINE
  5
30A
330
2
100
AcDbEntity
  8
GAIKEI
 62
     1
100
AcDbLine
 10
35.9301481746752
 20
20.04926579212019
 30
0.0
 11
36.1754240889793
 21
20.04926579212019
 31
0.0
  0
LINE
  5
30B
330
2
100
AcDbEntity
  8
GAIKEI
 62
     1
100
AcDbLine
 10
35.9301481746752
 20
20.55327037462223
 30
0.0
 11
35.9301481746752
 21
20.04926579212019
 31
0.0
  0
LINE
  5
30C
330
2
100
AcDbEntity
  8
GAIKEI
 62
     1
100
AcDbLine
 10
36.1754240889793
 20
20.55327037462223
 30
0.0
 11
35.9301481746752
 21
20.55327037462223
 31
0.0
  0
LINE
  5
30D
330
2
100
AcDbEntity
  8
GAIKEI
 62
     1
100
AcDbLine
 10
36.67156544209269
 20
20.04926579212019
 30
0.0
 11
36.67156544209269
 21
20.55327037462223
 31
0.0
  0
LINE
  5
30E
330
2
100
AcDbEntity
  8
GAIKEI
 62
     1
100
AcDbLine
 10
36.42647900319554
 20
20.04926579212019
 30
0.0
 11
36.67156544209269
 21
20.04926579212019
 31
0.0
  0
LINE
  5
30F
330
2
100
AcDbEntity
  8
GAIKEI
 62
     1
100
AcDbLine
 10
36.42647900319554
 20
20.55327037462223
 30
0.0
 11
36.42647900319554
 21
20.04926579212019
 31
0.0
  0
LINE
  5
310
330
2
100
AcDbEntity
  8
GAIKEI
 62
     1
100
AcDbLine
 10
36.67156544209269
 20
20.55327037462223
 30
0.0
 11
36.42647900319554
 21
20.55327037462223
 31
0.0
  0
LINE
  5
311
330
2
100
AcDbEntity
  8
GAIKEI
 62
     1
100
AcDbLine
 10
37.16761205750265
 20
20.04926579212019
 30
0.0
 11
37.16761205750265
 21
20.55327037462223
 31
0.0
  0
LINE
  5
312
330
2
100
AcDbEntity
  8
GAIKEI
 62
     1
100
AcDbLine
 10
36.922620356309
 20
20.04926579212019
 30
0.0
 11
37.16761205750265
 21
20.04926579212019
 31
0.0
  0
LINE
  5
313
330
2
100
AcDbEntity
  8
GAIKEI
 62
     1
100
AcDbLine
 10
36.922620356309
 20
20.55327037462223
 30
0.0
 11
36.922620356309
 21
20.04926579212019
 31
0.0
  0
LINE
  5
314
330
2
100
AcDbEntity
  8
GAIKEI
 62
     1
100
AcDbLine
 10
37.16761205750265
 20
20.55327037462223
 30
0.0
 11
36.922620356309
 21
20.55327037462223
 31
0.0
  0
LINE
  5
315
330
2
100
AcDbEntity
  8
GAIKEI
 62
     1
100
AcDbLine
 10
37.66375341061604
 20
20.04926579212019
 30
0.0
 11
37.66375341061604
 21
20.55327037462223
 31
0.0
  0
LINE
  5
316
330
2
100
AcDbEntity
  8
GAIKEI
 62
     1
100
AcDbLine
 10
37.41847749631189
 20
20.04926579212019
 30
0.0
 11
37.66375341061604
 21
20.04926579212019
 31
0.0
  0
LINE
  5
317
330
2
100
AcDbEntity
  8
GAIKEI
 62
     1
100
AcDbLine
 10
37.41847749631189
 20
20.55327037462223
 30
0.0
 11
37.41847749631189
 21
20.04926579212019
 31
0.0
  0
LINE
  5
318
330
2
100
AcDbEntity
  8
GAIKEI
 62
     1
100
AcDbLine
 10
37.66375341061604
 20
20.55327037462223
 30
0.0
 11
37.41847749631189
 21
20.55327037462223
 31
0.0
  0
LINE
  5
319
330
2
100
AcDbEntity
  8
GAIKEI
 62
     1
100
AcDbLine
 10
38.15989476372943
 20
20.04926579212019
 30
0.0
 11
38.15989476372943
 21
20.55327037462223
 31
0.0
  0
LINE
  5
31A
330
2
100
AcDbEntity
  8
GAIKEI
 62
     1
100
AcDbLine
 10
37.91480832483228
 20
20.04926579212019
 30
0.0
 11
38.15989476372943
 21
20.04926579212019
 31
0.0
  0
LINE
  5
31B
330
2
100
AcDbEntity
  8
GAIKEI
 62
     1
100
AcDbLine
 10
37.91480832483228
 20
20.55327037462223
 30
0.0
 11
37.91480832483228
 21
20.04926579212019
 31
0.0
  0
LINE
  5
31C
330
2
100
AcDbEntity
  8
GAIKEI
 62
     1
100
AcDbLine
 10
38.15989476372943
 20
20.55327037462223
 30
0.0
 11
37.91480832483228
 21
20.55327037462223
 31
0.0
  0
LINE
  5
31D
330
2
100
AcDbEntity
  8
GAIKEI
 62
     1
100
AcDbLine
 10
38.65603611684282
 20
20.04926579212019
 30
0.0
 11
38.65603611684282
 21
20.55327037462223
 31
0.0
  0
LINE
  5
31E
330
2
100
AcDbEntity
  8
GAIKEI
 62
     1
100
AcDbLine
 10
38.41094967794568
 20
20.04926579212019
 30
0.0
 11
38.65603611684282
 21
20.04926579212019
 31
0.0
  0
LINE
  5
31F
330
2
100
AcDbEntity
  8
GAIKEI
 62
     1
100
AcDbLine
 10
38.41094967794568
 20
20.55327037462223
 30
0.0
 11
38.41094967794568
 21
20.04926579212019
 31
0.0
  0
LINE
  5
320
330
2
100
AcDbEntity
  8
GAIKEI
 62
     1
100
AcDbLine
 10
38.65603611684282
 20
20.55327037462223
 30
0.0
 11
38.41094967794568
 21
20.55327037462223
 31
0.0
  0
LINE
  5
321
330
2
100
AcDbEntity
  8
GAIKEI
 62
     1
100
AcDbLine
 10
39.15208273225271
 20
20.04926579212019
 30
0.0
 11
39.15208273225271
 21
20.55327037462223
 31
0.0
  0
LINE
  5
322
330
2
100
AcDbEntity
  8
GAIKEI
 62
     1
100
AcDbLine
 10
38.90709103105905
 20
20.04926579212019
 30
0.0
 11
39.15208273225271
 21
20.04926579212019
 31
0.0
  0
LINE
  5
323
330
2
100
AcDbEntity
  8
GAIKEI
 62
     1
100
AcDbLine
 10
38.90709103105905
 20
20.55327037462223
 30
0.0
 11
38.90709103105905
 21
20.04926579212019
 31
0.0
  0
LINE
  5
324
330
2
100
AcDbEntity
  8
GAIKEI
 62
     1
100
AcDbLine
 10
39.15208273225271
 20
20.55327037462223
 30
0.0
 11
38.90709103105905
 21
20.55327037462223
 31
0.0
  0
LINE
  5
325
330
2
100
AcDbEntity
  8
GAIKEI
 62
     1
100
AcDbLine
 10
39.64822408536611
 20
20.04926579212019
 30
0.0
 11
39.64822408536611
 21
20.55327037462223
 31
0.0
  0
LINE
  5
326
330
2
100
AcDbEntity
  8
GAIKEI
 62
     1
100
AcDbLine
 10
39.40313764646896
 20
20.04926579212019
 30
0.0
 11
39.64822408536611
 21
20.04926579212019
 31
0.0
  0
LINE
  5
327
330
2
100
AcDbEntity
  8
GAIKEI
 62
     1
100
AcDbLine
 10
39.40313764646896
 20
20.55327037462223
 30
0.0
 11
39.40313764646896
 21
20.04926579212019
 31
0.0
  0
LINE
  5
328
330
2
100
AcDbEntity
  8
GAIKEI
 62
     1
100
AcDbLine
 10
39.64822408536611
 20
20.55327037462223
 30
0.0
 11
39.40313764646896
 21
20.55327037462223
 31
0.0
  0
LINE
  5
329
330
2
100
AcDbEntity
  8
GAIKEI
 62
     1
100
AcDbLine
 10
40.14455491388651
 20
20.04926579212019
 30
0.0
 11
40.14455491388651
 21
20.55327037462223
 31
0.0
  0
LINE
  5
32A
330
2
100
AcDbEntity
  8
GAIKEI
 62
     1
100
AcDbLine
 10
39.89946847498931
 20
20.04926579212019
 30
0.0
 11
40.14455491388651
 21
20.04926579212019
 31
0.0
  0
LINE
  5
32B
330
2
100
AcDbEntity
  8
GAIKEI
 62
     1
100
AcDbLine
 10
39.89946847498931
 20
20.55327037462223
 30
0.0
 11
39.89946847498931
 21
20.04926579212019
 31
0.0
  0
LINE
  5
32C
330
2
100
AcDbEntity
  8
GAIKEI
 62
     1
100
AcDbLine
 10
40.14455491388651
 20
20.55327037462223
 30
0.0
 11
39.89946847498931
 21
20.55327037462223
 31
0.0
  0
LINE
  5
32D
330
2
100
AcDbEntity
  8
GAIKEI
 62
     1
100
AcDbLine
 10
40.64069626699988
 20
20.04926579212019
 30
0.0
 11
40.64069626699988
 21
20.55327037462223
 31
0.0
  0
LINE
  5
32E
330
2
100
AcDbEntity
  8
GAIKEI
 62
     1
100
AcDbLine
 10
40.39560982810274
 20
20.04926579212019
 30
0.0
 11
40.64069626699988
 21
20.04926579212019
 31
0.0
  0
LINE
  5
32F
330
2
100
AcDbEntity
  8
GAIKEI
 62
     1
100
AcDbLine
 10
40.39560982810274
 20
20.55327037462223
 30
0.0
 11
40.39560982810274
 21
20.04926579212019
 31
0.0
  0
LINE
  5
330
330
2
100
AcDbEntity
  8
GAIKEI
 62
     1
100
AcDbLine
 10
40.64069626699988
 20
20.55327037462223
 30
0.0
 11
40.39560982810274
 21
20.55327037462223
 31
0.0
  0
LINE
  5
331
330
2
100
AcDbEntity
  8
GAIKEI
 62
     1
100
AcDbLine
 10
41.1367428824098
 20
20.04926579212019
 30
0.0
 11
41.1367428824098
 21
20.55327037462223
 31
0.0
  0
LINE
  5
332
330
2
100
AcDbEntity
  8
GAIKEI
 62
     1
100
AcDbLine
 10
40.89175118121613
 20
20.04926579212019
 30
0.0
 11
41.1367428824098
 21
20.04926579212019
 31
0.0
  0
LINE
  5
333
330
2
100
AcDbEntity
  8
GAIKEI
 62
     1
100
AcDbLine
 10
40.89175118121613
 20
20.55327037462223
 30
0.0
 11
40.89175118121613
 21
20.04926579212019
 31
0.0
  0
LINE
  5
334
330
2
100
AcDbEntity
  8
GAIKEI
 62
     1
100
AcDbLine
 10
41.1367428824098
 20
20.55327037462223
 30
0.0
 11
40.89175118121613
 21
20.55327037462223
 31
0.0
  0
LINE
  5
335
330
2
100
AcDbEntity
  8
GAIKEI
 62
     1
100
AcDbLine
 10
41.63288423552319
 20
20.04926579212019
 30
0.0
 11
41.63288423552319
 21
20.55327037462223
 31
0.0
  0
LINE
  5
336
330
2
100
AcDbEntity
  8
GAIKEI
 62
     1
100
AcDbLine
 10
41.38779779662605
 20
20.04926579212019
 30
0.0
 11
41.63288423552319
 21
20.04926579212019
 31
0.0
  0
LINE
  5
337
330
2
100
AcDbEntity
  8
GAIKEI
 62
     1
100
AcDbLine
 10
41.38779779662605
 20
20.55327037462223
 30
0.0
 11
41.38779779662605
 21
20.04926579212019
 31
0.0
  0
LINE
  5
338
330
2
100
AcDbEntity
  8
GAIKEI
 62
     1
100
AcDbLine
 10
41.63288423552319
 20
20.55327037462223
 30
0.0
 11
41.38779779662605
 21
20.55327037462223
 31
0.0
  0
LINE
  5
339
330
2
100
AcDbEntity
  8
GAIKEI
 62
     1
100
AcDbLine
 10
42.12902558863658
 20
20.04926579212019
 30
0.0
 11
42.12902558863658
 21
20.55327037462223
 31
0.0
  0
LINE
  5
33A
330
2
100
AcDbEntity
  8
GAIKEI
 62
     1
100
AcDbLine
 10
41.88393914973942
 20
20.04926579212019
 30
0.0
 11
42.12902558863658
 21
20.04926579212019
 31
0.0
  0
LINE
  5
33B
330
2
100
AcDbEntity
  8
GAIKEI
 62
     1
100
AcDbLine
 10
41.88393914973942
 20
20.55327037462223
 30
0.0
 11
41.88393914973942
 21
20.04926579212019
 31
0.0
  0
LINE
  5
33C
330
2
100
AcDbEntity
  8
GAIKEI
 62
     1
100
AcDbLine
 10
42.12902558863658
 20
20.55327037462223
 30
0.0
 11
41.88393914973942
 21
20.55327037462223
 31
0.0
  0
LINE
  5
33D
330
2
100
AcDbEntity
  8
GAIKEI
 62
     1
100
AcDbLine
 10
42.62507220404649
 20
20.04926579212019
 30
0.0
 11
42.62507220404649
 21
20.55327037462223
 31
0.0
  0
LINE
  5
33E
330
2
100
AcDbEntity
  8
GAIKEI
 62
     1
100
AcDbLine
 10
42.38008050285282
 20
20.04926579212019
 30
0.0
 11
42.62507220404649
 21
20.04926579212019
 31
0.0
  0
LINE
  5
33F
330
2
100
AcDbEntity
  8
GAIKEI
 62
     1
100
AcDbLine
 10
42.38008050285282
 20
20.55327037462223
 30
0.0
 11
42.38008050285282
 21
20.04926579212019
 31
0.0
  0
LINE
  5
340
330
2
100
AcDbEntity
  8
GAIKEI
 62
     1
100
AcDbLine
 10
42.62507220404649
 20
20.55327037462223
 30
0.0
 11
42.38008050285282
 21
20.55327037462223
 31
0.0
  0
LINE
  5
341
330
2
100
AcDbEntity
  8
GAIKEI
 62
     1
100
AcDbLine
 10
35.18304664504905
 20
20.80470423965244
 30
0.0
 11
35.18304664504905
 21
21.30870882215447
 31
0.0
  0
LINE
  5
342
330
2
100
AcDbEntity
  8
GAIKEI
 62
     1
100
AcDbLine
 10
34.93805494385539
 20
20.80470423965244
 30
0.0
 11
35.18304664504905
 21
20.80470423965244
 31
0.0
  0
LINE
  5
343
330
2
100
AcDbEntity
  8
GAIKEI
 62
     1
100
AcDbLine
 10
34.93805494385539
 20
21.30870882215447
 30
0.0
 11
34.93805494385539
 21
20.80470423965244
 31
0.0
  0
LINE
  5
344
330
2
100
AcDbEntity
  8
GAIKEI
 62
     1
100
AcDbLine
 10
35.18304664504905
 20
21.30870882215447
 30
0.0
 11
34.93805494385539
 21
21.30870882215447
 31
0.0
  0
LINE
  5
345
330
2
100
AcDbEntity
  8
GAIKEI
 62
     1
100
AcDbLine
 10
35.67909326045896
 20
20.80470423965244
 30
0.0
 11
35.67909326045896
 21
21.30870882215447
 31
0.0
  0
LINE
  5
346
330
2
100
AcDbEntity
  8
GAIKEI
 62
     1
100
AcDbLine
 10
35.43410155926529
 20
20.80470423965244
 30
0.0
 11
35.67909326045896
 21
20.80470423965244
 31
0.0
  0
LINE
  5
347
330
2
100
AcDbEntity
  8
GAIKEI
 62
     1
100
AcDbLine
 10
35.43410155926529
 20
21.30870882215447
 30
0.0
 11
35.43410155926529
 21
20.80470423965244
 31
0.0
  0
LINE
  5
348
330
2
100
AcDbEntity
  8
GAIKEI
 62
     1
100
AcDbLine
 10
35.67909326045896
 20
21.30870882215447
 30
0.0
 11
35.43410155926529
 21
21.30870882215447
 31
0.0
  0
LINE
  5
349
330
2
100
AcDbEntity
  8
GAIKEI
 62
     1
100
AcDbLine
 10
36.1754240889793
 20
20.80470423965244
 30
0.0
 11
36.1754240889793
 21
21.30870882215447
 31
0.0
  0
LINE
  5
34A
330
2
100
AcDbEntity
  8
GAIKEI
 62
     1
100
AcDbLine
 10
35.9301481746752
 20
20.80470423965244
 30
0.0
 11
36.1754240889793
 21
20.80470423965244
 31
0.0
  0
LINE
  5
34B
330
2
100
AcDbEntity
  8
GAIKEI
 62
     1
100
AcDbLine
 10
35.9301481746752
 20
21.30870882215447
 30
0.0
 11
35.9301481746752
 21
20.80470423965244
 31
0.0
  0
LINE
  5
34C
330
2
100
AcDbEntity
  8
GAIKEI
 62
     1
100
AcDbLine
 10
36.1754240889793
 20
21.30870882215447
 30
0.0
 11
35.9301481746752
 21
21.30870882215447
 31
0.0
  0
LINE
  5
34D
330
2
100
AcDbEntity
  8
GAIKEI
 62
     1
100
AcDbLine
 10
36.67156544209269
 20
20.80470423965244
 30
0.0
 11
36.67156544209269
 21
21.30870882215447
 31
0.0
  0
LINE
  5
34E
330
2
100
AcDbEntity
  8
GAIKEI
 62
     1
100
AcDbLine
 10
36.42647900319554
 20
20.80470423965244
 30
0.0
 11
36.67156544209269
 21
20.80470423965244
 31
0.0
  0
LINE
  5
34F
330
2
100
AcDbEntity
  8
GAIKEI
 62
     1
100
AcDbLine
 10
36.42647900319554
 20
21.30870882215447
 30
0.0
 11
36.42647900319554
 21
20.80470423965244
 31
0.0
  0
LINE
  5
350
330
2
100
AcDbEntity
  8
GAIKEI
 62
     1
100
AcDbLine
 10
36.67156544209269
 20
21.30870882215447
 30
0.0
 11
36.42647900319554
 21
21.30870882215447
 31
0.0
  0
LINE
  5
351
330
2
100
AcDbEntity
  8
GAIKEI
 62
     1
100
AcDbLine
 10
37.16761205750259
 20
20.80470423965244
 30
0.0
 11
37.16761205750259
 21
21.30870882215447
 31
0.0
  0
LINE
  5
352
330
2
100
AcDbEntity
  8
GAIKEI
 62
     1
100
AcDbLine
 10
36.92262035630893
 20
20.80470423965244
 30
0.0
 11
37.16761205750259
 21
20.80470423965244
 31
0.0
  0
LINE
  5
353
330
2
100
AcDbEntity
  8
GAIKEI
 62
     1
100
AcDbLine
 10
36.92262035630893
 20
21.30870882215447
 30
0.0
 11
36.92262035630893
 21
20.80470423965244
 31
0.0
  0
LINE
  5
354
330
2
100
AcDbEntity
  8
GAIKEI
 62
     1
100
AcDbLine
 10
37.16761205750259
 20
21.30870882215447
 30
0.0
 11
36.92262035630893
 21
21.30870882215447
 31
0.0
  0
LINE
  5
355
330
2
100
AcDbEntity
  8
GAIKEI
 62
     1
100
AcDbLine
 10
37.66375341061604
 20
20.80470423965244
 30
0.0
 11
37.66375341061604
 21
21.30870882215447
 31
0.0
  0
LINE
  5
356
330
2
100
AcDbEntity
  8
GAIKEI
 62
     1
100
AcDbLine
 10
37.41847749631189
 20
20.80470423965244
 30
0.0
 11
37.66375341061604
 21
20.80470423965244
 31
0.0
  0
LINE
  5
357
330
2
100
AcDbEntity
  8
GAIKEI
 62
     1
100
AcDbLine
 10
37.41847749631189
 20
21.30870882215447
 30
0.0
 11
37.41847749631189
 21
20.80470423965244
 31
0.0
  0
LINE
  5
358
330
2
100
AcDbEntity
  8
GAIKEI
 62
     1
100
AcDbLine
 10
37.66375341061604
 20
21.30870882215447
 30
0.0
 11
37.41847749631189
 21
21.30870882215447
 31
0.0
  0
LINE
  5
359
330
2
100
AcDbEntity
  8
GAIKEI
 62
     1
100
AcDbLine
 10
38.15989476372943
 20
20.80470423965244
 30
0.0
 11
38.15989476372943
 21
21.30870882215447
 31
0.0
  0
LINE
  5
35A
330
2
100
AcDbEntity
  8
GAIKEI
 62
     1
100
AcDbLine
 10
37.91480832483228
 20
20.80470423965244
 30
0.0
 11
38.15989476372943
 21
20.80470423965244
 31
0.0
  0
LINE
  5
35B
330
2
100
AcDbEntity
  8
GAIKEI
 62
     1
100
AcDbLine
 10
37.91480832483228
 20
21.30870882215447
 30
0.0
 11
37.91480832483228
 21
20.80470423965244
 31
0.0
  0
LINE
  5
35C
330
2
100
AcDbEntity
  8
GAIKEI
 62
     1
100
AcDbLine
 10
38.15989476372943
 20
21.30870882215447
 30
0.0
 11
37.91480832483228
 21
21.30870882215447
 31
0.0
  0
LINE
  5
35D
330
2
100
AcDbEntity
  8
GAIKEI
 62
     1
100
AcDbLine
 10
38.65603611684282
 20
20.80470423965244
 30
0.0
 11
38.65603611684282
 21
21.30870882215447
 31
0.0
  0
LINE
  5
35E
330
2
100
AcDbEntity
  8
GAIKEI
 62
     1
100
AcDbLine
 10
38.41094967794568
 20
20.80470423965244
 30
0.0
 11
38.65603611684282
 21
20.80470423965244
 31
0.0
  0
LINE
  5
35F
330
2
100
AcDbEntity
  8
GAIKEI
 62
     1
100
AcDbLine
 10
38.41094967794568
 20
21.30870882215447
 30
0.0
 11
38.41094967794568
 21
20.80470423965244
 31
0.0
  0
LINE
  5
360
330
2
100
AcDbEntity
  8
GAIKEI
 62
     1
100
AcDbLine
 10
38.65603611684282
 20
21.30870882215447
 30
0.0
 11
38.41094967794568
 21
21.30870882215447
 31
0.0
  0
LINE
  5
361
330
2
100
AcDbEntity
  8
GAIKEI
 62
     1
100
AcDbLine
 10
39.15208273225271
 20
20.80470423965244
 30
0.0
 11
39.15208273225271
 21
21.30870882215447
 31
0.0
  0
LINE
  5
362
330
2
100
AcDbEntity
  8
GAIKEI
 62
     1
100
AcDbLine
 10
38.90709103105905
 20
20.80470423965244
 30
0.0
 11
39.15208273225271
 21
20.80470423965244
 31
0.0
  0
LINE
  5
363
330
2
100
AcDbEntity
  8
GAIKEI
 62
     1
100
AcDbLine
 10
38.90709103105905
 20
21.30870882215447
 30
0.0
 11
38.90709103105905
 21
20.80470423965244
 31
0.0
  0
LINE
  5
364
330
2
100
AcDbEntity
  8
GAIKEI
 62
     1
100
AcDbLine
 10
39.15208273225271
 20
21.30870882215447
 30
0.0
 11
38.90709103105905
 21
21.30870882215447
 31
0.0
  0
LINE
  5
365
330
2
100
AcDbEntity
  8
GAIKEI
 62
     1
100
AcDbLine
 10
39.64822408536611
 20
20.80470423965244
 30
0.0
 11
39.64822408536611
 21
21.30870882215447
 31
0.0
  0
LINE
  5
366
330
2
100
AcDbEntity
  8
GAIKEI
 62
     1
100
AcDbLine
 10
39.40313764646896
 20
20.80470423965244
 30
0.0
 11
39.64822408536611
 21
20.80470423965244
 31
0.0
  0
LINE
  5
367
330
2
100
AcDbEntity
  8
GAIKEI
 62
     1
100
AcDbLine
 10
39.40313764646896
 20
21.30870882215447
 30
0.0
 11
39.40313764646896
 21
20.80470423965244
 31
0.0
  0
LINE
  5
368
330
2
100
AcDbEntity
  8
GAIKEI
 62
     1
100
AcDbLine
 10
39.64822408536611
 20
21.30870882215447
 30
0.0
 11
39.40313764646896
 21
21.30870882215447
 31
0.0
  0
LINE
  5
369
330
2
100
AcDbEntity
  8
GAIKEI
 62
     1
100
AcDbLine
 10
40.14455491388645
 20
20.80470423965244
 30
0.0
 11
40.14455491388645
 21
21.30870882215447
 31
0.0
  0
LINE
  5
36A
330
2
100
AcDbEntity
  8
GAIKEI
 62
     1
100
AcDbLine
 10
39.89946847498931
 20
20.80470423965244
 30
0.0
 11
40.14455491388645
 21
20.80470423965244
 31
0.0
  0
LINE
  5
36B
330
2
100
AcDbEntity
  8
GAIKEI
 62
     1
100
AcDbLine
 10
39.89946847498931
 20
21.30870882215447
 30
0.0
 11
39.89946847498931
 21
20.80470423965244
 31
0.0
  0
LINE
  5
36C
330
2
100
AcDbEntity
  8
GAIKEI
 62
     1
100
AcDbLine
 10
40.14455491388645
 20
21.30870882215447
 30
0.0
 11
39.89946847498931
 21
21.30870882215447
 31
0.0
  0
LINE
  5
36D
330
2
100
AcDbEntity
  8
GAIKEI
 62
     1
100
AcDbLine
 10
40.64069626699988
 20
20.80470423965244
 30
0.0
 11
40.64069626699988
 21
21.30870882215447
 31
0.0
  0
LINE
  5
36E
330
2
100
AcDbEntity
  8
GAIKEI
 62
     1
100
AcDbLine
 10
40.39560982810268
 20
20.80470423965244
 30
0.0
 11
40.64069626699988
 21
20.80470423965244
 31
0.0
  0
LINE
  5
36F
330
2
100
AcDbEntity
  8
GAIKEI
 62
     1
100
AcDbLine
 10
40.39560982810268
 20
21.30870882215447
 30
0.0
 11
40.39560982810268
 21
20.80470423965244
 31
0.0
  0
LINE
  5
370
330
2
100
AcDbEntity
  8
GAIKEI
 62
     1
100
AcDbLine
 10
40.64069626699988
 20
21.30870882215447
 30
0.0
 11
40.39560982810268
 21
21.30870882215447
 31
0.0
  0
LINE
  5
371
330
2
100
AcDbEntity
  8
GAIKEI
 62
     1
100
AcDbLine
 10
41.1367428824098
 20
20.80470423965244
 30
0.0
 11
41.1367428824098
 21
21.30870882215447
 31
0.0
  0
LINE
  5
372
330
2
100
AcDbEntity
  8
GAIKEI
 62
     1
100
AcDbLine
 10
40.89175118121613
 20
20.80470423965244
 30
0.0
 11
41.1367428824098
 21
20.80470423965244
 31
0.0
  0
LINE
  5
373
330
2
100
AcDbEntity
  8
GAIKEI
 62
     1
100
AcDbLine
 10
40.89175118121613
 20
21.30870882215447
 30
0.0
 11
40.89175118121613
 21
20.80470423965244
 31
0.0
  0
LINE
  5
374
330
2
100
AcDbEntity
  8
GAIKEI
 62
     1
100
AcDbLine
 10
41.1367428824098
 20
21.30870882215447
 30
0.0
 11
40.89175118121613
 21
21.30870882215447
 31
0.0
  0
LINE
  5
375
330
2
100
AcDbEntity
  8
GAIKEI
 62
     1
100
AcDbLine
 10
41.63288423552319
 20
20.80470423965244
 30
0.0
 11
41.63288423552319
 21
21.30870882215447
 31
0.0
  0
LINE
  5
376
330
2
100
AcDbEntity
  8
GAIKEI
 62
     1
100
AcDbLine
 10
41.38779779662605
 20
20.80470423965244
 30
0.0
 11
41.63288423552319
 21
20.80470423965244
 31
0.0
  0
LINE
  5
377
330
2
100
AcDbEntity
  8
GAIKEI
 62
     1
100
AcDbLine
 10
41.38779779662605
 20
21.30870882215447
 30
0.0
 11
41.38779779662605
 21
20.80470423965244
 31
0.0
  0
LINE
  5
378
330
2
100
AcDbEntity
  8
GAIKEI
 62
     1
100
AcDbLine
 10
41.63288423552319
 20
21.30870882215447
 30
0.0
 11
41.38779779662605
 21
21.30870882215447
 31
0.0
  0
LINE
  5
379
330
2
100
AcDbEntity
  8
GAIKEI
 62
     1
100
AcDbLine
 10
42.12902558863658
 20
20.80470423965244
 30
0.0
 11
42.12902558863658
 21
21.30870882215447
 31
0.0
  0
LINE
  5
37A
330
2
100
AcDbEntity
  8
GAIKEI
 62
     1
100
AcDbLine
 10
41.88393914973942
 20
20.80470423965244
 30
0.0
 11
42.12902558863658
 21
20.80470423965244
 31
0.0
  0
LINE
  5
37B
330
2
100
AcDbEntity
  8
GAIKEI
 62
     1
100
AcDbLine
 10
41.88393914973942
 20
21.30870882215447
 30
0.0
 11
41.88393914973942
 21
20.80470423965244
 31
0.0
  0
LINE
  5
37C
330
2
100
AcDbEntity
  8
GAIKEI
 62
     1
100
AcDbLine
 10
42.12902558863658
 20
21.30870882215447
 30
0.0
 11
41.88393914973942
 21
21.30870882215447
 31
0.0
  0
LINE
  5
37D
330
2
100
AcDbEntity
  8
GAIKEI
 62
     1
100
AcDbLine
 10
42.62507220404649
 20
20.80470423965244
 30
0.0
 11
42.62507220404649
 21
21.30870882215447
 31
0.0
  0
LINE
  5
37E
330
2
100
AcDbEntity
  8
GAIKEI
 62
     1
100
AcDbLine
 10
42.38008050285282
 20
20.80470423965244
 30
0.0
 11
42.62507220404649
 21
20.80470423965244
 31
0.0
  0
LINE
  5
37F
330
2
100
AcDbEntity
  8
GAIKEI
 62
     1
100
AcDbLine
 10
42.38008050285282
 20
21.30870882215447
 30
0.0
 11
42.38008050285282
 21
20.80470423965244
 31
0.0
  0
LINE
  5
380
330
2
100
AcDbEntity
  8
GAIKEI
 62
     1
100
AcDbLine
 10
42.62507220404649
 20
21.30870882215447
 30
0.0
 11
42.38008050285282
 21
21.30870882215447
 31
0.0
  0
LINE
  5
381
330
2
100
AcDbEntity
  8
GAIKEI
 62
     1
100
AcDbLine
 10
43.81658830068714
 20
16.83007862794352
 30
0.0
 11
43.81658830068714
 21
17.33427268585251
 31
0.0
  0
LINE
  5
382
330
2
100
AcDbEntity
  8
GAIKEI
 62
     1
100
AcDbLine
 10
43.57159659949354
 20
16.83007862794352
 30
0.0
 11
43.81658830068714
 21
16.83007862794352
 31
0.0
  0
LINE
  5
383
330
2
100
AcDbEntity
  8
GAIKEI
 62
     1
100
AcDbLine
 10
43.57159659949354
 20
17.33427268585251
 30
0.0
 11
43.57159659949354
 21
16.83007862794352
 31
0.0
  0
LINE
  5
384
330
2
100
AcDbEntity
  8
GAIKEI
 62
     1
100
AcDbLine
 10
43.81658830068714
 20
17.33427268585251
 30
0.0
 11
43.57159659949354
 21
17.33427268585251
 31
0.0
  0
LINE
  5
385
330
2
100
AcDbEntity
  8
GAIKEI
 62
     1
100
AcDbLine
 10
44.31272965380053
 20
16.83007862794352
 30
0.0
 11
44.31272965380053
 21
17.33427268585251
 31
0.0
  0
LINE
  5
386
330
2
100
AcDbEntity
  8
GAIKEI
 62
     1
100
AcDbLine
 10
44.06764321490345
 20
16.83007862794352
 30
0.0
 11
44.31272965380053
 21
16.83007862794352
 31
0.0
  0
LINE
  5
387
330
2
100
AcDbEntity
  8
GAIKEI
 62
     1
100
AcDbLine
 10
44.06764321490345
 20
17.33427268585251
 30
0.0
 11
44.06764321490345
 21
16.83007862794352
 31
0.0
  0
LINE
  5
388
330
2
100
AcDbEntity
  8
GAIKEI
 62
     1
100
AcDbLine
 10
44.31272965380053
 20
17.33427268585251
 30
0.0
 11
44.06764321490345
 21
17.33427268585251
 31
0.0
  0
LINE
  5
389
330
2
100
AcDbEntity
  8
GAIKEI
 62
     1
100
AcDbLine
 10
44.808871006914
 20
16.83007862794352
 30
0.0
 11
44.808871006914
 21
17.33427268585251
 31
0.0
  0
LINE
  5
38A
330
2
100
AcDbEntity
  8
GAIKEI
 62
     1
100
AcDbLine
 10
44.56378456801684
 20
16.83007862794352
 30
0.0
 11
44.808871006914
 21
16.83007862794352
 31
0.0
  0
LINE
  5
38B
330
2
100
AcDbEntity
  8
GAIKEI
 62
     1
100
AcDbLine
 10
44.56378456801684
 20
17.33427268585251
 30
0.0
 11
44.56378456801684
 21
16.83007862794352
 31
0.0
  0
LINE
  5
38C
330
2
100
AcDbEntity
  8
GAIKEI
 62
     1
100
AcDbLine
 10
44.808871006914
 20
17.33427268585251
 30
0.0
 11
44.56378456801684
 21
17.33427268585251
 31
0.0
  0
LINE
  5
38D
330
2
100
AcDbEntity
  8
GAIKEI
 62
     1
100
AcDbLine
 10
45.30491762232389
 20
16.83007862794352
 30
0.0
 11
45.30491762232389
 21
17.33427268585251
 31
0.0
  0
LINE
  5
38E
330
2
100
AcDbEntity
  8
GAIKEI
 62
     1
100
AcDbLine
 10
45.05992592113023
 20
16.83007862794352
 30
0.0
 11
45.30491762232389
 21
16.83007862794352
 31
0.0
  0
LINE
  5
38F
330
2
100
AcDbEntity
  8
GAIKEI
 62
     1
100
AcDbLine
 10
45.05992592113023
 20
17.33427268585251
 30
0.0
 11
45.05992592113023
 21
16.83007862794352
 31
0.0
  0
LINE
  5
390
330
2
100
AcDbEntity
  8
GAIKEI
 62
     1
100
AcDbLine
 10
45.30491762232389
 20
17.33427268585251
 30
0.0
 11
45.05992592113023
 21
17.33427268585251
 31
0.0
  0
LINE
  5
391
330
2
100
AcDbEntity
  8
GAIKEI
 62
     1
100
AcDbLine
 10
45.80105897543727
 20
16.83007862794352
 30
0.0
 11
45.80105897543727
 21
17.33427268585251
 31
0.0
  0
LINE
  5
392
330
2
100
AcDbEntity
  8
GAIKEI
 62
     1
100
AcDbLine
 10
45.55606727424367
 20
16.83007862794352
 30
0.0
 11
45.80105897543727
 21
16.83007862794352
 31
0.0
  0
LINE
  5
393
330
2
100
AcDbEntity
  8
GAIKEI
 62
     1
100
AcDbLine
 10
45.55606727424367
 20
17.33427268585251
 30
0.0
 11
45.55606727424367
 21
16.83007862794352
 31
0.0
  0
LINE
  5
394
330
2
100
AcDbEntity
  8
GAIKEI
 62
     1
100
AcDbLine
 10
45.80105897543727
 20
17.33427268585251
 30
0.0
 11
45.55606727424367
 21
17.33427268585251
 31
0.0
  0
LINE
  5
395
330
2
100
AcDbEntity
  8
GAIKEI
 62
     1
100
AcDbLine
 10
46.29720032855067
 20
16.83007862794352
 30
0.0
 11
46.29720032855067
 21
17.33427268585251
 31
0.0
  0
LINE
  5
396
330
2
100
AcDbEntity
  8
GAIKEI
 62
     1
100
AcDbLine
 10
46.05211388965357
 20
16.83007862794352
 30
0.0
 11
46.29720032855067
 21
16.83007862794352
 31
0.0
  0
LINE
  5
397
330
2
100
AcDbEntity
  8
GAIKEI
 62
     1
100
AcDbLine
 10
46.05211388965357
 20
17.33427268585251
 30
0.0
 11
46.05211388965357
 21
16.83007862794352
 31
0.0
  0
LINE
  5
398
330
2
100
AcDbEntity
  8
GAIKEI
 62
     1
100
AcDbLine
 10
46.29720032855067
 20
17.33427268585251
 30
0.0
 11
46.05211388965357
 21
17.33427268585251
 31
0.0
  0
LINE
  5
399
330
2
100
AcDbEntity
  8
GAIKEI
 62
     1
100
AcDbLine
 10
46.79334168166412
 20
16.83007862794352
 30
0.0
 11
46.79334168166412
 21
17.33427268585251
 31
0.0
  0
LINE
  5
39A
330
2
100
AcDbEntity
  8
GAIKEI
 62
     1
100
AcDbLine
 10
46.54825524276691
 20
16.83007862794352
 30
0.0
 11
46.79334168166412
 21
16.83007862794352
 31
0.0
  0
LINE
  5
39B
330
2
100
AcDbEntity
  8
GAIKEI
 62
     1
100
AcDbLine
 10
46.54825524276691
 20
17.33427268585251
 30
0.0
 11
46.54825524276691
 21
16.83007862794352
 31
0.0
  0
LINE
  5
39C
330
2
100
AcDbEntity
  8
GAIKEI
 62
     1
100
AcDbLine
 10
46.79334168166412
 20
17.33427268585251
 30
0.0
 11
46.54825524276691
 21
17.33427268585251
 31
0.0
  0
LINE
  5
39D
330
2
100
AcDbEntity
  8
GAIKEI
 62
     1
100
AcDbLine
 10
47.28957777248097
 20
16.83007862794352
 30
0.0
 11
47.28957777248097
 21
17.33427268585251
 31
0.0
  0
LINE
  5
39E
330
2
100
AcDbEntity
  8
GAIKEI
 62
     1
100
AcDbLine
 10
47.04458607128731
 20
16.83007862794352
 30
0.0
 11
47.28957777248097
 21
16.83007862794352
 31
0.0
  0
LINE
  5
39F
330
2
100
AcDbEntity
  8
GAIKEI
 62
     1
100
AcDbLine
 10
47.04458607128731
 20
17.33427268585251
 30
0.0
 11
47.04458607128731
 21
16.83007862794352
 31
0.0
  0
LINE
  5
3A0
330
2
100
AcDbEntity
  8
GAIKEI
 62
     1
100
AcDbLine
 10
47.28957777248097
 20
17.33427268585251
 30
0.0
 11
47.04458607128731
 21
17.33427268585251
 31
0.0
  0
LINE
  5
3A1
330
2
100
AcDbEntity
  8
GAIKEI
 62
     1
100
AcDbLine
 10
47.7855296501874
 20
16.83007862794352
 30
0.0
 11
47.7855296501874
 21
17.33427268585251
 31
0.0
  0
LINE
  5
3A2
330
2
100
AcDbEntity
  8
GAIKEI
 62
     1
100
AcDbLine
 10
47.54053794899373
 20
16.83007862794352
 30
0.0
 11
47.7855296501874
 21
16.83007862794352
 31
0.0
  0
LINE
  5
3A3
330
2
100
AcDbEntity
  8
GAIKEI
 62
     1
100
AcDbLine
 10
47.54053794899373
 20
17.33427268585251
 30
0.0
 11
47.54053794899373
 21
16.83007862794352
 31
0.0
  0
LINE
  5
3A4
330
2
100
AcDbEntity
  8
GAIKEI
 62
     1
100
AcDbLine
 10
47.7855296501874
 20
17.33427268585251
 30
0.0
 11
47.54053794899373
 21
17.33427268585251
 31
0.0
  0
LINE
  5
3A5
330
2
100
AcDbEntity
  8
GAIKEI
 62
     1
100
AcDbLine
 10
48.2816710033008
 20
16.83007862794352
 30
0.0
 11
48.2816710033008
 21
17.33427268585251
 31
0.0
  0
LINE
  5
3A6
330
2
100
AcDbEntity
  8
GAIKEI
 62
     1
100
AcDbLine
 10
48.03658456440365
 20
16.83007862794352
 30
0.0
 11
48.2816710033008
 21
16.83007862794352
 31
0.0
  0
LINE
  5
3A7
330
2
100
AcDbEntity
  8
GAIKEI
 62
     1
100
AcDbLine
 10
48.03658456440365
 20
17.33427268585251
 30
0.0
 11
48.03658456440365
 21
16.83007862794352
 31
0.0
  0
LINE
  5
3A8
330
2
100
AcDbEntity
  8
GAIKEI
 62
     1
100
AcDbLine
 10
48.2816710033008
 20
17.33427268585251
 30
0.0
 11
48.03658456440365
 21
17.33427268585251
 31
0.0
  0
LINE
  5
3A9
330
2
100
AcDbEntity
  8
GAIKEI
 62
     1
100
AcDbLine
 10
48.77800183182113
 20
16.83007862794352
 30
0.0
 11
48.77800183182113
 21
17.33427268585251
 31
0.0
  0
LINE
  5
3AA
330
2
100
AcDbEntity
  8
GAIKEI
 62
     1
100
AcDbLine
 10
48.53291539292399
 20
16.83007862794352
 30
0.0
 11
48.77800183182113
 21
16.83007862794352
 31
0.0
  0
LINE
  5
3AB
330
2
100
AcDbEntity
  8
GAIKEI
 62
     1
100
AcDbLine
 10
48.53291539292399
 20
17.33427268585251
 30
0.0
 11
48.53291539292399
 21
16.83007862794352
 31
0.0
  0
LINE
  5
3AC
330
2
100
AcDbEntity
  8
GAIKEI
 62
     1
100
AcDbLine
 10
48.77800183182113
 20
17.33427268585251
 30
0.0
 11
48.53291539292399
 21
17.33427268585251
 31
0.0
  0
LINE
  5
3AD
330
2
100
AcDbEntity
  8
GAIKEI
 62
     1
100
AcDbLine
 10
49.27404844723104
 20
16.83007862794352
 30
0.0
 11
49.27404844723104
 21
17.33427268585251
 31
0.0
  0
LINE
  5
3AE
330
2
100
AcDbEntity
  8
GAIKEI
 62
     1
100
AcDbLine
 10
49.02905674603744
 20
16.83007862794352
 30
0.0
 11
49.27404844723104
 21
16.83007862794352
 31
0.0
  0
LINE
  5
3AF
330
2
100
AcDbEntity
  8
GAIKEI
 62
     1
100
AcDbLine
 10
49.02905674603744
 20
17.33427268585251
 30
0.0
 11
49.02905674603744
 21
16.83007862794352
 31
0.0
  0
LINE
  5
3B0
330
2
100
AcDbEntity
  8
GAIKEI
 62
     1
100
AcDbLine
 10
49.27404844723104
 20
17.33427268585251
 30
0.0
 11
49.02905674603744
 21
17.33427268585251
 31
0.0
  0
LINE
  5
3B1
330
2
100
AcDbEntity
  8
GAIKEI
 62
     1
100
AcDbLine
 10
49.7701898003445
 20
16.83007862794352
 30
0.0
 11
49.7701898003445
 21
17.33427268585251
 31
0.0
  0
LINE
  5
3B2
330
2
100
AcDbEntity
  8
GAIKEI
 62
     1
100
AcDbLine
 10
49.52519809915077
 20
16.83007862794352
 30
0.0
 11
49.7701898003445
 21
16.83007862794352
 31
0.0
  0
LINE
  5
3B3
330
2
100
AcDbEntity
  8
GAIKEI
 62
     1
100
AcDbLine
 10
49.52519809915077
 20
17.33427268585251
 30
0.0
 11
49.52519809915077
 21
16.83007862794352
 31
0.0
  0
LINE
  5
3B4
330
2
100
AcDbEntity
  8
GAIKEI
 62
     1
100
AcDbLine
 10
49.7701898003445
 20
17.33427268585251
 30
0.0
 11
49.52519809915077
 21
17.33427268585251
 31
0.0
  0
LINE
  5
3B5
330
2
100
AcDbEntity
  8
GAIKEI
 62
     1
100
AcDbLine
 10
50.26633115345788
 20
16.83007862794352
 30
0.0
 11
50.26633115345788
 21
17.33427268585251
 31
0.0
  0
LINE
  5
3B6
330
2
100
AcDbEntity
  8
GAIKEI
 62
     1
100
AcDbLine
 10
50.02124471456074
 20
16.83007862794352
 30
0.0
 11
50.26633115345788
 21
16.83007862794352
 31
0.0
  0
LINE
  5
3B7
330
2
100
AcDbEntity
  8
GAIKEI
 62
     1
100
AcDbLine
 10
50.02124471456074
 20
17.33427268585251
 30
0.0
 11
50.02124471456074
 21
16.83007862794352
 31
0.0
  0
LINE
  5
3B8
330
2
100
AcDbEntity
  8
GAIKEI
 62
     1
100
AcDbLine
 10
50.26633115345788
 20
17.33427268585251
 30
0.0
 11
50.02124471456074
 21
17.33427268585251
 31
0.0
  0
LINE
  5
3B9
330
2
100
AcDbEntity
  8
GAIKEI
 62
     1
100
AcDbLine
 10
50.76247250657127
 20
16.83007862794352
 30
0.0
 11
50.76247250657127
 21
17.33427268585251
 31
0.0
  0
LINE
  5
3BA
330
2
100
AcDbEntity
  8
GAIKEI
 62
     1
100
AcDbLine
 10
50.51738606767412
 20
16.83007862794352
 30
0.0
 11
50.76247250657127
 21
16.83007862794352
 31
0.0
  0
LINE
  5
3BB
330
2
100
AcDbEntity
  8
GAIKEI
 62
     1
100
AcDbLine
 10
50.51738606767412
 20
17.33427268585251
 30
0.0
 11
50.51738606767412
 21
16.83007862794352
 31
0.0
  0
LINE
  5
3BC
330
2
100
AcDbEntity
  8
GAIKEI
 62
     1
100
AcDbLine
 10
50.76247250657127
 20
17.33427268585251
 30
0.0
 11
50.51738606767412
 21
17.33427268585251
 31
0.0
  0
LINE
  5
3BD
330
2
100
AcDbEntity
  8
GAIKEI
 62
     1
100
AcDbLine
 10
51.25851912198118
 20
16.83007862794352
 30
0.0
 11
51.25851912198118
 21
17.33427268585251
 31
0.0
  0
LINE
  5
3BE
330
2
100
AcDbEntity
  8
GAIKEI
 62
     1
100
AcDbLine
 10
51.0135274207875
 20
16.83007862794352
 30
0.0
 11
51.25851912198118
 21
16.83007862794352
 31
0.0
  0
LINE
  5
3BF
330
2
100
AcDbEntity
  8
GAIKEI
 62
     1
100
AcDbLine
 10
51.0135274207875
 20
17.33427268585251
 30
0.0
 11
51.0135274207875
 21
16.83007862794352
 31
0.0
  0
LINE
  5
3C0
330
2
100
AcDbEntity
  8
GAIKEI
 62
     1
100
AcDbLine
 10
51.25851912198118
 20
17.33427268585251
 30
0.0
 11
51.0135274207875
 21
17.33427268585251
 31
0.0
  0
LINE
  5
3C1
330
2
100
AcDbEntity
  8
GAIKEI
 62
     1
100
AcDbLine
 10
43.81658830068714
 20
17.58570655088272
 30
0.0
 11
43.81658830068714
 21
18.08971113338475
 31
0.0
  0
LINE
  5
3C2
330
2
100
AcDbEntity
  8
GAIKEI
 62
     1
100
AcDbLine
 10
43.57159659949354
 20
17.58570655088272
 30
0.0
 11
43.81658830068714
 21
17.58570655088272
 31
0.0
  0
LINE
  5
3C3
330
2
100
AcDbEntity
  8
GAIKEI
 62
     1
100
AcDbLine
 10
43.57159659949354
 20
18.08971113338475
 30
0.0
 11
43.57159659949354
 21
17.58570655088272
 31
0.0
  0
LINE
  5
3C4
330
2
100
AcDbEntity
  8
GAIKEI
 62
     1
100
AcDbLine
 10
43.81658830068714
 20
18.08971113338475
 30
0.0
 11
43.57159659949354
 21
18.08971113338475
 31
0.0
  0
LINE
  5
3C5
330
2
100
AcDbEntity
  8
GAIKEI
 62
     1
100
AcDbLine
 10
44.31272965380053
 20
17.58570655088272
 30
0.0
 11
44.31272965380053
 21
18.08971113338475
 31
0.0
  0
LINE
  5
3C6
330
2
100
AcDbEntity
  8
GAIKEI
 62
     1
100
AcDbLine
 10
44.06764321490345
 20
17.58570655088272
 30
0.0
 11
44.31272965380053
 21
17.58570655088272
 31
0.0
  0
LINE
  5
3C7
330
2
100
AcDbEntity
  8
GAIKEI
 62
     1
100
AcDbLine
 10
44.06764321490345
 20
18.08971113338475
 30
0.0
 11
44.06764321490345
 21
17.58570655088272
 31
0.0
  0
LINE
  5
3C8
330
2
100
AcDbEntity
  8
GAIKEI
 62
     1
100
AcDbLine
 10
44.31272965380053
 20
18.08971113338475
 30
0.0
 11
44.06764321490345
 21
18.08971113338475
 31
0.0
  0
LINE
  5
3C9
330
2
100
AcDbEntity
  8
GAIKEI
 62
     1
100
AcDbLine
 10
44.808871006914
 20
17.58570655088272
 30
0.0
 11
44.808871006914
 21
18.08971113338475
 31
0.0
  0
LINE
  5
3CA
330
2
100
AcDbEntity
  8
GAIKEI
 62
     1
100
AcDbLine
 10
44.56378456801684
 20
17.58570655088272
 30
0.0
 11
44.808871006914
 21
17.58570655088272
 31
0.0
  0
LINE
  5
3CB
330
2
100
AcDbEntity
  8
GAIKEI
 62
     1
100
AcDbLine
 10
44.56378456801684
 20
18.08971113338475
 30
0.0
 11
44.56378456801684
 21
17.58570655088272
 31
0.0
  0
LINE
  5
3CC
330
2
100
AcDbEntity
  8
GAIKEI
 62
     1
100
AcDbLine
 10
44.808871006914
 20
18.08971113338475
 30
0.0
 11
44.56378456801684
 21
18.08971113338475
 31
0.0
  0
LINE
  5
3CD
330
2
100
AcDbEntity
  8
GAIKEI
 62
     1
100
AcDbLine
 10
45.30491762232389
 20
17.58570655088272
 30
0.0
 11
45.30491762232389
 21
18.08971113338475
 31
0.0
  0
LINE
  5
3CE
330
2
100
AcDbEntity
  8
GAIKEI
 62
     1
100
AcDbLine
 10
45.05992592113023
 20
17.58570655088272
 30
0.0
 11
45.30491762232389
 21
17.58570655088272
 31
0.0
  0
LINE
  5
3CF
330
2
100
AcDbEntity
  8
GAIKEI
 62
     1
100
AcDbLine
 10
45.05992592113023
 20
18.08971113338475
 30
0.0
 11
45.05992592113023
 21
17.58570655088272
 31
0.0
  0
LINE
  5
3D0
330
2
100
AcDbEntity
  8
GAIKEI
 62
     1
100
AcDbLine
 10
45.30491762232389
 20
18.08971113338475
 30
0.0
 11
45.05992592113023
 21
18.08971113338475
 31
0.0
  0
LINE
  5
3D1
330
2
100
AcDbEntity
  8
GAIKEI
 62
     1
100
AcDbLine
 10
45.80105897543727
 20
17.58570655088272
 30
0.0
 11
45.80105897543727
 21
18.08971113338475
 31
0.0
  0
LINE
  5
3D2
330
2
100
AcDbEntity
  8
GAIKEI
 62
     1
100
AcDbLine
 10
45.55606727424367
 20
17.58570655088272
 30
0.0
 11
45.80105897543727
 21
17.58570655088272
 31
0.0
  0
LINE
  5
3D3
330
2
100
AcDbEntity
  8
GAIKEI
 62
     1
100
AcDbLine
 10
45.55606727424367
 20
18.08971113338475
 30
0.0
 11
45.55606727424367
 21
17.58570655088272
 31
0.0
  0
LINE
  5
3D4
330
2
100
AcDbEntity
  8
GAIKEI
 62
     1
100
AcDbLine
 10
45.80105897543727
 20
18.08971113338475
 30
0.0
 11
45.55606727424367
 21
18.08971113338475
 31
0.0
  0
LINE
  5
3D5
330
2
100
AcDbEntity
  8
GAIKEI
 62
     1
100
AcDbLine
 10
46.29720032855067
 20
17.58570655088272
 30
0.0
 11
46.29720032855067
 21
18.08971113338475
 31
0.0
  0
LINE
  5
3D6
330
2
100
AcDbEntity
  8
GAIKEI
 62
     1
100
AcDbLine
 10
46.05211388965357
 20
17.58570655088272
 30
0.0
 11
46.29720032855067
 21
17.58570655088272
 31
0.0
  0
LINE
  5
3D7
330
2
100
AcDbEntity
  8
GAIKEI
 62
     1
100
AcDbLine
 10
46.05211388965357
 20
18.08971113338475
 30
0.0
 11
46.05211388965357
 21
17.58570655088272
 31
0.0
  0
LINE
  5
3D8
330
2
100
AcDbEntity
  8
GAIKEI
 62
     1
100
AcDbLine
 10
46.29720032855067
 20
18.08971113338475
 30
0.0
 11
46.05211388965357
 21
18.08971113338475
 31
0.0
  0
LINE
  5
3D9
330
2
100
AcDbEntity
  8
GAIKEI
 62
     1
100
AcDbLine
 10
46.79334168166412
 20
17.58570655088272
 30
0.0
 11
46.79334168166412
 21
18.08971113338475
 31
0.0
  0
LINE
  5
3DA
330
2
100
AcDbEntity
  8
GAIKEI
 62
     1
100
AcDbLine
 10
46.54825524276691
 20
17.58570655088272
 30
0.0
 11
46.79334168166412
 21
17.58570655088272
 31
0.0
  0
LINE
  5
3DB
330
2
100
AcDbEntity
  8
GAIKEI
 62
     1
100
AcDbLine
 10
46.54825524276691
 20
18.08971113338475
 30
0.0
 11
46.54825524276691
 21
17.58570655088272
 31
0.0
  0
LINE
  5
3DC
330
2
100
AcDbEntity
  8
GAIKEI
 62
     1
100
AcDbLine
 10
46.79334168166412
 20
18.08971113338475
 30
0.0
 11
46.54825524276691
 21
18.08971113338475
 31
0.0
  0
LINE
  5
3DD
330
2
100
AcDbEntity
  8
GAIKEI
 62
     1
100
AcDbLine
 10
47.28957777248097
 20
17.58570655088272
 30
0.0
 11
47.28957777248097
 21
18.08971113338475
 31
0.0
  0
LINE
  5
3DE
330
2
100
AcDbEntity
  8
GAIKEI
 62
     1
100
AcDbLine
 10
47.04458607128731
 20
17.58570655088272
 30
0.0
 11
47.28957777248097
 21
17.58570655088272
 31
0.0
  0
LINE
  5
3DF
330
2
100
AcDbEntity
  8
GAIKEI
 62
     1
100
AcDbLine
 10
47.04458607128731
 20
18.08971113338475
 30
0.0
 11
47.04458607128731
 21
17.58570655088272
 31
0.0
  0
LINE
  5
3E0
330
2
100
AcDbEntity
  8
GAIKEI
 62
     1
100
AcDbLine
 10
47.28957777248097
 20
18.08971113338475
 30
0.0
 11
47.04458607128731
 21
18.08971113338475
 31
0.0
  0
LINE
  5
3E1
330
2
100
AcDbEntity
  8
GAIKEI
 62
     1
100
AcDbLine
 10
47.7855296501874
 20
17.58570655088272
 30
0.0
 11
47.7855296501874
 21
18.08971113338475
 31
0.0
  0
LINE
  5
3E2
330
2
100
AcDbEntity
  8
GAIKEI
 62
     1
100
AcDbLine
 10
47.54053794899373
 20
17.58570655088272
 30
0.0
 11
47.7855296501874
 21
17.58570655088272
 31
0.0
  0
LINE
  5
3E3
330
2
100
AcDbEntity
  8
GAIKEI
 62
     1
100
AcDbLine
 10
47.54053794899373
 20
18.08971113338475
 30
0.0
 11
47.54053794899373
 21
17.58570655088272
 31
0.0
  0
LINE
  5
3E4
330
2
100
AcDbEntity
  8
GAIKEI
 62
     1
100
AcDbLine
 10
47.7855296501874
 20
18.08971113338475
 30
0.0
 11
47.54053794899373
 21
18.08971113338475
 31
0.0
  0
LINE
  5
3E5
330
2
100
AcDbEntity
  8
GAIKEI
 62
     1
100
AcDbLine
 10
48.2816710033008
 20
17.58570655088272
 30
0.0
 11
48.2816710033008
 21
18.08971113338475
 31
0.0
  0
LINE
  5
3E6
330
2
100
AcDbEntity
  8
GAIKEI
 62
     1
100
AcDbLine
 10
48.03658456440365
 20
17.58570655088272
 30
0.0
 11
48.2816710033008
 21
17.58570655088272
 31
0.0
  0
LINE
  5
3E7
330
2
100
AcDbEntity
  8
GAIKEI
 62
     1
100
AcDbLine
 10
48.03658456440365
 20
18.08971113338475
 30
0.0
 11
48.03658456440365
 21
17.58570655088272
 31
0.0
  0
LINE
  5
3E8
330
2
100
AcDbEntity
  8
GAIKEI
 62
     1
100
AcDbLine
 10
48.2816710033008
 20
18.08971113338475
 30
0.0
 11
48.03658456440365
 21
18.08971113338475
 31
0.0
  0
LINE
  5
3E9
330
2
100
AcDbEntity
  8
GAIKEI
 62
     1
100
AcDbLine
 10
48.77800183182113
 20
17.58570655088272
 30
0.0
 11
48.77800183182113
 21
18.08971113338475
 31
0.0
  0
LINE
  5
3EA
330
2
100
AcDbEntity
  8
GAIKEI
 62
     1
100
AcDbLine
 10
48.53291539292399
 20
17.58570655088272
 30
0.0
 11
48.77800183182113
 21
17.58570655088272
 31
0.0
  0
LINE
  5
3EB
330
2
100
AcDbEntity
  8
GAIKEI
 62
     1
100
AcDbLine
 10
48.53291539292399
 20
18.08971113338475
 30
0.0
 11
48.53291539292399
 21
17.58570655088272
 31
0.0
  0
LINE
  5
3EC
330
2
100
AcDbEntity
  8
GAIKEI
 62
     1
100
AcDbLine
 10
48.77800183182113
 20
18.08971113338475
 30
0.0
 11
48.53291539292399
 21
18.08971113338475
 31
0.0
  0
LINE
  5
3ED
330
2
100
AcDbEntity
  8
GAIKEI
 62
     1
100
AcDbLine
 10
49.27404844723104
 20
17.58570655088272
 30
0.0
 11
49.27404844723104
 21
18.08971113338475
 31
0.0
  0
LINE
  5
3EE
330
2
100
AcDbEntity
  8
GAIKEI
 62
     1
100
AcDbLine
 10
49.02905674603744
 20
17.58570655088272
 30
0.0
 11
49.27404844723104
 21
17.58570655088272
 31
0.0
  0
LINE
  5
3EF
330
2
100
AcDbEntity
  8
GAIKEI
 62
     1
100
AcDbLine
 10
49.02905674603744
 20
18.08971113338475
 30
0.0
 11
49.02905674603744
 21
17.58570655088272
 31
0.0
  0
LINE
  5
3F0
330
2
100
AcDbEntity
  8
GAIKEI
 62
     1
100
AcDbLine
 10
49.27404844723104
 20
18.08971113338475
 30
0.0
 11
49.02905674603744
 21
18.08971113338475
 31
0.0
  0
LINE
  5
3F1
330
2
100
AcDbEntity
  8
GAIKEI
 62
     1
100
AcDbLine
 10
49.7701898003445
 20
17.58570655088272
 30
0.0
 11
49.7701898003445
 21
18.08971113338475
 31
0.0
  0
LINE
  5
3F2
330
2
100
AcDbEntity
  8
GAIKEI
 62
     1
100
AcDbLine
 10
49.52519809915077
 20
17.58570655088272
 30
0.0
 11
49.7701898003445
 21
17.58570655088272
 31
0.0
  0
LINE
  5
3F3
330
2
100
AcDbEntity
  8
GAIKEI
 62
     1
100
AcDbLine
 10
49.52519809915077
 20
18.08971113338475
 30
0.0
 11
49.52519809915077
 21
17.58570655088272
 31
0.0
  0
LINE
  5
3F4
330
2
100
AcDbEntity
  8
GAIKEI
 62
     1
100
AcDbLine
 10
49.7701898003445
 20
18.08971113338475
 30
0.0
 11
49.52519809915077
 21
18.08971113338475
 31
0.0
  0
LINE
  5
3F5
330
2
100
AcDbEntity
  8
GAIKEI
 62
     1
100
AcDbLine
 10
50.26633115345788
 20
17.58570655088272
 30
0.0
 11
50.26633115345788
 21
18.08971113338475
 31
0.0
  0
LINE
  5
3F6
330
2
100
AcDbEntity
  8
GAIKEI
 62
     1
100
AcDbLine
 10
50.02124471456074
 20
17.58570655088272
 30
0.0
 11
50.26633115345788
 21
17.58570655088272
 31
0.0
  0
LINE
  5
3F7
330
2
100
AcDbEntity
  8
GAIKEI
 62
     1
100
AcDbLine
 10
50.02124471456074
 20
18.08971113338475
 30
0.0
 11
50.02124471456074
 21
17.58570655088272
 31
0.0
  0
LINE
  5
3F8
330
2
100
AcDbEntity
  8
GAIKEI
 62
     1
100
AcDbLine
 10
50.26633115345788
 20
18.08971113338475
 30
0.0
 11
50.02124471456074
 21
18.08971113338475
 31
0.0
  0
LINE
  5
3F9
330
2
100
AcDbEntity
  8
GAIKEI
 62
     1
100
AcDbLine
 10
50.76247250657127
 20
17.58570655088272
 30
0.0
 11
50.76247250657127
 21
18.08971113338475
 31
0.0
  0
LINE
  5
3FA
330
2
100
AcDbEntity
  8
GAIKEI
 62
     1
100
AcDbLine
 10
50.51738606767412
 20
17.58570655088272
 30
0.0
 11
50.76247250657127
 21
17.58570655088272
 31
0.0
  0
LINE
  5
3FB
330
2
100
AcDbEntity
  8
GAIKEI
 62
     1
100
AcDbLine
 10
50.51738606767412
 20
18.08971113338475
 30
0.0
 11
50.51738606767412
 21
17.58570655088272
 31
0.0
  0
LINE
  5
3FC
330
2
100
AcDbEntity
  8
GAIKEI
 62
     1
100
AcDbLine
 10
50.76247250657127
 20
18.08971113338475
 30
0.0
 11
50.51738606767412
 21
18.08971113338475
 31
0.0
  0
LINE
  5
3FD
330
2
100
AcDbEntity
  8
GAIKEI
 62
     1
100
AcDbLine
 10
51.25851912198118
 20
17.58570655088272
 30
0.0
 11
51.25851912198118
 21
18.08971113338475
 31
0.0
  0
LINE
  5
3FE
330
2
100
AcDbEntity
  8
GAIKEI
 62
     1
100
AcDbLine
 10
51.0135274207875
 20
17.58570655088272
 30
0.0
 11
51.25851912198118
 21
17.58570655088272
 31
0.0
  0
LINE
  5
3FF
330
2
100
AcDbEntity
  8
GAIKEI
 62
     1
100
AcDbLine
 10
51.0135274207875
 20
18.08971113338475
 30
0.0
 11
51.0135274207875
 21
17.58570655088272
 31
0.0
  0
LINE
  5
400
330
2
100
AcDbEntity
  8
GAIKEI
 62
     1
100
AcDbLine
 10
51.25851912198118
 20
18.08971113338475
 30
0.0
 11
51.0135274207875
 21
18.08971113338475
 31
0.0
  0
LINE
  5
401
330
2
100
AcDbEntity
  8
GAIKEI
 62
     1
100
AcDbLine
 10
43.81658830068714
 20
18.34114499841496
 30
0.0
 11
43.81658830068714
 21
18.84533905632395
 31
0.0
  0
LINE
  5
402
330
2
100
AcDbEntity
  8
GAIKEI
 62
     1
100
AcDbLine
 10
43.57159659949354
 20
18.34114499841496
 30
0.0
 11
43.81658830068714
 21
18.34114499841496
 31
0.0
  0
LINE
  5
403
330
2
100
AcDbEntity
  8
GAIKEI
 62
     1
100
AcDbLine
 10
43.57159659949354
 20
18.84533905632395
 30
0.0
 11
43.57159659949354
 21
18.34114499841496
 31
0.0
  0
LINE
  5
404
330
2
100
AcDbEntity
  8
GAIKEI
 62
     1
100
AcDbLine
 10
43.81658830068714
 20
18.84533905632395
 30
0.0
 11
43.57159659949354
 21
18.84533905632395
 31
0.0
  0
LINE
  5
405
330
2
100
AcDbEntity
  8
GAIKEI
 62
     1
100
AcDbLine
 10
44.31272965380053
 20
18.34114499841496
 30
0.0
 11
44.31272965380053
 21
18.84533905632395
 31
0.0
  0
LINE
  5
406
330
2
100
AcDbEntity
  8
GAIKEI
 62
     1
100
AcDbLine
 10
44.06764321490345
 20
18.34114499841496
 30
0.0
 11
44.31272965380053
 21
18.34114499841496
 31
0.0
  0
LINE
  5
407
330
2
100
AcDbEntity
  8
GAIKEI
 62
     1
100
AcDbLine
 10
44.06764321490345
 20
18.84533905632395
 30
0.0
 11
44.06764321490345
 21
18.34114499841496
 31
0.0
  0
LINE
  5
408
330
2
100
AcDbEntity
  8
GAIKEI
 62
     1
100
AcDbLine
 10
44.31272965380053
 20
18.84533905632395
 30
0.0
 11
44.06764321490345
 21
18.84533905632395
 31
0.0
  0
LINE
  5
409
330
2
100
AcDbEntity
  8
GAIKEI
 62
     1
100
AcDbLine
 10
44.808871006914
 20
18.34114499841496
 30
0.0
 11
44.808871006914
 21
18.84533905632395
 31
0.0
  0
LINE
  5
40A
330
2
100
AcDbEntity
  8
GAIKEI
 62
     1
100
AcDbLine
 10
44.56378456801684
 20
18.34114499841496
 30
0.0
 11
44.808871006914
 21
18.34114499841496
 31
0.0
  0
LINE
  5
40B
330
2
100
AcDbEntity
  8
GAIKEI
 62
     1
100
AcDbLine
 10
44.56378456801684
 20
18.84533905632395
 30
0.0
 11
44.56378456801684
 21
18.34114499841496
 31
0.0
  0
LINE
  5
40C
330
2
100
AcDbEntity
  8
GAIKEI
 62
     1
100
AcDbLine
 10
44.808871006914
 20
18.84533905632395
 30
0.0
 11
44.56378456801684
 21
18.84533905632395
 31
0.0
  0
LINE
  5
40D
330
2
100
AcDbEntity
  8
GAIKEI
 62
     1
100
AcDbLine
 10
45.30491762232389
 20
18.34114499841496
 30
0.0
 11
45.30491762232389
 21
18.84533905632395
 31
0.0
  0
LINE
  5
40E
330
2
100
AcDbEntity
  8
GAIKEI
 62
     1
100
AcDbLine
 10
45.05992592113023
 20
18.34114499841496
 30
0.0
 11
45.30491762232389
 21
18.34114499841496
 31
0.0
  0
LINE
  5
40F
330
2
100
AcDbEntity
  8
GAIKEI
 62
     1
100
AcDbLine
 10
45.05992592113023
 20
18.84533905632395
 30
0.0
 11
45.05992592113023
 21
18.34114499841496
 31
0.0
  0
LINE
  5
410
330
2
100
AcDbEntity
  8
GAIKEI
 62
     1
100
AcDbLine
 10
45.30491762232389
 20
18.84533905632395
 30
0.0
 11
45.05992592113023
 21
18.84533905632395
 31
0.0
  0
LINE
  5
411
330
2
100
AcDbEntity
  8
GAIKEI
 62
     1
100
AcDbLine
 10
45.80105897543727
 20
18.34114499841496
 30
0.0
 11
45.80105897543727
 21
18.84533905632395
 31
0.0
  0
LINE
  5
412
330
2
100
AcDbEntity
  8
GAIKEI
 62
     1
100
AcDbLine
 10
45.55606727424367
 20
18.34114499841496
 30
0.0
 11
45.80105897543727
 21
18.34114499841496
 31
0.0
  0
LINE
  5
413
330
2
100
AcDbEntity
  8
GAIKEI
 62
     1
100
AcDbLine
 10
45.55606727424367
 20
18.84533905632395
 30
0.0
 11
45.55606727424367
 21
18.34114499841496
 31
0.0
  0
LINE
  5
414
330
2
100
AcDbEntity
  8
GAIKEI
 62
     1
100
AcDbLine
 10
45.80105897543727
 20
18.84533905632395
 30
0.0
 11
45.55606727424367
 21
18.84533905632395
 31
0.0
  0
LINE
  5
415
330
2
100
AcDbEntity
  8
GAIKEI
 62
     1
100
AcDbLine
 10
46.29720032855067
 20
18.34114499841496
 30
0.0
 11
46.29720032855067
 21
18.84533905632395
 31
0.0
  0
LINE
  5
416
330
2
100
AcDbEntity
  8
GAIKEI
 62
     1
100
AcDbLine
 10
46.05211388965357
 20
18.34114499841496
 30
0.0
 11
46.29720032855067
 21
18.34114499841496
 31
0.0
  0
LINE
  5
417
330
2
100
AcDbEntity
  8
GAIKEI
 62
     1
100
AcDbLine
 10
46.05211388965357
 20
18.84533905632395
 30
0.0
 11
46.05211388965357
 21
18.34114499841496
 31
0.0
  0
LINE
  5
418
330
2
100
AcDbEntity
  8
GAIKEI
 62
     1
100
AcDbLine
 10
46.29720032855067
 20
18.84533905632395
 30
0.0
 11
46.05211388965357
 21
18.84533905632395
 31
0.0
  0
LINE
  5
419
330
2
100
AcDbEntity
  8
GAIKEI
 62
     1
100
AcDbLine
 10
46.79334168166412
 20
18.34114499841496
 30
0.0
 11
46.79334168166412
 21
18.84533905632395
 31
0.0
  0
LINE
  5
41A
330
2
100
AcDbEntity
  8
GAIKEI
 62
     1
100
AcDbLine
 10
46.54825524276691
 20
18.34114499841496
 30
0.0
 11
46.79334168166412
 21
18.34114499841496
 31
0.0
  0
LINE
  5
41B
330
2
100
AcDbEntity
  8
GAIKEI
 62
     1
100
AcDbLine
 10
46.54825524276691
 20
18.84533905632395
 30
0.0
 11
46.54825524276691
 21
18.34114499841496
 31
0.0
  0
LINE
  5
41C
330
2
100
AcDbEntity
  8
GAIKEI
 62
     1
100
AcDbLine
 10
46.79334168166412
 20
18.84533905632395
 30
0.0
 11
46.54825524276691
 21
18.84533905632395
 31
0.0
  0
LINE
  5
41D
330
2
100
AcDbEntity
  8
GAIKEI
 62
     1
100
AcDbLine
 10
47.28957777248097
 20
18.34114499841496
 30
0.0
 11
47.28957777248097
 21
18.84533905632395
 31
0.0
  0
LINE
  5
41E
330
2
100
AcDbEntity
  8
GAIKEI
 62
     1
100
AcDbLine
 10
47.04458607128731
 20
18.34114499841496
 30
0.0
 11
47.28957777248097
 21
18.34114499841496
 31
0.0
  0
LINE
  5
41F
330
2
100
AcDbEntity
  8
GAIKEI
 62
     1
100
AcDbLine
 10
47.04458607128731
 20
18.84533905632395
 30
0.0
 11
47.04458607128731
 21
18.34114499841496
 31
0.0
  0
LINE
  5
420
330
2
100
AcDbEntity
  8
GAIKEI
 62
     1
100
AcDbLine
 10
47.28957777248097
 20
18.84533905632395
 30
0.0
 11
47.04458607128731
 21
18.84533905632395
 31
0.0
  0
LINE
  5
421
330
2
100
AcDbEntity
  8
GAIKEI
 62
     1
100
AcDbLine
 10
47.7855296501874
 20
18.34114499841496
 30
0.0
 11
47.7855296501874
 21
18.84533905632395
 31
0.0
  0
LINE
  5
422
330
2
100
AcDbEntity
  8
GAIKEI
 62
     1
100
AcDbLine
 10
47.54053794899373
 20
18.34114499841496
 30
0.0
 11
47.7855296501874
 21
18.34114499841496
 31
0.0
  0
LINE
  5
423
330
2
100
AcDbEntity
  8
GAIKEI
 62
     1
100
AcDbLine
 10
47.54053794899373
 20
18.84533905632395
 30
0.0
 11
47.54053794899373
 21
18.34114499841496
 31
0.0
  0
LINE
  5
424
330
2
100
AcDbEntity
  8
GAIKEI
 62
     1
100
AcDbLine
 10
47.7855296501874
 20
18.84533905632395
 30
0.0
 11
47.54053794899373
 21
18.84533905632395
 31
0.0
  0
LINE
  5
425
330
2
100
AcDbEntity
  8
GAIKEI
 62
     1
100
AcDbLine
 10
48.2816710033008
 20
18.34114499841496
 30
0.0
 11
48.2816710033008
 21
18.84533905632395
 31
0.0
  0
LINE
  5
426
330
2
100
AcDbEntity
  8
GAIKEI
 62
     1
100
AcDbLine
 10
48.03658456440365
 20
18.34114499841496
 30
0.0
 11
48.2816710033008
 21
18.34114499841496
 31
0.0
  0
LINE
  5
427
330
2
100
AcDbEntity
  8
GAIKEI
 62
     1
100
AcDbLine
 10
48.03658456440365
 20
18.84533905632395
 30
0.0
 11
48.03658456440365
 21
18.34114499841496
 31
0.0
  0
LINE
  5
428
330
2
100
AcDbEntity
  8
GAIKEI
 62
     1
100
AcDbLine
 10
48.2816710033008
 20
18.84533905632395
 30
0.0
 11
48.03658456440365
 21
18.84533905632395
 31
0.0
  0
LINE
  5
429
330
2
100
AcDbEntity
  8
GAIKEI
 62
     1
100
AcDbLine
 10
48.77800183182113
 20
18.34114499841496
 30
0.0
 11
48.77800183182113
 21
18.84533905632395
 31
0.0
  0
LINE
  5
42A
330
2
100
AcDbEntity
  8
GAIKEI
 62
     1
100
AcDbLine
 10
48.53291539292399
 20
18.34114499841496
 30
0.0
 11
48.77800183182113
 21
18.34114499841496
 31
0.0
  0
LINE
  5
42B
330
2
100
AcDbEntity
  8
GAIKEI
 62
     1
100
AcDbLine
 10
48.53291539292399
 20
18.84533905632395
 30
0.0
 11
48.53291539292399
 21
18.34114499841496
 31
0.0
  0
LINE
  5
42C
330
2
100
AcDbEntity
  8
GAIKEI
 62
     1
100
AcDbLine
 10
48.77800183182113
 20
18.84533905632395
 30
0.0
 11
48.53291539292399
 21
18.84533905632395
 31
0.0
  0
LINE
  5
42D
330
2
100
AcDbEntity
  8
GAIKEI
 62
     1
100
AcDbLine
 10
49.27404844723104
 20
18.34114499841496
 30
0.0
 11
49.27404844723104
 21
18.84533905632395
 31
0.0
  0
LINE
  5
42E
330
2
100
AcDbEntity
  8
GAIKEI
 62
     1
100
AcDbLine
 10
49.02905674603744
 20
18.34114499841496
 30
0.0
 11
49.27404844723104
 21
18.34114499841496
 31
0.0
  0
LINE
  5
42F
330
2
100
AcDbEntity
  8
GAIKEI
 62
     1
100
AcDbLine
 10
49.02905674603744
 20
18.84533905632395
 30
0.0
 11
49.02905674603744
 21
18.34114499841496
 31
0.0
  0
LINE
  5
430
330
2
100
AcDbEntity
  8
GAIKEI
 62
     1
100
AcDbLine
 10
49.27404844723104
 20
18.84533905632395
 30
0.0
 11
49.02905674603744
 21
18.84533905632395
 31
0.0
  0
LINE
  5
431
330
2
100
AcDbEntity
  8
GAIKEI
 62
     1
100
AcDbLine
 10
49.7701898003445
 20
18.34114499841496
 30
0.0
 11
49.7701898003445
 21
18.84533905632395
 31
0.0
  0
LINE
  5
432
330
2
100
AcDbEntity
  8
GAIKEI
 62
     1
100
AcDbLine
 10
49.52519809915077
 20
18.34114499841496
 30
0.0
 11
49.7701898003445
 21
18.34114499841496
 31
0.0
  0
LINE
  5
433
330
2
100
AcDbEntity
  8
GAIKEI
 62
     1
100
AcDbLine
 10
49.52519809915077
 20
18.84533905632395
 30
0.0
 11
49.52519809915077
 21
18.34114499841496
 31
0.0
  0
LINE
  5
434
330
2
100
AcDbEntity
  8
GAIKEI
 62
     1
100
AcDbLine
 10
49.7701898003445
 20
18.84533905632395
 30
0.0
 11
49.52519809915077
 21
18.84533905632395
 31
0.0
  0
LINE
  5
435
330
2
100
AcDbEntity
  8
GAIKEI
 62
     1
100
AcDbLine
 10
50.26633115345788
 20
18.34114499841496
 30
0.0
 11
50.26633115345788
 21
18.84533905632395
 31
0.0
  0
LINE
  5
436
330
2
100
AcDbEntity
  8
GAIKEI
 62
     1
100
AcDbLine
 10
50.02124471456074
 20
18.34114499841496
 30
0.0
 11
50.26633115345788
 21
18.34114499841496
 31
0.0
  0
LINE
  5
437
330
2
100
AcDbEntity
  8
GAIKEI
 62
     1
100
AcDbLine
 10
50.02124471456074
 20
18.84533905632395
 30
0.0
 11
50.02124471456074
 21
18.34114499841496
 31
0.0
  0
LINE
  5
438
330
2
100
AcDbEntity
  8
GAIKEI
 62
     1
100
AcDbLine
 10
50.26633115345788
 20
18.84533905632395
 30
0.0
 11
50.02124471456074
 21
18.84533905632395
 31
0.0
  0
LINE
  5
439
330
2
100
AcDbEntity
  8
GAIKEI
 62
     1
100
AcDbLine
 10
50.76247250657127
 20
18.34114499841496
 30
0.0
 11
50.76247250657127
 21
18.84533905632395
 31
0.0
  0
LINE
  5
43A
330
2
100
AcDbEntity
  8
GAIKEI
 62
     1
100
AcDbLine
 10
50.51738606767412
 20
18.34114499841496
 30
0.0
 11
50.76247250657127
 21
18.34114499841496
 31
0.0
  0
LINE
  5
43B
330
2
100
AcDbEntity
  8
GAIKEI
 62
     1
100
AcDbLine
 10
50.51738606767412
 20
18.84533905632395
 30
0.0
 11
50.51738606767412
 21
18.34114499841496
 31
0.0
  0
LINE
  5
43C
330
2
100
AcDbEntity
  8
GAIKEI
 62
     1
100
AcDbLine
 10
50.76247250657127
 20
18.84533905632395
 30
0.0
 11
50.51738606767412
 21
18.84533905632395
 31
0.0
  0
LINE
  5
43D
330
2
100
AcDbEntity
  8
GAIKEI
 62
     1
100
AcDbLine
 10
51.25851912198118
 20
18.34114499841496
 30
0.0
 11
51.25851912198118
 21
18.84533905632395
 31
0.0
  0
LINE
  5
43E
330
2
100
AcDbEntity
  8
GAIKEI
 62
     1
100
AcDbLine
 10
51.0135274207875
 20
18.34114499841496
 30
0.0
 11
51.25851912198118
 21
18.34114499841496
 31
0.0
  0
LINE
  5
43F
330
2
100
AcDbEntity
  8
GAIKEI
 62
     1
100
AcDbLine
 10
51.0135274207875
 20
18.84533905632395
 30
0.0
 11
51.0135274207875
 21
18.34114499841496
 31
0.0
  0
LINE
  5
440
330
2
100
AcDbEntity
  8
GAIKEI
 62
     1
100
AcDbLine
 10
51.25851912198118
 20
18.84533905632395
 30
0.0
 11
51.0135274207875
 21
18.84533905632395
 31
0.0
  0
LINE
  5
441
330
2
100
AcDbEntity
  8
GAIKEI
 62
     1
100
AcDbLine
 10
43.81658830068714
 20
19.293637869181
 30
0.0
 11
43.81658830068714
 21
19.79764245168309
 31
0.0
  0
LINE
  5
442
330
2
100
AcDbEntity
  8
GAIKEI
 62
     1
100
AcDbLine
 10
43.57159659949354
 20
19.293637869181
 30
0.0
 11
43.81658830068714
 21
19.293637869181
 31
0.0
  0
LINE
  5
443
330
2
100
AcDbEntity
  8
GAIKEI
 62
     1
100
AcDbLine
 10
43.57159659949354
 20
19.79764245168309
 30
0.0
 11
43.57159659949354
 21
19.293637869181
 31
0.0
  0
LINE
  5
444
330
2
100
AcDbEntity
  8
GAIKEI
 62
     1
100
AcDbLine
 10
43.81658830068714
 20
19.79764245168309
 30
0.0
 11
43.57159659949354
 21
19.79764245168309
 31
0.0
  0
LINE
  5
445
330
2
100
AcDbEntity
  8
GAIKEI
 62
     1
100
AcDbLine
 10
44.31272965380053
 20
19.293637869181
 30
0.0
 11
44.31272965380053
 21
19.79764245168309
 31
0.0
  0
LINE
  5
446
330
2
100
AcDbEntity
  8
GAIKEI
 62
     1
100
AcDbLine
 10
44.06764321490345
 20
19.293637869181
 30
0.0
 11
44.31272965380053
 21
19.293637869181
 31
0.0
  0
LINE
  5
447
330
2
100
AcDbEntity
  8
GAIKEI
 62
     1
100
AcDbLine
 10
44.06764321490345
 20
19.79764245168309
 30
0.0
 11
44.06764321490345
 21
19.293637869181
 31
0.0
  0
LINE
  5
448
330
2
100
AcDbEntity
  8
GAIKEI
 62
     1
100
AcDbLine
 10
44.31272965380053
 20
19.79764245168309
 30
0.0
 11
44.06764321490345
 21
19.79764245168309
 31
0.0
  0
LINE
  5
449
330
2
100
AcDbEntity
  8
GAIKEI
 62
     1
100
AcDbLine
 10
44.808871006914
 20
19.293637869181
 30
0.0
 11
44.808871006914
 21
19.79764245168309
 31
0.0
  0
LINE
  5
44A
330
2
100
AcDbEntity
  8
GAIKEI
 62
     1
100
AcDbLine
 10
44.56378456801684
 20
19.293637869181
 30
0.0
 11
44.808871006914
 21
19.293637869181
 31
0.0
  0
LINE
  5
44B
330
2
100
AcDbEntity
  8
GAIKEI
 62
     1
100
AcDbLine
 10
44.56378456801684
 20
19.79764245168309
 30
0.0
 11
44.56378456801684
 21
19.293637869181
 31
0.0
  0
LINE
  5
44C
330
2
100
AcDbEntity
  8
GAIKEI
 62
     1
100
AcDbLine
 10
44.808871006914
 20
19.79764245168309
 30
0.0
 11
44.56378456801684
 21
19.79764245168309
 31
0.0
  0
LINE
  5
44D
330
2
100
AcDbEntity
  8
GAIKEI
 62
     1
100
AcDbLine
 10
45.30491762232389
 20
19.293637869181
 30
0.0
 11
45.30491762232389
 21
19.79764245168309
 31
0.0
  0
LINE
  5
44E
330
2
100
AcDbEntity
  8
GAIKEI
 62
     1
100
AcDbLine
 10
45.05992592113023
 20
19.293637869181
 30
0.0
 11
45.30491762232389
 21
19.293637869181
 31
0.0
  0
LINE
  5
44F
330
2
100
AcDbEntity
  8
GAIKEI
 62
     1
100
AcDbLine
 10
45.05992592113023
 20
19.79764245168309
 30
0.0
 11
45.05992592113023
 21
19.293637869181
 31
0.0
  0
LINE
  5
450
330
2
100
AcDbEntity
  8
GAIKEI
 62
     1
100
AcDbLine
 10
45.30491762232389
 20
19.79764245168309
 30
0.0
 11
45.05992592113023
 21
19.79764245168309
 31
0.0
  0
LINE
  5
451
330
2
100
AcDbEntity
  8
GAIKEI
 62
     1
100
AcDbLine
 10
45.80105897543727
 20
19.293637869181
 30
0.0
 11
45.80105897543727
 21
19.79764245168309
 31
0.0
  0
LINE
  5
452
330
2
100
AcDbEntity
  8
GAIKEI
 62
     1
100
AcDbLine
 10
45.55606727424367
 20
19.293637869181
 30
0.0
 11
45.80105897543727
 21
19.293637869181
 31
0.0
  0
LINE
  5
453
330
2
100
AcDbEntity
  8
GAIKEI
 62
     1
100
AcDbLine
 10
45.55606727424367
 20
19.79764245168309
 30
0.0
 11
45.55606727424367
 21
19.293637869181
 31
0.0
  0
LINE
  5
454
330
2
100
AcDbEntity
  8
GAIKEI
 62
     1
100
AcDbLine
 10
45.80105897543727
 20
19.79764245168309
 30
0.0
 11
45.55606727424367
 21
19.79764245168309
 31
0.0
  0
LINE
  5
455
330
2
100
AcDbEntity
  8
GAIKEI
 62
     1
100
AcDbLine
 10
46.29720032855067
 20
19.293637869181
 30
0.0
 11
46.29720032855067
 21
19.79764245168309
 31
0.0
  0
LINE
  5
456
330
2
100
AcDbEntity
  8
GAIKEI
 62
     1
100
AcDbLine
 10
46.05211388965357
 20
19.293637869181
 30
0.0
 11
46.29720032855067
 21
19.293637869181
 31
0.0
  0
LINE
  5
457
330
2
100
AcDbEntity
  8
GAIKEI
 62
     1
100
AcDbLine
 10
46.05211388965357
 20
19.79764245168309
 30
0.0
 11
46.05211388965357
 21
19.293637869181
 31
0.0
  0
LINE
  5
458
330
2
100
AcDbEntity
  8
GAIKEI
 62
     1
100
AcDbLine
 10
46.29720032855067
 20
19.79764245168309
 30
0.0
 11
46.05211388965357
 21
19.79764245168309
 31
0.0
  0
LINE
  5
459
330
2
100
AcDbEntity
  8
GAIKEI
 62
     1
100
AcDbLine
 10
46.79334168166412
 20
19.293637869181
 30
0.0
 11
46.79334168166412
 21
19.79764245168309
 31
0.0
  0
LINE
  5
45A
330
2
100
AcDbEntity
  8
GAIKEI
 62
     1
100
AcDbLine
 10
46.54825524276691
 20
19.293637869181
 30
0.0
 11
46.79334168166412
 21
19.293637869181
 31
0.0
  0
LINE
  5
45B
330
2
100
AcDbEntity
  8
GAIKEI
 62
     1
100
AcDbLine
 10
46.54825524276691
 20
19.79764245168309
 30
0.0
 11
46.54825524276691
 21
19.293637869181
 31
0.0
  0
LINE
  5
45C
330
2
100
AcDbEntity
  8
GAIKEI
 62
     1
100
AcDbLine
 10
46.79334168166412
 20
19.79764245168309
 30
0.0
 11
46.54825524276691
 21
19.79764245168309
 31
0.0
  0
LINE
  5
45D
330
2
100
AcDbEntity
  8
GAIKEI
 62
     1
100
AcDbLine
 10
47.28957777248097
 20
19.293637869181
 30
0.0
 11
47.28957777248097
 21
19.79764245168309
 31
0.0
  0
LINE
  5
45E
330
2
100
AcDbEntity
  8
GAIKEI
 62
     1
100
AcDbLine
 10
47.04458607128731
 20
19.293637869181
 30
0.0
 11
47.28957777248097
 21
19.293637869181
 31
0.0
  0
LINE
  5
45F
330
2
100
AcDbEntity
  8
GAIKEI
 62
     1
100
AcDbLine
 10
47.04458607128731
 20
19.79764245168309
 30
0.0
 11
47.04458607128731
 21
19.293637869181
 31
0.0
  0
LINE
  5
460
330
2
100
AcDbEntity
  8
GAIKEI
 62
     1
100
AcDbLine
 10
47.28957777248097
 20
19.79764245168309
 30
0.0
 11
47.04458607128731
 21
19.79764245168309
 31
0.0
  0
LINE
  5
461
330
2
100
AcDbEntity
  8
GAIKEI
 62
     1
100
AcDbLine
 10
47.7855296501874
 20
19.293637869181
 30
0.0
 11
47.7855296501874
 21
19.79764245168309
 31
0.0
  0
LINE
  5
462
330
2
100
AcDbEntity
  8
GAIKEI
 62
     1
100
AcDbLine
 10
47.54053794899373
 20
19.293637869181
 30
0.0
 11
47.7855296501874
 21
19.293637869181
 31
0.0
  0
LINE
  5
463
330
2
100
AcDbEntity
  8
GAIKEI
 62
     1
100
AcDbLine
 10
47.54053794899373
 20
19.79764245168309
 30
0.0
 11
47.54053794899373
 21
19.293637869181
 31
0.0
  0
LINE
  5
464
330
2
100
AcDbEntity
  8
GAIKEI
 62
     1
100
AcDbLine
 10
47.7855296501874
 20
19.79764245168309
 30
0.0
 11
47.54053794899373
 21
19.79764245168309
 31
0.0
  0
LINE
  5
465
330
2
100
AcDbEntity
  8
GAIKEI
 62
     1
100
AcDbLine
 10
48.2816710033008
 20
19.293637869181
 30
0.0
 11
48.2816710033008
 21
19.79764245168309
 31
0.0
  0
LINE
  5
466
330
2
100
AcDbEntity
  8
GAIKEI
 62
     1
100
AcDbLine
 10
48.03658456440365
 20
19.293637869181
 30
0.0
 11
48.2816710033008
 21
19.293637869181
 31
0.0
  0
LINE
  5
467
330
2
100
AcDbEntity
  8
GAIKEI
 62
     1
100
AcDbLine
 10
48.03658456440365
 20
19.79764245168309
 30
0.0
 11
48.03658456440365
 21
19.293637869181
 31
0.0
  0
LINE
  5
468
330
2
100
AcDbEntity
  8
GAIKEI
 62
     1
100
AcDbLine
 10
48.2816710033008
 20
19.79764245168309
 30
0.0
 11
48.03658456440365
 21
19.79764245168309
 31
0.0
  0
LINE
  5
469
330
2
100
AcDbEntity
  8
GAIKEI
 62
     1
100
AcDbLine
 10
48.77800183182113
 20
19.293637869181
 30
0.0
 11
48.77800183182113
 21
19.79764245168309
 31
0.0
  0
LINE
  5
46A
330
2
100
AcDbEntity
  8
GAIKEI
 62
     1
100
AcDbLine
 10
48.53291539292399
 20
19.293637869181
 30
0.0
 11
48.77800183182113
 21
19.293637869181
 31
0.0
  0
LINE
  5
46B
330
2
100
AcDbEntity
  8
GAIKEI
 62
     1
100
AcDbLine
 10
48.53291539292399
 20
19.79764245168309
 30
0.0
 11
48.53291539292399
 21
19.293637869181
 31
0.0
  0
LINE
  5
46C
330
2
100
AcDbEntity
  8
GAIKEI
 62
     1
100
AcDbLine
 10
48.77800183182113
 20
19.79764245168309
 30
0.0
 11
48.53291539292399
 21
19.79764245168309
 31
0.0
  0
LINE
  5
46D
330
2
100
AcDbEntity
  8
GAIKEI
 62
     1
100
AcDbLine
 10
49.27404844723104
 20
19.293637869181
 30
0.0
 11
49.27404844723104
 21
19.79764245168309
 31
0.0
  0
LINE
  5
46E
330
2
100
AcDbEntity
  8
GAIKEI
 62
     1
100
AcDbLine
 10
49.02905674603744
 20
19.293637869181
 30
0.0
 11
49.27404844723104
 21
19.293637869181
 31
0.0
  0
LINE
  5
46F
330
2
100
AcDbEntity
  8
GAIKEI
 62
     1
100
AcDbLine
 10
49.02905674603744
 20
19.79764245168309
 30
0.0
 11
49.02905674603744
 21
19.293637869181
 31
0.0
  0
LINE
  5
470
330
2
100
AcDbEntity
  8
GAIKEI
 62
     1
100
AcDbLine
 10
49.27404844723104
 20
19.79764245168309
 30
0.0
 11
49.02905674603744
 21
19.79764245168309
 31
0.0
  0
LINE
  5
471
330
2
100
AcDbEntity
  8
GAIKEI
 62
     1
100
AcDbLine
 10
49.7701898003445
 20
19.293637869181
 30
0.0
 11
49.7701898003445
 21
19.79764245168309
 31
0.0
  0
LINE
  5
472
330
2
100
AcDbEntity
  8
GAIKEI
 62
     1
100
AcDbLine
 10
49.52519809915077
 20
19.293637869181
 30
0.0
 11
49.7701898003445
 21
19.293637869181
 31
0.0
  0
LINE
  5
473
330
2
100
AcDbEntity
  8
GAIKEI
 62
     1
100
AcDbLine
 10
49.52519809915077
 20
19.79764245168309
 30
0.0
 11
49.52519809915077
 21
19.293637869181
 31
0.0
  0
LINE
  5
474
330
2
100
AcDbEntity
  8
GAIKEI
 62
     1
100
AcDbLine
 10
49.7701898003445
 20
19.79764245168309
 30
0.0
 11
49.52519809915077
 21
19.79764245168309
 31
0.0
  0
LINE
  5
475
330
2
100
AcDbEntity
  8
GAIKEI
 62
     1
100
AcDbLine
 10
50.26633115345788
 20
19.293637869181
 30
0.0
 11
50.26633115345788
 21
19.79764245168309
 31
0.0
  0
LINE
  5
476
330
2
100
AcDbEntity
  8
GAIKEI
 62
     1
100
AcDbLine
 10
50.02124471456074
 20
19.293637869181
 30
0.0
 11
50.26633115345788
 21
19.293637869181
 31
0.0
  0
LINE
  5
477
330
2
100
AcDbEntity
  8
GAIKEI
 62
     1
100
AcDbLine
 10
50.02124471456074
 20
19.79764245168309
 30
0.0
 11
50.02124471456074
 21
19.293637869181
 31
0.0
  0
LINE
  5
478
330
2
100
AcDbEntity
  8
GAIKEI
 62
     1
100
AcDbLine
 10
50.26633115345788
 20
19.79764245168309
 30
0.0
 11
50.02124471456074
 21
19.79764245168309
 31
0.0
  0
LINE
  5
479
330
2
100
AcDbEntity
  8
GAIKEI
 62
     1
100
AcDbLine
 10
50.76247250657127
 20
19.293637869181
 30
0.0
 11
50.76247250657127
 21
19.79764245168309
 31
0.0
  0
LINE
  5
47A
330
2
100
AcDbEntity
  8
GAIKEI
 62
     1
100
AcDbLine
 10
50.51738606767412
 20
19.293637869181
 30
0.0
 11
50.76247250657127
 21
19.293637869181
 31
0.0
  0
LINE
  5
47B
330
2
100
AcDbEntity
  8
GAIKEI
 62
     1
100
AcDbLine
 10
50.51738606767412
 20
19.79764245168309
 30
0.0
 11
50.51738606767412
 21
19.293637869181
 31
0.0
  0
LINE
  5
47C
330
2
100
AcDbEntity
  8
GAIKEI
 62
     1
100
AcDbLine
 10
50.76247250657127
 20
19.79764245168309
 30
0.0
 11
50.51738606767412
 21
19.79764245168309
 31
0.0
  0
LINE
  5
47D
330
2
100
AcDbEntity
  8
GAIKEI
 62
     1
100
AcDbLine
 10
51.25851912198118
 20
19.293637869181
 30
0.0
 11
51.25851912198118
 21
19.79764245168309
 31
0.0
  0
LINE
  5
47E
330
2
100
AcDbEntity
  8
GAIKEI
 62
     1
100
AcDbLine
 10
51.0135274207875
 20
19.293637869181
 30
0.0
 11
51.25851912198118
 21
19.293637869181
 31
0.0
  0
LINE
  5
47F
330
2
100
AcDbEntity
  8
GAIKEI
 62
     1
100
AcDbLine
 10
51.0135274207875
 20
19.79764245168309
 30
0.0
 11
51.0135274207875
 21
19.293637869181
 31
0.0
  0
LINE
  5
480
330
2
100
AcDbEntity
  8
GAIKEI
 62
     1
100
AcDbLine
 10
51.25851912198118
 20
19.79764245168309
 30
0.0
 11
51.0135274207875
 21
19.79764245168309
 31
0.0
  0
LINE
  5
481
330
2
100
AcDbEntity
  8
GAIKEI
 62
     1
100
AcDbLine
 10
43.81658830068714
 20
20.04926579212019
 30
0.0
 11
43.81658830068714
 21
20.55327037462223
 31
0.0
  0
LINE
  5
482
330
2
100
AcDbEntity
  8
GAIKEI
 62
     1
100
AcDbLine
 10
43.57159659949354
 20
20.04926579212019
 30
0.0
 11
43.81658830068714
 21
20.04926579212019
 31
0.0
  0
LINE
  5
483
330
2
100
AcDbEntity
  8
GAIKEI
 62
     1
100
AcDbLine
 10
43.57159659949354
 20
20.55327037462223
 30
0.0
 11
43.57159659949354
 21
20.04926579212019
 31
0.0
  0
LINE
  5
484
330
2
100
AcDbEntity
  8
GAIKEI
 62
     1
100
AcDbLine
 10
43.81658830068714
 20
20.55327037462223
 30
0.0
 11
43.57159659949354
 21
20.55327037462223
 31
0.0
  0
LINE
  5
485
330
2
100
AcDbEntity
  8
GAIKEI
 62
     1
100
AcDbLine
 10
44.31272965380053
 20
20.04926579212019
 30
0.0
 11
44.31272965380053
 21
20.55327037462223
 31
0.0
  0
LINE
  5
486
330
2
100
AcDbEntity
  8
GAIKEI
 62
     1
100
AcDbLine
 10
44.06764321490345
 20
20.04926579212019
 30
0.0
 11
44.31272965380053
 21
20.04926579212019
 31
0.0
  0
LINE
  5
487
330
2
100
AcDbEntity
  8
GAIKEI
 62
     1
100
AcDbLine
 10
44.06764321490345
 20
20.55327037462223
 30
0.0
 11
44.06764321490345
 21
20.04926579212019
 31
0.0
  0
LINE
  5
488
330
2
100
AcDbEntity
  8
GAIKEI
 62
     1
100
AcDbLine
 10
44.31272965380053
 20
20.55327037462223
 30
0.0
 11
44.06764321490345
 21
20.55327037462223
 31
0.0
  0
LINE
  5
489
330
2
100
AcDbEntity
  8
GAIKEI
 62
     1
100
AcDbLine
 10
44.808871006914
 20
20.04926579212019
 30
0.0
 11
44.808871006914
 21
20.55327037462223
 31
0.0
  0
LINE
  5
48A
330
2
100
AcDbEntity
  8
GAIKEI
 62
     1
100
AcDbLine
 10
44.56378456801684
 20
20.04926579212019
 30
0.0
 11
44.808871006914
 21
20.04926579212019
 31
0.0
  0
LINE
  5
48B
330
2
100
AcDbEntity
  8
GAIKEI
 62
     1
100
AcDbLine
 10
44.56378456801684
 20
20.55327037462223
 30
0.0
 11
44.56378456801684
 21
20.04926579212019
 31
0.0
  0
LINE
  5
48C
330
2
100
AcDbEntity
  8
GAIKEI
 62
     1
100
AcDbLine
 10
44.808871006914
 20
20.55327037462223
 30
0.0
 11
44.56378456801684
 21
20.55327037462223
 31
0.0
  0
LINE
  5
48D
330
2
100
AcDbEntity
  8
GAIKEI
 62
     1
100
AcDbLine
 10
45.30491762232389
 20
20.04926579212019
 30
0.0
 11
45.30491762232389
 21
20.55327037462223
 31
0.0
  0
LINE
  5
48E
330
2
100
AcDbEntity
  8
GAIKEI
 62
     1
100
AcDbLine
 10
45.05992592113023
 20
20.04926579212019
 30
0.0
 11
45.30491762232389
 21
20.04926579212019
 31
0.0
  0
LINE
  5
48F
330
2
100
AcDbEntity
  8
GAIKEI
 62
     1
100
AcDbLine
 10
45.05992592113023
 20
20.55327037462223
 30
0.0
 11
45.05992592113023
 21
20.04926579212019
 31
0.0
  0
LINE
  5
490
330
2
100
AcDbEntity
  8
GAIKEI
 62
     1
100
AcDbLine
 10
45.30491762232389
 20
20.55327037462223
 30
0.0
 11
45.05992592113023
 21
20.55327037462223
 31
0.0
  0
LINE
  5
491
330
2
100
AcDbEntity
  8
GAIKEI
 62
     1
100
AcDbLine
 10
45.80105897543727
 20
20.04926579212019
 30
0.0
 11
45.80105897543727
 21
20.55327037462223
 31
0.0
  0
LINE
  5
492
330
2
100
AcDbEntity
  8
GAIKEI
 62
     1
100
AcDbLine
 10
45.55606727424367
 20
20.04926579212019
 30
0.0
 11
45.80105897543727
 21
20.04926579212019
 31
0.0
  0
LINE
  5
493
330
2
100
AcDbEntity
  8
GAIKEI
 62
     1
100
AcDbLine
 10
45.55606727424367
 20
20.55327037462223
 30
0.0
 11
45.55606727424367
 21
20.04926579212019
 31
0.0
  0
LINE
  5
494
330
2
100
AcDbEntity
  8
GAIKEI
 62
     1
100
AcDbLine
 10
45.80105897543727
 20
20.55327037462223
 30
0.0
 11
45.55606727424367
 21
20.55327037462223
 31
0.0
  0
LINE
  5
495
330
2
100
AcDbEntity
  8
GAIKEI
 62
     1
100
AcDbLine
 10
46.29720032855067
 20
20.04926579212019
 30
0.0
 11
46.29720032855067
 21
20.55327037462223
 31
0.0
  0
LINE
  5
496
330
2
100
AcDbEntity
  8
GAIKEI
 62
     1
100
AcDbLine
 10
46.05211388965357
 20
20.04926579212019
 30
0.0
 11
46.29720032855067
 21
20.04926579212019
 31
0.0
  0
LINE
  5
497
330
2
100
AcDbEntity
  8
GAIKEI
 62
     1
100
AcDbLine
 10
46.05211388965357
 20
20.55327037462223
 30
0.0
 11
46.05211388965357
 21
20.04926579212019
 31
0.0
  0
LINE
  5
498
330
2
100
AcDbEntity
  8
GAIKEI
 62
     1
100
AcDbLine
 10
46.29720032855067
 20
20.55327037462223
 30
0.0
 11
46.05211388965357
 21
20.55327037462223
 31
0.0
  0
LINE
  5
499
330
2
100
AcDbEntity
  8
GAIKEI
 62
     1
100
AcDbLine
 10
46.79334168166412
 20
20.04926579212019
 30
0.0
 11
46.79334168166412
 21
20.55327037462223
 31
0.0
  0
LINE
  5
49A
330
2
100
AcDbEntity
  8
GAIKEI
 62
     1
100
AcDbLine
 10
46.54825524276691
 20
20.04926579212019
 30
0.0
 11
46.79334168166412
 21
20.04926579212019
 31
0.0
  0
LINE
  5
49B
330
2
100
AcDbEntity
  8
GAIKEI
 62
     1
100
AcDbLine
 10
46.54825524276691
 20
20.55327037462223
 30
0.0
 11
46.54825524276691
 21
20.04926579212019
 31
0.0
  0
LINE
  5
49C
330
2
100
AcDbEntity
  8
GAIKEI
 62
     1
100
AcDbLine
 10
46.79334168166412
 20
20.55327037462223
 30
0.0
 11
46.54825524276691
 21
20.55327037462223
 31
0.0
  0
LINE
  5
49D
330
2
100
AcDbEntity
  8
GAIKEI
 62
     1
100
AcDbLine
 10
47.28957777248097
 20
20.04926579212019
 30
0.0
 11
47.28957777248097
 21
20.55327037462223
 31
0.0
  0
LINE
  5
49E
330
2
100
AcDbEntity
  8
GAIKEI
 62
     1
100
AcDbLine
 10
47.04458607128731
 20
20.04926579212019
 30
0.0
 11
47.28957777248097
 21
20.04926579212019
 31
0.0
  0
LINE
  5
49F
330
2
100
AcDbEntity
  8
GAIKEI
 62
     1
100
AcDbLine
 10
47.04458607128731
 20
20.55327037462223
 30
0.0
 11
47.04458607128731
 21
20.04926579212019
 31
0.0
  0
LINE
  5
4A0
330
2
100
AcDbEntity
  8
GAIKEI
 62
     1
100
AcDbLine
 10
47.28957777248097
 20
20.55327037462223
 30
0.0
 11
47.04458607128731
 21
20.55327037462223
 31
0.0
  0
LINE
  5
4A1
330
2
100
AcDbEntity
  8
GAIKEI
 62
     1
100
AcDbLine
 10
47.7855296501874
 20
20.04926579212019
 30
0.0
 11
47.7855296501874
 21
20.55327037462223
 31
0.0
  0
LINE
  5
4A2
330
2
100
AcDbEntity
  8
GAIKEI
 62
     1
100
AcDbLine
 10
47.54053794899373
 20
20.04926579212019
 30
0.0
 11
47.7855296501874
 21
20.04926579212019
 31
0.0
  0
LINE
  5
4A3
330
2
100
AcDbEntity
  8
GAIKEI
 62
     1
100
AcDbLine
 10
47.54053794899373
 20
20.55327037462223
 30
0.0
 11
47.54053794899373
 21
20.04926579212019
 31
0.0
  0
LINE
  5
4A4
330
2
100
AcDbEntity
  8
GAIKEI
 62
     1
100
AcDbLine
 10
47.7855296501874
 20
20.55327037462223
 30
0.0
 11
47.54053794899373
 21
20.55327037462223
 31
0.0
  0
LINE
  5
4A5
330
2
100
AcDbEntity
  8
GAIKEI
 62
     1
100
AcDbLine
 10
48.2816710033008
 20
20.04926579212019
 30
0.0
 11
48.2816710033008
 21
20.55327037462223
 31
0.0
  0
LINE
  5
4A6
330
2
100
AcDbEntity
  8
GAIKEI
 62
     1
100
AcDbLine
 10
48.03658456440365
 20
20.04926579212019
 30
0.0
 11
48.2816710033008
 21
20.04926579212019
 31
0.0
  0
LINE
  5
4A7
330
2
100
AcDbEntity
  8
GAIKEI
 62
     1
100
AcDbLine
 10
48.03658456440365
 20
20.55327037462223
 30
0.0
 11
48.03658456440365
 21
20.04926579212019
 31
0.0
  0
LINE
  5
4A8
330
2
100
AcDbEntity
  8
GAIKEI
 62
     1
100
AcDbLine
 10
48.2816710033008
 20
20.55327037462223
 30
0.0
 11
48.03658456440365
 21
20.55327037462223
 31
0.0
  0
LINE
  5
4A9
330
2
100
AcDbEntity
  8
GAIKEI
 62
     1
100
AcDbLine
 10
48.77800183182113
 20
20.04926579212019
 30
0.0
 11
48.77800183182113
 21
20.55327037462223
 31
0.0
  0
LINE
  5
4AA
330
2
100
AcDbEntity
  8
GAIKEI
 62
     1
100
AcDbLine
 10
48.53291539292399
 20
20.04926579212019
 30
0.0
 11
48.77800183182113
 21
20.04926579212019
 31
0.0
  0
LINE
  5
4AB
330
2
100
AcDbEntity
  8
GAIKEI
 62
     1
100
AcDbLine
 10
48.53291539292399
 20
20.55327037462223
 30
0.0
 11
48.53291539292399
 21
20.04926579212019
 31
0.0
  0
LINE
  5
4AC
330
2
100
AcDbEntity
  8
GAIKEI
 62
     1
100
AcDbLine
 10
48.77800183182113
 20
20.55327037462223
 30
0.0
 11
48.53291539292399
 21
20.55327037462223
 31
0.0
  0
LINE
  5
4AD
330
2
100
AcDbEntity
  8
GAIKEI
 62
     1
100
AcDbLine
 10
49.27404844723104
 20
20.04926579212019
 30
0.0
 11
49.27404844723104
 21
20.55327037462223
 31
0.0
  0
LINE
  5
4AE
330
2
100
AcDbEntity
  8
GAIKEI
 62
     1
100
AcDbLine
 10
49.02905674603744
 20
20.04926579212019
 30
0.0
 11
49.27404844723104
 21
20.04926579212019
 31
0.0
  0
LINE
  5
4AF
330
2
100
AcDbEntity
  8
GAIKEI
 62
     1
100
AcDbLine
 10
49.02905674603744
 20
20.55327037462223
 30
0.0
 11
49.02905674603744
 21
20.04926579212019
 31
0.0
  0
LINE
  5
4B0
330
2
100
AcDbEntity
  8
GAIKEI
 62
     1
100
AcDbLine
 10
49.27404844723104
 20
20.55327037462223
 30
0.0
 11
49.02905674603744
 21
20.55327037462223
 31
0.0
  0
LINE
  5
4B1
330
2
100
AcDbEntity
  8
GAIKEI
 62
     1
100
AcDbLine
 10
49.7701898003445
 20
20.04926579212019
 30
0.0
 11
49.7701898003445
 21
20.55327037462223
 31
0.0
  0
LINE
  5
4B2
330
2
100
AcDbEntity
  8
GAIKEI
 62
     1
100
AcDbLine
 10
49.52519809915077
 20
20.04926579212019
 30
0.0
 11
49.7701898003445
 21
20.04926579212019
 31
0.0
  0
LINE
  5
4B3
330
2
100
AcDbEntity
  8
GAIKEI
 62
     1
100
AcDbLine
 10
49.52519809915077
 20
20.55327037462223
 30
0.0
 11
49.52519809915077
 21
20.04926579212019
 31
0.0
  0
LINE
  5
4B4
330
2
100
AcDbEntity
  8
GAIKEI
 62
     1
100
AcDbLine
 10
49.7701898003445
 20
20.55327037462223
 30
0.0
 11
49.52519809915077
 21
20.55327037462223
 31
0.0
  0
LINE
  5
4B5
330
2
100
AcDbEntity
  8
GAIKEI
 62
     1
100
AcDbLine
 10
50.26633115345788
 20
20.04926579212019
 30
0.0
 11
50.26633115345788
 21
20.55327037462223
 31
0.0
  0
LINE
  5
4B6
330
2
100
AcDbEntity
  8
GAIKEI
 62
     1
100
AcDbLine
 10
50.02124471456074
 20
20.04926579212019
 30
0.0
 11
50.26633115345788
 21
20.04926579212019
 31
0.0
  0
LINE
  5
4B7
330
2
100
AcDbEntity
  8
GAIKEI
 62
     1
100
AcDbLine
 10
50.02124471456074
 20
20.55327037462223
 30
0.0
 11
50.02124471456074
 21
20.04926579212019
 31
0.0
  0
LINE
  5
4B8
330
2
100
AcDbEntity
  8
GAIKEI
 62
     1
100
AcDbLine
 10
50.26633115345788
 20
20.55327037462223
 30
0.0
 11
50.02124471456074
 21
20.55327037462223
 31
0.0
  0
LINE
  5
4B9
330
2
100
AcDbEntity
  8
GAIKEI
 62
     1
100
AcDbLine
 10
50.76247250657127
 20
20.04926579212019
 30
0.0
 11
50.76247250657127
 21
20.55327037462223
 31
0.0
  0
LINE
  5
4BA
330
2
100
AcDbEntity
  8
GAIKEI
 62
     1
100
AcDbLine
 10
50.51738606767412
 20
20.04926579212019
 30
0.0
 11
50.76247250657127
 21
20.04926579212019
 31
0.0
  0
LINE
  5
4BB
330
2
100
AcDbEntity
  8
GAIKEI
 62
     1
100
AcDbLine
 10
50.51738606767412
 20
20.55327037462223
 30
0.0
 11
50.51738606767412
 21
20.04926579212019
 31
0.0
  0
LINE
  5
4BC
330
2
100
AcDbEntity
  8
GAIKEI
 62
     1
100
AcDbLine
 10
50.76247250657127
 20
20.55327037462223
 30
0.0
 11
50.51738606767412
 21
20.55327037462223
 31
0.0
  0
LINE
  5
4BD
330
2
100
AcDbEntity
  8
GAIKEI
 62
     1
100
AcDbLine
 10
51.25851912198118
 20
20.04926579212019
 30
0.0
 11
51.25851912198118
 21
20.55327037462223
 31
0.0
  0
LINE
  5
4BE
330
2
100
AcDbEntity
  8
GAIKEI
 62
     1
100
AcDbLine
 10
51.0135274207875
 20
20.04926579212019
 30
0.0
 11
51.25851912198118
 21
20.04926579212019
 31
0.0
  0
LINE
  5
4BF
330
2
100
AcDbEntity
  8
GAIKEI
 62
     1
100
AcDbLine
 10
51.0135274207875
 20
20.55327037462223
 30
0.0
 11
51.0135274207875
 21
20.04926579212019
 31
0.0
  0
LINE
  5
4C0
330
2
100
AcDbEntity
  8
GAIKEI
 62
     1
100
AcDbLine
 10
51.25851912198118
 20
20.55327037462223
 30
0.0
 11
51.0135274207875
 21
20.55327037462223
 31
0.0
  0
LINE
  5
4C1
330
2
100
AcDbEntity
  8
GAIKEI
 62
     1
100
AcDbLine
 10
43.81658830068714
 20
20.80470423965244
 30
0.0
 11
43.81658830068714
 21
21.30870882215447
 31
0.0
  0
LINE
  5
4C2
330
2
100
AcDbEntity
  8
GAIKEI
 62
     1
100
AcDbLine
 10
43.57159659949354
 20
20.80470423965244
 30
0.0
 11
43.81658830068714
 21
20.80470423965244
 31
0.0
  0
LINE
  5
4C3
330
2
100
AcDbEntity
  8
GAIKEI
 62
     1
100
AcDbLine
 10
43.57159659949354
 20
21.30870882215447
 30
0.0
 11
43.57159659949354
 21
20.80470423965244
 31
0.0
  0
LINE
  5
4C4
330
2
100
AcDbEntity
  8
GAIKEI
 62
     1
100
AcDbLine
 10
43.81658830068714
 20
21.30870882215447
 30
0.0
 11
43.57159659949354
 21
21.30870882215447
 31
0.0
  0
LINE
  5
4C5
330
2
100
AcDbEntity
  8
GAIKEI
 62
     1
100
AcDbLine
 10
44.31272965380053
 20
20.80470423965244
 30
0.0
 11
44.31272965380053
 21
21.30870882215447
 31
0.0
  0
LINE
  5
4C6
330
2
100
AcDbEntity
  8
GAIKEI
 62
     1
100
AcDbLine
 10
44.06764321490345
 20
20.80470423965244
 30
0.0
 11
44.31272965380053
 21
20.80470423965244
 31
0.0
  0
LINE
  5
4C7
330
2
100
AcDbEntity
  8
GAIKEI
 62
     1
100
AcDbLine
 10
44.06764321490345
 20
21.30870882215447
 30
0.0
 11
44.06764321490345
 21
20.80470423965244
 31
0.0
  0
LINE
  5
4C8
330
2
100
AcDbEntity
  8
GAIKEI
 62
     1
100
AcDbLine
 10
44.31272965380053
 20
21.30870882215447
 30
0.0
 11
44.06764321490345
 21
21.30870882215447
 31
0.0
  0
LINE
  5
4C9
330
2
100
AcDbEntity
  8
GAIKEI
 62
     1
100
AcDbLine
 10
44.808871006914
 20
20.80470423965244
 30
0.0
 11
44.808871006914
 21
21.30870882215447
 31
0.0
  0
LINE
  5
4CA
330
2
100
AcDbEntity
  8
GAIKEI
 62
     1
100
AcDbLine
 10
44.56378456801684
 20
20.80470423965244
 30
0.0
 11
44.808871006914
 21
20.80470423965244
 31
0.0
  0
LINE
  5
4CB
330
2
100
AcDbEntity
  8
GAIKEI
 62
     1
100
AcDbLine
 10
44.56378456801684
 20
21.30870882215447
 30
0.0
 11
44.56378456801684
 21
20.80470423965244
 31
0.0
  0
LINE
  5
4CC
330
2
100
AcDbEntity
  8
GAIKEI
 62
     1
100
AcDbLine
 10
44.808871006914
 20
21.30870882215447
 30
0.0
 11
44.56378456801684
 21
21.30870882215447
 31
0.0
  0
LINE
  5
4CD
330
2
100
AcDbEntity
  8
GAIKEI
 62
     1
100
AcDbLine
 10
45.30491762232389
 20
20.80470423965244
 30
0.0
 11
45.30491762232389
 21
21.30870882215447
 31
0.0
  0
LINE
  5
4CE
330
2
100
AcDbEntity
  8
GAIKEI
 62
     1
100
AcDbLine
 10
45.05992592113023
 20
20.80470423965244
 30
0.0
 11
45.30491762232389
 21
20.80470423965244
 31
0.0
  0
LINE
  5
4CF
330
2
100
AcDbEntity
  8
GAIKEI
 62
     1
100
AcDbLine
 10
45.05992592113023
 20
21.30870882215447
 30
0.0
 11
45.05992592113023
 21
20.80470423965244
 31
0.0
  0
LINE
  5
4D0
330
2
100
AcDbEntity
  8
GAIKEI
 62
     1
100
AcDbLine
 10
45.30491762232389
 20
21.30870882215447
 30
0.0
 11
45.05992592113023
 21
21.30870882215447
 31
0.0
  0
LINE
  5
4D1
330
2
100
AcDbEntity
  8
GAIKEI
 62
     1
100
AcDbLine
 10
45.80105897543727
 20
20.80470423965244
 30
0.0
 11
45.80105897543727
 21
21.30870882215447
 31
0.0
  0
LINE
  5
4D2
330
2
100
AcDbEntity
  8
GAIKEI
 62
     1
100
AcDbLine
 10
45.55606727424367
 20
20.80470423965244
 30
0.0
 11
45.80105897543727
 21
20.80470423965244
 31
0.0
  0
LINE
  5
4D3
330
2
100
AcDbEntity
  8
GAIKEI
 62
     1
100
AcDbLine
 10
45.55606727424367
 20
21.30870882215447
 30
0.0
 11
45.55606727424367
 21
20.80470423965244
 31
0.0
  0
LINE
  5
4D4
330
2
100
AcDbEntity
  8
GAIKEI
 62
     1
100
AcDbLine
 10
45.80105897543727
 20
21.30870882215447
 30
0.0
 11
45.55606727424367
 21
21.30870882215447
 31
0.0
  0
LINE
  5
4D5
330
2
100
AcDbEntity
  8
GAIKEI
 62
     1
100
AcDbLine
 10
46.29720032855067
 20
20.80470423965244
 30
0.0
 11
46.29720032855067
 21
21.30870882215447
 31
0.0
  0
LINE
  5
4D6
330
2
100
AcDbEntity
  8
GAIKEI
 62
     1
100
AcDbLine
 10
46.05211388965357
 20
20.80470423965244
 30
0.0
 11
46.29720032855067
 21
20.80470423965244
 31
0.0
  0
LINE
  5
4D7
330
2
100
AcDbEntity
  8
GAIKEI
 62
     1
100
AcDbLine
 10
46.05211388965357
 20
21.30870882215447
 30
0.0
 11
46.05211388965357
 21
20.80470423965244
 31
0.0
  0
LINE
  5
4D8
330
2
100
AcDbEntity
  8
GAIKEI
 62
     1
100
AcDbLine
 10
46.29720032855067
 20
21.30870882215447
 30
0.0
 11
46.05211388965357
 21
21.30870882215447
 31
0.0
  0
LINE
  5
4D9
330
2
100
AcDbEntity
  8
GAIKEI
 62
     1
100
AcDbLine
 10
46.79334168166412
 20
20.80470423965244
 30
0.0
 11
46.79334168166412
 21
21.30870882215447
 31
0.0
  0
LINE
  5
4DA
330
2
100
AcDbEntity
  8
GAIKEI
 62
     1
100
AcDbLine
 10
46.54825524276691
 20
20.80470423965244
 30
0.0
 11
46.79334168166412
 21
20.80470423965244
 31
0.0
  0
LINE
  5
4DB
330
2
100
AcDbEntity
  8
GAIKEI
 62
     1
100
AcDbLine
 10
46.54825524276691
 20
21.30870882215447
 30
0.0
 11
46.54825524276691
 21
20.80470423965244
 31
0.0
  0
LINE
  5
4DC
330
2
100
AcDbEntity
  8
GAIKEI
 62
     1
100
AcDbLine
 10
46.79334168166412
 20
21.30870882215447
 30
0.0
 11
46.54825524276691
 21
21.30870882215447
 31
0.0
  0
LINE
  5
4DD
330
2
100
AcDbEntity
  8
GAIKEI
 62
     1
100
AcDbLine
 10
47.28957777248097
 20
20.80470423965244
 30
0.0
 11
47.28957777248097
 21
21.30870882215447
 31
0.0
  0
LINE
  5
4DE
330
2
100
AcDbEntity
  8
GAIKEI
 62
     1
100
AcDbLine
 10
47.04458607128731
 20
20.80470423965244
 30
0.0
 11
47.28957777248097
 21
20.80470423965244
 31
0.0
  0
LINE
  5
4DF
330
2
100
AcDbEntity
  8
GAIKEI
 62
     1
100
AcDbLine
 10
47.04458607128731
 20
21.30870882215447
 30
0.0
 11
47.04458607128731
 21
20.80470423965244
 31
0.0
  0
LINE
  5
4E0
330
2
100
AcDbEntity
  8
GAIKEI
 62
     1
100
AcDbLine
 10
47.28957777248097
 20
21.30870882215447
 30
0.0
 11
47.04458607128731
 21
21.30870882215447
 31
0.0
  0
LINE
  5
4E1
330
2
100
AcDbEntity
  8
GAIKEI
 62
     1
100
AcDbLine
 10
47.7855296501874
 20
20.80470423965244
 30
0.0
 11
47.7855296501874
 21
21.30870882215447
 31
0.0
  0
LINE
  5
4E2
330
2
100
AcDbEntity
  8
GAIKEI
 62
     1
100
AcDbLine
 10
47.54053794899373
 20
20.80470423965244
 30
0.0
 11
47.7855296501874
 21
20.80470423965244
 31
0.0
  0
LINE
  5
4E3
330
2
100
AcDbEntity
  8
GAIKEI
 62
     1
100
AcDbLine
 10
47.54053794899373
 20
21.30870882215447
 30
0.0
 11
47.54053794899373
 21
20.80470423965244
 31
0.0
  0
LINE
  5
4E4
330
2
100
AcDbEntity
  8
GAIKEI
 62
     1
100
AcDbLine
 10
47.7855296501874
 20
21.30870882215447
 30
0.0
 11
47.54053794899373
 21
21.30870882215447
 31
0.0
  0
LINE
  5
4E5
330
2
100
AcDbEntity
  8
GAIKEI
 62
     1
100
AcDbLine
 10
48.2816710033008
 20
20.80470423965244
 30
0.0
 11
48.2816710033008
 21
21.30870882215447
 31
0.0
  0
LINE
  5
4E6
330
2
100
AcDbEntity
  8
GAIKEI
 62
     1
100
AcDbLine
 10
48.03658456440365
 20
20.80470423965244
 30
0.0
 11
48.2816710033008
 21
20.80470423965244
 31
0.0
  0
LINE
  5
4E7
330
2
100
AcDbEntity
  8
GAIKEI
 62
     1
100
AcDbLine
 10
48.03658456440365
 20
21.30870882215447
 30
0.0
 11
48.03658456440365
 21
20.80470423965244
 31
0.0
  0
LINE
  5
4E8
330
2
100
AcDbEntity
  8
GAIKEI
 62
     1
100
AcDbLine
 10
48.2816710033008
 20
21.30870882215447
 30
0.0
 11
48.03658456440365
 21
21.30870882215447
 31
0.0
  0
LINE
  5
4E9
330
2
100
AcDbEntity
  8
GAIKEI
 62
     1
100
AcDbLine
 10
48.77800183182113
 20
20.80470423965244
 30
0.0
 11
48.77800183182113
 21
21.30870882215447
 31
0.0
  0
LINE
  5
4EA
330
2
100
AcDbEntity
  8
GAIKEI
 62
     1
100
AcDbLine
 10
48.53291539292399
 20
20.80470423965244
 30
0.0
 11
48.77800183182113
 21
20.80470423965244
 31
0.0
  0
LINE
  5
4EB
330
2
100
AcDbEntity
  8
GAIKEI
 62
     1
100
AcDbLine
 10
48.53291539292399
 20
21.30870882215447
 30
0.0
 11
48.53291539292399
 21
20.80470423965244
 31
0.0
  0
LINE
  5
4EC
330
2
100
AcDbEntity
  8
GAIKEI
 62
     1
100
AcDbLine
 10
48.77800183182113
 20
21.30870882215447
 30
0.0
 11
48.53291539292399
 21
21.30870882215447
 31
0.0
  0
LINE
  5
4ED
330
2
100
AcDbEntity
  8
GAIKEI
 62
     1
100
AcDbLine
 10
49.27404844723104
 20
20.80470423965244
 30
0.0
 11
49.27404844723104
 21
21.30870882215447
 31
0.0
  0
LINE
  5
4EE
330
2
100
AcDbEntity
  8
GAIKEI
 62
     1
100
AcDbLine
 10
49.02905674603744
 20
20.80470423965244
 30
0.0
 11
49.27404844723104
 21
20.80470423965244
 31
0.0
  0
LINE
  5
4EF
330
2
100
AcDbEntity
  8
GAIKEI
 62
     1
100
AcDbLine
 10
49.02905674603744
 20
21.30870882215447
 30
0.0
 11
49.02905674603744
 21
20.80470423965244
 31
0.0
  0
LINE
  5
4F0
330
2
100
AcDbEntity
  8
GAIKEI
 62
     1
100
AcDbLine
 10
49.27404844723104
 20
21.30870882215447
 30
0.0
 11
49.02905674603744
 21
21.30870882215447
 31
0.0
  0
LINE
  5
4F1
330
2
100
AcDbEntity
  8
GAIKEI
 62
     1
100
AcDbLine
 10
49.7701898003445
 20
20.80470423965244
 30
0.0
 11
49.7701898003445
 21
21.30870882215447
 31
0.0
  0
LINE
  5
4F2
330
2
100
AcDbEntity
  8
GAIKEI
 62
     1
100
AcDbLine
 10
49.52519809915077
 20
20.80470423965244
 30
0.0
 11
49.7701898003445
 21
20.80470423965244
 31
0.0
  0
LINE
  5
4F3
330
2
100
AcDbEntity
  8
GAIKEI
 62
     1
100
AcDbLine
 10
49.52519809915077
 20
21.30870882215447
 30
0.0
 11
49.52519809915077
 21
20.80470423965244
 31
0.0
  0
LINE
  5
4F4
330
2
100
AcDbEntity
  8
GAIKEI
 62
     1
100
AcDbLine
 10
49.7701898003445
 20
21.30870882215447
 30
0.0
 11
49.52519809915077
 21
21.30870882215447
 31
0.0
  0
LINE
  5
4F5
330
2
100
AcDbEntity
  8
GAIKEI
 62
     1
100
AcDbLine
 10
50.26633115345788
 20
20.80470423965244
 30
0.0
 11
50.26633115345788
 21
21.30870882215447
 31
0.0
  0
LINE
  5
4F6
330
2
100
AcDbEntity
  8
GAIKEI
 62
     1
100
AcDbLine
 10
50.02124471456074
 20
20.80470423965244
 30
0.0
 11
50.26633115345788
 21
20.80470423965244
 31
0.0
  0
LINE
  5
4F7
330
2
100
AcDbEntity
  8
GAIKEI
 62
     1
100
AcDbLine
 10
50.02124471456074
 20
21.30870882215447
 30
0.0
 11
50.02124471456074
 21
20.80470423965244
 31
0.0
  0
LINE
  5
4F8
330
2
100
AcDbEntity
  8
GAIKEI
 62
     1
100
AcDbLine
 10
50.26633115345788
 20
21.30870882215447
 30
0.0
 11
50.02124471456074
 21
21.30870882215447
 31
0.0
  0
LINE
  5
4F9
330
2
100
AcDbEntity
  8
GAIKEI
 62
     1
100
AcDbLine
 10
50.76247250657127
 20
20.80470423965244
 30
0.0
 11
50.76247250657127
 21
21.30870882215447
 31
0.0
  0
LINE
  5
4FA
330
2
100
AcDbEntity
  8
GAIKEI
 62
     1
100
AcDbLine
 10
50.51738606767412
 20
20.80470423965244
 30
0.0
 11
50.76247250657127
 21
20.80470423965244
 31
0.0
  0
LINE
  5
4FB
330
2
100
AcDbEntity
  8
GAIKEI
 62
     1
100
AcDbLine
 10
50.51738606767412
 20
21.30870882215447
 30
0.0
 11
50.51738606767412
 21
20.80470423965244
 31
0.0
  0
LINE
  5
4FC
330
2
100
AcDbEntity
  8
GAIKEI
 62
     1
100
AcDbLine
 10
50.76247250657127
 20
21.30870882215447
 30
0.0
 11
50.51738606767412
 21
21.30870882215447
 31
0.0
  0
LINE
  5
4FD
330
2
100
AcDbEntity
  8
GAIKEI
 62
     1
100
AcDbLine
 10
51.25851912198118
 20
20.80470423965244
 30
0.0
 11
51.25851912198118
 21
21.30870882215447
 31
0.0
  0
LINE
  5
4FE
330
2
100
AcDbEntity
  8
GAIKEI
 62
     1
100
AcDbLine
 10
51.0135274207875
 20
20.80470423965244
 30
0.0
 11
51.25851912198118
 21
20.80470423965244
 31
0.0
  0
LINE
  5
4FF
330
2
100
AcDbEntity
  8
GAIKEI
 62
     1
100
AcDbLine
 10
51.0135274207875
 20
21.30870882215447
 30
0.0
 11
51.0135274207875
 21
20.80470423965244
 31
0.0
  0
LINE
  5
500
330
2
100
AcDbEntity
  8
GAIKEI
 62
     1
100
AcDbLine
 10
51.25851912198118
 20
21.30870882215447
 30
0.0
 11
51.0135274207875
 21
21.30870882215447
 31
0.0
  0
LINE
  5
501
330
2
100
AcDbEntity
  8
GAIKEI
 62
     1
100
AcDbLine
 10
27.21465840552872
 20
15.67958395690874
 30
0.0
 11
27.324554141563
 21
15.67958395690874
 31
0.0
  0
LINE
  5
502
330
2
100
AcDbEntity
  8
GAIKEI
 62
     1
100
AcDbLine
 10
27.21465840552872
 20
15.55907759808497
 30
0.0
 11
27.21465840552872
 21
15.67958395690874
 31
0.0
  0
LINE
  5
503
330
2
100
AcDbEntity
  8
GAIKEI
 62
     1
100
AcDbLine
 10
27.09415204670489
 20
15.55907759808497
 30
0.0
 11
27.21465840552872
 21
15.55907759808497
 31
0.0
  0
LINE
  5
504
330
2
100
AcDbEntity
  8
GAIKEI
 62
     1
100
AcDbLine
 10
27.09415204670489
 20
15.44956081286455
 30
0.0
 11
27.09415204670489
 21
15.55907759808497
 31
0.0
  0
LINE
  5
505
330
2
100
AcDbEntity
  8
GAIKEI
 62
     1
100
AcDbLine
 10
27.21465840552872
 20
15.44956081286455
 30
0.0
 11
27.09415204670489
 21
15.44956081286455
 31
0.0
  0
LINE
  5
506
330
2
100
AcDbEntity
  8
GAIKEI
 62
     1
100
AcDbLine
 10
27.21465840552872
 20
15.32905445404083
 30
0.0
 11
27.21465840552872
 21
15.44956081286455
 31
0.0
  0
LINE
  5
507
330
2
100
AcDbEntity
  8
GAIKEI
 62
     1
100
AcDbLine
 10
27.324554141563
 20
15.32905445404083
 30
0.0
 11
27.21465840552872
 21
15.32905445404083
 31
0.0
  0
LINE
  5
508
330
2
100
AcDbEntity
  8
GAIKEI
 62
     1
100
AcDbLine
 10
27.324554141563
 20
15.44956081286455
 30
0.0
 11
27.324554141563
 21
15.32905445404083
 31
0.0
  0
LINE
  5
509
330
2
100
AcDbEntity
  8
GAIKEI
 62
     1
100
AcDbLine
 10
27.44487102497988
 20
15.44956081286455
 30
0.0
 11
27.324554141563
 21
15.44956081286455
 31
0.0
  0
LINE
  5
50A
330
2
100
AcDbEntity
  8
GAIKEI
 62
     1
100
AcDbLine
 10
27.44487102497988
 20
15.55907759808497
 30
0.0
 11
27.44487102497988
 21
15.44956081286455
 31
0.0
  0
LINE
  5
50B
330
2
100
AcDbEntity
  8
GAIKEI
 62
     1
100
AcDbLine
 10
27.324554141563
 20
15.55907759808497
 30
0.0
 11
27.44487102497988
 21
15.55907759808497
 31
0.0
  0
LINE
  5
50C
330
2
100
AcDbEntity
  8
GAIKEI
 62
     1
100
AcDbLine
 10
27.324554141563
 20
15.67958395690874
 30
0.0
 11
27.324554141563
 21
15.55907759808497
 31
0.0
  0
LINE
  5
50D
330
2
100
AcDbEntity
  8
GAIKEI
 62
     1
100
AcDbLine
 10
49.75200016127672
 20
15.67958395690874
 30
0.0
 11
49.86161168420057
 21
15.67958395690874
 31
0.0
  0
LINE
  5
50E
330
2
100
AcDbEntity
  8
GAIKEI
 62
     1
100
AcDbLine
 10
49.75200016127672
 20
15.55907759808497
 30
0.0
 11
49.75200016127672
 21
15.67958395690874
 31
0.0
  0
LINE
  5
50F
330
2
100
AcDbEntity
  8
GAIKEI
 62
     1
100
AcDbLine
 10
49.63149380245289
 20
15.55907759808497
 30
0.0
 11
49.75200016127672
 21
15.55907759808497
 31
0.0
  0
LINE
  5
510
330
2
100
AcDbEntity
  8
GAIKEI
 62
     1
100
AcDbLine
 10
49.63149380245289
 20
15.44956081286455
 30
0.0
 11
49.63149380245289
 21
15.55907759808497
 31
0.0
  0
LINE
  5
511
330
2
100
AcDbEntity
  8
GAIKEI
 62
     1
100
AcDbLine
 10
49.75200016127672
 20
15.44956081286455
 30
0.0
 11
49.63149380245289
 21
15.44956081286455
 31
0.0
  0
LINE
  5
512
330
2
100
AcDbEntity
  8
GAIKEI
 62
     1
100
AcDbLine
 10
49.75200016127672
 20
15.32905445404083
 30
0.0
 11
49.75200016127672
 21
15.44956081286455
 31
0.0
  0
LINE
  5
513
330
2
100
AcDbEntity
  8
GAIKEI
 62
     1
100
AcDbLine
 10
49.86161168420057
 20
15.32905445404083
 30
0.0
 11
49.75200016127672
 21
15.32905445404083
 31
0.0
  0
LINE
  5
514
330
2
100
AcDbEntity
  8
GAIKEI
 62
     1
100
AcDbLine
 10
49.86161168420057
 20
15.44956081286455
 30
0.0
 11
49.86161168420057
 21
15.32905445404083
 31
0.0
  0
LINE
  5
515
330
2
100
AcDbEntity
  8
GAIKEI
 62
     1
100
AcDbLine
 10
49.98211804302434
 20
15.44956081286455
 30
0.0
 11
49.86161168420057
 21
15.44956081286455
 31
0.0
  0
LINE
  5
516
330
2
100
AcDbEntity
  8
GAIKEI
 62
     1
100
AcDbLine
 10
49.98211804302434
 20
15.55907759808497
 30
0.0
 11
49.98211804302434
 21
15.44956081286455
 31
0.0
  0
LINE
  5
517
330
2
100
AcDbEntity
  8
GAIKEI
 62
     1
100
AcDbLine
 10
49.86161168420057
 20
15.55907759808497
 30
0.0
 11
49.98211804302434
 21
15.55907759808497
 31
0.0
  0
LINE
  5
518
330
2
100
AcDbEntity
  8
GAIKEI
 62
     1
100
AcDbLine
 10
49.86161168420057
 20
15.67958395690874
 30
0.0
 11
49.86161168420057
 21
15.55907759808497
 31
0.0
  0
LINE
  5
519
330
2
100
AcDbEntity
  8
GAIKEI
 62
     1
100
AcDbLine
 10
56.85216876029812
 20
22.23543303757458
 30
0.0
 11
56.70608322153532
 21
22.34210769169068
 31
0.0
  0
LINE
  5
51A
330
2
100
AcDbEntity
  8
GAIKEI
 62
     1
100
AcDbLine
 10
56.85216876029812
 20
21.30795092052665
 30
0.0
 11
56.85216876029812
 21
22.23543303757458
 31
0.0
  0
LINE
  5
51B
330
2
100
AcDbEntity
  8
GAIKEI
 62
     1
100
AcDbLine
 10
56.70608322153532
 20
21.20127626641062
 30
0.0
 11
56.85216876029812
 21
21.30795092052665
 31
0.0
  0
LINE
  5
51C
330
2
100
AcDbEntity
  8
GAIKEI
 62
     1
100
AcDbLine
 10
56.85216876029812
 20
21.04401167863739
 30
0.0
 11
56.70608322153532
 21
21.15068633275348
 31
0.0
  0
LINE
  5
51D
330
2
100
AcDbEntity
  8
GAIKEI
 62
     1
100
AcDbLine
 10
56.85216876029812
 20
19.38742819562406
 30
0.0
 11
56.85216876029812
 21
21.04401167863739
 31
0.0
  0
LINE
  5
51E
330
2
100
AcDbEntity
  8
GAIKEI
 62
     1
100
AcDbLine
 10
56.70608322153532
 20
19.28075354150803
 30
0.0
 11
56.85216876029812
 21
19.38742819562406
 31
0.0
  0
LINE
  5
51F
330
2
100
AcDbEntity
  8
GAIKEI
 62
     1
100
AcDbLine
 10
57.08285506826661
 20
22.02227320474947
 30
0.0
 11
56.86401097323283
 21
22.11682143282036
 31
0.0
  0
LINE
  5
520
330
2
100
AcDbEntity
  8
GAIKEI
 62
     1
100
AcDbLine
 10
57.08285506826661
 20
21.52148970416567
 30
0.0
 11
57.08285506826661
 21
22.02227320474947
 31
0.0
  0
LINE
  5
521
330
2
100
AcDbEntity
  8
GAIKEI
 62
     1
100
AcDbLine
 10
56.86401097323283
 20
21.42656252528093
 30
0.0
 11
57.08285506826661
 21
21.52148970416567
 31
0.0
  0
LINE
  5
522
330
2
100
AcDbEntity
  8
GAIKEI
 62
     1
100
AcDbLine
 10
-11.59195088036415
 20
20.4153322783585
 30
0.0
 11
-10.63775273093551
 21
20.4153322783585
 31
0.0
  0
LINE
  5
523
330
2
100
AcDbEntity
  8
GAIKEI
 62
     1
100
AcDbLine
 10
-11.59195088036415
 20
19.95566494108407
 30
0.0
 11
-11.59195088036415
 21
20.4153322783585
 31
0.0
  0
LINE
  5
524
330
2
100
AcDbEntity
  8
GAIKEI
 62
     1
100
AcDbLine
 10
-10.63775273093551
 20
19.95566494108407
 30
0.0
 11
-11.59195088036415
 21
19.95566494108407
 31
0.0
  0
LINE
  5
525
330
2
100
AcDbEntity
  8
GAIKEI
 62
     1
100
AcDbLine
 10
-10.63775273093551
 20
20.4153322783585
 30
0.0
 11
-10.63775273093551
 21
19.95566494108407
 31
0.0
  0
CIRCLE
  5
526
330
2
100
AcDbEntity
  8
GAIKEI
 62
     1
100
AcDbCircle
 10
49.80666381618339
 20
15.50431920547476
 30
0.0
 40
0.5149941561054856
  0
CIRCLE
  5
527
330
2
100
AcDbEntity
  8
GAIKEI
 62
     1
100
AcDbCircle
 10
49.80666381618339
 20
15.50431920547476
 30
0.0
 40
0.3507189782749278
  0
CIRCLE
  5
528
330
2
100
AcDbEntity
  8
GAIKEI
 62
     1
100
AcDbCircle
 10
49.80666381618339
 20
15.50422446777128
 30
0.0
 40
0.2411074553510781
  0
CIRCLE
  5
529
330
2
100
AcDbEntity
  8
GAIKEI
 62
     1
100
AcDbCircle
 10
27.26979574895279
 20
15.50431920547476
 30
0.0
 40
0.5149941561054856
  0
CIRCLE
  5
52A
330
2
100
AcDbEntity
  8
GAIKEI
 62
     1
100
AcDbCircle
 10
27.26979574895279
 20
15.50431920547476
 30
0.0
 40
0.3507189782749278
  0
CIRCLE
  5
52B
330
2
100
AcDbEntity
  8
GAIKEI
 62
     1
100
AcDbCircle
 10
27.26979574895279
 20
15.50422446777128
 30
0.0
 40
0.2411074553510781
  0
LINE
  5
52C
330
2
100
AcDbEntity
  8
GAIKEI
  6
Continuous
 62
     1
100
AcDbLine
 10
19.88247717069015
 20
16.8520577751504
 30
0.0
 11
19.88247717069015
 21
19.50395557090178
 31
0.0
  0
LINE
  5
52D
330
2
100
AcDbEntity
  8
GAIKEI
  6
Continuous
 62
     1
100
AcDbLine
 10
20.07877369229624
 20
16.65481387650953
 30
0.0
 11
20.07877369229624
 21
19.67997822396364
 31
0.0
  0
LINE
  5
52E
330
2
100
AcDbEntity
  8
GAIKEI
100
AcDbLine
 10
21.70068317583667
 20
13.90034536328619
 30
0.0
 11
21.70068317583667
 21
22.39465690172625
 31
0.0
  0
CIRCLE
  5
52F
330
2
100
AcDbEntity
  8
GAIKEI
 62
     1
100
AcDbCircle
 10
24.10271432168895
 20
20.18313016713438
 30
0.0
 40
0.2411074553510781
  0
CIRCLE
  5
530
330
2
100
AcDbEntity
  8
GAIKEI
 62
     1
100
AcDbCircle
 10
24.10271432168895
 20
16.17269370351084
 30
0.0
 40
0.2411074553510781
  0
LINE
  5
531
330
2
100
AcDbEntity
  8
GAIKEI
 62
     1
100
AcDbLine
 10
-19.73276174021413
 20
16.93429010176908
 30
0.0
 11
-19.43395902344508
 21
16.93429010176908
 31
0.0
  0
LINE
  5
532
330
2
100
AcDbEntity
  8
GAIKEI
 62
     1
100
AcDbLine
 10
-19.73276174021413
 20
16.60441341825935
 30
0.0
 11
-19.73276174021413
 21
16.93429010176908
 31
0.0
  0
LINE
  5
533
330
2
100
AcDbEntity
  8
GAIKEI
 62
     1
100
AcDbLine
 10
-19.43395902344508
 20
16.60441341825935
 30
0.0
 11
-19.73276174021413
 21
16.60441341825935
 31
0.0
  0
LINE
  5
534
330
2
100
AcDbEntity
  8
GAIKEI
 62
     1
100
AcDbLine
 10
-19.43395902344508
 20
16.93429010176908
 30
0.0
 11
-19.43395902344508
 21
16.60441341825935
 31
0.0
  0
LINE
  5
535
330
2
100
AcDbEntity
  8
GAIKEI
 62
     1
100
AcDbLine
 10
-19.58354985723656
 20
16.64799276185908
 30
0.0
 11
-19.69590877356125
 21
16.89071075816935
 31
0.0
  0
LINE
  5
536
330
2
100
AcDbEntity
  8
GAIKEI
 62
     1
100
AcDbLine
 10
-19.47100146550485
 20
16.89071075816935
 30
0.0
 11
-19.58354985723656
 21
16.64799276185908
 31
0.0
  0
LINE
  5
537
330
2
100
AcDbEntity
  8
GAIKEI
 62
     1
100
AcDbLine
 10
-17.78476508130301
 20
16.93429010176908
 30
0.0
 11
-17.48596236453392
 21
16.93429010176908
 31
0.0
  0
LINE
  5
538
330
2
100
AcDbEntity
  8
GAIKEI
 62
     1
100
AcDbLine
 10
-17.78476508130301
 20
16.60479236907326
 30
0.0
 11
-17.78476508130301
 21
16.93429010176908
 31
0.0
  0
LINE
  5
539
330
2
100
AcDbEntity
  8
GAIKEI
 62
     1
100
AcDbLine
 10
-17.48596236453392
 20
16.60479236907326
 30
0.0
 11
-17.78476508130301
 21
16.60479236907326
 31
0.0
  0
LINE
  5
53A
330
2
100
AcDbEntity
  8
GAIKEI
 62
     1
100
AcDbLine
 10
-17.48596236453392
 20
16.93429010176908
 30
0.0
 11
-17.48596236453392
 21
16.60479236907326
 31
0.0
  0
LINE
  5
53B
330
2
100
AcDbEntity
  8
GAIKEI
 62
     1
100
AcDbLine
 10
-17.63517424751148
 20
16.89071075816935
 30
0.0
 11
-17.52281533118679
 21
16.64799276185908
 31
0.0
  0
LINE
  5
53C
330
2
100
AcDbEntity
  8
GAIKEI
 62
     1
100
AcDbLine
 10
-17.74753316383623
 20
16.64799276185908
 30
0.0
 11
-17.63517424751148
 21
16.89071075816935
 31
0.0
  0
LINE
  5
53D
330
2
100
AcDbEntity
  8
GAIKEI
 62
     1
100
AcDbLine
 10
-9.058948902477482
 20
18.63729505948663
 30
0.0
 11
-9.300530046345896
 21
18.54426263467132
 31
0.0
  0
LINE
  5
53E
330
2
100
AcDbEntity
  8
GAIKEI
 62
     1
100
AcDbLine
 10
-9.058948902477482
 20
18.54426263467132
 30
0.0
 11
-9.058948902477482
 21
18.63729505948663
 31
0.0
  0
LINE
  5
53F
330
2
100
AcDbEntity
  8
GAIKEI
 62
     1
100
AcDbLine
 10
-8.798609693320372
 20
18.64449512495093
 30
0.0
 11
-9.058948902477482
 21
18.54426263467132
 31
0.0
  0
LINE
  5
540
330
2
100
AcDbEntity
  8
GAIKEI
 62
     1
100
AcDbLine
 10
-9.058948902477482
 20
18.74491709063739
 30
0.0
 11
-8.798609693320372
 21
18.64449512495093
 31
0.0
  0
LINE
  5
541
330
2
100
AcDbEntity
  8
GAIKEI
 62
     1
100
AcDbLine
 10
-9.058948902477482
 20
18.65188466582219
 30
0.0
 11
-9.058948902477482
 21
18.74491709063739
 31
0.0
  0
LINE
  5
542
330
2
100
AcDbEntity
  8
GAIKEI
 62
     1
100
AcDbLine
 10
-9.300530046345896
 20
18.74491709063739
 30
0.0
 11
-9.058948902477482
 21
18.65188466582219
 31
0.0
  0
LINE
  5
543
330
2
100
AcDbEntity
  8
GAIKEI
 62
     1
100
AcDbLine
 10
-9.300530046345896
 20
18.54426263467132
 30
0.0
 11
-9.300530046345896
 21
18.74491709063739
 31
0.0
  0
LINE
  5
544
330
2
100
AcDbEntity
  8
GAIKEI
 62
     1
100
AcDbLine
 10
-12.89478377859132
 20
18.54426263467132
 30
0.0
 11
-13.13636492245979
 21
18.63729505948663
 31
0.0
  0
LINE
  5
545
330
2
100
AcDbEntity
  8
GAIKEI
 62
     1
100
AcDbLine
 10
-12.89478377859132
 20
18.74491709063739
 30
0.0
 11
-12.89478377859132
 21
18.54426263467132
 31
0.0
  0
LINE
  5
546
330
2
100
AcDbEntity
  8
GAIKEI
 62
     1
100
AcDbLine
 10
-13.13636492245979
 20
18.65188466582219
 30
0.0
 11
-12.89478377859132
 21
18.74491709063739
 31
0.0
  0
LINE
  5
547
330
2
100
AcDbEntity
  8
GAIKEI
 62
     1
100
AcDbLine
 10
-13.13636492245979
 20
18.74491709063739
 30
0.0
 11
-13.13636492245979
 21
18.65188466582219
 31
0.0
  0
LINE
  5
548
330
2
100
AcDbEntity
  8
GAIKEI
 62
     1
100
AcDbLine
 10
-13.39679886932032
 20
18.64449512495093
 30
0.0
 11
-13.13636492245979
 21
18.74491709063739
 31
0.0
  0
LINE
  5
549
330
2
100
AcDbEntity
  8
GAIKEI
 62
     1
100
AcDbLine
 10
-13.13636492245979
 20
18.54426263467132
 30
0.0
 11
-13.39679886932032
 21
18.64449512495093
 31
0.0
  0
LINE
  5
54A
330
2
100
AcDbEntity
  8
GAIKEI
 62
     1
100
AcDbLine
 10
-13.13636492245979
 20
18.63729505948663
 30
0.0
 11
-13.13636492245979
 21
18.54426263467132
 31
0.0
  0
LINE
  5
54B
330
2
100
AcDbEntity
  8
GAIKEI
 62
     1
100
AcDbLine
 10
-12.40262140902399
 20
19.64151471635159
 30
0.0
 11
-12.57637035720233
 21
19.76012632110587
 31
0.0
  0
LINE
  5
54C
330
2
100
AcDbEntity
  8
GAIKEI
 62
     1
100
AcDbLine
 10
-12.74329819073023
 20
19.2676797384281
 30
0.0
 11
-12.40262140902399
 21
19.64151471635159
 31
0.0
  0
LINE
  5
54D
330
2
100
AcDbEntity
  8
GAIKEI
 62
     1
100
AcDbLine
 10
-12.57637035720233
 20
19.76012632110587
 30
0.0
 11
-12.74329819073023
 21
19.2676797384281
 31
0.0
  0
LINE
  5
54E
330
2
100
AcDbEntity
  8
GAIKEI
 62
     1
100
AcDbLine
 10
-9.544763845911743
 20
19.73719979686421
 30
0.0
 11
-9.740776154407399
 21
19.60361963496047
 31
0.0
  0
LINE
  5
54F
330
2
100
AcDbEntity
  8
GAIKEI
 62
     1
100
AcDbLine
 10
-9.353867373403886
 20
19.25915334511512
 30
0.0
 11
-9.544763845911743
 21
19.73719979686421
 31
0.0
  0
LINE
  5
550
330
2
100
AcDbEntity
  8
GAIKEI
 62
     1
100
AcDbLine
 10
-9.740776154407399
 20
19.60361963496047
 30
0.0
 11
-9.353867373403886
 21
19.25915334511512
 31
0.0
  0
CIRCLE
  5
551
330
2
100
AcDbEntity
  8
GAIKEI
 62
     1
100
AcDbCircle
 10
-11.08590943723737
 20
18.11510083791677
 30
0.0
 40
2.488143675289995
  0
CIRCLE
  5
552
330
2
100
AcDbEntity
  8
GAIKEI
 62
     1
100
AcDbCircle
 10
-11.08590943723737
 20
18.11510083791677
 30
0.0
 40
1.411923363781844
  0
LINE
  5
553
330
2
100
AcDbEntity
  8
GAIKEI
 62
     1
100
AcDbLine
 10
-19.12160881507867
 20
19.84861133615413
 30
0.0
 11
-18.78472154151149
 21
19.84861133615413
 31
0.0
  0
LINE
  5
554
330
2
100
AcDbEntity
  8
GAIKEI
 62
     1
100
AcDbLine
 10
-19.12160881507867
 20
19.07972013472806
 30
0.0
 11
-19.12160881507867
 21
19.84861133615413
 31
0.0
  0
LINE
  5
555
330
2
100
AcDbEntity
  8
GAIKEI
 62
     1
100
AcDbLine
 10
-18.78472154151149
 20
19.07972013472806
 30
0.0
 11
-19.12160881507867
 21
19.07972013472806
 31
0.0
  0
LINE
  5
556
330
2
100
AcDbEntity
  8
GAIKEI
 62
     1
100
AcDbLine
 10
-18.78472154151149
 20
19.84861133615413
 30
0.0
 11
-18.78472154151149
 21
19.07972013472806
 31
0.0
  0
LINE
  5
557
330
2
100
AcDbEntity
  8
GAIKEI
 62
     1
100
AcDbLine
 10
-21.51818849995732
 20
19.84861133615413
 30
0.0
 11
-21.18130122639019
 21
19.84861133615413
 31
0.0
  0
LINE
  5
558
330
2
100
AcDbEntity
  8
GAIKEI
 62
     1
100
AcDbLine
 10
-21.51818849995732
 20
19.07972013472806
 30
0.0
 11
-21.51818849995732
 21
19.84861133615413
 31
0.0
  0
LINE
  5
559
330
2
100
AcDbEntity
  8
GAIKEI
 62
     1
100
AcDbLine
 10
-21.18130122639019
 20
19.07972013472806
 30
0.0
 11
-21.51818849995732
 21
19.07972013472806
 31
0.0
  0
LINE
  5
55A
330
2
100
AcDbEntity
  8
GAIKEI
 62
     1
100
AcDbLine
 10
-21.18130122639019
 20
19.84861133615413
 30
0.0
 11
-21.18130122639019
 21
19.07972013472806
 31
0.0
  0
LINE
  5
55B
330
2
100
AcDbEntity
  8
GAIKEI
 62
     1
100
AcDbLine
 10
-17.87865014544951
 20
20.1197506435077
 30
0.0
 11
-18.24575874642608
 21
19.97934936695356
 31
0.0
  0
LINE
  5
55C
330
2
100
AcDbEntity
  8
GAIKEI
 62
     1
100
AcDbLine
 10
-18.24575874642608
 20
20.26053087087575
 30
0.0
 11
-17.87865014544951
 21
20.1197506435077
 31
0.0
  0
LINE
  5
55D
330
2
100
AcDbEntity
  8
GAIKEI
 62
     1
100
AcDbLine
 10
-18.24575874642608
 20
19.97934936695356
 30
0.0
 11
-18.24575874642608
 21
20.26053087087575
 31
0.0
  0
LINE
  5
55E
330
2
100
AcDbEntity
  8
GAIKEI
 62
     1
100
AcDbLine
 10
-16.10099187739149
 20
17.6133699602982
 30
0.0
 11
-16.40434200392758
 21
17.4727792083371
 31
0.0
  0
LINE
  5
55F
330
2
100
AcDbEntity
  8
GAIKEI
 62
     1
100
AcDbLine
 10
-16.40434200392758
 20
17.75415018766625
 30
0.0
 11
-16.10099187739149
 21
17.6133699602982
 31
0.0
  0
LINE
  5
560
330
2
100
AcDbEntity
  8
GAIKEI
 62
     1
100
AcDbLine
 10
-16.40434200392758
 20
17.62341215686683
 30
0.0
 11
-16.40434200392758
 21
17.75415018766625
 31
0.0
  0
LINE
  5
561
330
2
100
AcDbEntity
  8
GAIKEI
 62
     1
100
AcDbLine
 10
-16.68618667177407
 20
17.75415018766625
 30
0.0
 11
-16.40434200392758
 21
17.62341215686683
 31
0.0
  0
LINE
  5
562
330
2
100
AcDbEntity
  8
GAIKEI
 62
     1
100
AcDbLine
 10
-16.68618667177407
 20
17.4727792083371
 30
0.0
 11
-16.68618667177407
 21
17.75415018766625
 31
0.0
  0
LINE
  5
563
330
2
100
AcDbEntity
  8
GAIKEI
 62
     1
100
AcDbLine
 10
-16.40434200392758
 20
17.60313828832261
 30
0.0
 11
-16.68618667177407
 21
17.4727792083371
 31
0.0
  0
LINE
  5
564
330
2
100
AcDbEntity
  8
GAIKEI
 62
     1
100
AcDbLine
 10
-16.40434200392758
 20
17.4727792083371
 30
0.0
 11
-16.40434200392758
 21
17.60313828832261
 31
0.0
  0
LINE
  5
565
330
2
100
AcDbEntity
  8
GAIKEI
 62
     1
100
AcDbLine
 10
-16.84885130864552
 20
17.44568422514248
 30
0.0
 11
-16.73668186772778
 21
17.78200307248875
 31
0.0
  0
LINE
  5
566
330
2
100
AcDbEntity
  8
GAIKEI
 62
     1
100
AcDbLine
 10
-16.87689366887497
 20
17.44568422514248
 30
0.0
 11
-16.84885130864552
 21
17.44568422514248
 31
0.0
  0
LINE
  5
567
330
2
100
AcDbEntity
  8
GAIKEI
 62
     1
100
AcDbLine
 10
-16.7646294902537
 20
17.78200307248875
 30
0.0
 11
-16.87689366887497
 21
17.44568422514248
 31
0.0
  0
LINE
  5
568
330
2
100
AcDbEntity
  8
GAIKEI
 62
     1
100
AcDbLine
 10
-16.73668186772778
 20
17.78200307248875
 30
0.0
 11
-16.7646294902537
 21
17.78200307248875
 31
0.0
  0
LINE
  5
569
330
2
100
AcDbEntity
  8
GAIKEI
 62
     1
100
AcDbLine
 10
-16.92757834023558
 20
17.4727792083371
 30
0.0
 11
-17.20951774578566
 21
17.60313828832261
 31
0.0
  0
LINE
  5
56A
330
2
100
AcDbEntity
  8
GAIKEI
 62
     1
100
AcDbLine
 10
-16.92757834023558
 20
17.75415018766625
 30
0.0
 11
-16.92757834023558
 21
17.4727792083371
 31
0.0
  0
LINE
  5
56B
330
2
100
AcDbEntity
  8
GAIKEI
 62
     1
100
AcDbLine
 10
-17.20951774578566
 20
17.62341215686683
 30
0.0
 11
-16.92757834023558
 21
17.75415018766625
 31
0.0
  0
LINE
  5
56C
330
2
100
AcDbEntity
  8
GAIKEI
 62
     1
100
AcDbLine
 10
-17.20951774578566
 20
17.75415018766625
 30
0.0
 11
-17.20951774578566
 21
17.62341215686683
 31
0.0
  0
LINE
  5
56D
330
2
100
AcDbEntity
  8
GAIKEI
 62
     1
100
AcDbLine
 10
-17.51315208543207
 20
17.6133699602982
 30
0.0
 11
-17.20951774578566
 21
17.75415018766625
 31
0.0
  0
LINE
  5
56E
330
2
100
AcDbEntity
  8
GAIKEI
 62
     1
100
AcDbLine
 10
-17.20951774578566
 20
17.4727792083371
 30
0.0
 11
-17.51315208543207
 21
17.6133699602982
 31
0.0
  0
LINE
  5
56F
330
2
100
AcDbEntity
  8
GAIKEI
 62
     1
100
AcDbLine
 10
-17.20951774578566
 20
17.60313828832261
 30
0.0
 11
-17.20951774578566
 21
17.4727792083371
 31
0.0
  0
LINE
  5
570
330
2
100
AcDbEntity
  8
GAIKEI
 62
     1
100
AcDbLine
 10
-18.77676357441936
 20
17.44568422514248
 30
0.0
 11
-18.66430992039119
 21
17.78200307248875
 31
0.0
  0
LINE
  5
571
330
2
100
AcDbEntity
  8
GAIKEI
 62
     1
100
AcDbLine
 10
-18.80518488546272
 20
17.44568422514248
 30
0.0
 11
-18.77676357441936
 21
17.44568422514248
 31
0.0
  0
LINE
  5
572
330
2
100
AcDbEntity
  8
GAIKEI
 62
     1
100
AcDbLine
 10
-18.69282596913803
 20
17.78200307248875
 30
0.0
 11
-18.80518488546272
 21
17.44568422514248
 31
0.0
  0
LINE
  5
573
330
2
100
AcDbEntity
  8
GAIKEI
 62
     1
100
AcDbLine
 10
-18.66430992039119
 20
17.78200307248875
 30
0.0
 11
-18.69282596913803
 21
17.78200307248875
 31
0.0
  0
LINE
  5
574
330
2
100
AcDbEntity
  8
GAIKEI
 62
     1
100
AcDbLine
 10
-20.79931880596757
 20
20.26299405116617
 30
0.0
 11
-20.51387410538882
 21
20.26299405116617
 31
0.0
  0
LINE
  5
575
330
2
100
AcDbEntity
  8
GAIKEI
 62
     1
100
AcDbLine
 10
-20.79931880596757
 20
19.97082297364056
 30
0.0
 11
-20.79931880596757
 21
20.26299405116617
 31
0.0
  0
LINE
  5
576
330
2
100
AcDbEntity
  8
GAIKEI
 62
     1
100
AcDbLine
 10
-20.51387410538882
 20
19.97082297364056
 30
0.0
 11
-20.79931880596757
 21
19.97082297364056
 31
0.0
  0
LINE
  5
577
330
2
100
AcDbEntity
  8
GAIKEI
 62
     1
100
AcDbLine
 10
-20.51387410538882
 20
20.26299405116617
 30
0.0
 11
-20.51387410538882
 21
19.97082297364056
 31
0.0
  0
LINE
  5
578
330
2
100
AcDbEntity
  8
GAIKEI
 62
     1
100
AcDbLine
 10
-17.48188864328438
 20
15.96436549356309
 30
0.0
 11
-16.36549954550162
 21
15.96436549356309
 31
0.0
  0
LINE
  5
579
330
2
100
AcDbEntity
  8
GAIKEI
 62
     1
100
AcDbLine
 10
-21.08798458846451
 20
15.96436549356309
 30
0.0
 11
-20.02360648989105
 21
15.96436549356309
 31
0.0
  0
CIRCLE
  5
57A
330
2
100
AcDbEntity
  8
GAIKEI
 62
     1
100
AcDbCircle
 10
-14.8519226258881
 20
16.76944649771769
 30
0.0
 40
0.4522304275514231
  0
CIRCLE
  5
57B
330
2
100
AcDbEntity
  8
GAIKEI
 62
     1
100
AcDbCircle
 10
-16.79276658818662
 20
16.76944649771769
 30
0.0
 40
0.4520883209962064
  0
LINE
  5
57C
330
2
100
AcDbEntity
  8
GAIKEI
 62
     1
100
AcDbLine
 10
-35.5052630414242
 20
20.55592303031961
 30
0.0
 11
-35.45382046843577
 21
20.60746034101157
 31
0.0
  0
LINE
  5
57D
330
2
100
AcDbEntity
  8
GAIKEI
 62
     1
100
AcDbLine
 10
-35.4719153698
 20
20.47558545777042
 30
0.0
 11
-35.39953576434295
 21
20.47558545777042
 31
0.0
  0
LINE
  5
57E
330
2
100
AcDbEntity
  8
GAIKEI
 62
     1
100
AcDbLine
 10
-35.5052630414242
 20
20.39486893440733
 30
0.0
 11
-35.45382046843577
 21
20.34371057452933
 31
0.0
  0
LINE
  5
57F
330
2
100
AcDbEntity
  8
GAIKEI
 62
     1
100
AcDbLine
 10
-35.58579008938035
 20
20.36152126278318
 30
0.0
 11
-35.58579008938035
 21
20.28914165732607
 31
0.0
  0
LINE
  5
580
330
2
100
AcDbEntity
  8
GAIKEI
 62
     1
100
AcDbLine
 10
-35.66631713733648
 20
20.39486893440733
 30
0.0
 11
-35.71757023491802
 21
20.34371057452933
 31
0.0
  0
LINE
  5
581
330
2
100
AcDbEntity
  8
GAIKEI
 62
     1
100
AcDbLine
 10
-35.69966480896074
 20
20.47558545777042
 30
0.0
 11
-35.77204441441779
 21
20.47558545777042
 31
0.0
  0
LINE
  5
582
330
2
100
AcDbEntity
  8
GAIKEI
 62
     1
100
AcDbLine
 10
-35.66631713733648
 20
20.55630198113357
 30
0.0
 11
-35.71757023491802
 21
20.60746034101157
 31
0.0
  0
LINE
  5
583
330
2
100
AcDbEntity
  8
GAIKEI
 62
     1
100
AcDbLine
 10
-35.58579008938035
 20
20.58946017735082
 30
0.0
 11
-35.58579008938035
 21
20.66183978280788
 31
0.0
  0
CIRCLE
  5
584
330
2
100
AcDbEntity
  8
GAIKEI
 62
     1
100
AcDbCircle
 10
-35.58569535167693
 20
20.47558545777042
 30
0.0
 40
0.0778743922587765
  0
CIRCLE
  5
585
330
2
100
AcDbEntity
  8
GAIKEI
 62
     1
100
AcDbCircle
 10
-35.58569535167693
 20
20.11387690589208
 30
0.0
 40
0.0778743922587765
  0
LINE
  5
586
330
2
100
AcDbEntity
  8
GAIKEI
 62
     1
100
AcDbLine
 10
-8.071782032238445
 20
15.95280749373876
 30
0.0
 11
-3.247154495921164
 21
15.95280749373876
 31
0.0
  0
LINE
  5
587
330
2
100
AcDbEntity
  8
GAIKEI
 62
     1
100
AcDbLine
 10
-8.042129131049874
 20
16.11461949127897
 30
0.0
 11
-3.247154495921164
 21
16.11461949127897
 31
0.0
  0
LINE
  5
588
330
2
100
AcDbEntity
  8
GAIKEI
 62
     1
100
AcDbLine
 10
-7.993433951462292
 20
16.39201148706206
 30
0.0
 11
-3.247154495921164
 21
16.39201148706206
 31
0.0
  0
CIRCLE
  5
589
330
2
100
AcDbEntity
  8
GAIKEI
 62
     1
100
AcDbCircle
 10
-23.18580892542582
 20
16.74557259644132
 30
0.0
 40
0.2726077417574568
  0
CIRCLE
  5
58A
330
2
100
AcDbEntity
  8
GAIKEI
 62
     1
100
AcDbCircle
 10
-34.98093722152618
 20
16.74557259644132
 30
0.0
 40
0.2727024794609345
  0
CIRCLE
  5
58B
330
2
100
AcDbEntity
  8
GAIKEI
 62
     1
100
AcDbCircle
 10
-33.10768861065901
 20
19.45507091590718
 30
0.0
 40
0.2726077417574568
  0
CIRCLE
  5
58C
330
2
100
AcDbEntity
  8
GAIKEI
 62
     1
100
AcDbCircle
 10
-23.19935641702318
 20
19.45507091590718
 30
0.0
 40
0.2726077417574568
  0
CIRCLE
  5
58D
330
2
100
AcDbEntity
  8
GAIKEI
 62
     1
100
AcDbCircle
 10
-38.20277704140017
 20
17.80038218696347
 30
0.0
 40
0.0554689253862697
  0
CIRCLE
  5
58E
330
2
100
AcDbEntity
  8
GAIKEI
 62
     1
100
AcDbCircle
 10
-38.44937928355302
 20
17.80038218696347
 30
0.0
 40
0.055279449979314
  0
CIRCLE
  5
58F
330
2
100
AcDbEntity
  8
GAIKEI
 62
     1
100
AcDbCircle
 10
-38.69588678800233
 20
17.80038218696347
 30
0.0
 40
0.0553741876827918
  0
CIRCLE
  5
590
330
2
100
AcDbEntity
  8
GAIKEI
 62
     1
100
AcDbCircle
 10
-38.20277704140017
 20
18.09615329722123
 30
0.0
 40
0.0554689253862697
  0
CIRCLE
  5
591
330
2
100
AcDbEntity
  8
GAIKEI
 62
     1
100
AcDbCircle
 10
-38.44937928355302
 20
18.09615329722123
 30
0.0
 40
0.055279449979314
  0
CIRCLE
  5
592
330
2
100
AcDbEntity
  8
GAIKEI
 62
     1
100
AcDbCircle
 10
-38.69588678800233
 20
18.09615329722123
 30
0.0
 40
0.0553741876827918
  0
CIRCLE
  5
593
330
2
100
AcDbEntity
  8
GAIKEI
 62
     1
100
AcDbCircle
 10
-38.20277704140017
 20
18.39192440747899
 30
0.0
 40
0.0554689253862697
  0
CIRCLE
  5
594
330
2
100
AcDbEntity
  8
GAIKEI
 62
     1
100
AcDbCircle
 10
-38.44937928355302
 20
18.39192440747899
 30
0.0
 40
0.055279449979314
  0
CIRCLE
  5
595
330
2
100
AcDbEntity
  8
GAIKEI
 62
     1
100
AcDbCircle
 10
-38.69588678800233
 20
18.39192440747899
 30
0.0
 40
0.0553741876827918
  0
LINE
  5
596
330
2
100
AcDbEntity
  8
GAIKEI
 62
     1
100
AcDbLine
 10
-43.23966440235949
 20
22.06698940079105
 30
0.0
 11
-3.241186020602071
 21
22.06698940079105
 31
0.0
  0
LINE
  5
597
330
2
100
AcDbEntity
  8
GAIKEI
 62
     1
100
AcDbLine
 10
-43.23966440235949
 20
14.10807493161849
 30
0.0
 11
-43.23966440235949
 21
22.06698940079105
 31
0.0
  0
LINE
  5
598
330
2
100
AcDbEntity
  8
GAIKEI
 62
     1
100
AcDbLine
 10
-3.241186020602071
 20
14.10807493161849
 30
0.0
 11
-43.23966440235949
 21
14.10807493161849
 31
0.0
  0
LINE
  5
599
330
2
100
AcDbEntity
  8
GAIKEI
 62
     1
100
AcDbLine
 10
-3.241186020602071
 20
22.06698940079105
 30
0.0
 11
-3.241186020602071
 21
14.10807493161849
 31
0.0
  0
LINE
  5
59A
330
2
100
AcDbEntity
  8
GAIKEI
 62
     1
100
AcDbLine
 10
-44.2525999279445
 20
22.36996057651311
 30
0.0
 11
-2.252598084810926
 21
22.36996057651311
 31
0.0
  0
LINE
  5
59B
330
2
100
AcDbEntity
  8
GAIKEI
 62
     1
100
AcDbLine
 10
-2.252598084810926
 20
13.80529323130338
 30
0.0
 11
-44.2525999279445
 21
13.80529323130338
 31
0.0
  0
LINE
  5
59C
330
2
100
AcDbEntity
  8
GAIKEI
100
AcDbLine
 10
-44.2525999279445
 20
22.48762480423261
 30
0.0
 11
-2.252598084810926
 21
22.48762480423261
 31
0.0
  0
LINE
  5
59D
330
2
100
AcDbEntity
  8
GAIKEI
100
AcDbLine
 10
-2.252598084810926
 20
13.68762900358388
 30
0.0
 11
-44.2525999279445
 21
13.68762900358388
 31
0.0
  0
CIRCLE
  5
59E
330
2
100
AcDbEntity
  8
GAIKEI
 62
     1
100
AcDbCircle
 10
-34.98079511497093
 20
19.45507091590718
 30
0.0
 40
0.1451381617280361
  0
CIRCLE
  5
59F
330
2
100
AcDbEntity
  8
GAIKEI
 62
     1
100
AcDbCircle
 10
-34.98093722152618
 20
19.45507091590718
 30
0.0
 40
0.2727024794609345
  0
CIRCLE
  5
5A0
330
2
100
AcDbEntity
  8
GAIKEI
 62
     1
100
AcDbCircle
 10
-23.19954589243019
 20
19.45507091590718
 30
0.0
 40
0.1450907928762971
  0
CIRCLE
  5
5A1
330
2
100
AcDbEntity
  8
GAIKEI
 62
     1
100
AcDbCircle
 10
-33.1076412418073
 20
16.74519364562735
 30
0.0
 40
0.1452328994315139
  0
CIRCLE
  5
5A2
330
2
100
AcDbEntity
  8
GAIKEI
 62
     1
100
AcDbCircle
 10
-33.10768861065901
 20
16.74557259644132
 30
0.0
 40
0.2726077417574568
  0
CIRCLE
  5
5A3
330
2
100
AcDbEntity
  8
GAIKEI
 62
     1
100
AcDbCircle
 10
-23.18595103198106
 20
16.74519364562735
 30
0.0
 40
0.1451381617280361
  0
CIRCLE
  5
5A4
330
2
100
AcDbEntity
  8
GAIKEI
 62
     1
100
AcDbCircle
 10
-30.62584499265029
 20
19.46624996491761
 30
0.0
 40
0.4907886728669001
  0
CIRCLE
  5
5A5
330
2
100
AcDbEntity
  8
GAIKEI
 62
     1
100
AcDbCircle
 10
-30.62608183690902
 20
19.46624996491761
 30
0.0
 40
0.6071739415894148
  0
CIRCLE
  5
5A6
330
2
100
AcDbEntity
  8
GAIKEI
 62
     1
100
AcDbCircle
 10
-28.76742283237746
 20
19.46624996491761
 30
0.0
 40
0.4906465663116834
  0
CIRCLE
  5
5A7
330
2
100
AcDbEntity
  8
GAIKEI
 62
     1
100
AcDbCircle
 10
-28.76732809467398
 20
19.46624996491761
 30
0.0
 40
0.6071739415894148
  0
CIRCLE
  5
5A8
330
2
100
AcDbEntity
  8
GAIKEI
 62
     1
100
AcDbCircle
 10
-26.90890593440111
 20
19.46624996491761
 30
0.0
 40
0.4906939351634221
  0
CIRCLE
  5
5A9
330
2
100
AcDbEntity
  8
GAIKEI
 62
     1
100
AcDbCircle
 10
-26.90866909014238
 20
19.46624996491761
 30
0.0
 40
0.6070792038859369
  0
CIRCLE
  5
5AA
330
2
100
AcDbEntity
  8
GAIKEI
 62
     1
100
AcDbCircle
 10
-25.05015219216608
 20
19.46624996491761
 30
0.0
 40
0.4906939351634221
  0
CIRCLE
  5
5AB
330
2
100
AcDbEntity
  8
GAIKEI
 62
     1
100
AcDbCircle
 10
-25.05015219216608
 20
19.46624996491761
 30
0.0
 40
0.6073160481446314
  0
CIRCLE
  5
5AC
330
2
100
AcDbEntity
  8
GAIKEI
 62
     1
100
AcDbCircle
 10
-20.67407556196986
 20
16.76944649771769
 30
0.0
 40
0.2537075699136296
  0
CIRCLE
  5
5AD
330
2
100
AcDbEntity
  8
GAIKEI
 62
     1
100
AcDbCircle
 10
-20.67407556196986
 20
16.76944649771769
 30
0.0
 40
0.4523725341066398
  0
CIRCLE
  5
5AE
330
2
100
AcDbEntity
  8
GAIKEI
 62
     1
100
AcDbCircle
 10
-18.73342107507824
 20
16.76944649771769
 30
0.0
 40
0.2536602010618907
  0
CIRCLE
  5
5AF
330
2
100
AcDbEntity
  8
GAIKEI
 62
     1
100
AcDbCircle
 10
-18.73337370622653
 20
16.76944649771769
 30
0.0
 40
0.4522777964031621
  0
CIRCLE
  5
5B0
330
2
100
AcDbEntity
  8
GAIKEI
 62
     1
100
AcDbCircle
 10
-16.79252974392795
 20
16.76944649771769
 30
0.0
 40
0.2535654633584129
  0
CIRCLE
  5
5B1
330
2
100
AcDbEntity
  8
GAIKEI
 62
     1
100
AcDbCircle
 10
-11.08586206838561
 20
18.11510083791677
 30
0.0
 40
1.698173334840108
  0
LINE
  5
5B2
330
2
100
AcDbEntity
  8
GAIKEI
 62
     1
100
AcDbLine
 10
-12.04441815217433
 20
16.70180377743452
 30
0.0
 11
-12.48892745689227
 21
16.07104014767912
 31
0.0
  0
LINE
  5
5B3
330
2
100
AcDbEntity
  8
GAIKEI
100
AcDbLine
 10
21.97447513888755
 20
13.75034536328621
 30
0.0
 11
21.97447513888755
 21
22.54465690172628
 31
0.0
  0
LINE
  5
5B4
330
2
100
AcDbEntity
  8
GAIKEI
  6
AI9-LTYPE1
 62
     1
100
AcDbLine
 10
24.82632090085264
 20
13.88259919734128
 30
0.0
 11
24.82632090085264
 21
22.55015168852799
 31
0.0
  0
LINE
  5
5B6
330
2
100
AcDbEntity
  8
GAIKEI
100
AcDbLine
 10
56.70068317243703
 20
13.87843073838826
 30
0.0
 11
56.70068317243703
 21
22.49465690172621
 31
0.0
  0
LINE
  5
5B7
330
2
100
AcDbEntity
  8
GAIKEI
100
AcDbLine
 10
56.65068317243708
 20
22.54465690172628
 30
0.0
 11
21.85068317583665
 21
22.54465690172628
 31
0.0
  0
ARC
  5
5B8
330
2
100
AcDbEntity
  8
GAIKEI
 62
     1
100
AcDbCircle
 10
56.65068317243708
 20
22.49465690172621
 30
0.0
 40
0.05
100
AcDbArc
 50
0.000000000000007
 51
90.0
  0
LINE
  5
5B9
330
2
100
AcDbEntity
  8
GAIKEI
100
AcDbLine
 10
56.70068317243703
 20
13.87843073838826
 30
0.0
 11
22.12984497259123
 21
13.87843073838826
 31
0.0
  0
LINE
  5
5BA
330
2
100
AcDbEntity
  8
GAIKEI
 62
     1
100
AcDbLine
 10
54.02277583405731
 20
16.44658040426526
 30
0.0
 11
25.91087813026684
 21
16.44658040426526
 31
0.0
  0
LINE
  5
5BB
330
2
100
AcDbEntity
  8
GAIKEI
 62
     1
100
AcDbLine
 10
54.02277583405731
 20
16.09605090139729
 30
0.0
 11
25.91087813026684
 21
16.09605090139729
 31
0.0
  0
LINE
  5
5BC
330
2
100
AcDbEntity
  8
GAIKEI
 62
     1
100
AcDbLine
 10
54.02277583405731
 20
14.91258750955228
 30
0.0
 11
25.91087813026684
 21
14.91258750955228
 31
0.0
  0
LINE
  5
5BD
330
2
100
AcDbEntity
  8
GAIKEI
 62
     1
100
AcDbLine
 10
54.02277583405731
 20
14.56205800668431
 30
0.0
 11
25.91087813026684
 21
14.56205800668431
 31
0.0
  0
ARC
  5
5BE
330
2
100
AcDbEntity
  8
GAIKEI
 62
     1
100
AcDbCircle
 10
54.02287053454358
 20
15.50431920547476
 30
0.0
 40
0.5917317035004231
100
AcDbArc
 50
269.9908304081513
 51
90.0091695918487
  0
ARC
  5
5BF
330
2
100
AcDbEntity
  8
GAIKEI
 62
     1
100
AcDbCircle
 10
54.02287054829486
 20
15.50431920547476
 30
0.0
 40
0.9422612035507484
100
AcDbArc
 50
269.994240741251
 51
90.0057592587491
  0
ARC
  5
5C0
330
2
100
AcDbEntity
  8
GAIKEI
 62
     1
100
AcDbCircle
 10
25.91078342978057
 20
15.50431920547476
 30
0.0
 40
0.5917317035004231
100
AcDbArc
 50
89.99083040815134
 51
270.0091695918487
  0
ARC
  5
5C1
330
2
100
AcDbEntity
  8
GAIKEI
 62
     1
100
AcDbCircle
 10
25.91078341602929
 20
15.50431920547476
 30
0.0
 40
0.9422612035507484
100
AcDbArc
 50
89.99424074125093
 51
270.005759258749
  0
LINE
  5
5C2
330
2
100
AcDbEntity
  8
GAIKEI
100
AcDbLine
 10
53.68010956057799
 20
13.86554641071529
 30
0.0
 11
53.60886590680222
 21
12.94630406039914
 31
0.0
  0
LINE
  5
5C3
330
2
100
AcDbEntity
  8
GAIKEI
100
AcDbLine
 10
53.45931438615941
 20
12.80789468908875
 30
0.0
 11
51.76599071526347
 21
12.80789468908875
 31
0.0
  0
LINE
  5
5C4
330
2
100
AcDbEntity
  8
GAIKEI
100
AcDbLine
 10
51.61644038439948
 20
12.94628871913937
 30
0.0
 11
51.54510067500162
 21
13.86554641071529
 31
0.0
  0
ARC
  5
5C5
330
2
100
AcDbEntity
  8
GAIKEI
100
AcDbCircle
 10
53.45931438615941
 20
12.95789468908879
 30
0.0
 40
0.15
100
AcDbArc
 50
270.0
 51
355.5682883442204
  0
ARC
  5
5C6
330
2
100
AcDbEntity
  8
GAIKEI
100
AcDbCircle
 10
51.76599071526347
 20
12.95789468908879
 30
0.0
 40
0.15
100
AcDbArc
 50
184.4375891816536
 51
270.0000000000001
  0
LINE
  5
5C7
330
2
100
AcDbEntity
  8
GAIKEI
100
AcDbLine
 10
26.84612852703504
 20
13.72135541405714
 30
0.0
 11
26.7807588228398
 21
12.87790343848814
 31
0.0
  0
LINE
  5
5C8
330
2
100
AcDbEntity
  8
GAIKEI
100
AcDbLine
 10
26.63120730219697
 20
12.73949406717781
 30
0.0
 11
24.93788363130102
 21
12.73949406717781
 31
0.0
  0
LINE
  5
5C9
330
2
100
AcDbEntity
  8
GAIKEI
100
AcDbLine
 10
24.78833330043705
 20
12.87788809722838
 30
0.0
 11
24.72287602018724
 21
13.72134693448959
 31
0.0
  0
ARC
  5
5CA
330
2
100
AcDbEntity
  8
GAIKEI
100
AcDbCircle
 10
26.63120730219697
 20
12.88949406717779
 30
0.0
 40
0.15
100
AcDbArc
 50
270.0
 51
355.5682883442204
  0
ARC
  5
5CB
330
2
100
AcDbEntity
  8
GAIKEI
100
AcDbCircle
 10
24.93788363130102
 20
12.88949406717779
 30
0.0
 40
0.15
100
AcDbArc
 50
184.4375891816536
 51
270.0000000000001
  0
LINE
  5
5CC
330
2
100
AcDbEntity
  8
GAIKEI
100
AcDbLine
 10
27.00301437595925
 20
13.8782412629813
 30
0.0
 11
26.84612852703504
 21
13.72135541405714
 31
0.0
  0
LINE
  5
5CD
330
2
100
AcDbEntity
  8
GAIKEI
100
AcDbLine
 10
24.55878162623122
 20
13.88544132844561
 30
0.0
 11
24.72287602018724
 21
13.72134693448959
 31
0.0
  0
LINE
  5
5CE
330
2
100
AcDbEntity
  8
GAIKEI
100
AcDbLine
 10
26.858823591266
 20
13.75034536328621
 30
0.0
 11
24.69520391923931
 21
13.75034536328621
 31
0.0
  0
LINE
  5
5CF
330
2
100
AcDbEntity
  8
GAIKEI
100
AcDbLine
 10
24.68573014889149
 20
13.75034536328621
 30
0.0
 11
21.85068317583665
 21
13.75034536328621
 31
0.0
  0
LINE
  5
5D0
330
2
100
AcDbEntity
  8
GAIKEI
100
AcDbLine
 10
21.97826464702672
 20
14.0239478509302
 30
0.0
 11
22.12984497259123
 21
14.0239478509302
 31
0.0
  0
LINE
  5
5D1
330
2
100
AcDbEntity
  8
GAIKEI
100
AcDbLine
 10
22.12984497259123
 20
14.0239478509302
 30
0.0
 11
22.12984497259123
 21
13.87843073838826
 31
0.0
  0
ARC
  5
5D2
330
2
100
AcDbEntity
  8
GAIKEI
100
AcDbCircle
 10
21.85068317583665
 20
13.90034536328619
 30
0.0
 40
0.15
100
AcDbArc
 50
180.0
 51
270.0
  0
ARC
  5
5D3
330
2
100
AcDbEntity
  8
GAIKEI
100
AcDbCircle
 10
21.85068317583665
 20
22.39465690172625
 30
0.0
 40
0.15
100
AcDbArc
 50
90.0
 51
180.0
  0
LINE
  5
5D4
330
2
100
AcDbEntity
  8
GAIKEI
 62
     1
100
AcDbLine
 10
21.97447513888755
 20
22.14467431764285
 30
0.0
 11
24.25696778179236
 21
22.14467431764285
 31
0.0
  0
LINE
  5
5D5
330
2
100
AcDbEntity
  8
GAIKEI
 62
     1
100
AcDbLine
 10
24.63514021523435
 20
22.54465690172628
 30
0.0
 11
24.25696778179236
 21
22.14467431764285
 31
0.0
  0
LINE
  5
5D6
330
2
100
AcDbEntity
  8
GAIKEI
 62
     1
100
AcDbLine
 10
24.21242058231627
 20
22.54465690172628
 30
0.0
 11
24.20484156603806
 21
22.41865575610075
 31
0.0
  0
LINE
  5
5D7
330
2
100
AcDbEntity
  8
GAIKEI
 62
     1
100
AcDbLine
 10
24.20484156603806
 20
22.41865575610075
 30
0.0
 11
23.97307181068311
 21
22.14467431764285
 31
0.0
  0
ARC
  5
5D8
330
2
100
AcDbEntity
  8
GAIKEI
  6
Continuous
100
AcDbCircle
 10
43.14918867039409
 20
18.20244900052341
 30
0.0
 40
22.08478827921032
100
AcDbArc
 50
170.0928312573149
 51
189.907168742685
  0
LINE
  5
5D9
330
2
100
AcDbEntity
  8
GAIKEI
100
AcDbLine
 10
21.69708314310446
 20
22.14467431764285
 30
0.0
 11
21.55800819439907
 21
22.14467431764285
 31
0.0
  0
ARC
  5
5DA
330
2
100
AcDbEntity
  8
GAIKEI
100
AcDbCircle
 10
21.57781140292286
 20
21.95590141651615
 30
0.0
 40
0.1898087860654022
100
AcDbArc
 50
95.98870534936359
 51
165.8853323244955
  0
LINE
  5
5DB
330
2
100
AcDbEntity
  8
GAIKEI
100
AcDbLine
 10
21.69708314310446
 20
14.26022368340386
 30
0.0
 11
21.55800819439907
 21
14.26022368340386
 31
0.0
  0
ARC
  5
5DC
330
2
100
AcDbEntity
  8
GAIKEI
100
AcDbCircle
 10
21.57816744445097
 20
14.44940707389872
 30
0.0
 40
0.1902544364838039
100
AcDbArc
 50
194.208408075944
 51
263.9175542501998
  0
LINE
  5
5DD
330
2
100
AcDbEntity
  8
GAIKEI
100
AcDbLine
 10
19.7612129102385
 20
18.45274601311178
 30
0.0
 11
19.7612129102385
 21
17.88204608736134
 31
0.0
  0
ARC
  5
5DE
330
2
100
AcDbEntity
  8
GAIKEI
100
AcDbCircle
 10
22.86771842459224
 20
18.60875151931492
 30
0.0
 40
3.110420265603318
100
AcDbArc
 50
163.0434867003317
 51
182.8749198402581
  0
LINE
  5
5DF
330
2
100
AcDbEntity
  8
GAIKEI
100
AcDbLine
 10
20.05679454508936
 20
19.67997822396364
 30
0.0
 11
19.89251936725878
 21
19.51589252154002
 31
0.0
  0
LINE
  5
5E0
330
2
100
AcDbEntity
  8
GAIKEI
100
AcDbLine
 10
21.10876200450718
 20
19.75671576378067
 30
0.0
 11
20.05679454508936
 21
19.67997822396364
 31
0.0
  0
ARC
  5
5E1
330
2
100
AcDbEntity
  8
GAIKEI
100
AcDbCircle
 10
22.86771842459224
 20
17.72604058115826
 30
0.0
 40
3.110420265603318
100
AcDbArc
 50
177.1250801597416
 51
196.9565132996683
  0
LINE
  5
5E2
330
2
100
AcDbEntity
  8
GAIKEI
100
AcDbLine
 10
20.05679454508936
 20
16.65481387650953
 30
0.0
 11
19.89251936725878
 21
16.81889957893315
 31
0.0
  0
LINE
  5
5E3
330
2
100
AcDbEntity
  8
GAIKEI
100
AcDbLine
 10
21.10876200450718
 20
16.5780763366925
 30
0.0
 11
20.05679454508936
 21
16.65481387650953
 31
0.0
  0
LINE
  5
5E4
330
2
100
AcDbEntity
  8
GAIKEI
100
AcDbLine
 10
21.08697233270726
 20
19.42437589998042
 30
0.0
 11
21.08697233270726
 21
19.29306944296013
 31
0.0
  0
LINE
  5
5E5
330
2
100
AcDbEntity
  8
GAIKEI
 62
     1
100
AcDbLine
 10
21.08697233270726
 20
19.29306944296013
 30
0.0
 11
20.05679454508936
 21
19.23812157494302
 31
0.0
  0
LINE
  5
5E6
330
2
100
AcDbEntity
  8
GAIKEI
 62
     1
100
AcDbLine
 10
21.08697233270726
 20
19.42437589998042
 30
0.0
 11
20.05679454508936
 21
19.36961750737021
 31
0.0
  0
LINE
  5
5E7
330
2
100
AcDbEntity
  8
GAIKEI
 62
     1
100
AcDbLine
 10
20.05679454508936
 20
18.96622436596164
 30
0.0
 11
21.06499318550039
 21
18.99407725078413
 31
0.0
  0
LINE
  5
5E8
330
2
100
AcDbEntity
  8
GAIKEI
100
AcDbLine
 10
21.06499318550039
 20
18.99407725078413
 30
0.0
 11
21.06499318550039
 21
18.86258131835688
 31
0.0
  0
LINE
  5
5E9
330
2
100
AcDbEntity
  8
GAIKEI
 62
     1
100
AcDbLine
 10
21.06499318550039
 20
18.86258131835688
 30
0.0
 11
20.05679454508936
 21
18.83453895812749
 31
0.0
  0
LINE
  5
5EA
330
2
100
AcDbEntity
  8
GAIKEI
 62
     1
100
AcDbLine
 10
20.05679454508936
 20
18.49480955345598
 30
0.0
 11
21.06499318550039
 21
18.49480955345598
 31
0.0
  0
LINE
  5
5EB
330
2
100
AcDbEntity
  8
GAIKEI
100
AcDbLine
 10
21.06499318550039
 20
18.49480955345598
 30
0.0
 11
21.06499318550039
 21
18.36350309643569
 31
0.0
  0
LINE
  5
5EC
330
2
100
AcDbEntity
  8
GAIKEI
 62
     1
100
AcDbLine
 10
21.06499318550039
 20
18.36350309643569
 30
0.0
 11
20.05679454508936
 21
18.36350309643569
 31
0.0
  0
LINE
  5
5ED
330
2
100
AcDbEntity
  8
GAIKEI
 62
     1
100
AcDbLine
 10
20.05679454508936
 20
17.96977320078184
 30
0.0
 11
21.06499318550039
 21
17.96977320078184
 31
0.0
  0
LINE
  5
5EE
330
2
100
AcDbEntity
  8
GAIKEI
100
AcDbLine
 10
21.06499318550039
 20
17.96977320078184
 30
0.0
 11
21.06499318550039
 21
17.83827726835454
 31
0.0
  0
LINE
  5
5EF
330
2
100
AcDbEntity
  8
GAIKEI
 62
     1
100
AcDbLine
 10
21.06499318550039
 20
17.83827726835454
 30
0.0
 11
20.05679454508936
 21
17.83827726835454
 31
0.0
  0
LINE
  5
5F0
330
2
100
AcDbEntity
  8
GAIKEI
 62
     1
100
AcDbLine
 10
20.05679454508936
 20
17.49854786368314
 30
0.0
 11
21.06499318550039
 21
17.47050550345363
 31
0.0
  0
LINE
  5
5F1
330
2
100
AcDbEntity
  8
GAIKEI
100
AcDbLine
 10
21.06499318550039
 20
17.47050550345363
 30
0.0
 11
21.06499318550039
 21
17.33900957102639
 31
0.0
  0
LINE
  5
5F2
330
2
100
AcDbEntity
  8
GAIKEI
 62
     1
100
AcDbLine
 10
21.06499318550039
 20
17.33900957102639
 30
0.0
 11
20.05679454508936
 21
17.36705193125584
 31
0.0
  0
LINE
  5
5F3
330
2
100
AcDbEntity
  8
GAIKEI
 62
     1
100
AcDbLine
 10
20.05679454508936
 20
17.09496524686756
 30
0.0
 11
21.08697233270726
 21
17.04001737885039
 31
0.0
  0
LINE
  5
5F4
330
2
100
AcDbEntity
  8
GAIKEI
100
AcDbLine
 10
21.08697233270726
 20
17.04001737885039
 30
0.0
 11
21.08697233270726
 21
16.90871092183011
 31
0.0
  0
LINE
  5
5F5
330
2
100
AcDbEntity
  8
GAIKEI
 62
     1
100
AcDbLine
 10
21.08697233270726
 20
16.90871092183011
 30
0.0
 11
20.05679454508936
 21
16.96346931444032
 31
0.0
  0
ARC
  5
5F6
330
2
100
AcDbEntity
  8
GAIKEI
 62
     1
100
AcDbCircle
 10
20.05679454502018
 20
17.02921728065394
 30
0.0
 40
0.0657479662136211
100
AcDbArc
 50
89.99999993973455
 51
270.0000000602754
  0
ARC
  5
5F7
330
2
100
AcDbEntity
  8
GAIKEI
 62
     1
100
AcDbCircle
 10
20.05679474675293
 20
17.90402523456817
 30
0.0
 40
0.0657479662139418
100
AcDbArc
 50
90.00017573883987
 51
269.9998242611701
  0
ARC
  5
5F8
330
2
100
AcDbEntity
  8
GAIKEI
 62
     1
100
AcDbCircle
 10
20.05679454502024
 20
17.43279989746952
 30
0.0
 40
0.0657479662136268
100
AcDbArc
 50
89.99999993975434
 51
270.0000000602555
  0
ARC
  5
5F9
330
2
100
AcDbEntity
  8
GAIKEI
 62
     1
100
AcDbCircle
 10
20.05669995517962
 20
18.42915632494578
 30
0.0
 40
0.0656532966503122
100
AcDbArc
 50
89.91745114465654
 51
270.0825488553336
  0
ARC
  5
5FA
330
2
100
AcDbEntity
  8
GAIKEI
 62
     1
100
AcDbCircle
 10
20.05688940256709
 20
18.90038166204454
 30
0.0
 40
0.0658427722461135
100
AcDbArc
 50
90.08254413998777
 51
269.9174558600024
  0
ARC
  5
5FB
330
2
100
AcDbEntity
  8
GAIKEI
 62
     1
100
AcDbCircle
 10
20.05679454502018
 20
19.30386954115664
 30
0.0
 40
0.0657479662136098
100
AcDbArc
 50
89.99999993973455
 51
270.0000000602555
  0
LINE
  5
5FC
330
2
100
AcDbEntity
  8
GAIKEI
100
AcDbLine
 10
21.14154124991046
 20
20.1074347420556
 30
0.0
 11
20.99924521928676
 21
20.1074347420556
 31
0.0
  0
LINE
  5
5FD
330
2
100
AcDbEntity
  8
GAIKEI
100
AcDbLine
 10
20.99924521928676
 20
20.1074347420556
 30
0.0
 11
20.91151810586632
 21
19.74591566558421
 31
0.0
  0
LINE
  5
5FE
330
2
100
AcDbEntity
  8
GAIKEI
100
AcDbLine
 10
21.15287909879743
 20
16.22754683382453
 30
0.0
 11
20.99924521928676
 21
16.22754683382453
 31
0.0
  0
LINE
  5
5FF
330
2
100
AcDbEntity
  8
GAIKEI
100
AcDbLine
 10
20.99924521928676
 20
16.22754683382453
 30
0.0
 11
20.91151810586632
 21
16.58906591029597
 31
0.0
  0
LINE
  5
600
330
2
100
AcDbEntity
  8
GAIKEI
100
AcDbLine
 10
-40.18009501953776
 20
13.67796575782916
 30
0.0
 11
-40.10866279111548
 21
12.87932691751104
 31
0.0
  0
LINE
  5
601
330
2
100
AcDbEntity
  8
GAIKEI
100
AcDbLine
 10
-39.95594561310918
 20
12.73949406717776
 30
0.0
 11
-38.26895132727947
 21
12.73949406717776
 31
0.0
  0
LINE
  5
602
330
2
100
AcDbEntity
  8
GAIKEI
100
AcDbLine
 10
-38.04480192085094
 20
13.67796575782916
 30
0.0
 11
-38.11623414927323
 21
12.87932691751104
 31
0.0
  0
ARC
  5
603
330
2
100
AcDbEntity
  8
GAIKEI
100
AcDbCircle
 10
-39.95303482520525
 20
12.89598382267923
 30
0.0
 40
0.1565168242175352
100
AcDbArc
 50
186.1091266463218
 51
268.9343926585926
  0
ARC
  5
604
330
2
100
AcDbEntity
  8
GAIKEI
100
AcDbCircle
 10
-38.27192637880029
 20
12.8960540076049
 30
0.0
 40
0.1565882047860116
100
AcDbArc
 50
271.0886398046525
 51
353.8678408904634
  0
LINE
  5
605
330
2
100
AcDbEntity
  8
GAIKEI
100
AcDbLine
 10
-6.325102993217682
 20
13.67796575782916
 30
0.0
 11
-6.396535221639964
 21
12.87932691751104
 31
0.0
  0
LINE
  5
606
330
2
100
AcDbEntity
  8
GAIKEI
100
AcDbLine
 10
-6.549252399646262
 20
12.73949406717776
 30
0.0
 11
-8.236246685475974
 21
12.73949406717776
 31
0.0
  0
LINE
  5
607
330
2
100
AcDbEntity
  8
GAIKEI
100
AcDbLine
 10
-8.460396091904499
 20
13.67796575782916
 30
0.0
 11
-8.388963863482217
 21
12.87932691751104
 31
0.0
  0
ARC
  5
608
330
2
100
AcDbEntity
  8
GAIKEI
100
AcDbCircle
 10
-6.552163187550262
 20
12.89598382267923
 30
0.0
 40
0.1565168242175352
100
AcDbArc
 50
271.0656073414074
 51
353.8908733536781
  0
ARC
  5
609
330
2
100
AcDbEntity
  8
GAIKEI
100
AcDbCircle
 10
-8.233271633955155
 20
12.8960540076049
 30
0.0
 40
0.1565882047860116
100
AcDbArc
 50
186.1321591095366
 51
268.9113601953475
  0
LINE
  5
60A
330
2
100
AcDbEntity
  8
GAIKEI
100
AcDbLine
 10
-22.18533140784825
 20
13.67796575782916
 30
0.0
 11
-22.25676363627053
 21
12.87932691751104
 31
0.0
  0
LINE
  5
60B
330
2
100
AcDbEntity
  8
GAIKEI
100
AcDbLine
 10
-22.40948081427678
 20
12.73949406717776
 30
0.0
 11
-24.09647510010649
 21
12.73949406717776
 31
0.0
  0
LINE
  5
60C
330
2
100
AcDbEntity
  8
GAIKEI
100
AcDbLine
 10
-24.32062450653508
 20
13.67796575782916
 30
0.0
 11
-24.24919227811273
 21
12.87932691751104
 31
0.0
  0
ARC
  5
60D
330
2
100
AcDbEntity
  8
GAIKEI
100
AcDbCircle
 10
-22.41239160218079
 20
12.89598382267923
 30
0.0
 40
0.1565168242175352
100
AcDbArc
 50
271.0656073414074
 51
353.8908733536781
  0
ARC
  5
60E
330
2
100
AcDbEntity
  8
GAIKEI
100
AcDbCircle
 10
-24.09350004858567
 20
12.8960540076049
 30
0.0
 40
0.1565882047860116
100
AcDbArc
 50
186.1321591095366
 51
268.9113601953475
  0
LINE
  5
60F
330
2
100
AcDbEntity
  8
GAIKEI
100
AcDbLine
 10
-44.2525999279445
 20
22.48762480423261
 30
0.0
 11
-44.2525999279445
 21
13.68762900358388
 31
0.0
  0
LINE
  5
610
330
2
100
AcDbEntity
  8
GAIKEI
  6
HIDDEN2
 62
     1
100
AcDbLine
 10
-44.53074982535542
 20
22.48762480423261
 30
0.0
 11
-44.53074982535542
 21
13.68781847899083
 31
0.0
  0
LINE
  5
612
330
2
100
AcDbEntity
  8
GAIKEI
  6
HIDDEN2
 62
     1
100
AcDbLine
 10
-44.25165255090973
 20
13.68781847899083
 30
0.0
 11
-46.99108798467466
 21
13.68781847899083
 31
0.0
  0
ARC
  5
613
330
2
100
AcDbEntity
  8
GAIKEI
  6
HIDDEN2
 62
     1
100
AcDbCircle
 10
-46.99037417590164
 20
13.96914536546518
 30
0.0
 40
0.2813277920439468
100
AcDbArc
 50
180.1453758750915
 51
269.8546241249091
  0
LINE
  5
614
330
2
100
AcDbEntity
  8
GAIKEI
  6
HIDDEN2
 62
     1
100
AcDbLine
 10
-47.271701062376
 20
13.96843155669216
 30
0.0
 11
-47.271701062376
 21
22.20720120193823
 31
0.0
  0
LINE
  5
615
330
2
100
AcDbEntity
  8
GAIKEI
  6
HIDDEN2
 62
     1
100
AcDbLine
 10
-46.99108798467466
 20
22.48762480423261
 30
0.0
 11
-44.2525999279445
 21
22.48762480423261
 31
0.0
  0
ARC
  5
616
330
2
100
AcDbEntity
  8
GAIKEI
  6
HIDDEN2
 62
     1
100
AcDbCircle
 10
-46.99041449325862
 20
22.2063377160415
 30
0.0
 40
0.2812878944670611
100
AcDbArc
 50
90.13718419208078
 51
179.8241155192726
  0
LINE
  5
617
330
2
100
AcDbEntity
  8
GAIKEI
  6
HIDDEN2
 62
     1
100
AcDbLine
 10
-46.77773867644259
 20
14.01996886738414
 30
0.0
 11
-46.37510343666177
 21
14.01996886738414
 31
0.0
  0
LINE
  5
618
330
2
100
AcDbEntity
  8
GAIKEI
  6
HIDDEN2
 62
     1
100
AcDbLine
 10
-46.77773867644259
 20
14.60847948138837
 30
0.0
 11
-46.40743595136235
 21
14.60847948138837
 31
0.0
  0
ARC
  5
619
330
2
100
AcDbEntity
  8
GAIKEI
  6
HIDDEN2
 62
     1
100
AcDbCircle
 10
-46.77754913999331
 20
14.31422417438625
 30
0.0
 40
0.2942553680444666
100
AcDbArc
 50
90.0369054927664
 51
269.9630945072335
  0
ARC
  5
61A
330
2
100
AcDbEntity
  8
GAIKEI
  6
HIDDEN2
 62
     1
100
AcDbCircle
 10
-46.3749140222186
 20
14.31422417438625
 30
0.0
 40
0.2942553679658965
100
AcDbArc
 50
269.9631182635735
 51
90.03688173642663
  0
LINE
  5
61B
330
2
100
AcDbEntity
  8
GAIKEI
  6
HIDDEN2
 62
     1
100
AcDbLine
 10
-46.77773867644259
 20
21.592732457181
 30
0.0
 11
-46.37510343666177
 21
21.592732457181
 31
0.0
  0
LINE
  5
61C
330
2
100
AcDbEntity
  8
GAIKEI
  6
HIDDEN2
 62
     1
100
AcDbLine
 10
-46.77773867644259
 20
22.18124307118529
 30
0.0
 11
-46.40743595136235
 21
22.18124307118529
 31
0.0
  0
ARC
  5
61D
330
2
100
AcDbEntity
  8
GAIKEI
  6
HIDDEN2
 62
     1
100
AcDbCircle
 10
-46.77754913999331
 20
21.88698776418318
 30
0.0
 40
0.2942553680444666
100
AcDbArc
 50
90.0369054927664
 51
269.9630945072335
  0
ARC
  5
61E
330
2
100
AcDbEntity
  8
GAIKEI
  6
HIDDEN2
 62
     1
100
AcDbCircle
 10
-46.3749140222186
 20
21.88698776418318
 30
0.0
 40
0.2942553679658965
100
AcDbArc
 50
269.9631182635735
 51
90.03688173642663
  0
LINE
  5
61F
330
2
100
AcDbEntity
  8
GAIKEI
100
AcDbLine
 10
-2.252598084810983
 20
22.48762480423261
 30
0.0
 11
-2.252598084810983
 21
13.68762900358388
 31
0.0
  0
LINE
  5
620
330
2
100
AcDbEntity
  8
GAIKEI
  6
HIDDEN2
 62
     1
100
AcDbLine
 10
-1.974448187400014
 20
22.48762480423261
 30
0.0
 11
-1.974448187400014
 21
13.68781847899083
 31
0.0
  0
LINE
  5
621
330
2
100
AcDbEntity
  8
GAIKEI
  6
HIDDEN2
 62
     1
100
AcDbLine
 10
-2.253545461845759
 20
13.68781847899083
 30
0.0
 11
0.4858899719192209
 21
13.68781847899083
 31
0.0
  0
ARC
  5
622
330
2
100
AcDbEntity
  8
GAIKEI
  6
HIDDEN2
 62
     1
100
AcDbCircle
 10
0.4851761631462069
 20
13.96914536546518
 30
0.0
 40
0.2813277920439468
100
AcDbArc
 50
270.1453758750909
 51
359.8546241249085
  0
LINE
  5
623
330
2
100
AcDbEntity
  8
GAIKEI
  6
HIDDEN2
 62
     1
100
AcDbLine
 10
0.7665030496205532
 20
13.96843155669216
 30
0.0
 11
0.7665030496205532
 21
22.20720120193823
 31
0.0
  0
LINE
  5
624
330
2
100
AcDbEntity
  8
GAIKEI
  6
HIDDEN2
 62
     1
100
AcDbLine
 10
0.4858899719192209
 20
22.48762480423261
 30
0.0
 11
-2.252598084810983
 21
22.48762480423261
 31
0.0
  0
ARC
  5
625
330
2
100
AcDbEntity
  8
GAIKEI
  6
HIDDEN2
 62
     1
100
AcDbCircle
 10
0.4852164805032544
 20
22.2063377160415
 30
0.0
 40
0.2812878944670611
100
AcDbArc
 50
0.1758844807273601
 51
89.86281580791922
  0
LINE
  5
626
330
2
100
AcDbEntity
  8
GAIKEI
  6
HIDDEN2
 62
     1
100
AcDbLine
 10
0.2725406636871526
 20
14.01996886738414
 30
0.0
 11
-0.1300945760936543
 21
14.01996886738414
 31
0.0
  0
LINE
  5
627
330
2
100
AcDbEntity
  8
GAIKEI
  6
HIDDEN2
 62
     1
100
AcDbLine
 10
0.2725406636871526
 20
14.60847948138837
 30
0.0
 11
-0.0977620613930981
 21
14.60847948138837
 31
0.0
  0
ARC
  5
628
330
2
100
AcDbEntity
  8
GAIKEI
  6
HIDDEN2
 62
     1
100
AcDbCircle
 10
0.2723511272378687
 20
14.31422417438625
 30
0.0
 40
0.2942553680444666
100
AcDbArc
 50
270.0369054927664
 51
89.96309450723362
  0
ARC
  5
629
330
2
100
AcDbEntity
  8
GAIKEI
  6
HIDDEN2
 62
     1
100
AcDbCircle
 10
-0.1302839905368387
 20
14.31422417438625
 30
0.0
 40
0.2942553679658965
100
AcDbArc
 50
89.96311826357342
 51
270.0368817364266
  0
LINE
  5
62A
330
2
100
AcDbEntity
  8
GAIKEI
  6
HIDDEN2
 62
     1
100
AcDbLine
 10
0.2725406636871526
 20
21.592732457181
 30
0.0
 11
-0.1300945760936543
 21
21.592732457181
 31
0.0
  0
LINE
  5
62B
330
2
100
AcDbEntity
  8
GAIKEI
  6
HIDDEN2
 62
     1
100
AcDbLine
 10
0.2725406636871526
 20
22.18124307118529
 30
0.0
 11
-0.0977620613930981
 21
22.18124307118529
 31
0.0
  0
ARC
  5
62C
330
2
100
AcDbEntity
  8
GAIKEI
  6
HIDDEN2
 62
     1
100
AcDbCircle
 10
0.2723511272378687
 20
21.88698776418318
 30
0.0
 40
0.2942553680444666
100
AcDbArc
 50
270.0369054927664
 51
89.96309450723362
  0
ARC
  5
62D
330
2
100
AcDbEntity
  8
GAIKEI
  6
HIDDEN2
 62
     1
100
AcDbCircle
 10
-0.1302839905368387
 20
21.88698776418318
 30
0.0
 40
0.2942553679658965
100
AcDbArc
 50
89.96311826357342
 51
270.0368817364266
  0
ELLIPSE
  5
62E
330
2
100
AcDbEntity
  8
GAIKEI
 62
     1
100
AcDbEllipse
 10
-40.55648791545514
 20
15.48954012373224
 30
0.0
 11
0.3032553888325309
 21
0.0
 31
0.0
210
0.0
220
0.0
230
1.0
 40
0.3942529102666627
 41
0.0
 42
6.283185307179585
  0
ELLIPSE
  5
62F
330
2
100
AcDbEntity
  8
GAIKEI
 62
     1
100
AcDbEllipse
 10
-40.55648791545514
 20
15.48954012373224
 30
0.0
 11
0.4364565999223827
 21
0.0
 31
0.0
210
0.0
220
0.0
230
0.9999999999999998
 40
0.3855006311389226
 41
0.0
 42
6.283185307179585
  0
ELLIPSE
  5
630
330
2
100
AcDbEntity
  8
GAIKEI
 62
     1
100
AcDbEllipse
 10
-40.55648791545514
 20
17.76930822022268
 30
0.0
 11
0.3032553888325309
 21
0.0
 31
0.0
210
0.0
220
0.0
230
1.0
 40
0.3942529102666626
 41
0.0
 42
6.283185307179585
  0
ELLIPSE
  5
631
330
2
100
AcDbEntity
  8
GAIKEI
 62
     1
100
AcDbEllipse
 10
-40.55648791545514
 20
17.76930822022268
 30
0.0
 11
0.4364565999223827
 21
0.0
 31
0.0
210
0.0
220
0.0
230
0.9999999999999998
 40
0.3855006311389226
 41
0.0
 42
6.283185307179585
  0
ELLIPSE
  5
632
330
2
100
AcDbEntity
  8
GAIKEI
 62
     1
100
AcDbEllipse
 10
-40.55648791545514
 20
19.16877357599719
 30
0.0
 11
0.3032553888325309
 21
0.0
 31
0.0
210
0.0
220
0.0
230
1.0
 40
0.3942529102666626
 41
0.0
 42
6.283185307179585
  0
ELLIPSE
  5
633
330
2
100
AcDbEntity
  8
GAIKEI
 62
     1
100
AcDbEllipse
 10
-40.55648791545514
 20
19.16877357599719
 30
0.0
 11
0.4364565999223827
 21
0.0
 31
0.0
210
0.0
220
0.0
230
0.9999999999999998
 40
0.3855006311389226
 41
0.0
 42
6.283185307179585
  0
ELLIPSE
  5
634
330
2
100
AcDbEntity
  8
GAIKEI
 62
     1
100
AcDbEllipse
 10
-37.9500642173731
 20
19.81848474644823
 30
0.0
 11
0.3032553888325309
 21
0.0
 31
0.0
210
0.0
220
0.0
230
1.0
 40
0.3942529102666626
 41
0.0
 42
6.283185307179585
  0
ELLIPSE
  5
635
330
2
100
AcDbEntity
  8
GAIKEI
 62
     1
100
AcDbEllipse
 10
-37.9500642173731
 20
19.81848474644823
 30
0.0
 11
0.4364565999223827
 21
0.0
 31
0.0
210
0.0
220
0.0
230
0.9999999999999998
 40
0.3855006311389226
 41
0.0
 42
6.283185307179585
  0
ELLIPSE
  5
636
330
2
100
AcDbEntity
  8
GAIKEI
 62
     1
100
AcDbEllipse
 10
-37.74457813852968
 20
20.67396620885302
 30
0.0
 11
0.3032553888325309
 21
0.0
 31
0.0
210
0.0
220
0.0
230
1.0
 40
0.3942529102666626
 41
0.0
 42
6.283185307179585
  0
ELLIPSE
  5
637
330
2
100
AcDbEntity
  8
GAIKEI
 62
     1
100
AcDbEllipse
 10
-37.74457813852968
 20
20.67396620885302
 30
0.0
 11
0.4364565999223827
 21
0.0
 31
0.0
210
0.0
220
0.0
230
0.9999999999999998
 40
0.3855006311389226
 41
0.0
 42
6.283185307179585
  0
ELLIPSE
  5
638
330
2
100
AcDbEntity
  8
GAIKEI
 62
     1
100
AcDbEllipse
 10
-37.9500642173731
 20
16.38234824130734
 30
0.0
 11
0.3032553888325309
 21
0.0
 31
0.0
210
0.0
220
0.0
230
1.0
 40
0.3942529102666626
 41
0.0
 42
6.283185307179585
  0
ELLIPSE
  5
639
330
2
100
AcDbEntity
  8
GAIKEI
 62
     1
100
AcDbEllipse
 10
-37.9500642173731
 20
16.38234824130734
 30
0.0
 11
0.4364565999223827
 21
0.0
 31
0.0
210
0.0
220
0.0
230
0.9999999999999998
 40
0.3855006311389226
 41
0.0
 42
6.283185307179585
  0
ELLIPSE
  5
63A
330
2
100
AcDbEntity
  8
GAIKEI
 62
     1
100
AcDbEllipse
 10
-37.74438866312272
 20
15.52686677890244
 30
0.0
 11
0.3032553888325309
 21
0.0
 31
0.0
210
0.0
220
0.0
230
1.0
 40
0.3942529102666626
 41
0.0
 42
6.283185307179585
  0
ELLIPSE
  5
63B
330
2
100
AcDbEntity
  8
GAIKEI
 62
     1
100
AcDbEllipse
 10
-37.74438866312272
 20
15.52686677890244
 30
0.0
 11
0.4364565999223827
 21
0.0
 31
0.0
210
0.0
220
0.0
230
0.9999999999999998
 40
0.3855006311389226
 41
0.0
 42
6.283185307179585
  0
LINE
  5
63C
330
2
100
AcDbEntity
  8
GAIKEI
 62
     1
100
AcDbLine
 10
-35.48821025479816
 20
16.3075054555598
 30
0.0
 11
-34.45481138526202
 21
16.3075054555598
 31
0.0
  0
LINE
  5
63D
330
2
100
AcDbEntity
  8
GAIKEI
 62
     1
100
AcDbLine
 10
-34.3733369602711
 20
16.2262205059759
 30
0.0
 11
-34.3733369602711
 21
15.97668139501525
 31
0.0
  0
LINE
  5
63E
330
2
100
AcDbEntity
  8
GAIKEI
 62
     1
100
AcDbLine
 10
-35.48821025479816
 20
15.89539644543129
 30
0.0
 11
-34.45481138526202
 21
15.89539644543129
 31
0.0
  0
LINE
  5
63F
330
2
100
AcDbEntity
  8
GAIKEI
 62
     1
100
AcDbLine
 10
-35.56968467978914
 20
16.2262205059759
 30
0.0
 11
-35.56968467978914
 21
15.97668139501525
 31
0.0
  0
ARC
  5
640
330
2
100
AcDbEntity
  8
GAIKEI
 62
     1
100
AcDbCircle
 10
-35.48795000823395
 20
16.22576995653554
 30
0.0
 40
0.0817359133369185
100
AcDbArc
 50
90.18242966093565
 51
179.684169282876
  0
ARC
  5
641
330
2
100
AcDbEntity
  8
GAIKEI
 62
     1
100
AcDbCircle
 10
-35.4872913374931
 20
15.97924683720134
 30
0.0
 40
0.083855426830986
100
AcDbArc
 50
190.7149792336356
 51
269.3721200988282
  0
ARC
  5
642
330
2
100
AcDbEntity
  8
GAIKEI
 62
     1
100
AcDbCircle
 10
-34.45470574317494
 20
15.97676520291702
 30
0.0
 40
0.0813688260639284
100
AcDbArc
 50
269.9256122065275
 51
359.9409867372907
  0
ARC
  5
643
330
2
100
AcDbEntity
  8
GAIKEI
 62
     1
100
AcDbCircle
 10
-34.45507163047489
 20
16.22576995789001
 30
0.0
 40
0.0817359119781473
100
AcDbArc
 50
0.3158297728942667
 51
89.81757128332262
  0
LINE
  5
644
330
2
100
AcDbEntity
  8
GAIKEI
 62
     1
100
AcDbLine
 10
-38.79446136847099
 20
18.88285518690111
 30
0.0
 11
-38.79446136847099
 21
17.3181672762613
 31
0.0
  0
ELLIPSE
  5
645
330
2
100
AcDbEntity
  8
GAIKEI
 62
     1
100
AcDbEllipse
 10
-38.79446136847099
 20
18.10051123158121
 30
0.0
 11
-2.299663011049904
 21
0.0
 31
0.0
210
0.0
220
0.0
230
1.0
 40
0.3401993907632304
 41
1.570796326794896
 42
4.712388980384688
  0
ELLIPSE
  5
646
330
2
100
AcDbEntity
  8
GAIKEI
 62
     1
100
AcDbEllipse
 10
-38.79446136847099
 20
18.10051123158121
 30
0.0
 11
2.397418431999824
 21
-0.0029475062562426
 31
0.0
210
0.0
220
0.0
230
1.0
 40
0.3671227035148032
 41
4.669202813508821
 42
7.895623567088172
  0
ARC
  5
647
330
2
100
AcDbEntity
  8
GAIKEI
 62
     1
100
AcDbCircle
 10
-29.71450988644722
 20
18.08753216620471
 30
0.0
 40
9.234298150635137
100
AcDbArc
 50
154.4725723430152
 51
205.5274276569847
  0
ARC
  5
648
330
2
100
AcDbEntity
  8
GAIKEI
 62
     1
100
AcDbCircle
 10
-29.7945098864472
 20
18.08753216620471
 30
0.0
 40
9.234298150635137
100
AcDbArc
 50
154.4725723430152
 51
205.5274276569847
  0
ARC
  5
649
330
2
100
AcDbEntity
  8
GAIKEI
 62
     1
100
AcDbCircle
 10
-17.13986806988077
 20
18.08753216620471
 30
0.0
 40
9.234298150635137
100
AcDbArc
 50
334.4725723430153
 51
25.52742765698477
  0
ARC
  5
64A
330
2
100
AcDbEntity
  8
GAIKEI
 62
     1
100
AcDbCircle
 10
-17.05986806988079
 20
18.08753216620471
 30
0.0
 40
9.234298150635137
100
AcDbArc
 50
334.4725723430153
 51
25.52742765698477
  0
LINE
  5
64B
330
2
100
AcDbEntity
  8
GAIKEI
 62
     1
100
AcDbLine
 10
-32.10711635537791
 20
20.91459997568671
 30
0.0
 11
-32.10711635537791
 21
15.24303261928293
 31
0.0
  0
LINE
  5
64C
330
2
100
AcDbEntity
  8
GAIKEI
 62
     1
100
AcDbLine
 10
-32.22279109132433
 20
20.91459997568671
 30
0.0
 11
-32.22279109132433
 21
15.24303261928293
 31
0.0
  0
LINE
  5
64D
330
2
100
AcDbEntity
  8
GAIKEI
 62
     1
100
AcDbLine
 10
-31.55223762610825
 20
17.54629566623589
 30
0.0
 11
-31.55223762610825
 21
15.07648373656889
 31
0.0
  0
LINE
  5
64E
330
2
100
AcDbEntity
  8
GAIKEI
 62
     1
100
AcDbLine
 10
-31.64981746069043
 20
17.56259055123411
 30
0.0
 11
-31.64981746069043
 21
15.06037832697768
 31
0.0
  0
ARC
  5
64F
330
2
100
AcDbEntity
  8
GAIKEI
 62
     1
100
AcDbCircle
 10
-27.89981829687861
 20
18.13976589410481
 30
0.0
 40
0.8638933394504972
100
AcDbArc
 50
223.1664699492089
 51
316.678268718438
  0
ARC
  5
650
330
2
100
AcDbEntity
  8
GAIKEI
 62
     1
100
AcDbCircle
 10
-31.56861015020349
 20
15.06030068788061
 30
0.0
 40
0.0812073476007661
100
AcDbArc
 50
179.945221788485
 51
270.054778211527
  0
ARC
  5
651
330
2
100
AcDbEntity
  8
GAIKEI
 62
     1
100
AcDbCircle
 10
-31.56848879323707
 20
17.56254683336476
 30
0.0
 40
0.0813286792035367
100
AcDbArc
 50
90.03079909263609
 51
179.9692009073558
  0
LINE
  5
652
330
2
100
AcDbEntity
  8
GAIKEI
 62
     1
100
AcDbLine
 10
-24.1981022314543
 20
17.54629566623589
 30
0.0
 11
-24.1981022314543
 21
15.07648373656889
 31
0.0
  0
LINE
  5
653
330
2
100
AcDbEntity
  8
GAIKEI
 62
     1
100
AcDbLine
 10
-24.10052239687218
 20
17.56259055123411
 30
0.0
 11
-24.10052239687218
 21
15.06037832697768
 31
0.0
  0
ARC
  5
654
330
2
100
AcDbEntity
  8
GAIKEI
 62
     1
100
AcDbCircle
 10
-24.18172970735907
 20
15.06030068788061
 30
0.0
 40
0.0812073476007661
100
AcDbArc
 50
269.945221788473
 51
0.0547782115149686
  0
ARC
  5
655
330
2
100
AcDbEntity
  8
GAIKEI
 62
     1
100
AcDbCircle
 10
-24.18185106432555
 20
17.56254683336476
 30
0.0
 40
0.0813286792035367
100
AcDbArc
 50
0.0307990926441475
 51
89.96920090736391
  0
ARC
  5
656
330
2
100
AcDbEntity
  8
GAIKEI
 62
     1
100
AcDbCircle
 10
-32.16495372335112
 20
15.24308002186126
 30
0.0
 40
0.0578373873984337
100
AcDbArc
 50
180.0469586905928
 51
359.9530413094072
  0
ARC
  5
657
330
2
100
AcDbEntity
  8
GAIKEI
 62
     1
100
AcDbCircle
 10
-32.16495372335112
 20
20.91462221041047
 30
0.0
 40
0.0578373722471353
100
AcDbArc
 50
359.9779734829726
 51
180.0220265170217
  0
LINE
  5
658
330
2
100
AcDbEntity
  8
GAIKEI
 62
     1
100
AcDbLine
 10
-22.15643640828745
 20
20.91459997568671
 30
0.0
 11
-22.15643640828745
 21
15.24303261928293
 31
0.0
  0
LINE
  5
659
330
2
100
AcDbEntity
  8
GAIKEI
 62
     1
100
AcDbLine
 10
-22.27211114423392
 20
20.91459997568671
 30
0.0
 11
-22.27211114423392
 21
15.24303261928293
 31
0.0
  0
ARC
  5
65A
330
2
100
AcDbEntity
  8
GAIKEI
 62
     1
100
AcDbCircle
 10
-22.21427377626071
 20
15.24308002186126
 30
0.0
 40
0.0578373873984337
100
AcDbArc
 50
180.0469586905928
 51
359.9530413094072
  0
ARC
  5
65B
330
2
100
AcDbEntity
  8
GAIKEI
 62
     1
100
AcDbCircle
 10
-22.21427377626071
 20
20.91462221041047
 30
0.0
 40
0.0578373722471353
100
AcDbArc
 50
359.9779734829726
 51
180.0220265170217
  0
LINE
  5
65C
330
2
100
AcDbEntity
  8
GAIKEI
 62
     1
100
AcDbLine
 10
-23.72709279424646
 20
16.27548411178429
 30
0.0
 11
-22.58919823777421
 21
16.27548411178429
 31
0.0
  0
LINE
  5
65D
330
2
100
AcDbEntity
  8
GAIKEI
 62
     1
100
AcDbLine
 10
-22.54050305818657
 20
16.2265994567897
 30
0.0
 11
-22.54050305818657
 21
15.68242608801307
 31
0.0
  0
LINE
  5
65E
330
2
100
AcDbEntity
  8
GAIKEI
 62
     1
100
AcDbLine
 10
-22.58919823777421
 20
15.63354143301853
 30
0.0
 11
-23.72709279424646
 21
15.63354143301853
 31
0.0
  0
LINE
  5
65F
330
2
100
AcDbEntity
  8
GAIKEI
 62
     1
100
AcDbLine
 10
-23.77597744924094
 20
15.68242608801307
 30
0.0
 11
-23.77597744924094
 21
16.2265994567897
 31
0.0
  0
ARC
  5
660
330
2
100
AcDbEntity
  8
GAIKEI
 62
     1
100
AcDbCircle
 10
-23.72715592457752
 20
15.6823629576819
 30
0.0
 40
0.0488215654798281
100
AcDbArc
 50
179.9259117869978
 51
270.0740882129155
  0
ARC
  5
661
330
2
100
AcDbEntity
  8
GAIKEI
 62
     1
100
AcDbCircle
 10
-23.7269128395024
 20
16.22641950204576
 30
0.0
 40
0.0490649397483047
100
AcDbArc
 50
90.21014334278484
 51
179.7898566573014
  0
ARC
  5
662
330
2
100
AcDbEntity
  8
GAIKEI
 62
     1
100
AcDbCircle
 10
-22.5891351074431
 20
15.6823629576819
 30
0.0
 40
0.0488215654798281
100
AcDbArc
 50
269.9259117870845
 51
0.0740882130021635
  0
ARC
  5
663
330
2
100
AcDbEntity
  8
GAIKEI
 62
     1
100
AcDbCircle
 10
-22.58937819251821
 20
16.22641950204576
 30
0.0
 40
0.0490649397483047
100
AcDbArc
 50
0.2101433426985834
 51
89.7898566572152
  0
LINE
  5
664
330
2
100
AcDbEntity
  8
GAIKEI
 62
     1
100
AcDbLine
 10
-13.67103620524574
 20
16.05664001675052
 30
0.0
 11
-12.53314164877355
 21
16.05664001675052
 31
0.0
  0
LINE
  5
665
330
2
100
AcDbEntity
  8
GAIKEI
 62
     1
100
AcDbLine
 10
-12.48444646918591
 20
16.00775536175592
 30
0.0
 11
-12.48444646918591
 21
15.46358199297924
 31
0.0
  0
LINE
  5
666
330
2
100
AcDbEntity
  8
GAIKEI
 62
     1
100
AcDbLine
 10
-12.53314164877355
 20
15.41469733798465
 30
0.0
 11
-13.67103620524574
 21
15.41469733798465
 31
0.0
  0
LINE
  5
667
330
2
100
AcDbEntity
  8
GAIKEI
 62
     1
100
AcDbLine
 10
-13.71992086024028
 20
15.46358199297924
 30
0.0
 11
-13.71992086024028
 21
16.00775536175592
 31
0.0
  0
ARC
  5
668
330
2
100
AcDbEntity
  8
GAIKEI
 62
     1
100
AcDbCircle
 10
-13.67109933557685
 20
15.46351886264813
 30
0.0
 40
0.0488215654798281
100
AcDbArc
 50
179.9259117869978
 51
270.0740882129155
  0
ARC
  5
669
330
2
100
AcDbEntity
  8
GAIKEI
 62
     1
100
AcDbCircle
 10
-13.67085625050174
 20
16.00757540701193
 30
0.0
 40
0.0490649397483047
100
AcDbArc
 50
90.21014334278484
 51
179.7898566573014
  0
ARC
  5
66A
330
2
100
AcDbEntity
  8
GAIKEI
 62
     1
100
AcDbCircle
 10
-12.53307851844249
 20
15.46351886264813
 30
0.0
 40
0.0488215654798281
100
AcDbArc
 50
269.9259117870845
 51
0.0740882130021635
  0
ARC
  5
66B
330
2
100
AcDbEntity
  8
GAIKEI
 62
     1
100
AcDbCircle
 10
-12.53332160351755
 20
16.00757540701193
 30
0.0
 40
0.0490649397483047
100
AcDbArc
 50
0.2101433426985834
 51
89.7898566572152
  0
LINE
  5
66C
330
2
100
AcDbEntity
  8
GAIKEI
 62
     1
100
AcDbLine
 10
-15.08635107314399
 20
20.1248664794955
 30
0.0
 11
-14.90180202676913
 21
20.1248664794955
 31
0.0
  0
LINE
  5
66D
330
2
100
AcDbEntity
  8
GAIKEI
 62
     1
100
AcDbLine
 10
-20.74861344547457
 20
18.95675059561387
 30
0.0
 11
-19.55230710422125
 21
18.95675059561387
 31
0.0
  0
LINE
  5
66E
330
2
100
AcDbEntity
  8
GAIKEI
 62
     1
100
AcDbLine
 10
-20.74861344547457
 20
18.61493696146584
 30
0.0
 11
-19.55230710422125
 21
18.61493696146584
 31
0.0
  0
LINE
  5
66F
330
2
100
AcDbEntity
  8
GAIKEI
 62
     1
100
AcDbLine
 10
-21.08349053813629
 20
19.07972013472806
 30
0.0
 11
-19.21790370007687
 21
19.07972013472806
 31
0.0
  0
LINE
  5
670
330
2
100
AcDbEntity
  8
GAIKEI
 62
     1
100
AcDbLine
 10
-21.08349053813629
 20
19.84861133615413
 30
0.0
 11
-19.21790370007682
 21
19.84861133615413
 31
0.0
  0
LINE
  5
671
330
2
100
AcDbEntity
  8
GAIKEI
 62
     1
100
AcDbLine
 10
-18.69392144331505
 20
19.84861133615413
 30
0.0
 11
-16.82786091673813
 21
19.84861133615413
 31
0.0
  0
LINE
  5
672
330
2
100
AcDbEntity
  8
GAIKEI
 62
     1
100
AcDbLine
 10
-18.69392144331505
 20
19.07972013472806
 30
0.0
 11
-16.82786091673813
 21
19.07972013472806
 31
0.0
  0
LINE
  5
673
330
2
100
AcDbEntity
  8
GAIKEI
 62
     1
100
AcDbLine
 10
-16.30236285672072
 20
19.84861133615413
 30
0.0
 11
-14.43677601866118
 21
19.84861133615413
 31
0.0
  0
LINE
  5
674
330
2
100
AcDbEntity
  8
GAIKEI
 62
     1
100
AcDbLine
 10
-16.30236285672072
 20
19.07972013472806
 30
0.0
 11
-14.43677601866118
 21
19.07972013472806
 31
0.0
  0
LINE
  5
675
330
2
100
AcDbEntity
  8
GAIKEI
 62
     1
100
AcDbLine
 10
-14.79662248677641
 20
20.28611005081478
 30
0.0
 11
-13.83299194526455
 21
20.28611005081478
 31
0.0
  0
LINE
  5
676
330
2
100
AcDbEntity
  8
GAIKEI
 62
     1
100
AcDbLine
 10
-14.79662248677641
 20
19.94467536748061
 30
0.0
 11
-13.83299194526461
 21
19.94467536748061
 31
0.0
  0
LINE
  5
677
330
2
100
AcDbEntity
  8
GAIKEI
 62
     1
100
AcDbLine
 10
-14.83662248677643
 20
20.24611005081476
 30
0.0
 11
-14.83662248677643
 21
19.98467536748069
 31
0.0
  0
LINE
  5
678
330
2
100
AcDbEntity
  8
GAIKEI
 62
     1
100
AcDbLine
 10
-13.79299194526459
 20
20.24611005081476
 30
0.0
 11
-13.79299194526459
 21
19.98467536748069
 31
0.0
  0
LINE
  5
679
330
2
100
AcDbEntity
  8
GAIKEI
 62
     1
100
AcDbLine
 10
-20.7886134454746
 20
18.91675059561385
 30
0.0
 11
-20.78861344547454
 21
18.65493696146586
 31
0.0
  0
LINE
  5
67A
330
2
100
AcDbEntity
  8
GAIKEI
 62
     1
100
AcDbLine
 10
-19.51230710422123
 20
18.91675059561385
 30
0.0
 11
-19.51230710422123
 21
18.65493696146586
 31
0.0
  0
LINE
  5
67B
330
2
100
AcDbEntity
  8
GAIKEI
 62
     1
100
AcDbLine
 10
-21.16349053813633
 20
19.76861133615409
 30
0.0
 11
-21.16349053813633
 21
19.1597201347281
 31
0.0
  0
LINE
  5
67C
330
2
100
AcDbEntity
  8
GAIKEI
 62
     1
100
AcDbLine
 10
-19.13790370007682
 20
19.76861133615409
 30
0.0
 11
-19.13790370007689
 21
19.1597201347281
 31
0.0
  0
LINE
  5
67D
330
2
100
AcDbEntity
  8
GAIKEI
 62
     1
100
AcDbLine
 10
-18.77392144331503
 20
19.76861133615409
 30
0.0
 11
-18.77392144331503
 21
19.1597201347281
 31
0.0
  0
LINE
  5
67E
330
2
100
AcDbEntity
  8
GAIKEI
 62
     1
100
AcDbLine
 10
-16.74786091673815
 20
19.76861133615409
 30
0.0
 11
-16.74786091673815
 21
19.1597201347281
 31
0.0
  0
LINE
  5
67F
330
2
100
AcDbEntity
  8
GAIKEI
 62
     1
100
AcDbLine
 10
-16.3823628567207
 20
19.76861133615409
 30
0.0
 11
-16.3823628567207
 21
19.1597201347281
 31
0.0
  0
LINE
  5
680
330
2
100
AcDbEntity
  8
GAIKEI
 62
     1
100
AcDbLine
 10
-14.35677601866121
 20
19.76861133615409
 30
0.0
 11
-14.35677601866121
 21
19.1597201347281
 31
0.0
  0
ARC
  5
681
330
2
100
AcDbEntity
  8
GAIKEI
 62
     1
100
AcDbCircle
 10
-20.74861344547457
 20
18.91675059561385
 30
0.0
 40
0.04
100
AcDbArc
 50
90.0
 51
180.0
  0
ARC
  5
682
330
2
100
AcDbEntity
  8
GAIKEI
 62
     1
100
AcDbCircle
 10
-20.74861344547457
 20
18.65493696146586
 30
0.0
 40
0.04
100
AcDbArc
 50
180.0000000000024
 51
270.0
  0
ARC
  5
683
330
2
100
AcDbEntity
  8
GAIKEI
 62
     1
100
AcDbCircle
 10
-19.55230710422125
 20
18.65493696146586
 30
0.0
 40
0.04
100
AcDbArc
 50
269.9999999999998
 51
0.0
  0
ARC
  5
684
330
2
100
AcDbEntity
  8
GAIKEI
 62
     1
100
AcDbCircle
 10
-19.55230710422125
 20
18.91675059561385
 30
0.0
 40
0.04
100
AcDbArc
 50
0.0
 51
90.0000000000003
  0
ARC
  5
685
330
2
100
AcDbEntity
  8
GAIKEI
 62
     1
100
AcDbCircle
 10
-14.79662248677641
 20
20.24611005081476
 30
0.0
 40
0.04
100
AcDbArc
 50
90.0
 51
180.0
  0
ARC
  5
686
330
2
100
AcDbEntity
  8
GAIKEI
 62
     1
100
AcDbCircle
 10
-14.79662248677641
 20
19.98467536748069
 30
0.0
 40
0.04
100
AcDbArc
 50
180.0
 51
270.0
  0
ARC
  5
687
330
2
100
AcDbEntity
  8
GAIKEI
 62
     1
100
AcDbCircle
 10
-13.83299194526461
 20
19.98467536748069
 30
0.0
 40
0.04
100
AcDbArc
 50
270.0
 51
0.0
  0
ARC
  5
688
330
2
100
AcDbEntity
  8
GAIKEI
 62
     1
100
AcDbCircle
 10
-13.83299194526455
 20
20.24611005081476
 30
0.0
 40
0.04
100
AcDbArc
 50
0.0000000000049871
 51
90.0
  0
ARC
  5
689
330
2
100
AcDbEntity
  8
GAIKEI
 62
     1
100
AcDbCircle
 10
-21.08349053813629
 20
19.1597201347281
 30
0.0
 40
0.08
100
AcDbArc
 50
180.0
 51
270.0
  0
ARC
  5
68A
330
2
100
AcDbEntity
  8
GAIKEI
 62
     1
100
AcDbCircle
 10
-21.08349053813629
 20
19.76861133615409
 30
0.0
 40
0.08
100
AcDbArc
 50
90.0
 51
180.0000000000011
  0
ARC
  5
68B
330
2
100
AcDbEntity
  8
GAIKEI
 62
     1
100
AcDbCircle
 10
-19.21790370007682
 20
19.76861133615409
 30
0.0
 40
0.08
100
AcDbArc
 50
0.0
 51
90.0
  0
ARC
  5
68C
330
2
100
AcDbEntity
  8
GAIKEI
 62
     1
100
AcDbCircle
 10
-19.21790370007687
 20
19.1597201347281
 30
0.0
 40
0.08
100
AcDbArc
 50
269.9999999999998
 51
0.0
  0
ARC
  5
68D
330
2
100
AcDbEntity
  8
GAIKEI
 62
     1
100
AcDbCircle
 10
-18.69392144331505
 20
19.1597201347281
 30
0.0
 40
0.08
100
AcDbArc
 50
180.0
 51
270.0
  0
ARC
  5
68E
330
2
100
AcDbEntity
  8
GAIKEI
 62
     1
100
AcDbCircle
 10
-18.69392144331505
 20
19.76861133615409
 30
0.0
 40
0.08
100
AcDbArc
 50
90.0
 51
180.0
  0
ARC
  5
68F
330
2
100
AcDbEntity
  8
GAIKEI
 62
     1
100
AcDbCircle
 10
-16.82786091673813
 20
19.76861133615409
 30
0.0
 40
0.08
100
AcDbArc
 50
0.0
 51
90.00000000000019
  0
ARC
  5
690
330
2
100
AcDbEntity
  8
GAIKEI
 62
     1
100
AcDbCircle
 10
-16.82786091673813
 20
19.1597201347281
 30
0.0
 40
0.08
100
AcDbArc
 50
270.0000000000002
 51
0.0
  0
ARC
  5
691
330
2
100
AcDbEntity
  8
GAIKEI
 62
     1
100
AcDbCircle
 10
-16.30236285672072
 20
19.1597201347281
 30
0.0
 40
0.08
100
AcDbArc
 50
180.0
 51
270.0
  0
ARC
  5
692
330
2
100
AcDbEntity
  8
GAIKEI
 62
     1
100
AcDbCircle
 10
-16.30236285672072
 20
19.76861133615409
 30
0.0
 40
0.08
100
AcDbArc
 50
90.0
 51
180.0
  0
ARC
  5
693
330
2
100
AcDbEntity
  8
GAIKEI
 62
     1
100
AcDbCircle
 10
-14.43677601866118
 20
19.76861133615409
 30
0.0
 40
0.08
100
AcDbArc
 50
0.0
 51
90.0
  0
ARC
  5
694
330
2
100
AcDbEntity
  8
GAIKEI
 62
     1
100
AcDbCircle
 10
-14.43677601866118
 20
19.1597201347281
 30
0.0
 40
0.08
100
AcDbArc
 50
269.9999999999998
 51
0.0
  0
CIRCLE
  5
695
330
2
100
AcDbEntity
  8
GAIKEI
 62
     1
100
AcDbCircle
 10
-16.00400123607409
 20
20.11994011589388
 30
0.0
 40
0.140590750474133
  0
ARC
  5
696
330
2
100
AcDbEntity
  8
GAIKEI
 62
     1
100
AcDbCircle
 10
-11.08607947817603
 20
18.11406757587383
 30
0.0
 40
2.158591483506933
100
AcDbArc
 50
46.15516304260419
 51
132.6483125952609
  0
ARC
  5
697
330
2
100
AcDbEntity
  8
GAIKEI
 62
     1
100
AcDbCircle
 10
-11.08579924787898
 20
18.11541504214199
 30
0.0
 40
2.008881650546069
100
AcDbArc
 50
46.13756047631346
 51
132.6798247166876
  0
LINE
  5
698
330
2
100
AcDbEntity
  8
GAIKEI
 62
     1
100
AcDbLine
 10
-12.54851747237978
 20
19.70176789576351
 30
0.0
 11
-12.44762181817594
 21
19.59225111054314
 31
0.0
  0
LINE
  5
699
330
2
100
AcDbEntity
  8
GAIKEI
 62
     1
100
AcDbLine
 10
-9.693786253482414
 20
19.56382979949978
 30
0.0
 11
-9.59080636980201
 21
19.67088340442973
 31
0.0
  0
DIMENSION
  5
69A
330
2
100
AcDbEntity
  8
SUNPO
100
AcDbDimension
  2
*D6
 10
-2.252598084810982
 20
30.44225550854634
 30
0.0
 11
-23.25259900637774
 21
32.19225550854634
 31
0.0
 70
    33
  1
420
 71
     5
 42
42.00000184313352
  3
STANDARD
100
AcDbAlignedDimension
 13
-44.2525999279445
 23
22.44225550854634
 33
0.0
 14
-2.252598084810983
 24
22.44225550854634
 34
0.0
1001
ACAD
1000
DSTYLE
1002
{
1070
    40
1040
1.0
1070
   140
1040
2.5
1070
   147
1040
0.5
1070
   172
1070
     1
1070
   279
1070
     0
1070
   288
1070
     0
1002
}
  0
DIMENSION
  5
6A9
330
2
100
AcDbEntity
  8
SUNPO
100
AcDbDimension
  2
*D5
 10
8.690675257381599
 20
22.48762480423261
 30
0.0
 11
6.940675257381594
 21
18.08772164161172
 31
0.0
 70
    33
  1
88
 71
     5
 42
8.799806325241783
  3
STANDARD
100
AcDbAlignedDimension
 13
0.6906752573815993
 23
13.68781847899083
 33
0.0
 14
0.6906752573815993
 24
22.48762480423261
 34
0.0
1001
ACAD
1000
DSTYLE
1002
{
1070
    40
1040
1.0
1070
   140
1040
2.5
1070
   147
1040
0.5
1070
   172
1070
     1
1070
   279
1070
     0
1070
   288
1070
     0
1002
}
  0
DIMENSION
  5
6B6
330
2
100
AcDbEntity
  8
SUNPO
100
AcDbDimension
  2
*D4
 10
56.67538820560849
 20
30.4964145864555
 30
0.0
 11
39.18803569072259
 21
32.2464145864555
 31
0.0
 70
    33
  1
350
 71
     5
 42
34.97470502977182
  3
STANDARD
100
AcDbAlignedDimension
 13
21.70068317583667
 23
22.4964145864555
 33
0.0
 14
56.67538820560849
 24
22.4964145864555
 34
0.0
1001
ACAD
1000
DSTYLE
1002
{
1070
    40
1040
1.0
1070
   140
1040
2.5
1070
   147
1040
0.5
1070
   172
1070
     1
1070
   279
1070
     0
1070
   288
1070
     0
1002
}
  0
LINE
  5
6C3
330
2
100
AcDbEntity
  8
WAKU
 62
     1
100
AcDbLine
 10
-58.20926240157871
 20
-22.57946851627798
 30
0.0
 11
66.79073759842129
 21
-22.57946851627798
 31
0.0
  0
LINE
  5
6C5
330
2
100
AcDbEntity
  8
WAKU
 62
     1
100
AcDbLine
 10
-58.20926240157871
 20
-27.57946851627798
 30
0.0
 11
66.79073759842129
 21
-27.57946851627798
 31
0.0
  0
LINE
  5
6C6
330
2
100
AcDbEntity
  8
WAKU
 62
     1
100
AcDbLine
 10
-58.20926240157871
 20
-32.57946851627798
 30
0.0
 11
66.79073759842129
 21
-32.57946851627798
 31
0.0
  0
LINE
  5
6C7
330
2
100
AcDbEntity
  8
WAKU
 62
     1
100
AcDbLine
 10
-58.20926240157871
 20
-37.57946851627798
 30
0.0
 11
66.79073759842129
 21
-37.57946851627798
 31
0.0
  0
LINE
  5
6C8
330
2
100
AcDbEntity
  8
WAKU
 62
     1
100
AcDbLine
 10
-58.20926240157871
 20
-42.57946851627798
 30
0.0
 11
66.79073759842129
 21
-42.57946851627798
 31
0.0
  0
LINE
  5
6C9
330
2
100
AcDbEntity
  8
WAKU
 62
     1
100
AcDbLine
 10
-58.20926240157871
 20
-47.57946851627798
 30
0.0
 11
66.79073759842129
 21
-47.57946851627798
 31
0.0
  0
LINE
  5
6CA
330
2
100
AcDbEntity
  8
WAKU
 62
     4
100
AcDbLine
 10
-58.20926240157871
 20
-52.57946851627798
 30
0.0
 11
66.79073759842129
 21
-52.57946851627798
 31
0.0
  0
LINE
  5
6CB
330
2
100
AcDbEntity
  8
WAKU
 62
     4
100
AcDbLine
 10
66.79073759842129
 20
-17.57946851627798
 30
0.0
 11
-58.20926240157871
 21
-17.57946851627798
 31
0.0
  0
LINE
  5
6CC
330
2
100
AcDbEntity
  8
WAKU
 62
     4
100
AcDbLine
 10
-58.20926240157871
 20
-17.57946851627798
 30
0.0
 11
-58.20926240157871
 21
-52.57946851627798
 31
0.0
  0
TEXT
  5
6CD
330
2
100
AcDbEntity
  8
MOJI1
100
AcDbText
 10
-15.70926240157871
 20
-51.57946851627777
 30
0.0
 40
3.0
  1
（１０Ｂａｓｅ－Ｔ／１００Ｂａｓｅ－ＴＸ、ＲＪ－４５）
 41
0.85
100
AcDbText
  0
TEXT
  5
6CE
330
2
100
AcDbEntity
  8
MOJI1
100
AcDbText
 10
-15.70926240157871
 20
-21.57946851627798
 30
0.0
 40
3.0
  1
ＡＣ１００Ｖ　５０／６０Ｈｚ
100
AcDbText
  0
TEXT
  5
6CF
330
2
100
AcDbEntity
  8
MOJI1
100
AcDbText
 10
-15.70926240157871
 20
-26.57946851627798
 30
0.0
 40
3.0
  1
映像×４、音声×１
100
AcDbText
  0
TEXT
  5
6D0
330
2
100
AcDbEntity
  8
MOJI1
100
AcDbText
 10
-15.70926240157871
 20
-31.57946851627798
 30
0.0
 40
3.0
  1
映像×４、音声×１
100
AcDbText
  0
TEXT
  5
6D1
330
2
100
AcDbEntity
  8
MOJI1
100
AcDbText
 10
-15.70926240157871
 20
-46.57946851627776
 30
0.0
 40
3.0
  1
ネットワークインターフェース内蔵
100
AcDbText
  0
TEXT
  5
6D2
330
2
100
AcDbEntity
  8
MOJI1
100
AcDbText
 10
-15.70926240157871
 20
-41.57946851627776
 30
0.0
 40
3.0
  1
同時録画、再生可能
100
AcDbText
  0
TEXT
  5
6D3
330
2
100
AcDbEntity
  8
MOJI1
100
AcDbText
 10
-15.70926240157871
 20
-36.57946851627776
 30
0.0
 40
3.0
  1
１６０ＧＢ
100
AcDbText
  0
TEXT
  5
6D4
330
2
100
AcDbEntity
  8
MOJI1
100
AcDbText
 10
-55.70926240157871
 20
-36.57946851627798
 30
0.0
 40
3.0
  1
内蔵ハードディスク
100
AcDbText
  0
TEXT
  5
6D5
330
2
100
AcDbEntity
  8
MOJI1
100
AcDbText
 10
-55.70926240157871
 20
-26.57946851627798
 30
0.0
 40
3.0
  1
入  力
100
AcDbText
  0
TEXT
  5
6D6
330
2
100
AcDbEntity
  8
MOJI1
100
AcDbText
 10
-55.70926240157871
 20
-21.57946851627798
 30
0.0
 40
3.0
  1
電　源
100
AcDbText
  0
TEXT
  5
6D7
330
2
100
AcDbEntity
  8
MOJI1
100
AcDbText
 10
-55.70926240157871
 20
-31.57946851627798
 30
0.0
 40
3.0
  1
出  力
100
AcDbText
  0
TEXT
  5
6D8
330
2
100
AcDbEntity
  8
MOJI1
100
AcDbText
 10
-55.70926240157871
 20
-41.57946851627776
 30
0.0
 40
3.0
  1
機  能
100
AcDbText
  0
LINE
  5
6D9
330
2
100
AcDbEntity
  8
WAKU
 62
     4
100
AcDbLine
 10
-18.20926240157871
 20
-52.57946851627798
 30
0.0
 11
-18.20926240157871
 21
-17.57946851627798
 31
0.0
  0
LINE
  5
6DA
330
2
100
AcDbEntity
  8
WAKU
 62
     4
100
AcDbLine
 10
66.79073759842129
 20
-52.57946851627798
 30
0.0
 11
66.79073759842129
 21
-17.57946851627798
 31
0.0
  0
ENDSEC
  0
SECTION
  2
OBJECTS
  0
DICTIONARY
  5
A
330
0
100
AcDbDictionary
281
     1
  3
ACAD_COLOR
350
31
  3
ACAD_GROUP
350
2D
  3
ACAD_LAYOUT
350
E
  3
ACAD_MATERIAL
350
30
  3
ACAD_MLINESTYLE
350
2E
  3
ACAD_PLOTSETTINGS
350
2F
  3
ACAD_PLOTSTYLENAME
350
9
  3
ACDBHEADERROUNDTRIPXREC
350
736
  3
AcDbVariableDictionary
350
708
  0
DICTIONARY
  5
16
330
15
100
AcDbDictionary
280
     1
281
     1
  3
ACAD_LAYERFILTERS
360
17
  0
DICTIONARY
  5
3
330
2
100
AcDbDictionary
280
     1
281
     1
  3
ACAD_LAYOUTSELFREF
360
4
  3
ACAD_SORTENTS
360
5
  0
DICTIONARY
  5
10
330
F
100
AcDbDictionary
280
     1
281
     1
  3
ACAD_LAYOUTSELFREF
360
11
  0
DICTIONARY
  5
31
102
{ACAD_REACTORS
330
A
102
}
330
A
100
AcDbDictionary
281
     1
  0
DICTIONARY
  5
2D
102
{ACAD_REACTORS
330
A
102
}
330
A
100
AcDbDictionary
281
     1
  0
DICTIONARY
  5
E
102
{ACAD_REACTORS
330
A
102
}
330
A
100
AcDbDictionary
281
     1
  3
Model
350
D
  3
ﾚｲｱｳﾄ1
350
14
  0
DICTIONARY
  5
30
102
{ACAD_REACTORS
330
A
102
}
330
A
100
AcDbDictionary
281
     1
  0
DICTIONARY
  5
2E
102
{ACAD_REACTORS
330
A
102
}
330
A
100
AcDbDictionary
281
     1
  3
STANDARD
350
33
  0
DICTIONARY
  5
2F
102
{ACAD_REACTORS
330
A
102
}
330
A
100
AcDbDictionary
281
     1
  0
ACDBDICTIONARYWDFLT
  5
9
102
{ACAD_REACTORS
330
A
102
}
330
A
100
AcDbDictionary
281
     1
  3
Normal
350
8
100
AcDbDictionaryWithDefault
340
8
  0
DICTIONARY
  5
736
102
{ACAD_REACTORS
330
A
102
}
330
A
100
AcDbDictionary
281
     1
  3
COLORDICT
350
738
  3
MATERIALDICT
350
737
  0
DICTIONARY
  5
708
102
{ACAD_REACTORS
330
A
102
}
330
A
100
AcDbDictionary
281
     1
  3
DIMASSOC
350
70A
  3
HIDETEXT
350
709
  3
PROJECTNAME
350
70B
  0
DICTIONARY
  5
17
102
{ACAD_REACTORS
330
16
102
}
330
16
100
AcDbDictionary
280
     1
281
     1
  0
XRECORD
  5
4
102
{ACAD_REACTORS
330
3
102
}
330
3
100
AcDbXrecord
280
     1
340
2
  0
SORTENTSTABLE
  5
5
102
{ACAD_REACTORS
330
3
102
}
330
3
100
AcDbSortentsTable
330
2
  0
XRECORD
  5
11
102
{ACAD_REACTORS
330
10
102
}
330
10
100
AcDbXrecord
280
     1
340
F
  0
LAYOUT
  5
D
102
{ACAD_XDICTIONARY
360
739
102
}
102
{ACAD_REACTORS
330
E
102
}
330
E
100
AcDbPlotSettings
  1

  2
\\URANUS\8FPAM09
  4
A4
  6

 40
4.180416584014891
 41
4.349743366241455
 42
4.222747802734375
 43
4.349761962890625
 44
210.0156707763672
 45
297.0106506347656
 46
6.099999999999998
 47
0.0
 48
0.0
 49
0.0
140
0.0
141
0.0
142
1.0
143
1.367721167210798
 70
 11956
 72
     1
 73
     0
 74
     1
  7
tmsacad.ctb
 75
     0
147
0.7311431774060395
148
0.5392855605155093
149
0.0969413040229483
100
AcDbLayout
  1
Model
 70
     1
 71
     0
 10
0.0
 20
0.0
 11
12.0
 21
9.0
 12
0.0
 22
0.0
 32
0.0
 14
0.0
 24
0.0
 34
0.0
 15
0.0
 25
0.0
 35
0.0
146
0.0
 13
0.0
 23
0.0
 33
0.0
 16
1.0
 26
0.0
 36
0.0
 17
0.0
 27
1.0
 37
0.0
 76
     0
330
2
  0
LAYOUT
  5
14
102
{ACAD_XDICTIONARY
360
73B
102
}
102
{ACAD_REACTORS
330
E
102
}
330
E
100
AcDbPlotSettings
  1

  2
C:\Program Files\ACAD2000\plotters\DWF ePlot.pc3
  4

  6

 40
0.0
 41
0.0
 42
0.0
 43
0.0
 44
0.0
 45
0.0
 46
0.0
 47
0.0
 48
0.0
 49
0.0
140
0.0
141
0.0
142
1.0
143
1.0
 70
   688
 72
     0
 73
     0
 74
     5
  7
tmsacad.ctb
 75
    16
147
1.0
148
0.0
149
0.0
100
AcDbLayout
  1
ﾚｲｱｳﾄ1
 70
     1
 71
     1
 10
0.0
 20
0.0
 11
12.0
 21
9.0
 12
0.0
 22
0.0
 32
0.0
 14
1.000000000000000E+20
 24
1.000000000000000E+20
 34
1.000000000000000E+20
 15
-1.000000000000000E+20
 25
-1.000000000000000E+20
 35
-1.000000000000000E+20
146
0.0
 13
0.0
 23
0.0
 33
0.0
 16
1.0
 26
0.0
 36
0.0
 17
0.0
 27
1.0
 37
0.0
 76
     0
330
F
  0
MLINESTYLE
  5
33
102
{ACAD_REACTORS
330
2E
102
}
330
2E
100
AcDbMlineStyle
  2
STANDARD
 70
     0
  3

 62
   256
 51
90.0
 52
90.0
 71
     2
 49
0.5
 62
   256
  6
BYLAYER
 49
-0.5
 62
   256
  6
BYLAYER
  0
ACDBPLACEHOLDER
  5
8
102
{ACAD_REACTORS
330
9
102
}
330
9
  0
XRECORD
  5
738
102
{ACAD_REACTORS
330
736
102
}
330
736
100
AcDbXrecord
280
     1
340
31
  0
XRECORD
  5
737
102
{ACAD_REACTORS
330
736
102
}
330
736
100
AcDbXrecord
280
     1
340
30
  0
DICTIONARYVAR
  5
70A
102
{ACAD_REACTORS
330
708
102
}
330
708
100
DictionaryVariables
280
     0
  1
1
  0
DICTIONARYVAR
  5
709
102
{ACAD_REACTORS
330
708
102
}
330
708
100
DictionaryVariables
280
     0
  1
1
  0
DICTIONARYVAR
  5
70B
102
{ACAD_REACTORS
330
708
102
}
330
708
100
DictionaryVariables
280
     0
  1

  0
DICTIONARY
  5
739
330
D
100
AcDbDictionary
280
     1
281
     1
  3
ACAD_XREC_ROUNDTRIP
360
73A
  0
DICTIONARY
  5
73B
330
14
100
AcDbDictionary
280
     1
281
     1
  3
ACAD_XREC_ROUNDTRIP
360
73C
  0
XRECORD
  5
73A
102
{ACAD_REACTORS
330
739
102
}
330
739
100
AcDbXrecord
280
     1
102
SHADEPLOT
 70
     0
102
SHADEPLOTRESLEVEL
 70
     2
102
SHADEPLOTCUSTOMDPI
 70
   300
  0
XRECORD
  5
73C
102
{ACAD_REACTORS
330
73B
102
}
330
73B
100
AcDbXrecord
280
     1
102
SHADEPLOT
 70
     0
102
SHADEPLOTRESLEVEL
 70
     2
102
SHADEPLOTCUSTOMDPI
 70
   300
  0
ENDSEC
  0
EOF
