  0
SECTION
  2
HEADER
  9
$ACADVER
  1
AC1015
  9
$ACADMAINTVER
 70
    20
  9
$DWGCODEPAGE
  3
ANSI_932
  9
$INSBASE
 10
-0.0000000000002274
 20
246.4992141396417
 30
0.0
  9
$EXTMIN
 10
-69.3405724501772
 20
-56.58571343193307
 30
-0.0000000349181948
  9
$EXTMAX
 10
55.80039168913663
 20
56.4786242773771
 30
0.0000000814935747
  9
$LIMMIN
 10
-1101.784450318844
 20
-1579.160531687244
  9
$LIMMAX
 10
-508.2420711400536
 20
-1161.440814074914
  9
$ORTHOMODE
 70
     1
  9
$REGENMODE
 70
     1
  9
$FILLMODE
 70
     1
  9
$QTEXTMODE
 70
     0
  9
$MIRRTEXT
 70
     1
  9
$LTSCALE
 40
1.0
  9
$ATTMODE
 70
     1
  9
$TEXTSIZE
 40
2.5
  9
$TRACEWID
 40
0.5
  9
$TEXTSTYLE
  7
STANDARD
  9
$CLAYER
  8
0
  9
$CELTYPE
  6
BYLAYER
  9
$CECOLOR
 62
   256
  9
$CELTSCALE
 40
1.0
  9
$DISPSILH
 70
     0
  9
$DIMSCALE
 40
1.0
  9
$DIMASZ
 40
2.0
  9
$DIMEXO
 40
2.0
  9
$DIMDLI
 40
8.0
  9
$DIMRND
 40
0.0
  9
$DIMDLE
 40
0.0
  9
$DIMEXE
 40
2.0
  9
$DIMTP
 40
0.0
  9
$DIMTM
 40
0.0
  9
$DIMTXT
 40
2.5
  9
$DIMCEN
 40
0.0
  9
$DIMTSZ
 40
0.0
  9
$DIMTOL
 70
     0
  9
$DIMLIM
 70
     0
  9
$DIMTIH
 70
     0
  9
$DIMTOH
 70
     0
  9
$DIMSE1
 70
     0
  9
$DIMSE2
 70
     0
  9
$DIMTAD
 70
     3
  9
$DIMZIN
 70
     0
  9
$DIMBLK
  1

  9
$DIMASO
 70
     1
  9
$DIMSHO
 70
     1
  9
$DIMPOST
  1

  9
$DIMAPOST
  1

  9
$DIMALT
 70
     0
  9
$DIMALTD
 70
     2
  9
$DIMALTF
 40
25.4
  9
$DIMLFAC
 40
1.0
  9
$DIMTOFL
 70
     1
  9
$DIMTVP
 40
0.0
  9
$DIMTIX
 70
     0
  9
$DIMSOXD
 70
     0
  9
$DIMSAH
 70
     1
  9
$DIMBLK1
  1
OPEN30
  9
$DIMBLK2
  1
OPEN30
  9
$DIMSTYLE
  2
STANDARD
  9
$DIMCLRD
 70
     0
  9
$DIMCLRE
 70
     0
  9
$DIMCLRT
 70
     0
  9
$DIMTFAC
 40
1.0
  9
$DIMGAP
 40
0.5
  9
$DIMJUST
 70
     0
  9
$DIMSD1
 70
     0
  9
$DIMSD2
 70
     0
  9
$DIMTOLJ
 70
     1
  9
$DIMTZIN
 70
     0
  9
$DIMALTZ
 70
     0
  9
$DIMALTTZ
 70
     0
  9
$DIMUPT
 70
     0
  9
$DIMDEC
 70
     4
  9
$DIMTDEC
 70
     4
  9
$DIMALTU
 70
     2
  9
$DIMALTTD
 70
     2
  9
$DIMTXSTY
  7
STANDARD
  9
$DIMAUNIT
 70
     0
  9
$DIMADEC
 70
     0
  9
$DIMALTRND
 40
0.0
  9
$DIMAZIN
 70
     0
  9
$DIMDSEP
 70
    46
  9
$DIMATFIT
 70
     3
  9
$DIMFRAC
 70
     0
  9
$DIMLDRBLK
  1
OPEN30
  9
$DIMLUNIT
 70
     2
  9
$DIMLWD
 70
    -2
  9
$DIMLWE
 70
    -2
  9
$DIMTMOVE
 70
     0
  9
$LUNITS
 70
     2
  9
$LUPREC
 70
     4
  9
$SKETCHINC
 40
0.1
  9
$FILLETRAD
 40
0.8
  9
$AUNITS
 70
     0
  9
$AUPREC
 70
     0
  9
$MENU
  1
ACAD
  9
$ELEVATION
 40
0.0
  9
$PELEVATION
 40
0.0
  9
$THICKNESS
 40
0.0
  9
$LIMCHECK
 70
     0
  9
$CHAMFERA
 40
0.0
  9
$CHAMFERB
 40
0.0
  9
$CHAMFERC
 40
0.0
  9
$CHAMFERD
 40
0.0
  9
$SKPOLY
 70
     0
  9
$TDCREATE
 40
2451815.565532581
  9
$TDUCREATE
 40
2451815.190532581
  9
$TDUPDATE
 40
2453732.408004548
  9
$TDUUPDATE
 40
2453732.033004548
  9
$TDINDWG
 40
0.9359728819
  9
$TDUSRTIMER
 40
0.9359728819
  9
$USRTIMER
 70
     1
  9
$ANGBASE
 50
0.0
  9
$ANGDIR
 70
     0
  9
$PDMODE
 70
     0
  9
$PDSIZE
 40
0.0
  9
$PLINEWID
 40
0.0
  9
$SPLFRAME
 70
     0
  9
$SPLINETYPE
 70
     6
  9
$SPLINESEGS
 70
     8
  9
$HANDSEED
  5
73E
  9
$SURFTAB1
 70
     6
  9
$SURFTAB2
 70
     6
  9
$SURFTYPE
 70
     6
  9
$SURFU
 70
     6
  9
$SURFV
 70
     6
  9
$UCSBASE
  2

  9
$UCSNAME
  2

  9
$UCSORG
 10
0.0
 20
0.0
 30
0.0
  9
$UCSXDIR
 10
1.0
 20
0.0
 30
0.0
  9
$UCSYDIR
 10
0.0
 20
1.0
 30
0.0
  9
$UCSORTHOREF
  2

  9
$UCSORTHOVIEW
 70
     0
  9
$UCSORGTOP
 10
0.0
 20
0.0
 30
0.0
  9
$UCSORGBOTTOM
 10
0.0
 20
0.0
 30
0.0
  9
$UCSORGLEFT
 10
0.0
 20
0.0
 30
0.0
  9
$UCSORGRIGHT
 10
0.0
 20
0.0
 30
0.0
  9
$UCSORGFRONT
 10
0.0
 20
0.0
 30
0.0
  9
$UCSORGBACK
 10
0.0
 20
0.0
 30
0.0
  9
$PUCSBASE
  2

  9
$PUCSNAME
  2

  9
$PUCSORG
 10
0.0
 20
0.0
 30
0.0
  9
$PUCSXDIR
 10
1.0
 20
0.0
 30
0.0
  9
$PUCSYDIR
 10
0.0
 20
1.0
 30
0.0
  9
$PUCSORTHOREF
  2

  9
$PUCSORTHOVIEW
 70
     0
  9
$PUCSORGTOP
 10
0.0
 20
0.0
 30
0.0
  9
$PUCSORGBOTTOM
 10
0.0
 20
0.0
 30
0.0
  9
$PUCSORGLEFT
 10
0.0
 20
0.0
 30
0.0
  9
$PUCSORGRIGHT
 10
0.0
 20
0.0
 30
0.0
  9
$PUCSORGFRONT
 10
0.0
 20
0.0
 30
0.0
  9
$PUCSORGBACK
 10
0.0
 20
0.0
 30
0.0
  9
$USERI1
 70
     0
  9
$USERI2
 70
     0
  9
$USERI3
 70
     0
  9
$USERI4
 70
     0
  9
$USERI5
 70
     0
  9
$USERR1
 40
0.0
  9
$USERR2
 40
0.0
  9
$USERR3
 40
0.0
  9
$USERR4
 40
0.0
  9
$USERR5
 40
0.0
  9
$WORLDVIEW
 70
     1
  9
$SHADEDGE
 70
     3
  9
$SHADEDIF
 70
    70
  9
$TILEMODE
 70
     1
  9
$MAXACTVP
 70
    48
  9
$PINSBASE
 10
0.0
 20
0.0
 30
0.0
  9
$PLIMCHECK
 70
     0
  9
$PEXTMIN
 10
1.000000000000000E+20
 20
1.000000000000000E+20
 30
1.000000000000000E+20
  9
$PEXTMAX
 10
-1.000000000000000E+20
 20
-1.000000000000000E+20
 30
-1.000000000000000E+20
  9
$PLIMMIN
 10
0.0
 20
0.0
  9
$PLIMMAX
 10
12.0
 20
9.0
  9
$UNITMODE
 70
     0
  9
$VISRETAIN
 70
     1
  9
$PLINEGEN
 70
     0
  9
$PSLTSCALE
 70
     1
  9
$TREEDEPTH
 70
  3020
  9
$CMLSTYLE
  2
STANDARD
  9
$CMLJUST
 70
     0
  9
$CMLSCALE
 40
1.0
  9
$PROXYGRAPHICS
 70
     1
  9
$MEASUREMENT
 70
     0
  9
$CELWEIGHT
370
    -1
  9
$ENDCAPS
280
     0
  9
$JOINSTYLE
280
     0
  9
$LWDISPLAY
290
     0
  9
$INSUNITS
 70
     0
  9
$HYPERLINKBASE
  1

  9
$STYLESHEET
  1

  9
$XEDIT
290
     1
  9
$CEPSNTYPE
380
     0
  9
$PSTYLEMODE
290
     1
  9
$FINGERPRINTGUID
  2
{1754B7AB-9B3C-11D4-AD9E-00104B1004F2}
  9
$VERSIONGUID
  2
{A6297D3A-CB3C-48C1-9296-F85FF9A675D2}
  9
$EXTNAMES
290
     1
  9
$PSVPSCALE
 40
0.0
  9
$OLESTARTUP
290
     0
  0
ENDSEC
  0
SECTION
  2
CLASSES
  0
CLASS
  1
ACDBDICTIONARYWDFLT
  2
AcDbDictionaryWithDefault
  3
ObjectDBX Classes
 90
        0
280
     0
281
     0
  0
CLASS
  1
ACDBPLACEHOLDER
  2
AcDbPlaceHolder
  3
ObjectDBX Classes
 90
        0
280
     0
281
     0
  0
CLASS
  1
LAYOUT
  2
AcDbLayout
  3
ObjectDBX Classes
 90
        0
280
     0
281
     0
  0
CLASS
  1
DICTIONARYVAR
  2
AcDbDictionaryVar
  3
ObjectDBX Classes
 90
        0
280
     0
281
     0
  0
CLASS
  1
SORTENTSTABLE
  2
AcDbSortentsTable
  3
ObjectDBX Classes
 90
        0
280
     0
281
     0
  0
ENDSEC
  0
SECTION
  2
TABLES
  0
TABLE
  2
VPORT
  5
20
330
0
100
AcDbSymbolTable
 70
     2
  0
VPORT
  5
736
330
20
100
AcDbSymbolTableRecord
100
AcDbViewportTableRecord
  2
*Active
 70
     0
 10
0.0
 20
0.0
 11
1.0
 21
1.0
 12
-6.77009038052029
 22
-0.0535445772779895
 13
0.0
 23
0.0
 14
1.0
 24
1.0
 15
0.0
 25
0.0
 16
0.0
 26
0.0
 36
1.0
 17
0.0
 27
0.0
 37
0.0
 40
114.0334606039614
 41
1.589413447782546
 42
50.0
 43
0.0
 44
0.0
 50
0.0
 51
0.0
 71
     0
 72
 10000
 73
     1
 74
     0
 75
     0
 76
     1
 77
     0
 78
     0
281
     0
 65
     1
110
0.0
120
0.0
130
0.0
111
1.0
121
0.0
131
0.0
112
0.0
122
1.0
132
0.0
 79
     0
146
0.0
  0
ENDTAB
  0
TABLE
  2
LTYPE
  5
1B
330
0
100
AcDbSymbolTable
 70
     3
  0
LTYPE
  5
1C
330
1B
100
AcDbSymbolTableRecord
100
AcDbLinetypeTableRecord
  2
BYBLOCK
 70
     0
  3

 72
    65
 73
     0
 40
0.0
  0
LTYPE
  5
1D
330
1B
100
AcDbSymbolTableRecord
100
AcDbLinetypeTableRecord
  2
BYLAYER
 70
     0
  3

 72
    65
 73
     0
 40
0.0
  0
LTYPE
  5
B
330
1B
100
AcDbSymbolTableRecord
100
AcDbLinetypeTableRecord
  2
CONTINUOUS
 70
     0
  3
Solid line
 72
    65
 73
     0
 40
0.0
  0
LTYPE
  5
5B5
330
1B
100
AcDbSymbolTableRecord
100
AcDbLinetypeTableRecord
  2
AI9-LTYPE1
 70
     0
  3
Illustrator Dash Style No.1
 72
    65
 73
     4
 40
11.28888888888889
 49
9.524999999999996
 74
     0
 49
-0.5291666666666666
 74
     0
 49
0.7055555555555557
 74
     0
 49
-0.5291666666666666
 74
     0
  0
LTYPE
  5
611
330
1B
100
AcDbSymbolTableRecord
100
AcDbLinetypeTableRecord
  2
HIDDEN2
 70
     0
  3
Hidden (.5x) _ _ _ _ _ _ _ _ _ _ _ _ _ _ _ _ _
 72
    65
 73
     2
 40
1.399999999999999
 49
0.7
 74
     0
 49
-0.7
 74
     0
  0
ENDTAB
  0
TABLE
  2
LAYER
  5
15
102
{ACAD_XDICTIONARY
360
16
102
}
330
0
100
AcDbSymbolTable
 70
     8
  0
LAYER
  5
7
330
15
100
AcDbSymbolTableRecord
100
AcDbLayerTableRecord
  2
0
 70
     0
 62
     7
  6
CONTINUOUS
370
    -3
390
8
  0
LAYER
  5
6A5
330
15
100
AcDbSymbolTableRecord
100
AcDbLayerTableRecord
  2
DEFPOINTS
 70
     0
 62
     7
  6
CONTINUOUS
290
     0
370
    -3
390
8
  0
LAYER
  5
6C4
330
15
100
AcDbSymbolTableRecord
100
AcDbLayerTableRecord
  2
WAKU
 70
     0
 62
     4
  6
CONTINUOUS
370
    -3
390
8
  0
LAYER
  5
37
330
15
100
AcDbSymbolTableRecord
100
AcDbLayerTableRecord
  2
MOJI1
 70
     0
 62
     2
  6
CONTINUOUS
370
    -3
390
8
  0
LAYER
  5
39
330
15
100
AcDbSymbolTableRecord
100
AcDbLayerTableRecord
  2
GAIKEI
 70
     0
 62
     7
  6
CONTINUOUS
370
    -3
390
8
  0
LAYER
  5
35
330
15
100
AcDbSymbolTableRecord
100
AcDbLayerTableRecord
  2
TOUROKU
 70
     0
 62
     1
  6
CONTINUOUS
370
    -3
390
8
  0
LAYER
  5
69B
330
15
100
AcDbSymbolTableRecord
100
AcDbLayerTableRecord
  2
SUNPO
 70
     0
 62
     3
  6
CONTINUOUS
370
    -3
390
8
  0
ENDTAB
  0
TABLE
  2
STYLE
  5
18
330
0
100
AcDbSymbolTable
 70
     2
  0
STYLE
  5
19
330
18
100
AcDbSymbolTableRecord
100
AcDbTextStyleTableRecord
  2
STANDARD
 70
     0
 40
0.0
 41
1.0
 50
0.0
 71
     0
 42
2.5
  3
MONOTXT.shx
  4
BIGFONT.shx
  0
STYLE
  5
3D
330
18
100
AcDbSymbolTableRecord
100
AcDbTextStyleTableRecord
  2
STD
 70
     0
 40
0.0
 41
1.0
 50
0.0
 71
     0
 42
0.0
  3
txt
  4

  0
ENDTAB
  0
TABLE
  2
VIEW
  5
1E
330
0
100
AcDbSymbolTable
 70
     0
  0
ENDTAB
  0
TABLE
  2
UCS
  5
1F
330
0
100
AcDbSymbolTable
 70
     0
  0
ENDTAB
  0
TABLE
  2
APPID
  5
22
330
0
100
AcDbSymbolTable
 70
     1
  0
APPID
  5
23
330
22
100
AcDbSymbolTableRecord
100
AcDbRegAppTableRecord
  2
ACAD
 70
     0
  0
ENDTAB
  0
TABLE
  2
DIMSTYLE
  5
24
330
0
100
AcDbSymbolTable
 70
     1
100
AcDbDimStyleTable
 71
     1
340
25
  0
DIMSTYLE
105
25
102
{ACAD_REACTORS
330
6B6
330
6A9
330
69A
102
}
330
24
100
AcDbSymbolTableRecord
100
AcDbDimStyleTableRecord
  2
STANDARD
 70
     0
 40
0.0
 41
2.0
 42
2.0
 43
8.0
 44
2.0
 73
     0
 74
     0
 77
     3
140
3.0
141
0.0
173
     1
279
     2
288
     1
340
19
341
26
343
26
344
26
  0
ENDTAB
  0
TABLE
  2
BLOCK_RECORD
  5
1
330
0
100
AcDbSymbolTable
 70
     7
  0
BLOCK_RECORD
  5
2
102
{ACAD_XDICTIONARY
360
3
102
}
330
1
100
AcDbSymbolTableRecord
100
AcDbBlockTableRecord
  2
*MODEL_SPACE
340
D
  0
BLOCK_RECORD
  5
F
102
{ACAD_XDICTIONARY
360
10
102
}
330
1
100
AcDbSymbolTableRecord
100
AcDbBlockTableRecord
  2
*PAPER_SPACE
340
14
  0
BLOCK_RECORD
  5
26
330
1
100
AcDbSymbolTableRecord
100
AcDbBlockTableRecord
  2
_OPEN30
340
0
102
{BLKREFS
331
6A1
331
6A2
331
6AF
331
6B0
331
6BC
331
6BD
331
71E
331
71F
331
727
331
728
331
730
331
731
102
}
  0
BLOCK_RECORD
  5
6E5
330
1
100
AcDbSymbolTableRecord
100
AcDbBlockTableRecord
  2
*D4
340
0
  0
BLOCK_RECORD
  5
6F1
330
1
100
AcDbSymbolTableRecord
100
AcDbBlockTableRecord
  2
*D5
340
0
  0
BLOCK_RECORD
  5
6FD
330
1
100
AcDbSymbolTableRecord
100
AcDbBlockTableRecord
  2
*D6
340
0
  0
ENDTAB
  0
ENDSEC
  0
SECTION
  2
BLOCKS
  0
BLOCK
  5
6
330
2
100
AcDbEntity
  8
0
100
AcDbBlockBegin
  2
*MODEL_SPACE
 70
     0
 10
0.0
 20
0.0
 30
0.0
  3
*MODEL_SPACE
  1

  0
ENDBLK
  5
C
330
2
100
AcDbEntity
  8
0
100
AcDbBlockEnd
  0
BLOCK
  5
12
330
F
100
AcDbEntity
 67
     1
  8
0
100
AcDbBlockBegin
  2
*PAPER_SPACE
 70
     0
 10
0.0
 20
0.0
 30
0.0
  3
*PAPER_SPACE
  1

  0
ENDBLK
  5
13
330
F
100
AcDbEntity
 67
     1
  8
0
100
AcDbBlockEnd
  0
BLOCK
  5
27
330
26
100
AcDbEntity
  8
0
100
AcDbBlockBegin
  2
_OPEN30
 70
     0
 10
0.0
 20
0.0
 30
0.0
  3
_OPEN30
  1

  0
LINE
  5
28
330
26
100
AcDbEntity
  8
0
  6
ByBlock
 62
     0
100
AcDbLine
 10
-1.0
 20
0.26794919
 30
0.0
 11
0.0
 21
0.0
 31
0.0
  0
LINE
  5
29
330
26
100
AcDbEntity
  8
0
  6
ByBlock
 62
     0
100
AcDbLine
 10
0.0
 20
0.0
 30
0.0
 11
-1.0
 21
-0.26794919
 31
0.0
  0
LINE
  5
2A
330
26
100
AcDbEntity
  8
0
  6
ByBlock
 62
     0
100
AcDbLine
 10
0.0
 20
0.0
 30
0.0
 11
-1.0
 21
0.0
 31
0.0
  0
ENDBLK
  5
2B
330
26
100
AcDbEntity
  8
0
100
AcDbBlockEnd
  0
BLOCK
  5
6EF
330
6E5
100
AcDbEntity
  8
0
100
AcDbBlockBegin
  2
*D4
 70
     1
 10
0.0
 20
0.0
 30
0.0
  3
*D4
  1

  0
LINE
  5
71B
330
6E5
100
AcDbEntity
  8
SUNPO
 62
     0
370
    -2
100
AcDbLine
 10
10.64019374436299
 20
20.54693857791932
 30
0.0
 11
10.64019374436299
 21
28.54693857791932
 31
0.0
  0
LINE
  5
71C
330
6E5
100
AcDbEntity
  8
SUNPO
 62
     0
370
    -2
100
AcDbLine
 10
45.61489877413481
 20
20.54693857791932
 30
0.0
 11
45.61489877413481
 21
28.54693857791932
 31
0.0
  0
LINE
  5
71D
330
6E5
100
AcDbEntity
  8
SUNPO
 62
     0
370
    -2
100
AcDbLine
 10
12.64019374436299
 20
26.54693857791932
 30
0.0
 11
43.61489877413482
 21
26.54693857791932
 31
0.0
  0
INSERT
  5
71E
330
6E5
100
AcDbEntity
  8
SUNPO
 62
     0
370
    -2
100
AcDbBlockReference
  2
_OPEN30
 10
10.64019374436299
 20
26.54693857791932
 30
0.0
 41
2.0
 42
2.0
 43
2.0
 50
180.0
  0
INSERT
  5
71F
330
6E5
100
AcDbEntity
  8
SUNPO
 62
     0
370
    -2
100
AcDbBlockReference
  2
_OPEN30
 10
45.61489877413481
 20
26.54693857791932
 30
0.0
 41
2.0
 42
2.0
 43
2.0
  0
MTEXT
  5
720
330
6E5
100
AcDbEntity
  8
SUNPO
 62
     0
100
AcDbMText
 10
28.1275462592489
 20
28.29693857791932
 30
0.0
 40
2.5
 41
0.0
 71
     5
 72
     1
  1
\A1;350
 73
     1
 44
1.0
1001
ACAD
1000
MTEXTBEGIN
1070
    73
1070
     1
1070
    44
1040
1.0
1070
    74
1070
     0
1000
MTEXTEND
  0
POINT
  5
721
330
6E5
100
AcDbEntity
  8
DEFPOINTS
 62
     0
100
AcDbPoint
 10
10.64019374436299
 20
18.54693857791932
 30
0.0
  0
POINT
  5
722
330
6E5
100
AcDbEntity
  8
DEFPOINTS
 62
     0
100
AcDbPoint
 10
45.61489877413481
 20
18.54693857791932
 30
0.0
  0
POINT
  5
723
330
6E5
100
AcDbEntity
  8
DEFPOINTS
 62
     0
100
AcDbPoint
 10
45.61489877413481
 20
26.54693857791932
 30
0.0
  0
ENDBLK
  5
6F0
330
6E5
100
AcDbEntity
  8
0
100
AcDbBlockEnd
  0
BLOCK
  5
6FB
330
6F1
100
AcDbEntity
  8
0
100
AcDbBlockBegin
  2
*D5
 70
     1
 10
0.0
 20
0.0
 30
0.0
  3
*D5
  1

  0
LINE
  5
724
330
6F1
100
AcDbEntity
  8
SUNPO
 62
     0
370
    -2
100
AcDbLine
 10
-8.369814174092081
 20
9.738342470454654
 30
0.0
 11
-0.369814174092086
 21
9.738342470454652
 31
0.0
  0
LINE
  5
725
330
6F1
100
AcDbEntity
  8
SUNPO
 62
     0
370
    -2
100
AcDbLine
 10
-8.369814174092081
 20
18.53814879569643
 30
0.0
 11
-0.3698141740920841
 21
18.53814879569642
 31
0.0
  0
LINE
  5
726
330
6F1
100
AcDbEntity
  8
SUNPO
 62
     0
370
    -2
100
AcDbLine
 10
-2.369814174092085
 20
11.73834247045465
 30
0.0
 11
-2.369814174092084
 21
16.53814879569642
 31
0.0
  0
INSERT
  5
727
330
6F1
100
AcDbEntity
  8
SUNPO
 62
     0
370
    -2
100
AcDbBlockReference
  2
_OPEN30
 10
-2.369814174092085
 20
9.738342470454652
 30
0.0
 41
2.0
 42
2.0
 43
2.0
 50
270.0
  0
INSERT
  5
728
330
6F1
100
AcDbEntity
  8
SUNPO
 62
     0
370
    -2
100
AcDbBlockReference
  2
_OPEN30
 10
-2.369814174092083
 20
18.53814879569642
 30
0.0
 41
2.0
 42
2.0
 43
2.0
 50
90.0
  0
MTEXT
  5
729
330
6F1
100
AcDbEntity
  8
SUNPO
 62
     0
100
AcDbMText
 10
-4.119814174092087
 20
14.13824563307554
 30
0.0
 40
2.5
 41
0.0
 71
     5
 72
     1
  1
\A1;88
 11
0.0000000000000001
 21
1.0
 31
0.0
 73
     1
 44
1.0
1001
ACAD
1000
MTEXTBEGIN
1070
    73
1070
     1
1070
    44
1040
1.0
1070
    74
1070
     0
1000
MTEXTEND
  0
POINT
  5
72A
330
6F1
100
AcDbEntity
  8
DEFPOINTS
 62
     0
100
AcDbPoint
 10
-10.36981417409208
 20
9.738342470454654
 30
0.0
  0
POINT
  5
72B
330
6F1
100
AcDbEntity
  8
DEFPOINTS
 62
     0
100
AcDbPoint
 10
-10.36981417409208
 20
18.53814879569643
 30
0.0
  0
POINT
  5
72C
330
6F1
100
AcDbEntity
  8
DEFPOINTS
 62
     0
100
AcDbPoint
 10
-2.369814174092083
 20
18.53814879569642
 30
0.0
  0
ENDBLK
  5
6FC
330
6F1
100
AcDbEntity
  8
0
100
AcDbBlockEnd
  0
BLOCK
  5
707
330
6FD
100
AcDbEntity
  8
0
100
AcDbBlockBegin
  2
*D6
 70
     1
 10
0.0
 20
0.0
 30
0.0
  3
*D6
  1

  0
LINE
  5
72D
330
6FD
100
AcDbEntity
  8
SUNPO
 62
     0
370
    -2
100
AcDbLine
 10
-55.3130893594182
 20
20.49277950001016
 30
0.0
 11
-55.3130893594182
 21
28.49277950001016
 31
0.0
  0
LINE
  5
72E
330
6FD
100
AcDbEntity
  8
SUNPO
 62
     0
370
    -2
100
AcDbLine
 10
-13.31308751628467
 20
20.49277950001016
 30
0.0
 11
-13.31308751628467
 21
28.49277950001016
 31
0.0
  0
LINE
  5
72F
330
6FD
100
AcDbEntity
  8
SUNPO
 62
     0
370
    -2
100
AcDbLine
 10
-53.31308935941819
 20
26.49277950001016
 30
0.0
 11
-15.31308751628467
 21
26.49277950001016
 31
0.0
  0
INSERT
  5
730
330
6FD
100
AcDbEntity
  8
SUNPO
 62
     0
370
    -2
100
AcDbBlockReference
  2
_OPEN30
 10
-55.3130893594182
 20
26.49277950001016
 30
0.0
 41
2.0
 42
2.0
 43
2.0
 50
180.0
  0
INSERT
  5
731
330
6FD
100
AcDbEntity
  8
SUNPO
 62
     0
370
    -2
100
AcDbBlockReference
  2
_OPEN30
 10
-13.31308751628467
 20
26.49277950001016
 30
0.0
 41
2.0
 42
2.0
 43
2.0
  0
MTEXT
  5
732
330
6FD
100
AcDbEntity
  8
SUNPO
 62
     0
100
AcDbMText
 10
-34.31308843785144
 20
28.24277950001016
 30
0.0
 40
2.5
 41
0.0
 71
     5
 72
     1
  1
\A1;420
 73
     1
 44
1.0
1001
ACAD
1000
MTEXTBEGIN
1070
    73
1070
     1
1070
    44
1040
1.0
1070
    74
1070
     0
1000
MTEXTEND
  0
POINT
  5
733
330
6FD
100
AcDbEntity
  8
DEFPOINTS
 62
     0
100
AcDbPoint
 10
-55.3130893594182
 20
18.49277950001016
 30
0.0
  0
POINT
  5
734
330
6FD
100
AcDbEntity
  8
DEFPOINTS
 62
     0
100
AcDbPoint
 10
-13.31308751628467
 20
18.49277950001016
 30
0.0
  0
POINT
  5
735
330
6FD
100
AcDbEntity
  8
DEFPOINTS
 62
     0
100
AcDbPoint
 10
-13.31308751628467
 20
26.49277950001016
 30
0.0
  0
ENDBLK
  5
708
330
6FD
100
AcDbEntity
  8
0
100
AcDbBlockEnd
  0
ENDSEC
  0
SECTION
  2
ENTITIES
  0
TEXT
  5
34
330
2
100
AcDbEntity
  8
TOUROKU
100
AcDbText
 10
37.33019819987501
 20
46.47105547518584
 30
0.0
 40
2.0
  1
ＷＪＨＤ１５０２
 72
     2
 11
55.730198199875
 21
46.47105547518584
 31
0.0
100
AcDbText
  0
TEXT
  5
36
330
2
100
AcDbEntity
  8
MOJI1
100
AcDbText
 10
-42.26975183305272
 20
52.47105547518582
 30
0.0
 40
4.0
  1
デジタルディスクレコーダー
100
AcDbText
  0
LINE
  5
38
330
2
100
AcDbEntity
  8
GAIKEI
 62
     1
100
AcDbLine
 10
-14.84764883721846
 20
16.83135432983988
 30
0.0
 11
-14.62738367663252
 21
16.69303728276219
 31
0.0
  0
LINE
  5
3A
330
2
100
AcDbEntity
  8
GAIKEI
 62
     1
100
AcDbLine
 10
-14.84764883721846
 20
16.5545307602776
 30
0.0
 11
-14.84764883721846
 21
16.83135432983988
 31
0.0
  0
LINE
  5
3B
330
2
100
AcDbEntity
  8
GAIKEI
 62
     1
100
AcDbLine
 10
-14.62738367663252
 20
16.69303728276219
 30
0.0
 11
-14.84764883721846
 21
16.5545307602776
 31
0.0
  0
TEXT
  5
3C
330
2
100
AcDbEntity
  8
GAIKEI
  6
Continuous
 62
     1
100
AcDbText
 10
-41.84601482333585
 20
15.29489825483631
 30
0.0
 40
0.4267337906561385
  1
1
  7
STD
100
AcDbText
  0
TEXT
  5
3E
330
2
100
AcDbEntity
  8
GAIKEI
  6
Continuous
 62
     1
100
AcDbText
 10
-39.98745055650778
 20
15.29489825483631
 30
0.0
 40
0.4267337906561385
  1
2
  7
STD
100
AcDbText
  0
TEXT
  5
3F
330
2
100
AcDbEntity
  8
GAIKEI
  6
Continuous
 62
     1
100
AcDbText
 10
-38.12869681427276
 20
15.29489825483631
 30
0.0
 40
0.4267337906561385
  1
3
  7
STD
100
AcDbText
  0
TEXT
  5
40
330
2
100
AcDbEntity
  8
GAIKEI
  6
Continuous
 62
     1
100
AcDbText
 10
-36.26994307203773
 20
15.29489825483631
 30
0.0
 40
0.4267337906561385
  1
4
  7
STD
100
AcDbText
  0
SPLINE
  5
41
330
2
100
AcDbEntity
  8
GAIKEI
 62
     1
100
AcDbSpline
210
0.0
220
0.0
230
1.0
 70
    24
 71
     3
 72
     8
 73
     4
 74
     0
 42
0.0000000001
 43
0.0000000001
 40
5.0
 40
5.0
 40
5.0
 40
5.0
 40
6.0
 40
6.0
 40
6.0
 40
6.0
 10
-42.62902194258014
 20
13.69439949228194
 30
0.0
 10
-42.62902194258014
 20
13.69439949228194
 30
0.0
 10
-35.24203898930324
 20
13.69439949228194
 30
0.0
 10
-35.24203898930324
 20
13.69439949228194
 30
0.0
  0
SPLINE
  5
42
330
2
100
AcDbEntity
  8
GAIKEI
 62
     1
100
AcDbSpline
210
0.0
220
0.0
230
1.0
 70
    24
 71
     3
 72
     8
 73
     4
 74
     0
 42
0.0000000001
 43
0.0000000001
 40
1.0
 40
1.0
 40
1.0
 40
1.0
 40
2.0
 40
2.0
 40
2.0
 40
2.0
 10
-35.24203898930324
 20
11.02961736885748
 30
0.0
 10
-35.24203898930324
 20
11.02961736885748
 30
0.0
 10
-42.62902194258014
 20
11.02961736885748
 30
0.0
 10
-42.62902194258014
 20
11.02961736885748
 30
0.0
  0
SPLINE
  5
43
330
2
100
AcDbEntity
  8
GAIKEI
 62
     1
100
AcDbSpline
210
0.0
220
0.0
230
1.0
 70
    24
 71
     3
 72
     8
 73
     4
 74
     0
 42
0.0000000001
 43
0.0000000001
 40
3.0
 40
3.0
 40
3.0
 40
3.0
 40
4.0
 40
4.0
 40
4.0
 40
4.0
 10
-35.25833387430147
 20
13.59681965769971
 30
0.0
 10
-35.44534610096667
 20
13.59681965769971
 30
0.0
 10
-42.42552535550969
 20
13.59681965769971
 30
0.0
 10
-42.61272705758199
 20
13.59681965769971
 30
0.0
  0
SPLINE
  5
44
330
2
100
AcDbEntity
  8
GAIKEI
 62
     1
100
AcDbSpline
210
0.0
220
0.0
230
1.0
 70
    24
 71
     3
 72
     8
 73
     4
 74
     0
 42
0.0000000001
 43
0.0000000001
 40
1.0
 40
1.0
 40
1.0
 40
1.0
 40
2.0
 40
2.0
 40
2.0
 40
2.0
 10
-42.61272705758199
 20
11.12700772803271
 30
0.0
 10
-42.42552535550969
 20
11.12700772803271
 30
0.0
 10
-35.44534610096667
 20
11.12700772803271
 30
0.0
 10
-35.25833387430147
 20
11.12700772803271
 30
0.0
  0
LINE
  5
45
330
2
100
AcDbEntity
  8
GAIKEI
 62
     1
100
AcDbLine
 10
-30.14060313242908
 20
13.52330319980092
 30
0.0
 11
-30.43978480001204
 21
13.66351500094811
 31
0.0
  0
LINE
  5
46
330
2
100
AcDbEntity
  8
GAIKEI
 62
     1
100
AcDbLine
 10
-30.14060313242908
 20
13.80429522831616
 30
0.0
 11
-30.14060313242908
 21
13.52330319980092
 31
0.0
  0
LINE
  5
47
330
2
100
AcDbEntity
  8
GAIKEI
 62
     1
100
AcDbLine
 10
-30.43978480001204
 20
13.66351500094811
 30
0.0
 11
-30.14060313242908
 21
13.80429522831616
 31
0.0
  0
LINE
  5
48
330
2
100
AcDbEntity
  8
GAIKEI
 62
     1
100
AcDbLine
 10
-30.07381305147715
 20
13.80467417913007
 30
0.0
 11
-30.0177283310183
 21
13.80467417913007
 31
0.0
  0
LINE
  5
49
330
2
100
AcDbEntity
  8
GAIKEI
 62
     1
100
AcDbLine
 10
-30.07381305147715
 20
13.5242505768357
 30
0.0
 11
-30.07381305147715
 21
13.80467417913007
 31
0.0
  0
LINE
  5
4A
330
2
100
AcDbEntity
  8
GAIKEI
 62
     1
100
AcDbLine
 10
-30.0177283310183
 20
13.5242505768357
 30
0.0
 11
-30.07381305147715
 21
13.5242505768357
 31
0.0
  0
LINE
  5
4B
330
2
100
AcDbEntity
  8
GAIKEI
 62
     1
100
AcDbLine
 10
-30.0177283310183
 20
13.80467417913007
 30
0.0
 11
-30.0177283310183
 21
13.5242505768357
 31
0.0
  0
LINE
  5
4C
330
2
100
AcDbEntity
  8
GAIKEI
 62
     1
100
AcDbLine
 10
-29.95273826643256
 20
13.80467417913007
 30
0.0
 11
-29.89703249678758
 21
13.80467417913007
 31
0.0
  0
LINE
  5
4D
330
2
100
AcDbEntity
  8
GAIKEI
 62
     1
100
AcDbLine
 10
-29.95273826643256
 20
13.5242505768357
 30
0.0
 11
-29.95273826643256
 21
13.80467417913007
 31
0.0
  0
LINE
  5
4E
330
2
100
AcDbEntity
  8
GAIKEI
 62
     1
100
AcDbLine
 10
-29.89703249678758
 20
13.5242505768357
 30
0.0
 11
-29.95273826643256
 21
13.5242505768357
 31
0.0
  0
LINE
  5
4F
330
2
100
AcDbEntity
  8
GAIKEI
 62
     1
100
AcDbLine
 10
-29.89703249678758
 20
13.80467417913007
 30
0.0
 11
-29.89703249678758
 21
13.5242505768357
 31
0.0
  0
LINE
  5
50
330
2
100
AcDbEntity
  8
GAIKEI
 62
     1
100
AcDbLine
 10
-29.6898411392815
 20
13.80713735942049
 30
0.0
 11
-29.63375641882266
 21
13.80713735942049
 31
0.0
  0
LINE
  5
51
330
2
100
AcDbEntity
  8
GAIKEI
 62
     1
100
AcDbLine
 10
-29.6898411392815
 20
13.52652428171916
 30
0.0
 11
-29.6898411392815
 21
13.80713735942049
 31
0.0
  0
LINE
  5
52
330
2
100
AcDbEntity
  8
GAIKEI
 62
     1
100
AcDbLine
 10
-29.63375641882266
 20
13.52652428171916
 30
0.0
 11
-29.6898411392815
 21
13.52652428171916
 31
0.0
  0
LINE
  5
53
330
2
100
AcDbEntity
  8
GAIKEI
 62
     1
100
AcDbLine
 10
-29.63375641882266
 20
13.80713735942049
 30
0.0
 11
-29.63375641882266
 21
13.52652428171916
 31
0.0
  0
LINE
  5
54
330
2
100
AcDbEntity
  8
GAIKEI
 62
     1
100
AcDbLine
 10
-29.5685768788299
 20
13.80713735942049
 30
0.0
 11
-29.51249215837106
 21
13.80713735942049
 31
0.0
  0
LINE
  5
55
330
2
100
AcDbEntity
  8
GAIKEI
 62
     1
100
AcDbLine
 10
-29.5685768788299
 20
13.52652428171916
 30
0.0
 11
-29.5685768788299
 21
13.80713735942049
 31
0.0
  0
LINE
  5
56
330
2
100
AcDbEntity
  8
GAIKEI
 62
     1
100
AcDbLine
 10
-29.51249215837106
 20
13.52652428171916
 30
0.0
 11
-29.5685768788299
 21
13.52652428171916
 31
0.0
  0
LINE
  5
57
330
2
100
AcDbEntity
  8
GAIKEI
 62
     1
100
AcDbLine
 10
-29.51249215837106
 20
13.80713735942049
 30
0.0
 11
-29.51249215837106
 21
13.52652428171916
 31
0.0
  0
LINE
  5
58
330
2
100
AcDbEntity
  8
GAIKEI
 62
     1
100
AcDbLine
 10
-29.11440432835724
 20
13.66654660745939
 30
0.0
 11
-29.44598629052963
 21
13.52595585549829
 31
0.0
  0
LINE
  5
59
330
2
100
AcDbEntity
  8
GAIKEI
 62
     1
100
AcDbLine
 10
-29.44598629052963
 20
13.80637945779267
 30
0.0
 11
-29.11440432835724
 21
13.66654660745939
 31
0.0
  0
LINE
  5
5A
330
2
100
AcDbEntity
  8
GAIKEI
 62
     1
100
AcDbLine
 10
-29.44598629052963
 20
13.52595585549829
 30
0.0
 11
-29.44598629052963
 21
13.80637945779267
 31
0.0
  0
LINE
  5
5B
330
2
100
AcDbEntity
  8
GAIKEI
 62
     1
100
AcDbLine
 10
-27.79205546321362
 20
15.89913532761794
 30
0.0
 11
-27.45564187816382
 21
15.89913532761794
 31
0.0
  0
LINE
  5
5C
330
2
100
AcDbEntity
  8
GAIKEI
 62
     1
100
AcDbLine
 10
-27.79205546321362
 20
15.13024412619188
 30
0.0
 11
-27.79205546321362
 21
15.89913532761794
 31
0.0
  0
LINE
  5
5D
330
2
100
AcDbEntity
  8
GAIKEI
 62
     1
100
AcDbLine
 10
-27.45564187816382
 20
15.13024412619188
 30
0.0
 11
-27.79205546321362
 21
15.13024412619188
 31
0.0
  0
LINE
  5
5E
330
2
100
AcDbEntity
  8
GAIKEI
 62
     1
100
AcDbLine
 10
-27.45564187816382
 20
15.89913532761794
 30
0.0
 11
-27.45564187816382
 21
15.13024412619188
 31
0.0
  0
LINE
  5
5F
330
2
100
AcDbEntity
  8
GAIKEI
 62
     1
100
AcDbLine
 10
-28.52665161598077
 20
15.82012408291746
 30
0.0
 11
-29.11610960701978
 21
15.82012408291746
 31
0.0
  0
LINE
  5
60
330
2
100
AcDbEntity
  8
GAIKEI
 62
     1
100
AcDbLine
 10
-28.52665161598077
 20
15.64050139712344
 30
0.0
 11
-28.52665161598077
 21
15.82012408291746
 31
0.0
  0
LINE
  5
61
330
2
100
AcDbEntity
  8
GAIKEI
 62
     1
100
AcDbLine
 10
-29.11610960701978
 20
15.64050139712344
 30
0.0
 11
-28.52665161598077
 21
15.64050139712344
 31
0.0
  0
LINE
  5
62
330
2
100
AcDbEntity
  8
GAIKEI
 62
     1
100
AcDbLine
 10
-29.11610960701978
 20
15.82012408291746
 30
0.0
 11
-29.11610960701978
 21
15.64050139712344
 31
0.0
  0
LINE
  5
63
330
2
100
AcDbEntity
  8
GAIKEI
 62
     1
100
AcDbLine
 10
-25.40097056513668
 20
15.89913532761794
 30
0.0
 11
-25.06417802927297
 21
15.89913532761794
 31
0.0
  0
LINE
  5
64
330
2
100
AcDbEntity
  8
GAIKEI
 62
     1
100
AcDbLine
 10
-25.40097056513668
 20
15.13024412619188
 30
0.0
 11
-25.40097056513668
 21
15.89913532761794
 31
0.0
  0
LINE
  5
65
330
2
100
AcDbEntity
  8
GAIKEI
 62
     1
100
AcDbLine
 10
-25.06417802927297
 20
15.13024412619188
 30
0.0
 11
-25.40097056513668
 21
15.13024412619188
 31
0.0
  0
LINE
  5
66
330
2
100
AcDbEntity
  8
GAIKEI
 62
     1
100
AcDbLine
 10
-25.06417802927297
 20
15.89913532761794
 30
0.0
 11
-25.06417802927297
 21
15.13024412619188
 31
0.0
  0
LINE
  5
67
330
2
100
AcDbEntity
  8
GAIKEI
 62
     1
100
AcDbLine
 10
-26.13537724249682
 20
15.82012408291746
 30
0.0
 11
-26.72455102042545
 21
15.82012408291746
 31
0.0
  0
LINE
  5
68
330
2
100
AcDbEntity
  8
GAIKEI
 62
     1
100
AcDbLine
 10
-26.13537724249682
 20
15.6405013971235
 30
0.0
 11
-26.13537724249682
 21
15.82012408291746
 31
0.0
  0
LINE
  5
69
330
2
100
AcDbEntity
  8
GAIKEI
 62
     1
100
AcDbLine
 10
-26.72455102042545
 20
15.6405013971235
 30
0.0
 11
-26.13537724249682
 21
15.6405013971235
 31
0.0
  0
LINE
  5
6A
330
2
100
AcDbEntity
  8
GAIKEI
 62
     1
100
AcDbLine
 10
-26.72455102042545
 20
15.82012408291746
 30
0.0
 11
-26.72455102042545
 21
15.6405013971235
 31
0.0
  0
LINE
  5
6B
330
2
100
AcDbEntity
  8
GAIKEI
 62
     1
100
AcDbLine
 10
-24.03134758595769
 20
14.9572530796413
 30
0.0
 11
-24.28789728697565
 21
15.05748556992091
 31
0.0
  0
LINE
  5
6C
330
2
100
AcDbEntity
  8
GAIKEI
 62
     1
100
AcDbLine
 10
-24.03134758595769
 20
15.15790753560736
 30
0.0
 11
-24.03134758595769
 21
14.9572530796413
 31
0.0
  0
LINE
  5
6D
330
2
100
AcDbEntity
  8
GAIKEI
 62
     1
100
AcDbLine
 10
-24.28789728697565
 20
15.05748556992091
 30
0.0
 11
-24.03134758595769
 21
15.15790753560736
 31
0.0
  0
LINE
  5
6E
330
2
100
AcDbEntity
  8
GAIKEI
 62
     1
100
AcDbLine
 10
-23.98672612761959
 20
15.15809701101438
 30
0.0
 11
-23.93822042343891
 21
15.15809701101438
 31
0.0
  0
LINE
  5
6F
330
2
100
AcDbEntity
  8
GAIKEI
 62
     1
100
AcDbLine
 10
-23.98672612761959
 20
14.95782150586217
 30
0.0
 11
-23.98672612761959
 21
15.15809701101438
 31
0.0
  0
LINE
  5
70
330
2
100
AcDbEntity
  8
GAIKEI
 62
     1
100
AcDbLine
 10
-23.93822042343891
 20
14.95782150586217
 30
0.0
 11
-23.98672612761959
 21
14.95782150586217
 31
0.0
  0
LINE
  5
71
330
2
100
AcDbEntity
  8
GAIKEI
 62
     1
100
AcDbLine
 10
-23.93822042343891
 20
15.15809701101438
 30
0.0
 11
-23.93822042343891
 21
14.95782150586217
 31
0.0
  0
LINE
  5
72
330
2
100
AcDbEntity
  8
GAIKEI
 62
     1
100
AcDbLine
 10
-23.90288326004173
 20
15.15809701101438
 30
0.0
 11
-23.85513545748893
 21
15.15809701101438
 31
0.0
  0
LINE
  5
73
330
2
100
AcDbEntity
  8
GAIKEI
 62
     1
100
AcDbLine
 10
-23.90288326004173
 20
14.95782150586217
 30
0.0
 11
-23.90288326004173
 21
15.15809701101438
 31
0.0
  0
LINE
  5
74
330
2
100
AcDbEntity
  8
GAIKEI
 62
     1
100
AcDbLine
 10
-23.85513545748893
 20
14.95782150586217
 30
0.0
 11
-23.90288326004173
 21
14.95782150586217
 31
0.0
  0
LINE
  5
75
330
2
100
AcDbEntity
  8
GAIKEI
 62
     1
100
AcDbLine
 10
-23.85513545748893
 20
15.15809701101438
 30
0.0
 11
-23.85513545748893
 21
14.95782150586217
 31
0.0
  0
LINE
  5
76
330
2
100
AcDbEntity
  8
GAIKEI
 62
     1
100
AcDbLine
 10
-20.01446895849767
 20
15.05748556992091
 30
0.0
 11
-20.27101865951568
 21
14.9572530796413
 31
0.0
  0
LINE
  5
77
330
2
100
AcDbEntity
  8
GAIKEI
 62
     1
100
AcDbLine
 10
-20.27101865951568
 20
15.15790753560736
 30
0.0
 11
-20.01446895849767
 21
15.05748556992091
 31
0.0
  0
LINE
  5
78
330
2
100
AcDbEntity
  8
GAIKEI
 62
     1
100
AcDbLine
 10
-20.27101865951568
 20
14.9572530796413
 30
0.0
 11
-20.27101865951568
 21
15.15790753560736
 31
0.0
  0
LINE
  5
79
330
2
100
AcDbEntity
  8
GAIKEI
 62
     1
100
AcDbLine
 10
-20.36395634662739
 20
15.15809701101438
 30
0.0
 11
-20.31582959326067
 21
15.15809701101438
 31
0.0
  0
LINE
  5
7A
330
2
100
AcDbEntity
  8
GAIKEI
 62
     1
100
AcDbLine
 10
-20.36395634662739
 20
14.95782150586217
 30
0.0
 11
-20.36395634662739
 21
15.15809701101438
 31
0.0
  0
LINE
  5
7B
330
2
100
AcDbEntity
  8
GAIKEI
 62
     1
100
AcDbLine
 10
-20.31582959326067
 20
14.95782150586217
 30
0.0
 11
-20.36395634662739
 21
14.95782150586217
 31
0.0
  0
LINE
  5
7C
330
2
100
AcDbEntity
  8
GAIKEI
 62
     1
100
AcDbLine
 10
-20.31582959326067
 20
15.15809701101438
 30
0.0
 11
-20.31582959326067
 21
14.95782150586217
 31
0.0
  0
LINE
  5
7D
330
2
100
AcDbEntity
  8
GAIKEI
 62
     1
100
AcDbLine
 10
-20.4474202633914
 20
15.15809701101438
 30
0.0
 11
-20.39929351002462
 21
15.15809701101438
 31
0.0
  0
LINE
  5
7E
330
2
100
AcDbEntity
  8
GAIKEI
 62
     1
100
AcDbLine
 10
-20.4474202633914
 20
14.95782150586217
 30
0.0
 11
-20.4474202633914
 21
15.15809701101438
 31
0.0
  0
LINE
  5
7F
330
2
100
AcDbEntity
  8
GAIKEI
 62
     1
100
AcDbLine
 10
-20.39929351002462
 20
14.95782150586217
 30
0.0
 11
-20.4474202633914
 21
14.95782150586217
 31
0.0
  0
LINE
  5
80
330
2
100
AcDbEntity
  8
GAIKEI
 62
     1
100
AcDbLine
 10
-20.39929351002462
 20
15.15809701101438
 30
0.0
 11
-20.39929351002462
 21
14.95782150586217
 31
0.0
  0
LINE
  5
81
330
2
100
AcDbEntity
  8
GAIKEI
 62
     1
100
AcDbLine
 10
15.46428901732946
 20
12.88060261940734
 30
0.0
 11
15.46428901732946
 21
13.38479667731633
 31
0.0
  0
LINE
  5
82
330
2
100
AcDbEntity
  8
GAIKEI
 62
     1
100
AcDbLine
 10
15.21929731613579
 20
12.88060261940734
 30
0.0
 11
15.46428901732946
 21
12.88060261940734
 31
0.0
  0
LINE
  5
83
330
2
100
AcDbEntity
  8
GAIKEI
 62
     1
100
AcDbLine
 10
15.21929731613579
 20
13.38479667731633
 30
0.0
 11
15.21929731613579
 21
12.88060261940734
 31
0.0
  0
LINE
  5
84
330
2
100
AcDbEntity
  8
GAIKEI
 62
     1
100
AcDbLine
 10
15.46428901732946
 20
13.38479667731633
 30
0.0
 11
15.21929731613579
 21
13.38479667731633
 31
0.0
  0
LINE
  5
85
330
2
100
AcDbEntity
  8
GAIKEI
 62
     1
100
AcDbLine
 10
15.96033563273943
 20
12.88060261940734
 30
0.0
 11
15.96033563273943
 21
13.38479667731633
 31
0.0
  0
LINE
  5
86
330
2
100
AcDbEntity
  8
GAIKEI
 62
     1
100
AcDbLine
 10
15.7153439315457
 20
12.88060261940734
 30
0.0
 11
15.96033563273943
 21
12.88060261940734
 31
0.0
  0
LINE
  5
87
330
2
100
AcDbEntity
  8
GAIKEI
 62
     1
100
AcDbLine
 10
15.7153439315457
 20
13.38479667731633
 30
0.0
 11
15.7153439315457
 21
12.88060261940734
 31
0.0
  0
LINE
  5
88
330
2
100
AcDbEntity
  8
GAIKEI
 62
     1
100
AcDbLine
 10
15.96033563273943
 20
13.38479667731633
 30
0.0
 11
15.7153439315457
 21
13.38479667731633
 31
0.0
  0
LINE
  5
89
330
2
100
AcDbEntity
  8
GAIKEI
 62
     1
100
AcDbLine
 10
16.45638224814934
 20
12.88060261940734
 30
0.0
 11
16.45638224814934
 21
13.38479667731633
 31
0.0
  0
LINE
  5
8A
330
2
100
AcDbEntity
  8
GAIKEI
 62
     1
100
AcDbLine
 10
16.21139054695561
 20
12.88060261940734
 30
0.0
 11
16.45638224814934
 21
12.88060261940734
 31
0.0
  0
LINE
  5
8B
330
2
100
AcDbEntity
  8
GAIKEI
 62
     1
100
AcDbLine
 10
16.21139054695561
 20
13.38479667731633
 30
0.0
 11
16.21139054695561
 21
12.88060261940734
 31
0.0
  0
LINE
  5
8C
330
2
100
AcDbEntity
  8
GAIKEI
 62
     1
100
AcDbLine
 10
16.45638224814934
 20
13.38479667731633
 30
0.0
 11
16.21139054695561
 21
13.38479667731633
 31
0.0
  0
LINE
  5
8D
330
2
100
AcDbEntity
  8
GAIKEI
 62
     1
100
AcDbLine
 10
16.95280781437316
 20
12.88060261940734
 30
0.0
 11
16.95280781437316
 21
13.38479667731633
 31
0.0
  0
LINE
  5
8E
330
2
100
AcDbEntity
  8
GAIKEI
 62
     1
100
AcDbLine
 10
16.70743716236558
 20
12.88060261940734
 30
0.0
 11
16.95280781437316
 21
12.88060261940734
 31
0.0
  0
LINE
  5
8F
330
2
100
AcDbEntity
  8
GAIKEI
 62
     1
100
AcDbLine
 10
16.70743716236558
 20
13.38479667731633
 30
0.0
 11
16.70743716236558
 21
12.88060261940734
 31
0.0
  0
LINE
  5
90
330
2
100
AcDbEntity
  8
GAIKEI
 62
     1
100
AcDbLine
 10
16.95280781437316
 20
13.38479667731633
 30
0.0
 11
16.70743716236558
 21
13.38479667731633
 31
0.0
  0
LINE
  5
91
330
2
100
AcDbEntity
  8
GAIKEI
 62
     1
100
AcDbLine
 10
17.44866495437611
 20
12.88060261940734
 30
0.0
 11
17.44866495437611
 21
13.38479667731633
 31
0.0
  0
LINE
  5
92
330
2
100
AcDbEntity
  8
GAIKEI
 62
     1
100
AcDbLine
 10
17.20367325318244
 20
12.88060261940734
 30
0.0
 11
17.44866495437611
 21
12.88060261940734
 31
0.0
  0
LINE
  5
93
330
2
100
AcDbEntity
  8
GAIKEI
 62
     1
100
AcDbLine
 10
17.20367325318244
 20
13.38479667731633
 30
0.0
 11
17.20367325318244
 21
12.88060261940734
 31
0.0
  0
LINE
  5
94
330
2
100
AcDbEntity
  8
GAIKEI
 62
     1
100
AcDbLine
 10
17.44866495437611
 20
13.38479667731633
 30
0.0
 11
17.20367325318244
 21
13.38479667731633
 31
0.0
  0
LINE
  5
95
330
2
100
AcDbEntity
  8
GAIKEI
 62
     1
100
AcDbLine
 10
17.94509052059993
 20
12.88060261940734
 30
0.0
 11
17.94509052059993
 21
13.38479667731633
 31
0.0
  0
LINE
  5
96
330
2
100
AcDbEntity
  8
GAIKEI
 62
     1
100
AcDbLine
 10
17.69990934399931
 20
12.88060261940734
 30
0.0
 11
17.94509052059993
 21
12.88060261940734
 31
0.0
  0
LINE
  5
97
330
2
100
AcDbEntity
  8
GAIKEI
 62
     1
100
AcDbLine
 10
17.69990934399931
 20
13.38479667731633
 30
0.0
 11
17.69990934399931
 21
12.88060261940734
 31
0.0
  0
LINE
  5
98
330
2
100
AcDbEntity
  8
GAIKEI
 62
     1
100
AcDbLine
 10
17.94509052059993
 20
13.38479667731633
 30
0.0
 11
17.69990934399931
 21
13.38479667731633
 31
0.0
  0
LINE
  5
99
330
2
100
AcDbEntity
  8
GAIKEI
 62
     1
100
AcDbLine
 10
18.44113713600984
 20
12.88060261940734
 30
0.0
 11
18.44113713600984
 21
13.38479667731633
 31
0.0
  0
LINE
  5
9A
330
2
100
AcDbEntity
  8
GAIKEI
 62
     1
100
AcDbLine
 10
18.19614543481617
 20
12.88060261940734
 30
0.0
 11
18.44113713600984
 21
12.88060261940734
 31
0.0
  0
LINE
  5
9B
330
2
100
AcDbEntity
  8
GAIKEI
 62
     1
100
AcDbLine
 10
18.19614543481617
 20
13.38479667731633
 30
0.0
 11
18.19614543481617
 21
12.88060261940734
 31
0.0
  0
LINE
  5
9C
330
2
100
AcDbEntity
  8
GAIKEI
 62
     1
100
AcDbLine
 10
18.44113713600984
 20
13.38479667731633
 30
0.0
 11
18.19614543481617
 21
13.38479667731633
 31
0.0
  0
LINE
  5
9D
330
2
100
AcDbEntity
  8
GAIKEI
 62
     1
100
AcDbLine
 10
18.93718375141975
 20
12.88060261940734
 30
0.0
 11
18.93718375141975
 21
13.38479667731633
 31
0.0
  0
LINE
  5
9E
330
2
100
AcDbEntity
  8
GAIKEI
 62
     1
100
AcDbLine
 10
18.69200257481917
 20
12.88060261940734
 30
0.0
 11
18.93718375141975
 21
12.88060261940734
 31
0.0
  0
LINE
  5
9F
330
2
100
AcDbEntity
  8
GAIKEI
 62
     1
100
AcDbLine
 10
18.69200257481917
 20
13.38479667731633
 30
0.0
 11
18.69200257481917
 21
12.88060261940734
 31
0.0
  0
LINE
  5
A0
330
2
100
AcDbEntity
  8
GAIKEI
 62
     1
100
AcDbLine
 10
18.93718375141975
 20
13.38479667731633
 30
0.0
 11
18.69200257481917
 21
13.38479667731633
 31
0.0
  0
LINE
  5
A1
330
2
100
AcDbEntity
  8
GAIKEI
 62
     1
100
AcDbLine
 10
19.43341984223662
 20
12.88060261940734
 30
0.0
 11
19.43341984223662
 21
13.38479667731633
 31
0.0
  0
LINE
  5
A2
330
2
100
AcDbEntity
  8
GAIKEI
 62
     1
100
AcDbLine
 10
19.18823866563599
 20
12.88060261940734
 30
0.0
 11
19.43341984223662
 21
12.88060261940734
 31
0.0
  0
LINE
  5
A3
330
2
100
AcDbEntity
  8
GAIKEI
 62
     1
100
AcDbLine
 10
19.18823866563599
 20
13.38479667731633
 30
0.0
 11
19.18823866563599
 21
12.88060261940734
 31
0.0
  0
LINE
  5
A4
330
2
100
AcDbEntity
  8
GAIKEI
 62
     1
100
AcDbLine
 10
19.43341984223662
 20
13.38479667731633
 30
0.0
 11
19.18823866563599
 21
13.38479667731633
 31
0.0
  0
LINE
  5
A5
330
2
100
AcDbEntity
  8
GAIKEI
 62
     1
100
AcDbLine
 10
19.92927698223963
 20
12.88060261940734
 30
0.0
 11
19.92927698223963
 21
13.38479667731633
 31
0.0
  0
LINE
  5
A6
330
2
100
AcDbEntity
  8
GAIKEI
 62
     1
100
AcDbLine
 10
19.68447475645286
 20
12.88060261940734
 30
0.0
 11
19.92927698223963
 21
12.88060261940734
 31
0.0
  0
LINE
  5
A7
330
2
100
AcDbEntity
  8
GAIKEI
 62
     1
100
AcDbLine
 10
19.68447475645286
 20
13.38479667731633
 30
0.0
 11
19.68447475645286
 21
12.88060261940734
 31
0.0
  0
LINE
  5
A8
330
2
100
AcDbEntity
  8
GAIKEI
 62
     1
100
AcDbLine
 10
19.92927698223963
 20
13.38479667731633
 30
0.0
 11
19.68447475645286
 21
13.38479667731633
 31
0.0
  0
LINE
  5
A9
330
2
100
AcDbEntity
  8
GAIKEI
 62
     1
100
AcDbLine
 10
20.42570254846345
 20
12.88060261940734
 30
0.0
 11
20.42570254846345
 21
13.38479667731633
 31
0.0
  0
LINE
  5
AA
330
2
100
AcDbEntity
  8
GAIKEI
 62
     1
100
AcDbLine
 10
20.18052137186282
 20
12.88060261940734
 30
0.0
 11
20.42570254846345
 21
12.88060261940734
 31
0.0
  0
LINE
  5
AB
330
2
100
AcDbEntity
  8
GAIKEI
 62
     1
100
AcDbLine
 10
20.18052137186282
 20
13.38479667731633
 30
0.0
 11
20.18052137186282
 21
12.88060261940734
 31
0.0
  0
LINE
  5
AC
330
2
100
AcDbEntity
  8
GAIKEI
 62
     1
100
AcDbLine
 10
20.42570254846345
 20
13.38479667731633
 30
0.0
 11
20.18052137186282
 21
13.38479667731633
 31
0.0
  0
LINE
  5
AD
330
2
100
AcDbEntity
  8
GAIKEI
 62
     1
100
AcDbLine
 10
20.92193863928031
 20
12.88060261940734
 30
0.0
 11
20.92193863928031
 21
13.38479667731633
 31
0.0
  0
LINE
  5
AE
330
2
100
AcDbEntity
  8
GAIKEI
 62
     1
100
AcDbLine
 10
20.67656798727274
 20
12.88060261940734
 30
0.0
 11
20.92193863928031
 21
12.88060261940734
 31
0.0
  0
LINE
  5
AF
330
2
100
AcDbEntity
  8
GAIKEI
 62
     1
100
AcDbLine
 10
20.67656798727274
 20
13.38479667731633
 30
0.0
 11
20.67656798727274
 21
12.88060261940734
 31
0.0
  0
LINE
  5
B0
330
2
100
AcDbEntity
  8
GAIKEI
 62
     1
100
AcDbLine
 10
20.92193863928031
 20
13.38479667731633
 30
0.0
 11
20.67656798727274
 21
13.38479667731633
 31
0.0
  0
LINE
  5
B1
330
2
100
AcDbEntity
  8
GAIKEI
 62
     1
100
AcDbLine
 10
21.41779577928327
 20
12.88060261940734
 30
0.0
 11
21.41779577928327
 21
13.38479667731633
 31
0.0
  0
LINE
  5
B2
330
2
100
AcDbEntity
  8
GAIKEI
 62
     1
100
AcDbLine
 10
21.1728040780896
 20
12.88060261940734
 30
0.0
 11
21.41779577928327
 21
12.88060261940734
 31
0.0
  0
LINE
  5
B3
330
2
100
AcDbEntity
  8
GAIKEI
 62
     1
100
AcDbLine
 10
21.1728040780896
 20
13.38479667731633
 30
0.0
 11
21.1728040780896
 21
12.88060261940734
 31
0.0
  0
LINE
  5
B4
330
2
100
AcDbEntity
  8
GAIKEI
 62
     1
100
AcDbLine
 10
21.41779577928327
 20
13.38479667731633
 30
0.0
 11
21.1728040780896
 21
13.38479667731633
 31
0.0
  0
LINE
  5
B5
330
2
100
AcDbEntity
  8
GAIKEI
 62
     1
100
AcDbLine
 10
21.91403187010019
 20
12.88060261940734
 30
0.0
 11
21.91403187010019
 21
13.38479667731633
 31
0.0
  0
LINE
  5
B6
330
2
100
AcDbEntity
  8
GAIKEI
 62
     1
100
AcDbLine
 10
21.66885069349951
 20
12.88060261940734
 30
0.0
 11
21.91403187010019
 21
12.88060261940734
 31
0.0
  0
LINE
  5
B7
330
2
100
AcDbEntity
  8
GAIKEI
 62
     1
100
AcDbLine
 10
21.66885069349951
 20
13.38479667731633
 30
0.0
 11
21.66885069349951
 21
12.88060261940734
 31
0.0
  0
LINE
  5
B8
330
2
100
AcDbEntity
  8
GAIKEI
 62
     1
100
AcDbLine
 10
21.91403187010019
 20
13.38479667731633
 30
0.0
 11
21.66885069349951
 21
13.38479667731633
 31
0.0
  0
LINE
  5
B9
330
2
100
AcDbEntity
  8
GAIKEI
 62
     1
100
AcDbLine
 10
22.41026796091706
 20
12.88060261940734
 30
0.0
 11
22.41026796091706
 21
13.38479667731633
 31
0.0
  0
LINE
  5
BA
330
2
100
AcDbEntity
  8
GAIKEI
 62
     1
100
AcDbLine
 10
22.16527625972338
 20
12.88060261940734
 30
0.0
 11
22.41026796091706
 21
12.88060261940734
 31
0.0
  0
LINE
  5
BB
330
2
100
AcDbEntity
  8
GAIKEI
 62
     1
100
AcDbLine
 10
22.16527625972338
 20
13.38479667731633
 30
0.0
 11
22.16527625972338
 21
12.88060261940734
 31
0.0
  0
LINE
  5
BC
330
2
100
AcDbEntity
  8
GAIKEI
 62
     1
100
AcDbLine
 10
22.41026796091706
 20
13.38479667731633
 30
0.0
 11
22.16527625972338
 21
13.38479667731633
 31
0.0
  0
LINE
  5
BD
330
2
100
AcDbEntity
  8
GAIKEI
 62
     1
100
AcDbLine
 10
22.90631457632696
 20
12.88060261940734
 30
0.0
 11
22.90631457632696
 21
13.38479667731633
 31
0.0
  0
LINE
  5
BE
330
2
100
AcDbEntity
  8
GAIKEI
 62
     1
100
AcDbLine
 10
22.66113339972634
 20
12.88060261940734
 30
0.0
 11
22.90631457632696
 21
12.88060261940734
 31
0.0
  0
LINE
  5
BF
330
2
100
AcDbEntity
  8
GAIKEI
 62
     1
100
AcDbLine
 10
22.66113339972634
 20
13.38479667731633
 30
0.0
 11
22.66113339972634
 21
12.88060261940734
 31
0.0
  0
LINE
  5
C0
330
2
100
AcDbEntity
  8
GAIKEI
 62
     1
100
AcDbLine
 10
22.90631457632696
 20
13.38479667731633
 30
0.0
 11
22.66113339972634
 21
13.38479667731633
 31
0.0
  0
LINE
  5
C1
330
2
100
AcDbEntity
  8
GAIKEI
 62
     1
100
AcDbLine
 10
15.46428901732946
 20
13.63623054234654
 30
0.0
 11
15.46428901732946
 21
14.14023512484857
 31
0.0
  0
LINE
  5
C2
330
2
100
AcDbEntity
  8
GAIKEI
 62
     1
100
AcDbLine
 10
15.21929731613579
 20
13.63623054234654
 30
0.0
 11
15.46428901732946
 21
13.63623054234654
 31
0.0
  0
LINE
  5
C3
330
2
100
AcDbEntity
  8
GAIKEI
 62
     1
100
AcDbLine
 10
15.21929731613579
 20
14.14023512484857
 30
0.0
 11
15.21929731613579
 21
13.63623054234654
 31
0.0
  0
LINE
  5
C4
330
2
100
AcDbEntity
  8
GAIKEI
 62
     1
100
AcDbLine
 10
15.46428901732946
 20
14.14023512484857
 30
0.0
 11
15.21929731613579
 21
14.14023512484857
 31
0.0
  0
LINE
  5
C5
330
2
100
AcDbEntity
  8
GAIKEI
 62
     1
100
AcDbLine
 10
15.96033563273943
 20
13.63623054234654
 30
0.0
 11
15.96033563273943
 21
14.14023512484857
 31
0.0
  0
LINE
  5
C6
330
2
100
AcDbEntity
  8
GAIKEI
 62
     1
100
AcDbLine
 10
15.7153439315457
 20
13.63623054234654
 30
0.0
 11
15.96033563273943
 21
13.63623054234654
 31
0.0
  0
LINE
  5
C7
330
2
100
AcDbEntity
  8
GAIKEI
 62
     1
100
AcDbLine
 10
15.7153439315457
 20
14.14023512484857
 30
0.0
 11
15.7153439315457
 21
13.63623054234654
 31
0.0
  0
LINE
  5
C8
330
2
100
AcDbEntity
  8
GAIKEI
 62
     1
100
AcDbLine
 10
15.96033563273943
 20
14.14023512484857
 30
0.0
 11
15.7153439315457
 21
14.14023512484857
 31
0.0
  0
LINE
  5
C9
330
2
100
AcDbEntity
  8
GAIKEI
 62
     1
100
AcDbLine
 10
16.45638224814934
 20
13.63623054234654
 30
0.0
 11
16.45638224814934
 21
14.14023512484857
 31
0.0
  0
LINE
  5
CA
330
2
100
AcDbEntity
  8
GAIKEI
 62
     1
100
AcDbLine
 10
16.21139054695561
 20
13.63623054234654
 30
0.0
 11
16.45638224814934
 21
13.63623054234654
 31
0.0
  0
LINE
  5
CB
330
2
100
AcDbEntity
  8
GAIKEI
 62
     1
100
AcDbLine
 10
16.21139054695561
 20
14.14023512484857
 30
0.0
 11
16.21139054695561
 21
13.63623054234654
 31
0.0
  0
LINE
  5
CC
330
2
100
AcDbEntity
  8
GAIKEI
 62
     1
100
AcDbLine
 10
16.45638224814934
 20
14.14023512484857
 30
0.0
 11
16.21139054695561
 21
14.14023512484857
 31
0.0
  0
LINE
  5
CD
330
2
100
AcDbEntity
  8
GAIKEI
 62
     1
100
AcDbLine
 10
16.95280781437316
 20
13.63623054234654
 30
0.0
 11
16.95280781437316
 21
14.14023512484857
 31
0.0
  0
LINE
  5
CE
330
2
100
AcDbEntity
  8
GAIKEI
 62
     1
100
AcDbLine
 10
16.70743716236558
 20
13.63623054234654
 30
0.0
 11
16.95280781437316
 21
13.63623054234654
 31
0.0
  0
LINE
  5
CF
330
2
100
AcDbEntity
  8
GAIKEI
 62
     1
100
AcDbLine
 10
16.70743716236558
 20
14.14023512484857
 30
0.0
 11
16.70743716236558
 21
13.63623054234654
 31
0.0
  0
LINE
  5
D0
330
2
100
AcDbEntity
  8
GAIKEI
 62
     1
100
AcDbLine
 10
16.95280781437316
 20
14.14023512484857
 30
0.0
 11
16.70743716236558
 21
14.14023512484857
 31
0.0
  0
LINE
  5
D1
330
2
100
AcDbEntity
  8
GAIKEI
 62
     1
100
AcDbLine
 10
17.44866495437611
 20
13.63623054234654
 30
0.0
 11
17.44866495437611
 21
14.14023512484857
 31
0.0
  0
LINE
  5
D2
330
2
100
AcDbEntity
  8
GAIKEI
 62
     1
100
AcDbLine
 10
17.20367325318244
 20
13.63623054234654
 30
0.0
 11
17.44866495437611
 21
13.63623054234654
 31
0.0
  0
LINE
  5
D3
330
2
100
AcDbEntity
  8
GAIKEI
 62
     1
100
AcDbLine
 10
17.20367325318244
 20
14.14023512484857
 30
0.0
 11
17.20367325318244
 21
13.63623054234654
 31
0.0
  0
LINE
  5
D4
330
2
100
AcDbEntity
  8
GAIKEI
 62
     1
100
AcDbLine
 10
17.44866495437611
 20
14.14023512484857
 30
0.0
 11
17.20367325318244
 21
14.14023512484857
 31
0.0
  0
LINE
  5
D5
330
2
100
AcDbEntity
  8
GAIKEI
 62
     1
100
AcDbLine
 10
17.94509052059993
 20
13.63623054234654
 30
0.0
 11
17.94509052059993
 21
14.14023512484857
 31
0.0
  0
LINE
  5
D6
330
2
100
AcDbEntity
  8
GAIKEI
 62
     1
100
AcDbLine
 10
17.69990934399931
 20
13.63623054234654
 30
0.0
 11
17.94509052059993
 21
13.63623054234654
 31
0.0
  0
LINE
  5
D7
330
2
100
AcDbEntity
  8
GAIKEI
 62
     1
100
AcDbLine
 10
17.69990934399931
 20
14.14023512484857
 30
0.0
 11
17.69990934399931
 21
13.63623054234654
 31
0.0
  0
LINE
  5
D8
330
2
100
AcDbEntity
  8
GAIKEI
 62
     1
100
AcDbLine
 10
17.94509052059993
 20
14.14023512484857
 30
0.0
 11
17.69990934399931
 21
14.14023512484857
 31
0.0
  0
LINE
  5
D9
330
2
100
AcDbEntity
  8
GAIKEI
 62
     1
100
AcDbLine
 10
18.4411371360099
 20
13.63623054234654
 30
0.0
 11
18.4411371360099
 21
14.14023512484857
 31
0.0
  0
LINE
  5
DA
330
2
100
AcDbEntity
  8
GAIKEI
 62
     1
100
AcDbLine
 10
18.19614543481623
 20
13.63623054234654
 30
0.0
 11
18.4411371360099
 21
13.63623054234654
 31
0.0
  0
LINE
  5
DB
330
2
100
AcDbEntity
  8
GAIKEI
 62
     1
100
AcDbLine
 10
18.19614543481623
 20
14.14023512484857
 30
0.0
 11
18.19614543481623
 21
13.63623054234654
 31
0.0
  0
LINE
  5
DC
330
2
100
AcDbEntity
  8
GAIKEI
 62
     1
100
AcDbLine
 10
18.4411371360099
 20
14.14023512484857
 30
0.0
 11
18.19614543481623
 21
14.14023512484857
 31
0.0
  0
LINE
  5
DD
330
2
100
AcDbEntity
  8
GAIKEI
 62
     1
100
AcDbLine
 10
18.93718375141981
 20
13.63623054234654
 30
0.0
 11
18.93718375141981
 21
14.14023512484857
 31
0.0
  0
LINE
  5
DE
330
2
100
AcDbEntity
  8
GAIKEI
 62
     1
100
AcDbLine
 10
18.69200257481917
 20
13.63623054234654
 30
0.0
 11
18.93718375141981
 21
13.63623054234654
 31
0.0
  0
LINE
  5
DF
330
2
100
AcDbEntity
  8
GAIKEI
 62
     1
100
AcDbLine
 10
18.69200257481917
 20
14.14023512484857
 30
0.0
 11
18.69200257481917
 21
13.63623054234654
 31
0.0
  0
LINE
  5
E0
330
2
100
AcDbEntity
  8
GAIKEI
 62
     1
100
AcDbLine
 10
18.93718375141981
 20
14.14023512484857
 30
0.0
 11
18.69200257481917
 21
14.14023512484857
 31
0.0
  0
LINE
  5
E1
330
2
100
AcDbEntity
  8
GAIKEI
 62
     1
100
AcDbLine
 10
19.43341984223667
 20
13.63623054234654
 30
0.0
 11
19.43341984223667
 21
14.14023512484857
 31
0.0
  0
LINE
  5
E2
330
2
100
AcDbEntity
  8
GAIKEI
 62
     1
100
AcDbLine
 10
19.18823866563605
 20
13.63623054234654
 30
0.0
 11
19.43341984223667
 21
13.63623054234654
 31
0.0
  0
LINE
  5
E3
330
2
100
AcDbEntity
  8
GAIKEI
 62
     1
100
AcDbLine
 10
19.18823866563605
 20
14.14023512484857
 30
0.0
 11
19.18823866563605
 21
13.63623054234654
 31
0.0
  0
LINE
  5
E4
330
2
100
AcDbEntity
  8
GAIKEI
 62
     1
100
AcDbLine
 10
19.43341984223667
 20
14.14023512484857
 30
0.0
 11
19.18823866563605
 21
14.14023512484857
 31
0.0
  0
LINE
  5
E5
330
2
100
AcDbEntity
  8
GAIKEI
 62
     1
100
AcDbLine
 10
19.92927698223963
 20
13.63623054234654
 30
0.0
 11
19.92927698223963
 21
14.14023512484857
 31
0.0
  0
LINE
  5
E6
330
2
100
AcDbEntity
  8
GAIKEI
 62
     1
100
AcDbLine
 10
19.68447475645291
 20
13.63623054234654
 30
0.0
 11
19.92927698223963
 21
13.63623054234654
 31
0.0
  0
LINE
  5
E7
330
2
100
AcDbEntity
  8
GAIKEI
 62
     1
100
AcDbLine
 10
19.68447475645291
 20
14.14023512484857
 30
0.0
 11
19.68447475645291
 21
13.63623054234654
 31
0.0
  0
LINE
  5
E8
330
2
100
AcDbEntity
  8
GAIKEI
 62
     1
100
AcDbLine
 10
19.92927698223963
 20
14.14023512484857
 30
0.0
 11
19.68447475645291
 21
14.14023512484857
 31
0.0
  0
LINE
  5
E9
330
2
100
AcDbEntity
  8
GAIKEI
 62
     1
100
AcDbLine
 10
20.42570254846345
 20
13.63623054234654
 30
0.0
 11
20.42570254846345
 21
14.14023512484857
 31
0.0
  0
LINE
  5
EA
330
2
100
AcDbEntity
  8
GAIKEI
 62
     1
100
AcDbLine
 10
20.18052137186282
 20
13.63623054234654
 30
0.0
 11
20.42570254846345
 21
13.63623054234654
 31
0.0
  0
LINE
  5
EB
330
2
100
AcDbEntity
  8
GAIKEI
 62
     1
100
AcDbLine
 10
20.18052137186282
 20
14.14023512484857
 30
0.0
 11
20.18052137186282
 21
13.63623054234654
 31
0.0
  0
LINE
  5
EC
330
2
100
AcDbEntity
  8
GAIKEI
 62
     1
100
AcDbLine
 10
20.42570254846345
 20
14.14023512484857
 30
0.0
 11
20.18052137186282
 21
14.14023512484857
 31
0.0
  0
LINE
  5
ED
330
2
100
AcDbEntity
  8
GAIKEI
 62
     1
100
AcDbLine
 10
20.92193863928031
 20
13.63623054234654
 30
0.0
 11
20.92193863928031
 21
14.14023512484857
 31
0.0
  0
LINE
  5
EE
330
2
100
AcDbEntity
  8
GAIKEI
 62
     1
100
AcDbLine
 10
20.67656798727274
 20
13.63623054234654
 30
0.0
 11
20.92193863928031
 21
13.63623054234654
 31
0.0
  0
LINE
  5
EF
330
2
100
AcDbEntity
  8
GAIKEI
 62
     1
100
AcDbLine
 10
20.67656798727274
 20
14.14023512484857
 30
0.0
 11
20.67656798727274
 21
13.63623054234654
 31
0.0
  0
LINE
  5
F0
330
2
100
AcDbEntity
  8
GAIKEI
 62
     1
100
AcDbLine
 10
20.92193863928031
 20
14.14023512484857
 30
0.0
 11
20.67656798727274
 21
14.14023512484857
 31
0.0
  0
LINE
  5
F1
330
2
100
AcDbEntity
  8
GAIKEI
 62
     1
100
AcDbLine
 10
21.41779577928327
 20
13.63623054234654
 30
0.0
 11
21.41779577928327
 21
14.14023512484857
 31
0.0
  0
LINE
  5
F2
330
2
100
AcDbEntity
  8
GAIKEI
 62
     1
100
AcDbLine
 10
21.17280407808966
 20
13.63623054234654
 30
0.0
 11
21.41779577928327
 21
13.63623054234654
 31
0.0
  0
LINE
  5
F3
330
2
100
AcDbEntity
  8
GAIKEI
 62
     1
100
AcDbLine
 10
21.17280407808966
 20
14.14023512484857
 30
0.0
 11
21.17280407808966
 21
13.63623054234654
 31
0.0
  0
LINE
  5
F4
330
2
100
AcDbEntity
  8
GAIKEI
 62
     1
100
AcDbLine
 10
21.41779577928327
 20
14.14023512484857
 30
0.0
 11
21.17280407808966
 21
14.14023512484857
 31
0.0
  0
LINE
  5
F5
330
2
100
AcDbEntity
  8
GAIKEI
 62
     1
100
AcDbLine
 10
21.91403187010019
 20
13.63623054234654
 30
0.0
 11
21.91403187010019
 21
14.14023512484857
 31
0.0
  0
LINE
  5
F6
330
2
100
AcDbEntity
  8
GAIKEI
 62
     1
100
AcDbLine
 10
21.66885069349957
 20
13.63623054234654
 30
0.0
 11
21.91403187010019
 21
13.63623054234654
 31
0.0
  0
LINE
  5
F7
330
2
100
AcDbEntity
  8
GAIKEI
 62
     1
100
AcDbLine
 10
21.66885069349957
 20
14.14023512484857
 30
0.0
 11
21.66885069349957
 21
13.63623054234654
 31
0.0
  0
LINE
  5
F8
330
2
100
AcDbEntity
  8
GAIKEI
 62
     1
100
AcDbLine
 10
21.91403187010019
 20
14.14023512484857
 30
0.0
 11
21.66885069349957
 21
14.14023512484857
 31
0.0
  0
LINE
  5
F9
330
2
100
AcDbEntity
  8
GAIKEI
 62
     1
100
AcDbLine
 10
22.41026796091706
 20
13.63623054234654
 30
0.0
 11
22.41026796091706
 21
14.14023512484857
 31
0.0
  0
LINE
  5
FA
330
2
100
AcDbEntity
  8
GAIKEI
 62
     1
100
AcDbLine
 10
22.16527625972338
 20
13.63623054234654
 30
0.0
 11
22.41026796091706
 21
13.63623054234654
 31
0.0
  0
LINE
  5
FB
330
2
100
AcDbEntity
  8
GAIKEI
 62
     1
100
AcDbLine
 10
22.16527625972338
 20
14.14023512484857
 30
0.0
 11
22.16527625972338
 21
13.63623054234654
 31
0.0
  0
LINE
  5
FC
330
2
100
AcDbEntity
  8
GAIKEI
 62
     1
100
AcDbLine
 10
22.41026796091706
 20
14.14023512484857
 30
0.0
 11
22.16527625972338
 21
14.14023512484857
 31
0.0
  0
LINE
  5
FD
330
2
100
AcDbEntity
  8
GAIKEI
 62
     1
100
AcDbLine
 10
22.90631457632696
 20
13.63623054234654
 30
0.0
 11
22.90631457632696
 21
14.14023512484857
 31
0.0
  0
LINE
  5
FE
330
2
100
AcDbEntity
  8
GAIKEI
 62
     1
100
AcDbLine
 10
22.66113339972634
 20
13.63623054234654
 30
0.0
 11
22.90631457632696
 21
13.63623054234654
 31
0.0
  0
LINE
  5
FF
330
2
100
AcDbEntity
  8
GAIKEI
 62
     1
100
AcDbLine
 10
22.66113339972634
 20
14.14023512484857
 30
0.0
 11
22.66113339972634
 21
13.63623054234654
 31
0.0
  0
LINE
  5
100
330
2
100
AcDbEntity
  8
GAIKEI
 62
     1
100
AcDbLine
 10
22.90631457632696
 20
14.14023512484857
 30
0.0
 11
22.66113339972634
 21
14.14023512484857
 31
0.0
  0
LINE
  5
101
330
2
100
AcDbEntity
  8
GAIKEI
 62
     1
100
AcDbLine
 10
15.46428901732952
 20
14.39166898987878
 30
0.0
 11
15.46428901732952
 21
14.89586304778777
 31
0.0
  0
LINE
  5
102
330
2
100
AcDbEntity
  8
GAIKEI
 62
     1
100
AcDbLine
 10
15.21929731613579
 20
14.39166898987878
 30
0.0
 11
15.46428901732952
 21
14.39166898987878
 31
0.0
  0
LINE
  5
103
330
2
100
AcDbEntity
  8
GAIKEI
 62
     1
100
AcDbLine
 10
15.21929731613579
 20
14.89586304778777
 30
0.0
 11
15.21929731613579
 21
14.39166898987878
 31
0.0
  0
LINE
  5
104
330
2
100
AcDbEntity
  8
GAIKEI
 62
     1
100
AcDbLine
 10
15.46428901732952
 20
14.89586304778777
 30
0.0
 11
15.21929731613579
 21
14.89586304778777
 31
0.0
  0
LINE
  5
105
330
2
100
AcDbEntity
  8
GAIKEI
 62
     1
100
AcDbLine
 10
15.96033563273943
 20
14.39166898987878
 30
0.0
 11
15.96033563273943
 21
14.89586304778777
 31
0.0
  0
LINE
  5
106
330
2
100
AcDbEntity
  8
GAIKEI
 62
     1
100
AcDbLine
 10
15.7153439315457
 20
14.39166898987878
 30
0.0
 11
15.96033563273943
 21
14.39166898987878
 31
0.0
  0
LINE
  5
107
330
2
100
AcDbEntity
  8
GAIKEI
 62
     1
100
AcDbLine
 10
15.7153439315457
 20
14.89586304778777
 30
0.0
 11
15.7153439315457
 21
14.39166898987878
 31
0.0
  0
LINE
  5
108
330
2
100
AcDbEntity
  8
GAIKEI
 62
     1
100
AcDbLine
 10
15.96033563273943
 20
14.89586304778777
 30
0.0
 11
15.7153439315457
 21
14.89586304778777
 31
0.0
  0
LINE
  5
109
330
2
100
AcDbEntity
  8
GAIKEI
 62
     1
100
AcDbLine
 10
16.45638224814934
 20
14.39166898987878
 30
0.0
 11
16.45638224814934
 21
14.89586304778777
 31
0.0
  0
LINE
  5
10A
330
2
100
AcDbEntity
  8
GAIKEI
 62
     1
100
AcDbLine
 10
16.21139054695561
 20
14.39166898987878
 30
0.0
 11
16.45638224814934
 21
14.39166898987878
 31
0.0
  0
LINE
  5
10B
330
2
100
AcDbEntity
  8
GAIKEI
 62
     1
100
AcDbLine
 10
16.21139054695561
 20
14.89586304778777
 30
0.0
 11
16.21139054695561
 21
14.39166898987878
 31
0.0
  0
LINE
  5
10C
330
2
100
AcDbEntity
  8
GAIKEI
 62
     1
100
AcDbLine
 10
16.45638224814934
 20
14.89586304778777
 30
0.0
 11
16.21139054695561
 21
14.89586304778777
 31
0.0
  0
LINE
  5
10D
330
2
100
AcDbEntity
  8
GAIKEI
 62
     1
100
AcDbLine
 10
16.95280781437316
 20
14.39166898987878
 30
0.0
 11
16.95280781437316
 21
14.89586304778777
 31
0.0
  0
LINE
  5
10E
330
2
100
AcDbEntity
  8
GAIKEI
 62
     1
100
AcDbLine
 10
16.70743716236558
 20
14.39166898987878
 30
0.0
 11
16.95280781437316
 21
14.39166898987878
 31
0.0
  0
LINE
  5
10F
330
2
100
AcDbEntity
  8
GAIKEI
 62
     1
100
AcDbLine
 10
16.70743716236558
 20
14.89586304778777
 30
0.0
 11
16.70743716236558
 21
14.39166898987878
 31
0.0
  0
LINE
  5
110
330
2
100
AcDbEntity
  8
GAIKEI
 62
     1
100
AcDbLine
 10
16.95280781437316
 20
14.89586304778777
 30
0.0
 11
16.70743716236558
 21
14.89586304778777
 31
0.0
  0
LINE
  5
111
330
2
100
AcDbEntity
  8
GAIKEI
 62
     1
100
AcDbLine
 10
17.44866495437611
 20
14.39166898987878
 30
0.0
 11
17.44866495437611
 21
14.89586304778777
 31
0.0
  0
LINE
  5
112
330
2
100
AcDbEntity
  8
GAIKEI
 62
     1
100
AcDbLine
 10
17.20367325318244
 20
14.39166898987878
 30
0.0
 11
17.44866495437611
 21
14.39166898987878
 31
0.0
  0
LINE
  5
113
330
2
100
AcDbEntity
  8
GAIKEI
 62
     1
100
AcDbLine
 10
17.20367325318244
 20
14.89586304778777
 30
0.0
 11
17.20367325318244
 21
14.39166898987878
 31
0.0
  0
LINE
  5
114
330
2
100
AcDbEntity
  8
GAIKEI
 62
     1
100
AcDbLine
 10
17.44866495437611
 20
14.89586304778777
 30
0.0
 11
17.20367325318244
 21
14.89586304778777
 31
0.0
  0
LINE
  5
115
330
2
100
AcDbEntity
  8
GAIKEI
 62
     1
100
AcDbLine
 10
17.94509052059993
 20
14.39166898987878
 30
0.0
 11
17.94509052059993
 21
14.89586304778777
 31
0.0
  0
LINE
  5
116
330
2
100
AcDbEntity
  8
GAIKEI
 62
     1
100
AcDbLine
 10
17.69990934399931
 20
14.39166898987878
 30
0.0
 11
17.94509052059993
 21
14.39166898987878
 31
0.0
  0
LINE
  5
117
330
2
100
AcDbEntity
  8
GAIKEI
 62
     1
100
AcDbLine
 10
17.69990934399931
 20
14.89586304778777
 30
0.0
 11
17.69990934399931
 21
14.39166898987878
 31
0.0
  0
LINE
  5
118
330
2
100
AcDbEntity
  8
GAIKEI
 62
     1
100
AcDbLine
 10
17.94509052059993
 20
14.89586304778777
 30
0.0
 11
17.69990934399931
 21
14.89586304778777
 31
0.0
  0
LINE
  5
119
330
2
100
AcDbEntity
  8
GAIKEI
 62
     1
100
AcDbLine
 10
18.4411371360099
 20
14.39166898987878
 30
0.0
 11
18.4411371360099
 21
14.89586304778777
 31
0.0
  0
LINE
  5
11A
330
2
100
AcDbEntity
  8
GAIKEI
 62
     1
100
AcDbLine
 10
18.19614543481623
 20
14.39166898987878
 30
0.0
 11
18.4411371360099
 21
14.39166898987878
 31
0.0
  0
LINE
  5
11B
330
2
100
AcDbEntity
  8
GAIKEI
 62
     1
100
AcDbLine
 10
18.19614543481623
 20
14.89586304778777
 30
0.0
 11
18.19614543481623
 21
14.39166898987878
 31
0.0
  0
LINE
  5
11C
330
2
100
AcDbEntity
  8
GAIKEI
 62
     1
100
AcDbLine
 10
18.4411371360099
 20
14.89586304778777
 30
0.0
 11
18.19614543481623
 21
14.89586304778777
 31
0.0
  0
LINE
  5
11D
330
2
100
AcDbEntity
  8
GAIKEI
 62
     1
100
AcDbLine
 10
18.93718375141981
 20
14.39166898987878
 30
0.0
 11
18.93718375141981
 21
14.89586304778777
 31
0.0
  0
LINE
  5
11E
330
2
100
AcDbEntity
  8
GAIKEI
 62
     1
100
AcDbLine
 10
18.69200257481917
 20
14.39166898987878
 30
0.0
 11
18.93718375141981
 21
14.39166898987878
 31
0.0
  0
LINE
  5
11F
330
2
100
AcDbEntity
  8
GAIKEI
 62
     1
100
AcDbLine
 10
18.69200257481917
 20
14.89586304778777
 30
0.0
 11
18.69200257481917
 21
14.39166898987878
 31
0.0
  0
LINE
  5
120
330
2
100
AcDbEntity
  8
GAIKEI
 62
     1
100
AcDbLine
 10
18.93718375141981
 20
14.89586304778777
 30
0.0
 11
18.69200257481917
 21
14.89586304778777
 31
0.0
  0
LINE
  5
121
330
2
100
AcDbEntity
  8
GAIKEI
 62
     1
100
AcDbLine
 10
19.43341984223667
 20
14.39166898987878
 30
0.0
 11
19.43341984223667
 21
14.89586304778777
 31
0.0
  0
LINE
  5
122
330
2
100
AcDbEntity
  8
GAIKEI
 62
     1
100
AcDbLine
 10
19.18823866563605
 20
14.39166898987878
 30
0.0
 11
19.43341984223667
 21
14.39166898987878
 31
0.0
  0
LINE
  5
123
330
2
100
AcDbEntity
  8
GAIKEI
 62
     1
100
AcDbLine
 10
19.18823866563605
 20
14.89586304778777
 30
0.0
 11
19.18823866563605
 21
14.39166898987878
 31
0.0
  0
LINE
  5
124
330
2
100
AcDbEntity
  8
GAIKEI
 62
     1
100
AcDbLine
 10
19.43341984223667
 20
14.89586304778777
 30
0.0
 11
19.18823866563605
 21
14.89586304778777
 31
0.0
  0
LINE
  5
125
330
2
100
AcDbEntity
  8
GAIKEI
 62
     1
100
AcDbLine
 10
19.92927698223963
 20
14.39166898987878
 30
0.0
 11
19.92927698223963
 21
14.89586304778777
 31
0.0
  0
LINE
  5
126
330
2
100
AcDbEntity
  8
GAIKEI
 62
     1
100
AcDbLine
 10
19.68447475645291
 20
14.39166898987878
 30
0.0
 11
19.92927698223963
 21
14.39166898987878
 31
0.0
  0
LINE
  5
127
330
2
100
AcDbEntity
  8
GAIKEI
 62
     1
100
AcDbLine
 10
19.68447475645291
 20
14.89586304778777
 30
0.0
 11
19.68447475645291
 21
14.39166898987878
 31
0.0
  0
LINE
  5
128
330
2
100
AcDbEntity
  8
GAIKEI
 62
     1
100
AcDbLine
 10
19.92927698223963
 20
14.89586304778777
 30
0.0
 11
19.68447475645291
 21
14.89586304778777
 31
0.0
  0
LINE
  5
129
330
2
100
AcDbEntity
  8
GAIKEI
 62
     1
100
AcDbLine
 10
20.42570254846345
 20
14.39166898987878
 30
0.0
 11
20.42570254846345
 21
14.89586304778777
 31
0.0
  0
LINE
  5
12A
330
2
100
AcDbEntity
  8
GAIKEI
 62
     1
100
AcDbLine
 10
20.18052137186282
 20
14.39166898987878
 30
0.0
 11
20.42570254846345
 21
14.39166898987878
 31
0.0
  0
LINE
  5
12B
330
2
100
AcDbEntity
  8
GAIKEI
 62
     1
100
AcDbLine
 10
20.18052137186282
 20
14.89586304778777
 30
0.0
 11
20.18052137186282
 21
14.39166898987878
 31
0.0
  0
LINE
  5
12C
330
2
100
AcDbEntity
  8
GAIKEI
 62
     1
100
AcDbLine
 10
20.42570254846345
 20
14.89586304778777
 30
0.0
 11
20.18052137186282
 21
14.89586304778777
 31
0.0
  0
LINE
  5
12D
330
2
100
AcDbEntity
  8
GAIKEI
 62
     1
100
AcDbLine
 10
20.92193863928031
 20
14.39166898987878
 30
0.0
 11
20.92193863928031
 21
14.89586304778777
 31
0.0
  0
LINE
  5
12E
330
2
100
AcDbEntity
  8
GAIKEI
 62
     1
100
AcDbLine
 10
20.67656798727274
 20
14.39166898987878
 30
0.0
 11
20.92193863928031
 21
14.39166898987878
 31
0.0
  0
LINE
  5
12F
330
2
100
AcDbEntity
  8
GAIKEI
 62
     1
100
AcDbLine
 10
20.67656798727274
 20
14.89586304778777
 30
0.0
 11
20.67656798727274
 21
14.39166898987878
 31
0.0
  0
LINE
  5
130
330
2
100
AcDbEntity
  8
GAIKEI
 62
     1
100
AcDbLine
 10
20.92193863928031
 20
14.89586304778777
 30
0.0
 11
20.67656798727274
 21
14.89586304778777
 31
0.0
  0
LINE
  5
131
330
2
100
AcDbEntity
  8
GAIKEI
 62
     1
100
AcDbLine
 10
21.41779577928327
 20
14.39166898987878
 30
0.0
 11
21.41779577928327
 21
14.89586304778777
 31
0.0
  0
LINE
  5
132
330
2
100
AcDbEntity
  8
GAIKEI
 62
     1
100
AcDbLine
 10
21.17280407808966
 20
14.39166898987878
 30
0.0
 11
21.41779577928327
 21
14.39166898987878
 31
0.0
  0
LINE
  5
133
330
2
100
AcDbEntity
  8
GAIKEI
 62
     1
100
AcDbLine
 10
21.17280407808966
 20
14.89586304778777
 30
0.0
 11
21.17280407808966
 21
14.39166898987878
 31
0.0
  0
LINE
  5
134
330
2
100
AcDbEntity
  8
GAIKEI
 62
     1
100
AcDbLine
 10
21.41779577928327
 20
14.89586304778777
 30
0.0
 11
21.17280407808966
 21
14.89586304778777
 31
0.0
  0
LINE
  5
135
330
2
100
AcDbEntity
  8
GAIKEI
 62
     1
100
AcDbLine
 10
21.91403187010019
 20
14.39166898987878
 30
0.0
 11
21.91403187010019
 21
14.89586304778777
 31
0.0
  0
LINE
  5
136
330
2
100
AcDbEntity
  8
GAIKEI
 62
     1
100
AcDbLine
 10
21.66885069349957
 20
14.39166898987878
 30
0.0
 11
21.91403187010019
 21
14.39166898987878
 31
0.0
  0
LINE
  5
137
330
2
100
AcDbEntity
  8
GAIKEI
 62
     1
100
AcDbLine
 10
21.66885069349957
 20
14.89586304778777
 30
0.0
 11
21.66885069349957
 21
14.39166898987878
 31
0.0
  0
LINE
  5
138
330
2
100
AcDbEntity
  8
GAIKEI
 62
     1
100
AcDbLine
 10
21.91403187010019
 20
14.89586304778777
 30
0.0
 11
21.66885069349957
 21
14.89586304778777
 31
0.0
  0
LINE
  5
139
330
2
100
AcDbEntity
  8
GAIKEI
 62
     1
100
AcDbLine
 10
22.41026796091706
 20
14.39166898987878
 30
0.0
 11
22.41026796091706
 21
14.89586304778777
 31
0.0
  0
LINE
  5
13A
330
2
100
AcDbEntity
  8
GAIKEI
 62
     1
100
AcDbLine
 10
22.16527625972338
 20
14.39166898987878
 30
0.0
 11
22.41026796091706
 21
14.39166898987878
 31
0.0
  0
LINE
  5
13B
330
2
100
AcDbEntity
  8
GAIKEI
 62
     1
100
AcDbLine
 10
22.16527625972338
 20
14.89586304778777
 30
0.0
 11
22.16527625972338
 21
14.39166898987878
 31
0.0
  0
LINE
  5
13C
330
2
100
AcDbEntity
  8
GAIKEI
 62
     1
100
AcDbLine
 10
22.41026796091706
 20
14.89586304778777
 30
0.0
 11
22.16527625972338
 21
14.89586304778777
 31
0.0
  0
LINE
  5
13D
330
2
100
AcDbEntity
  8
GAIKEI
 62
     1
100
AcDbLine
 10
22.90631457632696
 20
14.39166898987878
 30
0.0
 11
22.90631457632696
 21
14.89586304778777
 31
0.0
  0
LINE
  5
13E
330
2
100
AcDbEntity
  8
GAIKEI
 62
     1
100
AcDbLine
 10
22.66113339972634
 20
14.39166898987878
 30
0.0
 11
22.90631457632696
 21
14.39166898987878
 31
0.0
  0
LINE
  5
13F
330
2
100
AcDbEntity
  8
GAIKEI
 62
     1
100
AcDbLine
 10
22.66113339972634
 20
14.89586304778777
 30
0.0
 11
22.66113339972634
 21
14.39166898987878
 31
0.0
  0
LINE
  5
140
330
2
100
AcDbEntity
  8
GAIKEI
 62
     1
100
AcDbLine
 10
22.90631457632696
 20
14.89586304778777
 30
0.0
 11
22.66113339972634
 21
14.89586304778777
 31
0.0
  0
LINE
  5
141
330
2
100
AcDbEntity
  8
GAIKEI
 62
     1
100
AcDbLine
 10
15.46428901732952
 20
15.34416186064482
 30
0.0
 11
15.46428901732952
 21
15.84816644314691
 31
0.0
  0
LINE
  5
142
330
2
100
AcDbEntity
  8
GAIKEI
 62
     1
100
AcDbLine
 10
15.21929731613579
 20
15.34416186064482
 30
0.0
 11
15.46428901732952
 21
15.34416186064482
 31
0.0
  0
LINE
  5
143
330
2
100
AcDbEntity
  8
GAIKEI
 62
     1
100
AcDbLine
 10
15.21929731613579
 20
15.84816644314691
 30
0.0
 11
15.21929731613579
 21
15.34416186064482
 31
0.0
  0
LINE
  5
144
330
2
100
AcDbEntity
  8
GAIKEI
 62
     1
100
AcDbLine
 10
15.46428901732952
 20
15.84816644314691
 30
0.0
 11
15.21929731613579
 21
15.84816644314691
 31
0.0
  0
LINE
  5
145
330
2
100
AcDbEntity
  8
GAIKEI
 62
     1
100
AcDbLine
 10
15.96033563273943
 20
15.34416186064482
 30
0.0
 11
15.96033563273943
 21
15.84816644314691
 31
0.0
  0
LINE
  5
146
330
2
100
AcDbEntity
  8
GAIKEI
 62
     1
100
AcDbLine
 10
15.7153439315457
 20
15.34416186064482
 30
0.0
 11
15.96033563273943
 21
15.34416186064482
 31
0.0
  0
LINE
  5
147
330
2
100
AcDbEntity
  8
GAIKEI
 62
     1
100
AcDbLine
 10
15.7153439315457
 20
15.84816644314691
 30
0.0
 11
15.7153439315457
 21
15.34416186064482
 31
0.0
  0
LINE
  5
148
330
2
100
AcDbEntity
  8
GAIKEI
 62
     1
100
AcDbLine
 10
15.96033563273943
 20
15.84816644314691
 30
0.0
 11
15.7153439315457
 21
15.84816644314691
 31
0.0
  0
LINE
  5
149
330
2
100
AcDbEntity
  8
GAIKEI
 62
     1
100
AcDbLine
 10
16.45638224814934
 20
15.34416186064482
 30
0.0
 11
16.45638224814934
 21
15.84816644314691
 31
0.0
  0
LINE
  5
14A
330
2
100
AcDbEntity
  8
GAIKEI
 62
     1
100
AcDbLine
 10
16.21139054695561
 20
15.34416186064482
 30
0.0
 11
16.45638224814934
 21
15.34416186064482
 31
0.0
  0
LINE
  5
14B
330
2
100
AcDbEntity
  8
GAIKEI
 62
     1
100
AcDbLine
 10
16.21139054695561
 20
15.84816644314691
 30
0.0
 11
16.21139054695561
 21
15.34416186064482
 31
0.0
  0
LINE
  5
14C
330
2
100
AcDbEntity
  8
GAIKEI
 62
     1
100
AcDbLine
 10
16.45638224814934
 20
15.84816644314691
 30
0.0
 11
16.21139054695561
 21
15.84816644314691
 31
0.0
  0
LINE
  5
14D
330
2
100
AcDbEntity
  8
GAIKEI
 62
     1
100
AcDbLine
 10
16.95280781437316
 20
15.34416186064482
 30
0.0
 11
16.95280781437316
 21
15.84816644314691
 31
0.0
  0
LINE
  5
14E
330
2
100
AcDbEntity
  8
GAIKEI
 62
     1
100
AcDbLine
 10
16.70743716236558
 20
15.34416186064482
 30
0.0
 11
16.95280781437316
 21
15.34416186064482
 31
0.0
  0
LINE
  5
14F
330
2
100
AcDbEntity
  8
GAIKEI
 62
     1
100
AcDbLine
 10
16.70743716236558
 20
15.84816644314691
 30
0.0
 11
16.70743716236558
 21
15.34416186064482
 31
0.0
  0
LINE
  5
150
330
2
100
AcDbEntity
  8
GAIKEI
 62
     1
100
AcDbLine
 10
16.95280781437316
 20
15.84816644314691
 30
0.0
 11
16.70743716236558
 21
15.84816644314691
 31
0.0
  0
LINE
  5
151
330
2
100
AcDbEntity
  8
GAIKEI
 62
     1
100
AcDbLine
 10
17.44866495437611
 20
15.34416186064482
 30
0.0
 11
17.44866495437611
 21
15.84816644314691
 31
0.0
  0
LINE
  5
152
330
2
100
AcDbEntity
  8
GAIKEI
 62
     1
100
AcDbLine
 10
17.20367325318244
 20
15.34416186064482
 30
0.0
 11
17.44866495437611
 21
15.34416186064482
 31
0.0
  0
LINE
  5
153
330
2
100
AcDbEntity
  8
GAIKEI
 62
     1
100
AcDbLine
 10
17.20367325318244
 20
15.84816644314691
 30
0.0
 11
17.20367325318244
 21
15.34416186064482
 31
0.0
  0
LINE
  5
154
330
2
100
AcDbEntity
  8
GAIKEI
 62
     1
100
AcDbLine
 10
17.44866495437611
 20
15.84816644314691
 30
0.0
 11
17.20367325318244
 21
15.84816644314691
 31
0.0
  0
LINE
  5
155
330
2
100
AcDbEntity
  8
GAIKEI
 62
     1
100
AcDbLine
 10
17.94509052059993
 20
15.34416186064482
 30
0.0
 11
17.94509052059993
 21
15.84816644314691
 31
0.0
  0
LINE
  5
156
330
2
100
AcDbEntity
  8
GAIKEI
 62
     1
100
AcDbLine
 10
17.69990934399931
 20
15.34416186064482
 30
0.0
 11
17.94509052059993
 21
15.34416186064482
 31
0.0
  0
LINE
  5
157
330
2
100
AcDbEntity
  8
GAIKEI
 62
     1
100
AcDbLine
 10
17.69990934399931
 20
15.84816644314691
 30
0.0
 11
17.69990934399931
 21
15.34416186064482
 31
0.0
  0
LINE
  5
158
330
2
100
AcDbEntity
  8
GAIKEI
 62
     1
100
AcDbLine
 10
17.94509052059993
 20
15.84816644314691
 30
0.0
 11
17.69990934399931
 21
15.84816644314691
 31
0.0
  0
LINE
  5
159
330
2
100
AcDbEntity
  8
GAIKEI
 62
     1
100
AcDbLine
 10
18.4411371360099
 20
15.34416186064482
 30
0.0
 11
18.4411371360099
 21
15.84816644314691
 31
0.0
  0
LINE
  5
15A
330
2
100
AcDbEntity
  8
GAIKEI
 62
     1
100
AcDbLine
 10
18.19614543481623
 20
15.34416186064482
 30
0.0
 11
18.4411371360099
 21
15.34416186064482
 31
0.0
  0
LINE
  5
15B
330
2
100
AcDbEntity
  8
GAIKEI
 62
     1
100
AcDbLine
 10
18.19614543481623
 20
15.84816644314691
 30
0.0
 11
18.19614543481623
 21
15.34416186064482
 31
0.0
  0
LINE
  5
15C
330
2
100
AcDbEntity
  8
GAIKEI
 62
     1
100
AcDbLine
 10
18.4411371360099
 20
15.84816644314691
 30
0.0
 11
18.19614543481623
 21
15.84816644314691
 31
0.0
  0
LINE
  5
15D
330
2
100
AcDbEntity
  8
GAIKEI
 62
     1
100
AcDbLine
 10
18.93718375141981
 20
15.34416186064482
 30
0.0
 11
18.93718375141981
 21
15.84816644314691
 31
0.0
  0
LINE
  5
15E
330
2
100
AcDbEntity
  8
GAIKEI
 62
     1
100
AcDbLine
 10
18.69200257481917
 20
15.34416186064482
 30
0.0
 11
18.93718375141981
 21
15.34416186064482
 31
0.0
  0
LINE
  5
15F
330
2
100
AcDbEntity
  8
GAIKEI
 62
     1
100
AcDbLine
 10
18.69200257481917
 20
15.84816644314691
 30
0.0
 11
18.69200257481917
 21
15.34416186064482
 31
0.0
  0
LINE
  5
160
330
2
100
AcDbEntity
  8
GAIKEI
 62
     1
100
AcDbLine
 10
18.93718375141981
 20
15.84816644314691
 30
0.0
 11
18.69200257481917
 21
15.84816644314691
 31
0.0
  0
LINE
  5
161
330
2
100
AcDbEntity
  8
GAIKEI
 62
     1
100
AcDbLine
 10
19.43341984223667
 20
15.34416186064482
 30
0.0
 11
19.43341984223667
 21
15.84816644314691
 31
0.0
  0
LINE
  5
162
330
2
100
AcDbEntity
  8
GAIKEI
 62
     1
100
AcDbLine
 10
19.18823866563605
 20
15.34416186064482
 30
0.0
 11
19.43341984223667
 21
15.34416186064482
 31
0.0
  0
LINE
  5
163
330
2
100
AcDbEntity
  8
GAIKEI
 62
     1
100
AcDbLine
 10
19.18823866563605
 20
15.84816644314691
 30
0.0
 11
19.18823866563605
 21
15.34416186064482
 31
0.0
  0
LINE
  5
164
330
2
100
AcDbEntity
  8
GAIKEI
 62
     1
100
AcDbLine
 10
19.43341984223667
 20
15.84816644314691
 30
0.0
 11
19.18823866563605
 21
15.84816644314691
 31
0.0
  0
LINE
  5
165
330
2
100
AcDbEntity
  8
GAIKEI
 62
     1
100
AcDbLine
 10
19.92927698223963
 20
15.34416186064482
 30
0.0
 11
19.92927698223963
 21
15.84816644314691
 31
0.0
  0
LINE
  5
166
330
2
100
AcDbEntity
  8
GAIKEI
 62
     1
100
AcDbLine
 10
19.68447475645291
 20
15.34416186064482
 30
0.0
 11
19.92927698223963
 21
15.34416186064482
 31
0.0
  0
LINE
  5
167
330
2
100
AcDbEntity
  8
GAIKEI
 62
     1
100
AcDbLine
 10
19.68447475645291
 20
15.84816644314691
 30
0.0
 11
19.68447475645291
 21
15.34416186064482
 31
0.0
  0
LINE
  5
168
330
2
100
AcDbEntity
  8
GAIKEI
 62
     1
100
AcDbLine
 10
19.92927698223963
 20
15.84816644314691
 30
0.0
 11
19.68447475645291
 21
15.84816644314691
 31
0.0
  0
LINE
  5
169
330
2
100
AcDbEntity
  8
GAIKEI
 62
     1
100
AcDbLine
 10
20.42570254846345
 20
15.34416186064482
 30
0.0
 11
20.42570254846345
 21
15.84816644314691
 31
0.0
  0
LINE
  5
16A
330
2
100
AcDbEntity
  8
GAIKEI
 62
     1
100
AcDbLine
 10
20.18052137186282
 20
15.34416186064482
 30
0.0
 11
20.42570254846345
 21
15.34416186064482
 31
0.0
  0
LINE
  5
16B
330
2
100
AcDbEntity
  8
GAIKEI
 62
     1
100
AcDbLine
 10
20.18052137186282
 20
15.84816644314691
 30
0.0
 11
20.18052137186282
 21
15.34416186064482
 31
0.0
  0
LINE
  5
16C
330
2
100
AcDbEntity
  8
GAIKEI
 62
     1
100
AcDbLine
 10
20.42570254846345
 20
15.84816644314691
 30
0.0
 11
20.18052137186282
 21
15.84816644314691
 31
0.0
  0
LINE
  5
16D
330
2
100
AcDbEntity
  8
GAIKEI
 62
     1
100
AcDbLine
 10
20.92193863928031
 20
15.34416186064482
 30
0.0
 11
20.92193863928031
 21
15.84816644314691
 31
0.0
  0
LINE
  5
16E
330
2
100
AcDbEntity
  8
GAIKEI
 62
     1
100
AcDbLine
 10
20.67656798727274
 20
15.34416186064482
 30
0.0
 11
20.92193863928031
 21
15.34416186064482
 31
0.0
  0
LINE
  5
16F
330
2
100
AcDbEntity
  8
GAIKEI
 62
     1
100
AcDbLine
 10
20.67656798727274
 20
15.84816644314691
 30
0.0
 11
20.67656798727274
 21
15.34416186064482
 31
0.0
  0
LINE
  5
170
330
2
100
AcDbEntity
  8
GAIKEI
 62
     1
100
AcDbLine
 10
20.92193863928031
 20
15.84816644314691
 30
0.0
 11
20.67656798727274
 21
15.84816644314691
 31
0.0
  0
LINE
  5
171
330
2
100
AcDbEntity
  8
GAIKEI
 62
     1
100
AcDbLine
 10
21.41779577928327
 20
15.34416186064482
 30
0.0
 11
21.41779577928327
 21
15.84816644314691
 31
0.0
  0
LINE
  5
172
330
2
100
AcDbEntity
  8
GAIKEI
 62
     1
100
AcDbLine
 10
21.17280407808966
 20
15.34416186064482
 30
0.0
 11
21.41779577928327
 21
15.34416186064482
 31
0.0
  0
LINE
  5
173
330
2
100
AcDbEntity
  8
GAIKEI
 62
     1
100
AcDbLine
 10
21.17280407808966
 20
15.84816644314691
 30
0.0
 11
21.17280407808966
 21
15.34416186064482
 31
0.0
  0
LINE
  5
174
330
2
100
AcDbEntity
  8
GAIKEI
 62
     1
100
AcDbLine
 10
21.41779577928327
 20
15.84816644314691
 30
0.0
 11
21.17280407808966
 21
15.84816644314691
 31
0.0
  0
LINE
  5
175
330
2
100
AcDbEntity
  8
GAIKEI
 62
     1
100
AcDbLine
 10
21.91403187010019
 20
15.34416186064482
 30
0.0
 11
21.91403187010019
 21
15.84816644314691
 31
0.0
  0
LINE
  5
176
330
2
100
AcDbEntity
  8
GAIKEI
 62
     1
100
AcDbLine
 10
21.66885069349957
 20
15.34416186064482
 30
0.0
 11
21.91403187010019
 21
15.34416186064482
 31
0.0
  0
LINE
  5
177
330
2
100
AcDbEntity
  8
GAIKEI
 62
     1
100
AcDbLine
 10
21.66885069349957
 20
15.84816644314691
 30
0.0
 11
21.66885069349957
 21
15.34416186064482
 31
0.0
  0
LINE
  5
178
330
2
100
AcDbEntity
  8
GAIKEI
 62
     1
100
AcDbLine
 10
21.91403187010019
 20
15.84816644314691
 30
0.0
 11
21.66885069349957
 21
15.84816644314691
 31
0.0
  0
LINE
  5
179
330
2
100
AcDbEntity
  8
GAIKEI
 62
     1
100
AcDbLine
 10
22.41026796091706
 20
15.34416186064482
 30
0.0
 11
22.41026796091706
 21
15.84816644314691
 31
0.0
  0
LINE
  5
17A
330
2
100
AcDbEntity
  8
GAIKEI
 62
     1
100
AcDbLine
 10
22.16527625972338
 20
15.34416186064482
 30
0.0
 11
22.41026796091706
 21
15.34416186064482
 31
0.0
  0
LINE
  5
17B
330
2
100
AcDbEntity
  8
GAIKEI
 62
     1
100
AcDbLine
 10
22.16527625972338
 20
15.84816644314691
 30
0.0
 11
22.16527625972338
 21
15.34416186064482
 31
0.0
  0
LINE
  5
17C
330
2
100
AcDbEntity
  8
GAIKEI
 62
     1
100
AcDbLine
 10
22.41026796091706
 20
15.84816644314691
 30
0.0
 11
22.16527625972338
 21
15.84816644314691
 31
0.0
  0
LINE
  5
17D
330
2
100
AcDbEntity
  8
GAIKEI
 62
     1
100
AcDbLine
 10
22.90631457632696
 20
15.34416186064482
 30
0.0
 11
22.90631457632696
 21
15.84816644314691
 31
0.0
  0
LINE
  5
17E
330
2
100
AcDbEntity
  8
GAIKEI
 62
     1
100
AcDbLine
 10
22.66113339972634
 20
15.34416186064482
 30
0.0
 11
22.90631457632696
 21
15.34416186064482
 31
0.0
  0
LINE
  5
17F
330
2
100
AcDbEntity
  8
GAIKEI
 62
     1
100
AcDbLine
 10
22.66113339972634
 20
15.84816644314691
 30
0.0
 11
22.66113339972634
 21
15.34416186064482
 31
0.0
  0
LINE
  5
180
330
2
100
AcDbEntity
  8
GAIKEI
 62
     1
100
AcDbLine
 10
22.90631457632696
 20
15.84816644314691
 30
0.0
 11
22.66113339972634
 21
15.84816644314691
 31
0.0
  0
LINE
  5
181
330
2
100
AcDbEntity
  8
GAIKEI
 62
     1
100
AcDbLine
 10
15.46428901732952
 20
16.09978978358401
 30
0.0
 11
15.46428901732952
 21
16.60379436608605
 31
0.0
  0
LINE
  5
182
330
2
100
AcDbEntity
  8
GAIKEI
 62
     1
100
AcDbLine
 10
15.21929731613579
 20
16.09978978358401
 30
0.0
 11
15.46428901732952
 21
16.09978978358401
 31
0.0
  0
LINE
  5
183
330
2
100
AcDbEntity
  8
GAIKEI
 62
     1
100
AcDbLine
 10
15.21929731613579
 20
16.60379436608605
 30
0.0
 11
15.21929731613579
 21
16.09978978358401
 31
0.0
  0
LINE
  5
184
330
2
100
AcDbEntity
  8
GAIKEI
 62
     1
100
AcDbLine
 10
15.46428901732952
 20
16.60379436608605
 30
0.0
 11
15.21929731613579
 21
16.60379436608605
 31
0.0
  0
LINE
  5
185
330
2
100
AcDbEntity
  8
GAIKEI
 62
     1
100
AcDbLine
 10
15.96033563273943
 20
16.09978978358401
 30
0.0
 11
15.96033563273943
 21
16.60379436608605
 31
0.0
  0
LINE
  5
186
330
2
100
AcDbEntity
  8
GAIKEI
 62
     1
100
AcDbLine
 10
15.7153439315457
 20
16.09978978358401
 30
0.0
 11
15.96033563273943
 21
16.09978978358401
 31
0.0
  0
LINE
  5
187
330
2
100
AcDbEntity
  8
GAIKEI
 62
     1
100
AcDbLine
 10
15.7153439315457
 20
16.60379436608605
 30
0.0
 11
15.7153439315457
 21
16.09978978358401
 31
0.0
  0
LINE
  5
188
330
2
100
AcDbEntity
  8
GAIKEI
 62
     1
100
AcDbLine
 10
15.96033563273943
 20
16.60379436608605
 30
0.0
 11
15.7153439315457
 21
16.60379436608605
 31
0.0
  0
LINE
  5
189
330
2
100
AcDbEntity
  8
GAIKEI
 62
     1
100
AcDbLine
 10
16.45638224814934
 20
16.09978978358401
 30
0.0
 11
16.45638224814934
 21
16.60379436608605
 31
0.0
  0
LINE
  5
18A
330
2
100
AcDbEntity
  8
GAIKEI
 62
     1
100
AcDbLine
 10
16.21139054695561
 20
16.09978978358401
 30
0.0
 11
16.45638224814934
 21
16.09978978358401
 31
0.0
  0
LINE
  5
18B
330
2
100
AcDbEntity
  8
GAIKEI
 62
     1
100
AcDbLine
 10
16.21139054695561
 20
16.60379436608605
 30
0.0
 11
16.21139054695561
 21
16.09978978358401
 31
0.0
  0
LINE
  5
18C
330
2
100
AcDbEntity
  8
GAIKEI
 62
     1
100
AcDbLine
 10
16.45638224814934
 20
16.60379436608605
 30
0.0
 11
16.21139054695561
 21
16.60379436608605
 31
0.0
  0
LINE
  5
18D
330
2
100
AcDbEntity
  8
GAIKEI
 62
     1
100
AcDbLine
 10
16.95280781437316
 20
16.09978978358401
 30
0.0
 11
16.95280781437316
 21
16.60379436608605
 31
0.0
  0
LINE
  5
18E
330
2
100
AcDbEntity
  8
GAIKEI
 62
     1
100
AcDbLine
 10
16.70743716236558
 20
16.09978978358401
 30
0.0
 11
16.95280781437316
 21
16.09978978358401
 31
0.0
  0
LINE
  5
18F
330
2
100
AcDbEntity
  8
GAIKEI
 62
     1
100
AcDbLine
 10
16.70743716236558
 20
16.60379436608605
 30
0.0
 11
16.70743716236558
 21
16.09978978358401
 31
0.0
  0
LINE
  5
190
330
2
100
AcDbEntity
  8
GAIKEI
 62
     1
100
AcDbLine
 10
16.95280781437316
 20
16.60379436608605
 30
0.0
 11
16.70743716236558
 21
16.60379436608605
 31
0.0
  0
LINE
  5
191
330
2
100
AcDbEntity
  8
GAIKEI
 62
     1
100
AcDbLine
 10
17.44866495437611
 20
16.09978978358401
 30
0.0
 11
17.44866495437611
 21
16.60379436608605
 31
0.0
  0
LINE
  5
192
330
2
100
AcDbEntity
  8
GAIKEI
 62
     1
100
AcDbLine
 10
17.20367325318244
 20
16.09978978358401
 30
0.0
 11
17.44866495437611
 21
16.09978978358401
 31
0.0
  0
LINE
  5
193
330
2
100
AcDbEntity
  8
GAIKEI
 62
     1
100
AcDbLine
 10
17.20367325318244
 20
16.60379436608605
 30
0.0
 11
17.20367325318244
 21
16.09978978358401
 31
0.0
  0
LINE
  5
194
330
2
100
AcDbEntity
  8
GAIKEI
 62
     1
100
AcDbLine
 10
17.44866495437611
 20
16.60379436608605
 30
0.0
 11
17.20367325318244
 21
16.60379436608605
 31
0.0
  0
LINE
  5
195
330
2
100
AcDbEntity
  8
GAIKEI
 62
     1
100
AcDbLine
 10
17.94509052059993
 20
16.09978978358401
 30
0.0
 11
17.94509052059993
 21
16.60379436608605
 31
0.0
  0
LINE
  5
196
330
2
100
AcDbEntity
  8
GAIKEI
 62
     1
100
AcDbLine
 10
17.69990934399931
 20
16.09978978358401
 30
0.0
 11
17.94509052059993
 21
16.09978978358401
 31
0.0
  0
LINE
  5
197
330
2
100
AcDbEntity
  8
GAIKEI
 62
     1
100
AcDbLine
 10
17.69990934399931
 20
16.60379436608605
 30
0.0
 11
17.69990934399931
 21
16.09978978358401
 31
0.0
  0
LINE
  5
198
330
2
100
AcDbEntity
  8
GAIKEI
 62
     1
100
AcDbLine
 10
17.94509052059993
 20
16.60379436608605
 30
0.0
 11
17.69990934399931
 21
16.60379436608605
 31
0.0
  0
LINE
  5
199
330
2
100
AcDbEntity
  8
GAIKEI
 62
     1
100
AcDbLine
 10
18.4411371360099
 20
16.09978978358401
 30
0.0
 11
18.4411371360099
 21
16.60379436608605
 31
0.0
  0
LINE
  5
19A
330
2
100
AcDbEntity
  8
GAIKEI
 62
     1
100
AcDbLine
 10
18.19614543481623
 20
16.09978978358401
 30
0.0
 11
18.4411371360099
 21
16.09978978358401
 31
0.0
  0
LINE
  5
19B
330
2
100
AcDbEntity
  8
GAIKEI
 62
     1
100
AcDbLine
 10
18.19614543481623
 20
16.60379436608605
 30
0.0
 11
18.19614543481623
 21
16.09978978358401
 31
0.0
  0
LINE
  5
19C
330
2
100
AcDbEntity
  8
GAIKEI
 62
     1
100
AcDbLine
 10
18.4411371360099
 20
16.60379436608605
 30
0.0
 11
18.19614543481623
 21
16.60379436608605
 31
0.0
  0
LINE
  5
19D
330
2
100
AcDbEntity
  8
GAIKEI
 62
     1
100
AcDbLine
 10
18.93718375141981
 20
16.09978978358401
 30
0.0
 11
18.93718375141981
 21
16.60379436608605
 31
0.0
  0
LINE
  5
19E
330
2
100
AcDbEntity
  8
GAIKEI
 62
     1
100
AcDbLine
 10
18.69200257481917
 20
16.09978978358401
 30
0.0
 11
18.93718375141981
 21
16.09978978358401
 31
0.0
  0
LINE
  5
19F
330
2
100
AcDbEntity
  8
GAIKEI
 62
     1
100
AcDbLine
 10
18.69200257481917
 20
16.60379436608605
 30
0.0
 11
18.69200257481917
 21
16.09978978358401
 31
0.0
  0
LINE
  5
1A0
330
2
100
AcDbEntity
  8
GAIKEI
 62
     1
100
AcDbLine
 10
18.93718375141981
 20
16.60379436608605
 30
0.0
 11
18.69200257481917
 21
16.60379436608605
 31
0.0
  0
LINE
  5
1A1
330
2
100
AcDbEntity
  8
GAIKEI
 62
     1
100
AcDbLine
 10
19.43341984223667
 20
16.09978978358401
 30
0.0
 11
19.43341984223667
 21
16.60379436608605
 31
0.0
  0
LINE
  5
1A2
330
2
100
AcDbEntity
  8
GAIKEI
 62
     1
100
AcDbLine
 10
19.18823866563605
 20
16.09978978358401
 30
0.0
 11
19.43341984223667
 21
16.09978978358401
 31
0.0
  0
LINE
  5
1A3
330
2
100
AcDbEntity
  8
GAIKEI
 62
     1
100
AcDbLine
 10
19.18823866563605
 20
16.60379436608605
 30
0.0
 11
19.18823866563605
 21
16.09978978358401
 31
0.0
  0
LINE
  5
1A4
330
2
100
AcDbEntity
  8
GAIKEI
 62
     1
100
AcDbLine
 10
19.43341984223667
 20
16.60379436608605
 30
0.0
 11
19.18823866563605
 21
16.60379436608605
 31
0.0
  0
LINE
  5
1A5
330
2
100
AcDbEntity
  8
GAIKEI
 62
     1
100
AcDbLine
 10
19.92927698223963
 20
16.09978978358401
 30
0.0
 11
19.92927698223963
 21
16.60379436608605
 31
0.0
  0
LINE
  5
1A6
330
2
100
AcDbEntity
  8
GAIKEI
 62
     1
100
AcDbLine
 10
19.68447475645291
 20
16.09978978358401
 30
0.0
 11
19.92927698223963
 21
16.09978978358401
 31
0.0
  0
LINE
  5
1A7
330
2
100
AcDbEntity
  8
GAIKEI
 62
     1
100
AcDbLine
 10
19.68447475645291
 20
16.60379436608605
 30
0.0
 11
19.68447475645291
 21
16.09978978358401
 31
0.0
  0
LINE
  5
1A8
330
2
100
AcDbEntity
  8
GAIKEI
 62
     1
100
AcDbLine
 10
19.92927698223963
 20
16.60379436608605
 30
0.0
 11
19.68447475645291
 21
16.60379436608605
 31
0.0
  0
LINE
  5
1A9
330
2
100
AcDbEntity
  8
GAIKEI
 62
     1
100
AcDbLine
 10
20.42570254846345
 20
16.09978978358401
 30
0.0
 11
20.42570254846345
 21
16.60379436608605
 31
0.0
  0
LINE
  5
1AA
330
2
100
AcDbEntity
  8
GAIKEI
 62
     1
100
AcDbLine
 10
20.18052137186282
 20
16.09978978358401
 30
0.0
 11
20.42570254846345
 21
16.09978978358401
 31
0.0
  0
LINE
  5
1AB
330
2
100
AcDbEntity
  8
GAIKEI
 62
     1
100
AcDbLine
 10
20.18052137186282
 20
16.60379436608605
 30
0.0
 11
20.18052137186282
 21
16.09978978358401
 31
0.0
  0
LINE
  5
1AC
330
2
100
AcDbEntity
  8
GAIKEI
 62
     1
100
AcDbLine
 10
20.42570254846345
 20
16.60379436608605
 30
0.0
 11
20.18052137186282
 21
16.60379436608605
 31
0.0
  0
LINE
  5
1AD
330
2
100
AcDbEntity
  8
GAIKEI
 62
     1
100
AcDbLine
 10
20.92193863928031
 20
16.09978978358401
 30
0.0
 11
20.92193863928031
 21
16.60379436608605
 31
0.0
  0
LINE
  5
1AE
330
2
100
AcDbEntity
  8
GAIKEI
 62
     1
100
AcDbLine
 10
20.67656798727274
 20
16.09978978358401
 30
0.0
 11
20.92193863928031
 21
16.09978978358401
 31
0.0
  0
LINE
  5
1AF
330
2
100
AcDbEntity
  8
GAIKEI
 62
     1
100
AcDbLine
 10
20.67656798727274
 20
16.60379436608605
 30
0.0
 11
20.67656798727274
 21
16.09978978358401
 31
0.0
  0
LINE
  5
1B0
330
2
100
AcDbEntity
  8
GAIKEI
 62
     1
100
AcDbLine
 10
20.92193863928031
 20
16.60379436608605
 30
0.0
 11
20.67656798727274
 21
16.60379436608605
 31
0.0
  0
LINE
  5
1B1
330
2
100
AcDbEntity
  8
GAIKEI
 62
     1
100
AcDbLine
 10
21.41779577928327
 20
16.09978978358401
 30
0.0
 11
21.41779577928327
 21
16.60379436608605
 31
0.0
  0
LINE
  5
1B2
330
2
100
AcDbEntity
  8
GAIKEI
 62
     1
100
AcDbLine
 10
21.17280407808966
 20
16.09978978358401
 30
0.0
 11
21.41779577928327
 21
16.09978978358401
 31
0.0
  0
LINE
  5
1B3
330
2
100
AcDbEntity
  8
GAIKEI
 62
     1
100
AcDbLine
 10
21.17280407808966
 20
16.60379436608605
 30
0.0
 11
21.17280407808966
 21
16.09978978358401
 31
0.0
  0
LINE
  5
1B4
330
2
100
AcDbEntity
  8
GAIKEI
 62
     1
100
AcDbLine
 10
21.41779577928327
 20
16.60379436608605
 30
0.0
 11
21.17280407808966
 21
16.60379436608605
 31
0.0
  0
LINE
  5
1B5
330
2
100
AcDbEntity
  8
GAIKEI
 62
     1
100
AcDbLine
 10
21.91403187010019
 20
16.09978978358401
 30
0.0
 11
21.91403187010019
 21
16.60379436608605
 31
0.0
  0
LINE
  5
1B6
330
2
100
AcDbEntity
  8
GAIKEI
 62
     1
100
AcDbLine
 10
21.66885069349957
 20
16.09978978358401
 30
0.0
 11
21.91403187010019
 21
16.09978978358401
 31
0.0
  0
LINE
  5
1B7
330
2
100
AcDbEntity
  8
GAIKEI
 62
     1
100
AcDbLine
 10
21.66885069349957
 20
16.60379436608605
 30
0.0
 11
21.66885069349957
 21
16.09978978358401
 31
0.0
  0
LINE
  5
1B8
330
2
100
AcDbEntity
  8
GAIKEI
 62
     1
100
AcDbLine
 10
21.91403187010019
 20
16.60379436608605
 30
0.0
 11
21.66885069349957
 21
16.60379436608605
 31
0.0
  0
LINE
  5
1B9
330
2
100
AcDbEntity
  8
GAIKEI
 62
     1
100
AcDbLine
 10
22.41026796091706
 20
16.09978978358401
 30
0.0
 11
22.41026796091706
 21
16.60379436608605
 31
0.0
  0
LINE
  5
1BA
330
2
100
AcDbEntity
  8
GAIKEI
 62
     1
100
AcDbLine
 10
22.16527625972338
 20
16.09978978358401
 30
0.0
 11
22.41026796091706
 21
16.09978978358401
 31
0.0
  0
LINE
  5
1BB
330
2
100
AcDbEntity
  8
GAIKEI
 62
     1
100
AcDbLine
 10
22.16527625972338
 20
16.60379436608605
 30
0.0
 11
22.16527625972338
 21
16.09978978358401
 31
0.0
  0
LINE
  5
1BC
330
2
100
AcDbEntity
  8
GAIKEI
 62
     1
100
AcDbLine
 10
22.41026796091706
 20
16.60379436608605
 30
0.0
 11
22.16527625972338
 21
16.60379436608605
 31
0.0
  0
LINE
  5
1BD
330
2
100
AcDbEntity
  8
GAIKEI
 62
     1
100
AcDbLine
 10
22.90631457632696
 20
16.09978978358401
 30
0.0
 11
22.90631457632696
 21
16.60379436608605
 31
0.0
  0
LINE
  5
1BE
330
2
100
AcDbEntity
  8
GAIKEI
 62
     1
100
AcDbLine
 10
22.66113339972634
 20
16.09978978358401
 30
0.0
 11
22.90631457632696
 21
16.09978978358401
 31
0.0
  0
LINE
  5
1BF
330
2
100
AcDbEntity
  8
GAIKEI
 62
     1
100
AcDbLine
 10
22.66113339972634
 20
16.60379436608605
 30
0.0
 11
22.66113339972634
 21
16.09978978358401
 31
0.0
  0
LINE
  5
1C0
330
2
100
AcDbEntity
  8
GAIKEI
 62
     1
100
AcDbLine
 10
22.90631457632696
 20
16.60379436608605
 30
0.0
 11
22.66113339972634
 21
16.60379436608605
 31
0.0
  0
LINE
  5
1C1
330
2
100
AcDbEntity
  8
GAIKEI
 62
     1
100
AcDbLine
 10
15.46428901732952
 20
16.85522823111625
 30
0.0
 11
15.46428901732952
 21
17.35923281361829
 31
0.0
  0
LINE
  5
1C2
330
2
100
AcDbEntity
  8
GAIKEI
 62
     1
100
AcDbLine
 10
15.21929731613579
 20
16.85522823111625
 30
0.0
 11
15.46428901732952
 21
16.85522823111625
 31
0.0
  0
LINE
  5
1C3
330
2
100
AcDbEntity
  8
GAIKEI
 62
     1
100
AcDbLine
 10
15.21929731613579
 20
17.35923281361829
 30
0.0
 11
15.21929731613579
 21
16.85522823111625
 31
0.0
  0
LINE
  5
1C4
330
2
100
AcDbEntity
  8
GAIKEI
 62
     1
100
AcDbLine
 10
15.46428901732952
 20
17.35923281361829
 30
0.0
 11
15.21929731613579
 21
17.35923281361829
 31
0.0
  0
LINE
  5
1C5
330
2
100
AcDbEntity
  8
GAIKEI
 62
     1
100
AcDbLine
 10
15.96033563273943
 20
16.85522823111625
 30
0.0
 11
15.96033563273943
 21
17.35923281361829
 31
0.0
  0
LINE
  5
1C6
330
2
100
AcDbEntity
  8
GAIKEI
 62
     1
100
AcDbLine
 10
15.7153439315457
 20
16.85522823111625
 30
0.0
 11
15.96033563273943
 21
16.85522823111625
 31
0.0
  0
LINE
  5
1C7
330
2
100
AcDbEntity
  8
GAIKEI
 62
     1
100
AcDbLine
 10
15.7153439315457
 20
17.35923281361829
 30
0.0
 11
15.7153439315457
 21
16.85522823111625
 31
0.0
  0
LINE
  5
1C8
330
2
100
AcDbEntity
  8
GAIKEI
 62
     1
100
AcDbLine
 10
15.96033563273943
 20
17.35923281361829
 30
0.0
 11
15.7153439315457
 21
17.35923281361829
 31
0.0
  0
LINE
  5
1C9
330
2
100
AcDbEntity
  8
GAIKEI
 62
     1
100
AcDbLine
 10
16.45638224814934
 20
16.85522823111625
 30
0.0
 11
16.45638224814934
 21
17.35923281361829
 31
0.0
  0
LINE
  5
1CA
330
2
100
AcDbEntity
  8
GAIKEI
 62
     1
100
AcDbLine
 10
16.21139054695561
 20
16.85522823111625
 30
0.0
 11
16.45638224814934
 21
16.85522823111625
 31
0.0
  0
LINE
  5
1CB
330
2
100
AcDbEntity
  8
GAIKEI
 62
     1
100
AcDbLine
 10
16.21139054695561
 20
17.35923281361829
 30
0.0
 11
16.21139054695561
 21
16.85522823111625
 31
0.0
  0
LINE
  5
1CC
330
2
100
AcDbEntity
  8
GAIKEI
 62
     1
100
AcDbLine
 10
16.45638224814934
 20
17.35923281361829
 30
0.0
 11
16.21139054695561
 21
17.35923281361829
 31
0.0
  0
LINE
  5
1CD
330
2
100
AcDbEntity
  8
GAIKEI
 62
     1
100
AcDbLine
 10
16.95280781437316
 20
16.85522823111625
 30
0.0
 11
16.95280781437316
 21
17.35923281361829
 31
0.0
  0
LINE
  5
1CE
330
2
100
AcDbEntity
  8
GAIKEI
 62
     1
100
AcDbLine
 10
16.70743716236558
 20
16.85522823111625
 30
0.0
 11
16.95280781437316
 21
16.85522823111625
 31
0.0
  0
LINE
  5
1CF
330
2
100
AcDbEntity
  8
GAIKEI
 62
     1
100
AcDbLine
 10
16.70743716236558
 20
17.35923281361829
 30
0.0
 11
16.70743716236558
 21
16.85522823111625
 31
0.0
  0
LINE
  5
1D0
330
2
100
AcDbEntity
  8
GAIKEI
 62
     1
100
AcDbLine
 10
16.95280781437316
 20
17.35923281361829
 30
0.0
 11
16.70743716236558
 21
17.35923281361829
 31
0.0
  0
LINE
  5
1D1
330
2
100
AcDbEntity
  8
GAIKEI
 62
     1
100
AcDbLine
 10
17.44866495437611
 20
16.85522823111625
 30
0.0
 11
17.44866495437611
 21
17.35923281361829
 31
0.0
  0
LINE
  5
1D2
330
2
100
AcDbEntity
  8
GAIKEI
 62
     1
100
AcDbLine
 10
17.20367325318244
 20
16.85522823111625
 30
0.0
 11
17.44866495437611
 21
16.85522823111625
 31
0.0
  0
LINE
  5
1D3
330
2
100
AcDbEntity
  8
GAIKEI
 62
     1
100
AcDbLine
 10
17.20367325318244
 20
17.35923281361829
 30
0.0
 11
17.20367325318244
 21
16.85522823111625
 31
0.0
  0
LINE
  5
1D4
330
2
100
AcDbEntity
  8
GAIKEI
 62
     1
100
AcDbLine
 10
17.44866495437611
 20
17.35923281361829
 30
0.0
 11
17.20367325318244
 21
17.35923281361829
 31
0.0
  0
LINE
  5
1D5
330
2
100
AcDbEntity
  8
GAIKEI
 62
     1
100
AcDbLine
 10
17.94509052059993
 20
16.85522823111625
 30
0.0
 11
17.94509052059993
 21
17.35923281361829
 31
0.0
  0
LINE
  5
1D6
330
2
100
AcDbEntity
  8
GAIKEI
 62
     1
100
AcDbLine
 10
17.69990934399931
 20
16.85522823111625
 30
0.0
 11
17.94509052059993
 21
16.85522823111625
 31
0.0
  0
LINE
  5
1D7
330
2
100
AcDbEntity
  8
GAIKEI
 62
     1
100
AcDbLine
 10
17.69990934399931
 20
17.35923281361829
 30
0.0
 11
17.69990934399931
 21
16.85522823111625
 31
0.0
  0
LINE
  5
1D8
330
2
100
AcDbEntity
  8
GAIKEI
 62
     1
100
AcDbLine
 10
17.94509052059993
 20
17.35923281361829
 30
0.0
 11
17.69990934399931
 21
17.35923281361829
 31
0.0
  0
LINE
  5
1D9
330
2
100
AcDbEntity
  8
GAIKEI
 62
     1
100
AcDbLine
 10
18.4411371360099
 20
16.85522823111625
 30
0.0
 11
18.4411371360099
 21
17.35923281361829
 31
0.0
  0
LINE
  5
1DA
330
2
100
AcDbEntity
  8
GAIKEI
 62
     1
100
AcDbLine
 10
18.19614543481623
 20
16.85522823111625
 30
0.0
 11
18.4411371360099
 21
16.85522823111625
 31
0.0
  0
LINE
  5
1DB
330
2
100
AcDbEntity
  8
GAIKEI
 62
     1
100
AcDbLine
 10
18.19614543481623
 20
17.35923281361829
 30
0.0
 11
18.19614543481623
 21
16.85522823111625
 31
0.0
  0
LINE
  5
1DC
330
2
100
AcDbEntity
  8
GAIKEI
 62
     1
100
AcDbLine
 10
18.4411371360099
 20
17.35923281361829
 30
0.0
 11
18.19614543481623
 21
17.35923281361829
 31
0.0
  0
LINE
  5
1DD
330
2
100
AcDbEntity
  8
GAIKEI
 62
     1
100
AcDbLine
 10
18.93718375141981
 20
16.85522823111625
 30
0.0
 11
18.93718375141981
 21
17.35923281361829
 31
0.0
  0
LINE
  5
1DE
330
2
100
AcDbEntity
  8
GAIKEI
 62
     1
100
AcDbLine
 10
18.69200257481917
 20
16.85522823111625
 30
0.0
 11
18.93718375141981
 21
16.85522823111625
 31
0.0
  0
LINE
  5
1DF
330
2
100
AcDbEntity
  8
GAIKEI
 62
     1
100
AcDbLine
 10
18.69200257481917
 20
17.35923281361829
 30
0.0
 11
18.69200257481917
 21
16.85522823111625
 31
0.0
  0
LINE
  5
1E0
330
2
100
AcDbEntity
  8
GAIKEI
 62
     1
100
AcDbLine
 10
18.93718375141981
 20
17.35923281361829
 30
0.0
 11
18.69200257481917
 21
17.35923281361829
 31
0.0
  0
LINE
  5
1E1
330
2
100
AcDbEntity
  8
GAIKEI
 62
     1
100
AcDbLine
 10
19.43341984223667
 20
16.85522823111625
 30
0.0
 11
19.43341984223667
 21
17.35923281361829
 31
0.0
  0
LINE
  5
1E2
330
2
100
AcDbEntity
  8
GAIKEI
 62
     1
100
AcDbLine
 10
19.18823866563599
 20
16.85522823111625
 30
0.0
 11
19.43341984223667
 21
16.85522823111625
 31
0.0
  0
LINE
  5
1E3
330
2
100
AcDbEntity
  8
GAIKEI
 62
     1
100
AcDbLine
 10
19.18823866563599
 20
17.35923281361829
 30
0.0
 11
19.18823866563599
 21
16.85522823111625
 31
0.0
  0
LINE
  5
1E4
330
2
100
AcDbEntity
  8
GAIKEI
 62
     1
100
AcDbLine
 10
19.43341984223667
 20
17.35923281361829
 30
0.0
 11
19.18823866563599
 21
17.35923281361829
 31
0.0
  0
LINE
  5
1E5
330
2
100
AcDbEntity
  8
GAIKEI
 62
     1
100
AcDbLine
 10
19.92927698223963
 20
16.85522823111625
 30
0.0
 11
19.92927698223963
 21
17.35923281361829
 31
0.0
  0
LINE
  5
1E6
330
2
100
AcDbEntity
  8
GAIKEI
 62
     1
100
AcDbLine
 10
19.68447475645291
 20
16.85522823111625
 30
0.0
 11
19.92927698223963
 21
16.85522823111625
 31
0.0
  0
LINE
  5
1E7
330
2
100
AcDbEntity
  8
GAIKEI
 62
     1
100
AcDbLine
 10
19.68447475645291
 20
17.35923281361829
 30
0.0
 11
19.68447475645291
 21
16.85522823111625
 31
0.0
  0
LINE
  5
1E8
330
2
100
AcDbEntity
  8
GAIKEI
 62
     1
100
AcDbLine
 10
19.92927698223963
 20
17.35923281361829
 30
0.0
 11
19.68447475645291
 21
17.35923281361829
 31
0.0
  0
LINE
  5
1E9
330
2
100
AcDbEntity
  8
GAIKEI
 62
     1
100
AcDbLine
 10
20.42570254846345
 20
16.85522823111625
 30
0.0
 11
20.42570254846345
 21
17.35923281361829
 31
0.0
  0
LINE
  5
1EA
330
2
100
AcDbEntity
  8
GAIKEI
 62
     1
100
AcDbLine
 10
20.18052137186282
 20
16.85522823111625
 30
0.0
 11
20.42570254846345
 21
16.85522823111625
 31
0.0
  0
LINE
  5
1EB
330
2
100
AcDbEntity
  8
GAIKEI
 62
     1
100
AcDbLine
 10
20.18052137186282
 20
17.35923281361829
 30
0.0
 11
20.18052137186282
 21
16.85522823111625
 31
0.0
  0
LINE
  5
1EC
330
2
100
AcDbEntity
  8
GAIKEI
 62
     1
100
AcDbLine
 10
20.42570254846345
 20
17.35923281361829
 30
0.0
 11
20.18052137186282
 21
17.35923281361829
 31
0.0
  0
LINE
  5
1ED
330
2
100
AcDbEntity
  8
GAIKEI
 62
     1
100
AcDbLine
 10
20.92193863928031
 20
16.85522823111625
 30
0.0
 11
20.92193863928031
 21
17.35923281361829
 31
0.0
  0
LINE
  5
1EE
330
2
100
AcDbEntity
  8
GAIKEI
 62
     1
100
AcDbLine
 10
20.67656798727274
 20
16.85522823111625
 30
0.0
 11
20.92193863928031
 21
16.85522823111625
 31
0.0
  0
LINE
  5
1EF
330
2
100
AcDbEntity
  8
GAIKEI
 62
     1
100
AcDbLine
 10
20.67656798727274
 20
17.35923281361829
 30
0.0
 11
20.67656798727274
 21
16.85522823111625
 31
0.0
  0
LINE
  5
1F0
330
2
100
AcDbEntity
  8
GAIKEI
 62
     1
100
AcDbLine
 10
20.92193863928031
 20
17.35923281361829
 30
0.0
 11
20.67656798727274
 21
17.35923281361829
 31
0.0
  0
LINE
  5
1F1
330
2
100
AcDbEntity
  8
GAIKEI
 62
     1
100
AcDbLine
 10
21.41779577928327
 20
16.85522823111625
 30
0.0
 11
21.41779577928327
 21
17.35923281361829
 31
0.0
  0
LINE
  5
1F2
330
2
100
AcDbEntity
  8
GAIKEI
 62
     1
100
AcDbLine
 10
21.17280407808966
 20
16.85522823111625
 30
0.0
 11
21.41779577928327
 21
16.85522823111625
 31
0.0
  0
LINE
  5
1F3
330
2
100
AcDbEntity
  8
GAIKEI
 62
     1
100
AcDbLine
 10
21.17280407808966
 20
17.35923281361829
 30
0.0
 11
21.17280407808966
 21
16.85522823111625
 31
0.0
  0
LINE
  5
1F4
330
2
100
AcDbEntity
  8
GAIKEI
 62
     1
100
AcDbLine
 10
21.41779577928327
 20
17.35923281361829
 30
0.0
 11
21.17280407808966
 21
17.35923281361829
 31
0.0
  0
LINE
  5
1F5
330
2
100
AcDbEntity
  8
GAIKEI
 62
     1
100
AcDbLine
 10
21.91403187010019
 20
16.85522823111625
 30
0.0
 11
21.91403187010019
 21
17.35923281361829
 31
0.0
  0
LINE
  5
1F6
330
2
100
AcDbEntity
  8
GAIKEI
 62
     1
100
AcDbLine
 10
21.66885069349957
 20
16.85522823111625
 30
0.0
 11
21.91403187010019
 21
16.85522823111625
 31
0.0
  0
LINE
  5
1F7
330
2
100
AcDbEntity
  8
GAIKEI
 62
     1
100
AcDbLine
 10
21.66885069349957
 20
17.35923281361829
 30
0.0
 11
21.66885069349957
 21
16.85522823111625
 31
0.0
  0
LINE
  5
1F8
330
2
100
AcDbEntity
  8
GAIKEI
 62
     1
100
AcDbLine
 10
21.91403187010019
 20
17.35923281361829
 30
0.0
 11
21.66885069349957
 21
17.35923281361829
 31
0.0
  0
LINE
  5
1F9
330
2
100
AcDbEntity
  8
GAIKEI
 62
     1
100
AcDbLine
 10
22.41026796091706
 20
16.85522823111625
 30
0.0
 11
22.41026796091706
 21
17.35923281361829
 31
0.0
  0
LINE
  5
1FA
330
2
100
AcDbEntity
  8
GAIKEI
 62
     1
100
AcDbLine
 10
22.16527625972338
 20
16.85522823111625
 30
0.0
 11
22.41026796091706
 21
16.85522823111625
 31
0.0
  0
LINE
  5
1FB
330
2
100
AcDbEntity
  8
GAIKEI
 62
     1
100
AcDbLine
 10
22.16527625972338
 20
17.35923281361829
 30
0.0
 11
22.16527625972338
 21
16.85522823111625
 31
0.0
  0
LINE
  5
1FC
330
2
100
AcDbEntity
  8
GAIKEI
 62
     1
100
AcDbLine
 10
22.41026796091706
 20
17.35923281361829
 30
0.0
 11
22.16527625972338
 21
17.35923281361829
 31
0.0
  0
LINE
  5
1FD
330
2
100
AcDbEntity
  8
GAIKEI
 62
     1
100
AcDbLine
 10
22.90631457632696
 20
16.85522823111625
 30
0.0
 11
22.90631457632696
 21
17.35923281361829
 31
0.0
  0
LINE
  5
1FE
330
2
100
AcDbEntity
  8
GAIKEI
 62
     1
100
AcDbLine
 10
22.66113339972634
 20
16.85522823111625
 30
0.0
 11
22.90631457632696
 21
16.85522823111625
 31
0.0
  0
LINE
  5
1FF
330
2
100
AcDbEntity
  8
GAIKEI
 62
     1
100
AcDbLine
 10
22.66113339972634
 20
17.35923281361829
 30
0.0
 11
22.66113339972634
 21
16.85522823111625
 31
0.0
  0
LINE
  5
200
330
2
100
AcDbEntity
  8
GAIKEI
 62
     1
100
AcDbLine
 10
22.90631457632696
 20
17.35923281361829
 30
0.0
 11
22.66113339972634
 21
17.35923281361829
 31
0.0
  0
LINE
  5
201
330
2
100
AcDbEntity
  8
GAIKEI
 62
     1
100
AcDbLine
 10
24.12255721357536
 20
12.88060261940734
 30
0.0
 11
24.12255721357536
 21
13.38479667731633
 31
0.0
  0
LINE
  5
202
330
2
100
AcDbEntity
  8
GAIKEI
 62
     1
100
AcDbLine
 10
23.87756551238169
 20
12.88060261940734
 30
0.0
 11
24.12255721357536
 21
12.88060261940734
 31
0.0
  0
LINE
  5
203
330
2
100
AcDbEntity
  8
GAIKEI
 62
     1
100
AcDbLine
 10
23.87756551238169
 20
13.38479667731633
 30
0.0
 11
23.87756551238169
 21
12.88060261940734
 31
0.0
  0
LINE
  5
204
330
2
100
AcDbEntity
  8
GAIKEI
 62
     1
100
AcDbLine
 10
24.12255721357536
 20
13.38479667731633
 30
0.0
 11
23.87756551238169
 21
13.38479667731633
 31
0.0
  0
LINE
  5
205
330
2
100
AcDbEntity
  8
GAIKEI
 62
     1
100
AcDbLine
 10
24.61860382898527
 20
12.88060261940734
 30
0.0
 11
24.61860382898527
 21
13.38479667731633
 31
0.0
  0
LINE
  5
206
330
2
100
AcDbEntity
  8
GAIKEI
 62
     1
100
AcDbLine
 10
24.37361212779161
 20
12.88060261940734
 30
0.0
 11
24.61860382898527
 21
12.88060261940734
 31
0.0
  0
LINE
  5
207
330
2
100
AcDbEntity
  8
GAIKEI
 62
     1
100
AcDbLine
 10
24.37361212779161
 20
13.38479667731633
 30
0.0
 11
24.37361212779161
 21
12.88060261940734
 31
0.0
  0
LINE
  5
208
330
2
100
AcDbEntity
  8
GAIKEI
 62
     1
100
AcDbLine
 10
24.61860382898527
 20
13.38479667731633
 30
0.0
 11
24.37361212779161
 21
13.38479667731633
 31
0.0
  0
LINE
  5
209
330
2
100
AcDbEntity
  8
GAIKEI
 62
     1
100
AcDbLine
 10
25.11493465750561
 20
12.88060261940734
 30
0.0
 11
25.11493465750561
 21
13.38479667731633
 31
0.0
  0
LINE
  5
20A
330
2
100
AcDbEntity
  8
GAIKEI
 62
     1
100
AcDbLine
 10
24.86965874320151
 20
12.88060261940734
 30
0.0
 11
25.11493465750561
 21
12.88060261940734
 31
0.0
  0
LINE
  5
20B
330
2
100
AcDbEntity
  8
GAIKEI
 62
     1
100
AcDbLine
 10
24.86965874320151
 20
13.38479667731633
 30
0.0
 11
24.86965874320151
 21
12.88060261940734
 31
0.0
  0
LINE
  5
20C
330
2
100
AcDbEntity
  8
GAIKEI
 62
     1
100
AcDbLine
 10
25.11493465750561
 20
13.38479667731633
 30
0.0
 11
24.86965874320151
 21
13.38479667731633
 31
0.0
  0
LINE
  5
20D
330
2
100
AcDbEntity
  8
GAIKEI
 62
     1
100
AcDbLine
 10
25.611076010619
 20
12.88060261940734
 30
0.0
 11
25.611076010619
 21
13.38479667731633
 31
0.0
  0
LINE
  5
20E
330
2
100
AcDbEntity
  8
GAIKEI
 62
     1
100
AcDbLine
 10
25.36598957172186
 20
12.88060261940734
 30
0.0
 11
25.611076010619
 21
12.88060261940734
 31
0.0
  0
LINE
  5
20F
330
2
100
AcDbEntity
  8
GAIKEI
 62
     1
100
AcDbLine
 10
25.36598957172186
 20
13.38479667731633
 30
0.0
 11
25.36598957172186
 21
12.88060261940734
 31
0.0
  0
LINE
  5
210
330
2
100
AcDbEntity
  8
GAIKEI
 62
     1
100
AcDbLine
 10
25.611076010619
 20
13.38479667731633
 30
0.0
 11
25.36598957172186
 21
13.38479667731633
 31
0.0
  0
LINE
  5
211
330
2
100
AcDbEntity
  8
GAIKEI
 62
     1
100
AcDbLine
 10
26.10712262602897
 20
12.88060261940734
 30
0.0
 11
26.10712262602897
 21
13.38479667731633
 31
0.0
  0
LINE
  5
212
330
2
100
AcDbEntity
  8
GAIKEI
 62
     1
100
AcDbLine
 10
25.86213092483524
 20
12.88060261940734
 30
0.0
 11
26.10712262602897
 21
12.88060261940734
 31
0.0
  0
LINE
  5
213
330
2
100
AcDbEntity
  8
GAIKEI
 62
     1
100
AcDbLine
 10
25.86213092483524
 20
13.38479667731633
 30
0.0
 11
25.86213092483524
 21
12.88060261940734
 31
0.0
  0
LINE
  5
214
330
2
100
AcDbEntity
  8
GAIKEI
 62
     1
100
AcDbLine
 10
26.10712262602897
 20
13.38479667731633
 30
0.0
 11
25.86213092483524
 21
13.38479667731633
 31
0.0
  0
LINE
  5
215
330
2
100
AcDbEntity
  8
GAIKEI
 62
     1
100
AcDbLine
 10
26.60326397914236
 20
12.88060261940734
 30
0.0
 11
26.60326397914236
 21
13.38479667731633
 31
0.0
  0
LINE
  5
216
330
2
100
AcDbEntity
  8
GAIKEI
 62
     1
100
AcDbLine
 10
26.3579880648382
 20
12.88060261940734
 30
0.0
 11
26.60326397914236
 21
12.88060261940734
 31
0.0
  0
LINE
  5
217
330
2
100
AcDbEntity
  8
GAIKEI
 62
     1
100
AcDbLine
 10
26.3579880648382
 20
13.38479667731633
 30
0.0
 11
26.3579880648382
 21
12.88060261940734
 31
0.0
  0
LINE
  5
218
330
2
100
AcDbEntity
  8
GAIKEI
 62
     1
100
AcDbLine
 10
26.60326397914236
 20
13.38479667731633
 30
0.0
 11
26.3579880648382
 21
13.38479667731633
 31
0.0
  0
LINE
  5
219
330
2
100
AcDbEntity
  8
GAIKEI
 62
     1
100
AcDbLine
 10
27.09940533225574
 20
12.88060261940734
 30
0.0
 11
27.09940533225574
 21
13.38479667731633
 31
0.0
  0
LINE
  5
21A
330
2
100
AcDbEntity
  8
GAIKEI
 62
     1
100
AcDbLine
 10
26.85431889335859
 20
12.88060261940734
 30
0.0
 11
27.09940533225574
 21
12.88060261940734
 31
0.0
  0
LINE
  5
21B
330
2
100
AcDbEntity
  8
GAIKEI
 62
     1
100
AcDbLine
 10
26.85431889335859
 20
13.38479667731633
 30
0.0
 11
26.85431889335859
 21
12.88060261940734
 31
0.0
  0
LINE
  5
21C
330
2
100
AcDbEntity
  8
GAIKEI
 62
     1
100
AcDbLine
 10
27.09940533225574
 20
13.38479667731633
 30
0.0
 11
26.85431889335859
 21
13.38479667731633
 31
0.0
  0
LINE
  5
21D
330
2
100
AcDbEntity
  8
GAIKEI
 62
     1
100
AcDbLine
 10
27.59554668536913
 20
12.88060261940734
 30
0.0
 11
27.59554668536913
 21
13.38479667731633
 31
0.0
  0
LINE
  5
21E
330
2
100
AcDbEntity
  8
GAIKEI
 62
     1
100
AcDbLine
 10
27.35046024647199
 20
12.88060261940734
 30
0.0
 11
27.59554668536913
 21
12.88060261940734
 31
0.0
  0
LINE
  5
21F
330
2
100
AcDbEntity
  8
GAIKEI
 62
     1
100
AcDbLine
 10
27.35046024647199
 20
13.38479667731633
 30
0.0
 11
27.35046024647199
 21
12.88060261940734
 31
0.0
  0
LINE
  5
220
330
2
100
AcDbEntity
  8
GAIKEI
 62
     1
100
AcDbLine
 10
27.59554668536913
 20
13.38479667731633
 30
0.0
 11
27.35046024647199
 21
13.38479667731633
 31
0.0
  0
LINE
  5
221
330
2
100
AcDbEntity
  8
GAIKEI
 62
     1
100
AcDbLine
 10
28.09159330077904
 20
12.88060261940734
 30
0.0
 11
28.09159330077904
 21
13.38479667731633
 31
0.0
  0
LINE
  5
222
330
2
100
AcDbEntity
  8
GAIKEI
 62
     1
100
AcDbLine
 10
27.84660159958537
 20
12.88060261940734
 30
0.0
 11
28.09159330077904
 21
12.88060261940734
 31
0.0
  0
LINE
  5
223
330
2
100
AcDbEntity
  8
GAIKEI
 62
     1
100
AcDbLine
 10
27.84660159958537
 20
13.38479667731633
 30
0.0
 11
27.84660159958537
 21
12.88060261940734
 31
0.0
  0
LINE
  5
224
330
2
100
AcDbEntity
  8
GAIKEI
 62
     1
100
AcDbLine
 10
28.09159330077904
 20
13.38479667731633
 30
0.0
 11
27.84660159958537
 21
13.38479667731633
 31
0.0
  0
LINE
  5
225
330
2
100
AcDbEntity
  8
GAIKEI
 62
     1
100
AcDbLine
 10
28.58773465389243
 20
12.88060261940734
 30
0.0
 11
28.58773465389243
 21
13.38479667731633
 31
0.0
  0
LINE
  5
226
330
2
100
AcDbEntity
  8
GAIKEI
 62
     1
100
AcDbLine
 10
28.34264821499528
 20
12.88060261940734
 30
0.0
 11
28.58773465389243
 21
12.88060261940734
 31
0.0
  0
LINE
  5
227
330
2
100
AcDbEntity
  8
GAIKEI
 62
     1
100
AcDbLine
 10
28.34264821499528
 20
13.38479667731633
 30
0.0
 11
28.34264821499528
 21
12.88060261940734
 31
0.0
  0
LINE
  5
228
330
2
100
AcDbEntity
  8
GAIKEI
 62
     1
100
AcDbLine
 10
28.58773465389243
 20
13.38479667731633
 30
0.0
 11
28.34264821499528
 21
13.38479667731633
 31
0.0
  0
LINE
  5
229
330
2
100
AcDbEntity
  8
GAIKEI
 62
     1
100
AcDbLine
 10
29.08406548241283
 20
12.88060261940734
 30
0.0
 11
29.08406548241283
 21
13.38479667731633
 31
0.0
  0
LINE
  5
22A
330
2
100
AcDbEntity
  8
GAIKEI
 62
     1
100
AcDbLine
 10
28.83897904351562
 20
12.88060261940734
 30
0.0
 11
29.08406548241283
 21
12.88060261940734
 31
0.0
  0
LINE
  5
22B
330
2
100
AcDbEntity
  8
GAIKEI
 62
     1
100
AcDbLine
 10
28.83897904351562
 20
13.38479667731633
 30
0.0
 11
28.83897904351562
 21
12.88060261940734
 31
0.0
  0
LINE
  5
22C
330
2
100
AcDbEntity
  8
GAIKEI
 62
     1
100
AcDbLine
 10
29.08406548241283
 20
13.38479667731633
 30
0.0
 11
28.83897904351562
 21
13.38479667731633
 31
0.0
  0
LINE
  5
22D
330
2
100
AcDbEntity
  8
GAIKEI
 62
     1
100
AcDbLine
 10
29.58020683552621
 20
12.88060261940734
 30
0.0
 11
29.58020683552621
 21
13.38479667731633
 31
0.0
  0
LINE
  5
22E
330
2
100
AcDbEntity
  8
GAIKEI
 62
     1
100
AcDbLine
 10
29.33512039662907
 20
12.88060261940734
 30
0.0
 11
29.58020683552621
 21
12.88060261940734
 31
0.0
  0
LINE
  5
22F
330
2
100
AcDbEntity
  8
GAIKEI
 62
     1
100
AcDbLine
 10
29.33512039662907
 20
13.38479667731633
 30
0.0
 11
29.33512039662907
 21
12.88060261940734
 31
0.0
  0
LINE
  5
230
330
2
100
AcDbEntity
  8
GAIKEI
 62
     1
100
AcDbLine
 10
29.58020683552621
 20
13.38479667731633
 30
0.0
 11
29.33512039662907
 21
13.38479667731633
 31
0.0
  0
LINE
  5
231
330
2
100
AcDbEntity
  8
GAIKEI
 62
     1
100
AcDbLine
 10
30.07625345093612
 20
12.88060261940734
 30
0.0
 11
30.07625345093612
 21
13.38479667731633
 31
0.0
  0
LINE
  5
232
330
2
100
AcDbEntity
  8
GAIKEI
 62
     1
100
AcDbLine
 10
29.83126174974245
 20
12.88060261940734
 30
0.0
 11
30.07625345093612
 21
12.88060261940734
 31
0.0
  0
LINE
  5
233
330
2
100
AcDbEntity
  8
GAIKEI
 62
     1
100
AcDbLine
 10
29.83126174974245
 20
13.38479667731633
 30
0.0
 11
29.83126174974245
 21
12.88060261940734
 31
0.0
  0
LINE
  5
234
330
2
100
AcDbEntity
  8
GAIKEI
 62
     1
100
AcDbLine
 10
30.07625345093612
 20
13.38479667731633
 30
0.0
 11
29.83126174974245
 21
13.38479667731633
 31
0.0
  0
LINE
  5
235
330
2
100
AcDbEntity
  8
GAIKEI
 62
     1
100
AcDbLine
 10
30.57239480404951
 20
12.88060261940734
 30
0.0
 11
30.57239480404951
 21
13.38479667731633
 31
0.0
  0
LINE
  5
236
330
2
100
AcDbEntity
  8
GAIKEI
 62
     1
100
AcDbLine
 10
30.32730836515237
 20
12.88060261940734
 30
0.0
 11
30.57239480404951
 21
12.88060261940734
 31
0.0
  0
LINE
  5
237
330
2
100
AcDbEntity
  8
GAIKEI
 62
     1
100
AcDbLine
 10
30.32730836515237
 20
13.38479667731633
 30
0.0
 11
30.32730836515237
 21
12.88060261940734
 31
0.0
  0
LINE
  5
238
330
2
100
AcDbEntity
  8
GAIKEI
 62
     1
100
AcDbLine
 10
30.57239480404951
 20
13.38479667731633
 30
0.0
 11
30.32730836515237
 21
13.38479667731633
 31
0.0
  0
LINE
  5
239
330
2
100
AcDbEntity
  8
GAIKEI
 62
     1
100
AcDbLine
 10
31.06853615716295
 20
12.88060261940734
 30
0.0
 11
31.06853615716295
 21
13.38479667731633
 31
0.0
  0
LINE
  5
23A
330
2
100
AcDbEntity
  8
GAIKEI
 62
     1
100
AcDbLine
 10
30.82344971826575
 20
12.88060261940734
 30
0.0
 11
31.06853615716295
 21
12.88060261940734
 31
0.0
  0
LINE
  5
23B
330
2
100
AcDbEntity
  8
GAIKEI
 62
     1
100
AcDbLine
 10
30.82344971826575
 20
13.38479667731633
 30
0.0
 11
30.82344971826575
 21
12.88060261940734
 31
0.0
  0
LINE
  5
23C
330
2
100
AcDbEntity
  8
GAIKEI
 62
     1
100
AcDbLine
 10
31.06853615716295
 20
13.38479667731633
 30
0.0
 11
30.82344971826575
 21
13.38479667731633
 31
0.0
  0
LINE
  5
23D
330
2
100
AcDbEntity
  8
GAIKEI
 62
     1
100
AcDbLine
 10
31.56458277257286
 20
12.88060261940734
 30
0.0
 11
31.56458277257286
 21
13.38479667731633
 31
0.0
  0
LINE
  5
23E
330
2
100
AcDbEntity
  8
GAIKEI
 62
     1
100
AcDbLine
 10
31.31959107137915
 20
12.88060261940734
 30
0.0
 11
31.56458277257286
 21
12.88060261940734
 31
0.0
  0
LINE
  5
23F
330
2
100
AcDbEntity
  8
GAIKEI
 62
     1
100
AcDbLine
 10
31.31959107137915
 20
13.38479667731633
 30
0.0
 11
31.31959107137915
 21
12.88060261940734
 31
0.0
  0
LINE
  5
240
330
2
100
AcDbEntity
  8
GAIKEI
 62
     1
100
AcDbLine
 10
31.56458277257286
 20
13.38479667731633
 30
0.0
 11
31.31959107137915
 21
13.38479667731633
 31
0.0
  0
LINE
  5
241
330
2
100
AcDbEntity
  8
GAIKEI
 62
     1
100
AcDbLine
 10
24.12255721357536
 20
13.63623054234654
 30
0.0
 11
24.12255721357536
 21
14.14023512484857
 31
0.0
  0
LINE
  5
242
330
2
100
AcDbEntity
  8
GAIKEI
 62
     1
100
AcDbLine
 10
23.87756551238169
 20
13.63623054234654
 30
0.0
 11
24.12255721357536
 21
13.63623054234654
 31
0.0
  0
LINE
  5
243
330
2
100
AcDbEntity
  8
GAIKEI
 62
     1
100
AcDbLine
 10
23.87756551238169
 20
14.14023512484857
 30
0.0
 11
23.87756551238169
 21
13.63623054234654
 31
0.0
  0
LINE
  5
244
330
2
100
AcDbEntity
  8
GAIKEI
 62
     1
100
AcDbLine
 10
24.12255721357536
 20
14.14023512484857
 30
0.0
 11
23.87756551238169
 21
14.14023512484857
 31
0.0
  0
LINE
  5
245
330
2
100
AcDbEntity
  8
GAIKEI
 62
     1
100
AcDbLine
 10
24.61860382898527
 20
13.63623054234654
 30
0.0
 11
24.61860382898527
 21
14.14023512484857
 31
0.0
  0
LINE
  5
246
330
2
100
AcDbEntity
  8
GAIKEI
 62
     1
100
AcDbLine
 10
24.37361212779161
 20
13.63623054234654
 30
0.0
 11
24.61860382898527
 21
13.63623054234654
 31
0.0
  0
LINE
  5
247
330
2
100
AcDbEntity
  8
GAIKEI
 62
     1
100
AcDbLine
 10
24.37361212779161
 20
14.14023512484857
 30
0.0
 11
24.37361212779161
 21
13.63623054234654
 31
0.0
  0
LINE
  5
248
330
2
100
AcDbEntity
  8
GAIKEI
 62
     1
100
AcDbLine
 10
24.61860382898527
 20
14.14023512484857
 30
0.0
 11
24.37361212779161
 21
14.14023512484857
 31
0.0
  0
LINE
  5
249
330
2
100
AcDbEntity
  8
GAIKEI
 62
     1
100
AcDbLine
 10
25.11493465750561
 20
13.63623054234654
 30
0.0
 11
25.11493465750561
 21
14.14023512484857
 31
0.0
  0
LINE
  5
24A
330
2
100
AcDbEntity
  8
GAIKEI
 62
     1
100
AcDbLine
 10
24.86965874320151
 20
13.63623054234654
 30
0.0
 11
25.11493465750561
 21
13.63623054234654
 31
0.0
  0
LINE
  5
24B
330
2
100
AcDbEntity
  8
GAIKEI
 62
     1
100
AcDbLine
 10
24.86965874320151
 20
14.14023512484857
 30
0.0
 11
24.86965874320151
 21
13.63623054234654
 31
0.0
  0
LINE
  5
24C
330
2
100
AcDbEntity
  8
GAIKEI
 62
     1
100
AcDbLine
 10
25.11493465750561
 20
14.14023512484857
 30
0.0
 11
24.86965874320151
 21
14.14023512484857
 31
0.0
  0
LINE
  5
24D
330
2
100
AcDbEntity
  8
GAIKEI
 62
     1
100
AcDbLine
 10
25.611076010619
 20
13.63623054234654
 30
0.0
 11
25.611076010619
 21
14.14023512484857
 31
0.0
  0
LINE
  5
24E
330
2
100
AcDbEntity
  8
GAIKEI
 62
     1
100
AcDbLine
 10
25.36598957172186
 20
13.63623054234654
 30
0.0
 11
25.611076010619
 21
13.63623054234654
 31
0.0
  0
LINE
  5
24F
330
2
100
AcDbEntity
  8
GAIKEI
 62
     1
100
AcDbLine
 10
25.36598957172186
 20
14.14023512484857
 30
0.0
 11
25.36598957172186
 21
13.63623054234654
 31
0.0
  0
LINE
  5
250
330
2
100
AcDbEntity
  8
GAIKEI
 62
     1
100
AcDbLine
 10
25.611076010619
 20
14.14023512484857
 30
0.0
 11
25.36598957172186
 21
14.14023512484857
 31
0.0
  0
LINE
  5
251
330
2
100
AcDbEntity
  8
GAIKEI
 62
     1
100
AcDbLine
 10
26.10712262602897
 20
13.63623054234654
 30
0.0
 11
26.10712262602897
 21
14.14023512484857
 31
0.0
  0
LINE
  5
252
330
2
100
AcDbEntity
  8
GAIKEI
 62
     1
100
AcDbLine
 10
25.8621309248353
 20
13.63623054234654
 30
0.0
 11
26.10712262602897
 21
13.63623054234654
 31
0.0
  0
LINE
  5
253
330
2
100
AcDbEntity
  8
GAIKEI
 62
     1
100
AcDbLine
 10
25.8621309248353
 20
14.14023512484857
 30
0.0
 11
25.8621309248353
 21
13.63623054234654
 31
0.0
  0
LINE
  5
254
330
2
100
AcDbEntity
  8
GAIKEI
 62
     1
100
AcDbLine
 10
26.10712262602897
 20
14.14023512484857
 30
0.0
 11
25.8621309248353
 21
14.14023512484857
 31
0.0
  0
LINE
  5
255
330
2
100
AcDbEntity
  8
GAIKEI
 62
     1
100
AcDbLine
 10
26.60326397914236
 20
13.63623054234654
 30
0.0
 11
26.60326397914236
 21
14.14023512484857
 31
0.0
  0
LINE
  5
256
330
2
100
AcDbEntity
  8
GAIKEI
 62
     1
100
AcDbLine
 10
26.3579880648382
 20
13.63623054234654
 30
0.0
 11
26.60326397914236
 21
13.63623054234654
 31
0.0
  0
LINE
  5
257
330
2
100
AcDbEntity
  8
GAIKEI
 62
     1
100
AcDbLine
 10
26.3579880648382
 20
14.14023512484857
 30
0.0
 11
26.3579880648382
 21
13.63623054234654
 31
0.0
  0
LINE
  5
258
330
2
100
AcDbEntity
  8
GAIKEI
 62
     1
100
AcDbLine
 10
26.60326397914236
 20
14.14023512484857
 30
0.0
 11
26.3579880648382
 21
14.14023512484857
 31
0.0
  0
LINE
  5
259
330
2
100
AcDbEntity
  8
GAIKEI
 62
     1
100
AcDbLine
 10
27.09940533225574
 20
13.63623054234654
 30
0.0
 11
27.09940533225574
 21
14.14023512484857
 31
0.0
  0
LINE
  5
25A
330
2
100
AcDbEntity
  8
GAIKEI
 62
     1
100
AcDbLine
 10
26.85431889335859
 20
13.63623054234654
 30
0.0
 11
27.09940533225574
 21
13.63623054234654
 31
0.0
  0
LINE
  5
25B
330
2
100
AcDbEntity
  8
GAIKEI
 62
     1
100
AcDbLine
 10
26.85431889335859
 20
14.14023512484857
 30
0.0
 11
26.85431889335859
 21
13.63623054234654
 31
0.0
  0
LINE
  5
25C
330
2
100
AcDbEntity
  8
GAIKEI
 62
     1
100
AcDbLine
 10
27.09940533225574
 20
14.14023512484857
 30
0.0
 11
26.85431889335859
 21
14.14023512484857
 31
0.0
  0
LINE
  5
25D
330
2
100
AcDbEntity
  8
GAIKEI
 62
     1
100
AcDbLine
 10
27.59554668536913
 20
13.63623054234654
 30
0.0
 11
27.59554668536913
 21
14.14023512484857
 31
0.0
  0
LINE
  5
25E
330
2
100
AcDbEntity
  8
GAIKEI
 62
     1
100
AcDbLine
 10
27.35046024647199
 20
13.63623054234654
 30
0.0
 11
27.59554668536913
 21
13.63623054234654
 31
0.0
  0
LINE
  5
25F
330
2
100
AcDbEntity
  8
GAIKEI
 62
     1
100
AcDbLine
 10
27.35046024647199
 20
14.14023512484857
 30
0.0
 11
27.35046024647199
 21
13.63623054234654
 31
0.0
  0
LINE
  5
260
330
2
100
AcDbEntity
  8
GAIKEI
 62
     1
100
AcDbLine
 10
27.59554668536913
 20
14.14023512484857
 30
0.0
 11
27.35046024647199
 21
14.14023512484857
 31
0.0
  0
LINE
  5
261
330
2
100
AcDbEntity
  8
GAIKEI
 62
     1
100
AcDbLine
 10
28.09159330077904
 20
13.63623054234654
 30
0.0
 11
28.09159330077904
 21
14.14023512484857
 31
0.0
  0
LINE
  5
262
330
2
100
AcDbEntity
  8
GAIKEI
 62
     1
100
AcDbLine
 10
27.84660159958537
 20
13.63623054234654
 30
0.0
 11
28.09159330077904
 21
13.63623054234654
 31
0.0
  0
LINE
  5
263
330
2
100
AcDbEntity
  8
GAIKEI
 62
     1
100
AcDbLine
 10
27.84660159958537
 20
14.14023512484857
 30
0.0
 11
27.84660159958537
 21
13.63623054234654
 31
0.0
  0
LINE
  5
264
330
2
100
AcDbEntity
  8
GAIKEI
 62
     1
100
AcDbLine
 10
28.09159330077904
 20
14.14023512484857
 30
0.0
 11
27.84660159958537
 21
14.14023512484857
 31
0.0
  0
LINE
  5
265
330
2
100
AcDbEntity
  8
GAIKEI
 62
     1
100
AcDbLine
 10
28.58773465389243
 20
13.63623054234654
 30
0.0
 11
28.58773465389243
 21
14.14023512484857
 31
0.0
  0
LINE
  5
266
330
2
100
AcDbEntity
  8
GAIKEI
 62
     1
100
AcDbLine
 10
28.34264821499528
 20
13.63623054234654
 30
0.0
 11
28.58773465389243
 21
13.63623054234654
 31
0.0
  0
LINE
  5
267
330
2
100
AcDbEntity
  8
GAIKEI
 62
     1
100
AcDbLine
 10
28.34264821499528
 20
14.14023512484857
 30
0.0
 11
28.34264821499528
 21
13.63623054234654
 31
0.0
  0
LINE
  5
268
330
2
100
AcDbEntity
  8
GAIKEI
 62
     1
100
AcDbLine
 10
28.58773465389243
 20
14.14023512484857
 30
0.0
 11
28.34264821499528
 21
14.14023512484857
 31
0.0
  0
LINE
  5
269
330
2
100
AcDbEntity
  8
GAIKEI
 62
     1
100
AcDbLine
 10
29.08406548241283
 20
13.63623054234654
 30
0.0
 11
29.08406548241283
 21
14.14023512484857
 31
0.0
  0
LINE
  5
26A
330
2
100
AcDbEntity
  8
GAIKEI
 62
     1
100
AcDbLine
 10
28.83897904351562
 20
13.63623054234654
 30
0.0
 11
29.08406548241283
 21
13.63623054234654
 31
0.0
  0
LINE
  5
26B
330
2
100
AcDbEntity
  8
GAIKEI
 62
     1
100
AcDbLine
 10
28.83897904351562
 20
14.14023512484857
 30
0.0
 11
28.83897904351562
 21
13.63623054234654
 31
0.0
  0
LINE
  5
26C
330
2
100
AcDbEntity
  8
GAIKEI
 62
     1
100
AcDbLine
 10
29.08406548241283
 20
14.14023512484857
 30
0.0
 11
28.83897904351562
 21
14.14023512484857
 31
0.0
  0
LINE
  5
26D
330
2
100
AcDbEntity
  8
GAIKEI
 62
     1
100
AcDbLine
 10
29.58020683552621
 20
13.63623054234654
 30
0.0
 11
29.58020683552621
 21
14.14023512484857
 31
0.0
  0
LINE
  5
26E
330
2
100
AcDbEntity
  8
GAIKEI
 62
     1
100
AcDbLine
 10
29.33512039662907
 20
13.63623054234654
 30
0.0
 11
29.58020683552621
 21
13.63623054234654
 31
0.0
  0
LINE
  5
26F
330
2
100
AcDbEntity
  8
GAIKEI
 62
     1
100
AcDbLine
 10
29.33512039662907
 20
14.14023512484857
 30
0.0
 11
29.33512039662907
 21
13.63623054234654
 31
0.0
  0
LINE
  5
270
330
2
100
AcDbEntity
  8
GAIKEI
 62
     1
100
AcDbLine
 10
29.58020683552621
 20
14.14023512484857
 30
0.0
 11
29.33512039662907
 21
14.14023512484857
 31
0.0
  0
LINE
  5
271
330
2
100
AcDbEntity
  8
GAIKEI
 62
     1
100
AcDbLine
 10
30.07625345093612
 20
13.63623054234654
 30
0.0
 11
30.07625345093612
 21
14.14023512484857
 31
0.0
  0
LINE
  5
272
330
2
100
AcDbEntity
  8
GAIKEI
 62
     1
100
AcDbLine
 10
29.83126174974245
 20
13.63623054234654
 30
0.0
 11
30.07625345093612
 21
13.63623054234654
 31
0.0
  0
LINE
  5
273
330
2
100
AcDbEntity
  8
GAIKEI
 62
     1
100
AcDbLine
 10
29.83126174974245
 20
14.14023512484857
 30
0.0
 11
29.83126174974245
 21
13.63623054234654
 31
0.0
  0
LINE
  5
274
330
2
100
AcDbEntity
  8
GAIKEI
 62
     1
100
AcDbLine
 10
30.07625345093612
 20
14.14023512484857
 30
0.0
 11
29.83126174974245
 21
14.14023512484857
 31
0.0
  0
LINE
  5
275
330
2
100
AcDbEntity
  8
GAIKEI
 62
     1
100
AcDbLine
 10
30.57239480404951
 20
13.63623054234654
 30
0.0
 11
30.57239480404951
 21
14.14023512484857
 31
0.0
  0
LINE
  5
276
330
2
100
AcDbEntity
  8
GAIKEI
 62
     1
100
AcDbLine
 10
30.32730836515237
 20
13.63623054234654
 30
0.0
 11
30.57239480404951
 21
13.63623054234654
 31
0.0
  0
LINE
  5
277
330
2
100
AcDbEntity
  8
GAIKEI
 62
     1
100
AcDbLine
 10
30.32730836515237
 20
14.14023512484857
 30
0.0
 11
30.32730836515237
 21
13.63623054234654
 31
0.0
  0
LINE
  5
278
330
2
100
AcDbEntity
  8
GAIKEI
 62
     1
100
AcDbLine
 10
30.57239480404951
 20
14.14023512484857
 30
0.0
 11
30.32730836515237
 21
14.14023512484857
 31
0.0
  0
LINE
  5
279
330
2
100
AcDbEntity
  8
GAIKEI
 62
     1
100
AcDbLine
 10
31.06853615716295
 20
13.63623054234654
 30
0.0
 11
31.06853615716295
 21
14.14023512484857
 31
0.0
  0
LINE
  5
27A
330
2
100
AcDbEntity
  8
GAIKEI
 62
     1
100
AcDbLine
 10
30.82344971826575
 20
13.63623054234654
 30
0.0
 11
31.06853615716295
 21
13.63623054234654
 31
0.0
  0
LINE
  5
27B
330
2
100
AcDbEntity
  8
GAIKEI
 62
     1
100
AcDbLine
 10
30.82344971826575
 20
14.14023512484857
 30
0.0
 11
30.82344971826575
 21
13.63623054234654
 31
0.0
  0
LINE
  5
27C
330
2
100
AcDbEntity
  8
GAIKEI
 62
     1
100
AcDbLine
 10
31.06853615716295
 20
14.14023512484857
 30
0.0
 11
30.82344971826575
 21
14.14023512484857
 31
0.0
  0
LINE
  5
27D
330
2
100
AcDbEntity
  8
GAIKEI
 62
     1
100
AcDbLine
 10
31.56458277257286
 20
13.63623054234654
 30
0.0
 11
31.56458277257286
 21
14.14023512484857
 31
0.0
  0
LINE
  5
27E
330
2
100
AcDbEntity
  8
GAIKEI
 62
     1
100
AcDbLine
 10
31.31959107137915
 20
13.63623054234654
 30
0.0
 11
31.56458277257286
 21
13.63623054234654
 31
0.0
  0
LINE
  5
27F
330
2
100
AcDbEntity
  8
GAIKEI
 62
     1
100
AcDbLine
 10
31.31959107137915
 20
14.14023512484857
 30
0.0
 11
31.31959107137915
 21
13.63623054234654
 31
0.0
  0
LINE
  5
280
330
2
100
AcDbEntity
  8
GAIKEI
 62
     1
100
AcDbLine
 10
31.56458277257286
 20
14.14023512484857
 30
0.0
 11
31.31959107137915
 21
14.14023512484857
 31
0.0
  0
LINE
  5
281
330
2
100
AcDbEntity
  8
GAIKEI
 62
     1
100
AcDbLine
 10
24.12255721357536
 20
14.39166898987878
 30
0.0
 11
24.12255721357536
 21
14.89586304778777
 31
0.0
  0
LINE
  5
282
330
2
100
AcDbEntity
  8
GAIKEI
 62
     1
100
AcDbLine
 10
23.87756551238169
 20
14.39166898987878
 30
0.0
 11
24.12255721357536
 21
14.39166898987878
 31
0.0
  0
LINE
  5
283
330
2
100
AcDbEntity
  8
GAIKEI
 62
     1
100
AcDbLine
 10
23.87756551238169
 20
14.89586304778777
 30
0.0
 11
23.87756551238169
 21
14.39166898987878
 31
0.0
  0
LINE
  5
284
330
2
100
AcDbEntity
  8
GAIKEI
 62
     1
100
AcDbLine
 10
24.12255721357536
 20
14.89586304778777
 30
0.0
 11
23.87756551238169
 21
14.89586304778777
 31
0.0
  0
LINE
  5
285
330
2
100
AcDbEntity
  8
GAIKEI
 62
     1
100
AcDbLine
 10
24.61860382898527
 20
14.39166898987878
 30
0.0
 11
24.61860382898527
 21
14.89586304778777
 31
0.0
  0
LINE
  5
286
330
2
100
AcDbEntity
  8
GAIKEI
 62
     1
100
AcDbLine
 10
24.37361212779161
 20
14.39166898987878
 30
0.0
 11
24.61860382898527
 21
14.39166898987878
 31
0.0
  0
LINE
  5
287
330
2
100
AcDbEntity
  8
GAIKEI
 62
     1
100
AcDbLine
 10
24.37361212779161
 20
14.89586304778777
 30
0.0
 11
24.37361212779161
 21
14.39166898987878
 31
0.0
  0
LINE
  5
288
330
2
100
AcDbEntity
  8
GAIKEI
 62
     1
100
AcDbLine
 10
24.61860382898527
 20
14.89586304778777
 30
0.0
 11
24.37361212779161
 21
14.89586304778777
 31
0.0
  0
LINE
  5
289
330
2
100
AcDbEntity
  8
GAIKEI
 62
     1
100
AcDbLine
 10
25.11493465750561
 20
14.39166898987878
 30
0.0
 11
25.11493465750561
 21
14.89586304778777
 31
0.0
  0
LINE
  5
28A
330
2
100
AcDbEntity
  8
GAIKEI
 62
     1
100
AcDbLine
 10
24.86965874320151
 20
14.39166898987878
 30
0.0
 11
25.11493465750561
 21
14.39166898987878
 31
0.0
  0
LINE
  5
28B
330
2
100
AcDbEntity
  8
GAIKEI
 62
     1
100
AcDbLine
 10
24.86965874320151
 20
14.89586304778777
 30
0.0
 11
24.86965874320151
 21
14.39166898987878
 31
0.0
  0
LINE
  5
28C
330
2
100
AcDbEntity
  8
GAIKEI
 62
     1
100
AcDbLine
 10
25.11493465750561
 20
14.89586304778777
 30
0.0
 11
24.86965874320151
 21
14.89586304778777
 31
0.0
  0
LINE
  5
28D
330
2
100
AcDbEntity
  8
GAIKEI
 62
     1
100
AcDbLine
 10
25.611076010619
 20
14.39166898987878
 30
0.0
 11
25.611076010619
 21
14.89586304778777
 31
0.0
  0
LINE
  5
28E
330
2
100
AcDbEntity
  8
GAIKEI
 62
     1
100
AcDbLine
 10
25.36598957172186
 20
14.39166898987878
 30
0.0
 11
25.611076010619
 21
14.39166898987878
 31
0.0
  0
LINE
  5
28F
330
2
100
AcDbEntity
  8
GAIKEI
 62
     1
100
AcDbLine
 10
25.36598957172186
 20
14.89586304778777
 30
0.0
 11
25.36598957172186
 21
14.39166898987878
 31
0.0
  0
LINE
  5
290
330
2
100
AcDbEntity
  8
GAIKEI
 62
     1
100
AcDbLine
 10
25.611076010619
 20
14.89586304778777
 30
0.0
 11
25.36598957172186
 21
14.89586304778777
 31
0.0
  0
LINE
  5
291
330
2
100
AcDbEntity
  8
GAIKEI
 62
     1
100
AcDbLine
 10
26.10712262602897
 20
14.39166898987878
 30
0.0
 11
26.10712262602897
 21
14.89586304778777
 31
0.0
  0
LINE
  5
292
330
2
100
AcDbEntity
  8
GAIKEI
 62
     1
100
AcDbLine
 10
25.8621309248353
 20
14.39166898987878
 30
0.0
 11
26.10712262602897
 21
14.39166898987878
 31
0.0
  0
LINE
  5
293
330
2
100
AcDbEntity
  8
GAIKEI
 62
     1
100
AcDbLine
 10
25.8621309248353
 20
14.89586304778777
 30
0.0
 11
25.8621309248353
 21
14.39166898987878
 31
0.0
  0
LINE
  5
294
330
2
100
AcDbEntity
  8
GAIKEI
 62
     1
100
AcDbLine
 10
26.10712262602897
 20
14.89586304778777
 30
0.0
 11
25.8621309248353
 21
14.89586304778777
 31
0.0
  0
LINE
  5
295
330
2
100
AcDbEntity
  8
GAIKEI
 62
     1
100
AcDbLine
 10
26.60326397914236
 20
14.39166898987878
 30
0.0
 11
26.60326397914236
 21
14.89586304778777
 31
0.0
  0
LINE
  5
296
330
2
100
AcDbEntity
  8
GAIKEI
 62
     1
100
AcDbLine
 10
26.3579880648382
 20
14.39166898987878
 30
0.0
 11
26.60326397914236
 21
14.39166898987878
 31
0.0
  0
LINE
  5
297
330
2
100
AcDbEntity
  8
GAIKEI
 62
     1
100
AcDbLine
 10
26.3579880648382
 20
14.89586304778777
 30
0.0
 11
26.3579880648382
 21
14.39166898987878
 31
0.0
  0
LINE
  5
298
330
2
100
AcDbEntity
  8
GAIKEI
 62
     1
100
AcDbLine
 10
26.60326397914236
 20
14.89586304778777
 30
0.0
 11
26.3579880648382
 21
14.89586304778777
 31
0.0
  0
LINE
  5
299
330
2
100
AcDbEntity
  8
GAIKEI
 62
     1
100
AcDbLine
 10
27.09940533225574
 20
14.39166898987878
 30
0.0
 11
27.09940533225574
 21
14.89586304778777
 31
0.0
  0
LINE
  5
29A
330
2
100
AcDbEntity
  8
GAIKEI
 62
     1
100
AcDbLine
 10
26.85431889335859
 20
14.39166898987878
 30
0.0
 11
27.09940533225574
 21
14.39166898987878
 31
0.0
  0
LINE
  5
29B
330
2
100
AcDbEntity
  8
GAIKEI
 62
     1
100
AcDbLine
 10
26.85431889335859
 20
14.89586304778777
 30
0.0
 11
26.85431889335859
 21
14.39166898987878
 31
0.0
  0
LINE
  5
29C
330
2
100
AcDbEntity
  8
GAIKEI
 62
     1
100
AcDbLine
 10
27.09940533225574
 20
14.89586304778777
 30
0.0
 11
26.85431889335859
 21
14.89586304778777
 31
0.0
  0
LINE
  5
29D
330
2
100
AcDbEntity
  8
GAIKEI
 62
     1
100
AcDbLine
 10
27.59554668536913
 20
14.39166898987878
 30
0.0
 11
27.59554668536913
 21
14.89586304778777
 31
0.0
  0
LINE
  5
29E
330
2
100
AcDbEntity
  8
GAIKEI
 62
     1
100
AcDbLine
 10
27.35046024647199
 20
14.39166898987878
 30
0.0
 11
27.59554668536913
 21
14.39166898987878
 31
0.0
  0
LINE
  5
29F
330
2
100
AcDbEntity
  8
GAIKEI
 62
     1
100
AcDbLine
 10
27.35046024647199
 20
14.89586304778777
 30
0.0
 11
27.35046024647199
 21
14.39166898987878
 31
0.0
  0
LINE
  5
2A0
330
2
100
AcDbEntity
  8
GAIKEI
 62
     1
100
AcDbLine
 10
27.59554668536913
 20
14.89586304778777
 30
0.0
 11
27.35046024647199
 21
14.89586304778777
 31
0.0
  0
LINE
  5
2A1
330
2
100
AcDbEntity
  8
GAIKEI
 62
     1
100
AcDbLine
 10
28.09159330077904
 20
14.39166898987878
 30
0.0
 11
28.09159330077904
 21
14.89586304778777
 31
0.0
  0
LINE
  5
2A2
330
2
100
AcDbEntity
  8
GAIKEI
 62
     1
100
AcDbLine
 10
27.84660159958537
 20
14.39166898987878
 30
0.0
 11
28.09159330077904
 21
14.39166898987878
 31
0.0
  0
LINE
  5
2A3
330
2
100
AcDbEntity
  8
GAIKEI
 62
     1
100
AcDbLine
 10
27.84660159958537
 20
14.89586304778777
 30
0.0
 11
27.84660159958537
 21
14.39166898987878
 31
0.0
  0
LINE
  5
2A4
330
2
100
AcDbEntity
  8
GAIKEI
 62
     1
100
AcDbLine
 10
28.09159330077904
 20
14.89586304778777
 30
0.0
 11
27.84660159958537
 21
14.89586304778777
 31
0.0
  0
LINE
  5
2A5
330
2
100
AcDbEntity
  8
GAIKEI
 62
     1
100
AcDbLine
 10
28.58773465389243
 20
14.39166898987878
 30
0.0
 11
28.58773465389243
 21
14.89586304778777
 31
0.0
  0
LINE
  5
2A6
330
2
100
AcDbEntity
  8
GAIKEI
 62
     1
100
AcDbLine
 10
28.34264821499528
 20
14.39166898987878
 30
0.0
 11
28.58773465389243
 21
14.39166898987878
 31
0.0
  0
LINE
  5
2A7
330
2
100
AcDbEntity
  8
GAIKEI
 62
     1
100
AcDbLine
 10
28.34264821499528
 20
14.89586304778777
 30
0.0
 11
28.34264821499528
 21
14.39166898987878
 31
0.0
  0
LINE
  5
2A8
330
2
100
AcDbEntity
  8
GAIKEI
 62
     1
100
AcDbLine
 10
28.58773465389243
 20
14.89586304778777
 30
0.0
 11
28.34264821499528
 21
14.89586304778777
 31
0.0
  0
LINE
  5
2A9
330
2
100
AcDbEntity
  8
GAIKEI
 62
     1
100
AcDbLine
 10
29.08406548241283
 20
14.39166898987878
 30
0.0
 11
29.08406548241283
 21
14.89586304778777
 31
0.0
  0
LINE
  5
2AA
330
2
100
AcDbEntity
  8
GAIKEI
 62
     1
100
AcDbLine
 10
28.83897904351562
 20
14.39166898987878
 30
0.0
 11
29.08406548241283
 21
14.39166898987878
 31
0.0
  0
LINE
  5
2AB
330
2
100
AcDbEntity
  8
GAIKEI
 62
     1
100
AcDbLine
 10
28.83897904351562
 20
14.89586304778777
 30
0.0
 11
28.83897904351562
 21
14.39166898987878
 31
0.0
  0
LINE
  5
2AC
330
2
100
AcDbEntity
  8
GAIKEI
 62
     1
100
AcDbLine
 10
29.08406548241283
 20
14.89586304778777
 30
0.0
 11
28.83897904351562
 21
14.89586304778777
 31
0.0
  0
LINE
  5
2AD
330
2
100
AcDbEntity
  8
GAIKEI
 62
     1
100
AcDbLine
 10
29.58020683552621
 20
14.39166898987878
 30
0.0
 11
29.58020683552621
 21
14.89586304778777
 31
0.0
  0
LINE
  5
2AE
330
2
100
AcDbEntity
  8
GAIKEI
 62
     1
100
AcDbLine
 10
29.33512039662907
 20
14.39166898987878
 30
0.0
 11
29.58020683552621
 21
14.39166898987878
 31
0.0
  0
LINE
  5
2AF
330
2
100
AcDbEntity
  8
GAIKEI
 62
     1
100
AcDbLine
 10
29.33512039662907
 20
14.89586304778777
 30
0.0
 11
29.33512039662907
 21
14.39166898987878
 31
0.0
  0
LINE
  5
2B0
330
2
100
AcDbEntity
  8
GAIKEI
 62
     1
100
AcDbLine
 10
29.58020683552621
 20
14.89586304778777
 30
0.0
 11
29.33512039662907
 21
14.89586304778777
 31
0.0
  0
LINE
  5
2B1
330
2
100
AcDbEntity
  8
GAIKEI
 62
     1
100
AcDbLine
 10
30.07625345093612
 20
14.39166898987878
 30
0.0
 11
30.07625345093612
 21
14.89586304778777
 31
0.0
  0
LINE
  5
2B2
330
2
100
AcDbEntity
  8
GAIKEI
 62
     1
100
AcDbLine
 10
29.83126174974245
 20
14.39166898987878
 30
0.0
 11
30.07625345093612
 21
14.39166898987878
 31
0.0
  0
LINE
  5
2B3
330
2
100
AcDbEntity
  8
GAIKEI
 62
     1
100
AcDbLine
 10
29.83126174974245
 20
14.89586304778777
 30
0.0
 11
29.83126174974245
 21
14.39166898987878
 31
0.0
  0
LINE
  5
2B4
330
2
100
AcDbEntity
  8
GAIKEI
 62
     1
100
AcDbLine
 10
30.07625345093612
 20
14.89586304778777
 30
0.0
 11
29.83126174974245
 21
14.89586304778777
 31
0.0
  0
LINE
  5
2B5
330
2
100
AcDbEntity
  8
GAIKEI
 62
     1
100
AcDbLine
 10
30.57239480404951
 20
14.39166898987878
 30
0.0
 11
30.57239480404951
 21
14.89586304778777
 31
0.0
  0
LINE
  5
2B6
330
2
100
AcDbEntity
  8
GAIKEI
 62
     1
100
AcDbLine
 10
30.32730836515237
 20
14.39166898987878
 30
0.0
 11
30.57239480404951
 21
14.39166898987878
 31
0.0
  0
LINE
  5
2B7
330
2
100
AcDbEntity
  8
GAIKEI
 62
     1
100
AcDbLine
 10
30.32730836515237
 20
14.89586304778777
 30
0.0
 11
30.32730836515237
 21
14.39166898987878
 31
0.0
  0
LINE
  5
2B8
330
2
100
AcDbEntity
  8
GAIKEI
 62
     1
100
AcDbLine
 10
30.57239480404951
 20
14.89586304778777
 30
0.0
 11
30.32730836515237
 21
14.89586304778777
 31
0.0
  0
LINE
  5
2B9
330
2
100
AcDbEntity
  8
GAIKEI
 62
     1
100
AcDbLine
 10
31.06853615716295
 20
14.39166898987878
 30
0.0
 11
31.06853615716295
 21
14.89586304778777
 31
0.0
  0
LINE
  5
2BA
330
2
100
AcDbEntity
  8
GAIKEI
 62
     1
100
AcDbLine
 10
30.82344971826575
 20
14.39166898987878
 30
0.0
 11
31.06853615716295
 21
14.39166898987878
 31
0.0
  0
LINE
  5
2BB
330
2
100
AcDbEntity
  8
GAIKEI
 62
     1
100
AcDbLine
 10
30.82344971826575
 20
14.89586304778777
 30
0.0
 11
30.82344971826575
 21
14.39166898987878
 31
0.0
  0
LINE
  5
2BC
330
2
100
AcDbEntity
  8
GAIKEI
 62
     1
100
AcDbLine
 10
31.06853615716295
 20
14.89586304778777
 30
0.0
 11
30.82344971826575
 21
14.89586304778777
 31
0.0
  0
LINE
  5
2BD
330
2
100
AcDbEntity
  8
GAIKEI
 62
     1
100
AcDbLine
 10
31.56458277257286
 20
14.39166898987878
 30
0.0
 11
31.56458277257286
 21
14.89586304778777
 31
0.0
  0
LINE
  5
2BE
330
2
100
AcDbEntity
  8
GAIKEI
 62
     1
100
AcDbLine
 10
31.31959107137915
 20
14.39166898987878
 30
0.0
 11
31.56458277257286
 21
14.39166898987878
 31
0.0
  0
LINE
  5
2BF
330
2
100
AcDbEntity
  8
GAIKEI
 62
     1
100
AcDbLine
 10
31.31959107137915
 20
14.89586304778777
 30
0.0
 11
31.31959107137915
 21
14.39166898987878
 31
0.0
  0
LINE
  5
2C0
330
2
100
AcDbEntity
  8
GAIKEI
 62
     1
100
AcDbLine
 10
31.56458277257286
 20
14.89586304778777
 30
0.0
 11
31.31959107137915
 21
14.89586304778777
 31
0.0
  0
LINE
  5
2C1
330
2
100
AcDbEntity
  8
GAIKEI
 62
     1
100
AcDbLine
 10
24.12255721357536
 20
15.34416186064482
 30
0.0
 11
24.12255721357536
 21
15.84816644314691
 31
0.0
  0
LINE
  5
2C2
330
2
100
AcDbEntity
  8
GAIKEI
 62
     1
100
AcDbLine
 10
23.87756551238169
 20
15.34416186064482
 30
0.0
 11
24.12255721357536
 21
15.34416186064482
 31
0.0
  0
LINE
  5
2C3
330
2
100
AcDbEntity
  8
GAIKEI
 62
     1
100
AcDbLine
 10
23.87756551238169
 20
15.84816644314691
 30
0.0
 11
23.87756551238169
 21
15.34416186064482
 31
0.0
  0
LINE
  5
2C4
330
2
100
AcDbEntity
  8
GAIKEI
 62
     1
100
AcDbLine
 10
24.12255721357536
 20
15.84816644314691
 30
0.0
 11
23.87756551238169
 21
15.84816644314691
 31
0.0
  0
LINE
  5
2C5
330
2
100
AcDbEntity
  8
GAIKEI
 62
     1
100
AcDbLine
 10
24.61860382898527
 20
15.34416186064482
 30
0.0
 11
24.61860382898527
 21
15.84816644314691
 31
0.0
  0
LINE
  5
2C6
330
2
100
AcDbEntity
  8
GAIKEI
 62
     1
100
AcDbLine
 10
24.37361212779161
 20
15.34416186064482
 30
0.0
 11
24.61860382898527
 21
15.34416186064482
 31
0.0
  0
LINE
  5
2C7
330
2
100
AcDbEntity
  8
GAIKEI
 62
     1
100
AcDbLine
 10
24.37361212779161
 20
15.84816644314691
 30
0.0
 11
24.37361212779161
 21
15.34416186064482
 31
0.0
  0
LINE
  5
2C8
330
2
100
AcDbEntity
  8
GAIKEI
 62
     1
100
AcDbLine
 10
24.61860382898527
 20
15.84816644314691
 30
0.0
 11
24.37361212779161
 21
15.84816644314691
 31
0.0
  0
LINE
  5
2C9
330
2
100
AcDbEntity
  8
GAIKEI
 62
     1
100
AcDbLine
 10
25.11493465750561
 20
15.34416186064482
 30
0.0
 11
25.11493465750561
 21
15.84816644314691
 31
0.0
  0
LINE
  5
2CA
330
2
100
AcDbEntity
  8
GAIKEI
 62
     1
100
AcDbLine
 10
24.86965874320151
 20
15.34416186064482
 30
0.0
 11
25.11493465750561
 21
15.34416186064482
 31
0.0
  0
LINE
  5
2CB
330
2
100
AcDbEntity
  8
GAIKEI
 62
     1
100
AcDbLine
 10
24.86965874320151
 20
15.84816644314691
 30
0.0
 11
24.86965874320151
 21
15.34416186064482
 31
0.0
  0
LINE
  5
2CC
330
2
100
AcDbEntity
  8
GAIKEI
 62
     1
100
AcDbLine
 10
25.11493465750561
 20
15.84816644314691
 30
0.0
 11
24.86965874320151
 21
15.84816644314691
 31
0.0
  0
LINE
  5
2CD
330
2
100
AcDbEntity
  8
GAIKEI
 62
     1
100
AcDbLine
 10
25.611076010619
 20
15.34416186064482
 30
0.0
 11
25.611076010619
 21
15.84816644314691
 31
0.0
  0
LINE
  5
2CE
330
2
100
AcDbEntity
  8
GAIKEI
 62
     1
100
AcDbLine
 10
25.36598957172186
 20
15.34416186064482
 30
0.0
 11
25.611076010619
 21
15.34416186064482
 31
0.0
  0
LINE
  5
2CF
330
2
100
AcDbEntity
  8
GAIKEI
 62
     1
100
AcDbLine
 10
25.36598957172186
 20
15.84816644314691
 30
0.0
 11
25.36598957172186
 21
15.34416186064482
 31
0.0
  0
LINE
  5
2D0
330
2
100
AcDbEntity
  8
GAIKEI
 62
     1
100
AcDbLine
 10
25.611076010619
 20
15.84816644314691
 30
0.0
 11
25.36598957172186
 21
15.84816644314691
 31
0.0
  0
LINE
  5
2D1
330
2
100
AcDbEntity
  8
GAIKEI
 62
     1
100
AcDbLine
 10
26.10712262602897
 20
15.34416186064482
 30
0.0
 11
26.10712262602897
 21
15.84816644314691
 31
0.0
  0
LINE
  5
2D2
330
2
100
AcDbEntity
  8
GAIKEI
 62
     1
100
AcDbLine
 10
25.8621309248353
 20
15.34416186064482
 30
0.0
 11
26.10712262602897
 21
15.34416186064482
 31
0.0
  0
LINE
  5
2D3
330
2
100
AcDbEntity
  8
GAIKEI
 62
     1
100
AcDbLine
 10
25.8621309248353
 20
15.84816644314691
 30
0.0
 11
25.8621309248353
 21
15.34416186064482
 31
0.0
  0
LINE
  5
2D4
330
2
100
AcDbEntity
  8
GAIKEI
 62
     1
100
AcDbLine
 10
26.10712262602897
 20
15.84816644314691
 30
0.0
 11
25.8621309248353
 21
15.84816644314691
 31
0.0
  0
LINE
  5
2D5
330
2
100
AcDbEntity
  8
GAIKEI
 62
     1
100
AcDbLine
 10
26.60326397914236
 20
15.34416186064482
 30
0.0
 11
26.60326397914236
 21
15.84816644314691
 31
0.0
  0
LINE
  5
2D6
330
2
100
AcDbEntity
  8
GAIKEI
 62
     1
100
AcDbLine
 10
26.3579880648382
 20
15.34416186064482
 30
0.0
 11
26.60326397914236
 21
15.34416186064482
 31
0.0
  0
LINE
  5
2D7
330
2
100
AcDbEntity
  8
GAIKEI
 62
     1
100
AcDbLine
 10
26.3579880648382
 20
15.84816644314691
 30
0.0
 11
26.3579880648382
 21
15.34416186064482
 31
0.0
  0
LINE
  5
2D8
330
2
100
AcDbEntity
  8
GAIKEI
 62
     1
100
AcDbLine
 10
26.60326397914236
 20
15.84816644314691
 30
0.0
 11
26.3579880648382
 21
15.84816644314691
 31
0.0
  0
LINE
  5
2D9
330
2
100
AcDbEntity
  8
GAIKEI
 62
     1
100
AcDbLine
 10
27.09940533225574
 20
15.34416186064482
 30
0.0
 11
27.09940533225574
 21
15.84816644314691
 31
0.0
  0
LINE
  5
2DA
330
2
100
AcDbEntity
  8
GAIKEI
 62
     1
100
AcDbLine
 10
26.85431889335859
 20
15.34416186064482
 30
0.0
 11
27.09940533225574
 21
15.34416186064482
 31
0.0
  0
LINE
  5
2DB
330
2
100
AcDbEntity
  8
GAIKEI
 62
     1
100
AcDbLine
 10
26.85431889335859
 20
15.84816644314691
 30
0.0
 11
26.85431889335859
 21
15.34416186064482
 31
0.0
  0
LINE
  5
2DC
330
2
100
AcDbEntity
  8
GAIKEI
 62
     1
100
AcDbLine
 10
27.09940533225574
 20
15.84816644314691
 30
0.0
 11
26.85431889335859
 21
15.84816644314691
 31
0.0
  0
LINE
  5
2DD
330
2
100
AcDbEntity
  8
GAIKEI
 62
     1
100
AcDbLine
 10
27.59554668536913
 20
15.34416186064482
 30
0.0
 11
27.59554668536913
 21
15.84816644314691
 31
0.0
  0
LINE
  5
2DE
330
2
100
AcDbEntity
  8
GAIKEI
 62
     1
100
AcDbLine
 10
27.35046024647199
 20
15.34416186064482
 30
0.0
 11
27.59554668536913
 21
15.34416186064482
 31
0.0
  0
LINE
  5
2DF
330
2
100
AcDbEntity
  8
GAIKEI
 62
     1
100
AcDbLine
 10
27.35046024647199
 20
15.84816644314691
 30
0.0
 11
27.35046024647199
 21
15.34416186064482
 31
0.0
  0
LINE
  5
2E0
330
2
100
AcDbEntity
  8
GAIKEI
 62
     1
100
AcDbLine
 10
27.59554668536913
 20
15.84816644314691
 30
0.0
 11
27.35046024647199
 21
15.84816644314691
 31
0.0
  0
LINE
  5
2E1
330
2
100
AcDbEntity
  8
GAIKEI
 62
     1
100
AcDbLine
 10
28.09159330077904
 20
15.34416186064482
 30
0.0
 11
28.09159330077904
 21
15.84816644314691
 31
0.0
  0
LINE
  5
2E2
330
2
100
AcDbEntity
  8
GAIKEI
 62
     1
100
AcDbLine
 10
27.84660159958537
 20
15.34416186064482
 30
0.0
 11
28.09159330077904
 21
15.34416186064482
 31
0.0
  0
LINE
  5
2E3
330
2
100
AcDbEntity
  8
GAIKEI
 62
     1
100
AcDbLine
 10
27.84660159958537
 20
15.84816644314691
 30
0.0
 11
27.84660159958537
 21
15.34416186064482
 31
0.0
  0
LINE
  5
2E4
330
2
100
AcDbEntity
  8
GAIKEI
 62
     1
100
AcDbLine
 10
28.09159330077904
 20
15.84816644314691
 30
0.0
 11
27.84660159958537
 21
15.84816644314691
 31
0.0
  0
LINE
  5
2E5
330
2
100
AcDbEntity
  8
GAIKEI
 62
     1
100
AcDbLine
 10
28.58773465389243
 20
15.34416186064482
 30
0.0
 11
28.58773465389243
 21
15.84816644314691
 31
0.0
  0
LINE
  5
2E6
330
2
100
AcDbEntity
  8
GAIKEI
 62
     1
100
AcDbLine
 10
28.34264821499528
 20
15.34416186064482
 30
0.0
 11
28.58773465389243
 21
15.34416186064482
 31
0.0
  0
LINE
  5
2E7
330
2
100
AcDbEntity
  8
GAIKEI
 62
     1
100
AcDbLine
 10
28.34264821499528
 20
15.84816644314691
 30
0.0
 11
28.34264821499528
 21
15.34416186064482
 31
0.0
  0
LINE
  5
2E8
330
2
100
AcDbEntity
  8
GAIKEI
 62
     1
100
AcDbLine
 10
28.58773465389243
 20
15.84816644314691
 30
0.0
 11
28.34264821499528
 21
15.84816644314691
 31
0.0
  0
LINE
  5
2E9
330
2
100
AcDbEntity
  8
GAIKEI
 62
     1
100
AcDbLine
 10
29.08406548241283
 20
15.34416186064482
 30
0.0
 11
29.08406548241283
 21
15.84816644314691
 31
0.0
  0
LINE
  5
2EA
330
2
100
AcDbEntity
  8
GAIKEI
 62
     1
100
AcDbLine
 10
28.83897904351562
 20
15.34416186064482
 30
0.0
 11
29.08406548241283
 21
15.34416186064482
 31
0.0
  0
LINE
  5
2EB
330
2
100
AcDbEntity
  8
GAIKEI
 62
     1
100
AcDbLine
 10
28.83897904351562
 20
15.84816644314691
 30
0.0
 11
28.83897904351562
 21
15.34416186064482
 31
0.0
  0
LINE
  5
2EC
330
2
100
AcDbEntity
  8
GAIKEI
 62
     1
100
AcDbLine
 10
29.08406548241283
 20
15.84816644314691
 30
0.0
 11
28.83897904351562
 21
15.84816644314691
 31
0.0
  0
LINE
  5
2ED
330
2
100
AcDbEntity
  8
GAIKEI
 62
     1
100
AcDbLine
 10
29.58020683552621
 20
15.34416186064482
 30
0.0
 11
29.58020683552621
 21
15.84816644314691
 31
0.0
  0
LINE
  5
2EE
330
2
100
AcDbEntity
  8
GAIKEI
 62
     1
100
AcDbLine
 10
29.33512039662907
 20
15.34416186064482
 30
0.0
 11
29.58020683552621
 21
15.34416186064482
 31
0.0
  0
LINE
  5
2EF
330
2
100
AcDbEntity
  8
GAIKEI
 62
     1
100
AcDbLine
 10
29.33512039662907
 20
15.84816644314691
 30
0.0
 11
29.33512039662907
 21
15.34416186064482
 31
0.0
  0
LINE
  5
2F0
330
2
100
AcDbEntity
  8
GAIKEI
 62
     1
100
AcDbLine
 10
29.58020683552621
 20
15.84816644314691
 30
0.0
 11
29.33512039662907
 21
15.84816644314691
 31
0.0
  0
LINE
  5
2F1
330
2
100
AcDbEntity
  8
GAIKEI
 62
     1
100
AcDbLine
 10
30.07625345093612
 20
15.34416186064482
 30
0.0
 11
30.07625345093612
 21
15.84816644314691
 31
0.0
  0
LINE
  5
2F2
330
2
100
AcDbEntity
  8
GAIKEI
 62
     1
100
AcDbLine
 10
29.83126174974245
 20
15.34416186064482
 30
0.0
 11
30.07625345093612
 21
15.34416186064482
 31
0.0
  0
LINE
  5
2F3
330
2
100
AcDbEntity
  8
GAIKEI
 62
     1
100
AcDbLine
 10
29.83126174974245
 20
15.84816644314691
 30
0.0
 11
29.83126174974245
 21
15.34416186064482
 31
0.0
  0
LINE
  5
2F4
330
2
100
AcDbEntity
  8
GAIKEI
 62
     1
100
AcDbLine
 10
30.07625345093612
 20
15.84816644314691
 30
0.0
 11
29.83126174974245
 21
15.84816644314691
 31
0.0
  0
LINE
  5
2F5
330
2
100
AcDbEntity
  8
GAIKEI
 62
     1
100
AcDbLine
 10
30.57239480404951
 20
15.34416186064482
 30
0.0
 11
30.57239480404951
 21
15.84816644314691
 31
0.0
  0
LINE
  5
2F6
330
2
100
AcDbEntity
  8
GAIKEI
 62
     1
100
AcDbLine
 10
30.32730836515237
 20
15.34416186064482
 30
0.0
 11
30.57239480404951
 21
15.34416186064482
 31
0.0
  0
LINE
  5
2F7
330
2
100
AcDbEntity
  8
GAIKEI
 62
     1
100
AcDbLine
 10
30.32730836515237
 20
15.84816644314691
 30
0.0
 11
30.32730836515237
 21
15.34416186064482
 31
0.0
  0
LINE
  5
2F8
330
2
100
AcDbEntity
  8
GAIKEI
 62
     1
100
AcDbLine
 10
30.57239480404951
 20
15.84816644314691
 30
0.0
 11
30.32730836515237
 21
15.84816644314691
 31
0.0
  0
LINE
  5
2F9
330
2
100
AcDbEntity
  8
GAIKEI
 62
     1
100
AcDbLine
 10
31.06853615716295
 20
15.34416186064482
 30
0.0
 11
31.06853615716295
 21
15.84816644314691
 31
0.0
  0
LINE
  5
2FA
330
2
100
AcDbEntity
  8
GAIKEI
 62
     1
100
AcDbLine
 10
30.82344971826575
 20
15.34416186064482
 30
0.0
 11
31.06853615716295
 21
15.34416186064482
 31
0.0
  0
LINE
  5
2FB
330
2
100
AcDbEntity
  8
GAIKEI
 62
     1
100
AcDbLine
 10
30.82344971826575
 20
15.84816644314691
 30
0.0
 11
30.82344971826575
 21
15.34416186064482
 31
0.0
  0
LINE
  5
2FC
330
2
100
AcDbEntity
  8
GAIKEI
 62
     1
100
AcDbLine
 10
31.06853615716295
 20
15.84816644314691
 30
0.0
 11
30.82344971826575
 21
15.84816644314691
 31
0.0
  0
LINE
  5
2FD
330
2
100
AcDbEntity
  8
GAIKEI
 62
     1
100
AcDbLine
 10
31.56458277257286
 20
15.34416186064482
 30
0.0
 11
31.56458277257286
 21
15.84816644314691
 31
0.0
  0
LINE
  5
2FE
330
2
100
AcDbEntity
  8
GAIKEI
 62
     1
100
AcDbLine
 10
31.31959107137915
 20
15.34416186064482
 30
0.0
 11
31.56458277257286
 21
15.34416186064482
 31
0.0
  0
LINE
  5
2FF
330
2
100
AcDbEntity
  8
GAIKEI
 62
     1
100
AcDbLine
 10
31.31959107137915
 20
15.84816644314691
 30
0.0
 11
31.31959107137915
 21
15.34416186064482
 31
0.0
  0
LINE
  5
300
330
2
100
AcDbEntity
  8
GAIKEI
 62
     1
100
AcDbLine
 10
31.56458277257286
 20
15.84816644314691
 30
0.0
 11
31.31959107137915
 21
15.84816644314691
 31
0.0
  0
LINE
  5
301
330
2
100
AcDbEntity
  8
GAIKEI
 62
     1
100
AcDbLine
 10
24.12255721357536
 20
16.09978978358401
 30
0.0
 11
24.12255721357536
 21
16.60379436608605
 31
0.0
  0
LINE
  5
302
330
2
100
AcDbEntity
  8
GAIKEI
 62
     1
100
AcDbLine
 10
23.87756551238169
 20
16.09978978358401
 30
0.0
 11
24.12255721357536
 21
16.09978978358401
 31
0.0
  0
LINE
  5
303
330
2
100
AcDbEntity
  8
GAIKEI
 62
     1
100
AcDbLine
 10
23.87756551238169
 20
16.60379436608605
 30
0.0
 11
23.87756551238169
 21
16.09978978358401
 31
0.0
  0
LINE
  5
304
330
2
100
AcDbEntity
  8
GAIKEI
 62
     1
100
AcDbLine
 10
24.12255721357536
 20
16.60379436608605
 30
0.0
 11
23.87756551238169
 21
16.60379436608605
 31
0.0
  0
LINE
  5
305
330
2
100
AcDbEntity
  8
GAIKEI
 62
     1
100
AcDbLine
 10
24.61860382898527
 20
16.09978978358401
 30
0.0
 11
24.61860382898527
 21
16.60379436608605
 31
0.0
  0
LINE
  5
306
330
2
100
AcDbEntity
  8
GAIKEI
 62
     1
100
AcDbLine
 10
24.37361212779161
 20
16.09978978358401
 30
0.0
 11
24.61860382898527
 21
16.09978978358401
 31
0.0
  0
LINE
  5
307
330
2
100
AcDbEntity
  8
GAIKEI
 62
     1
100
AcDbLine
 10
24.37361212779161
 20
16.60379436608605
 30
0.0
 11
24.37361212779161
 21
16.09978978358401
 31
0.0
  0
LINE
  5
308
330
2
100
AcDbEntity
  8
GAIKEI
 62
     1
100
AcDbLine
 10
24.61860382898527
 20
16.60379436608605
 30
0.0
 11
24.37361212779161
 21
16.60379436608605
 31
0.0
  0
LINE
  5
309
330
2
100
AcDbEntity
  8
GAIKEI
 62
     1
100
AcDbLine
 10
25.11493465750561
 20
16.09978978358401
 30
0.0
 11
25.11493465750561
 21
16.60379436608605
 31
0.0
  0
LINE
  5
30A
330
2
100
AcDbEntity
  8
GAIKEI
 62
     1
100
AcDbLine
 10
24.86965874320151
 20
16.09978978358401
 30
0.0
 11
25.11493465750561
 21
16.09978978358401
 31
0.0
  0
LINE
  5
30B
330
2
100
AcDbEntity
  8
GAIKEI
 62
     1
100
AcDbLine
 10
24.86965874320151
 20
16.60379436608605
 30
0.0
 11
24.86965874320151
 21
16.09978978358401
 31
0.0
  0
LINE
  5
30C
330
2
100
AcDbEntity
  8
GAIKEI
 62
     1
100
AcDbLine
 10
25.11493465750561
 20
16.60379436608605
 30
0.0
 11
24.86965874320151
 21
16.60379436608605
 31
0.0
  0
LINE
  5
30D
330
2
100
AcDbEntity
  8
GAIKEI
 62
     1
100
AcDbLine
 10
25.611076010619
 20
16.09978978358401
 30
0.0
 11
25.611076010619
 21
16.60379436608605
 31
0.0
  0
LINE
  5
30E
330
2
100
AcDbEntity
  8
GAIKEI
 62
     1
100
AcDbLine
 10
25.36598957172186
 20
16.09978978358401
 30
0.0
 11
25.611076010619
 21
16.09978978358401
 31
0.0
  0
LINE
  5
30F
330
2
100
AcDbEntity
  8
GAIKEI
 62
     1
100
AcDbLine
 10
25.36598957172186
 20
16.60379436608605
 30
0.0
 11
25.36598957172186
 21
16.09978978358401
 31
0.0
  0
LINE
  5
310
330
2
100
AcDbEntity
  8
GAIKEI
 62
     1
100
AcDbLine
 10
25.611076010619
 20
16.60379436608605
 30
0.0
 11
25.36598957172186
 21
16.60379436608605
 31
0.0
  0
LINE
  5
311
330
2
100
AcDbEntity
  8
GAIKEI
 62
     1
100
AcDbLine
 10
26.10712262602897
 20
16.09978978358401
 30
0.0
 11
26.10712262602897
 21
16.60379436608605
 31
0.0
  0
LINE
  5
312
330
2
100
AcDbEntity
  8
GAIKEI
 62
     1
100
AcDbLine
 10
25.8621309248353
 20
16.09978978358401
 30
0.0
 11
26.10712262602897
 21
16.09978978358401
 31
0.0
  0
LINE
  5
313
330
2
100
AcDbEntity
  8
GAIKEI
 62
     1
100
AcDbLine
 10
25.8621309248353
 20
16.60379436608605
 30
0.0
 11
25.8621309248353
 21
16.09978978358401
 31
0.0
  0
LINE
  5
314
330
2
100
AcDbEntity
  8
GAIKEI
 62
     1
100
AcDbLine
 10
26.10712262602897
 20
16.60379436608605
 30
0.0
 11
25.8621309248353
 21
16.60379436608605
 31
0.0
  0
LINE
  5
315
330
2
100
AcDbEntity
  8
GAIKEI
 62
     1
100
AcDbLine
 10
26.60326397914236
 20
16.09978978358401
 30
0.0
 11
26.60326397914236
 21
16.60379436608605
 31
0.0
  0
LINE
  5
316
330
2
100
AcDbEntity
  8
GAIKEI
 62
     1
100
AcDbLine
 10
26.3579880648382
 20
16.09978978358401
 30
0.0
 11
26.60326397914236
 21
16.09978978358401
 31
0.0
  0
LINE
  5
317
330
2
100
AcDbEntity
  8
GAIKEI
 62
     1
100
AcDbLine
 10
26.3579880648382
 20
16.60379436608605
 30
0.0
 11
26.3579880648382
 21
16.09978978358401
 31
0.0
  0
LINE
  5
318
330
2
100
AcDbEntity
  8
GAIKEI
 62
     1
100
AcDbLine
 10
26.60326397914236
 20
16.60379436608605
 30
0.0
 11
26.3579880648382
 21
16.60379436608605
 31
0.0
  0
LINE
  5
319
330
2
100
AcDbEntity
  8
GAIKEI
 62
     1
100
AcDbLine
 10
27.09940533225574
 20
16.09978978358401
 30
0.0
 11
27.09940533225574
 21
16.60379436608605
 31
0.0
  0
LINE
  5
31A
330
2
100
AcDbEntity
  8
GAIKEI
 62
     1
100
AcDbLine
 10
26.85431889335859
 20
16.09978978358401
 30
0.0
 11
27.09940533225574
 21
16.09978978358401
 31
0.0
  0
LINE
  5
31B
330
2
100
AcDbEntity
  8
GAIKEI
 62
     1
100
AcDbLine
 10
26.85431889335859
 20
16.60379436608605
 30
0.0
 11
26.85431889335859
 21
16.09978978358401
 31
0.0
  0
LINE
  5
31C
330
2
100
AcDbEntity
  8
GAIKEI
 62
     1
100
AcDbLine
 10
27.09940533225574
 20
16.60379436608605
 30
0.0
 11
26.85431889335859
 21
16.60379436608605
 31
0.0
  0
LINE
  5
31D
330
2
100
AcDbEntity
  8
GAIKEI
 62
     1
100
AcDbLine
 10
27.59554668536913
 20
16.09978978358401
 30
0.0
 11
27.59554668536913
 21
16.60379436608605
 31
0.0
  0
LINE
  5
31E
330
2
100
AcDbEntity
  8
GAIKEI
 62
     1
100
AcDbLine
 10
27.35046024647199
 20
16.09978978358401
 30
0.0
 11
27.59554668536913
 21
16.09978978358401
 31
0.0
  0
LINE
  5
31F
330
2
100
AcDbEntity
  8
GAIKEI
 62
     1
100
AcDbLine
 10
27.35046024647199
 20
16.60379436608605
 30
0.0
 11
27.35046024647199
 21
16.09978978358401
 31
0.0
  0
LINE
  5
320
330
2
100
AcDbEntity
  8
GAIKEI
 62
     1
100
AcDbLine
 10
27.59554668536913
 20
16.60379436608605
 30
0.0
 11
27.35046024647199
 21
16.60379436608605
 31
0.0
  0
LINE
  5
321
330
2
100
AcDbEntity
  8
GAIKEI
 62
     1
100
AcDbLine
 10
28.09159330077904
 20
16.09978978358401
 30
0.0
 11
28.09159330077904
 21
16.60379436608605
 31
0.0
  0
LINE
  5
322
330
2
100
AcDbEntity
  8
GAIKEI
 62
     1
100
AcDbLine
 10
27.84660159958537
 20
16.09978978358401
 30
0.0
 11
28.09159330077904
 21
16.09978978358401
 31
0.0
  0
LINE
  5
323
330
2
100
AcDbEntity
  8
GAIKEI
 62
     1
100
AcDbLine
 10
27.84660159958537
 20
16.60379436608605
 30
0.0
 11
27.84660159958537
 21
16.09978978358401
 31
0.0
  0
LINE
  5
324
330
2
100
AcDbEntity
  8
GAIKEI
 62
     1
100
AcDbLine
 10
28.09159330077904
 20
16.60379436608605
 30
0.0
 11
27.84660159958537
 21
16.60379436608605
 31
0.0
  0
LINE
  5
325
330
2
100
AcDbEntity
  8
GAIKEI
 62
     1
100
AcDbLine
 10
28.58773465389243
 20
16.09978978358401
 30
0.0
 11
28.58773465389243
 21
16.60379436608605
 31
0.0
  0
LINE
  5
326
330
2
100
AcDbEntity
  8
GAIKEI
 62
     1
100
AcDbLine
 10
28.34264821499528
 20
16.09978978358401
 30
0.0
 11
28.58773465389243
 21
16.09978978358401
 31
0.0
  0
LINE
  5
327
330
2
100
AcDbEntity
  8
GAIKEI
 62
     1
100
AcDbLine
 10
28.34264821499528
 20
16.60379436608605
 30
0.0
 11
28.34264821499528
 21
16.09978978358401
 31
0.0
  0
LINE
  5
328
330
2
100
AcDbEntity
  8
GAIKEI
 62
     1
100
AcDbLine
 10
28.58773465389243
 20
16.60379436608605
 30
0.0
 11
28.34264821499528
 21
16.60379436608605
 31
0.0
  0
LINE
  5
329
330
2
100
AcDbEntity
  8
GAIKEI
 62
     1
100
AcDbLine
 10
29.08406548241283
 20
16.09978978358401
 30
0.0
 11
29.08406548241283
 21
16.60379436608605
 31
0.0
  0
LINE
  5
32A
330
2
100
AcDbEntity
  8
GAIKEI
 62
     1
100
AcDbLine
 10
28.83897904351562
 20
16.09978978358401
 30
0.0
 11
29.08406548241283
 21
16.09978978358401
 31
0.0
  0
LINE
  5
32B
330
2
100
AcDbEntity
  8
GAIKEI
 62
     1
100
AcDbLine
 10
28.83897904351562
 20
16.60379436608605
 30
0.0
 11
28.83897904351562
 21
16.09978978358401
 31
0.0
  0
LINE
  5
32C
330
2
100
AcDbEntity
  8
GAIKEI
 62
     1
100
AcDbLine
 10
29.08406548241283
 20
16.60379436608605
 30
0.0
 11
28.83897904351562
 21
16.60379436608605
 31
0.0
  0
LINE
  5
32D
330
2
100
AcDbEntity
  8
GAIKEI
 62
     1
100
AcDbLine
 10
29.58020683552621
 20
16.09978978358401
 30
0.0
 11
29.58020683552621
 21
16.60379436608605
 31
0.0
  0
LINE
  5
32E
330
2
100
AcDbEntity
  8
GAIKEI
 62
     1
100
AcDbLine
 10
29.33512039662907
 20
16.09978978358401
 30
0.0
 11
29.58020683552621
 21
16.09978978358401
 31
0.0
  0
LINE
  5
32F
330
2
100
AcDbEntity
  8
GAIKEI
 62
     1
100
AcDbLine
 10
29.33512039662907
 20
16.60379436608605
 30
0.0
 11
29.33512039662907
 21
16.09978978358401
 31
0.0
  0
LINE
  5
330
330
2
100
AcDbEntity
  8
GAIKEI
 62
     1
100
AcDbLine
 10
29.58020683552621
 20
16.60379436608605
 30
0.0
 11
29.33512039662907
 21
16.60379436608605
 31
0.0
  0
LINE
  5
331
330
2
100
AcDbEntity
  8
GAIKEI
 62
     1
100
AcDbLine
 10
30.07625345093612
 20
16.09978978358401
 30
0.0
 11
30.07625345093612
 21
16.60379436608605
 31
0.0
  0
LINE
  5
332
330
2
100
AcDbEntity
  8
GAIKEI
 62
     1
100
AcDbLine
 10
29.83126174974245
 20
16.09978978358401
 30
0.0
 11
30.07625345093612
 21
16.09978978358401
 31
0.0
  0
LINE
  5
333
330
2
100
AcDbEntity
  8
GAIKEI
 62
     1
100
AcDbLine
 10
29.83126174974245
 20
16.60379436608605
 30
0.0
 11
29.83126174974245
 21
16.09978978358401
 31
0.0
  0
LINE
  5
334
330
2
100
AcDbEntity
  8
GAIKEI
 62
     1
100
AcDbLine
 10
30.07625345093612
 20
16.60379436608605
 30
0.0
 11
29.83126174974245
 21
16.60379436608605
 31
0.0
  0
LINE
  5
335
330
2
100
AcDbEntity
  8
GAIKEI
 62
     1
100
AcDbLine
 10
30.57239480404951
 20
16.09978978358401
 30
0.0
 11
30.57239480404951
 21
16.60379436608605
 31
0.0
  0
LINE
  5
336
330
2
100
AcDbEntity
  8
GAIKEI
 62
     1
100
AcDbLine
 10
30.32730836515237
 20
16.09978978358401
 30
0.0
 11
30.57239480404951
 21
16.09978978358401
 31
0.0
  0
LINE
  5
337
330
2
100
AcDbEntity
  8
GAIKEI
 62
     1
100
AcDbLine
 10
30.32730836515237
 20
16.60379436608605
 30
0.0
 11
30.32730836515237
 21
16.09978978358401
 31
0.0
  0
LINE
  5
338
330
2
100
AcDbEntity
  8
GAIKEI
 62
     1
100
AcDbLine
 10
30.57239480404951
 20
16.60379436608605
 30
0.0
 11
30.32730836515237
 21
16.60379436608605
 31
0.0
  0
LINE
  5
339
330
2
100
AcDbEntity
  8
GAIKEI
 62
     1
100
AcDbLine
 10
31.0685361571629
 20
16.09978978358401
 30
0.0
 11
31.0685361571629
 21
16.60379436608605
 31
0.0
  0
LINE
  5
33A
330
2
100
AcDbEntity
  8
GAIKEI
 62
     1
100
AcDbLine
 10
30.82344971826575
 20
16.09978978358401
 30
0.0
 11
31.0685361571629
 21
16.09978978358401
 31
0.0
  0
LINE
  5
33B
330
2
100
AcDbEntity
  8
GAIKEI
 62
     1
100
AcDbLine
 10
30.82344971826575
 20
16.60379436608605
 30
0.0
 11
30.82344971826575
 21
16.09978978358401
 31
0.0
  0
LINE
  5
33C
330
2
100
AcDbEntity
  8
GAIKEI
 62
     1
100
AcDbLine
 10
31.0685361571629
 20
16.60379436608605
 30
0.0
 11
30.82344971826575
 21
16.60379436608605
 31
0.0
  0
LINE
  5
33D
330
2
100
AcDbEntity
  8
GAIKEI
 62
     1
100
AcDbLine
 10
31.56458277257281
 20
16.09978978358401
 30
0.0
 11
31.56458277257281
 21
16.60379436608605
 31
0.0
  0
LINE
  5
33E
330
2
100
AcDbEntity
  8
GAIKEI
 62
     1
100
AcDbLine
 10
31.31959107137915
 20
16.09978978358401
 30
0.0
 11
31.56458277257281
 21
16.09978978358401
 31
0.0
  0
LINE
  5
33F
330
2
100
AcDbEntity
  8
GAIKEI
 62
     1
100
AcDbLine
 10
31.31959107137915
 20
16.60379436608605
 30
0.0
 11
31.31959107137915
 21
16.09978978358401
 31
0.0
  0
LINE
  5
340
330
2
100
AcDbEntity
  8
GAIKEI
 62
     1
100
AcDbLine
 10
31.56458277257281
 20
16.60379436608605
 30
0.0
 11
31.31959107137915
 21
16.60379436608605
 31
0.0
  0
LINE
  5
341
330
2
100
AcDbEntity
  8
GAIKEI
 62
     1
100
AcDbLine
 10
24.12255721357536
 20
16.85522823111625
 30
0.0
 11
24.12255721357536
 21
17.35923281361829
 31
0.0
  0
LINE
  5
342
330
2
100
AcDbEntity
  8
GAIKEI
 62
     1
100
AcDbLine
 10
23.87756551238169
 20
16.85522823111625
 30
0.0
 11
24.12255721357536
 21
16.85522823111625
 31
0.0
  0
LINE
  5
343
330
2
100
AcDbEntity
  8
GAIKEI
 62
     1
100
AcDbLine
 10
23.87756551238169
 20
17.35923281361829
 30
0.0
 11
23.87756551238169
 21
16.85522823111625
 31
0.0
  0
LINE
  5
344
330
2
100
AcDbEntity
  8
GAIKEI
 62
     1
100
AcDbLine
 10
24.12255721357536
 20
17.35923281361829
 30
0.0
 11
23.87756551238169
 21
17.35923281361829
 31
0.0
  0
LINE
  5
345
330
2
100
AcDbEntity
  8
GAIKEI
 62
     1
100
AcDbLine
 10
24.61860382898527
 20
16.85522823111625
 30
0.0
 11
24.61860382898527
 21
17.35923281361829
 31
0.0
  0
LINE
  5
346
330
2
100
AcDbEntity
  8
GAIKEI
 62
     1
100
AcDbLine
 10
24.37361212779161
 20
16.85522823111625
 30
0.0
 11
24.61860382898527
 21
16.85522823111625
 31
0.0
  0
LINE
  5
347
330
2
100
AcDbEntity
  8
GAIKEI
 62
     1
100
AcDbLine
 10
24.37361212779161
 20
17.35923281361829
 30
0.0
 11
24.37361212779161
 21
16.85522823111625
 31
0.0
  0
LINE
  5
348
330
2
100
AcDbEntity
  8
GAIKEI
 62
     1
100
AcDbLine
 10
24.61860382898527
 20
17.35923281361829
 30
0.0
 11
24.37361212779161
 21
17.35923281361829
 31
0.0
  0
LINE
  5
349
330
2
100
AcDbEntity
  8
GAIKEI
 62
     1
100
AcDbLine
 10
25.11493465750561
 20
16.85522823111625
 30
0.0
 11
25.11493465750561
 21
17.35923281361829
 31
0.0
  0
LINE
  5
34A
330
2
100
AcDbEntity
  8
GAIKEI
 62
     1
100
AcDbLine
 10
24.86965874320151
 20
16.85522823111625
 30
0.0
 11
25.11493465750561
 21
16.85522823111625
 31
0.0
  0
LINE
  5
34B
330
2
100
AcDbEntity
  8
GAIKEI
 62
     1
100
AcDbLine
 10
24.86965874320151
 20
17.35923281361829
 30
0.0
 11
24.86965874320151
 21
16.85522823111625
 31
0.0
  0
LINE
  5
34C
330
2
100
AcDbEntity
  8
GAIKEI
 62
     1
100
AcDbLine
 10
25.11493465750561
 20
17.35923281361829
 30
0.0
 11
24.86965874320151
 21
17.35923281361829
 31
0.0
  0
LINE
  5
34D
330
2
100
AcDbEntity
  8
GAIKEI
 62
     1
100
AcDbLine
 10
25.611076010619
 20
16.85522823111625
 30
0.0
 11
25.611076010619
 21
17.35923281361829
 31
0.0
  0
LINE
  5
34E
330
2
100
AcDbEntity
  8
GAIKEI
 62
     1
100
AcDbLine
 10
25.36598957172186
 20
16.85522823111625
 30
0.0
 11
25.611076010619
 21
16.85522823111625
 31
0.0
  0
LINE
  5
34F
330
2
100
AcDbEntity
  8
GAIKEI
 62
     1
100
AcDbLine
 10
25.36598957172186
 20
17.35923281361829
 30
0.0
 11
25.36598957172186
 21
16.85522823111625
 31
0.0
  0
LINE
  5
350
330
2
100
AcDbEntity
  8
GAIKEI
 62
     1
100
AcDbLine
 10
25.611076010619
 20
17.35923281361829
 30
0.0
 11
25.36598957172186
 21
17.35923281361829
 31
0.0
  0
LINE
  5
351
330
2
100
AcDbEntity
  8
GAIKEI
 62
     1
100
AcDbLine
 10
26.10712262602891
 20
16.85522823111625
 30
0.0
 11
26.10712262602891
 21
17.35923281361829
 31
0.0
  0
LINE
  5
352
330
2
100
AcDbEntity
  8
GAIKEI
 62
     1
100
AcDbLine
 10
25.86213092483524
 20
16.85522823111625
 30
0.0
 11
26.10712262602891
 21
16.85522823111625
 31
0.0
  0
LINE
  5
353
330
2
100
AcDbEntity
  8
GAIKEI
 62
     1
100
AcDbLine
 10
25.86213092483524
 20
17.35923281361829
 30
0.0
 11
25.86213092483524
 21
16.85522823111625
 31
0.0
  0
LINE
  5
354
330
2
100
AcDbEntity
  8
GAIKEI
 62
     1
100
AcDbLine
 10
26.10712262602891
 20
17.35923281361829
 30
0.0
 11
25.86213092483524
 21
17.35923281361829
 31
0.0
  0
LINE
  5
355
330
2
100
AcDbEntity
  8
GAIKEI
 62
     1
100
AcDbLine
 10
26.60326397914236
 20
16.85522823111625
 30
0.0
 11
26.60326397914236
 21
17.35923281361829
 31
0.0
  0
LINE
  5
356
330
2
100
AcDbEntity
  8
GAIKEI
 62
     1
100
AcDbLine
 10
26.3579880648382
 20
16.85522823111625
 30
0.0
 11
26.60326397914236
 21
16.85522823111625
 31
0.0
  0
LINE
  5
357
330
2
100
AcDbEntity
  8
GAIKEI
 62
     1
100
AcDbLine
 10
26.3579880648382
 20
17.35923281361829
 30
0.0
 11
26.3579880648382
 21
16.85522823111625
 31
0.0
  0
LINE
  5
358
330
2
100
AcDbEntity
  8
GAIKEI
 62
     1
100
AcDbLine
 10
26.60326397914236
 20
17.35923281361829
 30
0.0
 11
26.3579880648382
 21
17.35923281361829
 31
0.0
  0
LINE
  5
359
330
2
100
AcDbEntity
  8
GAIKEI
 62
     1
100
AcDbLine
 10
27.09940533225574
 20
16.85522823111625
 30
0.0
 11
27.09940533225574
 21
17.35923281361829
 31
0.0
  0
LINE
  5
35A
330
2
100
AcDbEntity
  8
GAIKEI
 62
     1
100
AcDbLine
 10
26.85431889335859
 20
16.85522823111625
 30
0.0
 11
27.09940533225574
 21
16.85522823111625
 31
0.0
  0
LINE
  5
35B
330
2
100
AcDbEntity
  8
GAIKEI
 62
     1
100
AcDbLine
 10
26.85431889335859
 20
17.35923281361829
 30
0.0
 11
26.85431889335859
 21
16.85522823111625
 31
0.0
  0
LINE
  5
35C
330
2
100
AcDbEntity
  8
GAIKEI
 62
     1
100
AcDbLine
 10
27.09940533225574
 20
17.35923281361829
 30
0.0
 11
26.85431889335859
 21
17.35923281361829
 31
0.0
  0
LINE
  5
35D
330
2
100
AcDbEntity
  8
GAIKEI
 62
     1
100
AcDbLine
 10
27.59554668536913
 20
16.85522823111625
 30
0.0
 11
27.59554668536913
 21
17.35923281361829
 31
0.0
  0
LINE
  5
35E
330
2
100
AcDbEntity
  8
GAIKEI
 62
     1
100
AcDbLine
 10
27.35046024647199
 20
16.85522823111625
 30
0.0
 11
27.59554668536913
 21
16.85522823111625
 31
0.0
  0
LINE
  5
35F
330
2
100
AcDbEntity
  8
GAIKEI
 62
     1
100
AcDbLine
 10
27.35046024647199
 20
17.35923281361829
 30
0.0
 11
27.35046024647199
 21
16.85522823111625
 31
0.0
  0
LINE
  5
360
330
2
100
AcDbEntity
  8
GAIKEI
 62
     1
100
AcDbLine
 10
27.59554668536913
 20
17.35923281361829
 30
0.0
 11
27.35046024647199
 21
17.35923281361829
 31
0.0
  0
LINE
  5
361
330
2
100
AcDbEntity
  8
GAIKEI
 62
     1
100
AcDbLine
 10
28.09159330077904
 20
16.85522823111625
 30
0.0
 11
28.09159330077904
 21
17.35923281361829
 31
0.0
  0
LINE
  5
362
330
2
100
AcDbEntity
  8
GAIKEI
 62
     1
100
AcDbLine
 10
27.84660159958537
 20
16.85522823111625
 30
0.0
 11
28.09159330077904
 21
16.85522823111625
 31
0.0
  0
LINE
  5
363
330
2
100
AcDbEntity
  8
GAIKEI
 62
     1
100
AcDbLine
 10
27.84660159958537
 20
17.35923281361829
 30
0.0
 11
27.84660159958537
 21
16.85522823111625
 31
0.0
  0
LINE
  5
364
330
2
100
AcDbEntity
  8
GAIKEI
 62
     1
100
AcDbLine
 10
28.09159330077904
 20
17.35923281361829
 30
0.0
 11
27.84660159958537
 21
17.35923281361829
 31
0.0
  0
LINE
  5
365
330
2
100
AcDbEntity
  8
GAIKEI
 62
     1
100
AcDbLine
 10
28.58773465389243
 20
16.85522823111625
 30
0.0
 11
28.58773465389243
 21
17.35923281361829
 31
0.0
  0
LINE
  5
366
330
2
100
AcDbEntity
  8
GAIKEI
 62
     1
100
AcDbLine
 10
28.34264821499528
 20
16.85522823111625
 30
0.0
 11
28.58773465389243
 21
16.85522823111625
 31
0.0
  0
LINE
  5
367
330
2
100
AcDbEntity
  8
GAIKEI
 62
     1
100
AcDbLine
 10
28.34264821499528
 20
17.35923281361829
 30
0.0
 11
28.34264821499528
 21
16.85522823111625
 31
0.0
  0
LINE
  5
368
330
2
100
AcDbEntity
  8
GAIKEI
 62
     1
100
AcDbLine
 10
28.58773465389243
 20
17.35923281361829
 30
0.0
 11
28.34264821499528
 21
17.35923281361829
 31
0.0
  0
LINE
  5
369
330
2
100
AcDbEntity
  8
GAIKEI
 62
     1
100
AcDbLine
 10
29.08406548241277
 20
16.85522823111625
 30
0.0
 11
29.08406548241277
 21
17.35923281361829
 31
0.0
  0
LINE
  5
36A
330
2
100
AcDbEntity
  8
GAIKEI
 62
     1
100
AcDbLine
 10
28.83897904351562
 20
16.85522823111625
 30
0.0
 11
29.08406548241277
 21
16.85522823111625
 31
0.0
  0
LINE
  5
36B
330
2
100
AcDbEntity
  8
GAIKEI
 62
     1
100
AcDbLine
 10
28.83897904351562
 20
17.35923281361829
 30
0.0
 11
28.83897904351562
 21
16.85522823111625
 31
0.0
  0
LINE
  5
36C
330
2
100
AcDbEntity
  8
GAIKEI
 62
     1
100
AcDbLine
 10
29.08406548241277
 20
17.35923281361829
 30
0.0
 11
28.83897904351562
 21
17.35923281361829
 31
0.0
  0
LINE
  5
36D
330
2
100
AcDbEntity
  8
GAIKEI
 62
     1
100
AcDbLine
 10
29.58020683552621
 20
16.85522823111625
 30
0.0
 11
29.58020683552621
 21
17.35923281361829
 31
0.0
  0
LINE
  5
36E
330
2
100
AcDbEntity
  8
GAIKEI
 62
     1
100
AcDbLine
 10
29.33512039662902
 20
16.85522823111625
 30
0.0
 11
29.58020683552621
 21
16.85522823111625
 31
0.0
  0
LINE
  5
36F
330
2
100
AcDbEntity
  8
GAIKEI
 62
     1
100
AcDbLine
 10
29.33512039662902
 20
17.35923281361829
 30
0.0
 11
29.33512039662902
 21
16.85522823111625
 31
0.0
  0
LINE
  5
370
330
2
100
AcDbEntity
  8
GAIKEI
 62
     1
100
AcDbLine
 10
29.58020683552621
 20
17.35923281361829
 30
0.0
 11
29.33512039662902
 21
17.35923281361829
 31
0.0
  0
LINE
  5
371
330
2
100
AcDbEntity
  8
GAIKEI
 62
     1
100
AcDbLine
 10
30.07625345093612
 20
16.85522823111625
 30
0.0
 11
30.07625345093612
 21
17.35923281361829
 31
0.0
  0
LINE
  5
372
330
2
100
AcDbEntity
  8
GAIKEI
 62
     1
100
AcDbLine
 10
29.83126174974245
 20
16.85522823111625
 30
0.0
 11
30.07625345093612
 21
16.85522823111625
 31
0.0
  0
LINE
  5
373
330
2
100
AcDbEntity
  8
GAIKEI
 62
     1
100
AcDbLine
 10
29.83126174974245
 20
17.35923281361829
 30
0.0
 11
29.83126174974245
 21
16.85522823111625
 31
0.0
  0
LINE
  5
374
330
2
100
AcDbEntity
  8
GAIKEI
 62
     1
100
AcDbLine
 10
30.07625345093612
 20
17.35923281361829
 30
0.0
 11
29.83126174974245
 21
17.35923281361829
 31
0.0
  0
LINE
  5
375
330
2
100
AcDbEntity
  8
GAIKEI
 62
     1
100
AcDbLine
 10
30.57239480404951
 20
16.85522823111625
 30
0.0
 11
30.57239480404951
 21
17.35923281361829
 31
0.0
  0
LINE
  5
376
330
2
100
AcDbEntity
  8
GAIKEI
 62
     1
100
AcDbLine
 10
30.32730836515237
 20
16.85522823111625
 30
0.0
 11
30.57239480404951
 21
16.85522823111625
 31
0.0
  0
LINE
  5
377
330
2
100
AcDbEntity
  8
GAIKEI
 62
     1
100
AcDbLine
 10
30.32730836515237
 20
17.35923281361829
 30
0.0
 11
30.32730836515237
 21
16.85522823111625
 31
0.0
  0
LINE
  5
378
330
2
100
AcDbEntity
  8
GAIKEI
 62
     1
100
AcDbLine
 10
30.57239480404951
 20
17.35923281361829
 30
0.0
 11
30.32730836515237
 21
17.35923281361829
 31
0.0
  0
LINE
  5
379
330
2
100
AcDbEntity
  8
GAIKEI
 62
     1
100
AcDbLine
 10
31.0685361571629
 20
16.85522823111625
 30
0.0
 11
31.0685361571629
 21
17.35923281361829
 31
0.0
  0
LINE
  5
37A
330
2
100
AcDbEntity
  8
GAIKEI
 62
     1
100
AcDbLine
 10
30.82344971826575
 20
16.85522823111625
 30
0.0
 11
31.0685361571629
 21
16.85522823111625
 31
0.0
  0
LINE
  5
37B
330
2
100
AcDbEntity
  8
GAIKEI
 62
     1
100
AcDbLine
 10
30.82344971826575
 20
17.35923281361829
 30
0.0
 11
30.82344971826575
 21
16.85522823111625
 31
0.0
  0
LINE
  5
37C
330
2
100
AcDbEntity
  8
GAIKEI
 62
     1
100
AcDbLine
 10
31.0685361571629
 20
17.35923281361829
 30
0.0
 11
30.82344971826575
 21
17.35923281361829
 31
0.0
  0
LINE
  5
37D
330
2
100
AcDbEntity
  8
GAIKEI
 62
     1
100
AcDbLine
 10
31.56458277257281
 20
16.85522823111625
 30
0.0
 11
31.56458277257281
 21
17.35923281361829
 31
0.0
  0
LINE
  5
37E
330
2
100
AcDbEntity
  8
GAIKEI
 62
     1
100
AcDbLine
 10
31.31959107137915
 20
16.85522823111625
 30
0.0
 11
31.56458277257281
 21
16.85522823111625
 31
0.0
  0
LINE
  5
37F
330
2
100
AcDbEntity
  8
GAIKEI
 62
     1
100
AcDbLine
 10
31.31959107137915
 20
17.35923281361829
 30
0.0
 11
31.31959107137915
 21
16.85522823111625
 31
0.0
  0
LINE
  5
380
330
2
100
AcDbEntity
  8
GAIKEI
 62
     1
100
AcDbLine
 10
31.56458277257281
 20
17.35923281361829
 30
0.0
 11
31.31959107137915
 21
17.35923281361829
 31
0.0
  0
LINE
  5
381
330
2
100
AcDbEntity
  8
GAIKEI
 62
     1
100
AcDbLine
 10
32.75609886921348
 20
12.88060261940734
 30
0.0
 11
32.75609886921348
 21
13.38479667731633
 31
0.0
  0
LINE
  5
382
330
2
100
AcDbEntity
  8
GAIKEI
 62
     1
100
AcDbLine
 10
32.51110716801985
 20
12.88060261940734
 30
0.0
 11
32.75609886921348
 21
12.88060261940734
 31
0.0
  0
LINE
  5
383
330
2
100
AcDbEntity
  8
GAIKEI
 62
     1
100
AcDbLine
 10
32.51110716801985
 20
13.38479667731633
 30
0.0
 11
32.51110716801985
 21
12.88060261940734
 31
0.0
  0
LINE
  5
384
330
2
100
AcDbEntity
  8
GAIKEI
 62
     1
100
AcDbLine
 10
32.75609886921348
 20
13.38479667731633
 30
0.0
 11
32.51110716801985
 21
13.38479667731633
 31
0.0
  0
LINE
  5
385
330
2
100
AcDbEntity
  8
GAIKEI
 62
     1
100
AcDbLine
 10
33.25224022232686
 20
12.88060261940734
 30
0.0
 11
33.25224022232686
 21
13.38479667731633
 31
0.0
  0
LINE
  5
386
330
2
100
AcDbEntity
  8
GAIKEI
 62
     1
100
AcDbLine
 10
33.00715378342977
 20
12.88060261940734
 30
0.0
 11
33.25224022232686
 21
12.88060261940734
 31
0.0
  0
LINE
  5
387
330
2
100
AcDbEntity
  8
GAIKEI
 62
     1
100
AcDbLine
 10
33.00715378342977
 20
13.38479667731633
 30
0.0
 11
33.00715378342977
 21
12.88060261940734
 31
0.0
  0
LINE
  5
388
330
2
100
AcDbEntity
  8
GAIKEI
 62
     1
100
AcDbLine
 10
33.25224022232686
 20
13.38479667731633
 30
0.0
 11
33.00715378342977
 21
13.38479667731633
 31
0.0
  0
LINE
  5
389
330
2
100
AcDbEntity
  8
GAIKEI
 62
     1
100
AcDbLine
 10
33.74838157544031
 20
12.88060261940734
 30
0.0
 11
33.74838157544031
 21
13.38479667731633
 31
0.0
  0
LINE
  5
38A
330
2
100
AcDbEntity
  8
GAIKEI
 62
     1
100
AcDbLine
 10
33.50329513654316
 20
12.88060261940734
 30
0.0
 11
33.74838157544031
 21
12.88060261940734
 31
0.0
  0
LINE
  5
38B
330
2
100
AcDbEntity
  8
GAIKEI
 62
     1
100
AcDbLine
 10
33.50329513654316
 20
13.38479667731633
 30
0.0
 11
33.50329513654316
 21
12.88060261940734
 31
0.0
  0
LINE
  5
38C
330
2
100
AcDbEntity
  8
GAIKEI
 62
     1
100
AcDbLine
 10
33.74838157544031
 20
13.38479667731633
 30
0.0
 11
33.50329513654316
 21
13.38479667731633
 31
0.0
  0
LINE
  5
38D
330
2
100
AcDbEntity
  8
GAIKEI
 62
     1
100
AcDbLine
 10
34.24442819085022
 20
12.88060261940734
 30
0.0
 11
34.24442819085022
 21
13.38479667731633
 31
0.0
  0
LINE
  5
38E
330
2
100
AcDbEntity
  8
GAIKEI
 62
     1
100
AcDbLine
 10
33.99943648965655
 20
12.88060261940734
 30
0.0
 11
34.24442819085022
 21
12.88060261940734
 31
0.0
  0
LINE
  5
38F
330
2
100
AcDbEntity
  8
GAIKEI
 62
     1
100
AcDbLine
 10
33.99943648965655
 20
13.38479667731633
 30
0.0
 11
33.99943648965655
 21
12.88060261940734
 31
0.0
  0
LINE
  5
390
330
2
100
AcDbEntity
  8
GAIKEI
 62
     1
100
AcDbLine
 10
34.24442819085022
 20
13.38479667731633
 30
0.0
 11
33.99943648965655
 21
13.38479667731633
 31
0.0
  0
LINE
  5
391
330
2
100
AcDbEntity
  8
GAIKEI
 62
     1
100
AcDbLine
 10
34.7405695439636
 20
12.88060261940734
 30
0.0
 11
34.7405695439636
 21
13.38479667731633
 31
0.0
  0
LINE
  5
392
330
2
100
AcDbEntity
  8
GAIKEI
 62
     1
100
AcDbLine
 10
34.49557784276999
 20
12.88060261940734
 30
0.0
 11
34.7405695439636
 21
12.88060261940734
 31
0.0
  0
LINE
  5
393
330
2
100
AcDbEntity
  8
GAIKEI
 62
     1
100
AcDbLine
 10
34.49557784276999
 20
13.38479667731633
 30
0.0
 11
34.49557784276999
 21
12.88060261940734
 31
0.0
  0
LINE
  5
394
330
2
100
AcDbEntity
  8
GAIKEI
 62
     1
100
AcDbLine
 10
34.7405695439636
 20
13.38479667731633
 30
0.0
 11
34.49557784276999
 21
13.38479667731633
 31
0.0
  0
LINE
  5
395
330
2
100
AcDbEntity
  8
GAIKEI
 62
     1
100
AcDbLine
 10
35.236710897077
 20
12.88060261940734
 30
0.0
 11
35.236710897077
 21
13.38479667731633
 31
0.0
  0
LINE
  5
396
330
2
100
AcDbEntity
  8
GAIKEI
 62
     1
100
AcDbLine
 10
34.9916244581799
 20
12.88060261940734
 30
0.0
 11
35.236710897077
 21
12.88060261940734
 31
0.0
  0
LINE
  5
397
330
2
100
AcDbEntity
  8
GAIKEI
 62
     1
100
AcDbLine
 10
34.9916244581799
 20
13.38479667731633
 30
0.0
 11
34.9916244581799
 21
12.88060261940734
 31
0.0
  0
LINE
  5
398
330
2
100
AcDbEntity
  8
GAIKEI
 62
     1
100
AcDbLine
 10
35.236710897077
 20
13.38479667731633
 30
0.0
 11
34.9916244581799
 21
13.38479667731633
 31
0.0
  0
LINE
  5
399
330
2
100
AcDbEntity
  8
GAIKEI
 62
     1
100
AcDbLine
 10
35.73285225019044
 20
12.88060261940734
 30
0.0
 11
35.73285225019044
 21
13.38479667731633
 31
0.0
  0
LINE
  5
39A
330
2
100
AcDbEntity
  8
GAIKEI
 62
     1
100
AcDbLine
 10
35.48776581129323
 20
12.88060261940734
 30
0.0
 11
35.73285225019044
 21
12.88060261940734
 31
0.0
  0
LINE
  5
39B
330
2
100
AcDbEntity
  8
GAIKEI
 62
     1
100
AcDbLine
 10
35.48776581129323
 20
13.38479667731633
 30
0.0
 11
35.48776581129323
 21
12.88060261940734
 31
0.0
  0
LINE
  5
39C
330
2
100
AcDbEntity
  8
GAIKEI
 62
     1
100
AcDbLine
 10
35.73285225019044
 20
13.38479667731633
 30
0.0
 11
35.48776581129323
 21
13.38479667731633
 31
0.0
  0
LINE
  5
39D
330
2
100
AcDbEntity
  8
GAIKEI
 62
     1
100
AcDbLine
 10
36.2290883410073
 20
12.88060261940734
 30
0.0
 11
36.2290883410073
 21
13.38479667731633
 31
0.0
  0
LINE
  5
39E
330
2
100
AcDbEntity
  8
GAIKEI
 62
     1
100
AcDbLine
 10
35.98409663981364
 20
12.88060261940734
 30
0.0
 11
36.2290883410073
 21
12.88060261940734
 31
0.0
  0
LINE
  5
39F
330
2
100
AcDbEntity
  8
GAIKEI
 62
     1
100
AcDbLine
 10
35.98409663981364
 20
13.38479667731633
 30
0.0
 11
35.98409663981364
 21
12.88060261940734
 31
0.0
  0
LINE
  5
3A0
330
2
100
AcDbEntity
  8
GAIKEI
 62
     1
100
AcDbLine
 10
36.2290883410073
 20
13.38479667731633
 30
0.0
 11
35.98409663981364
 21
13.38479667731633
 31
0.0
  0
LINE
  5
3A1
330
2
100
AcDbEntity
  8
GAIKEI
 62
     1
100
AcDbLine
 10
36.72504021871373
 20
12.88060261940734
 30
0.0
 11
36.72504021871373
 21
13.38479667731633
 31
0.0
  0
LINE
  5
3A2
330
2
100
AcDbEntity
  8
GAIKEI
 62
     1
100
AcDbLine
 10
36.48004851752006
 20
12.88060261940734
 30
0.0
 11
36.72504021871373
 21
12.88060261940734
 31
0.0
  0
LINE
  5
3A3
330
2
100
AcDbEntity
  8
GAIKEI
 62
     1
100
AcDbLine
 10
36.48004851752006
 20
13.38479667731633
 30
0.0
 11
36.48004851752006
 21
12.88060261940734
 31
0.0
  0
LINE
  5
3A4
330
2
100
AcDbEntity
  8
GAIKEI
 62
     1
100
AcDbLine
 10
36.72504021871373
 20
13.38479667731633
 30
0.0
 11
36.48004851752006
 21
13.38479667731633
 31
0.0
  0
LINE
  5
3A5
330
2
100
AcDbEntity
  8
GAIKEI
 62
     1
100
AcDbLine
 10
37.22118157182712
 20
12.88060261940734
 30
0.0
 11
37.22118157182712
 21
13.38479667731633
 31
0.0
  0
LINE
  5
3A6
330
2
100
AcDbEntity
  8
GAIKEI
 62
     1
100
AcDbLine
 10
36.97609513292997
 20
12.88060261940734
 30
0.0
 11
37.22118157182712
 21
12.88060261940734
 31
0.0
  0
LINE
  5
3A7
330
2
100
AcDbEntity
  8
GAIKEI
 62
     1
100
AcDbLine
 10
36.97609513292997
 20
13.38479667731633
 30
0.0
 11
36.97609513292997
 21
12.88060261940734
 31
0.0
  0
LINE
  5
3A8
330
2
100
AcDbEntity
  8
GAIKEI
 62
     1
100
AcDbLine
 10
37.22118157182712
 20
13.38479667731633
 30
0.0
 11
36.97609513292997
 21
13.38479667731633
 31
0.0
  0
LINE
  5
3A9
330
2
100
AcDbEntity
  8
GAIKEI
 62
     1
100
AcDbLine
 10
37.71751240034746
 20
12.88060261940734
 30
0.0
 11
37.71751240034746
 21
13.38479667731633
 31
0.0
  0
LINE
  5
3AA
330
2
100
AcDbEntity
  8
GAIKEI
 62
     1
100
AcDbLine
 10
37.47242596145031
 20
12.88060261940734
 30
0.0
 11
37.71751240034746
 21
12.88060261940734
 31
0.0
  0
LINE
  5
3AB
330
2
100
AcDbEntity
  8
GAIKEI
 62
     1
100
AcDbLine
 10
37.47242596145031
 20
13.38479667731633
 30
0.0
 11
37.47242596145031
 21
12.88060261940734
 31
0.0
  0
LINE
  5
3AC
330
2
100
AcDbEntity
  8
GAIKEI
 62
     1
100
AcDbLine
 10
37.71751240034746
 20
13.38479667731633
 30
0.0
 11
37.47242596145031
 21
13.38479667731633
 31
0.0
  0
LINE
  5
3AD
330
2
100
AcDbEntity
  8
GAIKEI
 62
     1
100
AcDbLine
 10
38.21355901575736
 20
12.88060261940734
 30
0.0
 11
38.21355901575736
 21
13.38479667731633
 31
0.0
  0
LINE
  5
3AE
330
2
100
AcDbEntity
  8
GAIKEI
 62
     1
100
AcDbLine
 10
37.96856731456376
 20
12.88060261940734
 30
0.0
 11
38.21355901575736
 21
12.88060261940734
 31
0.0
  0
LINE
  5
3AF
330
2
100
AcDbEntity
  8
GAIKEI
 62
     1
100
AcDbLine
 10
37.96856731456376
 20
13.38479667731633
 30
0.0
 11
37.96856731456376
 21
12.88060261940734
 31
0.0
  0
LINE
  5
3B0
330
2
100
AcDbEntity
  8
GAIKEI
 62
     1
100
AcDbLine
 10
38.21355901575736
 20
13.38479667731633
 30
0.0
 11
37.96856731456376
 21
13.38479667731633
 31
0.0
  0
LINE
  5
3B1
330
2
100
AcDbEntity
  8
GAIKEI
 62
     1
100
AcDbLine
 10
38.70970036887081
 20
12.88060261940734
 30
0.0
 11
38.70970036887081
 21
13.38479667731633
 31
0.0
  0
LINE
  5
3B2
330
2
100
AcDbEntity
  8
GAIKEI
 62
     1
100
AcDbLine
 10
38.4647086676771
 20
12.88060261940734
 30
0.0
 11
38.70970036887081
 21
12.88060261940734
 31
0.0
  0
LINE
  5
3B3
330
2
100
AcDbEntity
  8
GAIKEI
 62
     1
100
AcDbLine
 10
38.4647086676771
 20
13.38479667731633
 30
0.0
 11
38.4647086676771
 21
12.88060261940734
 31
0.0
  0
LINE
  5
3B4
330
2
100
AcDbEntity
  8
GAIKEI
 62
     1
100
AcDbLine
 10
38.70970036887081
 20
13.38479667731633
 30
0.0
 11
38.4647086676771
 21
13.38479667731633
 31
0.0
  0
LINE
  5
3B5
330
2
100
AcDbEntity
  8
GAIKEI
 62
     1
100
AcDbLine
 10
39.20584172198421
 20
12.88060261940734
 30
0.0
 11
39.20584172198421
 21
13.38479667731633
 31
0.0
  0
LINE
  5
3B6
330
2
100
AcDbEntity
  8
GAIKEI
 62
     1
100
AcDbLine
 10
38.96075528308705
 20
12.88060261940734
 30
0.0
 11
39.20584172198421
 21
12.88060261940734
 31
0.0
  0
LINE
  5
3B7
330
2
100
AcDbEntity
  8
GAIKEI
 62
     1
100
AcDbLine
 10
38.96075528308705
 20
13.38479667731633
 30
0.0
 11
38.96075528308705
 21
12.88060261940734
 31
0.0
  0
LINE
  5
3B8
330
2
100
AcDbEntity
  8
GAIKEI
 62
     1
100
AcDbLine
 10
39.20584172198421
 20
13.38479667731633
 30
0.0
 11
38.96075528308705
 21
13.38479667731633
 31
0.0
  0
LINE
  5
3B9
330
2
100
AcDbEntity
  8
GAIKEI
 62
     1
100
AcDbLine
 10
39.7019830750976
 20
12.88060261940734
 30
0.0
 11
39.7019830750976
 21
13.38479667731633
 31
0.0
  0
LINE
  5
3BA
330
2
100
AcDbEntity
  8
GAIKEI
 62
     1
100
AcDbLine
 10
39.45689663620044
 20
12.88060261940734
 30
0.0
 11
39.7019830750976
 21
12.88060261940734
 31
0.0
  0
LINE
  5
3BB
330
2
100
AcDbEntity
  8
GAIKEI
 62
     1
100
AcDbLine
 10
39.45689663620044
 20
13.38479667731633
 30
0.0
 11
39.45689663620044
 21
12.88060261940734
 31
0.0
  0
LINE
  5
3BC
330
2
100
AcDbEntity
  8
GAIKEI
 62
     1
100
AcDbLine
 10
39.7019830750976
 20
13.38479667731633
 30
0.0
 11
39.45689663620044
 21
13.38479667731633
 31
0.0
  0
LINE
  5
3BD
330
2
100
AcDbEntity
  8
GAIKEI
 62
     1
100
AcDbLine
 10
40.1980296905075
 20
12.88060261940734
 30
0.0
 11
40.1980296905075
 21
13.38479667731633
 31
0.0
  0
LINE
  5
3BE
330
2
100
AcDbEntity
  8
GAIKEI
 62
     1
100
AcDbLine
 10
39.95303798931383
 20
12.88060261940734
 30
0.0
 11
40.1980296905075
 21
12.88060261940734
 31
0.0
  0
LINE
  5
3BF
330
2
100
AcDbEntity
  8
GAIKEI
 62
     1
100
AcDbLine
 10
39.95303798931383
 20
13.38479667731633
 30
0.0
 11
39.95303798931383
 21
12.88060261940734
 31
0.0
  0
LINE
  5
3C0
330
2
100
AcDbEntity
  8
GAIKEI
 62
     1
100
AcDbLine
 10
40.1980296905075
 20
13.38479667731633
 30
0.0
 11
39.95303798931383
 21
13.38479667731633
 31
0.0
  0
LINE
  5
3C1
330
2
100
AcDbEntity
  8
GAIKEI
 62
     1
100
AcDbLine
 10
32.75609886921348
 20
13.63623054234654
 30
0.0
 11
32.75609886921348
 21
14.14023512484857
 31
0.0
  0
LINE
  5
3C2
330
2
100
AcDbEntity
  8
GAIKEI
 62
     1
100
AcDbLine
 10
32.51110716801985
 20
13.63623054234654
 30
0.0
 11
32.75609886921348
 21
13.63623054234654
 31
0.0
  0
LINE
  5
3C3
330
2
100
AcDbEntity
  8
GAIKEI
 62
     1
100
AcDbLine
 10
32.51110716801985
 20
14.14023512484857
 30
0.0
 11
32.51110716801985
 21
13.63623054234654
 31
0.0
  0
LINE
  5
3C4
330
2
100
AcDbEntity
  8
GAIKEI
 62
     1
100
AcDbLine
 10
32.75609886921348
 20
14.14023512484857
 30
0.0
 11
32.51110716801985
 21
14.14023512484857
 31
0.0
  0
LINE
  5
3C5
330
2
100
AcDbEntity
  8
GAIKEI
 62
     1
100
AcDbLine
 10
33.25224022232686
 20
13.63623054234654
 30
0.0
 11
33.25224022232686
 21
14.14023512484857
 31
0.0
  0
LINE
  5
3C6
330
2
100
AcDbEntity
  8
GAIKEI
 62
     1
100
AcDbLine
 10
33.00715378342977
 20
13.63623054234654
 30
0.0
 11
33.25224022232686
 21
13.63623054234654
 31
0.0
  0
LINE
  5
3C7
330
2
100
AcDbEntity
  8
GAIKEI
 62
     1
100
AcDbLine
 10
33.00715378342977
 20
14.14023512484857
 30
0.0
 11
33.00715378342977
 21
13.63623054234654
 31
0.0
  0
LINE
  5
3C8
330
2
100
AcDbEntity
  8
GAIKEI
 62
     1
100
AcDbLine
 10
33.25224022232686
 20
14.14023512484857
 30
0.0
 11
33.00715378342977
 21
14.14023512484857
 31
0.0
  0
LINE
  5
3C9
330
2
100
AcDbEntity
  8
GAIKEI
 62
     1
100
AcDbLine
 10
33.74838157544031
 20
13.63623054234654
 30
0.0
 11
33.74838157544031
 21
14.14023512484857
 31
0.0
  0
LINE
  5
3CA
330
2
100
AcDbEntity
  8
GAIKEI
 62
     1
100
AcDbLine
 10
33.50329513654316
 20
13.63623054234654
 30
0.0
 11
33.74838157544031
 21
13.63623054234654
 31
0.0
  0
LINE
  5
3CB
330
2
100
AcDbEntity
  8
GAIKEI
 62
     1
100
AcDbLine
 10
33.50329513654316
 20
14.14023512484857
 30
0.0
 11
33.50329513654316
 21
13.63623054234654
 31
0.0
  0
LINE
  5
3CC
330
2
100
AcDbEntity
  8
GAIKEI
 62
     1
100
AcDbLine
 10
33.74838157544031
 20
14.14023512484857
 30
0.0
 11
33.50329513654316
 21
14.14023512484857
 31
0.0
  0
LINE
  5
3CD
330
2
100
AcDbEntity
  8
GAIKEI
 62
     1
100
AcDbLine
 10
34.24442819085022
 20
13.63623054234654
 30
0.0
 11
34.24442819085022
 21
14.14023512484857
 31
0.0
  0
LINE
  5
3CE
330
2
100
AcDbEntity
  8
GAIKEI
 62
     1
100
AcDbLine
 10
33.99943648965655
 20
13.63623054234654
 30
0.0
 11
34.24442819085022
 21
13.63623054234654
 31
0.0
  0
LINE
  5
3CF
330
2
100
AcDbEntity
  8
GAIKEI
 62
     1
100
AcDbLine
 10
33.99943648965655
 20
14.14023512484857
 30
0.0
 11
33.99943648965655
 21
13.63623054234654
 31
0.0
  0
LINE
  5
3D0
330
2
100
AcDbEntity
  8
GAIKEI
 62
     1
100
AcDbLine
 10
34.24442819085022
 20
14.14023512484857
 30
0.0
 11
33.99943648965655
 21
14.14023512484857
 31
0.0
  0
LINE
  5
3D1
330
2
100
AcDbEntity
  8
GAIKEI
 62
     1
100
AcDbLine
 10
34.7405695439636
 20
13.63623054234654
 30
0.0
 11
34.7405695439636
 21
14.14023512484857
 31
0.0
  0
LINE
  5
3D2
330
2
100
AcDbEntity
  8
GAIKEI
 62
     1
100
AcDbLine
 10
34.49557784276999
 20
13.63623054234654
 30
0.0
 11
34.7405695439636
 21
13.63623054234654
 31
0.0
  0
LINE
  5
3D3
330
2
100
AcDbEntity
  8
GAIKEI
 62
     1
100
AcDbLine
 10
34.49557784276999
 20
14.14023512484857
 30
0.0
 11
34.49557784276999
 21
13.63623054234654
 31
0.0
  0
LINE
  5
3D4
330
2
100
AcDbEntity
  8
GAIKEI
 62
     1
100
AcDbLine
 10
34.7405695439636
 20
14.14023512484857
 30
0.0
 11
34.49557784276999
 21
14.14023512484857
 31
0.0
  0
LINE
  5
3D5
330
2
100
AcDbEntity
  8
GAIKEI
 62
     1
100
AcDbLine
 10
35.236710897077
 20
13.63623054234654
 30
0.0
 11
35.236710897077
 21
14.14023512484857
 31
0.0
  0
LINE
  5
3D6
330
2
100
AcDbEntity
  8
GAIKEI
 62
     1
100
AcDbLine
 10
34.9916244581799
 20
13.63623054234654
 30
0.0
 11
35.236710897077
 21
13.63623054234654
 31
0.0
  0
LINE
  5
3D7
330
2
100
AcDbEntity
  8
GAIKEI
 62
     1
100
AcDbLine
 10
34.9916244581799
 20
14.14023512484857
 30
0.0
 11
34.9916244581799
 21
13.63623054234654
 31
0.0
  0
LINE
  5
3D8
330
2
100
AcDbEntity
  8
GAIKEI
 62
     1
100
AcDbLine
 10
35.236710897077
 20
14.14023512484857
 30
0.0
 11
34.9916244581799
 21
14.14023512484857
 31
0.0
  0
LINE
  5
3D9
330
2
100
AcDbEntity
  8
GAIKEI
 62
     1
100
AcDbLine
 10
35.73285225019044
 20
13.63623054234654
 30
0.0
 11
35.73285225019044
 21
14.14023512484857
 31
0.0
  0
LINE
  5
3DA
330
2
100
AcDbEntity
  8
GAIKEI
 62
     1
100
AcDbLine
 10
35.48776581129323
 20
13.63623054234654
 30
0.0
 11
35.73285225019044
 21
13.63623054234654
 31
0.0
  0
LINE
  5
3DB
330
2
100
AcDbEntity
  8
GAIKEI
 62
     1
100
AcDbLine
 10
35.48776581129323
 20
14.14023512484857
 30
0.0
 11
35.48776581129323
 21
13.63623054234654
 31
0.0
  0
LINE
  5
3DC
330
2
100
AcDbEntity
  8
GAIKEI
 62
     1
100
AcDbLine
 10
35.73285225019044
 20
14.14023512484857
 30
0.0
 11
35.48776581129323
 21
14.14023512484857
 31
0.0
  0
LINE
  5
3DD
330
2
100
AcDbEntity
  8
GAIKEI
 62
     1
100
AcDbLine
 10
36.2290883410073
 20
13.63623054234654
 30
0.0
 11
36.2290883410073
 21
14.14023512484857
 31
0.0
  0
LINE
  5
3DE
330
2
100
AcDbEntity
  8
GAIKEI
 62
     1
100
AcDbLine
 10
35.98409663981364
 20
13.63623054234654
 30
0.0
 11
36.2290883410073
 21
13.63623054234654
 31
0.0
  0
LINE
  5
3DF
330
2
100
AcDbEntity
  8
GAIKEI
 62
     1
100
AcDbLine
 10
35.98409663981364
 20
14.14023512484857
 30
0.0
 11
35.98409663981364
 21
13.63623054234654
 31
0.0
  0
LINE
  5
3E0
330
2
100
AcDbEntity
  8
GAIKEI
 62
     1
100
AcDbLine
 10
36.2290883410073
 20
14.14023512484857
 30
0.0
 11
35.98409663981364
 21
14.14023512484857
 31
0.0
  0
LINE
  5
3E1
330
2
100
AcDbEntity
  8
GAIKEI
 62
     1
100
AcDbLine
 10
36.72504021871373
 20
13.63623054234654
 30
0.0
 11
36.72504021871373
 21
14.14023512484857
 31
0.0
  0
LINE
  5
3E2
330
2
100
AcDbEntity
  8
GAIKEI
 62
     1
100
AcDbLine
 10
36.48004851752006
 20
13.63623054234654
 30
0.0
 11
36.72504021871373
 21
13.63623054234654
 31
0.0
  0
LINE
  5
3E3
330
2
100
AcDbEntity
  8
GAIKEI
 62
     1
100
AcDbLine
 10
36.48004851752006
 20
14.14023512484857
 30
0.0
 11
36.48004851752006
 21
13.63623054234654
 31
0.0
  0
LINE
  5
3E4
330
2
100
AcDbEntity
  8
GAIKEI
 62
     1
100
AcDbLine
 10
36.72504021871373
 20
14.14023512484857
 30
0.0
 11
36.48004851752006
 21
14.14023512484857
 31
0.0
  0
LINE
  5
3E5
330
2
100
AcDbEntity
  8
GAIKEI
 62
     1
100
AcDbLine
 10
37.22118157182712
 20
13.63623054234654
 30
0.0
 11
37.22118157182712
 21
14.14023512484857
 31
0.0
  0
LINE
  5
3E6
330
2
100
AcDbEntity
  8
GAIKEI
 62
     1
100
AcDbLine
 10
36.97609513292997
 20
13.63623054234654
 30
0.0
 11
37.22118157182712
 21
13.63623054234654
 31
0.0
  0
LINE
  5
3E7
330
2
100
AcDbEntity
  8
GAIKEI
 62
     1
100
AcDbLine
 10
36.97609513292997
 20
14.14023512484857
 30
0.0
 11
36.97609513292997
 21
13.63623054234654
 31
0.0
  0
LINE
  5
3E8
330
2
100
AcDbEntity
  8
GAIKEI
 62
     1
100
AcDbLine
 10
37.22118157182712
 20
14.14023512484857
 30
0.0
 11
36.97609513292997
 21
14.14023512484857
 31
0.0
  0
LINE
  5
3E9
330
2
100
AcDbEntity
  8
GAIKEI
 62
     1
100
AcDbLine
 10
37.71751240034746
 20
13.63623054234654
 30
0.0
 11
37.71751240034746
 21
14.14023512484857
 31
0.0
  0
LINE
  5
3EA
330
2
100
AcDbEntity
  8
GAIKEI
 62
     1
100
AcDbLine
 10
37.47242596145031
 20
13.63623054234654
 30
0.0
 11
37.71751240034746
 21
13.63623054234654
 31
0.0
  0
LINE
  5
3EB
330
2
100
AcDbEntity
  8
GAIKEI
 62
     1
100
AcDbLine
 10
37.47242596145031
 20
14.14023512484857
 30
0.0
 11
37.47242596145031
 21
13.63623054234654
 31
0.0
  0
LINE
  5
3EC
330
2
100
AcDbEntity
  8
GAIKEI
 62
     1
100
AcDbLine
 10
37.71751240034746
 20
14.14023512484857
 30
0.0
 11
37.47242596145031
 21
14.14023512484857
 31
0.0
  0
LINE
  5
3ED
330
2
100
AcDbEntity
  8
GAIKEI
 62
     1
100
AcDbLine
 10
38.21355901575736
 20
13.63623054234654
 30
0.0
 11
38.21355901575736
 21
14.14023512484857
 31
0.0
  0
LINE
  5
3EE
330
2
100
AcDbEntity
  8
GAIKEI
 62
     1
100
AcDbLine
 10
37.96856731456376
 20
13.63623054234654
 30
0.0
 11
38.21355901575736
 21
13.63623054234654
 31
0.0
  0
LINE
  5
3EF
330
2
100
AcDbEntity
  8
GAIKEI
 62
     1
100
AcDbLine
 10
37.96856731456376
 20
14.14023512484857
 30
0.0
 11
37.96856731456376
 21
13.63623054234654
 31
0.0
  0
LINE
  5
3F0
330
2
100
AcDbEntity
  8
GAIKEI
 62
     1
100
AcDbLine
 10
38.21355901575736
 20
14.14023512484857
 30
0.0
 11
37.96856731456376
 21
14.14023512484857
 31
0.0
  0
LINE
  5
3F1
330
2
100
AcDbEntity
  8
GAIKEI
 62
     1
100
AcDbLine
 10
38.70970036887081
 20
13.63623054234654
 30
0.0
 11
38.70970036887081
 21
14.14023512484857
 31
0.0
  0
LINE
  5
3F2
330
2
100
AcDbEntity
  8
GAIKEI
 62
     1
100
AcDbLine
 10
38.4647086676771
 20
13.63623054234654
 30
0.0
 11
38.70970036887081
 21
13.63623054234654
 31
0.0
  0
LINE
  5
3F3
330
2
100
AcDbEntity
  8
GAIKEI
 62
     1
100
AcDbLine
 10
38.4647086676771
 20
14.14023512484857
 30
0.0
 11
38.4647086676771
 21
13.63623054234654
 31
0.0
  0
LINE
  5
3F4
330
2
100
AcDbEntity
  8
GAIKEI
 62
     1
100
AcDbLine
 10
38.70970036887081
 20
14.14023512484857
 30
0.0
 11
38.4647086676771
 21
14.14023512484857
 31
0.0
  0
LINE
  5
3F5
330
2
100
AcDbEntity
  8
GAIKEI
 62
     1
100
AcDbLine
 10
39.20584172198421
 20
13.63623054234654
 30
0.0
 11
39.20584172198421
 21
14.14023512484857
 31
0.0
  0
LINE
  5
3F6
330
2
100
AcDbEntity
  8
GAIKEI
 62
     1
100
AcDbLine
 10
38.96075528308705
 20
13.63623054234654
 30
0.0
 11
39.20584172198421
 21
13.63623054234654
 31
0.0
  0
LINE
  5
3F7
330
2
100
AcDbEntity
  8
GAIKEI
 62
     1
100
AcDbLine
 10
38.96075528308705
 20
14.14023512484857
 30
0.0
 11
38.96075528308705
 21
13.63623054234654
 31
0.0
  0
LINE
  5
3F8
330
2
100
AcDbEntity
  8
GAIKEI
 62
     1
100
AcDbLine
 10
39.20584172198421
 20
14.14023512484857
 30
0.0
 11
38.96075528308705
 21
14.14023512484857
 31
0.0
  0
LINE
  5
3F9
330
2
100
AcDbEntity
  8
GAIKEI
 62
     1
100
AcDbLine
 10
39.7019830750976
 20
13.63623054234654
 30
0.0
 11
39.7019830750976
 21
14.14023512484857
 31
0.0
  0
LINE
  5
3FA
330
2
100
AcDbEntity
  8
GAIKEI
 62
     1
100
AcDbLine
 10
39.45689663620044
 20
13.63623054234654
 30
0.0
 11
39.7019830750976
 21
13.63623054234654
 31
0.0
  0
LINE
  5
3FB
330
2
100
AcDbEntity
  8
GAIKEI
 62
     1
100
AcDbLine
 10
39.45689663620044
 20
14.14023512484857
 30
0.0
 11
39.45689663620044
 21
13.63623054234654
 31
0.0
  0
LINE
  5
3FC
330
2
100
AcDbEntity
  8
GAIKEI
 62
     1
100
AcDbLine
 10
39.7019830750976
 20
14.14023512484857
 30
0.0
 11
39.45689663620044
 21
14.14023512484857
 31
0.0
  0
LINE
  5
3FD
330
2
100
AcDbEntity
  8
GAIKEI
 62
     1
100
AcDbLine
 10
40.1980296905075
 20
13.63623054234654
 30
0.0
 11
40.1980296905075
 21
14.14023512484857
 31
0.0
  0
LINE
  5
3FE
330
2
100
AcDbEntity
  8
GAIKEI
 62
     1
100
AcDbLine
 10
39.95303798931383
 20
13.63623054234654
 30
0.0
 11
40.1980296905075
 21
13.63623054234654
 31
0.0
  0
LINE
  5
3FF
330
2
100
AcDbEntity
  8
GAIKEI
 62
     1
100
AcDbLine
 10
39.95303798931383
 20
14.14023512484857
 30
0.0
 11
39.95303798931383
 21
13.63623054234654
 31
0.0
  0
LINE
  5
400
330
2
100
AcDbEntity
  8
GAIKEI
 62
     1
100
AcDbLine
 10
40.1980296905075
 20
14.14023512484857
 30
0.0
 11
39.95303798931383
 21
14.14023512484857
 31
0.0
  0
LINE
  5
401
330
2
100
AcDbEntity
  8
GAIKEI
 62
     1
100
AcDbLine
 10
32.75609886921348
 20
14.39166898987878
 30
0.0
 11
32.75609886921348
 21
14.89586304778777
 31
0.0
  0
LINE
  5
402
330
2
100
AcDbEntity
  8
GAIKEI
 62
     1
100
AcDbLine
 10
32.51110716801985
 20
14.39166898987878
 30
0.0
 11
32.75609886921348
 21
14.39166898987878
 31
0.0
  0
LINE
  5
403
330
2
100
AcDbEntity
  8
GAIKEI
 62
     1
100
AcDbLine
 10
32.51110716801985
 20
14.89586304778777
 30
0.0
 11
32.51110716801985
 21
14.39166898987878
 31
0.0
  0
LINE
  5
404
330
2
100
AcDbEntity
  8
GAIKEI
 62
     1
100
AcDbLine
 10
32.75609886921348
 20
14.89586304778777
 30
0.0
 11
32.51110716801985
 21
14.89586304778777
 31
0.0
  0
LINE
  5
405
330
2
100
AcDbEntity
  8
GAIKEI
 62
     1
100
AcDbLine
 10
33.25224022232686
 20
14.39166898987878
 30
0.0
 11
33.25224022232686
 21
14.89586304778777
 31
0.0
  0
LINE
  5
406
330
2
100
AcDbEntity
  8
GAIKEI
 62
     1
100
AcDbLine
 10
33.00715378342977
 20
14.39166898987878
 30
0.0
 11
33.25224022232686
 21
14.39166898987878
 31
0.0
  0
LINE
  5
407
330
2
100
AcDbEntity
  8
GAIKEI
 62
     1
100
AcDbLine
 10
33.00715378342977
 20
14.89586304778777
 30
0.0
 11
33.00715378342977
 21
14.39166898987878
 31
0.0
  0
LINE
  5
408
330
2
100
AcDbEntity
  8
GAIKEI
 62
     1
100
AcDbLine
 10
33.25224022232686
 20
14.89586304778777
 30
0.0
 11
33.00715378342977
 21
14.89586304778777
 31
0.0
  0
LINE
  5
409
330
2
100
AcDbEntity
  8
GAIKEI
 62
     1
100
AcDbLine
 10
33.74838157544031
 20
14.39166898987878
 30
0.0
 11
33.74838157544031
 21
14.89586304778777
 31
0.0
  0
LINE
  5
40A
330
2
100
AcDbEntity
  8
GAIKEI
 62
     1
100
AcDbLine
 10
33.50329513654316
 20
14.39166898987878
 30
0.0
 11
33.74838157544031
 21
14.39166898987878
 31
0.0
  0
LINE
  5
40B
330
2
100
AcDbEntity
  8
GAIKEI
 62
     1
100
AcDbLine
 10
33.50329513654316
 20
14.89586304778777
 30
0.0
 11
33.50329513654316
 21
14.39166898987878
 31
0.0
  0
LINE
  5
40C
330
2
100
AcDbEntity
  8
GAIKEI
 62
     1
100
AcDbLine
 10
33.74838157544031
 20
14.89586304778777
 30
0.0
 11
33.50329513654316
 21
14.89586304778777
 31
0.0
  0
LINE
  5
40D
330
2
100
AcDbEntity
  8
GAIKEI
 62
     1
100
AcDbLine
 10
34.24442819085022
 20
14.39166898987878
 30
0.0
 11
34.24442819085022
 21
14.89586304778777
 31
0.0
  0
LINE
  5
40E
330
2
100
AcDbEntity
  8
GAIKEI
 62
     1
100
AcDbLine
 10
33.99943648965655
 20
14.39166898987878
 30
0.0
 11
34.24442819085022
 21
14.39166898987878
 31
0.0
  0
LINE
  5
40F
330
2
100
AcDbEntity
  8
GAIKEI
 62
     1
100
AcDbLine
 10
33.99943648965655
 20
14.89586304778777
 30
0.0
 11
33.99943648965655
 21
14.39166898987878
 31
0.0
  0
LINE
  5
410
330
2
100
AcDbEntity
  8
GAIKEI
 62
     1
100
AcDbLine
 10
34.24442819085022
 20
14.89586304778777
 30
0.0
 11
33.99943648965655
 21
14.89586304778777
 31
0.0
  0
LINE
  5
411
330
2
100
AcDbEntity
  8
GAIKEI
 62
     1
100
AcDbLine
 10
34.7405695439636
 20
14.39166898987878
 30
0.0
 11
34.7405695439636
 21
14.89586304778777
 31
0.0
  0
LINE
  5
412
330
2
100
AcDbEntity
  8
GAIKEI
 62
     1
100
AcDbLine
 10
34.49557784276999
 20
14.39166898987878
 30
0.0
 11
34.7405695439636
 21
14.39166898987878
 31
0.0
  0
LINE
  5
413
330
2
100
AcDbEntity
  8
GAIKEI
 62
     1
100
AcDbLine
 10
34.49557784276999
 20
14.89586304778777
 30
0.0
 11
34.49557784276999
 21
14.39166898987878
 31
0.0
  0
LINE
  5
414
330
2
100
AcDbEntity
  8
GAIKEI
 62
     1
100
AcDbLine
 10
34.7405695439636
 20
14.89586304778777
 30
0.0
 11
34.49557784276999
 21
14.89586304778777
 31
0.0
  0
LINE
  5
415
330
2
100
AcDbEntity
  8
GAIKEI
 62
     1
100
AcDbLine
 10
35.236710897077
 20
14.39166898987878
 30
0.0
 11
35.236710897077
 21
14.89586304778777
 31
0.0
  0
LINE
  5
416
330
2
100
AcDbEntity
  8
GAIKEI
 62
     1
100
AcDbLine
 10
34.9916244581799
 20
14.39166898987878
 30
0.0
 11
35.236710897077
 21
14.39166898987878
 31
0.0
  0
LINE
  5
417
330
2
100
AcDbEntity
  8
GAIKEI
 62
     1
100
AcDbLine
 10
34.9916244581799
 20
14.89586304778777
 30
0.0
 11
34.9916244581799
 21
14.39166898987878
 31
0.0
  0
LINE
  5
418
330
2
100
AcDbEntity
  8
GAIKEI
 62
     1
100
AcDbLine
 10
35.236710897077
 20
14.89586304778777
 30
0.0
 11
34.9916244581799
 21
14.89586304778777
 31
0.0
  0
LINE
  5
419
330
2
100
AcDbEntity
  8
GAIKEI
 62
     1
100
AcDbLine
 10
35.73285225019044
 20
14.39166898987878
 30
0.0
 11
35.73285225019044
 21
14.89586304778777
 31
0.0
  0
LINE
  5
41A
330
2
100
AcDbEntity
  8
GAIKEI
 62
     1
100
AcDbLine
 10
35.48776581129323
 20
14.39166898987878
 30
0.0
 11
35.73285225019044
 21
14.39166898987878
 31
0.0
  0
LINE
  5
41B
330
2
100
AcDbEntity
  8
GAIKEI
 62
     1
100
AcDbLine
 10
35.48776581129323
 20
14.89586304778777
 30
0.0
 11
35.48776581129323
 21
14.39166898987878
 31
0.0
  0
LINE
  5
41C
330
2
100
AcDbEntity
  8
GAIKEI
 62
     1
100
AcDbLine
 10
35.73285225019044
 20
14.89586304778777
 30
0.0
 11
35.48776581129323
 21
14.89586304778777
 31
0.0
  0
LINE
  5
41D
330
2
100
AcDbEntity
  8
GAIKEI
 62
     1
100
AcDbLine
 10
36.2290883410073
 20
14.39166898987878
 30
0.0
 11
36.2290883410073
 21
14.89586304778777
 31
0.0
  0
LINE
  5
41E
330
2
100
AcDbEntity
  8
GAIKEI
 62
     1
100
AcDbLine
 10
35.98409663981364
 20
14.39166898987878
 30
0.0
 11
36.2290883410073
 21
14.39166898987878
 31
0.0
  0
LINE
  5
41F
330
2
100
AcDbEntity
  8
GAIKEI
 62
     1
100
AcDbLine
 10
35.98409663981364
 20
14.89586304778777
 30
0.0
 11
35.98409663981364
 21
14.39166898987878
 31
0.0
  0
LINE
  5
420
330
2
100
AcDbEntity
  8
GAIKEI
 62
     1
100
AcDbLine
 10
36.2290883410073
 20
14.89586304778777
 30
0.0
 11
35.98409663981364
 21
14.89586304778777
 31
0.0
  0
LINE
  5
421
330
2
100
AcDbEntity
  8
GAIKEI
 62
     1
100
AcDbLine
 10
36.72504021871373
 20
14.39166898987878
 30
0.0
 11
36.72504021871373
 21
14.89586304778777
 31
0.0
  0
LINE
  5
422
330
2
100
AcDbEntity
  8
GAIKEI
 62
     1
100
AcDbLine
 10
36.48004851752006
 20
14.39166898987878
 30
0.0
 11
36.72504021871373
 21
14.39166898987878
 31
0.0
  0
LINE
  5
423
330
2
100
AcDbEntity
  8
GAIKEI
 62
     1
100
AcDbLine
 10
36.48004851752006
 20
14.89586304778777
 30
0.0
 11
36.48004851752006
 21
14.39166898987878
 31
0.0
  0
LINE
  5
424
330
2
100
AcDbEntity
  8
GAIKEI
 62
     1
100
AcDbLine
 10
36.72504021871373
 20
14.89586304778777
 30
0.0
 11
36.48004851752006
 21
14.89586304778777
 31
0.0
  0
LINE
  5
425
330
2
100
AcDbEntity
  8
GAIKEI
 62
     1
100
AcDbLine
 10
37.22118157182712
 20
14.39166898987878
 30
0.0
 11
37.22118157182712
 21
14.89586304778777
 31
0.0
  0
LINE
  5
426
330
2
100
AcDbEntity
  8
GAIKEI
 62
     1
100
AcDbLine
 10
36.97609513292997
 20
14.39166898987878
 30
0.0
 11
37.22118157182712
 21
14.39166898987878
 31
0.0
  0
LINE
  5
427
330
2
100
AcDbEntity
  8
GAIKEI
 62
     1
100
AcDbLine
 10
36.97609513292997
 20
14.89586304778777
 30
0.0
 11
36.97609513292997
 21
14.39166898987878
 31
0.0
  0
LINE
  5
428
330
2
100
AcDbEntity
  8
GAIKEI
 62
     1
100
AcDbLine
 10
37.22118157182712
 20
14.89586304778777
 30
0.0
 11
36.97609513292997
 21
14.89586304778777
 31
0.0
  0
LINE
  5
429
330
2
100
AcDbEntity
  8
GAIKEI
 62
     1
100
AcDbLine
 10
37.71751240034746
 20
14.39166898987878
 30
0.0
 11
37.71751240034746
 21
14.89586304778777
 31
0.0
  0
LINE
  5
42A
330
2
100
AcDbEntity
  8
GAIKEI
 62
     1
100
AcDbLine
 10
37.47242596145031
 20
14.39166898987878
 30
0.0
 11
37.71751240034746
 21
14.39166898987878
 31
0.0
  0
LINE
  5
42B
330
2
100
AcDbEntity
  8
GAIKEI
 62
     1
100
AcDbLine
 10
37.47242596145031
 20
14.89586304778777
 30
0.0
 11
37.47242596145031
 21
14.39166898987878
 31
0.0
  0
LINE
  5
42C
330
2
100
AcDbEntity
  8
GAIKEI
 62
     1
100
AcDbLine
 10
37.71751240034746
 20
14.89586304778777
 30
0.0
 11
37.47242596145031
 21
14.89586304778777
 31
0.0
  0
LINE
  5
42D
330
2
100
AcDbEntity
  8
GAIKEI
 62
     1
100
AcDbLine
 10
38.21355901575736
 20
14.39166898987878
 30
0.0
 11
38.21355901575736
 21
14.89586304778777
 31
0.0
  0
LINE
  5
42E
330
2
100
AcDbEntity
  8
GAIKEI
 62
     1
100
AcDbLine
 10
37.96856731456376
 20
14.39166898987878
 30
0.0
 11
38.21355901575736
 21
14.39166898987878
 31
0.0
  0
LINE
  5
42F
330
2
100
AcDbEntity
  8
GAIKEI
 62
     1
100
AcDbLine
 10
37.96856731456376
 20
14.89586304778777
 30
0.0
 11
37.96856731456376
 21
14.39166898987878
 31
0.0
  0
LINE
  5
430
330
2
100
AcDbEntity
  8
GAIKEI
 62
     1
100
AcDbLine
 10
38.21355901575736
 20
14.89586304778777
 30
0.0
 11
37.96856731456376
 21
14.89586304778777
 31
0.0
  0
LINE
  5
431
330
2
100
AcDbEntity
  8
GAIKEI
 62
     1
100
AcDbLine
 10
38.70970036887081
 20
14.39166898987878
 30
0.0
 11
38.70970036887081
 21
14.89586304778777
 31
0.0
  0
LINE
  5
432
330
2
100
AcDbEntity
  8
GAIKEI
 62
     1
100
AcDbLine
 10
38.4647086676771
 20
14.39166898987878
 30
0.0
 11
38.70970036887081
 21
14.39166898987878
 31
0.0
  0
LINE
  5
433
330
2
100
AcDbEntity
  8
GAIKEI
 62
     1
100
AcDbLine
 10
38.4647086676771
 20
14.89586304778777
 30
0.0
 11
38.4647086676771
 21
14.39166898987878
 31
0.0
  0
LINE
  5
434
330
2
100
AcDbEntity
  8
GAIKEI
 62
     1
100
AcDbLine
 10
38.70970036887081
 20
14.89586304778777
 30
0.0
 11
38.4647086676771
 21
14.89586304778777
 31
0.0
  0
LINE
  5
435
330
2
100
AcDbEntity
  8
GAIKEI
 62
     1
100
AcDbLine
 10
39.20584172198421
 20
14.39166898987878
 30
0.0
 11
39.20584172198421
 21
14.89586304778777
 31
0.0
  0
LINE
  5
436
330
2
100
AcDbEntity
  8
GAIKEI
 62
     1
100
AcDbLine
 10
38.96075528308705
 20
14.39166898987878
 30
0.0
 11
39.20584172198421
 21
14.39166898987878
 31
0.0
  0
LINE
  5
437
330
2
100
AcDbEntity
  8
GAIKEI
 62
     1
100
AcDbLine
 10
38.96075528308705
 20
14.89586304778777
 30
0.0
 11
38.96075528308705
 21
14.39166898987878
 31
0.0
  0
LINE
  5
438
330
2
100
AcDbEntity
  8
GAIKEI
 62
     1
100
AcDbLine
 10
39.20584172198421
 20
14.89586304778777
 30
0.0
 11
38.96075528308705
 21
14.89586304778777
 31
0.0
  0
LINE
  5
439
330
2
100
AcDbEntity
  8
GAIKEI
 62
     1
100
AcDbLine
 10
39.7019830750976
 20
14.39166898987878
 30
0.0
 11
39.7019830750976
 21
14.89586304778777
 31
0.0
  0
LINE
  5
43A
330
2
100
AcDbEntity
  8
GAIKEI
 62
     1
100
AcDbLine
 10
39.45689663620044
 20
14.39166898987878
 30
0.0
 11
39.7019830750976
 21
14.39166898987878
 31
0.0
  0
LINE
  5
43B
330
2
100
AcDbEntity
  8
GAIKEI
 62
     1
100
AcDbLine
 10
39.45689663620044
 20
14.89586304778777
 30
0.0
 11
39.45689663620044
 21
14.39166898987878
 31
0.0
  0
LINE
  5
43C
330
2
100
AcDbEntity
  8
GAIKEI
 62
     1
100
AcDbLine
 10
39.7019830750976
 20
14.89586304778777
 30
0.0
 11
39.45689663620044
 21
14.89586304778777
 31
0.0
  0
LINE
  5
43D
330
2
100
AcDbEntity
  8
GAIKEI
 62
     1
100
AcDbLine
 10
40.1980296905075
 20
14.39166898987878
 30
0.0
 11
40.1980296905075
 21
14.89586304778777
 31
0.0
  0
LINE
  5
43E
330
2
100
AcDbEntity
  8
GAIKEI
 62
     1
100
AcDbLine
 10
39.95303798931383
 20
14.39166898987878
 30
0.0
 11
40.1980296905075
 21
14.39166898987878
 31
0.0
  0
LINE
  5
43F
330
2
100
AcDbEntity
  8
GAIKEI
 62
     1
100
AcDbLine
 10
39.95303798931383
 20
14.89586304778777
 30
0.0
 11
39.95303798931383
 21
14.39166898987878
 31
0.0
  0
LINE
  5
440
330
2
100
AcDbEntity
  8
GAIKEI
 62
     1
100
AcDbLine
 10
40.1980296905075
 20
14.89586304778777
 30
0.0
 11
39.95303798931383
 21
14.89586304778777
 31
0.0
  0
LINE
  5
441
330
2
100
AcDbEntity
  8
GAIKEI
 62
     1
100
AcDbLine
 10
32.75609886921348
 20
15.34416186064482
 30
0.0
 11
32.75609886921348
 21
15.84816644314691
 31
0.0
  0
LINE
  5
442
330
2
100
AcDbEntity
  8
GAIKEI
 62
     1
100
AcDbLine
 10
32.51110716801985
 20
15.34416186064482
 30
0.0
 11
32.75609886921348
 21
15.34416186064482
 31
0.0
  0
LINE
  5
443
330
2
100
AcDbEntity
  8
GAIKEI
 62
     1
100
AcDbLine
 10
32.51110716801985
 20
15.84816644314691
 30
0.0
 11
32.51110716801985
 21
15.34416186064482
 31
0.0
  0
LINE
  5
444
330
2
100
AcDbEntity
  8
GAIKEI
 62
     1
100
AcDbLine
 10
32.75609886921348
 20
15.84816644314691
 30
0.0
 11
32.51110716801985
 21
15.84816644314691
 31
0.0
  0
LINE
  5
445
330
2
100
AcDbEntity
  8
GAIKEI
 62
     1
100
AcDbLine
 10
33.25224022232686
 20
15.34416186064482
 30
0.0
 11
33.25224022232686
 21
15.84816644314691
 31
0.0
  0
LINE
  5
446
330
2
100
AcDbEntity
  8
GAIKEI
 62
     1
100
AcDbLine
 10
33.00715378342977
 20
15.34416186064482
 30
0.0
 11
33.25224022232686
 21
15.34416186064482
 31
0.0
  0
LINE
  5
447
330
2
100
AcDbEntity
  8
GAIKEI
 62
     1
100
AcDbLine
 10
33.00715378342977
 20
15.84816644314691
 30
0.0
 11
33.00715378342977
 21
15.34416186064482
 31
0.0
  0
LINE
  5
448
330
2
100
AcDbEntity
  8
GAIKEI
 62
     1
100
AcDbLine
 10
33.25224022232686
 20
15.84816644314691
 30
0.0
 11
33.00715378342977
 21
15.84816644314691
 31
0.0
  0
LINE
  5
449
330
2
100
AcDbEntity
  8
GAIKEI
 62
     1
100
AcDbLine
 10
33.74838157544031
 20
15.34416186064482
 30
0.0
 11
33.74838157544031
 21
15.84816644314691
 31
0.0
  0
LINE
  5
44A
330
2
100
AcDbEntity
  8
GAIKEI
 62
     1
100
AcDbLine
 10
33.50329513654316
 20
15.34416186064482
 30
0.0
 11
33.74838157544031
 21
15.34416186064482
 31
0.0
  0
LINE
  5
44B
330
2
100
AcDbEntity
  8
GAIKEI
 62
     1
100
AcDbLine
 10
33.50329513654316
 20
15.84816644314691
 30
0.0
 11
33.50329513654316
 21
15.34416186064482
 31
0.0
  0
LINE
  5
44C
330
2
100
AcDbEntity
  8
GAIKEI
 62
     1
100
AcDbLine
 10
33.74838157544031
 20
15.84816644314691
 30
0.0
 11
33.50329513654316
 21
15.84816644314691
 31
0.0
  0
LINE
  5
44D
330
2
100
AcDbEntity
  8
GAIKEI
 62
     1
100
AcDbLine
 10
34.24442819085022
 20
15.34416186064482
 30
0.0
 11
34.24442819085022
 21
15.84816644314691
 31
0.0
  0
LINE
  5
44E
330
2
100
AcDbEntity
  8
GAIKEI
 62
     1
100
AcDbLine
 10
33.99943648965655
 20
15.34416186064482
 30
0.0
 11
34.24442819085022
 21
15.34416186064482
 31
0.0
  0
LINE
  5
44F
330
2
100
AcDbEntity
  8
GAIKEI
 62
     1
100
AcDbLine
 10
33.99943648965655
 20
15.84816644314691
 30
0.0
 11
33.99943648965655
 21
15.34416186064482
 31
0.0
  0
LINE
  5
450
330
2
100
AcDbEntity
  8
GAIKEI
 62
     1
100
AcDbLine
 10
34.24442819085022
 20
15.84816644314691
 30
0.0
 11
33.99943648965655
 21
15.84816644314691
 31
0.0
  0
LINE
  5
451
330
2
100
AcDbEntity
  8
GAIKEI
 62
     1
100
AcDbLine
 10
34.7405695439636
 20
15.34416186064482
 30
0.0
 11
34.7405695439636
 21
15.84816644314691
 31
0.0
  0
LINE
  5
452
330
2
100
AcDbEntity
  8
GAIKEI
 62
     1
100
AcDbLine
 10
34.49557784276999
 20
15.34416186064482
 30
0.0
 11
34.7405695439636
 21
15.34416186064482
 31
0.0
  0
LINE
  5
453
330
2
100
AcDbEntity
  8
GAIKEI
 62
     1
100
AcDbLine
 10
34.49557784276999
 20
15.84816644314691
 30
0.0
 11
34.49557784276999
 21
15.34416186064482
 31
0.0
  0
LINE
  5
454
330
2
100
AcDbEntity
  8
GAIKEI
 62
     1
100
AcDbLine
 10
34.7405695439636
 20
15.84816644314691
 30
0.0
 11
34.49557784276999
 21
15.84816644314691
 31
0.0
  0
LINE
  5
455
330
2
100
AcDbEntity
  8
GAIKEI
 62
     1
100
AcDbLine
 10
35.236710897077
 20
15.34416186064482
 30
0.0
 11
35.236710897077
 21
15.84816644314691
 31
0.0
  0
LINE
  5
456
330
2
100
AcDbEntity
  8
GAIKEI
 62
     1
100
AcDbLine
 10
34.9916244581799
 20
15.34416186064482
 30
0.0
 11
35.236710897077
 21
15.34416186064482
 31
0.0
  0
LINE
  5
457
330
2
100
AcDbEntity
  8
GAIKEI
 62
     1
100
AcDbLine
 10
34.9916244581799
 20
15.84816644314691
 30
0.0
 11
34.9916244581799
 21
15.34416186064482
 31
0.0
  0
LINE
  5
458
330
2
100
AcDbEntity
  8
GAIKEI
 62
     1
100
AcDbLine
 10
35.236710897077
 20
15.84816644314691
 30
0.0
 11
34.9916244581799
 21
15.84816644314691
 31
0.0
  0
LINE
  5
459
330
2
100
AcDbEntity
  8
GAIKEI
 62
     1
100
AcDbLine
 10
35.73285225019044
 20
15.34416186064482
 30
0.0
 11
35.73285225019044
 21
15.84816644314691
 31
0.0
  0
LINE
  5
45A
330
2
100
AcDbEntity
  8
GAIKEI
 62
     1
100
AcDbLine
 10
35.48776581129323
 20
15.34416186064482
 30
0.0
 11
35.73285225019044
 21
15.34416186064482
 31
0.0
  0
LINE
  5
45B
330
2
100
AcDbEntity
  8
GAIKEI
 62
     1
100
AcDbLine
 10
35.48776581129323
 20
15.84816644314691
 30
0.0
 11
35.48776581129323
 21
15.34416186064482
 31
0.0
  0
LINE
  5
45C
330
2
100
AcDbEntity
  8
GAIKEI
 62
     1
100
AcDbLine
 10
35.73285225019044
 20
15.84816644314691
 30
0.0
 11
35.48776581129323
 21
15.84816644314691
 31
0.0
  0
LINE
  5
45D
330
2
100
AcDbEntity
  8
GAIKEI
 62
     1
100
AcDbLine
 10
36.2290883410073
 20
15.34416186064482
 30
0.0
 11
36.2290883410073
 21
15.84816644314691
 31
0.0
  0
LINE
  5
45E
330
2
100
AcDbEntity
  8
GAIKEI
 62
     1
100
AcDbLine
 10
35.98409663981364
 20
15.34416186064482
 30
0.0
 11
36.2290883410073
 21
15.34416186064482
 31
0.0
  0
LINE
  5
45F
330
2
100
AcDbEntity
  8
GAIKEI
 62
     1
100
AcDbLine
 10
35.98409663981364
 20
15.84816644314691
 30
0.0
 11
35.98409663981364
 21
15.34416186064482
 31
0.0
  0
LINE
  5
460
330
2
100
AcDbEntity
  8
GAIKEI
 62
     1
100
AcDbLine
 10
36.2290883410073
 20
15.84816644314691
 30
0.0
 11
35.98409663981364
 21
15.84816644314691
 31
0.0
  0
LINE
  5
461
330
2
100
AcDbEntity
  8
GAIKEI
 62
     1
100
AcDbLine
 10
36.72504021871373
 20
15.34416186064482
 30
0.0
 11
36.72504021871373
 21
15.84816644314691
 31
0.0
  0
LINE
  5
462
330
2
100
AcDbEntity
  8
GAIKEI
 62
     1
100
AcDbLine
 10
36.48004851752006
 20
15.34416186064482
 30
0.0
 11
36.72504021871373
 21
15.34416186064482
 31
0.0
  0
LINE
  5
463
330
2
100
AcDbEntity
  8
GAIKEI
 62
     1
100
AcDbLine
 10
36.48004851752006
 20
15.84816644314691
 30
0.0
 11
36.48004851752006
 21
15.34416186064482
 31
0.0
  0
LINE
  5
464
330
2
100
AcDbEntity
  8
GAIKEI
 62
     1
100
AcDbLine
 10
36.72504021871373
 20
15.84816644314691
 30
0.0
 11
36.48004851752006
 21
15.84816644314691
 31
0.0
  0
LINE
  5
465
330
2
100
AcDbEntity
  8
GAIKEI
 62
     1
100
AcDbLine
 10
37.22118157182712
 20
15.34416186064482
 30
0.0
 11
37.22118157182712
 21
15.84816644314691
 31
0.0
  0
LINE
  5
466
330
2
100
AcDbEntity
  8
GAIKEI
 62
     1
100
AcDbLine
 10
36.97609513292997
 20
15.34416186064482
 30
0.0
 11
37.22118157182712
 21
15.34416186064482
 31
0.0
  0
LINE
  5
467
330
2
100
AcDbEntity
  8
GAIKEI
 62
     1
100
AcDbLine
 10
36.97609513292997
 20
15.84816644314691
 30
0.0
 11
36.97609513292997
 21
15.34416186064482
 31
0.0
  0
LINE
  5
468
330
2
100
AcDbEntity
  8
GAIKEI
 62
     1
100
AcDbLine
 10
37.22118157182712
 20
15.84816644314691
 30
0.0
 11
36.97609513292997
 21
15.84816644314691
 31
0.0
  0
LINE
  5
469
330
2
100
AcDbEntity
  8
GAIKEI
 62
     1
100
AcDbLine
 10
37.71751240034746
 20
15.34416186064482
 30
0.0
 11
37.71751240034746
 21
15.84816644314691
 31
0.0
  0
LINE
  5
46A
330
2
100
AcDbEntity
  8
GAIKEI
 62
     1
100
AcDbLine
 10
37.47242596145031
 20
15.34416186064482
 30
0.0
 11
37.71751240034746
 21
15.34416186064482
 31
0.0
  0
LINE
  5
46B
330
2
100
AcDbEntity
  8
GAIKEI
 62
     1
100
AcDbLine
 10
37.47242596145031
 20
15.84816644314691
 30
0.0
 11
37.47242596145031
 21
15.34416186064482
 31
0.0
  0
LINE
  5
46C
330
2
100
AcDbEntity
  8
GAIKEI
 62
     1
100
AcDbLine
 10
37.71751240034746
 20
15.84816644314691
 30
0.0
 11
37.47242596145031
 21
15.84816644314691
 31
0.0
  0
LINE
  5
46D
330
2
100
AcDbEntity
  8
GAIKEI
 62
     1
100
AcDbLine
 10
38.21355901575736
 20
15.34416186064482
 30
0.0
 11
38.21355901575736
 21
15.84816644314691
 31
0.0
  0
LINE
  5
46E
330
2
100
AcDbEntity
  8
GAIKEI
 62
     1
100
AcDbLine
 10
37.96856731456376
 20
15.34416186064482
 30
0.0
 11
38.21355901575736
 21
15.34416186064482
 31
0.0
  0
LINE
  5
46F
330
2
100
AcDbEntity
  8
GAIKEI
 62
     1
100
AcDbLine
 10
37.96856731456376
 20
15.84816644314691
 30
0.0
 11
37.96856731456376
 21
15.34416186064482
 31
0.0
  0
LINE
  5
470
330
2
100
AcDbEntity
  8
GAIKEI
 62
     1
100
AcDbLine
 10
38.21355901575736
 20
15.84816644314691
 30
0.0
 11
37.96856731456376
 21
15.84816644314691
 31
0.0
  0
LINE
  5
471
330
2
100
AcDbEntity
  8
GAIKEI
 62
     1
100
AcDbLine
 10
38.70970036887081
 20
15.34416186064482
 30
0.0
 11
38.70970036887081
 21
15.84816644314691
 31
0.0
  0
LINE
  5
472
330
2
100
AcDbEntity
  8
GAIKEI
 62
     1
100
AcDbLine
 10
38.4647086676771
 20
15.34416186064482
 30
0.0
 11
38.70970036887081
 21
15.34416186064482
 31
0.0
  0
LINE
  5
473
330
2
100
AcDbEntity
  8
GAIKEI
 62
     1
100
AcDbLine
 10
38.4647086676771
 20
15.84816644314691
 30
0.0
 11
38.4647086676771
 21
15.34416186064482
 31
0.0
  0
LINE
  5
474
330
2
100
AcDbEntity
  8
GAIKEI
 62
     1
100
AcDbLine
 10
38.70970036887081
 20
15.84816644314691
 30
0.0
 11
38.4647086676771
 21
15.84816644314691
 31
0.0
  0
LINE
  5
475
330
2
100
AcDbEntity
  8
GAIKEI
 62
     1
100
AcDbLine
 10
39.20584172198421
 20
15.34416186064482
 30
0.0
 11
39.20584172198421
 21
15.84816644314691
 31
0.0
  0
LINE
  5
476
330
2
100
AcDbEntity
  8
GAIKEI
 62
     1
100
AcDbLine
 10
38.96075528308705
 20
15.34416186064482
 30
0.0
 11
39.20584172198421
 21
15.34416186064482
 31
0.0
  0
LINE
  5
477
330
2
100
AcDbEntity
  8
GAIKEI
 62
     1
100
AcDbLine
 10
38.96075528308705
 20
15.84816644314691
 30
0.0
 11
38.96075528308705
 21
15.34416186064482
 31
0.0
  0
LINE
  5
478
330
2
100
AcDbEntity
  8
GAIKEI
 62
     1
100
AcDbLine
 10
39.20584172198421
 20
15.84816644314691
 30
0.0
 11
38.96075528308705
 21
15.84816644314691
 31
0.0
  0
LINE
  5
479
330
2
100
AcDbEntity
  8
GAIKEI
 62
     1
100
AcDbLine
 10
39.7019830750976
 20
15.34416186064482
 30
0.0
 11
39.7019830750976
 21
15.84816644314691
 31
0.0
  0
LINE
  5
47A
330
2
100
AcDbEntity
  8
GAIKEI
 62
     1
100
AcDbLine
 10
39.45689663620044
 20
15.34416186064482
 30
0.0
 11
39.7019830750976
 21
15.34416186064482
 31
0.0
  0
LINE
  5
47B
330
2
100
AcDbEntity
  8
GAIKEI
 62
     1
100
AcDbLine
 10
39.45689663620044
 20
15.84816644314691
 30
0.0
 11
39.45689663620044
 21
15.34416186064482
 31
0.0
  0
LINE
  5
47C
330
2
100
AcDbEntity
  8
GAIKEI
 62
     1
100
AcDbLine
 10
39.7019830750976
 20
15.84816644314691
 30
0.0
 11
39.45689663620044
 21
15.84816644314691
 31
0.0
  0
LINE
  5
47D
330
2
100
AcDbEntity
  8
GAIKEI
 62
     1
100
AcDbLine
 10
40.1980296905075
 20
15.34416186064482
 30
0.0
 11
40.1980296905075
 21
15.84816644314691
 31
0.0
  0
LINE
  5
47E
330
2
100
AcDbEntity
  8
GAIKEI
 62
     1
100
AcDbLine
 10
39.95303798931383
 20
15.34416186064482
 30
0.0
 11
40.1980296905075
 21
15.34416186064482
 31
0.0
  0
LINE
  5
47F
330
2
100
AcDbEntity
  8
GAIKEI
 62
     1
100
AcDbLine
 10
39.95303798931383
 20
15.84816644314691
 30
0.0
 11
39.95303798931383
 21
15.34416186064482
 31
0.0
  0
LINE
  5
480
330
2
100
AcDbEntity
  8
GAIKEI
 62
     1
100
AcDbLine
 10
40.1980296905075
 20
15.84816644314691
 30
0.0
 11
39.95303798931383
 21
15.84816644314691
 31
0.0
  0
LINE
  5
481
330
2
100
AcDbEntity
  8
GAIKEI
 62
     1
100
AcDbLine
 10
32.75609886921348
 20
16.09978978358401
 30
0.0
 11
32.75609886921348
 21
16.60379436608605
 31
0.0
  0
LINE
  5
482
330
2
100
AcDbEntity
  8
GAIKEI
 62
     1
100
AcDbLine
 10
32.51110716801985
 20
16.09978978358401
 30
0.0
 11
32.75609886921348
 21
16.09978978358401
 31
0.0
  0
LINE
  5
483
330
2
100
AcDbEntity
  8
GAIKEI
 62
     1
100
AcDbLine
 10
32.51110716801985
 20
16.60379436608605
 30
0.0
 11
32.51110716801985
 21
16.09978978358401
 31
0.0
  0
LINE
  5
484
330
2
100
AcDbEntity
  8
GAIKEI
 62
     1
100
AcDbLine
 10
32.75609886921348
 20
16.60379436608605
 30
0.0
 11
32.51110716801985
 21
16.60379436608605
 31
0.0
  0
LINE
  5
485
330
2
100
AcDbEntity
  8
GAIKEI
 62
     1
100
AcDbLine
 10
33.25224022232686
 20
16.09978978358401
 30
0.0
 11
33.25224022232686
 21
16.60379436608605
 31
0.0
  0
LINE
  5
486
330
2
100
AcDbEntity
  8
GAIKEI
 62
     1
100
AcDbLine
 10
33.00715378342977
 20
16.09978978358401
 30
0.0
 11
33.25224022232686
 21
16.09978978358401
 31
0.0
  0
LINE
  5
487
330
2
100
AcDbEntity
  8
GAIKEI
 62
     1
100
AcDbLine
 10
33.00715378342977
 20
16.60379436608605
 30
0.0
 11
33.00715378342977
 21
16.09978978358401
 31
0.0
  0
LINE
  5
488
330
2
100
AcDbEntity
  8
GAIKEI
 62
     1
100
AcDbLine
 10
33.25224022232686
 20
16.60379436608605
 30
0.0
 11
33.00715378342977
 21
16.60379436608605
 31
0.0
  0
LINE
  5
489
330
2
100
AcDbEntity
  8
GAIKEI
 62
     1
100
AcDbLine
 10
33.74838157544031
 20
16.09978978358401
 30
0.0
 11
33.74838157544031
 21
16.60379436608605
 31
0.0
  0
LINE
  5
48A
330
2
100
AcDbEntity
  8
GAIKEI
 62
     1
100
AcDbLine
 10
33.50329513654316
 20
16.09978978358401
 30
0.0
 11
33.74838157544031
 21
16.09978978358401
 31
0.0
  0
LINE
  5
48B
330
2
100
AcDbEntity
  8
GAIKEI
 62
     1
100
AcDbLine
 10
33.50329513654316
 20
16.60379436608605
 30
0.0
 11
33.50329513654316
 21
16.09978978358401
 31
0.0
  0
LINE
  5
48C
330
2
100
AcDbEntity
  8
GAIKEI
 62
     1
100
AcDbLine
 10
33.74838157544031
 20
16.60379436608605
 30
0.0
 11
33.50329513654316
 21
16.60379436608605
 31
0.0
  0
LINE
  5
48D
330
2
100
AcDbEntity
  8
GAIKEI
 62
     1
100
AcDbLine
 10
34.24442819085022
 20
16.09978978358401
 30
0.0
 11
34.24442819085022
 21
16.60379436608605
 31
0.0
  0
LINE
  5
48E
330
2
100
AcDbEntity
  8
GAIKEI
 62
     1
100
AcDbLine
 10
33.99943648965655
 20
16.09978978358401
 30
0.0
 11
34.24442819085022
 21
16.09978978358401
 31
0.0
  0
LINE
  5
48F
330
2
100
AcDbEntity
  8
GAIKEI
 62
     1
100
AcDbLine
 10
33.99943648965655
 20
16.60379436608605
 30
0.0
 11
33.99943648965655
 21
16.09978978358401
 31
0.0
  0
LINE
  5
490
330
2
100
AcDbEntity
  8
GAIKEI
 62
     1
100
AcDbLine
 10
34.24442819085022
 20
16.60379436608605
 30
0.0
 11
33.99943648965655
 21
16.60379436608605
 31
0.0
  0
LINE
  5
491
330
2
100
AcDbEntity
  8
GAIKEI
 62
     1
100
AcDbLine
 10
34.7405695439636
 20
16.09978978358401
 30
0.0
 11
34.7405695439636
 21
16.60379436608605
 31
0.0
  0
LINE
  5
492
330
2
100
AcDbEntity
  8
GAIKEI
 62
     1
100
AcDbLine
 10
34.49557784276999
 20
16.09978978358401
 30
0.0
 11
34.7405695439636
 21
16.09978978358401
 31
0.0
  0
LINE
  5
493
330
2
100
AcDbEntity
  8
GAIKEI
 62
     1
100
AcDbLine
 10
34.49557784276999
 20
16.60379436608605
 30
0.0
 11
34.49557784276999
 21
16.09978978358401
 31
0.0
  0
LINE
  5
494
330
2
100
AcDbEntity
  8
GAIKEI
 62
     1
100
AcDbLine
 10
34.7405695439636
 20
16.60379436608605
 30
0.0
 11
34.49557784276999
 21
16.60379436608605
 31
0.0
  0
LINE
  5
495
330
2
100
AcDbEntity
  8
GAIKEI
 62
     1
100
AcDbLine
 10
35.236710897077
 20
16.09978978358401
 30
0.0
 11
35.236710897077
 21
16.60379436608605
 31
0.0
  0
LINE
  5
496
330
2
100
AcDbEntity
  8
GAIKEI
 62
     1
100
AcDbLine
 10
34.9916244581799
 20
16.09978978358401
 30
0.0
 11
35.236710897077
 21
16.09978978358401
 31
0.0
  0
LINE
  5
497
330
2
100
AcDbEntity
  8
GAIKEI
 62
     1
100
AcDbLine
 10
34.9916244581799
 20
16.60379436608605
 30
0.0
 11
34.9916244581799
 21
16.09978978358401
 31
0.0
  0
LINE
  5
498
330
2
100
AcDbEntity
  8
GAIKEI
 62
     1
100
AcDbLine
 10
35.236710897077
 20
16.60379436608605
 30
0.0
 11
34.9916244581799
 21
16.60379436608605
 31
0.0
  0
LINE
  5
499
330
2
100
AcDbEntity
  8
GAIKEI
 62
     1
100
AcDbLine
 10
35.73285225019044
 20
16.09978978358401
 30
0.0
 11
35.73285225019044
 21
16.60379436608605
 31
0.0
  0
LINE
  5
49A
330
2
100
AcDbEntity
  8
GAIKEI
 62
     1
100
AcDbLine
 10
35.48776581129323
 20
16.09978978358401
 30
0.0
 11
35.73285225019044
 21
16.09978978358401
 31
0.0
  0
LINE
  5
49B
330
2
100
AcDbEntity
  8
GAIKEI
 62
     1
100
AcDbLine
 10
35.48776581129323
 20
16.60379436608605
 30
0.0
 11
35.48776581129323
 21
16.09978978358401
 31
0.0
  0
LINE
  5
49C
330
2
100
AcDbEntity
  8
GAIKEI
 62
     1
100
AcDbLine
 10
35.73285225019044
 20
16.60379436608605
 30
0.0
 11
35.48776581129323
 21
16.60379436608605
 31
0.0
  0
LINE
  5
49D
330
2
100
AcDbEntity
  8
GAIKEI
 62
     1
100
AcDbLine
 10
36.2290883410073
 20
16.09978978358401
 30
0.0
 11
36.2290883410073
 21
16.60379436608605
 31
0.0
  0
LINE
  5
49E
330
2
100
AcDbEntity
  8
GAIKEI
 62
     1
100
AcDbLine
 10
35.98409663981364
 20
16.09978978358401
 30
0.0
 11
36.2290883410073
 21
16.09978978358401
 31
0.0
  0
LINE
  5
49F
330
2
100
AcDbEntity
  8
GAIKEI
 62
     1
100
AcDbLine
 10
35.98409663981364
 20
16.60379436608605
 30
0.0
 11
35.98409663981364
 21
16.09978978358401
 31
0.0
  0
LINE
  5
4A0
330
2
100
AcDbEntity
  8
GAIKEI
 62
     1
100
AcDbLine
 10
36.2290883410073
 20
16.60379436608605
 30
0.0
 11
35.98409663981364
 21
16.60379436608605
 31
0.0
  0
LINE
  5
4A1
330
2
100
AcDbEntity
  8
GAIKEI
 62
     1
100
AcDbLine
 10
36.72504021871373
 20
16.09978978358401
 30
0.0
 11
36.72504021871373
 21
16.60379436608605
 31
0.0
  0
LINE
  5
4A2
330
2
100
AcDbEntity
  8
GAIKEI
 62
     1
100
AcDbLine
 10
36.48004851752006
 20
16.09978978358401
 30
0.0
 11
36.72504021871373
 21
16.09978978358401
 31
0.0
  0
LINE
  5
4A3
330
2
100
AcDbEntity
  8
GAIKEI
 62
     1
100
AcDbLine
 10
36.48004851752006
 20
16.60379436608605
 30
0.0
 11
36.48004851752006
 21
16.09978978358401
 31
0.0
  0
LINE
  5
4A4
330
2
100
AcDbEntity
  8
GAIKEI
 62
     1
100
AcDbLine
 10
36.72504021871373
 20
16.60379436608605
 30
0.0
 11
36.48004851752006
 21
16.60379436608605
 31
0.0
  0
LINE
  5
4A5
330
2
100
AcDbEntity
  8
GAIKEI
 62
     1
100
AcDbLine
 10
37.22118157182712
 20
16.09978978358401
 30
0.0
 11
37.22118157182712
 21
16.60379436608605
 31
0.0
  0
LINE
  5
4A6
330
2
100
AcDbEntity
  8
GAIKEI
 62
     1
100
AcDbLine
 10
36.97609513292997
 20
16.09978978358401
 30
0.0
 11
37.22118157182712
 21
16.09978978358401
 31
0.0
  0
LINE
  5
4A7
330
2
100
AcDbEntity
  8
GAIKEI
 62
     1
100
AcDbLine
 10
36.97609513292997
 20
16.60379436608605
 30
0.0
 11
36.97609513292997
 21
16.09978978358401
 31
0.0
  0
LINE
  5
4A8
330
2
100
AcDbEntity
  8
GAIKEI
 62
     1
100
AcDbLine
 10
37.22118157182712
 20
16.60379436608605
 30
0.0
 11
36.97609513292997
 21
16.60379436608605
 31
0.0
  0
LINE
  5
4A9
330
2
100
AcDbEntity
  8
GAIKEI
 62
     1
100
AcDbLine
 10
37.71751240034746
 20
16.09978978358401
 30
0.0
 11
37.71751240034746
 21
16.60379436608605
 31
0.0
  0
LINE
  5
4AA
330
2
100
AcDbEntity
  8
GAIKEI
 62
     1
100
AcDbLine
 10
37.47242596145031
 20
16.09978978358401
 30
0.0
 11
37.71751240034746
 21
16.09978978358401
 31
0.0
  0
LINE
  5
4AB
330
2
100
AcDbEntity
  8
GAIKEI
 62
     1
100
AcDbLine
 10
37.47242596145031
 20
16.60379436608605
 30
0.0
 11
37.47242596145031
 21
16.09978978358401
 31
0.0
  0
LINE
  5
4AC
330
2
100
AcDbEntity
  8
GAIKEI
 62
     1
100
AcDbLine
 10
37.71751240034746
 20
16.60379436608605
 30
0.0
 11
37.47242596145031
 21
16.60379436608605
 31
0.0
  0
LINE
  5
4AD
330
2
100
AcDbEntity
  8
GAIKEI
 62
     1
100
AcDbLine
 10
38.21355901575736
 20
16.09978978358401
 30
0.0
 11
38.21355901575736
 21
16.60379436608605
 31
0.0
  0
LINE
  5
4AE
330
2
100
AcDbEntity
  8
GAIKEI
 62
     1
100
AcDbLine
 10
37.96856731456376
 20
16.09978978358401
 30
0.0
 11
38.21355901575736
 21
16.09978978358401
 31
0.0
  0
LINE
  5
4AF
330
2
100
AcDbEntity
  8
GAIKEI
 62
     1
100
AcDbLine
 10
37.96856731456376
 20
16.60379436608605
 30
0.0
 11
37.96856731456376
 21
16.09978978358401
 31
0.0
  0
LINE
  5
4B0
330
2
100
AcDbEntity
  8
GAIKEI
 62
     1
100
AcDbLine
 10
38.21355901575736
 20
16.60379436608605
 30
0.0
 11
37.96856731456376
 21
16.60379436608605
 31
0.0
  0
LINE
  5
4B1
330
2
100
AcDbEntity
  8
GAIKEI
 62
     1
100
AcDbLine
 10
38.70970036887081
 20
16.09978978358401
 30
0.0
 11
38.70970036887081
 21
16.60379436608605
 31
0.0
  0
LINE
  5
4B2
330
2
100
AcDbEntity
  8
GAIKEI
 62
     1
100
AcDbLine
 10
38.4647086676771
 20
16.09978978358401
 30
0.0
 11
38.70970036887081
 21
16.09978978358401
 31
0.0
  0
LINE
  5
4B3
330
2
100
AcDbEntity
  8
GAIKEI
 62
     1
100
AcDbLine
 10
38.4647086676771
 20
16.60379436608605
 30
0.0
 11
38.4647086676771
 21
16.09978978358401
 31
0.0
  0
LINE
  5
4B4
330
2
100
AcDbEntity
  8
GAIKEI
 62
     1
100
AcDbLine
 10
38.70970036887081
 20
16.60379436608605
 30
0.0
 11
38.4647086676771
 21
16.60379436608605
 31
0.0
  0
LINE
  5
4B5
330
2
100
AcDbEntity
  8
GAIKEI
 62
     1
100
AcDbLine
 10
39.20584172198421
 20
16.09978978358401
 30
0.0
 11
39.20584172198421
 21
16.60379436608605
 31
0.0
  0
LINE
  5
4B6
330
2
100
AcDbEntity
  8
GAIKEI
 62
     1
100
AcDbLine
 10
38.96075528308705
 20
16.09978978358401
 30
0.0
 11
39.20584172198421
 21
16.09978978358401
 31
0.0
  0
LINE
  5
4B7
330
2
100
AcDbEntity
  8
GAIKEI
 62
     1
100
AcDbLine
 10
38.96075528308705
 20
16.60379436608605
 30
0.0
 11
38.96075528308705
 21
16.09978978358401
 31
0.0
  0
LINE
  5
4B8
330
2
100
AcDbEntity
  8
GAIKEI
 62
     1
100
AcDbLine
 10
39.20584172198421
 20
16.60379436608605
 30
0.0
 11
38.96075528308705
 21
16.60379436608605
 31
0.0
  0
LINE
  5
4B9
330
2
100
AcDbEntity
  8
GAIKEI
 62
     1
100
AcDbLine
 10
39.7019830750976
 20
16.09978978358401
 30
0.0
 11
39.7019830750976
 21
16.60379436608605
 31
0.0
  0
LINE
  5
4BA
330
2
100
AcDbEntity
  8
GAIKEI
 62
     1
100
AcDbLine
 10
39.45689663620044
 20
16.09978978358401
 30
0.0
 11
39.7019830750976
 21
16.09978978358401
 31
0.0
  0
LINE
  5
4BB
330
2
100
AcDbEntity
  8
GAIKEI
 62
     1
100
AcDbLine
 10
39.45689663620044
 20
16.60379436608605
 30
0.0
 11
39.45689663620044
 21
16.09978978358401
 31
0.0
  0
LINE
  5
4BC
330
2
100
AcDbEntity
  8
GAIKEI
 62
     1
100
AcDbLine
 10
39.7019830750976
 20
16.60379436608605
 30
0.0
 11
39.45689663620044
 21
16.60379436608605
 31
0.0
  0
LINE
  5
4BD
330
2
100
AcDbEntity
  8
GAIKEI
 62
     1
100
AcDbLine
 10
40.1980296905075
 20
16.09978978358401
 30
0.0
 11
40.1980296905075
 21
16.60379436608605
 31
0.0
  0
LINE
  5
4BE
330
2
100
AcDbEntity
  8
GAIKEI
 62
     1
100
AcDbLine
 10
39.95303798931383
 20
16.09978978358401
 30
0.0
 11
40.1980296905075
 21
16.09978978358401
 31
0.0
  0
LINE
  5
4BF
330
2
100
AcDbEntity
  8
GAIKEI
 62
     1
100
AcDbLine
 10
39.95303798931383
 20
16.60379436608605
 30
0.0
 11
39.95303798931383
 21
16.09978978358401
 31
0.0
  0
LINE
  5
4C0
330
2
100
AcDbEntity
  8
GAIKEI
 62
     1
100
AcDbLine
 10
40.1980296905075
 20
16.60379436608605
 30
0.0
 11
39.95303798931383
 21
16.60379436608605
 31
0.0
  0
LINE
  5
4C1
330
2
100
AcDbEntity
  8
GAIKEI
 62
     1
100
AcDbLine
 10
32.75609886921348
 20
16.85522823111625
 30
0.0
 11
32.75609886921348
 21
17.35923281361829
 31
0.0
  0
LINE
  5
4C2
330
2
100
AcDbEntity
  8
GAIKEI
 62
     1
100
AcDbLine
 10
32.51110716801985
 20
16.85522823111625
 30
0.0
 11
32.75609886921348
 21
16.85522823111625
 31
0.0
  0
LINE
  5
4C3
330
2
100
AcDbEntity
  8
GAIKEI
 62
     1
100
AcDbLine
 10
32.51110716801985
 20
17.35923281361829
 30
0.0
 11
32.51110716801985
 21
16.85522823111625
 31
0.0
  0
LINE
  5
4C4
330
2
100
AcDbEntity
  8
GAIKEI
 62
     1
100
AcDbLine
 10
32.75609886921348
 20
17.35923281361829
 30
0.0
 11
32.51110716801985
 21
17.35923281361829
 31
0.0
  0
LINE
  5
4C5
330
2
100
AcDbEntity
  8
GAIKEI
 62
     1
100
AcDbLine
 10
33.25224022232686
 20
16.85522823111625
 30
0.0
 11
33.25224022232686
 21
17.35923281361829
 31
0.0
  0
LINE
  5
4C6
330
2
100
AcDbEntity
  8
GAIKEI
 62
     1
100
AcDbLine
 10
33.00715378342977
 20
16.85522823111625
 30
0.0
 11
33.25224022232686
 21
16.85522823111625
 31
0.0
  0
LINE
  5
4C7
330
2
100
AcDbEntity
  8
GAIKEI
 62
     1
100
AcDbLine
 10
33.00715378342977
 20
17.35923281361829
 30
0.0
 11
33.00715378342977
 21
16.85522823111625
 31
0.0
  0
LINE
  5
4C8
330
2
100
AcDbEntity
  8
GAIKEI
 62
     1
100
AcDbLine
 10
33.25224022232686
 20
17.35923281361829
 30
0.0
 11
33.00715378342977
 21
17.35923281361829
 31
0.0
  0
LINE
  5
4C9
330
2
100
AcDbEntity
  8
GAIKEI
 62
     1
100
AcDbLine
 10
33.74838157544031
 20
16.85522823111625
 30
0.0
 11
33.74838157544031
 21
17.35923281361829
 31
0.0
  0
LINE
  5
4CA
330
2
100
AcDbEntity
  8
GAIKEI
 62
     1
100
AcDbLine
 10
33.50329513654316
 20
16.85522823111625
 30
0.0
 11
33.74838157544031
 21
16.85522823111625
 31
0.0
  0
LINE
  5
4CB
330
2
100
AcDbEntity
  8
GAIKEI
 62
     1
100
AcDbLine
 10
33.50329513654316
 20
17.35923281361829
 30
0.0
 11
33.50329513654316
 21
16.85522823111625
 31
0.0
  0
LINE
  5
4CC
330
2
100
AcDbEntity
  8
GAIKEI
 62
     1
100
AcDbLine
 10
33.74838157544031
 20
17.35923281361829
 30
0.0
 11
33.50329513654316
 21
17.35923281361829
 31
0.0
  0
LINE
  5
4CD
330
2
100
AcDbEntity
  8
GAIKEI
 62
     1
100
AcDbLine
 10
34.24442819085022
 20
16.85522823111625
 30
0.0
 11
34.24442819085022
 21
17.35923281361829
 31
0.0
  0
LINE
  5
4CE
330
2
100
AcDbEntity
  8
GAIKEI
 62
     1
100
AcDbLine
 10
33.99943648965655
 20
16.85522823111625
 30
0.0
 11
34.24442819085022
 21
16.85522823111625
 31
0.0
  0
LINE
  5
4CF
330
2
100
AcDbEntity
  8
GAIKEI
 62
     1
100
AcDbLine
 10
33.99943648965655
 20
17.35923281361829
 30
0.0
 11
33.99943648965655
 21
16.85522823111625
 31
0.0
  0
LINE
  5
4D0
330
2
100
AcDbEntity
  8
GAIKEI
 62
     1
100
AcDbLine
 10
34.24442819085022
 20
17.35923281361829
 30
0.0
 11
33.99943648965655
 21
17.35923281361829
 31
0.0
  0
LINE
  5
4D1
330
2
100
AcDbEntity
  8
GAIKEI
 62
     1
100
AcDbLine
 10
34.7405695439636
 20
16.85522823111625
 30
0.0
 11
34.7405695439636
 21
17.35923281361829
 31
0.0
  0
LINE
  5
4D2
330
2
100
AcDbEntity
  8
GAIKEI
 62
     1
100
AcDbLine
 10
34.49557784276999
 20
16.85522823111625
 30
0.0
 11
34.7405695439636
 21
16.85522823111625
 31
0.0
  0
LINE
  5
4D3
330
2
100
AcDbEntity
  8
GAIKEI
 62
     1
100
AcDbLine
 10
34.49557784276999
 20
17.35923281361829
 30
0.0
 11
34.49557784276999
 21
16.85522823111625
 31
0.0
  0
LINE
  5
4D4
330
2
100
AcDbEntity
  8
GAIKEI
 62
     1
100
AcDbLine
 10
34.7405695439636
 20
17.35923281361829
 30
0.0
 11
34.49557784276999
 21
17.35923281361829
 31
0.0
  0
LINE
  5
4D5
330
2
100
AcDbEntity
  8
GAIKEI
 62
     1
100
AcDbLine
 10
35.236710897077
 20
16.85522823111625
 30
0.0
 11
35.236710897077
 21
17.35923281361829
 31
0.0
  0
LINE
  5
4D6
330
2
100
AcDbEntity
  8
GAIKEI
 62
     1
100
AcDbLine
 10
34.9916244581799
 20
16.85522823111625
 30
0.0
 11
35.236710897077
 21
16.85522823111625
 31
0.0
  0
LINE
  5
4D7
330
2
100
AcDbEntity
  8
GAIKEI
 62
     1
100
AcDbLine
 10
34.9916244581799
 20
17.35923281361829
 30
0.0
 11
34.9916244581799
 21
16.85522823111625
 31
0.0
  0
LINE
  5
4D8
330
2
100
AcDbEntity
  8
GAIKEI
 62
     1
100
AcDbLine
 10
35.236710897077
 20
17.35923281361829
 30
0.0
 11
34.9916244581799
 21
17.35923281361829
 31
0.0
  0
LINE
  5
4D9
330
2
100
AcDbEntity
  8
GAIKEI
 62
     1
100
AcDbLine
 10
35.73285225019044
 20
16.85522823111625
 30
0.0
 11
35.73285225019044
 21
17.35923281361829
 31
0.0
  0
LINE
  5
4DA
330
2
100
AcDbEntity
  8
GAIKEI
 62
     1
100
AcDbLine
 10
35.48776581129323
 20
16.85522823111625
 30
0.0
 11
35.73285225019044
 21
16.85522823111625
 31
0.0
  0
LINE
  5
4DB
330
2
100
AcDbEntity
  8
GAIKEI
 62
     1
100
AcDbLine
 10
35.48776581129323
 20
17.35923281361829
 30
0.0
 11
35.48776581129323
 21
16.85522823111625
 31
0.0
  0
LINE
  5
4DC
330
2
100
AcDbEntity
  8
GAIKEI
 62
     1
100
AcDbLine
 10
35.73285225019044
 20
17.35923281361829
 30
0.0
 11
35.48776581129323
 21
17.35923281361829
 31
0.0
  0
LINE
  5
4DD
330
2
100
AcDbEntity
  8
GAIKEI
 62
     1
100
AcDbLine
 10
36.2290883410073
 20
16.85522823111625
 30
0.0
 11
36.2290883410073
 21
17.35923281361829
 31
0.0
  0
LINE
  5
4DE
330
2
100
AcDbEntity
  8
GAIKEI
 62
     1
100
AcDbLine
 10
35.98409663981364
 20
16.85522823111625
 30
0.0
 11
36.2290883410073
 21
16.85522823111625
 31
0.0
  0
LINE
  5
4DF
330
2
100
AcDbEntity
  8
GAIKEI
 62
     1
100
AcDbLine
 10
35.98409663981364
 20
17.35923281361829
 30
0.0
 11
35.98409663981364
 21
16.85522823111625
 31
0.0
  0
LINE
  5
4E0
330
2
100
AcDbEntity
  8
GAIKEI
 62
     1
100
AcDbLine
 10
36.2290883410073
 20
17.35923281361829
 30
0.0
 11
35.98409663981364
 21
17.35923281361829
 31
0.0
  0
LINE
  5
4E1
330
2
100
AcDbEntity
  8
GAIKEI
 62
     1
100
AcDbLine
 10
36.72504021871373
 20
16.85522823111625
 30
0.0
 11
36.72504021871373
 21
17.35923281361829
 31
0.0
  0
LINE
  5
4E2
330
2
100
AcDbEntity
  8
GAIKEI
 62
     1
100
AcDbLine
 10
36.48004851752006
 20
16.85522823111625
 30
0.0
 11
36.72504021871373
 21
16.85522823111625
 31
0.0
  0
LINE
  5
4E3
330
2
100
AcDbEntity
  8
GAIKEI
 62
     1
100
AcDbLine
 10
36.48004851752006
 20
17.35923281361829
 30
0.0
 11
36.48004851752006
 21
16.85522823111625
 31
0.0
  0
LINE
  5
4E4
330
2
100
AcDbEntity
  8
GAIKEI
 62
     1
100
AcDbLine
 10
36.72504021871373
 20
17.35923281361829
 30
0.0
 11
36.48004851752006
 21
17.35923281361829
 31
0.0
  0
LINE
  5
4E5
330
2
100
AcDbEntity
  8
GAIKEI
 62
     1
100
AcDbLine
 10
37.22118157182712
 20
16.85522823111625
 30
0.0
 11
37.22118157182712
 21
17.35923281361829
 31
0.0
  0
LINE
  5
4E6
330
2
100
AcDbEntity
  8
GAIKEI
 62
     1
100
AcDbLine
 10
36.97609513292997
 20
16.85522823111625
 30
0.0
 11
37.22118157182712
 21
16.85522823111625
 31
0.0
  0
LINE
  5
4E7
330
2
100
AcDbEntity
  8
GAIKEI
 62
     1
100
AcDbLine
 10
36.97609513292997
 20
17.35923281361829
 30
0.0
 11
36.97609513292997
 21
16.85522823111625
 31
0.0
  0
LINE
  5
4E8
330
2
100
AcDbEntity
  8
GAIKEI
 62
     1
100
AcDbLine
 10
37.22118157182712
 20
17.35923281361829
 30
0.0
 11
36.97609513292997
 21
17.35923281361829
 31
0.0
  0
LINE
  5
4E9
330
2
100
AcDbEntity
  8
GAIKEI
 62
     1
100
AcDbLine
 10
37.71751240034746
 20
16.85522823111625
 30
0.0
 11
37.71751240034746
 21
17.35923281361829
 31
0.0
  0
LINE
  5
4EA
330
2
100
AcDbEntity
  8
GAIKEI
 62
     1
100
AcDbLine
 10
37.47242596145031
 20
16.85522823111625
 30
0.0
 11
37.71751240034746
 21
16.85522823111625
 31
0.0
  0
LINE
  5
4EB
330
2
100
AcDbEntity
  8
GAIKEI
 62
     1
100
AcDbLine
 10
37.47242596145031
 20
17.35923281361829
 30
0.0
 11
37.47242596145031
 21
16.85522823111625
 31
0.0
  0
LINE
  5
4EC
330
2
100
AcDbEntity
  8
GAIKEI
 62
     1
100
AcDbLine
 10
37.71751240034746
 20
17.35923281361829
 30
0.0
 11
37.47242596145031
 21
17.35923281361829
 31
0.0
  0
LINE
  5
4ED
330
2
100
AcDbEntity
  8
GAIKEI
 62
     1
100
AcDbLine
 10
38.21355901575736
 20
16.85522823111625
 30
0.0
 11
38.21355901575736
 21
17.35923281361829
 31
0.0
  0
LINE
  5
4EE
330
2
100
AcDbEntity
  8
GAIKEI
 62
     1
100
AcDbLine
 10
37.96856731456376
 20
16.85522823111625
 30
0.0
 11
38.21355901575736
 21
16.85522823111625
 31
0.0
  0
LINE
  5
4EF
330
2
100
AcDbEntity
  8
GAIKEI
 62
     1
100
AcDbLine
 10
37.96856731456376
 20
17.35923281361829
 30
0.0
 11
37.96856731456376
 21
16.85522823111625
 31
0.0
  0
LINE
  5
4F0
330
2
100
AcDbEntity
  8
GAIKEI
 62
     1
100
AcDbLine
 10
38.21355901575736
 20
17.35923281361829
 30
0.0
 11
37.96856731456376
 21
17.35923281361829
 31
0.0
  0
LINE
  5
4F1
330
2
100
AcDbEntity
  8
GAIKEI
 62
     1
100
AcDbLine
 10
38.70970036887081
 20
16.85522823111625
 30
0.0
 11
38.70970036887081
 21
17.35923281361829
 31
0.0
  0
LINE
  5
4F2
330
2
100
AcDbEntity
  8
GAIKEI
 62
     1
100
AcDbLine
 10
38.4647086676771
 20
16.85522823111625
 30
0.0
 11
38.70970036887081
 21
16.85522823111625
 31
0.0
  0
LINE
  5
4F3
330
2
100
AcDbEntity
  8
GAIKEI
 62
     1
100
AcDbLine
 10
38.4647086676771
 20
17.35923281361829
 30
0.0
 11
38.4647086676771
 21
16.85522823111625
 31
0.0
  0
LINE
  5
4F4
330
2
100
AcDbEntity
  8
GAIKEI
 62
     1
100
AcDbLine
 10
38.70970036887081
 20
17.35923281361829
 30
0.0
 11
38.4647086676771
 21
17.35923281361829
 31
0.0
  0
LINE
  5
4F5
330
2
100
AcDbEntity
  8
GAIKEI
 62
     1
100
AcDbLine
 10
39.20584172198421
 20
16.85522823111625
 30
0.0
 11
39.20584172198421
 21
17.35923281361829
 31
0.0
  0
LINE
  5
4F6
330
2
100
AcDbEntity
  8
GAIKEI
 62
     1
100
AcDbLine
 10
38.96075528308705
 20
16.85522823111625
 30
0.0
 11
39.20584172198421
 21
16.85522823111625
 31
0.0
  0
LINE
  5
4F7
330
2
100
AcDbEntity
  8
GAIKEI
 62
     1
100
AcDbLine
 10
38.96075528308705
 20
17.35923281361829
 30
0.0
 11
38.96075528308705
 21
16.85522823111625
 31
0.0
  0
LINE
  5
4F8
330
2
100
AcDbEntity
  8
GAIKEI
 62
     1
100
AcDbLine
 10
39.20584172198421
 20
17.35923281361829
 30
0.0
 11
38.96075528308705
 21
17.35923281361829
 31
0.0
  0
LINE
  5
4F9
330
2
100
AcDbEntity
  8
GAIKEI
 62
     1
100
AcDbLine
 10
39.7019830750976
 20
16.85522823111625
 30
0.0
 11
39.7019830750976
 21
17.35923281361829
 31
0.0
  0
LINE
  5
4FA
330
2
100
AcDbEntity
  8
GAIKEI
 62
     1
100
AcDbLine
 10
39.45689663620044
 20
16.85522823111625
 30
0.0
 11
39.7019830750976
 21
16.85522823111625
 31
0.0
  0
LINE
  5
4FB
330
2
100
AcDbEntity
  8
GAIKEI
 62
     1
100
AcDbLine
 10
39.45689663620044
 20
17.35923281361829
 30
0.0
 11
39.45689663620044
 21
16.85522823111625
 31
0.0
  0
LINE
  5
4FC
330
2
100
AcDbEntity
  8
GAIKEI
 62
     1
100
AcDbLine
 10
39.7019830750976
 20
17.35923281361829
 30
0.0
 11
39.45689663620044
 21
17.35923281361829
 31
0.0
  0
LINE
  5
4FD
330
2
100
AcDbEntity
  8
GAIKEI
 62
     1
100
AcDbLine
 10
40.1980296905075
 20
16.85522823111625
 30
0.0
 11
40.1980296905075
 21
17.35923281361829
 31
0.0
  0
LINE
  5
4FE
330
2
100
AcDbEntity
  8
GAIKEI
 62
     1
100
AcDbLine
 10
39.95303798931383
 20
16.85522823111625
 30
0.0
 11
40.1980296905075
 21
16.85522823111625
 31
0.0
  0
LINE
  5
4FF
330
2
100
AcDbEntity
  8
GAIKEI
 62
     1
100
AcDbLine
 10
39.95303798931383
 20
17.35923281361829
 30
0.0
 11
39.95303798931383
 21
16.85522823111625
 31
0.0
  0
LINE
  5
500
330
2
100
AcDbEntity
  8
GAIKEI
 62
     1
100
AcDbLine
 10
40.1980296905075
 20
17.35923281361829
 30
0.0
 11
39.95303798931383
 21
17.35923281361829
 31
0.0
  0
LINE
  5
501
330
2
100
AcDbEntity
  8
GAIKEI
 62
     1
100
AcDbLine
 10
16.15416897405504
 20
11.73010794837256
 30
0.0
 11
16.26406471008931
 21
11.73010794837256
 31
0.0
  0
LINE
  5
502
330
2
100
AcDbEntity
  8
GAIKEI
 62
     1
100
AcDbLine
 10
16.15416897405504
 20
11.60960158954879
 30
0.0
 11
16.15416897405504
 21
11.73010794837256
 31
0.0
  0
LINE
  5
503
330
2
100
AcDbEntity
  8
GAIKEI
 62
     1
100
AcDbLine
 10
16.0336626152312
 20
11.60960158954879
 30
0.0
 11
16.15416897405504
 21
11.60960158954879
 31
0.0
  0
LINE
  5
504
330
2
100
AcDbEntity
  8
GAIKEI
 62
     1
100
AcDbLine
 10
16.0336626152312
 20
11.50008480432836
 30
0.0
 11
16.0336626152312
 21
11.60960158954879
 31
0.0
  0
LINE
  5
505
330
2
100
AcDbEntity
  8
GAIKEI
 62
     1
100
AcDbLine
 10
16.15416897405504
 20
11.50008480432836
 30
0.0
 11
16.0336626152312
 21
11.50008480432836
 31
0.0
  0
LINE
  5
506
330
2
100
AcDbEntity
  8
GAIKEI
 62
     1
100
AcDbLine
 10
16.15416897405504
 20
11.37957844550465
 30
0.0
 11
16.15416897405504
 21
11.50008480432836
 31
0.0
  0
LINE
  5
507
330
2
100
AcDbEntity
  8
GAIKEI
 62
     1
100
AcDbLine
 10
16.26406471008931
 20
11.37957844550465
 30
0.0
 11
16.15416897405504
 21
11.37957844550465
 31
0.0
  0
LINE
  5
508
330
2
100
AcDbEntity
  8
GAIKEI
 62
     1
100
AcDbLine
 10
16.26406471008931
 20
11.50008480432836
 30
0.0
 11
16.26406471008931
 21
11.37957844550465
 31
0.0
  0
LINE
  5
509
330
2
100
AcDbEntity
  8
GAIKEI
 62
     1
100
AcDbLine
 10
16.38438159350618
 20
11.50008480432836
 30
0.0
 11
16.26406471008931
 21
11.50008480432836
 31
0.0
  0
LINE
  5
50A
330
2
100
AcDbEntity
  8
GAIKEI
 62
     1
100
AcDbLine
 10
16.38438159350618
 20
11.60960158954879
 30
0.0
 11
16.38438159350618
 21
11.50008480432836
 31
0.0
  0
LINE
  5
50B
330
2
100
AcDbEntity
  8
GAIKEI
 62
     1
100
AcDbLine
 10
16.26406471008931
 20
11.60960158954879
 30
0.0
 11
16.38438159350618
 21
11.60960158954879
 31
0.0
  0
LINE
  5
50C
330
2
100
AcDbEntity
  8
GAIKEI
 62
     1
100
AcDbLine
 10
16.26406471008931
 20
11.73010794837256
 30
0.0
 11
16.26406471008931
 21
11.60960158954879
 31
0.0
  0
LINE
  5
50D
330
2
100
AcDbEntity
  8
GAIKEI
 62
     1
100
AcDbLine
 10
38.69151072980304
 20
11.73010794837256
 30
0.0
 11
38.80112225272688
 21
11.73010794837256
 31
0.0
  0
LINE
  5
50E
330
2
100
AcDbEntity
  8
GAIKEI
 62
     1
100
AcDbLine
 10
38.69151072980304
 20
11.60960158954879
 30
0.0
 11
38.69151072980304
 21
11.73010794837256
 31
0.0
  0
LINE
  5
50F
330
2
100
AcDbEntity
  8
GAIKEI
 62
     1
100
AcDbLine
 10
38.57100437097921
 20
11.60960158954879
 30
0.0
 11
38.69151072980304
 21
11.60960158954879
 31
0.0
  0
LINE
  5
510
330
2
100
AcDbEntity
  8
GAIKEI
 62
     1
100
AcDbLine
 10
38.57100437097921
 20
11.50008480432836
 30
0.0
 11
38.57100437097921
 21
11.60960158954879
 31
0.0
  0
LINE
  5
511
330
2
100
AcDbEntity
  8
GAIKEI
 62
     1
100
AcDbLine
 10
38.69151072980304
 20
11.50008480432836
 30
0.0
 11
38.57100437097921
 21
11.50008480432836
 31
0.0
  0
LINE
  5
512
330
2
100
AcDbEntity
  8
GAIKEI
 62
     1
100
AcDbLine
 10
38.69151072980304
 20
11.37957844550465
 30
0.0
 11
38.69151072980304
 21
11.50008480432836
 31
0.0
  0
LINE
  5
513
330
2
100
AcDbEntity
  8
GAIKEI
 62
     1
100
AcDbLine
 10
38.80112225272688
 20
11.37957844550465
 30
0.0
 11
38.69151072980304
 21
11.37957844550465
 31
0.0
  0
LINE
  5
514
330
2
100
AcDbEntity
  8
GAIKEI
 62
     1
100
AcDbLine
 10
38.80112225272688
 20
11.50008480432836
 30
0.0
 11
38.80112225272688
 21
11.37957844550465
 31
0.0
  0
LINE
  5
515
330
2
100
AcDbEntity
  8
GAIKEI
 62
     1
100
AcDbLine
 10
38.92162861155065
 20
11.50008480432836
 30
0.0
 11
38.80112225272688
 21
11.50008480432836
 31
0.0
  0
LINE
  5
516
330
2
100
AcDbEntity
  8
GAIKEI
 62
     1
100
AcDbLine
 10
38.92162861155065
 20
11.60960158954879
 30
0.0
 11
38.92162861155065
 21
11.50008480432836
 31
0.0
  0
LINE
  5
517
330
2
100
AcDbEntity
  8
GAIKEI
 62
     1
100
AcDbLine
 10
38.80112225272688
 20
11.60960158954879
 30
0.0
 11
38.92162861155065
 21
11.60960158954879
 31
0.0
  0
LINE
  5
518
330
2
100
AcDbEntity
  8
GAIKEI
 62
     1
100
AcDbLine
 10
38.80112225272688
 20
11.73010794837256
 30
0.0
 11
38.80112225272688
 21
11.60960158954879
 31
0.0
  0
LINE
  5
519
330
2
100
AcDbEntity
  8
GAIKEI
 62
     1
100
AcDbLine
 10
45.79167932882444
 20
18.2859570290384
 30
0.0
 11
45.64559379006164
 21
18.39263168315449
 31
0.0
  0
LINE
  5
51A
330
2
100
AcDbEntity
  8
GAIKEI
 62
     1
100
AcDbLine
 10
45.79167932882444
 20
17.35847491199047
 30
0.0
 11
45.79167932882444
 21
18.2859570290384
 31
0.0
  0
LINE
  5
51B
330
2
100
AcDbEntity
  8
GAIKEI
 62
     1
100
AcDbLine
 10
45.64559379006164
 20
17.25180025787443
 30
0.0
 11
45.79167932882444
 21
17.35847491199047
 31
0.0
  0
LINE
  5
51C
330
2
100
AcDbEntity
  8
GAIKEI
 62
     1
100
AcDbLine
 10
45.79167932882444
 20
17.09453567010121
 30
0.0
 11
45.64559379006164
 21
17.2012103242173
 31
0.0
  0
LINE
  5
51D
330
2
100
AcDbEntity
  8
GAIKEI
 62
     1
100
AcDbLine
 10
45.79167932882444
 20
15.43795218708789
 30
0.0
 11
45.79167932882444
 21
17.09453567010121
 31
0.0
  0
LINE
  5
51E
330
2
100
AcDbEntity
  8
GAIKEI
 62
     1
100
AcDbLine
 10
45.64559379006164
 20
15.33127753297185
 30
0.0
 11
45.79167932882444
 21
15.43795218708789
 31
0.0
  0
LINE
  5
51F
330
2
100
AcDbEntity
  8
GAIKEI
 62
     1
100
AcDbLine
 10
46.02236563679293
 20
18.07279719621329
 30
0.0
 11
45.80352154175915
 21
18.16734542428418
 31
0.0
  0
LINE
  5
520
330
2
100
AcDbEntity
  8
GAIKEI
 62
     1
100
AcDbLine
 10
46.02236563679293
 20
17.57201369562949
 30
0.0
 11
46.02236563679293
 21
18.07279719621329
 31
0.0
  0
LINE
  5
521
330
2
100
AcDbEntity
  8
GAIKEI
 62
     1
100
AcDbLine
 10
45.80352154175915
 20
17.47708651674475
 30
0.0
 11
46.02236563679293
 21
17.57201369562949
 31
0.0
  0
LINE
  5
522
330
2
100
AcDbEntity
  8
GAIKEI
 62
     1
100
AcDbLine
 10
-22.65244031183784
 20
16.46585626982232
 30
0.0
 11
-21.6982421624092
 21
16.46585626982232
 31
0.0
  0
LINE
  5
523
330
2
100
AcDbEntity
  8
GAIKEI
 62
     1
100
AcDbLine
 10
-22.65244031183784
 20
16.0061889325479
 30
0.0
 11
-22.65244031183784
 21
16.46585626982232
 31
0.0
  0
LINE
  5
524
330
2
100
AcDbEntity
  8
GAIKEI
 62
     1
100
AcDbLine
 10
-21.6982421624092
 20
16.0061889325479
 30
0.0
 11
-22.65244031183784
 21
16.0061889325479
 31
0.0
  0
LINE
  5
525
330
2
100
AcDbEntity
  8
GAIKEI
 62
     1
100
AcDbLine
 10
-21.6982421624092
 20
16.46585626982232
 30
0.0
 11
-21.6982421624092
 21
16.0061889325479
 31
0.0
  0
CIRCLE
  5
526
330
2
100
AcDbEntity
  8
GAIKEI
 62
     1
100
AcDbCircle
 10
38.74617438470972
 20
11.55484319693858
 30
0.0
 40
0.5149941561054856
  0
CIRCLE
  5
527
330
2
100
AcDbEntity
  8
GAIKEI
 62
     1
100
AcDbCircle
 10
38.74617438470972
 20
11.55484319693858
 30
0.0
 40
0.3507189782749278
  0
CIRCLE
  5
528
330
2
100
AcDbEntity
  8
GAIKEI
 62
     1
100
AcDbCircle
 10
38.74617438470972
 20
11.5547484592351
 30
0.0
 40
0.2411074553510781
  0
CIRCLE
  5
529
330
2
100
AcDbEntity
  8
GAIKEI
 62
     1
100
AcDbCircle
 10
16.2093063174791
 20
11.55484319693858
 30
0.0
 40
0.5149941561054856
  0
CIRCLE
  5
52A
330
2
100
AcDbEntity
  8
GAIKEI
 62
     1
100
AcDbCircle
 10
16.2093063174791
 20
11.55484319693858
 30
0.0
 40
0.3507189782749278
  0
CIRCLE
  5
52B
330
2
100
AcDbEntity
  8
GAIKEI
 62
     1
100
AcDbCircle
 10
16.2093063174791
 20
11.5547484592351
 30
0.0
 40
0.2411074553510781
  0
LINE
  5
52C
330
2
100
AcDbEntity
  8
GAIKEI
  6
Continuous
 62
     1
100
AcDbLine
 10
8.821987739216467
 20
12.90258176661422
 30
0.0
 11
8.821987739216467
 21
15.5544795623656
 31
0.0
  0
LINE
  5
52D
330
2
100
AcDbEntity
  8
GAIKEI
  6
Continuous
 62
     1
100
AcDbLine
 10
9.018284260822554
 20
12.70533786797335
 30
0.0
 11
9.018284260822554
 21
15.73050221542746
 31
0.0
  0
LINE
  5
52E
330
2
100
AcDbEntity
  8
GAIKEI
100
AcDbLine
 10
10.64019374436299
 20
9.950869354750011
 30
0.0
 11
10.64019374436299
 21
18.44518089319007
 31
0.0
  0
CIRCLE
  5
52F
330
2
100
AcDbEntity
  8
GAIKEI
 62
     1
100
AcDbCircle
 10
13.04222489021526
 20
16.2336541585982
 30
0.0
 40
0.2411074553510781
  0
CIRCLE
  5
530
330
2
100
AcDbEntity
  8
GAIKEI
 62
     1
100
AcDbCircle
 10
13.04222489021526
 20
12.22321769497466
 30
0.0
 40
0.2411074553510781
  0
LINE
  5
531
330
2
100
AcDbEntity
  8
GAIKEI
 62
     1
100
AcDbLine
 10
-30.79325117168782
 20
12.9848140932329
 30
0.0
 11
-30.49444845491877
 21
12.9848140932329
 31
0.0
  0
LINE
  5
532
330
2
100
AcDbEntity
  8
GAIKEI
 62
     1
100
AcDbLine
 10
-30.79325117168782
 20
12.65493740972317
 30
0.0
 11
-30.79325117168782
 21
12.9848140932329
 31
0.0
  0
LINE
  5
533
330
2
100
AcDbEntity
  8
GAIKEI
 62
     1
100
AcDbLine
 10
-30.49444845491877
 20
12.65493740972317
 30
0.0
 11
-30.79325117168782
 21
12.65493740972317
 31
0.0
  0
LINE
  5
534
330
2
100
AcDbEntity
  8
GAIKEI
 62
     1
100
AcDbLine
 10
-30.49444845491877
 20
12.9848140932329
 30
0.0
 11
-30.49444845491877
 21
12.65493740972317
 31
0.0
  0
LINE
  5
535
330
2
100
AcDbEntity
  8
GAIKEI
 62
     1
100
AcDbLine
 10
-30.64403928871025
 20
12.6985167533229
 30
0.0
 11
-30.75639820503494
 21
12.94123474963317
 31
0.0
  0
LINE
  5
536
330
2
100
AcDbEntity
  8
GAIKEI
 62
     1
100
AcDbLine
 10
-30.53149089697854
 20
12.94123474963317
 30
0.0
 11
-30.64403928871025
 21
12.6985167533229
 31
0.0
  0
LINE
  5
537
330
2
100
AcDbEntity
  8
GAIKEI
 62
     1
100
AcDbLine
 10
-28.84525451277671
 20
12.9848140932329
 30
0.0
 11
-28.5464517960076
 21
12.9848140932329
 31
0.0
  0
LINE
  5
538
330
2
100
AcDbEntity
  8
GAIKEI
 62
     1
100
AcDbLine
 10
-28.84525451277671
 20
12.65531636053708
 30
0.0
 11
-28.84525451277671
 21
12.9848140932329
 31
0.0
  0
LINE
  5
539
330
2
100
AcDbEntity
  8
GAIKEI
 62
     1
100
AcDbLine
 10
-28.5464517960076
 20
12.65531636053708
 30
0.0
 11
-28.84525451277671
 21
12.65531636053708
 31
0.0
  0
LINE
  5
53A
330
2
100
AcDbEntity
  8
GAIKEI
 62
     1
100
AcDbLine
 10
-28.5464517960076
 20
12.9848140932329
 30
0.0
 11
-28.5464517960076
 21
12.65531636053708
 31
0.0
  0
LINE
  5
53B
330
2
100
AcDbEntity
  8
GAIKEI
 62
     1
100
AcDbLine
 10
-28.69566367898517
 20
12.94123474963317
 30
0.0
 11
-28.58330476266047
 21
12.6985167533229
 31
0.0
  0
LINE
  5
53C
330
2
100
AcDbEntity
  8
GAIKEI
 62
     1
100
AcDbLine
 10
-28.80802259530992
 20
12.6985167533229
 30
0.0
 11
-28.69566367898517
 21
12.94123474963317
 31
0.0
  0
LINE
  5
53D
330
2
100
AcDbEntity
  8
GAIKEI
 62
     1
100
AcDbLine
 10
-20.11943833395116
 20
14.68781905095045
 30
0.0
 11
-20.36101947781958
 21
14.59478662613514
 31
0.0
  0
LINE
  5
53E
330
2
100
AcDbEntity
  8
GAIKEI
 62
     1
100
AcDbLine
 10
-20.11943833395116
 20
14.59478662613514
 30
0.0
 11
-20.11943833395116
 21
14.68781905095045
 31
0.0
  0
LINE
  5
53F
330
2
100
AcDbEntity
  8
GAIKEI
 62
     1
100
AcDbLine
 10
-19.85909912479406
 20
14.69501911641475
 30
0.0
 11
-20.11943833395116
 21
14.59478662613514
 31
0.0
  0
LINE
  5
540
330
2
100
AcDbEntity
  8
GAIKEI
 62
     1
100
AcDbLine
 10
-20.11943833395116
 20
14.7954410821012
 30
0.0
 11
-19.85909912479406
 21
14.69501911641475
 31
0.0
  0
LINE
  5
541
330
2
100
AcDbEntity
  8
GAIKEI
 62
     1
100
AcDbLine
 10
-20.11943833395116
 20
14.70240865728601
 30
0.0
 11
-20.11943833395116
 21
14.7954410821012
 31
0.0
  0
LINE
  5
542
330
2
100
AcDbEntity
  8
GAIKEI
 62
     1
100
AcDbLine
 10
-20.36101947781958
 20
14.7954410821012
 30
0.0
 11
-20.11943833395116
 21
14.70240865728601
 31
0.0
  0
LINE
  5
543
330
2
100
AcDbEntity
  8
GAIKEI
 62
     1
100
AcDbLine
 10
-20.36101947781958
 20
14.59478662613514
 30
0.0
 11
-20.36101947781958
 21
14.7954410821012
 31
0.0
  0
LINE
  5
544
330
2
100
AcDbEntity
  8
GAIKEI
 62
     1
100
AcDbLine
 10
-23.955273210065
 20
14.59478662613514
 30
0.0
 11
-24.19685435393347
 21
14.68781905095045
 31
0.0
  0
LINE
  5
545
330
2
100
AcDbEntity
  8
GAIKEI
 62
     1
100
AcDbLine
 10
-23.955273210065
 20
14.7954410821012
 30
0.0
 11
-23.955273210065
 21
14.59478662613514
 31
0.0
  0
LINE
  5
546
330
2
100
AcDbEntity
  8
GAIKEI
 62
     1
100
AcDbLine
 10
-24.19685435393347
 20
14.70240865728601
 30
0.0
 11
-23.955273210065
 21
14.7954410821012
 31
0.0
  0
LINE
  5
547
330
2
100
AcDbEntity
  8
GAIKEI
 62
     1
100
AcDbLine
 10
-24.19685435393347
 20
14.7954410821012
 30
0.0
 11
-24.19685435393347
 21
14.70240865728601
 31
0.0
  0
LINE
  5
548
330
2
100
AcDbEntity
  8
GAIKEI
 62
     1
100
AcDbLine
 10
-24.45728830079401
 20
14.69501911641475
 30
0.0
 11
-24.19685435393347
 21
14.7954410821012
 31
0.0
  0
LINE
  5
549
330
2
100
AcDbEntity
  8
GAIKEI
 62
     1
100
AcDbLine
 10
-24.19685435393347
 20
14.59478662613514
 30
0.0
 11
-24.45728830079401
 21
14.69501911641475
 31
0.0
  0
LINE
  5
54A
330
2
100
AcDbEntity
  8
GAIKEI
 62
     1
100
AcDbLine
 10
-24.19685435393347
 20
14.68781905095045
 30
0.0
 11
-24.19685435393347
 21
14.59478662613514
 31
0.0
  0
LINE
  5
54B
330
2
100
AcDbEntity
  8
GAIKEI
 62
     1
100
AcDbLine
 10
-23.46311084049768
 20
15.69203870781541
 30
0.0
 11
-23.63685978867602
 21
15.81065031256969
 31
0.0
  0
LINE
  5
54C
330
2
100
AcDbEntity
  8
GAIKEI
 62
     1
100
AcDbLine
 10
-23.80378762220392
 20
15.31820372989193
 30
0.0
 11
-23.46311084049768
 21
15.69203870781541
 31
0.0
  0
LINE
  5
54D
330
2
100
AcDbEntity
  8
GAIKEI
 62
     1
100
AcDbLine
 10
-23.63685978867602
 20
15.81065031256969
 30
0.0
 11
-23.80378762220392
 21
15.31820372989193
 31
0.0
  0
LINE
  5
54E
330
2
100
AcDbEntity
  8
GAIKEI
 62
     1
100
AcDbLine
 10
-20.60525327738543
 20
15.78772378832804
 30
0.0
 11
-20.80126558588109
 21
15.65414362642428
 31
0.0
  0
LINE
  5
54F
330
2
100
AcDbEntity
  8
GAIKEI
 62
     1
100
AcDbLine
 10
-20.41435680487757
 20
15.30967733657894
 30
0.0
 11
-20.60525327738543
 21
15.78772378832804
 31
0.0
  0
LINE
  5
550
330
2
100
AcDbEntity
  8
GAIKEI
 62
     1
100
AcDbLine
 10
-20.80126558588109
 20
15.65414362642428
 30
0.0
 11
-20.41435680487757
 21
15.30967733657894
 31
0.0
  0
CIRCLE
  5
551
330
2
100
AcDbEntity
  8
GAIKEI
 62
     1
100
AcDbCircle
 10
-22.14639886871106
 20
14.16562482938059
 30
0.0
 40
2.488143675289995
  0
CIRCLE
  5
552
330
2
100
AcDbEntity
  8
GAIKEI
 62
     1
100
AcDbCircle
 10
-22.14639886871106
 20
14.16562482938059
 30
0.0
 40
1.411923363781844
  0
LINE
  5
553
330
2
100
AcDbEntity
  8
GAIKEI
 62
     1
100
AcDbLine
 10
-30.18209824655236
 20
15.89913532761794
 30
0.0
 11
-29.84521097298517
 21
15.89913532761794
 31
0.0
  0
LINE
  5
554
330
2
100
AcDbEntity
  8
GAIKEI
 62
     1
100
AcDbLine
 10
-30.18209824655236
 20
15.13024412619188
 30
0.0
 11
-30.18209824655236
 21
15.89913532761794
 31
0.0
  0
LINE
  5
555
330
2
100
AcDbEntity
  8
GAIKEI
 62
     1
100
AcDbLine
 10
-29.84521097298517
 20
15.13024412619188
 30
0.0
 11
-30.18209824655236
 21
15.13024412619188
 31
0.0
  0
LINE
  5
556
330
2
100
AcDbEntity
  8
GAIKEI
 62
     1
100
AcDbLine
 10
-29.84521097298517
 20
15.89913532761794
 30
0.0
 11
-29.84521097298517
 21
15.13024412619188
 31
0.0
  0
LINE
  5
557
330
2
100
AcDbEntity
  8
GAIKEI
 62
     1
100
AcDbLine
 10
-32.57867793143101
 20
15.89913532761794
 30
0.0
 11
-32.24179065786387
 21
15.89913532761794
 31
0.0
  0
LINE
  5
558
330
2
100
AcDbEntity
  8
GAIKEI
 62
     1
100
AcDbLine
 10
-32.57867793143101
 20
15.13024412619188
 30
0.0
 11
-32.57867793143101
 21
15.89913532761794
 31
0.0
  0
LINE
  5
559
330
2
100
AcDbEntity
  8
GAIKEI
 62
     1
100
AcDbLine
 10
-32.24179065786387
 20
15.13024412619188
 30
0.0
 11
-32.57867793143101
 21
15.13024412619188
 31
0.0
  0
LINE
  5
55A
330
2
100
AcDbEntity
  8
GAIKEI
 62
     1
100
AcDbLine
 10
-32.24179065786387
 20
15.89913532761794
 30
0.0
 11
-32.24179065786387
 21
15.13024412619188
 31
0.0
  0
LINE
  5
55B
330
2
100
AcDbEntity
  8
GAIKEI
 62
     1
100
AcDbLine
 10
-28.93913957692319
 20
16.17027463497152
 30
0.0
 11
-29.30624817789976
 21
16.02987335841737
 31
0.0
  0
LINE
  5
55C
330
2
100
AcDbEntity
  8
GAIKEI
 62
     1
100
AcDbLine
 10
-29.30624817789976
 20
16.31105486233957
 30
0.0
 11
-28.93913957692319
 21
16.17027463497152
 31
0.0
  0
LINE
  5
55D
330
2
100
AcDbEntity
  8
GAIKEI
 62
     1
100
AcDbLine
 10
-29.30624817789976
 20
16.02987335841737
 30
0.0
 11
-29.30624817789976
 21
16.31105486233957
 31
0.0
  0
LINE
  5
55E
330
2
100
AcDbEntity
  8
GAIKEI
 62
     1
100
AcDbLine
 10
-27.16148130886518
 20
13.66389395176202
 30
0.0
 11
-27.46483143540127
 21
13.52330319980092
 31
0.0
  0
LINE
  5
55F
330
2
100
AcDbEntity
  8
GAIKEI
 62
     1
100
AcDbLine
 10
-27.46483143540127
 20
13.80467417913007
 30
0.0
 11
-27.16148130886518
 21
13.66389395176202
 31
0.0
  0
LINE
  5
560
330
2
100
AcDbEntity
  8
GAIKEI
 62
     1
100
AcDbLine
 10
-27.46483143540127
 20
13.67393614833065
 30
0.0
 11
-27.46483143540127
 21
13.80467417913007
 31
0.0
  0
LINE
  5
561
330
2
100
AcDbEntity
  8
GAIKEI
 62
     1
100
AcDbLine
 10
-27.74667610324775
 20
13.80467417913007
 30
0.0
 11
-27.46483143540127
 21
13.67393614833065
 31
0.0
  0
LINE
  5
562
330
2
100
AcDbEntity
  8
GAIKEI
 62
     1
100
AcDbLine
 10
-27.74667610324775
 20
13.52330319980092
 30
0.0
 11
-27.74667610324775
 21
13.80467417913007
 31
0.0
  0
LINE
  5
563
330
2
100
AcDbEntity
  8
GAIKEI
 62
     1
100
AcDbLine
 10
-27.46483143540127
 20
13.65366227978643
 30
0.0
 11
-27.74667610324775
 21
13.52330319980092
 31
0.0
  0
LINE
  5
564
330
2
100
AcDbEntity
  8
GAIKEI
 62
     1
100
AcDbLine
 10
-27.46483143540127
 20
13.52330319980092
 30
0.0
 11
-27.46483143540127
 21
13.65366227978643
 31
0.0
  0
LINE
  5
565
330
2
100
AcDbEntity
  8
GAIKEI
 62
     1
100
AcDbLine
 10
-27.90934074011921
 20
13.4962082166063
 30
0.0
 11
-27.79717129920147
 21
13.83252706395257
 31
0.0
  0
LINE
  5
566
330
2
100
AcDbEntity
  8
GAIKEI
 62
     1
100
AcDbLine
 10
-27.93738310034866
 20
13.4962082166063
 30
0.0
 11
-27.90934074011921
 21
13.4962082166063
 31
0.0
  0
LINE
  5
567
330
2
100
AcDbEntity
  8
GAIKEI
 62
     1
100
AcDbLine
 10
-27.82511892172738
 20
13.83252706395257
 30
0.0
 11
-27.93738310034866
 21
13.4962082166063
 31
0.0
  0
LINE
  5
568
330
2
100
AcDbEntity
  8
GAIKEI
 62
     1
100
AcDbLine
 10
-27.79717129920147
 20
13.83252706395257
 30
0.0
 11
-27.82511892172738
 21
13.83252706395257
 31
0.0
  0
LINE
  5
569
330
2
100
AcDbEntity
  8
GAIKEI
 62
     1
100
AcDbLine
 10
-27.98806777170927
 20
13.52330319980092
 30
0.0
 11
-28.27000717725935
 21
13.65366227978643
 31
0.0
  0
LINE
  5
56A
330
2
100
AcDbEntity
  8
GAIKEI
 62
     1
100
AcDbLine
 10
-27.98806777170927
 20
13.80467417913007
 30
0.0
 11
-27.98806777170927
 21
13.52330319980092
 31
0.0
  0
LINE
  5
56B
330
2
100
AcDbEntity
  8
GAIKEI
 62
     1
100
AcDbLine
 10
-28.27000717725935
 20
13.67393614833065
 30
0.0
 11
-27.98806777170927
 21
13.80467417913007
 31
0.0
  0
LINE
  5
56C
330
2
100
AcDbEntity
  8
GAIKEI
 62
     1
100
AcDbLine
 10
-28.27000717725935
 20
13.80467417913007
 30
0.0
 11
-28.27000717725935
 21
13.67393614833065
 31
0.0
  0
LINE
  5
56D
330
2
100
AcDbEntity
  8
GAIKEI
 62
     1
100
AcDbLine
 10
-28.57364151690575
 20
13.66389395176202
 30
0.0
 11
-28.27000717725935
 21
13.80467417913007
 31
0.0
  0
LINE
  5
56E
330
2
100
AcDbEntity
  8
GAIKEI
 62
     1
100
AcDbLine
 10
-28.27000717725935
 20
13.52330319980092
 30
0.0
 11
-28.57364151690575
 21
13.66389395176202
 31
0.0
  0
LINE
  5
56F
330
2
100
AcDbEntity
  8
GAIKEI
 62
     1
100
AcDbLine
 10
-28.27000717725935
 20
13.65366227978643
 30
0.0
 11
-28.27000717725935
 21
13.52330319980092
 31
0.0
  0
LINE
  5
570
330
2
100
AcDbEntity
  8
GAIKEI
 62
     1
100
AcDbLine
 10
-29.83725300589305
 20
13.4962082166063
 30
0.0
 11
-29.72479935186488
 21
13.83252706395257
 31
0.0
  0
LINE
  5
571
330
2
100
AcDbEntity
  8
GAIKEI
 62
     1
100
AcDbLine
 10
-29.86567431693642
 20
13.4962082166063
 30
0.0
 11
-29.83725300589305
 21
13.4962082166063
 31
0.0
  0
LINE
  5
572
330
2
100
AcDbEntity
  8
GAIKEI
 62
     1
100
AcDbLine
 10
-29.75331540061171
 20
13.83252706395257
 30
0.0
 11
-29.86567431693642
 21
13.4962082166063
 31
0.0
  0
LINE
  5
573
330
2
100
AcDbEntity
  8
GAIKEI
 62
     1
100
AcDbLine
 10
-29.72479935186488
 20
13.83252706395257
 30
0.0
 11
-29.75331540061171
 21
13.83252706395257
 31
0.0
  0
LINE
  5
574
330
2
100
AcDbEntity
  8
GAIKEI
 62
     1
100
AcDbLine
 10
-31.85980823744126
 20
16.31351804262999
 30
0.0
 11
-31.57436353686251
 21
16.31351804262999
 31
0.0
  0
LINE
  5
575
330
2
100
AcDbEntity
  8
GAIKEI
 62
     1
100
AcDbLine
 10
-31.85980823744126
 20
16.02134696510438
 30
0.0
 11
-31.85980823744126
 21
16.31351804262999
 31
0.0
  0
LINE
  5
576
330
2
100
AcDbEntity
  8
GAIKEI
 62
     1
100
AcDbLine
 10
-31.57436353686251
 20
16.02134696510438
 30
0.0
 11
-31.85980823744126
 21
16.02134696510438
 31
0.0
  0
LINE
  5
577
330
2
100
AcDbEntity
  8
GAIKEI
 62
     1
100
AcDbLine
 10
-31.57436353686251
 20
16.31351804262999
 30
0.0
 11
-31.57436353686251
 21
16.02134696510438
 31
0.0
  0
LINE
  5
578
330
2
100
AcDbEntity
  8
GAIKEI
 62
     1
100
AcDbLine
 10
-28.54237807475806
 20
12.01488948502691
 30
0.0
 11
-27.42598897697531
 21
12.01488948502691
 31
0.0
  0
LINE
  5
579
330
2
100
AcDbEntity
  8
GAIKEI
 62
     1
100
AcDbLine
 10
-32.14847401993819
 20
12.01488948502691
 30
0.0
 11
-31.08409592136474
 21
12.01488948502691
 31
0.0
  0
CIRCLE
  5
57A
330
2
100
AcDbEntity
  8
GAIKEI
 62
     1
100
AcDbCircle
 10
-25.91241205736179
 20
12.81997048918151
 30
0.0
 40
0.4522304275514231
  0
CIRCLE
  5
57B
330
2
100
AcDbEntity
  8
GAIKEI
 62
     1
100
AcDbCircle
 10
-27.85325601966031
 20
12.81997048918151
 30
0.0
 40
0.4520883209962064
  0
LINE
  5
57C
330
2
100
AcDbEntity
  8
GAIKEI
 62
     1
100
AcDbLine
 10
-46.56575247289788
 20
16.60644702178342
 30
0.0
 11
-46.51430989990944
 21
16.65798433247539
 31
0.0
  0
LINE
  5
57D
330
2
100
AcDbEntity
  8
GAIKEI
 62
     1
100
AcDbLine
 10
-46.53240480127368
 20
16.52610944923424
 30
0.0
 11
-46.46002519581663
 21
16.52610944923424
 31
0.0
  0
LINE
  5
57E
330
2
100
AcDbEntity
  8
GAIKEI
 62
     1
100
AcDbLine
 10
-46.56575247289788
 20
16.44539292587114
 30
0.0
 11
-46.51430989990944
 21
16.39423456599314
 31
0.0
  0
LINE
  5
57F
330
2
100
AcDbEntity
  8
GAIKEI
 62
     1
100
AcDbLine
 10
-46.64627952085402
 20
16.412045254247
 30
0.0
 11
-46.64627952085402
 21
16.33966564878989
 31
0.0
  0
LINE
  5
580
330
2
100
AcDbEntity
  8
GAIKEI
 62
     1
100
AcDbLine
 10
-46.72680656881015
 20
16.44539292587114
 30
0.0
 11
-46.77805966639168
 21
16.39423456599314
 31
0.0
  0
LINE
  5
581
330
2
100
AcDbEntity
  8
GAIKEI
 62
     1
100
AcDbLine
 10
-46.7601542404344
 20
16.52610944923424
 30
0.0
 11
-46.83253384589146
 21
16.52610944923424
 31
0.0
  0
LINE
  5
582
330
2
100
AcDbEntity
  8
GAIKEI
 62
     1
100
AcDbLine
 10
-46.72680656881015
 20
16.60682597259739
 30
0.0
 11
-46.77805966639168
 21
16.65798433247539
 31
0.0
  0
LINE
  5
583
330
2
100
AcDbEntity
  8
GAIKEI
 62
     1
100
AcDbLine
 10
-46.64627952085402
 20
16.63998416881463
 30
0.0
 11
-46.64627952085402
 21
16.71236377427169
 31
0.0
  0
CIRCLE
  5
584
330
2
100
AcDbEntity
  8
GAIKEI
 62
     1
100
AcDbCircle
 10
-46.64618478315061
 20
16.52610944923424
 30
0.0
 40
0.0778743922587765
  0
CIRCLE
  5
585
330
2
100
AcDbEntity
  8
GAIKEI
 62
     1
100
AcDbCircle
 10
-46.64618478315061
 20
16.1644008973559
 30
0.0
 40
0.0778743922587765
  0
LINE
  5
586
330
2
100
AcDbEntity
  8
GAIKEI
 62
     1
100
AcDbLine
 10
-19.13227146371213
 20
12.00333148520258
 30
0.0
 11
-14.30764392739485
 21
12.00333148520258
 31
0.0
  0
LINE
  5
587
330
2
100
AcDbEntity
  8
GAIKEI
 62
     1
100
AcDbLine
 10
-19.10261856252356
 20
12.16514348274279
 30
0.0
 11
-14.30764392739485
 21
12.16514348274279
 31
0.0
  0
LINE
  5
588
330
2
100
AcDbEntity
  8
GAIKEI
 62
     1
100
AcDbLine
 10
-19.05392338293598
 20
12.44253547852588
 30
0.0
 11
-14.30764392739485
 21
12.44253547852588
 31
0.0
  0
CIRCLE
  5
589
330
2
100
AcDbEntity
  8
GAIKEI
 62
     1
100
AcDbCircle
 10
-34.2462983568995
 20
12.79609658790514
 30
0.0
 40
0.2726077417574568
  0
CIRCLE
  5
58A
330
2
100
AcDbEntity
  8
GAIKEI
 62
     1
100
AcDbCircle
 10
-46.04142665299986
 20
12.79609658790514
 30
0.0
 40
0.2727024794609345
  0
CIRCLE
  5
58B
330
2
100
AcDbEntity
  8
GAIKEI
 62
     1
100
AcDbCircle
 10
-44.16817804213268
 20
15.505594907371
 30
0.0
 40
0.2726077417574568
  0
CIRCLE
  5
58C
330
2
100
AcDbEntity
  8
GAIKEI
 62
     1
100
AcDbCircle
 10
-34.25984584849687
 20
15.505594907371
 30
0.0
 40
0.2726077417574568
  0
CIRCLE
  5
58D
330
2
100
AcDbEntity
  8
GAIKEI
 62
     1
100
AcDbCircle
 10
-49.26326647287385
 20
13.85090617842729
 30
0.0
 40
0.0554689253862697
  0
CIRCLE
  5
58E
330
2
100
AcDbEntity
  8
GAIKEI
 62
     1
100
AcDbCircle
 10
-49.50986871502671
 20
13.85090617842729
 30
0.0
 40
0.055279449979314
  0
CIRCLE
  5
58F
330
2
100
AcDbEntity
  8
GAIKEI
 62
     1
100
AcDbCircle
 10
-49.756376219476
 20
13.85090617842729
 30
0.0
 40
0.0553741876827918
  0
CIRCLE
  5
590
330
2
100
AcDbEntity
  8
GAIKEI
 62
     1
100
AcDbCircle
 10
-49.26326647287385
 20
14.14667728868505
 30
0.0
 40
0.0554689253862697
  0
CIRCLE
  5
591
330
2
100
AcDbEntity
  8
GAIKEI
 62
     1
100
AcDbCircle
 10
-49.50986871502671
 20
14.14667728868505
 30
0.0
 40
0.055279449979314
  0
CIRCLE
  5
592
330
2
100
AcDbEntity
  8
GAIKEI
 62
     1
100
AcDbCircle
 10
-49.756376219476
 20
14.14667728868505
 30
0.0
 40
0.0553741876827918
  0
CIRCLE
  5
593
330
2
100
AcDbEntity
  8
GAIKEI
 62
     1
100
AcDbCircle
 10
-49.26326647287385
 20
14.44244839894281
 30
0.0
 40
0.0554689253862697
  0
CIRCLE
  5
594
330
2
100
AcDbEntity
  8
GAIKEI
 62
     1
100
AcDbCircle
 10
-49.50986871502671
 20
14.44244839894281
 30
0.0
 40
0.055279449979314
  0
CIRCLE
  5
595
330
2
100
AcDbEntity
  8
GAIKEI
 62
     1
100
AcDbCircle
 10
-49.756376219476
 20
14.44244839894281
 30
0.0
 40
0.0553741876827918
  0
LINE
  5
596
330
2
100
AcDbEntity
  8
GAIKEI
 62
     1
100
AcDbLine
 10
-54.30015383383318
 20
18.11751339225486
 30
0.0
 11
-14.30167545207575
 21
18.11751339225486
 31
0.0
  0
LINE
  5
597
330
2
100
AcDbEntity
  8
GAIKEI
 62
     1
100
AcDbLine
 10
-54.30015383383318
 20
10.15859892308231
 30
0.0
 11
-54.30015383383318
 21
18.11751339225486
 31
0.0
  0
LINE
  5
598
330
2
100
AcDbEntity
  8
GAIKEI
 62
     1
100
AcDbLine
 10
-14.30167545207575
 20
10.15859892308231
 30
0.0
 11
-54.30015383383318
 21
10.15859892308231
 31
0.0
  0
LINE
  5
599
330
2
100
AcDbEntity
  8
GAIKEI
 62
     1
100
AcDbLine
 10
-14.30167545207575
 20
18.11751339225486
 30
0.0
 11
-14.30167545207575
 21
10.15859892308231
 31
0.0
  0
LINE
  5
59A
330
2
100
AcDbEntity
  8
GAIKEI
 62
     1
100
AcDbLine
 10
-55.3130893594182
 20
18.42048456797693
 30
0.0
 11
-13.31308751628461
 21
18.42048456797693
 31
0.0
  0
LINE
  5
59B
330
2
100
AcDbEntity
  8
GAIKEI
 62
     1
100
AcDbLine
 10
-13.31308751628461
 20
9.855817222767198
 30
0.0
 11
-55.3130893594182
 21
9.855817222767198
 31
0.0
  0
LINE
  5
59C
330
2
100
AcDbEntity
  8
GAIKEI
100
AcDbLine
 10
-55.3130893594182
 20
18.53814879569643
 30
0.0
 11
-13.31308751628461
 21
18.53814879569643
 31
0.0
  0
LINE
  5
59D
330
2
100
AcDbEntity
  8
GAIKEI
100
AcDbLine
 10
-13.31308751628461
 20
9.738152995047697
 30
0.0
 11
-55.3130893594182
 21
9.738152995047697
 31
0.0
  0
CIRCLE
  5
59E
330
2
100
AcDbEntity
  8
GAIKEI
 62
     1
100
AcDbCircle
 10
-46.0412845464446
 20
15.505594907371
 30
0.0
 40
0.1451381617280361
  0
CIRCLE
  5
59F
330
2
100
AcDbEntity
  8
GAIKEI
 62
     1
100
AcDbCircle
 10
-46.04142665299986
 20
15.505594907371
 30
0.0
 40
0.2727024794609345
  0
CIRCLE
  5
5A0
330
2
100
AcDbEntity
  8
GAIKEI
 62
     1
100
AcDbCircle
 10
-34.26003532390388
 20
15.505594907371
 30
0.0
 40
0.1450907928762971
  0
CIRCLE
  5
5A1
330
2
100
AcDbEntity
  8
GAIKEI
 62
     1
100
AcDbCircle
 10
-44.16813067328097
 20
12.79571763709117
 30
0.0
 40
0.1452328994315139
  0
CIRCLE
  5
5A2
330
2
100
AcDbEntity
  8
GAIKEI
 62
     1
100
AcDbCircle
 10
-44.16817804213268
 20
12.79609658790514
 30
0.0
 40
0.2726077417574568
  0
CIRCLE
  5
5A3
330
2
100
AcDbEntity
  8
GAIKEI
 62
     1
100
AcDbCircle
 10
-34.24644046345476
 20
12.79571763709117
 30
0.0
 40
0.1451381617280361
  0
CIRCLE
  5
5A4
330
2
100
AcDbEntity
  8
GAIKEI
 62
     1
100
AcDbCircle
 10
-41.68633442412397
 20
15.51677395638143
 30
0.0
 40
0.4907886728669001
  0
CIRCLE
  5
5A5
330
2
100
AcDbEntity
  8
GAIKEI
 62
     1
100
AcDbCircle
 10
-41.68657126838268
 20
15.51677395638143
 30
0.0
 40
0.6071739415894148
  0
CIRCLE
  5
5A6
330
2
100
AcDbEntity
  8
GAIKEI
 62
     1
100
AcDbCircle
 10
-39.82791226385115
 20
15.51677395638143
 30
0.0
 40
0.4906465663116834
  0
CIRCLE
  5
5A7
330
2
100
AcDbEntity
  8
GAIKEI
 62
     1
100
AcDbCircle
 10
-39.82781752614767
 20
15.51677395638143
 30
0.0
 40
0.6071739415894148
  0
CIRCLE
  5
5A8
330
2
100
AcDbEntity
  8
GAIKEI
 62
     1
100
AcDbCircle
 10
-37.96939536587479
 20
15.51677395638143
 30
0.0
 40
0.4906939351634221
  0
CIRCLE
  5
5A9
330
2
100
AcDbEntity
  8
GAIKEI
 62
     1
100
AcDbCircle
 10
-37.96915852161607
 20
15.51677395638143
 30
0.0
 40
0.6070792038859369
  0
CIRCLE
  5
5AA
330
2
100
AcDbEntity
  8
GAIKEI
 62
     1
100
AcDbCircle
 10
-36.11064162363977
 20
15.51677395638143
 30
0.0
 40
0.4906939351634221
  0
CIRCLE
  5
5AB
330
2
100
AcDbEntity
  8
GAIKEI
 62
     1
100
AcDbCircle
 10
-36.11064162363977
 20
15.51677395638143
 30
0.0
 40
0.6073160481446314
  0
CIRCLE
  5
5AC
330
2
100
AcDbEntity
  8
GAIKEI
 62
     1
100
AcDbCircle
 10
-31.73456499344354
 20
12.81997048918151
 30
0.0
 40
0.2537075699136296
  0
CIRCLE
  5
5AD
330
2
100
AcDbEntity
  8
GAIKEI
 62
     1
100
AcDbCircle
 10
-31.73456499344354
 20
12.81997048918151
 30
0.0
 40
0.4523725341066398
  0
CIRCLE
  5
5AE
330
2
100
AcDbEntity
  8
GAIKEI
 62
     1
100
AcDbCircle
 10
-29.79391050655193
 20
12.81997048918151
 30
0.0
 40
0.2536602010618907
  0
CIRCLE
  5
5AF
330
2
100
AcDbEntity
  8
GAIKEI
 62
     1
100
AcDbCircle
 10
-29.79386313770021
 20
12.81997048918151
 30
0.0
 40
0.4522777964031621
  0
CIRCLE
  5
5B0
330
2
100
AcDbEntity
  8
GAIKEI
 62
     1
100
AcDbCircle
 10
-27.85301917540164
 20
12.81997048918151
 30
0.0
 40
0.2535654633584129
  0
CIRCLE
  5
5B1
330
2
100
AcDbEntity
  8
GAIKEI
 62
     1
100
AcDbCircle
 10
-22.14635149985929
 20
14.16562482938059
 30
0.0
 40
1.698173334840108
  0
LINE
  5
5B2
330
2
100
AcDbEntity
  8
GAIKEI
 62
     1
100
AcDbLine
 10
-23.10490758364801
 20
12.75232776889834
 30
0.0
 11
-23.54941688836595
 21
12.12156413914295
 31
0.0
  0
LINE
  5
5B3
330
2
100
AcDbEntity
  8
GAIKEI
100
AcDbLine
 10
10.91398570741387
 20
9.800869354750034
 30
0.0
 11
10.91398570741387
 21
18.5951808931901
 31
0.0
  0
LINE
  5
5B4
330
2
100
AcDbEntity
  8
GAIKEI
  6
AI9-LTYPE1
 62
     1
100
AcDbLine
 10
13.76583146937895
 20
9.933123188805096
 30
0.0
 11
13.76583146937895
 21
18.60067567999181
 31
0.0
  0
LINE
  5
5B6
330
2
100
AcDbEntity
  8
GAIKEI
100
AcDbLine
 10
45.64019374096335
 20
9.92895472985208
 30
0.0
 11
45.64019374096335
 21
18.54518089319003
 31
0.0
  0
LINE
  5
5B7
330
2
100
AcDbEntity
  8
GAIKEI
100
AcDbLine
 10
45.59019374096339
 20
18.5951808931901
 30
0.0
 11
10.79019374436296
 21
18.5951808931901
 31
0.0
  0
ARC
  5
5B8
330
2
100
AcDbEntity
  8
GAIKEI
 62
     1
100
AcDbCircle
 10
45.59019374096339
 20
18.54518089319003
 30
0.0
 40
0.05
100
AcDbArc
 50
0.000000000000007
 51
90.0
  0
LINE
  5
5B9
330
2
100
AcDbEntity
  8
GAIKEI
100
AcDbLine
 10
45.64019374096335
 20
9.92895472985208
 30
0.0
 11
11.06935554111754
 21
9.92895472985208
 31
0.0
  0
LINE
  5
5BA
330
2
100
AcDbEntity
  8
GAIKEI
 62
     1
100
AcDbLine
 10
42.96228640258362
 20
12.49710439572908
 30
0.0
 11
14.85038869879315
 21
12.49710439572908
 31
0.0
  0
LINE
  5
5BB
330
2
100
AcDbEntity
  8
GAIKEI
 62
     1
100
AcDbLine
 10
42.96228640258362
 20
12.14657489286111
 30
0.0
 11
14.85038869879315
 21
12.14657489286111
 31
0.0
  0
LINE
  5
5BC
330
2
100
AcDbEntity
  8
GAIKEI
 62
     1
100
AcDbLine
 10
42.96228640258362
 20
10.9631115010161
 30
0.0
 11
14.85038869879315
 21
10.9631115010161
 31
0.0
  0
LINE
  5
5BD
330
2
100
AcDbEntity
  8
GAIKEI
 62
     1
100
AcDbLine
 10
42.96228640258362
 20
10.61258199814813
 30
0.0
 11
14.85038869879315
 21
10.61258199814813
 31
0.0
  0
ARC
  5
5BE
330
2
100
AcDbEntity
  8
GAIKEI
 62
     1
100
AcDbCircle
 10
42.96238110306989
 20
11.55484319693858
 30
0.0
 40
0.5917317035004231
100
AcDbArc
 50
269.9908304081513
 51
90.0091695918487
  0
ARC
  5
5BF
330
2
100
AcDbEntity
  8
GAIKEI
 62
     1
100
AcDbCircle
 10
42.96238111682117
 20
11.55484319693858
 30
0.0
 40
0.9422612035507484
100
AcDbArc
 50
269.994240741251
 51
90.0057592587491
  0
ARC
  5
5C0
330
2
100
AcDbEntity
  8
GAIKEI
 62
     1
100
AcDbCircle
 10
14.85029399830688
 20
11.55484319693858
 30
0.0
 40
0.5917317035004231
100
AcDbArc
 50
89.99083040815134
 51
270.0091695918487
  0
ARC
  5
5C1
330
2
100
AcDbEntity
  8
GAIKEI
 62
     1
100
AcDbCircle
 10
14.8502939845556
 20
11.55484319693858
 30
0.0
 40
0.9422612035507484
100
AcDbArc
 50
89.99424074125093
 51
270.005759258749
  0
LINE
  5
5C2
330
2
100
AcDbEntity
  8
GAIKEI
100
AcDbLine
 10
42.61962012910429
 20
9.916070402179117
 30
0.0
 11
42.54837647532855
 21
8.996828051862962
 31
0.0
  0
LINE
  5
5C3
330
2
100
AcDbEntity
  8
GAIKEI
100
AcDbLine
 10
42.39882495468571
 20
8.858418680552574
 30
0.0
 11
40.70550128378977
 21
8.858418680552574
 31
0.0
  0
LINE
  5
5C4
330
2
100
AcDbEntity
  8
GAIKEI
100
AcDbLine
 10
40.5559509529258
 20
8.996812710603192
 30
0.0
 11
40.48461124352792
 21
9.916070402179117
 31
0.0
  0
ARC
  5
5C5
330
2
100
AcDbEntity
  8
GAIKEI
100
AcDbCircle
 10
42.39882495468571
 20
9.008418680552606
 30
0.0
 40
0.15
100
AcDbArc
 50
270.0
 51
355.5682883442204
  0
ARC
  5
5C6
330
2
100
AcDbEntity
  8
GAIKEI
100
AcDbCircle
 10
40.70550128378977
 20
9.008418680552606
 30
0.0
 40
0.15
100
AcDbArc
 50
184.4375891816536
 51
270.0000000000001
  0
LINE
  5
5C7
330
2
100
AcDbEntity
  8
GAIKEI
100
AcDbLine
 10
15.78563909556135
 20
9.771879405520962
 30
0.0
 11
15.72026939136612
 21
8.928427429951966
 31
0.0
  0
LINE
  5
5C8
330
2
100
AcDbEntity
  8
GAIKEI
100
AcDbLine
 10
15.57071787072328
 20
8.790018058641635
 30
0.0
 11
13.87739419982733
 21
8.790018058641635
 31
0.0
  0
LINE
  5
5C9
330
2
100
AcDbEntity
  8
GAIKEI
100
AcDbLine
 10
13.72784386896336
 20
8.928412088692198
 30
0.0
 11
13.66238658871356
 21
9.771870925953408
 31
0.0
  0
ARC
  5
5CA
330
2
100
AcDbEntity
  8
GAIKEI
100
AcDbCircle
 10
15.57071787072328
 20
8.940018058641614
 30
0.0
 40
0.15
100
AcDbArc
 50
270.0
 51
355.5682883442204
  0
ARC
  5
5CB
330
2
100
AcDbEntity
  8
GAIKEI
100
AcDbCircle
 10
13.87739419982733
 20
8.940018058641614
 30
0.0
 40
0.15
100
AcDbArc
 50
184.4375891816536
 51
270.0000000000001
  0
LINE
  5
5CC
330
2
100
AcDbEntity
  8
GAIKEI
100
AcDbLine
 10
15.94252494448557
 20
9.928765254445123
 30
0.0
 11
15.78563909556135
 21
9.771879405520962
 31
0.0
  0
LINE
  5
5CD
330
2
100
AcDbEntity
  8
GAIKEI
100
AcDbLine
 10
13.49829219475754
 20
9.935965319909426
 30
0.0
 11
13.66238658871356
 21
9.771870925953408
 31
0.0
  0
LINE
  5
5CE
330
2
100
AcDbEntity
  8
GAIKEI
100
AcDbLine
 10
15.79833415979232
 20
9.800869354750034
 30
0.0
 11
13.63471448776562
 21
9.800869354750034
 31
0.0
  0
LINE
  5
5CF
330
2
100
AcDbEntity
  8
GAIKEI
100
AcDbLine
 10
13.62524071741779
 20
9.800869354750034
 30
0.0
 11
10.79019374436296
 21
9.800869354750034
 31
0.0
  0
LINE
  5
5D0
330
2
100
AcDbEntity
  8
GAIKEI
100
AcDbLine
 10
10.91777521555303
 20
10.07447184239402
 30
0.0
 11
11.06935554111754
 21
10.07447184239402
 31
0.0
  0
LINE
  5
5D1
330
2
100
AcDbEntity
  8
GAIKEI
100
AcDbLine
 10
11.06935554111754
 20
10.07447184239402
 30
0.0
 11
11.06935554111754
 21
9.92895472985208
 31
0.0
  0
ARC
  5
5D2
330
2
100
AcDbEntity
  8
GAIKEI
100
AcDbCircle
 10
10.79019374436296
 20
9.950869354750011
 30
0.0
 40
0.15
100
AcDbArc
 50
180.0
 51
270.0
  0
ARC
  5
5D3
330
2
100
AcDbEntity
  8
GAIKEI
100
AcDbCircle
 10
10.79019374436296
 20
18.44518089319007
 30
0.0
 40
0.15
100
AcDbArc
 50
90.0
 51
180.0
  0
LINE
  5
5D4
330
2
100
AcDbEntity
  8
GAIKEI
 62
     1
100
AcDbLine
 10
10.91398570741387
 20
18.19519830910667
 30
0.0
 11
13.19647835031867
 21
18.19519830910667
 31
0.0
  0
LINE
  5
5D5
330
2
100
AcDbEntity
  8
GAIKEI
 62
     1
100
AcDbLine
 10
13.57465078376066
 20
18.5951808931901
 30
0.0
 11
13.19647835031867
 21
18.19519830910667
 31
0.0
  0
LINE
  5
5D6
330
2
100
AcDbEntity
  8
GAIKEI
 62
     1
100
AcDbLine
 10
13.15193115084258
 20
18.5951808931901
 30
0.0
 11
13.14435213456437
 21
18.46917974756457
 31
0.0
  0
LINE
  5
5D7
330
2
100
AcDbEntity
  8
GAIKEI
 62
     1
100
AcDbLine
 10
13.14435213456437
 20
18.46917974756457
 30
0.0
 11
12.91258237920942
 21
18.19519830910667
 31
0.0
  0
ARC
  5
5D8
330
2
100
AcDbEntity
  8
GAIKEI
  6
Continuous
100
AcDbCircle
 10
32.08869923892041
 20
14.25297299198723
 30
0.0
 40
22.08478827921032
100
AcDbArc
 50
170.0928312573149
 51
189.907168742685
  0
LINE
  5
5D9
330
2
100
AcDbEntity
  8
GAIKEI
100
AcDbLine
 10
10.63659371163078
 20
18.19519830910667
 30
0.0
 11
10.49751876292538
 21
18.19519830910667
 31
0.0
  0
ARC
  5
5DA
330
2
100
AcDbEntity
  8
GAIKEI
100
AcDbCircle
 10
10.51732197144918
 20
18.00642540797997
 30
0.0
 40
0.1898087860654022
100
AcDbArc
 50
95.98870534936359
 51
165.8853323244955
  0
LINE
  5
5DB
330
2
100
AcDbEntity
  8
GAIKEI
100
AcDbLine
 10
10.63659371163078
 20
10.31074767486768
 30
0.0
 11
10.49751876292538
 21
10.31074767486768
 31
0.0
  0
ARC
  5
5DC
330
2
100
AcDbEntity
  8
GAIKEI
100
AcDbCircle
 10
10.51767801297728
 20
10.49993106536254
 30
0.0
 40
0.1902544364838039
100
AcDbArc
 50
194.208408075944
 51
263.9175542501998
  0
LINE
  5
5DD
330
2
100
AcDbEntity
  8
GAIKEI
100
AcDbLine
 10
8.700723478764812
 20
14.5032700045756
 30
0.0
 11
8.700723478764812
 21
13.93257007882516
 31
0.0
  0
ARC
  5
5DE
330
2
100
AcDbEntity
  8
GAIKEI
100
AcDbCircle
 10
11.80722899311854
 20
14.65927551077874
 30
0.0
 40
3.110420265603318
100
AcDbArc
 50
163.0434867003317
 51
182.8749198402581
  0
LINE
  5
5DF
330
2
100
AcDbEntity
  8
GAIKEI
100
AcDbLine
 10
8.996305113615676
 20
15.73050221542746
 30
0.0
 11
8.832029935785101
 21
15.56641651300384
 31
0.0
  0
LINE
  5
5E0
330
2
100
AcDbEntity
  8
GAIKEI
100
AcDbLine
 10
10.0482725730335
 20
15.80723975524449
 30
0.0
 11
8.996305113615676
 21
15.73050221542746
 31
0.0
  0
ARC
  5
5E1
330
2
100
AcDbEntity
  8
GAIKEI
100
AcDbCircle
 10
11.80722899311854
 20
13.77656457262208
 30
0.0
 40
3.110420265603318
100
AcDbArc
 50
177.1250801597416
 51
196.9565132996683
  0
LINE
  5
5E2
330
2
100
AcDbEntity
  8
GAIKEI
100
AcDbLine
 10
8.996305113615676
 20
12.70533786797335
 30
0.0
 11
8.832029935785101
 21
12.86942357039697
 31
0.0
  0
LINE
  5
5E3
330
2
100
AcDbEntity
  8
GAIKEI
100
AcDbLine
 10
10.0482725730335
 20
12.62860032815632
 30
0.0
 11
8.996305113615676
 21
12.70533786797335
 31
0.0
  0
LINE
  5
5E4
330
2
100
AcDbEntity
  8
GAIKEI
100
AcDbLine
 10
10.02648290123357
 20
15.47489989144423
 30
0.0
 11
10.02648290123357
 21
15.34359343442395
 31
0.0
  0
LINE
  5
5E5
330
2
100
AcDbEntity
  8
GAIKEI
 62
     1
100
AcDbLine
 10
10.02648290123357
 20
15.34359343442395
 30
0.0
 11
8.996305113615676
 21
15.28864556640684
 31
0.0
  0
LINE
  5
5E6
330
2
100
AcDbEntity
  8
GAIKEI
 62
     1
100
AcDbLine
 10
10.02648290123357
 20
15.47489989144423
 30
0.0
 11
8.996305113615676
 21
15.42014149883403
 31
0.0
  0
LINE
  5
5E7
330
2
100
AcDbEntity
  8
GAIKEI
 62
     1
100
AcDbLine
 10
8.996305113615676
 20
15.01674835742545
 30
0.0
 11
10.0045037540267
 21
15.04460124224794
 31
0.0
  0
LINE
  5
5E8
330
2
100
AcDbEntity
  8
GAIKEI
100
AcDbLine
 10
10.0045037540267
 20
15.04460124224794
 30
0.0
 11
10.0045037540267
 21
14.91310530982071
 31
0.0
  0
LINE
  5
5E9
330
2
100
AcDbEntity
  8
GAIKEI
 62
     1
100
AcDbLine
 10
10.0045037540267
 20
14.91310530982071
 30
0.0
 11
8.996305113615676
 21
14.88506294959131
 31
0.0
  0
LINE
  5
5EA
330
2
100
AcDbEntity
  8
GAIKEI
 62
     1
100
AcDbLine
 10
8.996305113615676
 20
14.5453335449198
 30
0.0
 11
10.0045037540267
 21
14.5453335449198
 31
0.0
  0
LINE
  5
5EB
330
2
100
AcDbEntity
  8
GAIKEI
100
AcDbLine
 10
10.0045037540267
 20
14.5453335449198
 30
0.0
 11
10.0045037540267
 21
14.41402708789951
 31
0.0
  0
LINE
  5
5EC
330
2
100
AcDbEntity
  8
GAIKEI
 62
     1
100
AcDbLine
 10
10.0045037540267
 20
14.41402708789951
 30
0.0
 11
8.996305113615676
 21
14.41402708789951
 31
0.0
  0
LINE
  5
5ED
330
2
100
AcDbEntity
  8
GAIKEI
 62
     1
100
AcDbLine
 10
8.996305113615676
 20
14.02029719224566
 30
0.0
 11
10.0045037540267
 21
14.02029719224566
 31
0.0
  0
LINE
  5
5EE
330
2
100
AcDbEntity
  8
GAIKEI
100
AcDbLine
 10
10.0045037540267
 20
14.02029719224566
 30
0.0
 11
10.0045037540267
 21
13.88880125981836
 31
0.0
  0
LINE
  5
5EF
330
2
100
AcDbEntity
  8
GAIKEI
 62
     1
100
AcDbLine
 10
10.0045037540267
 20
13.88880125981836
 30
0.0
 11
8.996305113615676
 21
13.88880125981836
 31
0.0
  0
LINE
  5
5F0
330
2
100
AcDbEntity
  8
GAIKEI
 62
     1
100
AcDbLine
 10
8.996305113615676
 20
13.54907185514696
 30
0.0
 11
10.0045037540267
 21
13.52102949491746
 31
0.0
  0
LINE
  5
5F1
330
2
100
AcDbEntity
  8
GAIKEI
100
AcDbLine
 10
10.0045037540267
 20
13.52102949491746
 30
0.0
 11
10.0045037540267
 21
13.38953356249021
 31
0.0
  0
LINE
  5
5F2
330
2
100
AcDbEntity
  8
GAIKEI
 62
     1
100
AcDbLine
 10
10.0045037540267
 20
13.38953356249021
 30
0.0
 11
8.996305113615676
 21
13.41757592271966
 31
0.0
  0
LINE
  5
5F3
330
2
100
AcDbEntity
  8
GAIKEI
 62
     1
100
AcDbLine
 10
8.996305113615676
 20
13.14548923833138
 30
0.0
 11
10.02648290123357
 21
13.09054137031421
 31
0.0
  0
LINE
  5
5F4
330
2
100
AcDbEntity
  8
GAIKEI
100
AcDbLine
 10
10.02648290123357
 20
13.09054137031421
 30
0.0
 11
10.02648290123357
 21
12.95923491329392
 31
0.0
  0
LINE
  5
5F5
330
2
100
AcDbEntity
  8
GAIKEI
 62
     1
100
AcDbLine
 10
10.02648290123357
 20
12.95923491329392
 30
0.0
 11
8.996305113615676
 21
13.01399330590413
 31
0.0
  0
ARC
  5
5F6
330
2
100
AcDbEntity
  8
GAIKEI
 62
     1
100
AcDbCircle
 10
8.996305113546497
 20
13.07974127211776
 30
0.0
 40
0.0657479662136211
100
AcDbArc
 50
89.99999993973455
 51
270.0000000602754
  0
ARC
  5
5F7
330
2
100
AcDbEntity
  8
GAIKEI
 62
     1
100
AcDbCircle
 10
8.996305315279244
 20
13.95454922603198
 30
0.0
 40
0.0657479662139418
100
AcDbArc
 50
90.00017573883987
 51
269.9998242611701
  0
ARC
  5
5F8
330
2
100
AcDbEntity
  8
GAIKEI
 62
     1
100
AcDbCircle
 10
8.996305113546554
 20
13.48332388893334
 30
0.0
 40
0.0657479662136268
100
AcDbArc
 50
89.99999993975434
 51
270.0000000602555
  0
ARC
  5
5F9
330
2
100
AcDbEntity
  8
GAIKEI
 62
     1
100
AcDbCircle
 10
8.996210523705938
 20
14.4796803164096
 30
0.0
 40
0.0656532966503122
100
AcDbArc
 50
89.91745114465654
 51
270.0825488553336
  0
ARC
  5
5FA
330
2
100
AcDbEntity
  8
GAIKEI
 62
     1
100
AcDbCircle
 10
8.99639997109341
 20
14.95090565350835
 30
0.0
 40
0.0658427722461135
100
AcDbArc
 50
90.08254413998777
 51
269.9174558600024
  0
ARC
  5
5FB
330
2
100
AcDbEntity
  8
GAIKEI
 62
     1
100
AcDbCircle
 10
8.996305113546497
 20
15.35439353262046
 30
0.0
 40
0.0657479662136098
100
AcDbArc
 50
89.99999993973455
 51
270.0000000602555
  0
LINE
  5
5FC
330
2
100
AcDbEntity
  8
GAIKEI
100
AcDbLine
 10
10.08105181843677
 20
16.15795873351942
 30
0.0
 11
9.93875578781308
 21
16.15795873351942
 31
0.0
  0
LINE
  5
5FD
330
2
100
AcDbEntity
  8
GAIKEI
100
AcDbLine
 10
9.93875578781308
 20
16.15795873351942
 30
0.0
 11
9.851028674392637
 21
15.79643965704804
 31
0.0
  0
LINE
  5
5FE
330
2
100
AcDbEntity
  8
GAIKEI
100
AcDbLine
 10
10.09238966732374
 20
12.27807082528835
 30
0.0
 11
9.93875578781308
 21
12.27807082528835
 31
0.0
  0
LINE
  5
5FF
330
2
100
AcDbEntity
  8
GAIKEI
100
AcDbLine
 10
9.93875578781308
 20
12.27807082528835
 30
0.0
 11
9.851028674392637
 21
12.63958990175979
 31
0.0
  0
LINE
  5
600
330
2
100
AcDbEntity
  8
GAIKEI
100
AcDbLine
 10
-51.24058445101145
 20
9.728489749292977
 30
0.0
 11
-51.16915222258916
 21
8.929850908974854
 31
0.0
  0
LINE
  5
601
330
2
100
AcDbEntity
  8
GAIKEI
100
AcDbLine
 10
-51.01643504458286
 20
8.790018058641576
 30
0.0
 11
-49.32944075875314
 21
8.790018058641576
 31
0.0
  0
LINE
  5
602
330
2
100
AcDbEntity
  8
GAIKEI
100
AcDbLine
 10
-49.10529135232462
 20
9.728489749292977
 30
0.0
 11
-49.17672358074691
 21
8.929850908974854
 31
0.0
  0
ARC
  5
603
330
2
100
AcDbEntity
  8
GAIKEI
100
AcDbCircle
 10
-51.01352425667893
 20
8.946507814143046
 30
0.0
 40
0.1565168242175352
100
AcDbArc
 50
186.1091266463218
 51
268.9343926585926
  0
ARC
  5
604
330
2
100
AcDbEntity
  8
GAIKEI
100
AcDbCircle
 10
-49.33241581027397
 20
8.946577999068722
 30
0.0
 40
0.1565882047860116
100
AcDbArc
 50
271.0886398046525
 51
353.8678408904634
  0
LINE
  5
605
330
2
100
AcDbEntity
  8
GAIKEI
100
AcDbLine
 10
-17.38559242469136
 20
9.728489749292977
 30
0.0
 11
-17.45702465311365
 21
8.929850908974854
 31
0.0
  0
LINE
  5
606
330
2
100
AcDbEntity
  8
GAIKEI
100
AcDbLine
 10
-17.60974183111995
 20
8.790018058641576
 30
0.0
 11
-19.29673611694966
 21
8.790018058641576
 31
0.0
  0
LINE
  5
607
330
2
100
AcDbEntity
  8
GAIKEI
100
AcDbLine
 10
-19.52088552337818
 20
9.728489749292977
 30
0.0
 11
-19.4494532949559
 21
8.929850908974854
 31
0.0
  0
ARC
  5
608
330
2
100
AcDbEntity
  8
GAIKEI
100
AcDbCircle
 10
-17.61265261902394
 20
8.946507814143046
 30
0.0
 40
0.1565168242175352
100
AcDbArc
 50
271.0656073414074
 51
353.8908733536781
  0
ARC
  5
609
330
2
100
AcDbEntity
  8
GAIKEI
100
AcDbCircle
 10
-19.29376106542884
 20
8.946577999068722
 30
0.0
 40
0.1565882047860116
100
AcDbArc
 50
186.1321591095366
 51
268.9113601953475
  0
LINE
  5
60A
330
2
100
AcDbEntity
  8
GAIKEI
100
AcDbLine
 10
-33.24582083932194
 20
9.728489749292977
 30
0.0
 11
-33.31725306774422
 21
8.929850908974854
 31
0.0
  0
LINE
  5
60B
330
2
100
AcDbEntity
  8
GAIKEI
100
AcDbLine
 10
-33.46997024575046
 20
8.790018058641576
 30
0.0
 11
-35.15696453158017
 21
8.790018058641576
 31
0.0
  0
LINE
  5
60C
330
2
100
AcDbEntity
  8
GAIKEI
100
AcDbLine
 10
-35.38111393800875
 20
9.728489749292977
 30
0.0
 11
-35.30968170958642
 21
8.929850908974854
 31
0.0
  0
ARC
  5
60D
330
2
100
AcDbEntity
  8
GAIKEI
100
AcDbCircle
 10
-33.47288103365446
 20
8.946507814143046
 30
0.0
 40
0.1565168242175352
100
AcDbArc
 50
271.0656073414074
 51
353.8908733536781
  0
ARC
  5
60E
330
2
100
AcDbEntity
  8
GAIKEI
100
AcDbCircle
 10
-35.15398948005935
 20
8.946577999068722
 30
0.0
 40
0.1565882047860116
100
AcDbArc
 50
186.1321591095366
 51
268.9113601953475
  0
LINE
  5
60F
330
2
100
AcDbEntity
  8
GAIKEI
100
AcDbLine
 10
-55.3130893594182
 20
18.53814879569643
 30
0.0
 11
-55.3130893594182
 21
9.738152995047697
 31
0.0
  0
LINE
  5
610
330
2
100
AcDbEntity
  8
GAIKEI
  6
HIDDEN2
 62
     1
100
AcDbLine
 10
-55.59123925682911
 20
18.53814879569643
 30
0.0
 11
-55.59123925682911
 21
9.738342470454654
 31
0.0
  0
LINE
  5
612
330
2
100
AcDbEntity
  8
GAIKEI
  6
HIDDEN2
 62
     1
100
AcDbLine
 10
-55.31214198238342
 20
9.738342470454654
 30
0.0
 11
-58.05157741614834
 21
9.738342470454654
 31
0.0
  0
ARC
  5
613
330
2
100
AcDbEntity
  8
GAIKEI
  6
HIDDEN2
 62
     1
100
AcDbCircle
 10
-58.05086360737533
 20
10.019669356929
 30
0.0
 40
0.2813277920439468
100
AcDbArc
 50
180.1453758750915
 51
269.8546241249091
  0
LINE
  5
614
330
2
100
AcDbEntity
  8
GAIKEI
  6
HIDDEN2
 62
     1
100
AcDbLine
 10
-58.33219049384968
 20
10.01895554815598
 30
0.0
 11
-58.33219049384968
 21
18.25772519340205
 31
0.0
  0
LINE
  5
615
330
2
100
AcDbEntity
  8
GAIKEI
  6
HIDDEN2
 62
     1
100
AcDbLine
 10
-58.05157741614834
 20
18.53814879569643
 30
0.0
 11
-55.3130893594182
 21
18.53814879569643
 31
0.0
  0
ARC
  5
616
330
2
100
AcDbEntity
  8
GAIKEI
  6
HIDDEN2
 62
     1
100
AcDbCircle
 10
-58.05090392473232
 20
18.25686170750532
 30
0.0
 40
0.2812878944670611
100
AcDbArc
 50
90.13718419208078
 51
179.8241155192726
  0
LINE
  5
617
330
2
100
AcDbEntity
  8
GAIKEI
  6
HIDDEN2
 62
     1
100
AcDbLine
 10
-57.83822810791628
 20
10.07049285884795
 30
0.0
 11
-57.43559286813547
 21
10.07049285884795
 31
0.0
  0
LINE
  5
618
330
2
100
AcDbEntity
  8
GAIKEI
  6
HIDDEN2
 62
     1
100
AcDbLine
 10
-57.83822810791628
 20
10.65900347285219
 30
0.0
 11
-57.46792538283603
 21
10.65900347285219
 31
0.0
  0
ARC
  5
619
330
2
100
AcDbEntity
  8
GAIKEI
  6
HIDDEN2
 62
     1
100
AcDbCircle
 10
-57.838038571467
 20
10.36474816585007
 30
0.0
 40
0.2942553680444666
100
AcDbArc
 50
90.0369054927664
 51
269.9630945072335
  0
ARC
  5
61A
330
2
100
AcDbEntity
  8
GAIKEI
  6
HIDDEN2
 62
     1
100
AcDbCircle
 10
-57.43540345369229
 20
10.36474816585007
 30
0.0
 40
0.2942553679658965
100
AcDbArc
 50
269.9631182635735
 51
90.03688173642663
  0
LINE
  5
61B
330
2
100
AcDbEntity
  8
GAIKEI
  6
HIDDEN2
 62
     1
100
AcDbLine
 10
-57.83822810791628
 20
17.64325644864482
 30
0.0
 11
-57.43559286813547
 21
17.64325644864482
 31
0.0
  0
LINE
  5
61C
330
2
100
AcDbEntity
  8
GAIKEI
  6
HIDDEN2
 62
     1
100
AcDbLine
 10
-57.83822810791628
 20
18.23176706264911
 30
0.0
 11
-57.46792538283603
 21
18.23176706264911
 31
0.0
  0
ARC
  5
61D
330
2
100
AcDbEntity
  8
GAIKEI
  6
HIDDEN2
 62
     1
100
AcDbCircle
 10
-57.838038571467
 20
17.93751175564699
 30
0.0
 40
0.2942553680444666
100
AcDbArc
 50
90.0369054927664
 51
269.9630945072335
  0
ARC
  5
61E
330
2
100
AcDbEntity
  8
GAIKEI
  6
HIDDEN2
 62
     1
100
AcDbCircle
 10
-57.43540345369229
 20
17.93751175564699
 30
0.0
 40
0.2942553679658965
100
AcDbArc
 50
269.9631182635735
 51
90.03688173642663
  0
LINE
  5
61F
330
2
100
AcDbEntity
  8
GAIKEI
100
AcDbLine
 10
-13.31308751628467
 20
18.53814879569643
 30
0.0
 11
-13.31308751628467
 21
9.738152995047697
 31
0.0
  0
LINE
  5
620
330
2
100
AcDbEntity
  8
GAIKEI
  6
HIDDEN2
 62
     1
100
AcDbLine
 10
-13.0349376188737
 20
18.53814879569643
 30
0.0
 11
-13.0349376188737
 21
9.738342470454654
 31
0.0
  0
LINE
  5
621
330
2
100
AcDbEntity
  8
GAIKEI
  6
HIDDEN2
 62
     1
100
AcDbLine
 10
-13.31403489331944
 20
9.738342470454654
 30
0.0
 11
-10.57459945955446
 21
9.738342470454654
 31
0.0
  0
ARC
  5
622
330
2
100
AcDbEntity
  8
GAIKEI
  6
HIDDEN2
 62
     1
100
AcDbCircle
 10
-10.57531326832747
 20
10.019669356929
 30
0.0
 40
0.2813277920439468
100
AcDbArc
 50
270.1453758750909
 51
359.8546241249085
  0
LINE
  5
623
330
2
100
AcDbEntity
  8
GAIKEI
  6
HIDDEN2
 62
     1
100
AcDbLine
 10
-10.29398638185313
 20
10.01895554815598
 30
0.0
 11
-10.29398638185313
 21
18.25772519340205
 31
0.0
  0
LINE
  5
624
330
2
100
AcDbEntity
  8
GAIKEI
  6
HIDDEN2
 62
     1
100
AcDbLine
 10
-10.57459945955446
 20
18.53814879569643
 30
0.0
 11
-13.31308751628467
 21
18.53814879569643
 31
0.0
  0
ARC
  5
625
330
2
100
AcDbEntity
  8
GAIKEI
  6
HIDDEN2
 62
     1
100
AcDbCircle
 10
-10.57527295097043
 20
18.25686170750532
 30
0.0
 40
0.2812878944670611
100
AcDbArc
 50
0.1758844807273601
 51
89.86281580791922
  0
LINE
  5
626
330
2
100
AcDbEntity
  8
GAIKEI
  6
HIDDEN2
 62
     1
100
AcDbLine
 10
-10.78794876778653
 20
10.07049285884795
 30
0.0
 11
-11.19058400756734
 21
10.07049285884795
 31
0.0
  0
LINE
  5
627
330
2
100
AcDbEntity
  8
GAIKEI
  6
HIDDEN2
 62
     1
100
AcDbLine
 10
-10.78794876778653
 20
10.65900347285219
 30
0.0
 11
-11.15825149286678
 21
10.65900347285219
 31
0.0
  0
ARC
  5
628
330
2
100
AcDbEntity
  8
GAIKEI
  6
HIDDEN2
 62
     1
100
AcDbCircle
 10
-10.78813830423581
 20
10.36474816585007
 30
0.0
 40
0.2942553680444666
100
AcDbArc
 50
270.0369054927664
 51
89.96309450723362
  0
ARC
  5
629
330
2
100
AcDbEntity
  8
GAIKEI
  6
HIDDEN2
 62
     1
100
AcDbCircle
 10
-11.19077342201052
 20
10.36474816585007
 30
0.0
 40
0.2942553679658965
100
AcDbArc
 50
89.96311826357342
 51
270.0368817364266
  0
LINE
  5
62A
330
2
100
AcDbEntity
  8
GAIKEI
  6
HIDDEN2
 62
     1
100
AcDbLine
 10
-10.78794876778653
 20
17.64325644864482
 30
0.0
 11
-11.19058400756734
 21
17.64325644864482
 31
0.0
  0
LINE
  5
62B
330
2
100
AcDbEntity
  8
GAIKEI
  6
HIDDEN2
 62
     1
100
AcDbLine
 10
-10.78794876778653
 20
18.23176706264911
 30
0.0
 11
-11.15825149286678
 21
18.23176706264911
 31
0.0
  0
ARC
  5
62C
330
2
100
AcDbEntity
  8
GAIKEI
  6
HIDDEN2
 62
     1
100
AcDbCircle
 10
-10.78813830423581
 20
17.93751175564699
 30
0.0
 40
0.2942553680444666
100
AcDbArc
 50
270.0369054927664
 51
89.96309450723362
  0
ARC
  5
62D
330
2
100
AcDbEntity
  8
GAIKEI
  6
HIDDEN2
 62
     1
100
AcDbCircle
 10
-11.19077342201052
 20
17.93751175564699
 30
0.0
 40
0.2942553679658965
100
AcDbArc
 50
89.96311826357342
 51
270.0368817364266
  0
ELLIPSE
  5
62E
330
2
100
AcDbEntity
  8
GAIKEI
 62
     1
100
AcDbEllipse
 10
-51.61697734692881
 20
11.54006411519606
 30
0.0
 11
0.3032553888325309
 21
0.0
 31
0.0
210
0.0
220
0.0
230
1.0
 40
0.3942529102666627
 41
0.0
 42
6.283185307179585
  0
ELLIPSE
  5
62F
330
2
100
AcDbEntity
  8
GAIKEI
 62
     1
100
AcDbEllipse
 10
-51.61697734692881
 20
11.54006411519606
 30
0.0
 11
0.4364565999223827
 21
0.0
 31
0.0
210
0.0
220
0.0
230
0.9999999999999998
 40
0.3855006311389226
 41
0.0
 42
6.283185307179585
  0
ELLIPSE
  5
630
330
2
100
AcDbEntity
  8
GAIKEI
 62
     1
100
AcDbEllipse
 10
-51.61697734692881
 20
13.8198322116865
 30
0.0
 11
0.3032553888325309
 21
0.0
 31
0.0
210
0.0
220
0.0
230
1.0
 40
0.3942529102666626
 41
0.0
 42
6.283185307179585
  0
ELLIPSE
  5
631
330
2
100
AcDbEntity
  8
GAIKEI
 62
     1
100
AcDbEllipse
 10
-51.61697734692881
 20
13.8198322116865
 30
0.0
 11
0.4364565999223827
 21
0.0
 31
0.0
210
0.0
220
0.0
230
0.9999999999999998
 40
0.3855006311389226
 41
0.0
 42
6.283185307179585
  0
ELLIPSE
  5
632
330
2
100
AcDbEntity
  8
GAIKEI
 62
     1
100
AcDbEllipse
 10
-51.61697734692881
 20
15.21929756746101
 30
0.0
 11
0.3032553888325309
 21
0.0
 31
0.0
210
0.0
220
0.0
230
1.0
 40
0.3942529102666626
 41
0.0
 42
6.283185307179585
  0
ELLIPSE
  5
633
330
2
100
AcDbEntity
  8
GAIKEI
 62
     1
100
AcDbEllipse
 10
-51.61697734692881
 20
15.21929756746101
 30
0.0
 11
0.4364565999223827
 21
0.0
 31
0.0
210
0.0
220
0.0
230
0.9999999999999998
 40
0.3855006311389226
 41
0.0
 42
6.283185307179585
  0
ELLIPSE
  5
634
330
2
100
AcDbEntity
  8
GAIKEI
 62
     1
100
AcDbEllipse
 10
-49.01055364884678
 20
15.86900873791205
 30
0.0
 11
0.3032553888325309
 21
0.0
 31
0.0
210
0.0
220
0.0
230
1.0
 40
0.3942529102666626
 41
0.0
 42
6.283185307179585
  0
ELLIPSE
  5
635
330
2
100
AcDbEntity
  8
GAIKEI
 62
     1
100
AcDbEllipse
 10
-49.01055364884678
 20
15.86900873791205
 30
0.0
 11
0.4364565999223827
 21
0.0
 31
0.0
210
0.0
220
0.0
230
0.9999999999999998
 40
0.3855006311389226
 41
0.0
 42
6.283185307179585
  0
ELLIPSE
  5
636
330
2
100
AcDbEntity
  8
GAIKEI
 62
     1
100
AcDbEllipse
 10
-48.80506757000336
 20
16.72449020031683
 30
0.0
 11
0.3032553888325309
 21
0.0
 31
0.0
210
0.0
220
0.0
230
1.0
 40
0.3942529102666626
 41
0.0
 42
6.283185307179585
  0
ELLIPSE
  5
637
330
2
100
AcDbEntity
  8
GAIKEI
 62
     1
100
AcDbEllipse
 10
-48.80506757000336
 20
16.72449020031683
 30
0.0
 11
0.4364565999223827
 21
0.0
 31
0.0
210
0.0
220
0.0
230
0.9999999999999998
 40
0.3855006311389226
 41
0.0
 42
6.283185307179585
  0
ELLIPSE
  5
638
330
2
100
AcDbEntity
  8
GAIKEI
 62
     1
100
AcDbEllipse
 10
-49.01055364884678
 20
12.43287223277116
 30
0.0
 11
0.3032553888325309
 21
0.0
 31
0.0
210
0.0
220
0.0
230
1.0
 40
0.3942529102666626
 41
0.0
 42
6.283185307179585
  0
ELLIPSE
  5
639
330
2
100
AcDbEntity
  8
GAIKEI
 62
     1
100
AcDbEllipse
 10
-49.01055364884678
 20
12.43287223277116
 30
0.0
 11
0.4364565999223827
 21
0.0
 31
0.0
210
0.0
220
0.0
230
0.9999999999999998
 40
0.3855006311389226
 41
0.0
 42
6.283185307179585
  0
ELLIPSE
  5
63A
330
2
100
AcDbEntity
  8
GAIKEI
 62
     1
100
AcDbEllipse
 10
-48.80487809459641
 20
11.57739077036626
 30
0.0
 11
0.3032553888325309
 21
0.0
 31
0.0
210
0.0
220
0.0
230
1.0
 40
0.3942529102666626
 41
0.0
 42
6.283185307179585
  0
ELLIPSE
  5
63B
330
2
100
AcDbEntity
  8
GAIKEI
 62
     1
100
AcDbEllipse
 10
-48.80487809459641
 20
11.57739077036626
 30
0.0
 11
0.4364565999223827
 21
0.0
 31
0.0
210
0.0
220
0.0
230
0.9999999999999998
 40
0.3855006311389226
 41
0.0
 42
6.283185307179585
  0
LINE
  5
63C
330
2
100
AcDbEntity
  8
GAIKEI
 62
     1
100
AcDbLine
 10
-46.54869968627184
 20
12.35802944702362
 30
0.0
 11
-45.5153008167357
 21
12.35802944702362
 31
0.0
  0
LINE
  5
63D
330
2
100
AcDbEntity
  8
GAIKEI
 62
     1
100
AcDbLine
 10
-45.43382639174478
 20
12.27674449743972
 30
0.0
 11
-45.43382639174478
 21
12.02720538647907
 31
0.0
  0
LINE
  5
63E
330
2
100
AcDbEntity
  8
GAIKEI
 62
     1
100
AcDbLine
 10
-46.54869968627184
 20
11.9459204368951
 30
0.0
 11
-45.5153008167357
 21
11.9459204368951
 31
0.0
  0
LINE
  5
63F
330
2
100
AcDbEntity
  8
GAIKEI
 62
     1
100
AcDbLine
 10
-46.63017411126282
 20
12.27674449743972
 30
0.0
 11
-46.63017411126282
 21
12.02720538647907
 31
0.0
  0
ARC
  5
640
330
2
100
AcDbEntity
  8
GAIKEI
 62
     1
100
AcDbCircle
 10
-46.54843943970763
 20
12.27629394799936
 30
0.0
 40
0.0817359133369185
100
AcDbArc
 50
90.18242966093565
 51
179.684169282876
  0
ARC
  5
641
330
2
100
AcDbEntity
  8
GAIKEI
 62
     1
100
AcDbCircle
 10
-46.54778076896678
 20
12.02977082866516
 30
0.0
 40
0.083855426830986
100
AcDbArc
 50
190.7149792336356
 51
269.3721200988282
  0
ARC
  5
642
330
2
100
AcDbEntity
  8
GAIKEI
 62
     1
100
AcDbCircle
 10
-45.51519517464861
 20
12.02728919438084
 30
0.0
 40
0.0813688260639284
100
AcDbArc
 50
269.9256122065275
 51
359.9409867372907
  0
ARC
  5
643
330
2
100
AcDbEntity
  8
GAIKEI
 62
     1
100
AcDbCircle
 10
-45.51556106194857
 20
12.27629394935383
 30
0.0
 40
0.0817359119781473
100
AcDbArc
 50
0.3158297728942667
 51
89.81757128332262
  0
LINE
  5
644
330
2
100
AcDbEntity
  8
GAIKEI
 62
     1
100
AcDbLine
 10
-49.85495079994468
 20
14.93337917836493
 30
0.0
 11
-49.85495079994468
 21
13.36869126772512
 31
0.0
  0
ELLIPSE
  5
645
330
2
100
AcDbEntity
  8
GAIKEI
 62
     1
100
AcDbEllipse
 10
-49.85495079994468
 20
14.15103522304503
 30
0.0
 11
-2.299663011049904
 21
0.0
 31
0.0
210
0.0
220
0.0
230
1.0
 40
0.3401993907632304
 41
1.570796326794896
 42
4.712388980384688
  0
ELLIPSE
  5
646
330
2
100
AcDbEntity
  8
GAIKEI
 62
     1
100
AcDbEllipse
 10
-49.85495079994468
 20
14.15103522304503
 30
0.0
 11
2.397418431999824
 21
-0.0029475062562426
 31
0.0
210
0.0
220
0.0
230
1.0
 40
0.3671227035148032
 41
4.669202813508821
 42
7.895623567088172
  0
ARC
  5
647
330
2
100
AcDbEntity
  8
GAIKEI
 62
     1
100
AcDbCircle
 10
-40.7749993179209
 20
14.13805615766853
 30
0.0
 40
9.234298150635137
100
AcDbArc
 50
154.4725723430152
 51
205.5274276569847
  0
ARC
  5
648
330
2
100
AcDbEntity
  8
GAIKEI
 62
     1
100
AcDbCircle
 10
-40.85499931792088
 20
14.13805615766853
 30
0.0
 40
9.234298150635137
100
AcDbArc
 50
154.4725723430152
 51
205.5274276569847
  0
ARC
  5
649
330
2
100
AcDbEntity
  8
GAIKEI
 62
     1
100
AcDbCircle
 10
-28.20035750135446
 20
14.13805615766853
 30
0.0
 40
9.234298150635137
100
AcDbArc
 50
334.4725723430153
 51
25.52742765698477
  0
ARC
  5
64A
330
2
100
AcDbEntity
  8
GAIKEI
 62
     1
100
AcDbCircle
 10
-28.12035750135448
 20
14.13805615766853
 30
0.0
 40
9.234298150635137
100
AcDbArc
 50
334.4725723430153
 51
25.52742765698477
  0
LINE
  5
64B
330
2
100
AcDbEntity
  8
GAIKEI
 62
     1
100
AcDbLine
 10
-43.16760578685159
 20
16.96512396715053
 30
0.0
 11
-43.16760578685159
 21
11.29355661074675
 31
0.0
  0
LINE
  5
64C
330
2
100
AcDbEntity
  8
GAIKEI
 62
     1
100
AcDbLine
 10
-43.28328052279799
 20
16.96512396715053
 30
0.0
 11
-43.28328052279799
 21
11.29355661074675
 31
0.0
  0
LINE
  5
64D
330
2
100
AcDbEntity
  8
GAIKEI
 62
     1
100
AcDbLine
 10
-42.61272705758194
 20
13.59681965769971
 30
0.0
 11
-42.61272705758194
 21
11.12700772803271
 31
0.0
  0
LINE
  5
64E
330
2
100
AcDbEntity
  8
GAIKEI
 62
     1
100
AcDbLine
 10
-42.71030689216411
 20
13.61311454269793
 30
0.0
 11
-42.71030689216411
 21
11.1109023184415
 31
0.0
  0
ARC
  5
64F
330
2
100
AcDbEntity
  8
GAIKEI
 62
     1
100
AcDbCircle
 10
-38.96030772835229
 20
14.19028988556863
 30
0.0
 40
0.8638933394504972
100
AcDbArc
 50
223.1664699492089
 51
316.678268718438
  0
ARC
  5
650
330
2
100
AcDbEntity
  8
GAIKEI
 62
     1
100
AcDbCircle
 10
-42.62909958167717
 20
11.11082467934443
 30
0.0
 40
0.0812073476007661
100
AcDbArc
 50
179.945221788485
 51
270.054778211527
  0
ARC
  5
651
330
2
100
AcDbEntity
  8
GAIKEI
 62
     1
100
AcDbCircle
 10
-42.62897822471074
 20
13.61307082482858
 30
0.0
 40
0.0813286792035367
100
AcDbArc
 50
90.03079909263609
 51
179.9692009073558
  0
LINE
  5
652
330
2
100
AcDbEntity
  8
GAIKEI
 62
     1
100
AcDbLine
 10
-35.25859166292799
 20
13.59681965769971
 30
0.0
 11
-35.25859166292799
 21
11.12700772803271
 31
0.0
  0
LINE
  5
653
330
2
100
AcDbEntity
  8
GAIKEI
 62
     1
100
AcDbLine
 10
-35.16101182834586
 20
13.61311454269793
 30
0.0
 11
-35.16101182834586
 21
11.1109023184415
 31
0.0
  0
ARC
  5
654
330
2
100
AcDbEntity
  8
GAIKEI
 62
     1
100
AcDbCircle
 10
-35.24221913883275
 20
11.11082467934443
 30
0.0
 40
0.0812073476007661
100
AcDbArc
 50
269.945221788473
 51
0.0547782115149686
  0
ARC
  5
655
330
2
100
AcDbEntity
  8
GAIKEI
 62
     1
100
AcDbCircle
 10
-35.24234049579923
 20
13.61307082482858
 30
0.0
 40
0.0813286792035367
100
AcDbArc
 50
0.0307990926441475
 51
89.96920090736391
  0
ARC
  5
656
330
2
100
AcDbEntity
  8
GAIKEI
 62
     1
100
AcDbCircle
 10
-43.2254431548248
 20
11.29360401332508
 30
0.0
 40
0.0578373873984337
100
AcDbArc
 50
180.0469586905928
 51
359.9530413094072
  0
ARC
  5
657
330
2
100
AcDbEntity
  8
GAIKEI
 62
     1
100
AcDbCircle
 10
-43.2254431548248
 20
16.96514620187429
 30
0.0
 40
0.0578373722471353
100
AcDbArc
 50
359.9779734829726
 51
180.0220265170217
  0
LINE
  5
658
330
2
100
AcDbEntity
  8
GAIKEI
 62
     1
100
AcDbLine
 10
-33.21692583976113
 20
16.96512396715053
 30
0.0
 11
-33.21692583976113
 21
11.29355661074675
 31
0.0
  0
LINE
  5
659
330
2
100
AcDbEntity
  8
GAIKEI
 62
     1
100
AcDbLine
 10
-33.3326005757076
 20
16.96512396715053
 30
0.0
 11
-33.3326005757076
 21
11.29355661074675
 31
0.0
  0
ARC
  5
65A
330
2
100
AcDbEntity
  8
GAIKEI
 62
     1
100
AcDbCircle
 10
-33.27476320773441
 20
11.29360401332508
 30
0.0
 40
0.0578373873984337
100
AcDbArc
 50
180.0469586905928
 51
359.9530413094072
  0
ARC
  5
65B
330
2
100
AcDbEntity
  8
GAIKEI
 62
     1
100
AcDbCircle
 10
-33.27476320773441
 20
16.96514620187429
 30
0.0
 40
0.0578373722471353
100
AcDbArc
 50
359.9779734829726
 51
180.0220265170217
  0
LINE
  5
65C
330
2
100
AcDbEntity
  8
GAIKEI
 62
     1
100
AcDbLine
 10
-34.78758222572015
 20
12.32600810324811
 30
0.0
 11
-33.6496876692479
 21
12.32600810324811
 31
0.0
  0
LINE
  5
65D
330
2
100
AcDbEntity
  8
GAIKEI
 62
     1
100
AcDbLine
 10
-33.60099248966026
 20
12.27712344825352
 30
0.0
 11
-33.60099248966026
 21
11.73295007947689
 31
0.0
  0
LINE
  5
65E
330
2
100
AcDbEntity
  8
GAIKEI
 62
     1
100
AcDbLine
 10
-33.6496876692479
 20
11.68406542448235
 30
0.0
 11
-34.78758222572015
 21
11.68406542448235
 31
0.0
  0
LINE
  5
65F
330
2
100
AcDbEntity
  8
GAIKEI
 62
     1
100
AcDbLine
 10
-34.83646688071463
 20
11.73295007947689
 30
0.0
 11
-34.83646688071463
 21
12.27712344825352
 31
0.0
  0
ARC
  5
660
330
2
100
AcDbEntity
  8
GAIKEI
 62
     1
100
AcDbCircle
 10
-34.7876453560512
 20
11.73288694914572
 30
0.0
 40
0.0488215654798281
100
AcDbArc
 50
179.9259117869978
 51
270.0740882129155
  0
ARC
  5
661
330
2
100
AcDbEntity
  8
GAIKEI
 62
     1
100
AcDbCircle
 10
-34.78740227097609
 20
12.27694349350958
 30
0.0
 40
0.0490649397483047
100
AcDbArc
 50
90.21014334278484
 51
179.7898566573014
  0
ARC
  5
662
330
2
100
AcDbEntity
  8
GAIKEI
 62
     1
100
AcDbCircle
 10
-33.64962453891678
 20
11.73288694914572
 30
0.0
 40
0.0488215654798281
100
AcDbArc
 50
269.9259117870845
 51
0.0740882130021635
  0
ARC
  5
663
330
2
100
AcDbEntity
  8
GAIKEI
 62
     1
100
AcDbCircle
 10
-33.6498676239919
 20
12.27694349350958
 30
0.0
 40
0.0490649397483047
100
AcDbArc
 50
0.2101433426985834
 51
89.7898566572152
  0
LINE
  5
664
330
2
100
AcDbEntity
  8
GAIKEI
 62
     1
100
AcDbLine
 10
-24.73152563671944
 20
12.10716400821434
 30
0.0
 11
-23.59363108024723
 21
12.10716400821434
 31
0.0
  0
LINE
  5
665
330
2
100
AcDbEntity
  8
GAIKEI
 62
     1
100
AcDbLine
 10
-23.5449359006596
 20
12.05827935321974
 30
0.0
 11
-23.5449359006596
 21
11.51410598444306
 31
0.0
  0
LINE
  5
666
330
2
100
AcDbEntity
  8
GAIKEI
 62
     1
100
AcDbLine
 10
-23.59363108024723
 20
11.46522132944847
 30
0.0
 11
-24.73152563671944
 21
11.46522132944847
 31
0.0
  0
LINE
  5
667
330
2
100
AcDbEntity
  8
GAIKEI
 62
     1
100
AcDbLine
 10
-24.78041029171397
 20
11.51410598444306
 30
0.0
 11
-24.78041029171397
 21
12.05827935321974
 31
0.0
  0
ARC
  5
668
330
2
100
AcDbEntity
  8
GAIKEI
 62
     1
100
AcDbCircle
 10
-24.73158876705054
 20
11.51404285411195
 30
0.0
 40
0.0488215654798281
100
AcDbArc
 50
179.9259117869978
 51
270.0740882129155
  0
ARC
  5
669
330
2
100
AcDbEntity
  8
GAIKEI
 62
     1
100
AcDbCircle
 10
-24.73134568197543
 20
12.05809939847575
 30
0.0
 40
0.0490649397483047
100
AcDbArc
 50
90.21014334278484
 51
179.7898566573014
  0
ARC
  5
66A
330
2
100
AcDbEntity
  8
GAIKEI
 62
     1
100
AcDbCircle
 10
-23.59356794991618
 20
11.51404285411195
 30
0.0
 40
0.0488215654798281
100
AcDbArc
 50
269.9259117870845
 51
0.0740882130021635
  0
ARC
  5
66B
330
2
100
AcDbEntity
  8
GAIKEI
 62
     1
100
AcDbCircle
 10
-23.59381103499123
 20
12.05809939847575
 30
0.0
 40
0.0490649397483047
100
AcDbArc
 50
0.2101433426985834
 51
89.7898566572152
  0
LINE
  5
66C
330
2
100
AcDbEntity
  8
GAIKEI
 62
     1
100
AcDbLine
 10
-26.14684050461767
 20
16.17539047095931
 30
0.0
 11
-25.96229145824282
 21
16.17539047095931
 31
0.0
  0
LINE
  5
66D
330
2
100
AcDbEntity
  8
GAIKEI
 62
     1
100
AcDbLine
 10
-31.80910287694826
 20
15.00727458707769
 30
0.0
 11
-30.61279653569494
 21
15.00727458707769
 31
0.0
  0
LINE
  5
66E
330
2
100
AcDbEntity
  8
GAIKEI
 62
     1
100
AcDbLine
 10
-31.80910287694826
 20
14.66546095292966
 30
0.0
 11
-30.61279653569494
 21
14.66546095292966
 31
0.0
  0
LINE
  5
66F
330
2
100
AcDbEntity
  8
GAIKEI
 62
     1
100
AcDbLine
 10
-32.14397996960997
 20
15.13024412619188
 30
0.0
 11
-30.27839313155056
 21
15.13024412619188
 31
0.0
  0
LINE
  5
670
330
2
100
AcDbEntity
  8
GAIKEI
 62
     1
100
AcDbLine
 10
-32.14397996960997
 20
15.89913532761794
 30
0.0
 11
-30.2783931315505
 21
15.89913532761794
 31
0.0
  0
LINE
  5
671
330
2
100
AcDbEntity
  8
GAIKEI
 62
     1
100
AcDbLine
 10
-29.75441087478873
 20
15.89913532761794
 30
0.0
 11
-27.88835034821183
 21
15.89913532761794
 31
0.0
  0
LINE
  5
672
330
2
100
AcDbEntity
  8
GAIKEI
 62
     1
100
AcDbLine
 10
-29.75441087478873
 20
15.13024412619188
 30
0.0
 11
-27.88835034821183
 21
15.13024412619188
 31
0.0
  0
LINE
  5
673
330
2
100
AcDbEntity
  8
GAIKEI
 62
     1
100
AcDbLine
 10
-27.3628522881944
 20
15.89913532761794
 30
0.0
 11
-25.49726545013488
 21
15.89913532761794
 31
0.0
  0
LINE
  5
674
330
2
100
AcDbEntity
  8
GAIKEI
 62
     1
100
AcDbLine
 10
-27.3628522881944
 20
15.13024412619188
 30
0.0
 11
-25.49726545013488
 21
15.13024412619188
 31
0.0
  0
LINE
  5
675
330
2
100
AcDbEntity
  8
GAIKEI
 62
     1
100
AcDbLine
 10
-25.8571119182501
 20
16.3366340422786
 30
0.0
 11
-24.89348137673824
 21
16.3366340422786
 31
0.0
  0
LINE
  5
676
330
2
100
AcDbEntity
  8
GAIKEI
 62
     1
100
AcDbLine
 10
-25.8571119182501
 20
15.99519935894443
 30
0.0
 11
-24.89348137673829
 21
15.99519935894443
 31
0.0
  0
LINE
  5
677
330
2
100
AcDbEntity
  8
GAIKEI
 62
     1
100
AcDbLine
 10
-25.89711191825012
 20
16.29663404227858
 30
0.0
 11
-25.89711191825012
 21
16.03519935894451
 31
0.0
  0
LINE
  5
678
330
2
100
AcDbEntity
  8
GAIKEI
 62
     1
100
AcDbLine
 10
-24.85348137673828
 20
16.29663404227858
 30
0.0
 11
-24.85348137673828
 21
16.03519935894451
 31
0.0
  0
LINE
  5
679
330
2
100
AcDbEntity
  8
GAIKEI
 62
     1
100
AcDbLine
 10
-31.84910287694828
 20
14.96727458707766
 30
0.0
 11
-31.84910287694822
 21
14.70546095292968
 31
0.0
  0
LINE
  5
67A
330
2
100
AcDbEntity
  8
GAIKEI
 62
     1
100
AcDbLine
 10
-30.57279653569493
 20
14.96727458707766
 30
0.0
 11
-30.57279653569493
 21
14.70546095292968
 31
0.0
  0
LINE
  5
67B
330
2
100
AcDbEntity
  8
GAIKEI
 62
     1
100
AcDbLine
 10
-32.22397996961002
 20
15.81913532761791
 30
0.0
 11
-32.22397996961002
 21
15.21024412619192
 31
0.0
  0
LINE
  5
67C
330
2
100
AcDbEntity
  8
GAIKEI
 62
     1
100
AcDbLine
 10
-30.19839313155052
 20
15.81913532761791
 30
0.0
 11
-30.19839313155058
 21
15.21024412619192
 31
0.0
  0
LINE
  5
67D
330
2
100
AcDbEntity
  8
GAIKEI
 62
     1
100
AcDbLine
 10
-29.83441087478872
 20
15.81913532761791
 30
0.0
 11
-29.83441087478872
 21
15.21024412619192
 31
0.0
  0
LINE
  5
67E
330
2
100
AcDbEntity
  8
GAIKEI
 62
     1
100
AcDbLine
 10
-27.80835034821183
 20
15.81913532761791
 30
0.0
 11
-27.80835034821183
 21
15.21024412619192
 31
0.0
  0
LINE
  5
67F
330
2
100
AcDbEntity
  8
GAIKEI
 62
     1
100
AcDbLine
 10
-27.44285228819439
 20
15.81913532761791
 30
0.0
 11
-27.44285228819439
 21
15.21024412619192
 31
0.0
  0
LINE
  5
680
330
2
100
AcDbEntity
  8
GAIKEI
 62
     1
100
AcDbLine
 10
-25.41726545013489
 20
15.81913532761791
 30
0.0
 11
-25.41726545013489
 21
15.21024412619192
 31
0.0
  0
ARC
  5
681
330
2
100
AcDbEntity
  8
GAIKEI
 62
     1
100
AcDbCircle
 10
-31.80910287694826
 20
14.96727458707766
 30
0.0
 40
0.04
100
AcDbArc
 50
90.0
 51
180.0
  0
ARC
  5
682
330
2
100
AcDbEntity
  8
GAIKEI
 62
     1
100
AcDbCircle
 10
-31.80910287694826
 20
14.70546095292968
 30
0.0
 40
0.04
100
AcDbArc
 50
180.0000000000024
 51
270.0
  0
ARC
  5
683
330
2
100
AcDbEntity
  8
GAIKEI
 62
     1
100
AcDbCircle
 10
-30.61279653569494
 20
14.70546095292968
 30
0.0
 40
0.04
100
AcDbArc
 50
269.9999999999998
 51
0.0
  0
ARC
  5
684
330
2
100
AcDbEntity
  8
GAIKEI
 62
     1
100
AcDbCircle
 10
-30.61279653569494
 20
14.96727458707766
 30
0.0
 40
0.04
100
AcDbArc
 50
0.0
 51
90.0000000000003
  0
ARC
  5
685
330
2
100
AcDbEntity
  8
GAIKEI
 62
     1
100
AcDbCircle
 10
-25.8571119182501
 20
16.29663404227858
 30
0.0
 40
0.04
100
AcDbArc
 50
90.0
 51
180.0
  0
ARC
  5
686
330
2
100
AcDbEntity
  8
GAIKEI
 62
     1
100
AcDbCircle
 10
-25.8571119182501
 20
16.03519935894451
 30
0.0
 40
0.04
100
AcDbArc
 50
180.0
 51
270.0
  0
ARC
  5
687
330
2
100
AcDbEntity
  8
GAIKEI
 62
     1
100
AcDbCircle
 10
-24.89348137673829
 20
16.03519935894451
 30
0.0
 40
0.04
100
AcDbArc
 50
270.0
 51
0.0
  0
ARC
  5
688
330
2
100
AcDbEntity
  8
GAIKEI
 62
     1
100
AcDbCircle
 10
-24.89348137673824
 20
16.29663404227858
 30
0.0
 40
0.04
100
AcDbArc
 50
0.0000000000049871
 51
90.0
  0
ARC
  5
689
330
2
100
AcDbEntity
  8
GAIKEI
 62
     1
100
AcDbCircle
 10
-32.14397996960997
 20
15.21024412619192
 30
0.0
 40
0.08
100
AcDbArc
 50
180.0
 51
270.0
  0
ARC
  5
68A
330
2
100
AcDbEntity
  8
GAIKEI
 62
     1
100
AcDbCircle
 10
-32.14397996960997
 20
15.81913532761791
 30
0.0
 40
0.08
100
AcDbArc
 50
90.0
 51
180.0000000000011
  0
ARC
  5
68B
330
2
100
AcDbEntity
  8
GAIKEI
 62
     1
100
AcDbCircle
 10
-30.2783931315505
 20
15.81913532761791
 30
0.0
 40
0.08
100
AcDbArc
 50
0.0
 51
90.0
  0
ARC
  5
68C
330
2
100
AcDbEntity
  8
GAIKEI
 62
     1
100
AcDbCircle
 10
-30.27839313155056
 20
15.21024412619192
 30
0.0
 40
0.08
100
AcDbArc
 50
269.9999999999998
 51
0.0
  0
ARC
  5
68D
330
2
100
AcDbEntity
  8
GAIKEI
 62
     1
100
AcDbCircle
 10
-29.75441087478873
 20
15.21024412619192
 30
0.0
 40
0.08
100
AcDbArc
 50
180.0
 51
270.0
  0
ARC
  5
68E
330
2
100
AcDbEntity
  8
GAIKEI
 62
     1
100
AcDbCircle
 10
-29.75441087478873
 20
15.81913532761791
 30
0.0
 40
0.08
100
AcDbArc
 50
90.0
 51
180.0
  0
ARC
  5
68F
330
2
100
AcDbEntity
  8
GAIKEI
 62
     1
100
AcDbCircle
 10
-27.88835034821183
 20
15.81913532761791
 30
0.0
 40
0.08
100
AcDbArc
 50
0.0
 51
90.00000000000019
  0
ARC
  5
690
330
2
100
AcDbEntity
  8
GAIKEI
 62
     1
100
AcDbCircle
 10
-27.88835034821183
 20
15.21024412619192
 30
0.0
 40
0.08
100
AcDbArc
 50
270.0000000000002
 51
0.0
  0
ARC
  5
691
330
2
100
AcDbEntity
  8
GAIKEI
 62
     1
100
AcDbCircle
 10
-27.3628522881944
 20
15.21024412619192
 30
0.0
 40
0.08
100
AcDbArc
 50
180.0
 51
270.0
  0
ARC
  5
692
330
2
100
AcDbEntity
  8
GAIKEI
 62
     1
100
AcDbCircle
 10
-27.3628522881944
 20
15.81913532761791
 30
0.0
 40
0.08
100
AcDbArc
 50
90.0
 51
180.0
  0
ARC
  5
693
330
2
100
AcDbEntity
  8
GAIKEI
 62
     1
100
AcDbCircle
 10
-25.49726545013488
 20
15.81913532761791
 30
0.0
 40
0.08
100
AcDbArc
 50
0.0
 51
90.0
  0
ARC
  5
694
330
2
100
AcDbEntity
  8
GAIKEI
 62
     1
100
AcDbCircle
 10
-25.49726545013488
 20
15.21024412619192
 30
0.0
 40
0.08
100
AcDbArc
 50
269.9999999999998
 51
0.0
  0
CIRCLE
  5
695
330
2
100
AcDbEntity
  8
GAIKEI
 62
     1
100
AcDbCircle
 10
-27.06449066754777
 20
16.1704641073577
 30
0.0
 40
0.140590750474133
  0
ARC
  5
696
330
2
100
AcDbEntity
  8
GAIKEI
 62
     1
100
AcDbCircle
 10
-22.14656890964972
 20
14.16459156733765
 30
0.0
 40
2.158591483506933
100
AcDbArc
 50
46.15516304260419
 51
132.6483125952609
  0
ARC
  5
697
330
2
100
AcDbEntity
  8
GAIKEI
 62
     1
100
AcDbCircle
 10
-22.14628867935267
 20
14.16593903360581
 30
0.0
 40
2.008881650546069
100
AcDbArc
 50
46.13756047631346
 51
132.6798247166876
  0
LINE
  5
698
330
2
100
AcDbEntity
  8
GAIKEI
 62
     1
100
AcDbLine
 10
-23.60900690385347
 20
15.75229188722733
 30
0.0
 11
-23.50811124964963
 21
15.64277510200696
 31
0.0
  0
LINE
  5
699
330
2
100
AcDbEntity
  8
GAIKEI
 62
     1
100
AcDbLine
 10
-20.7542756849561
 20
15.6143537909636
 30
0.0
 11
-20.65129580127569
 21
15.72140739589355
 31
0.0
  0
DIMENSION
  5
69A
330
2
100
AcDbEntity
  8
SUNPO
100
AcDbDimension
  2
*D6
 10
-13.31308751628467
 20
26.49277950001016
 30
0.0
 11
-34.31308843785144
 21
28.24277950001016
 31
0.0
 70
    33
  1
420
 71
     5
 42
42.00000184313353
  3
STANDARD
100
AcDbAlignedDimension
 13
-55.3130893594182
 23
18.49277950001016
 33
0.0
 14
-13.31308751628467
 24
18.49277950001016
 34
0.0
1001
ACAD
1000
DSTYLE
1002
{
1070
    40
1040
1.0
1070
   140
1040
2.5
1070
   147
1040
0.5
1070
   172
1070
     1
1070
   279
1070
     0
1070
   288
1070
     0
1002
}
  0
DIMENSION
  5
6A9
330
2
100
AcDbEntity
  8
SUNPO
100
AcDbDimension
  2
*D5
 10
-2.369814174092083
 20
18.53814879569642
 30
0.0
 11
-4.119814174092087
 21
14.13824563307554
 31
0.0
 70
    33
  1
88
 71
     5
 42
8.799806325241773
  3
STANDARD
100
AcDbAlignedDimension
 13
-10.36981417409208
 23
9.738342470454654
 33
0.0
 14
-10.36981417409208
 24
18.53814879569643
 34
0.0
1001
ACAD
1000
DSTYLE
1002
{
1070
    40
1040
1.0
1070
   140
1040
2.5
1070
   147
1040
0.5
1070
   172
1070
     1
1070
   279
1070
     0
1070
   288
1070
     0
1002
}
  0
DIMENSION
  5
6B6
330
2
100
AcDbEntity
  8
SUNPO
100
AcDbDimension
  2
*D4
 10
45.61489877413481
 20
26.54693857791932
 30
0.0
 11
28.1275462592489
 21
28.29693857791932
 31
0.0
 70
    33
  1
350
 71
     5
 42
34.97470502977183
  3
STANDARD
100
AcDbAlignedDimension
 13
10.64019374436299
 23
18.54693857791932
 33
0.0
 14
45.61489877413481
 24
18.54693857791932
 34
0.0
1001
ACAD
1000
DSTYLE
1002
{
1070
    40
1040
1.0
1070
   140
1040
2.5
1070
   147
1040
0.5
1070
   172
1070
     1
1070
   279
1070
     0
1070
   288
1070
     0
1002
}
  0
LINE
  5
6C3
330
2
100
AcDbEntity
  8
WAKU
 62
     1
100
AcDbLine
 10
-69.26975183305238
 20
-26.52894452481417
 30
0.0
 11
55.7302481669476
 21
-26.52894452481417
 31
0.0
  0
LINE
  5
6C5
330
2
100
AcDbEntity
  8
WAKU
 62
     1
100
AcDbLine
 10
-69.26975183305238
 20
-31.52894452481417
 30
0.0
 11
55.7302481669476
 21
-31.52894452481417
 31
0.0
  0
LINE
  5
6C6
330
2
100
AcDbEntity
  8
WAKU
 62
     1
100
AcDbLine
 10
-69.26975183305238
 20
-36.52894452481417
 30
0.0
 11
55.7302481669476
 21
-36.52894452481417
 31
0.0
  0
LINE
  5
6C7
330
2
100
AcDbEntity
  8
WAKU
 62
     1
100
AcDbLine
 10
-69.26975183305238
 20
-41.52894452481415
 30
0.0
 11
55.7302481669476
 21
-41.52894452481415
 31
0.0
  0
LINE
  5
6C8
330
2
100
AcDbEntity
  8
WAKU
 62
     1
100
AcDbLine
 10
-69.26975183305238
 20
-46.52894452481415
 30
0.0
 11
55.7302481669476
 21
-46.52894452481415
 31
0.0
  0
LINE
  5
6C9
330
2
100
AcDbEntity
  8
WAKU
 62
     1
100
AcDbLine
 10
-69.26975183305238
 20
-51.52894452481415
 30
0.0
 11
55.7302481669476
 21
-51.52894452481415
 31
0.0
  0
LINE
  5
6CA
330
2
100
AcDbEntity
  8
WAKU
 62
     4
100
AcDbLine
 10
-69.26975183305238
 20
-56.52894452481415
 30
0.0
 11
55.7302481669476
 21
-56.52894452481415
 31
0.0
  0
LINE
  5
6CB
330
2
100
AcDbEntity
  8
WAKU
 62
     4
100
AcDbLine
 10
55.7302481669476
 20
-21.52894452481417
 30
0.0
 11
-69.26975183305238
 21
-21.52894452481417
 31
0.0
  0
LINE
  5
6CC
330
2
100
AcDbEntity
  8
WAKU
 62
     4
100
AcDbLine
 10
-69.26975183305238
 20
-21.52894452481417
 30
0.0
 11
-69.26975183305238
 21
-56.52894452481415
 31
0.0
  0
TEXT
  5
6CD
330
2
100
AcDbEntity
  8
MOJI1
100
AcDbText
 10
-26.7697518330524
 20
-55.52894452481393
 30
0.0
 40
3.0
  1
（１０Ｂａｓｅ－Ｔ／１００Ｂａｓｅ－ＴＸ、ＲＪ－４５）
 41
0.85
100
AcDbText
  0
TEXT
  5
6CE
330
2
100
AcDbEntity
  8
MOJI1
100
AcDbText
 10
-26.7697518330524
 20
-25.52894452481416
 30
0.0
 40
3.0
  1
ＡＣ１００Ｖ　５０／６０Ｈｚ
100
AcDbText
  0
TEXT
  5
6CF
330
2
100
AcDbEntity
  8
MOJI1
100
AcDbText
 10
-26.7697518330524
 20
-30.52894452481416
 30
0.0
 40
3.0
  1
映像×４、音声×１
100
AcDbText
  0
TEXT
  5
6D0
330
2
100
AcDbEntity
  8
MOJI1
100
AcDbText
 10
-26.7697518330524
 20
-35.52894452481416
 30
0.0
 40
3.0
  1
映像×４、音声×１
100
AcDbText
  0
TEXT
  5
6D1
330
2
100
AcDbEntity
  8
MOJI1
100
AcDbText
 10
-26.7697518330524
 20
-50.52894452481393
 30
0.0
 40
3.0
  1
ネットワークインターフェース内蔵
100
AcDbText
  0
TEXT
  5
6D2
330
2
100
AcDbEntity
  8
MOJI1
100
AcDbText
 10
-26.7697518330524
 20
-45.52894452481393
 30
0.0
 40
3.0
  1
同時録画、再生可能
100
AcDbText
  0
TEXT
  5
6D3
330
2
100
AcDbEntity
  8
MOJI1
100
AcDbText
 10
-26.7697518330524
 20
-40.52894452481393
 30
0.0
 40
3.0
  1
２５０ＧＢ×２
100
AcDbText
  0
TEXT
  5
6D4
330
2
100
AcDbEntity
  8
MOJI1
100
AcDbText
 10
-66.76975183305238
 20
-40.52894452481416
 30
0.0
 40
3.0
  1
内蔵ハードディスク
100
AcDbText
  0
TEXT
  5
6D5
330
2
100
AcDbEntity
  8
MOJI1
100
AcDbText
 10
-66.76975183305238
 20
-30.52894452481416
 30
0.0
 40
3.0
  1
入  力
100
AcDbText
  0
TEXT
  5
6D6
330
2
100
AcDbEntity
  8
MOJI1
100
AcDbText
 10
-66.76975183305238
 20
-25.52894452481416
 30
0.0
 40
3.0
  1
電　源
100
AcDbText
  0
TEXT
  5
6D7
330
2
100
AcDbEntity
  8
MOJI1
100
AcDbText
 10
-66.76975183305238
 20
-35.52894452481416
 30
0.0
 40
3.0
  1
出  力
100
AcDbText
  0
TEXT
  5
6D8
330
2
100
AcDbEntity
  8
MOJI1
100
AcDbText
 10
-66.76975183305238
 20
-45.52894452481393
 30
0.0
 40
3.0
  1
機  能
100
AcDbText
  0
LINE
  5
6D9
330
2
100
AcDbEntity
  8
WAKU
 62
     4
100
AcDbLine
 10
-29.2697518330524
 20
-56.52894452481415
 30
0.0
 11
-29.2697518330524
 21
-21.52894452481417
 31
0.0
  0
LINE
  5
6DA
330
2
100
AcDbEntity
  8
WAKU
 62
     4
100
AcDbLine
 10
55.7302481669476
 20
-56.52894452481415
 30
0.0
 11
55.7302481669476
 21
-21.52894452481417
 31
0.0
  0
ENDSEC
  0
SECTION
  2
OBJECTS
  0
DICTIONARY
  5
A
330
0
100
AcDbDictionary
281
     1
  3
ACAD_COLOR
350
31
  3
ACAD_GROUP
350
2D
  3
ACAD_LAYOUT
350
E
  3
ACAD_MATERIAL
350
30
  3
ACAD_MLINESTYLE
350
2E
  3
ACAD_PLOTSETTINGS
350
2F
  3
ACAD_PLOTSTYLENAME
350
9
  3
ACDBHEADERROUNDTRIPXREC
350
737
  3
AcDbVariableDictionary
350
709
  0
DICTIONARY
  5
16
330
15
100
AcDbDictionary
280
     1
281
     1
  3
ACAD_LAYERFILTERS
360
17
  0
DICTIONARY
  5
3
330
2
100
AcDbDictionary
280
     1
281
     1
  3
ACAD_LAYOUTSELFREF
360
4
  3
ACAD_SORTENTS
360
5
  0
DICTIONARY
  5
10
330
F
100
AcDbDictionary
280
     1
281
     1
  3
ACAD_LAYOUTSELFREF
360
11
  0
DICTIONARY
  5
31
102
{ACAD_REACTORS
330
A
102
}
330
A
100
AcDbDictionary
281
     1
  0
DICTIONARY
  5
2D
102
{ACAD_REACTORS
330
A
102
}
330
A
100
AcDbDictionary
281
     1
  0
DICTIONARY
  5
E
102
{ACAD_REACTORS
330
A
102
}
330
A
100
AcDbDictionary
281
     1
  3
Model
350
D
  3
ﾚｲｱｳﾄ1
350
14
  0
DICTIONARY
  5
30
102
{ACAD_REACTORS
330
A
102
}
330
A
100
AcDbDictionary
281
     1
  0
DICTIONARY
  5
2E
102
{ACAD_REACTORS
330
A
102
}
330
A
100
AcDbDictionary
281
     1
  3
STANDARD
350
33
  0
DICTIONARY
  5
2F
102
{ACAD_REACTORS
330
A
102
}
330
A
100
AcDbDictionary
281
     1
  0
ACDBDICTIONARYWDFLT
  5
9
102
{ACAD_REACTORS
330
A
102
}
330
A
100
AcDbDictionary
281
     1
  3
Normal
350
8
100
AcDbDictionaryWithDefault
340
8
  0
DICTIONARY
  5
737
102
{ACAD_REACTORS
330
A
102
}
330
A
100
AcDbDictionary
281
     1
  3
COLORDICT
350
739
  3
MATERIALDICT
350
738
  0
DICTIONARY
  5
709
102
{ACAD_REACTORS
330
A
102
}
330
A
100
AcDbDictionary
281
     1
  3
DIMASSOC
350
70B
  3
HIDETEXT
350
70A
  3
PROJECTNAME
350
70C
  0
DICTIONARY
  5
17
102
{ACAD_REACTORS
330
16
102
}
330
16
100
AcDbDictionary
280
     1
281
     1
  0
XRECORD
  5
4
102
{ACAD_REACTORS
330
3
102
}
330
3
100
AcDbXrecord
280
     1
340
2
  0
SORTENTSTABLE
  5
5
102
{ACAD_REACTORS
330
3
102
}
330
3
100
AcDbSortentsTable
330
2
  0
XRECORD
  5
11
102
{ACAD_REACTORS
330
10
102
}
330
10
100
AcDbXrecord
280
     1
340
F
  0
LAYOUT
  5
D
102
{ACAD_XDICTIONARY
360
73A
102
}
102
{ACAD_REACTORS
330
E
102
}
330
E
100
AcDbPlotSettings
  1

  2
\\URANUS\8FPAM09
  4
A4
  6

 40
4.180416584014891
 41
4.349743366241455
 42
4.222747802734375
 43
4.349761962890625
 44
210.0156707763672
 45
297.0106506347656
 46
6.099999999999998
 47
0.0
 48
0.0
 49
0.0
140
0.0
141
0.0
142
1.0
143
1.367721167210798
 70
 11956
 72
     1
 73
     0
 74
     1
  7
tmsacad.ctb
 75
     0
147
0.7311431774060395
148
0.5392855605155093
149
0.0969413040229483
100
AcDbLayout
  1
Model
 70
     1
 71
     0
 10
0.0
 20
0.0
 11
12.0
 21
9.0
 12
0.0
 22
0.0
 32
0.0
 14
0.0
 24
0.0
 34
0.0
 15
0.0
 25
0.0
 35
0.0
146
0.0
 13
0.0
 23
0.0
 33
0.0
 16
1.0
 26
0.0
 36
0.0
 17
0.0
 27
1.0
 37
0.0
 76
     0
330
2
  0
LAYOUT
  5
14
102
{ACAD_XDICTIONARY
360
73C
102
}
102
{ACAD_REACTORS
330
E
102
}
330
E
100
AcDbPlotSettings
  1

  2
C:\Program Files\ACAD2000\plotters\DWF ePlot.pc3
  4

  6

 40
0.0
 41
0.0
 42
0.0
 43
0.0
 44
0.0
 45
0.0
 46
0.0
 47
0.0
 48
0.0
 49
0.0
140
0.0
141
0.0
142
1.0
143
1.0
 70
   688
 72
     0
 73
     0
 74
     5
  7
tmsacad.ctb
 75
    16
147
1.0
148
0.0
149
0.0
100
AcDbLayout
  1
ﾚｲｱｳﾄ1
 70
     1
 71
     1
 10
0.0
 20
0.0
 11
12.0
 21
9.0
 12
0.0
 22
0.0
 32
0.0
 14
1.000000000000000E+20
 24
1.000000000000000E+20
 34
1.000000000000000E+20
 15
-1.000000000000000E+20
 25
-1.000000000000000E+20
 35
-1.000000000000000E+20
146
0.0
 13
0.0
 23
0.0
 33
0.0
 16
1.0
 26
0.0
 36
0.0
 17
0.0
 27
1.0
 37
0.0
 76
     0
330
F
  0
MLINESTYLE
  5
33
102
{ACAD_REACTORS
330
2E
102
}
330
2E
100
AcDbMlineStyle
  2
STANDARD
 70
     0
  3

 62
   256
 51
90.0
 52
90.0
 71
     2
 49
0.5
 62
   256
  6
BYLAYER
 49
-0.5
 62
   256
  6
BYLAYER
  0
ACDBPLACEHOLDER
  5
8
102
{ACAD_REACTORS
330
9
102
}
330
9
  0
XRECORD
  5
739
102
{ACAD_REACTORS
330
737
102
}
330
737
100
AcDbXrecord
280
     1
340
31
  0
XRECORD
  5
738
102
{ACAD_REACTORS
330
737
102
}
330
737
100
AcDbXrecord
280
     1
340
30
  0
DICTIONARYVAR
  5
70B
102
{ACAD_REACTORS
330
709
102
}
330
709
100
DictionaryVariables
280
     0
  1
1
  0
DICTIONARYVAR
  5
70A
102
{ACAD_REACTORS
330
709
102
}
330
709
100
DictionaryVariables
280
     0
  1
1
  0
DICTIONARYVAR
  5
70C
102
{ACAD_REACTORS
330
709
102
}
330
709
100
DictionaryVariables
280
     0
  1

  0
DICTIONARY
  5
73A
330
D
100
AcDbDictionary
280
     1
281
     1
  3
ACAD_XREC_ROUNDTRIP
360
73B
  0
DICTIONARY
  5
73C
330
14
100
AcDbDictionary
280
     1
281
     1
  3
ACAD_XREC_ROUNDTRIP
360
73D
  0
XRECORD
  5
73B
102
{ACAD_REACTORS
330
73A
102
}
330
73A
100
AcDbXrecord
280
     1
102
SHADEPLOT
 70
     0
102
SHADEPLOTRESLEVEL
 70
     2
102
SHADEPLOTCUSTOMDPI
 70
   300
  0
XRECORD
  5
73D
102
{ACAD_REACTORS
330
73C
102
}
330
73C
100
AcDbXrecord
280
     1
102
SHADEPLOT
 70
     0
102
SHADEPLOTRESLEVEL
 70
     2
102
SHADEPLOTCUSTOMDPI
 70
   300
  0
ENDSEC
  0
EOF
