  0
SECTION
  2
HEADER
  9
$ACADVER
  1
AC1015
  9
$ACADMAINTVER
 70
    20
  9
$DWGCODEPAGE
  3
ANSI_932
  9
$INSBASE
 10
0.4999999440410648
 20
372.5008351249344
 30
0.0
  9
$EXTMIN
 10
-62.40142731741229
 20
-60.57737669835024
 30
-0.0015258207003583
  9
$EXTMAX
 10
62.632141675139
 20
52.44722025544297
 30
0.0000000349246037
  9
$LIMMIN
 10
0.0
 20
0.0
  9
$LIMMAX
 10
420.0
 20
297.0
  9
$ORTHOMODE
 70
     1
  9
$REGENMODE
 70
     0
  9
$FILLMODE
 70
     1
  9
$QTEXTMODE
 70
     0
  9
$MIRRTEXT
 70
     0
  9
$LTSCALE
 40
1.0
  9
$ATTMODE
 70
     1
  9
$TEXTSIZE
 40
2.5
  9
$TRACEWID
 40
1.0
  9
$TEXTSTYLE
  7
Standard
  9
$CLAYER
  8
GAIKEI
  9
$CELTYPE
  6
ByLayer
  9
$CECOLOR
 62
   256
  9
$CELTSCALE
 40
1.0
  9
$DISPSILH
 70
     0
  9
$DIMSCALE
 40
1.0
  9
$DIMASZ
 40
2.0
  9
$DIMEXO
 40
2.0
  9
$DIMDLI
 40
8.0
  9
$DIMRND
 40
0.0
  9
$DIMDLE
 40
0.0
  9
$DIMEXE
 40
2.0
  9
$DIMTP
 40
0.0
  9
$DIMTM
 40
0.0
  9
$DIMTXT
 40
2.5
  9
$DIMCEN
 40
0.0
  9
$DIMTSZ
 40
0.0
  9
$DIMTOL
 70
     0
  9
$DIMLIM
 70
     0
  9
$DIMTIH
 70
     0
  9
$DIMTOH
 70
     0
  9
$DIMSE1
 70
     0
  9
$DIMSE2
 70
     0
  9
$DIMTAD
 70
     3
  9
$DIMZIN
 70
     0
  9
$DIMBLK
  1

  9
$DIMASO
 70
     1
  9
$DIMSHO
 70
     1
  9
$DIMPOST
  1

  9
$DIMAPOST
  1

  9
$DIMALT
 70
     0
  9
$DIMALTD
 70
     2
  9
$DIMALTF
 40
25.4
  9
$DIMLFAC
 40
1.0
  9
$DIMTOFL
 70
     1
  9
$DIMTVP
 40
0.0
  9
$DIMTIX
 70
     0
  9
$DIMSOXD
 70
     0
  9
$DIMSAH
 70
     1
  9
$DIMBLK1
  1
OPEN30
  9
$DIMBLK2
  1
OPEN30
  9
$DIMSTYLE
  2
STANDARD
  9
$DIMCLRD
 70
     0
  9
$DIMCLRE
 70
     0
  9
$DIMCLRT
 70
     0
  9
$DIMTFAC
 40
1.0
  9
$DIMGAP
 40
0.5
  9
$DIMJUST
 70
     0
  9
$DIMSD1
 70
     0
  9
$DIMSD2
 70
     0
  9
$DIMTOLJ
 70
     1
  9
$DIMTZIN
 70
     0
  9
$DIMALTZ
 70
     0
  9
$DIMALTTZ
 70
     0
  9
$DIMUPT
 70
     0
  9
$DIMDEC
 70
     4
  9
$DIMTDEC
 70
     4
  9
$DIMALTU
 70
     2
  9
$DIMALTTD
 70
     2
  9
$DIMTXSTY
  7
Standard
  9
$DIMAUNIT
 70
     0
  9
$DIMADEC
 70
     0
  9
$DIMALTRND
 40
0.0
  9
$DIMAZIN
 70
     0
  9
$DIMDSEP
 70
    46
  9
$DIMATFIT
 70
     3
  9
$DIMFRAC
 70
     0
  9
$DIMLDRBLK
  1
OPEN30
  9
$DIMLUNIT
 70
     2
  9
$DIMLWD
 70
    -2
  9
$DIMLWE
 70
    -2
  9
$DIMTMOVE
 70
     0
  9
$LUNITS
 70
     2
  9
$LUPREC
 70
     4
  9
$SKETCHINC
 40
1.0
  9
$FILLETRAD
 40
0.0
  9
$AUNITS
 70
     0
  9
$AUPREC
 70
     0
  9
$MENU
  1
.
  9
$ELEVATION
 40
0.0
  9
$PELEVATION
 40
0.0
  9
$THICKNESS
 40
0.0
  9
$LIMCHECK
 70
     0
  9
$CHAMFERA
 40
0.0
  9
$CHAMFERB
 40
0.0
  9
$CHAMFERC
 40
0.0
  9
$CHAMFERD
 40
0.0
  9
$SKPOLY
 70
     0
  9
$TDCREATE
 40
2454349.434269746
  9
$TDUCREATE
 40
2454349.059269746
  9
$TDUPDATE
 40
2454376.649701053
  9
$TDUUPDATE
 40
2454376.274701053
  9
$TDINDWG
 40
0.0967093403
  9
$TDUSRTIMER
 40
0.0967093403
  9
$USRTIMER
 70
     1
  9
$ANGBASE
 50
0.0
  9
$ANGDIR
 70
     0
  9
$PDMODE
 70
     0
  9
$PDSIZE
 40
0.0
  9
$PLINEWID
 40
0.0
  9
$SPLFRAME
 70
     0
  9
$SPLINETYPE
 70
     6
  9
$SPLINESEGS
 70
     8
  9
$HANDSEED
  5
1B5
  9
$SURFTAB1
 70
     6
  9
$SURFTAB2
 70
     6
  9
$SURFTYPE
 70
     6
  9
$SURFU
 70
     6
  9
$SURFV
 70
     6
  9
$UCSBASE
  2

  9
$UCSNAME
  2

  9
$UCSORG
 10
0.0
 20
0.0
 30
0.0
  9
$UCSXDIR
 10
1.0
 20
0.0
 30
0.0
  9
$UCSYDIR
 10
0.0
 20
1.0
 30
0.0
  9
$UCSORTHOREF
  2

  9
$UCSORTHOVIEW
 70
     0
  9
$UCSORGTOP
 10
0.0
 20
0.0
 30
0.0
  9
$UCSORGBOTTOM
 10
0.0
 20
0.0
 30
0.0
  9
$UCSORGLEFT
 10
0.0
 20
0.0
 30
0.0
  9
$UCSORGRIGHT
 10
0.0
 20
0.0
 30
0.0
  9
$UCSORGFRONT
 10
0.0
 20
0.0
 30
0.0
  9
$UCSORGBACK
 10
0.0
 20
0.0
 30
0.0
  9
$PUCSBASE
  2

  9
$PUCSNAME
  2

  9
$PUCSORG
 10
0.0
 20
0.0
 30
0.0
  9
$PUCSXDIR
 10
1.0
 20
0.0
 30
0.0
  9
$PUCSYDIR
 10
0.0
 20
1.0
 30
0.0
  9
$PUCSORTHOREF
  2

  9
$PUCSORTHOVIEW
 70
     0
  9
$PUCSORGTOP
 10
0.0
 20
0.0
 30
0.0
  9
$PUCSORGBOTTOM
 10
0.0
 20
0.0
 30
0.0
  9
$PUCSORGLEFT
 10
0.0
 20
0.0
 30
0.0
  9
$PUCSORGRIGHT
 10
0.0
 20
0.0
 30
0.0
  9
$PUCSORGFRONT
 10
0.0
 20
0.0
 30
0.0
  9
$PUCSORGBACK
 10
0.0
 20
0.0
 30
0.0
  9
$USERI1
 70
     0
  9
$USERI2
 70
     0
  9
$USERI3
 70
     0
  9
$USERI4
 70
     0
  9
$USERI5
 70
     0
  9
$USERR1
 40
0.0
  9
$USERR2
 40
0.0
  9
$USERR3
 40
0.0
  9
$USERR4
 40
0.0
  9
$USERR5
 40
0.0
  9
$WORLDVIEW
 70
     1
  9
$SHADEDGE
 70
     3
  9
$SHADEDIF
 70
    70
  9
$TILEMODE
 70
     1
  9
$MAXACTVP
 70
    64
  9
$PINSBASE
 10
0.0
 20
0.0
 30
0.0
  9
$PLIMCHECK
 70
     0
  9
$PEXTMIN
 10
0.0
 20
0.0
 30
0.0
  9
$PEXTMAX
 10
0.0
 20
0.0
 30
0.0
  9
$PLIMMIN
 10
0.0
 20
0.0
  9
$PLIMMAX
 10
12.0
 20
9.0
  9
$UNITMODE
 70
     0
  9
$VISRETAIN
 70
     1
  9
$PLINEGEN
 70
     0
  9
$PSLTSCALE
 70
     1
  9
$TREEDEPTH
 70
  3020
  9
$CMLSTYLE
  2
Standard
  9
$CMLJUST
 70
     0
  9
$CMLSCALE
 40
20.0
  9
$PROXYGRAPHICS
 70
     1
  9
$MEASUREMENT
 70
     1
  9
$CELWEIGHT
370
    -1
  9
$ENDCAPS
280
     0
  9
$JOINSTYLE
280
     0
  9
$LWDISPLAY
290
     0
  9
$INSUNITS
 70
     4
  9
$HYPERLINKBASE
  1

  9
$STYLESHEET
  1

  9
$XEDIT
290
     1
  9
$CEPSNTYPE
380
     0
  9
$PSTYLEMODE
290
     1
  9
$FINGERPRINTGUID
  2
{FDEAD578-A652-11D2-9A35-0060089B3A3F}
  9
$VERSIONGUID
  2
{6E2B5677-AA35-48D8-864F-ED2D9B9E4BC6}
  9
$EXTNAMES
290
     1
  9
$PSVPSCALE
 40
0.0
  9
$OLESTARTUP
290
     0
  0
ENDSEC
  0
SECTION
  2
CLASSES
  0
CLASS
  1
ACDBDICTIONARYWDFLT
  2
AcDbDictionaryWithDefault
  3
ObjectDBX Classes
 90
        0
280
     0
281
     0
  0
CLASS
  1
ACDBPLACEHOLDER
  2
AcDbPlaceHolder
  3
ObjectDBX Classes
 90
        0
280
     0
281
     0
  0
CLASS
  1
LAYOUT
  2
AcDbLayout
  3
ObjectDBX Classes
 90
        0
280
     0
281
     0
  0
CLASS
  1
DICTIONARYVAR
  2
AcDbDictionaryVar
  3
ObjectDBX Classes
 90
        0
280
     0
281
     0
  0
ENDSEC
  0
SECTION
  2
TABLES
  0
TABLE
  2
VPORT
  5
1B
330
0
100
AcDbSymbolTable
 70
     3
  0
VPORT
  5
1AD
330
1B
100
AcDbSymbolTableRecord
100
AcDbViewportTableRecord
  2
*Active
 70
     0
 10
0.0
 20
0.0
 11
1.0
 21
1.0
 12
0.115357178863345
 22
-4.065078221453632
 13
0.0
 23
0.0
 14
10.0
 24
10.0
 15
10.0
 25
10.0
 16
0.0
 26
0.0
 36
1.0
 17
0.0
 27
0.0
 37
0.0
 40
113.8940169303608
 41
1.503209242618742
 42
50.0
 43
0.0
 44
0.0
 50
0.0
 51
0.0
 71
     0
 72
  1000
 73
     1
 74
     2
 75
     0
 76
     0
 77
     0
 78
     0
281
     0
 65
     1
110
0.0
120
0.0
130
0.0
111
1.0
121
0.0
131
0.0
112
0.0
122
1.0
132
0.0
 79
     0
146
0.0
  0
ENDTAB
  0
TABLE
  2
LTYPE
  5
16
330
0
100
AcDbSymbolTable
 70
     1
  0
LTYPE
  5
17
330
16
100
AcDbSymbolTableRecord
100
AcDbLinetypeTableRecord
  2
ByBlock
 70
     0
  3

 72
    65
 73
     0
 40
0.0
  0
LTYPE
  5
18
330
16
100
AcDbSymbolTableRecord
100
AcDbLinetypeTableRecord
  2
ByLayer
 70
     0
  3

 72
    65
 73
     0
 40
0.0
  0
LTYPE
  5
8
330
16
100
AcDbSymbolTableRecord
100
AcDbLinetypeTableRecord
  2
Continuous
 70
     0
  3
Solid line
 72
    65
 73
     0
 40
0.0
  0
ENDTAB
  0
TABLE
  2
LAYER
  5
10
102
{ACAD_XDICTIONARY
360
11
102
}
330
0
100
AcDbSymbolTable
 70
     7
  0
LAYER
  5
4
330
10
100
AcDbSymbolTableRecord
100
AcDbLayerTableRecord
  2
0
 70
     0
 62
     7
  6
Continuous
370
    -3
390
5
  0
LAYER
  5
155
330
10
100
AcDbSymbolTableRecord
100
AcDbLayerTableRecord
  2
WAKU
 70
     0
 62
     4
  6
Continuous
370
    -3
390
5
  0
LAYER
  5
30
330
10
100
AcDbSymbolTableRecord
100
AcDbLayerTableRecord
  2
MOJI1
 70
     0
 62
     2
  6
Continuous
370
    -3
390
5
  0
LAYER
  5
150
330
10
100
AcDbSymbolTableRecord
100
AcDbLayerTableRecord
  2
TOUROKU
 70
     0
 62
     1
  6
Continuous
370
    -3
390
5
  0
LAYER
  5
FA
330
10
100
AcDbSymbolTableRecord
100
AcDbLayerTableRecord
  2
DEFPOINTS
 70
     0
 62
     7
  6
Continuous
290
     0
370
    -3
390
5
  0
LAYER
  5
2D
330
10
100
AcDbSymbolTableRecord
100
AcDbLayerTableRecord
  2
GAIKEI
 70
     0
 62
     7
  6
Continuous
370
    -3
390
5
  0
LAYER
  5
F0
330
10
100
AcDbSymbolTableRecord
100
AcDbLayerTableRecord
  2
SUNPO
 70
     0
 62
     3
  6
Continuous
370
    -3
390
5
  0
ENDTAB
  0
TABLE
  2
STYLE
  5
13
330
0
100
AcDbSymbolTable
 70
     2
  0
STYLE
  5
14
330
13
100
AcDbSymbolTableRecord
100
AcDbTextStyleTableRecord
  2
Standard
 70
     0
 40
0.0
 41
1.0
 50
0.0
 71
     0
 42
2.5
  3
MONOTXT.shx
  4
BIGFONT.shx
  0
STYLE
  5
31
330
13
100
AcDbSymbolTableRecord
100
AcDbTextStyleTableRecord
  2
KANJI
 70
     0
 40
0.0
 41
1.0
 50
0.0
 71
     0
 42
3.5
  3
monotxt
  4
bigfont
  0
ENDTAB
  0
TABLE
  2
VIEW
  5
19
330
0
100
AcDbSymbolTable
 70
     0
  0
ENDTAB
  0
TABLE
  2
UCS
  5
1A
330
0
100
AcDbSymbolTable
 70
     0
  0
ENDTAB
  0
TABLE
  2
APPID
  5
1D
330
0
100
AcDbSymbolTable
 70
     1
  0
APPID
  5
1E
330
1D
100
AcDbSymbolTableRecord
100
AcDbRegAppTableRecord
  2
ACAD
 70
     0
  0
ENDTAB
  0
TABLE
  2
DIMSTYLE
  5
1F
330
0
100
AcDbSymbolTable
 70
     1
100
AcDbDimStyleTable
 71
     1
340
20
  0
DIMSTYLE
105
20
102
{ACAD_REACTORS
330
10B
330
FE
330
EF
102
}
330
1F
100
AcDbSymbolTableRecord
100
AcDbDimStyleTableRecord
  2
STANDARD
 70
     0
 40
0.0
 41
2.0
 42
2.0
 43
8.0
 44
2.0
 73
     0
 74
     0
 77
     3
140
3.0
141
0.0
173
     1
279
     2
288
     1
340
14
341
21
343
21
344
21
  0
ENDTAB
  0
TABLE
  2
BLOCK_RECORD
  5
1
330
0
100
AcDbSymbolTable
 70
     7
  0
BLOCK_RECORD
  5
2
330
1
100
AcDbSymbolTableRecord
100
AcDbBlockTableRecord
  2
*Model_Space
340
A
  0
BLOCK_RECORD
  5
C
330
1
100
AcDbSymbolTableRecord
100
AcDbBlockTableRecord
  2
*Paper_Space
340
F
  0
BLOCK_RECORD
  5
21
330
1
100
AcDbSymbolTableRecord
100
AcDbBlockTableRecord
  2
_OPEN30
340
0
102
{BLKREFS
331
111
331
112
331
104
331
105
331
F6
331
F7
331
189
331
18A
331
195
331
196
331
1A1
331
1A2
102
}
  0
BLOCK_RECORD
  5
10C
330
1
100
AcDbSymbolTableRecord
100
AcDbBlockTableRecord
  2
*D1
340
0
  0
BLOCK_RECORD
  5
FF
330
1
100
AcDbSymbolTableRecord
100
AcDbBlockTableRecord
  2
*D2
340
0
  0
BLOCK_RECORD
  5
F1
330
1
100
AcDbSymbolTableRecord
100
AcDbBlockTableRecord
  2
*D3
340
0
  0
BLOCK_RECORD
  5
185
330
1
100
AcDbSymbolTableRecord
100
AcDbBlockTableRecord
  2
*D4
340
0
  0
BLOCK_RECORD
  5
191
330
1
100
AcDbSymbolTableRecord
100
AcDbBlockTableRecord
  2
*D5
340
0
  0
BLOCK_RECORD
  5
19D
330
1
100
AcDbSymbolTableRecord
100
AcDbBlockTableRecord
  2
*D6
340
0
  0
ENDTAB
  0
ENDSEC
  0
SECTION
  2
BLOCKS
  0
BLOCK
  5
3
330
2
100
AcDbEntity
  8
0
100
AcDbBlockBegin
  2
*Model_Space
 70
     0
 10
0.0
 20
0.0
 30
0.0
  3
*Model_Space
  1

  0
ENDBLK
  5
9
330
2
100
AcDbEntity
  8
0
100
AcDbBlockEnd
  0
BLOCK
  5
D
330
C
100
AcDbEntity
 67
     1
  8
0
100
AcDbBlockBegin
  2
*Paper_Space
 70
     0
 10
0.0
 20
0.0
 30
0.0
  3
*Paper_Space
  1

  0
ENDBLK
  5
E
330
C
100
AcDbEntity
 67
     1
  8
0
100
AcDbBlockEnd
  0
BLOCK
  5
22
330
21
100
AcDbEntity
  8
0
100
AcDbBlockBegin
  2
_OPEN30
 70
     0
 10
0.0
 20
0.0
 30
0.0
  3
_OPEN30
  1

  0
LINE
  5
23
330
21
100
AcDbEntity
  8
0
  6
ByBlock
 62
     0
100
AcDbLine
 10
-1.0
 20
0.26794919
 30
0.0
 11
0.0
 21
0.0
 31
0.0
  0
LINE
  5
24
330
21
100
AcDbEntity
  8
0
  6
ByBlock
 62
     0
100
AcDbLine
 10
0.0
 20
0.0
 30
0.0
 11
-1.0
 21
-0.26794919
 31
0.0
  0
LINE
  5
25
330
21
100
AcDbEntity
  8
0
  6
ByBlock
 62
     0
100
AcDbLine
 10
0.0
 20
0.0
 30
0.0
 11
-1.0
 21
0.0
 31
0.0
  0
ENDBLK
  5
26
330
21
100
AcDbEntity
  8
0
100
AcDbBlockEnd
  0
BLOCK
  5
10D
330
10C
100
AcDbEntity
  8
0
100
AcDbBlockBegin
  2
*D1
 70
     1
 10
0.0
 20
0.0
 30
0.0
  3
*D1
  1

  0
LINE
  5
10E
330
10C
100
AcDbEntity
  8
SUNPO
 62
     0
370
    -2
100
AcDbLine
 10
73.74703658697114
 20
339.2229303906215
 30
0.0
 11
73.74703658697114
 21
347.2229303906215
 31
0.0
  0
LINE
  5
10F
330
10C
100
AcDbEntity
  8
SUNPO
 62
     0
370
    -2
100
AcDbLine
 10
109.7470081738059
 20
339.2229303906215
 30
0.0
 11
109.7470081738059
 21
347.2229303906215
 31
0.0
  0
LINE
  5
110
330
10C
100
AcDbEntity
  8
SUNPO
 62
     0
370
    -2
100
AcDbLine
 10
75.74703658697115
 20
345.2229303906215
 30
0.0
 11
107.7470081738059
 21
345.2229303906215
 31
0.0
  0
INSERT
  5
111
330
10C
100
AcDbEntity
  8
SUNPO
 62
     0
370
    -2
100
AcDbBlockReference
  2
_OPEN30
 10
73.74703658697114
 20
345.2229303906215
 30
0.0
 41
2.0
 42
2.0
 43
2.0
 50
180.0
  0
INSERT
  5
112
330
10C
100
AcDbEntity
  8
SUNPO
 62
     0
370
    -2
100
AcDbBlockReference
  2
_OPEN30
 10
109.7470081738059
 20
345.2229303906215
 30
0.0
 41
2.0
 42
2.0
 43
2.0
  0
MTEXT
  5
113
330
10C
100
AcDbEntity
  8
SUNPO
 62
     0
100
AcDbMText
 10
91.74702238038856
 20
346.9729303906215
 30
0.0
 40
2.5
 41
0.0
 71
     5
 72
     1
  1
\A1;360
 73
     1
 44
1.0
1001
ACAD
1000
MTEXTBEGIN
1070
    73
1070
     1
1070
    44
1040
1.0
1070
    74
1070
     0
1000
MTEXTEND
  0
POINT
  5
114
330
10C
100
AcDbEntity
  8
DEFPOINTS
 62
     0
100
AcDbPoint
 10
73.74703658697114
 20
337.2229303906215
 30
0.0
  0
POINT
  5
115
330
10C
100
AcDbEntity
  8
DEFPOINTS
 62
     0
100
AcDbPoint
 10
109.7470081738059
 20
337.2229303906215
 30
0.0
  0
POINT
  5
116
330
10C
100
AcDbEntity
  8
DEFPOINTS
 62
     0
100
AcDbPoint
 10
109.7470081738059
 20
345.2229303906215
 30
0.0
  0
ENDBLK
  5
117
330
10C
100
AcDbEntity
  8
0
100
AcDbBlockEnd
  0
BLOCK
  5
100
330
FF
100
AcDbEntity
  8
0
100
AcDbBlockBegin
  2
*D2
 70
     1
 10
0.0
 20
0.0
 30
0.0
  3
*D2
  1

  0
LINE
  5
101
330
FF
100
AcDbEntity
  8
SUNPO
 62
     0
370
    -2
100
AcDbLine
 10
52.95389673770301
 20
337.2077364635797
 30
0.0
 11
60.95389673770302
 21
337.2077364635797
 31
0.0
  0
LINE
  5
102
330
FF
100
AcDbEntity
  8
SUNPO
 62
     0
370
    -2
100
AcDbLine
 10
52.95389673770301
 20
328.4077364635797
 30
0.0
 11
60.95389673770302
 21
328.4077364635797
 31
0.0
  0
LINE
  5
103
330
FF
100
AcDbEntity
  8
SUNPO
 62
     0
370
    -2
100
AcDbLine
 10
58.95389673770302
 20
335.2077364635797
 30
0.0
 11
58.95389673770302
 21
330.4077364635797
 31
0.0
  0
INSERT
  5
104
330
FF
100
AcDbEntity
  8
SUNPO
 62
     0
370
    -2
100
AcDbBlockReference
  2
_OPEN30
 10
58.95389673770303
 20
337.2077364635797
 30
0.0
 41
2.0
 42
2.0
 43
2.0
 50
90.0
  0
INSERT
  5
105
330
FF
100
AcDbEntity
  8
SUNPO
 62
     0
370
    -2
100
AcDbBlockReference
  2
_OPEN30
 10
58.95389673770302
 20
328.4077364635797
 30
0.0
 41
2.0
 42
2.0
 43
2.0
 50
270.0
  0
MTEXT
  5
106
330
FF
100
AcDbEntity
  8
SUNPO
 62
     0
100
AcDbMText
 10
57.20389673770297
 20
332.8077364635798
 30
0.0
 40
2.5
 41
0.0
 71
     5
 72
     1
  1
\A1;88
 11
0.0000000000000001
 21
1.0
 31
0.0
 73
     1
 44
1.0
1001
ACAD
1000
MTEXTBEGIN
1070
    73
1070
     1
1070
    44
1040
1.0
1070
    74
1070
     0
1000
MTEXTEND
  0
POINT
  5
107
330
FF
100
AcDbEntity
  8
DEFPOINTS
 62
     0
100
AcDbPoint
 10
50.95389673770302
 20
337.2077364635797
 30
0.0
  0
POINT
  5
108
330
FF
100
AcDbEntity
  8
DEFPOINTS
 62
     0
100
AcDbPoint
 10
50.95389673770302
 20
328.4077364635797
 30
0.0
  0
POINT
  5
109
330
FF
100
AcDbEntity
  8
DEFPOINTS
 62
     0
100
AcDbPoint
 10
58.95389673770302
 20
328.4077364635797
 30
0.0
  0
ENDBLK
  5
10A
330
FF
100
AcDbEntity
  8
0
100
AcDbBlockEnd
  0
BLOCK
  5
F2
330
F1
100
AcDbEntity
  8
0
100
AcDbBlockBegin
  2
*D3
 70
     1
 10
0.0
 20
0.0
 30
0.0
  3
*D3
  1

  0
LINE
  5
F3
330
F1
100
AcDbEntity
  8
SUNPO
 62
     0
370
    -2
100
AcDbLine
 10
23.95768966919837
 20
339.1943594810987
 30
0.0
 11
23.95768966919837
 21
347.1943594810987
 31
0.0
  0
LINE
  5
F4
330
F1
100
AcDbEntity
  8
SUNPO
 62
     0
370
    -2
100
AcDbLine
 10
50.95768966919838
 20
339.1943594810987
 30
0.0
 11
50.95768966919838
 21
347.1943594810987
 31
0.0
  0
LINE
  5
F5
330
F1
100
AcDbEntity
  8
SUNPO
 62
     0
370
    -2
100
AcDbLine
 10
25.95768966919838
 20
345.1943594810987
 30
0.0
 11
48.95768966919837
 21
345.1943594810987
 31
0.0
  0
INSERT
  5
F6
330
F1
100
AcDbEntity
  8
SUNPO
 62
     0
370
    -2
100
AcDbBlockReference
  2
_OPEN30
 10
23.95768966919837
 20
345.1943594810987
 30
0.0
 41
2.0
 42
2.0
 43
2.0
 50
180.0
  0
INSERT
  5
F7
330
F1
100
AcDbEntity
  8
SUNPO
 62
     0
370
    -2
100
AcDbBlockReference
  2
_OPEN30
 10
50.95768966919838
 20
345.1943594810987
 30
0.0
 41
2.0
 42
2.0
 43
2.0
  0
MTEXT
  5
F8
330
F1
100
AcDbEntity
  8
SUNPO
 62
     0
100
AcDbMText
 10
37.45768966919837
 20
346.9443594810987
 30
0.0
 40
2.5
 41
0.0
 71
     5
 72
     1
  1
\A1;270
 73
     1
 44
1.0
1001
ACAD
1000
MTEXTBEGIN
1070
    73
1070
     1
1070
    44
1040
1.0
1070
    74
1070
     0
1000
MTEXTEND
  0
POINT
  5
F9
330
F1
100
AcDbEntity
  8
DEFPOINTS
 62
     0
100
AcDbPoint
 10
23.95768966919837
 20
337.1943594810987
 30
0.0
  0
POINT
  5
FB
330
F1
100
AcDbEntity
  8
DEFPOINTS
 62
     0
100
AcDbPoint
 10
50.95768966919838
 20
337.1943594810987
 30
0.0
  0
POINT
  5
FC
330
F1
100
AcDbEntity
  8
DEFPOINTS
 62
     0
100
AcDbPoint
 10
50.95768966919838
 20
345.1943594810987
 30
0.0
  0
ENDBLK
  5
FD
330
F1
100
AcDbEntity
  8
0
100
AcDbBlockEnd
  0
BLOCK
  5
18F
330
185
100
AcDbEntity
  8
0
100
AcDbBlockBegin
  2
*D4
 70
     1
 10
0.0
 20
0.0
 30
0.0
  3
*D4
  1

  0
LINE
  5
186
330
185
100
AcDbEntity
  8
SUNPO
 62
     0
370
    -2
100
AcDbLine
 10
8.87354568160174
 20
21.15940341853138
 30
0.0
 11
8.87354568160174
 21
29.15940341853139
 31
0.0
  0
LINE
  5
187
330
185
100
AcDbEntity
  8
SUNPO
 62
     0
370
    -2
100
AcDbLine
 10
44.87351726843655
 20
21.15940341853138
 30
0.0
 11
44.87351726843655
 21
29.15940341853139
 31
0.0
  0
LINE
  5
188
330
185
100
AcDbEntity
  8
SUNPO
 62
     0
370
    -2
100
AcDbLine
 10
10.87354568160174
 20
27.15940341853138
 30
0.0
 11
42.87351726843655
 21
27.15940341853138
 31
0.0
  0
INSERT
  5
189
330
185
100
AcDbEntity
  8
SUNPO
 62
     0
370
    -2
100
AcDbBlockReference
  2
_OPEN30
 10
8.87354568160174
 20
27.15940341853138
 30
0.0
 41
2.0
 42
2.0
 43
2.0
 50
180.0
  0
INSERT
  5
18A
330
185
100
AcDbEntity
  8
SUNPO
 62
     0
370
    -2
100
AcDbBlockReference
  2
_OPEN30
 10
44.87351726843655
 20
27.15940341853138
 30
0.0
 41
2.0
 42
2.0
 43
2.0
  0
MTEXT
  5
18B
330
185
100
AcDbEntity
  8
SUNPO
 62
     0
100
AcDbMText
 10
26.87353147501915
 20
28.90940341853138
 30
0.0
 40
2.5
 41
0.0
 71
     5
 72
     1
  1
\A1;360
 73
     1
 44
1.0
1001
ACAD
1000
MTEXTBEGIN
1070
    73
1070
     1
1070
    44
1040
1.0
1070
    74
1070
     0
1000
MTEXTEND
  0
POINT
  5
18C
330
185
100
AcDbEntity
  8
DEFPOINTS
 62
     0
100
AcDbPoint
 10
8.87354568160174
 20
19.15940341853138
 30
0.0
  0
POINT
  5
18D
330
185
100
AcDbEntity
  8
DEFPOINTS
 62
     0
100
AcDbPoint
 10
44.87351726843655
 20
19.15940341853138
 30
0.0
  0
POINT
  5
18E
330
185
100
AcDbEntity
  8
DEFPOINTS
 62
     0
100
AcDbPoint
 10
44.87351726843655
 20
27.15940341853138
 30
0.0
  0
ENDBLK
  5
190
330
185
100
AcDbEntity
  8
0
100
AcDbBlockEnd
  0
BLOCK
  5
19B
330
191
100
AcDbEntity
  8
0
100
AcDbBlockBegin
  2
*D5
 70
     1
 10
0.0
 20
0.0
 30
0.0
  3
*D5
  1

  0
LINE
  5
192
330
191
100
AcDbEntity
  8
SUNPO
 62
     0
370
    -2
100
AcDbLine
 10
-11.91959416766639
 20
19.14420949148962
 30
0.0
 11
-3.919594167666388
 21
19.14420949148961
 31
0.0
  0
LINE
  5
193
330
191
100
AcDbEntity
  8
SUNPO
 62
     0
370
    -2
100
AcDbLine
 10
-11.91959416766639
 20
10.3442094914896
 30
0.0
 11
-3.919594167666388
 21
10.3442094914896
 31
0.0
  0
LINE
  5
194
330
191
100
AcDbEntity
  8
SUNPO
 62
     0
370
    -2
100
AcDbLine
 10
-5.919594167666388
 20
17.14420949148961
 30
0.0
 11
-5.919594167666389
 21
12.3442094914896
 31
0.0
  0
INSERT
  5
195
330
191
100
AcDbEntity
  8
SUNPO
 62
     0
370
    -2
100
AcDbBlockReference
  2
_OPEN30
 10
-5.919594167666387
 20
19.14420949148961
 30
0.0
 41
2.0
 42
2.0
 43
2.0
 50
90.0
  0
INSERT
  5
196
330
191
100
AcDbEntity
  8
SUNPO
 62
     0
370
    -2
100
AcDbBlockReference
  2
_OPEN30
 10
-5.919594167666389
 20
10.3442094914896
 30
0.0
 41
2.0
 42
2.0
 43
2.0
 50
270.0
  0
MTEXT
  5
197
330
191
100
AcDbEntity
  8
SUNPO
 62
     0
100
AcDbMText
 10
-7.669594167666391
 20
14.74420949148961
 30
0.0
 40
2.5
 41
0.0
 71
     5
 72
     1
  1
\A1;88
 11
0.0000000000000001
 21
1.0
 31
0.0
 73
     1
 44
1.0
1001
ACAD
1000
MTEXTBEGIN
1070
    73
1070
     1
1070
    44
1040
1.0
1070
    74
1070
     0
1000
MTEXTEND
  0
POINT
  5
198
330
191
100
AcDbEntity
  8
DEFPOINTS
 62
     0
100
AcDbPoint
 10
-13.91959416766639
 20
19.14420949148962
 30
0.0
  0
POINT
  5
199
330
191
100
AcDbEntity
  8
DEFPOINTS
 62
     0
100
AcDbPoint
 10
-13.91959416766639
 20
10.34420949148961
 30
0.0
  0
POINT
  5
19A
330
191
100
AcDbEntity
  8
DEFPOINTS
 62
     0
100
AcDbPoint
 10
-5.919594167666389
 20
10.3442094914896
 30
0.0
  0
ENDBLK
  5
19C
330
191
100
AcDbEntity
  8
0
100
AcDbBlockEnd
  0
BLOCK
  5
1A7
330
19D
100
AcDbEntity
  8
0
100
AcDbBlockBegin
  2
*D6
 70
     1
 10
0.0
 20
0.0
 30
0.0
  3
*D6
  1

  0
LINE
  5
19E
330
19D
100
AcDbEntity
  8
SUNPO
 62
     0
370
    -2
100
AcDbLine
 10
-40.91580123617103
 20
21.13083250900854
 30
0.0
 11
-40.91580123617103
 21
29.13083250900854
 31
0.0
  0
LINE
  5
19F
330
19D
100
AcDbEntity
  8
SUNPO
 62
     0
370
    -2
100
AcDbLine
 10
-13.91580123617103
 20
21.13083250900854
 30
0.0
 11
-13.91580123617103
 21
29.13083250900854
 31
0.0
  0
LINE
  5
1A0
330
19D
100
AcDbEntity
  8
SUNPO
 62
     0
370
    -2
100
AcDbLine
 10
-38.91580123617103
 20
27.13083250900854
 30
0.0
 11
-15.91580123617103
 21
27.13083250900854
 31
0.0
  0
INSERT
  5
1A1
330
19D
100
AcDbEntity
  8
SUNPO
 62
     0
370
    -2
100
AcDbBlockReference
  2
_OPEN30
 10
-40.91580123617103
 20
27.13083250900854
 30
0.0
 41
2.0
 42
2.0
 43
2.0
 50
180.0
  0
INSERT
  5
1A2
330
19D
100
AcDbEntity
  8
SUNPO
 62
     0
370
    -2
100
AcDbBlockReference
  2
_OPEN30
 10
-13.91580123617103
 20
27.13083250900854
 30
0.0
 41
2.0
 42
2.0
 43
2.0
  0
MTEXT
  5
1A3
330
19D
100
AcDbEntity
  8
SUNPO
 62
     0
100
AcDbMText
 10
-27.41580123617104
 20
28.88083250900854
 30
0.0
 40
2.5
 41
0.0
 71
     5
 72
     1
  1
\A1;270
 73
     1
 44
1.0
1001
ACAD
1000
MTEXTBEGIN
1070
    73
1070
     1
1070
    44
1040
1.0
1070
    74
1070
     0
1000
MTEXTEND
  0
POINT
  5
1A4
330
19D
100
AcDbEntity
  8
DEFPOINTS
 62
     0
100
AcDbPoint
 10
-40.91580123617103
 20
19.13083250900854
 30
0.0
  0
POINT
  5
1A5
330
19D
100
AcDbEntity
  8
DEFPOINTS
 62
     0
100
AcDbPoint
 10
-13.91580123617103
 20
19.13083250900854
 30
0.0
  0
POINT
  5
1A6
330
19D
100
AcDbEntity
  8
DEFPOINTS
 62
     0
100
AcDbPoint
 10
-13.91580123617103
 20
27.13083250900854
 30
0.0
  0
ENDBLK
  5
1A8
330
19D
100
AcDbEntity
  8
0
100
AcDbBlockEnd
  0
ENDSEC
  0
SECTION
  2
ENTITIES
  0
TEXT
  5
2F
330
2
100
AcDbEntity
  8
MOJI1
100
AcDbText
 10
-35.37349096132823
 20
48.43730815284482
 30
0.0
 40
4.0
  1
リムーバルディスクレコーダー
  7
KANJI
100
AcDbText
  0
ARC
  5
32
330
2
100
AcDbEntity
  8
GAIKEI
  6
Continuous
100
AcDbCircle
 10
-38.40599442206076
 20
9.494209491489641
 30
0.0
 40
0.1
100
AcDbArc
 50
270.0
 51
354.5596679689257
  0
ARC
  5
33
330
2
100
AcDbEntity
  8
GAIKEI
  6
Continuous
100
AcDbCircle
 10
-40.22413705911094
 20
9.494209491489641
 30
0.0
 40
0.1
100
AcDbArc
 50
185.4403320310808
 51
270.0
  0
ARC
  5
34
330
2
100
AcDbEntity
  8
GAIKEI
  6
Continuous
100
AcDbCircle
 10
-16.42414906213423
 20
9.494209491489641
 30
0.0
 40
0.1
100
AcDbArc
 50
185.4403320310808
 51
270.0
  0
ARC
  5
35
330
2
100
AcDbEntity
  8
GAIKEI
  6
Continuous
100
AcDbCircle
 10
-14.60600642508405
 20
9.494209491489641
 30
0.0
 40
0.1
100
AcDbArc
 50
270.0
 51
354.5596679689257
  0
LINE
  5
36
330
2
100
AcDbEntity
  8
GAIKEI
  6
Continuous
100
AcDbLine
 10
-40.22413705911094
 20
9.394209491489618
 30
0.0
 11
-38.40599442206076
 21
9.394209491489618
 31
0.0
  0
LINE
  5
37
330
2
100
AcDbEntity
  8
GAIKEI
  6
Continuous
100
AcDbLine
 10
-38.30644487480123
 20
9.484728582226694
 30
0.0
 11
-38.22458955010967
 21
10.34420949148961
 31
0.0
  0
LINE
  5
38
330
2
100
AcDbEntity
  8
GAIKEI
  6
Continuous
100
AcDbLine
 10
-40.40554193106203
 20
10.34420949148961
 30
0.0
 11
-40.32368660637035
 21
9.484728582226694
 31
0.0
  0
LINE
  5
39
330
2
100
AcDbEntity
  8
GAIKEI
  6
Continuous
100
AcDbLine
 10
-16.60555393408526
 20
10.34420949148961
 30
0.0
 11
-16.52369860939365
 21
9.484728582226694
 31
0.0
  0
LINE
  5
3A
330
2
100
AcDbEntity
  8
GAIKEI
  6
Continuous
100
AcDbLine
 10
-14.50645687782457
 20
9.484728582226694
 30
0.0
 11
-14.42460155313296
 21
10.34420949148961
 31
0.0
  0
LINE
  5
3B
330
2
100
AcDbEntity
  8
GAIKEI
  6
Continuous
100
AcDbLine
 10
-16.42414906213423
 20
9.394209491489618
 30
0.0
 11
-14.60600642508405
 21
9.394209491489618
 31
0.0
  0
LINE
  5
3C
330
2
100
AcDbEntity
  8
GAIKEI
  6
Continuous
100
AcDbLine
 10
-13.91580635672892
 20
10.34420949148961
 30
0.0
 11
-40.91580123617103
 21
10.34420949148961
 31
0.0
  0
LINE
  5
3D
330
2
100
AcDbEntity
  8
GAIKEI
  6
Continuous
100
AcDbLine
 10
-40.91580123617103
 20
19.14420949148962
 30
0.0
 11
-13.91580123617103
 21
19.14420949148962
 31
0.0
  0
LINE
  5
3E
330
2
100
AcDbEntity
  8
GAIKEI
  6
Continuous
100
AcDbLine
 10
-13.91580123617103
 20
10.34420949148961
 30
0.0
 11
-13.91580123617103
 21
19.14420949148962
 31
0.0
  0
LINE
  5
3F
330
2
100
AcDbEntity
  8
GAIKEI
  6
Continuous
100
AcDbLine
 10
-40.91580123617103
 20
10.34420949148961
 30
0.0
 11
-40.91580123617103
 21
19.14420949148962
 31
0.0
  0
SPLINE
  5
40
330
2
100
AcDbEntity
  8
GAIKEI
  6
Continuous
 62
     1
100
AcDbSpline
210
0.0
220
0.0
230
1.0
 70
     8
 71
     3
 72
    11
 73
     7
 74
     5
 42
0.0000000001
 43
0.0000000001
 44
0.00000000001
 40
0.0
 40
0.0
 40
0.0
 40
0.0
 40
0.1992999793706902
 40
0.3986772277338636
 40
8.069660216661352
 40
8.441022046570433
 40
8.441022046570433
 40
8.441022046570433
 40
8.441022046570433
 10
-17.82416688807177
 20
10.57741636254962
 30
0.0
 10
-17.82372832252123
 20
10.64384823520561
 30
0.0
 10
-17.82285102138742
 20
10.77673773628481
 30
0.0
 10
-17.80608897007835
 20
13.46657365121308
 30
0.0
 10
-17.82807834009799
 20
16.21387293657335
 30
0.0
 10
-17.81976872453613
 20
18.89464197162965
 30
0.0
 10
-17.81938502126172
 20
19.01842866777963
 30
0.0
 11
-17.82416688807177
 21
10.57741636254962
 31
0.0
 11
-17.82286348190314
 21
10.7767120797879
 31
0.0
 11
-17.82163272791013
 21
10.97608552939812
 31
0.0
 11
-17.82047266163414
 21
18.64706843060844
 31
0.0
 11
-17.81938502126172
 21
19.01842866777963
 31
0.0
  0
SPLINE
  5
41
330
2
100
AcDbEntity
  8
GAIKEI
  6
Continuous
 62
     1
100
AcDbSpline
210
0.0
220
0.0
230
1.0
 70
     8
 71
     3
 72
    11
 73
     7
 74
     5
 42
0.0000000001
 43
0.0000000001
 44
0.00000000001
 40
0.0
 40
0.0
 40
0.0
 40
0.0
 40
0.0633329752338694
 40
0.1267294914118904
 40
0.1904438560678299
 40
0.2542218168060798
 40
0.2542218168060798
 40
0.2542218168060798
 40
0.2542218168060798
 10
-20.05437178510169
 20
18.29420949148959
 30
0.0
 10
-20.05061176378605
 20
18.27343603352437
 30
0.0
 10
-20.04308794878653
 20
18.23186827592127
 30
0.0
 10
-20.03161908970545
 20
18.16943153979554
 30
0.0
 10
-20.02001743551585
 20
18.10686848431584
 30
0.0
 10
-20.01216513082268
 20
18.06510276699606
 30
0.0
 10
-20.00823702002168
 20
18.04420949148959
 30
0.0
 11
-20.05437178510169
 21
18.29420949148959
 31
0.0
 11
-20.04306473458297
 21
18.23189403304997
 31
0.0
 11
-20.03162067360449
 21
18.16953898728917
 31
0.0
 11
-20.01999540115753
 21
18.10689416863636
 31
0.0
 11
-20.00823702002168
 21
18.04420949148959
 31
0.0
  0
CIRCLE
  5
42
330
2
100
AcDbEntity
  8
GAIKEI
  6
Continuous
 62
     1
100
AcDbCircle
 10
-15.86580123617102
 20
15.84420949148961
 30
0.0
 40
0.9
  0
CIRCLE
  5
43
330
2
100
AcDbEntity
  8
GAIKEI
  6
Continuous
 62
     1
100
AcDbCircle
 10
-15.86580123617102
 20
15.84420949148961
 30
0.0
 40
0.76
  0
LINE
  5
44
330
2
100
AcDbEntity
  8
GAIKEI
  6
Continuous
 62
     1
100
AcDbLine
 10
-40.91580123617103
 20
19.14420949148962
 30
0.0
 11
-40.79000173617106
 21
19.01842869148959
 31
0.0
  0
LINE
  5
45
330
2
100
AcDbEntity
  8
GAIKEI
  6
Continuous
 62
     1
100
AcDbLine
 10
-40.79549417410902
 20
19.0239203129808
 30
0.0
 11
-40.78356863617108
 21
18.91584789148959
 31
0.0
  0
LINE
  5
46
330
2
100
AcDbEntity
  8
GAIKEI
  6
Continuous
 62
     1
100
AcDbLine
 10
-40.75764283617104
 20
13.14577449148959
 30
0.0
 11
-40.76114273617105
 21
12.31820549148961
 31
0.0
  0
LINE
  5
47
330
2
100
AcDbEntity
  8
GAIKEI
  6
Continuous
 62
     1
100
AcDbLine
 10
-40.75594623617104
 20
13.9752176914896
 30
0.0
 11
-40.75764283617104
 21
13.14577449148959
 31
0.0
  0
LINE
  5
48
330
2
100
AcDbEntity
  8
GAIKEI
  6
Continuous
 62
     1
100
AcDbLine
 10
-40.75605503617106
 20
14.80551559148961
 30
0.0
 11
-40.75594623617104
 21
13.9752176914896
 31
0.0
  0
LINE
  5
49
330
2
100
AcDbEntity
  8
GAIKEI
  6
Continuous
 62
     1
100
AcDbLine
 10
-40.75796903617106
 20
15.63475989148958
 30
0.0
 11
-40.75605503617106
 21
14.80551559148961
 31
0.0
  0
LINE
  5
4A
330
2
100
AcDbEntity
  8
GAIKEI
  6
Continuous
 62
     1
100
AcDbLine
 10
-40.76168603617105
 20
16.46202539148959
 30
0.0
 11
-40.75796903617106
 21
15.63475989148958
 31
0.0
  0
LINE
  5
4B
330
2
100
AcDbEntity
  8
GAIKEI
  6
Continuous
 62
     1
100
AcDbLine
 10
-40.76719763617103
 20
17.28542479148962
 30
0.0
 11
-40.76168603617105
 21
16.46202539148959
 31
0.0
  0
LINE
  5
4C
330
2
100
AcDbEntity
  8
GAIKEI
  6
Continuous
 62
     1
100
AcDbLine
 10
-40.77449693617103
 20
18.10392009148961
 30
0.0
 11
-40.76719763617103
 21
17.28542479148962
 31
0.0
  0
LINE
  5
4D
330
2
100
AcDbEntity
  8
GAIKEI
  6
Continuous
 62
     1
100
AcDbLine
 10
-40.78356863617108
 20
18.91580009148959
 30
0.0
 11
-40.77449693617103
 21
18.10392009148961
 31
0.0
  0
LINE
  5
4E
330
2
100
AcDbEntity
  8
GAIKEI
  6
Continuous
 62
     1
100
AcDbLine
 10
-40.76114273617105
 20
12.31820549148961
 30
0.0
 11
-40.76643903617105
 21
11.49420949148964
 31
0.0
  0
LINE
  5
4F
330
2
100
AcDbEntity
  8
GAIKEI
  6
Continuous
 62
     1
100
AcDbLine
 10
-40.76643903617105
 20
11.49420949148964
 30
0.0
 11
-40.77265073617104
 21
11.3756836914896
 31
0.0
  0
LINE
  5
50
330
2
100
AcDbEntity
  8
GAIKEI
  6
Continuous
 62
     1
100
AcDbLine
 10
-40.77982713617103
 20
10.57741639148958
 30
0.0
 11
-40.78605173617103
 21
10.47398579148961
 31
0.0
  0
LINE
  5
51
330
2
100
AcDbEntity
  8
GAIKEI
  6
Continuous
 62
     1
100
AcDbLine
 10
-40.77265073617104
 20
11.3756836914896
 30
0.0
 11
-40.77982713617103
 21
10.57741639148958
 31
0.0
  0
LINE
  5
52
330
2
100
AcDbEntity
  8
GAIKEI
  6
Continuous
 62
     1
100
AcDbLine
 10
-31.91580123617092
 20
18.37083082419963
 30
0.0
 11
-17.90994459410183
 21
18.37083082419963
 31
0.0
  0
LINE
  5
53
330
2
100
AcDbEntity
  8
GAIKEI
  6
Continuous
 62
     1
100
AcDbLine
 10
-31.91580123617104
 20
18.29420949148959
 30
0.0
 11
-17.90994459410177
 21
18.29420949148959
 31
0.0
  0
LINE
  5
54
330
2
100
AcDbEntity
  8
GAIKEI
  6
Continuous
 62
     1
100
AcDbLine
 10
-40.79000173908105
 20
19.01842866777963
 30
0.0
 11
-14.04160073326108
 21
19.01842866777963
 31
0.0
  0
LINE
  5
55
330
2
100
AcDbEntity
  8
GAIKEI
  6
Continuous
 62
     1
100
AcDbLine
 10
-40.78605173617103
 20
10.47398579148961
 30
0.0
 11
-40.91580123617103
 21
10.34420949148961
 31
0.0
  0
LINE
  5
56
330
2
100
AcDbEntity
  8
GAIKEI
  6
Continuous
 62
     1
100
AcDbLine
 10
-32.01180894991319
 20
10.47398579148961
 30
0.0
 11
-40.78605173617103
 21
10.47398579148961
 31
0.0
  0
LINE
  5
57
330
2
100
AcDbEntity
  8
GAIKEI
  6
Continuous
 62
     1
100
AcDbLine
 10
-32.01949503617107
 20
10.57741639148958
 30
0.0
 11
-40.77982713617103
 21
10.57741639148958
 31
0.0
  0
LINE
  5
58
330
2
100
AcDbEntity
  8
GAIKEI
  6
Continuous
 62
     1
100
AcDbLine
 10
-31.91580123617104
 20
10.58140241873957
 30
0.0
 11
-17.90994459410177
 21
10.58140241873957
 31
0.0
  0
LINE
  5
59
330
2
100
AcDbEntity
  8
GAIKEI
  6
Continuous
 62
     1
100
AcDbLine
 10
-31.67462458417106
 20
10.46924349197957
 30
0.0
 11
-18.1581032720818
 21
10.46924349197957
 31
0.0
  0
LINE
  5
5A
330
2
100
AcDbEntity
  8
GAIKEI
  6
Continuous
 62
     1
100
AcDbLine
 10
-31.96580123617105
 20
10.42650670079956
 30
0.0
 11
-17.85994459410182
 21
10.42650670079956
 31
0.0
  0
LINE
  5
5B
330
2
100
AcDbEntity
  8
GAIKEI
  6
Continuous
 62
     1
100
AcDbLine
 10
-14.04555070304104
 20
10.47398575945959
 30
0.0
 11
-17.8283145025718
 21
10.47398575945959
 31
0.0
  0
LINE
  5
5C
330
2
100
AcDbEntity
  8
GAIKEI
  6
Continuous
 62
     1
100
AcDbLine
 10
-14.05177532797103
 20
10.57741636254957
 30
0.0
 11
-17.82416688807177
 21
10.57741636254957
 31
0.0
  0
LINE
  5
5D
330
2
100
AcDbEntity
  8
GAIKEI
  6
Continuous
 62
     1
100
AcDbLine
 10
-14.05177532797103
 20
10.57741636254957
 30
0.0
 11
-14.04555070304104
 21
10.47398575945959
 31
0.0
  0
LINE
  5
5E
330
2
100
AcDbEntity
  8
GAIKEI
  6
Continuous
 62
     1
100
AcDbLine
 10
-13.91580123617103
 20
10.34420949148961
 30
0.0
 11
-14.04555070304104
 21
10.47398575945959
 31
0.0
  0
LINE
  5
5F
330
2
100
AcDbEntity
  8
GAIKEI
  6
Continuous
 62
     1
100
AcDbLine
 10
-14.05897874477335
 20
14.17380327289521
 30
0.0
 11
-14.05177532797103
 21
10.57741636254957
 31
0.0
  0
LINE
  5
60
330
2
100
AcDbEntity
  8
GAIKEI
  6
Continuous
 62
     1
100
AcDbLine
 10
-14.04160073326108
 20
19.01842866777963
 30
0.0
 11
-14.04803382277106
 21
18.91584790513957
 31
0.0
  0
LINE
  5
61
330
2
100
AcDbEntity
  8
GAIKEI
  6
Continuous
 62
     1
100
AcDbLine
 10
-13.91580123617103
 20
19.14420949148962
 30
0.0
 11
-14.04160073326108
 21
19.01842866777963
 31
0.0
  0
LINE
  5
62
330
2
100
AcDbEntity
  8
GAIKEI
  6
Continuous
 62
     1
100
AcDbLine
 10
-14.04803382277106
 20
18.91584790513957
 30
0.0
 11
-14.05897874477335
 21
14.17380327289521
 31
0.0
  0
LINE
  5
63
330
2
100
AcDbEntity
  8
GAIKEI
  6
Continuous
 62
     1
100
AcDbLine
 10
-15.76580123617105
 20
15.5342094914896
 30
0.0
 11
-15.76580123617105
 21
16.38420949148963
 31
0.0
  0
LINE
  5
64
330
2
100
AcDbEntity
  8
GAIKEI
  6
Continuous
 62
     1
100
AcDbLine
 10
-15.96580123617104
 20
16.38420949148963
 30
0.0
 11
-15.96580123617104
 21
15.5342094914896
 31
0.0
  0
LINE
  5
65
330
2
100
AcDbEntity
  8
GAIKEI
  6
Continuous
 62
     1
100
AcDbLine
 10
-15.76580123617105
 20
16.38420949148963
 30
0.0
 11
-15.96580123617104
 21
16.38420949148963
 31
0.0
  0
LINE
  5
66
330
2
100
AcDbEntity
  8
GAIKEI
  6
Continuous
 62
     1
100
AcDbLine
 10
-15.96580123617104
 20
15.5342094914896
 30
0.0
 11
-15.76580123617105
 21
15.5342094914896
 31
0.0
  0
LINE
  5
67
330
2
100
AcDbEntity
  8
GAIKEI
  6
Continuous
 62
     1
100
AcDbLine
 10
-18.12807861602181
 20
10.46679439641957
 30
0.0
 11
-18.1581032720818
 21
10.46924349197957
 31
0.0
  0
LINE
  5
68
330
2
100
AcDbEntity
  8
GAIKEI
  6
Continuous
 62
     1
100
AcDbLine
 10
-17.8283145025718
 20
10.47398575945959
 30
0.0
 11
-17.85994459410182
 21
10.42650670079956
 31
0.0
  0
LINE
  5
69
330
2
100
AcDbEntity
  8
GAIKEI
  6
Continuous
 62
     1
100
AcDbLine
 10
-17.90994459410177
 20
10.46567883607963
 30
0.0
 11
-17.90994459410177
 21
18.29420949148959
 31
0.0
  0
LINE
  5
6A
330
2
100
AcDbEntity
  8
GAIKEI
  6
Continuous
 62
     1
100
AcDbLine
 10
-18.12807861602181
 20
10.46679439641957
 30
0.0
 11
-18.12739875840179
 21
10.46567929350959
 31
0.0
  0
LINE
  5
6B
330
2
100
AcDbEntity
  8
GAIKEI
  6
Continuous
 62
     1
100
AcDbLine
 10
-18.12739965545176
 20
10.4656785630496
 30
0.0
 11
-17.90994459410177
 21
10.4656785630496
 31
0.0
  0
LINE
  5
6C
330
2
100
AcDbEntity
  8
GAIKEI
  6
Continuous
 62
     1
100
AcDbLine
 10
-18.31165216819181
 20
18.04420949148959
 30
0.0
 11
-20.00823702002179
 21
18.04420949148959
 31
0.0
  0
LINE
  5
6D
330
2
100
AcDbEntity
  8
GAIKEI
  6
Continuous
 62
     1
100
AcDbLine
 10
-31.67462458417106
 20
10.46924349197957
 30
0.0
 11
-31.70464924023105
 21
10.46679439641957
 31
0.0
  0
LINE
  5
6E
330
2
100
AcDbEntity
  8
GAIKEI
  6
Continuous
 62
     1
100
AcDbLine
 10
-31.70532909785106
 20
10.46567929350959
 30
0.0
 11
-31.70464924023105
 21
10.46679439641957
 31
0.0
  0
LINE
  5
6F
330
2
100
AcDbEntity
  8
GAIKEI
  6
Continuous
 62
     1
100
AcDbLine
 10
-31.91580123617104
 20
10.4656785630496
 30
0.0
 11
-31.70532820080103
 21
10.4656785630496
 31
0.0
  0
LINE
  5
70
330
2
100
AcDbEntity
  8
GAIKEI
  6
Continuous
 62
     1
100
AcDbLine
 10
-31.96580123617105
 20
10.42650670079956
 30
0.0
 11
-32.01327048957103
 21
10.47398575945959
 31
0.0
  0
LINE
  5
71
330
2
100
AcDbEntity
  8
GAIKEI
  6
Continuous
 62
     1
100
AcDbLine
 10
-28.2398129443871
 20
15.63047329056945
 30
0.0
 11
-21.99181357413011
 21
15.63047329056945
 31
0.0
  0
LINE
  5
72
330
2
100
AcDbEntity
  8
GAIKEI
  6
Continuous
 62
     1
100
AcDbLine
 10
-28.23981294438699
 20
13.24513861965954
 30
0.0
 11
-21.99181357413022
 21
13.24513861965965
 31
0.0
  0
ARC
  5
73
330
2
100
AcDbEntity
  8
GAIKEI
  6
Continuous
 62
     1
100
AcDbCircle
 10
45.07352478038467
 20
14.96920845267118
 30
0.0
 40
0.1
100
AcDbArc
 50
0.0
 51
90.0
  0
ARC
  5
74
330
2
100
AcDbEntity
  8
GAIKEI
  6
Continuous
100
AcDbCircle
 10
41.08258087337185
 20
9.494209491489641
 30
0.0
 40
0.1
100
AcDbArc
 50
270.0
 51
354.5596679689355
  0
ARC
  5
75
330
2
100
AcDbEntity
  8
GAIKEI
  6
Continuous
100
AcDbCircle
 10
39.26443823632167
 20
9.494209491489641
 30
0.0
 40
0.1
100
AcDbArc
 50
185.4403320310645
 51
270.0
  0
ARC
  5
76
330
2
100
AcDbEntity
  8
GAIKEI
  6
Continuous
100
AcDbCircle
 10
13.01393823632202
 20
9.494209491489584
 30
0.0
 40
0.1
100
AcDbArc
 50
185.4403320310645
 51
270.0
  0
ARC
  5
77
330
2
100
AcDbEntity
  8
GAIKEI
  6
Continuous
100
AcDbCircle
 10
14.8320808733722
 20
9.494209491489584
 30
0.0
 40
0.1
100
AcDbArc
 50
270.0
 51
354.5596679689355
  0
CIRCLE
  5
78
330
2
100
AcDbEntity
  8
GAIKEI
  6
Continuous
 62
     1
100
AcDbCircle
 10
12.823017043839
 20
16.74420845267082
 30
0.0
 40
0.25
  0
CIRCLE
  5
79
330
2
100
AcDbEntity
  8
GAIKEI
  6
Continuous
 62
     1
100
AcDbCircle
 10
12.823017043839
 20
12.74420845267082
 30
0.0
 40
0.25
  0
CIRCLE
  5
7A
330
2
100
AcDbEntity
  8
GAIKEI
  6
Continuous
 62
     1
100
AcDbCircle
 10
36.57351726843661
 20
12.16420845267061
 30
0.0
 40
0.4150000000000001
  0
CIRCLE
  5
7B
330
2
100
AcDbEntity
  8
GAIKEI
  6
Continuous
 62
     1
100
AcDbCircle
 10
15.42301726843652
 20
12.21420897208031
 30
0.0
 40
0.4150000000000001
  0
ARC
  5
7C
330
2
100
AcDbEntity
  8
GAIKEI
  6
Continuous
100
AcDbCircle
 10
28.86946784370741
 20
14.34035470289586
 30
0.0
 40
20.000000024105
100
AcDbArc
 50
178.8429655930786
 51
188.1813825436514
  0
ARC
  5
7D
330
2
100
AcDbEntity
  8
GAIKEI
  6
Continuous
100
AcDbCircle
 10
28.86946784370741
 20
14.34035470289586
 30
0.0
 40
20.000000024105
100
AcDbArc
 50
166.7750615100452
 51
178.8429655930786
  0
ARC
  5
7E
330
2
100
AcDbEntity
  8
GAIKEI
  6
Continuous
 62
     1
100
AcDbCircle
 10
8.942003498782298
 20
12.5831860020881
 30
0.0
 40
0.0500004716359
100
AcDbArc
 50
89.47483931916661
 51
168.5252884724347
  0
ARC
  5
7F
330
2
100
AcDbEntity
  8
GAIKEI
  6
Continuous
 62
     1
100
AcDbCircle
 10
9.006809730153236
 20
12.00410001254977
 30
0.0
 40
0.0499998658642
100
AcDbArc
 50
204.2460691628603
 51
276.3007271826816
  0
ARC
  5
80
330
2
100
AcDbEntity
  8
GAIKEI
  6
Continuous
 62
     1
100
AcDbCircle
 10
45.05251583131996
 20
11.93570829520092
 30
0.0
 40
0.1
100
AcDbArc
 50
270.0
 51
0.0
  0
ARC
  5
81
330
2
100
AcDbEntity
  8
GAIKEI
  6
Continuous
 62
     1
100
AcDbCircle
 10
44.18665084131293
 20
15.3934788011278
 30
0.0
 40
0.8568549215006999
100
AcDbArc
 50
339.2754553012837
 51
20.72454469870224
  0
ARC
  5
82
330
2
100
AcDbEntity
  8
GAIKEI
  6
Continuous
 62
     1
100
AcDbCircle
 10
44.06252541139212
 20
17.59347867397207
 30
0.0
 40
1.0643235
100
AcDbArc
 50
339.949969999995
 51
20.05006600000892
  0
ARC
  5
83
330
2
100
AcDbEntity
  8
GAIKEI
  6
Continuous
 62
     1
100
AcDbCircle
 10
44.99971786139212
 20
17.25144122112868
 30
0.0
 40
0.066666669
100
AcDbArc
 50
275.0000100000006
 51
339.949859999963
  0
ARC
  5
84
330
2
100
AcDbEntity
  8
GAIKEI
  6
Continuous
 62
     1
100
AcDbCircle
 10
44.99971777139217
 20
17.93551612112867
 30
0.0
 40
0.0666666690001
100
AcDbArc
 50
20.05001099999528
 51
85.00001470000734
  0
ARC
  5
85
330
2
100
AcDbEntity
  8
GAIKEI
  6
Continuous
 62
     1
100
AcDbCircle
 10
45.24352476532317
 20
12.26135807473656
 30
0.0
 40
0.030000001
100
AcDbArc
 50
275.7105929990407
 51
0.1448282327404581
  0
ARC
  5
86
330
2
100
AcDbEntity
  8
GAIKEI
  6
Continuous
 62
     1
100
AcDbCircle
 10
45.24352476532317
 20
14.62705883060499
 30
0.0
 40
0.0300000009999
100
AcDbArc
 50
0.0
 51
84.28940700095926
  0
ARC
  5
87
330
2
100
AcDbEntity
  8
GAIKEI
  6
Continuous
 62
     1
100
AcDbCircle
 10
45.3935188848352
 20
12.92130482915343
 30
0.0
 40
0.1
100
AcDbArc
 50
271.2555262481159
 51
0.0
  0
ARC
  5
88
330
2
100
AcDbEntity
  8
GAIKEI
  6
Continuous
 62
     1
100
AcDbCircle
 10
45.3935188848352
 20
13.96563482915326
 30
0.0
 40
0.100004026239
100
AcDbArc
 50
0.0
 51
88.74402649224135
  0
ARC
  5
89
330
2
100
AcDbEntity
  8
GAIKEI
  6
Continuous
 62
     1
100
AcDbCircle
 10
44.92852478038469
 20
11.58925712639438
 30
0.0
 40
0.0550000000001
100
AcDbArc
 50
9.999999999780264
 51
179.9999999995701
  0
ARC
  5
8A
330
2
100
AcDbEntity
  8
GAIKEI
  6
Continuous
 62
     1
100
AcDbCircle
 10
44.92852478038469
 20
10.6991597789472
 30
0.0
 40
0.0550000000001
100
AcDbArc
 50
180.0000000004038
 51
350.0000000000081
  0
ARC
  5
8B
330
2
100
AcDbEntity
  8
GAIKEI
  6
Continuous
 62
     1
100
AcDbCircle
 10
42.27351726843653
 20
12.164208452671
 30
0.0
 40
0.6000000000000001
100
AcDbArc
 50
270.0
 51
90.0
  0
ARC
  5
8C
330
2
100
AcDbEntity
  8
GAIKEI
  6
Continuous
 62
     1
100
AcDbCircle
 10
15.02301726843649
 20
12.164208452671
 30
0.0
 40
0.6000000000000001
100
AcDbArc
 50
90.0
 51
270.0
  0
ARC
  5
8D
330
2
100
AcDbEntity
  8
GAIKEI
  6
Continuous
 62
     1
100
AcDbCircle
 10
42.27351726843653
 20
12.164208452671
 30
0.0
 40
0.95
100
AcDbArc
 50
270.0
 51
90.0
  0
ARC
  5
8E
330
2
100
AcDbEntity
  8
GAIKEI
  6
Continuous
 62
     1
100
AcDbCircle
 10
15.02301726843649
 20
12.164208452671
 30
0.0
 40
0.95
100
AcDbArc
 50
90.0
 51
270.0
  0
ARC
  5
8F
330
2
100
AcDbEntity
  8
GAIKEI
  6
Continuous
100
AcDbCircle
 10
28.86946802823388
 20
14.34035356407025
 30
0.0
 40
19.900000036709
100
AcDbArc
 50
188.5677301664117
 51
190.8998208173764
  0
ARC
  5
90
330
2
100
AcDbEntity
  8
GAIKEI
  6
Continuous
100
AcDbCircle
 10
9.42590997305308
 20
10.60029051737467
 30
0.0
 40
0.1000000138103
100
AcDbArc
 50
193.5185765201169
 51
250.0802122863618
  0
ARC
  5
91
330
2
100
AcDbEntity
  8
GAIKEI
  6
Continuous
100
AcDbCircle
 10
9.62301751593992
 20
11.14420839364936
 30
0.0
 40
0.6785309460810001
100
AcDbArc
 50
250.0802495783341
 51
252.5343689344213
  0
ARC
  5
92
330
2
100
AcDbEntity
  8
GAIKEI
  6
Continuous
 62
     1
100
AcDbCircle
 10
9.873017326750812
 20
12.3942085844227
 30
0.0
 40
1.000000022831899
100
AcDbArc
 50
168.5258815792334
 51
204.2451280376938
  0
ARC
  5
93
330
2
100
AcDbEntity
  8
GAIKEI
  6
Continuous
 62
     1
100
AcDbCircle
 10
36.66351726843664
 20
12.25420845267058
 30
0.0
 40
0.045
100
AcDbArc
 50
180.0
 51
270.0
  0
ARC
  5
94
330
2
100
AcDbEntity
  8
GAIKEI
  6
Continuous
 62
     1
100
AcDbCircle
 10
36.66351726843664
 20
12.07420845267052
 30
0.0
 40
0.0450000000001
100
AcDbArc
 50
90.0
 51
180.0
  0
ARC
  5
95
330
2
100
AcDbEntity
  8
GAIKEI
  6
Continuous
 62
     1
100
AcDbCircle
 10
36.48351726843657
 20
12.07420845267052
 30
0.0
 40
0.045
100
AcDbArc
 50
0.0
 51
90.0
  0
ARC
  5
96
330
2
100
AcDbEntity
  8
GAIKEI
  6
Continuous
 62
     1
100
AcDbCircle
 10
36.48351726843657
 20
12.25420845267058
 30
0.0
 40
0.0450000000001
100
AcDbArc
 50
270.0
 51
0.0
  0
ARC
  5
97
330
2
100
AcDbEntity
  8
GAIKEI
  6
Continuous
 62
     1
100
AcDbCircle
 10
15.33301726843649
 20
12.30420897208029
 30
0.0
 40
0.0450000000001
100
AcDbArc
 50
270.0
 51
0.0
  0
ARC
  5
98
330
2
100
AcDbEntity
  8
GAIKEI
  6
Continuous
 62
     1
100
AcDbCircle
 10
15.33301726843649
 20
12.12420897208017
 30
0.0
 40
0.045
100
AcDbArc
 50
0.0
 51
90.0
  0
ARC
  5
99
330
2
100
AcDbEntity
  8
GAIKEI
  6
Continuous
 62
     1
100
AcDbCircle
 10
15.51301726843661
 20
12.12420897208017
 30
0.0
 40
0.0450000000001
100
AcDbArc
 50
90.0
 51
180.0
  0
ARC
  5
9A
330
2
100
AcDbEntity
  8
GAIKEI
  6
Continuous
 62
     1
100
AcDbCircle
 10
15.51301726843661
 20
12.30420897208029
 30
0.0
 40
0.045
100
AcDbArc
 50
180.0
 51
270.0
  0
LINE
  5
9B
330
2
100
AcDbEntity
  8
GAIKEI
  6
Continuous
 62
     1
100
AcDbLine
 10
9.243013864106103
 20
18.4380890496908
 30
0.0
 11
9.243013864106103
 21
18.18773110127336
 31
0.0
  0
LINE
  5
9C
330
2
100
AcDbEntity
  8
GAIKEI
  6
Continuous
 62
     1
100
AcDbLine
 10
8.884187648746092
 20
18.29420845267077
 30
0.0
 11
8.884187648746092
 21
18.04420845267077
 31
0.0
  0
LINE
  5
9D
330
2
100
AcDbEntity
  8
GAIKEI
  6
Continuous
 62
     1
100
AcDbLine
 10
8.884191126036114
 20
18.04420845267077
 30
0.0
 11
9.215423263405909
 21
18.04420845267077
 31
0.0
  0
LINE
  5
9E
330
2
100
AcDbEntity
  8
GAIKEI
  6
Continuous
 62
     1
100
AcDbLine
 10
8.884192092176078
 20
18.29420845267077
 30
0.0
 11
9.243013864106103
 21
18.29420845267077
 31
0.0
  0
LINE
  5
9F
330
2
100
AcDbEntity
  8
GAIKEI
  6
Continuous
 62
     1
100
AcDbLine
 10
9.293753956666193
 20
18.4380890496908
 30
0.0
 11
9.243013864106103
 21
18.4380890496908
 31
0.0
  0
LINE
  5
A0
330
2
100
AcDbEntity
  8
GAIKEI
  6
Continuous
 62
     1
100
AcDbLine
 10
45.15251583131998
 20
11.93570829520092
 30
0.0
 11
45.15251583131998
 21
12.02920729520059
 31
0.0
  0
LINE
  5
A1
330
2
100
AcDbEntity
  8
GAIKEI
  6
Continuous
 62
     1
100
AcDbLine
 10
44.87351726843655
 20
11.8357082952009
 30
0.0
 11
45.05251583131996
 21
11.8357082952009
 31
0.0
  0
LINE
  5
A2
330
2
100
AcDbEntity
  8
GAIKEI
  6
Continuous
 62
     1
100
AcDbLine
 10
44.87352478038485
 20
12.02920729520059
 30
0.0
 11
45.22752334326788
 21
12.02920729520059
 31
0.0
  0
LINE
  5
A3
330
2
100
AcDbEntity
  8
GAIKEI
  6
Continuous
 62
     1
100
AcDbLine
 10
45.22752334326788
 20
12.02920729520059
 30
0.0
 11
45.22752334326788
 21
12.2296083180438
 31
0.0
  0
LINE
  5
A4
330
2
100
AcDbEntity
  8
GAIKEI
  6
Continuous
 62
     1
100
AcDbLine
 10
44.98806084131286
 20
15.09025880112756
 30
0.0
 11
44.98806084131286
 21
15.69669880112792
 31
0.0
  0
LINE
  5
A5
330
2
100
AcDbEntity
  8
GAIKEI
  6
Continuous
 62
     1
100
AcDbLine
 10
44.98806084131286
 20
15.69669880112792
 30
0.0
 11
44.87351584139207
 21
15.7067273414404
 31
0.0
  0
LINE
  5
A6
330
2
100
AcDbEntity
  8
GAIKEI
  6
Continuous
 62
     1
100
AcDbLine
 10
44.98806084131286
 20
15.09025880112756
 30
0.0
 11
44.87351584139219
 21
15.08023802924515
 31
0.0
  0
LINE
  5
A7
330
2
100
AcDbEntity
  8
GAIKEI
  6
Continuous
 62
     1
100
AcDbLine
 10
44.87352478038474
 20
18.01347797163794
 30
0.0
 11
45.00552814139211
 21
18.0019292111287
 31
0.0
  0
LINE
  5
A8
330
2
100
AcDbEntity
  8
GAIKEI
  6
Continuous
 62
     1
100
AcDbLine
 10
44.87352478038474
 20
17.17347948566629
 30
0.0
 11
45.00552815139212
 21
17.18502829112867
 31
0.0
  0
LINE
  5
A9
330
2
100
AcDbEntity
  8
GAIKEI
  6
Continuous
 62
     1
100
AcDbLine
 10
45.17352478038469
 20
14.96920845267118
 30
0.0
 11
45.17352478038469
 21
14.6642084449719
 31
0.0
  0
LINE
  5
AA
330
2
100
AcDbEntity
  8
GAIKEI
  6
Continuous
 62
     1
100
AcDbLine
 10
45.07352478038467
 20
15.0692084526712
 30
0.0
 11
44.87352478038462
 21
15.0692084526712
 31
0.0
  0
LINE
  5
AB
330
2
100
AcDbEntity
  8
GAIKEI
  6
Continuous
 62
     1
100
AcDbLine
 10
45.24650990688598
 20
12.23150697489279
 30
0.0
 11
44.87352478038451
 21
12.1942084526708
 31
0.0
  0
LINE
  5
AC
330
2
100
AcDbEntity
  8
GAIKEI
  6
Continuous
 62
     1
100
AcDbLine
 10
44.87352478038451
 20
14.69420845267075
 30
0.0
 11
45.24650990688598
 21
14.65690993044882
 31
0.0
  0
LINE
  5
AD
330
2
100
AcDbEntity
  8
GAIKEI
  6
Continuous
 62
     1
100
AcDbLine
 10
45.27352467048195
 20
12.26143390654374
 30
0.0
 11
45.27352478532316
 21
14.6270588290343
 31
0.0
  0
LINE
  5
AE
330
2
100
AcDbEntity
  8
GAIKEI
  6
Continuous
 62
     1
100
AcDbLine
 10
45.2735246990511
 20
12.81865906167547
 30
0.0
 11
45.39570988483524
 21
12.82133482915321
 31
0.0
  0
LINE
  5
AF
330
2
100
AcDbEntity
  8
GAIKEI
  6
Continuous
 62
     1
100
AcDbLine
 10
45.39571088483524
 20
14.06561482915333
 30
0.0
 11
45.27352476448186
 21
14.06829060868415
 31
0.0
  0
LINE
  5
B0
330
2
100
AcDbEntity
  8
GAIKEI
  6
Continuous
 62
     1
100
AcDbLine
 10
45.49351888483522
 20
12.92130482915343
 30
0.0
 11
45.49351888483522
 21
13.96563482915326
 31
0.0
  0
LINE
  5
B1
330
2
100
AcDbEntity
  8
GAIKEI
  6
Continuous
 62
     1
100
AcDbLine
 10
44.98268920680049
 20
11.59880777616592
 30
0.0
 11
45.00113288969635
 21
11.49420845267002
 31
0.0
  0
LINE
  5
B2
330
2
100
AcDbEntity
  8
GAIKEI
  6
Continuous
 62
     1
100
AcDbLine
 10
45.00113288969635
 20
11.49420845267002
 30
0.0
 11
45.18352478038468
 21
11.39420845267
 31
0.0
  0
LINE
  5
B3
330
2
100
AcDbEntity
  8
GAIKEI
  6
Continuous
 62
     1
100
AcDbLine
 10
45.1835247803848
 20
10.89420845267
 30
0.0
 11
45.00113288969635
 21
10.79420845266997
 31
0.0
  0
LINE
  5
B4
330
2
100
AcDbEntity
  8
GAIKEI
  6
Continuous
 62
     1
100
AcDbLine
 10
45.00113288969635
 20
10.79420845266963
 30
0.0
 11
45.00113288969635
 21
11.49420845267002
 31
0.0
  0
LINE
  5
B5
330
2
100
AcDbEntity
  8
GAIKEI
  6
Continuous
 62
     1
100
AcDbLine
 10
45.18352478038468
 20
11.39420845267
 30
0.0
 11
45.1835247803848
 21
10.89420845267
 31
0.0
  0
LINE
  5
B6
330
2
100
AcDbEntity
  8
GAIKEI
  6
Continuous
 62
     1
100
AcDbLine
 10
45.00113288969635
 20
10.79420845267145
 30
0.0
 11
44.98268920680049
 21
10.68960912917549
 31
0.0
  0
LINE
  5
B7
330
2
100
AcDbEntity
  8
GAIKEI
  6
Continuous
100
AcDbLine
 10
41.27350955484678
 20
10.44420949148957
 30
0.0
 11
41.1821304206312
 21
9.484728582226694
 31
0.0
  0
LINE
  5
B8
330
2
100
AcDbEntity
  8
GAIKEI
  6
Continuous
100
AcDbLine
 10
39.1648886890622
 20
9.484728582226694
 30
0.0
 11
39.07350955484674
 21
10.44420949148957
 31
0.0
  0
LINE
  5
B9
330
2
100
AcDbEntity
  8
GAIKEI
  6
Continuous
100
AcDbLine
 10
41.08258087337185
 20
9.394209491489618
 30
0.0
 11
39.26443823632167
 21
9.394209491489618
 31
0.0
  0
LINE
  5
BA
330
2
100
AcDbEntity
  8
GAIKEI
  6
Continuous
100
AcDbLine
 10
14.8320808733722
 20
9.394209491489618
 30
0.0
 11
13.01393823632202
 21
9.394209491489618
 31
0.0
  0
LINE
  5
BB
330
2
100
AcDbEntity
  8
GAIKEI
  6
Continuous
100
AcDbLine
 10
12.91438868906249
 20
9.484728582226694
 30
0.0
 11
12.82300955484709
 21
10.44420949148957
 31
0.0
  0
LINE
  5
BC
330
2
100
AcDbEntity
  8
GAIKEI
  6
Continuous
100
AcDbLine
 10
15.02300955484713
 20
10.44420949148957
 30
0.0
 11
14.93163042063162
 21
9.484728582226694
 31
0.0
  0
LINE
  5
BD
330
2
100
AcDbEntity
  8
GAIKEI
  6
Continuous
100
AcDbLine
 10
12.77300955484713
 20
10.44420949148957
 30
0.0
 11
15.07300955484709
 21
10.44420949148957
 31
0.0
  0
LINE
  5
BE
330
2
100
AcDbEntity
  8
GAIKEI
  6
Continuous
 62
     1
100
AcDbLine
 10
15.02301726843654
 20
12.76420845267103
 30
0.0
 11
42.27351726843653
 21
12.76420845267103
 31
0.0
  0
LINE
  5
BF
330
2
100
AcDbEntity
  8
GAIKEI
  6
Continuous
 62
     1
100
AcDbLine
 10
15.02301726843654
 20
11.56420845267098
 30
0.0
 11
42.27351726843653
 21
11.56420845267098
 31
0.0
  0
LINE
  5
C0
330
2
100
AcDbEntity
  8
GAIKEI
  6
Continuous
100
AcDbLine
 10
44.87351762218622
 20
10.64407423568832
 30
0.0
 11
44.87351729292345
 21
18.87420950906579
 31
0.0
  0
LINE
  5
C1
330
2
100
AcDbEntity
  8
GAIKEI
  6
Continuous
100
AcDbLine
 10
44.54351762112821
 20
10.64407423568832
 30
0.0
 11
44.54351762686508
 21
10.44420949148957
 31
0.0
  0
LINE
  5
C2
330
2
100
AcDbEntity
  8
GAIKEI
  6
Continuous
 62
     1
100
AcDbLine
 10
11.94301386410609
 20
10.44420949148957
 30
0.0
 11
11.94301386410609
 21
19.14420845267079
 31
0.0
  0
LINE
  5
C3
330
2
100
AcDbEntity
  8
GAIKEI
  6
Continuous
100
AcDbLine
 10
44.54351763394311
 20
10.44420949148957
 30
0.0
 11
11.94301386410609
 21
10.44420949148957
 31
0.0
  0
LINE
  5
C4
330
2
100
AcDbEntity
  8
GAIKEI
  6
Continuous
100
AcDbLine
 10
44.87351726843655
 20
10.64407423568832
 30
0.0
 11
44.79351762112822
 21
10.64407423568832
 31
0.0
  0
LINE
  5
C5
330
2
100
AcDbEntity
  8
GAIKEI
  6
Continuous
100
AcDbLine
 10
44.87351726843655
 20
19.09420793326148
 30
0.0
 11
44.87351726843655
 21
10.64407423568832
 31
0.0
  0
LINE
  5
C6
330
2
100
AcDbEntity
  8
GAIKEI
  6
Continuous
100
AcDbLine
 10
11.94301386410609
 20
19.09420793326148
 30
0.0
 11
44.87351726843655
 21
19.09420793326148
 31
0.0
  0
LINE
  5
C7
330
2
100
AcDbEntity
  8
GAIKEI
  6
Continuous
100
AcDbLine
 10
44.54351762112821
 20
10.64407423568832
 30
0.0
 11
44.79351762112822
 21
10.64407423568832
 31
0.0
  0
LINE
  5
C8
330
2
100
AcDbEntity
  8
GAIKEI
  6
Continuous
 62
     1
100
AcDbLine
 10
15.02301726843654
 20
11.21420845267096
 30
0.0
 11
42.27351726843653
 21
11.21420845267096
 31
0.0
  0
LINE
  5
C9
330
2
100
AcDbEntity
  8
GAIKEI
  6
Continuous
 62
     1
100
AcDbLine
 10
15.02301726843654
 20
13.11420845267099
 30
0.0
 11
42.27351726843653
 21
13.11420845267099
 31
0.0
  0
LINE
  5
CA
330
2
100
AcDbEntity
  8
GAIKEI
  6
Continuous
100
AcDbLine
 10
11.92301734149544
 20
10.34420845267078
 30
0.0
 11
11.92301734149544
 21
19.14420845267079
 31
0.0
  0
LINE
  5
CB
330
2
100
AcDbEntity
  8
GAIKEI
  6
Continuous
100
AcDbLine
 10
11.92301734149544
 20
19.14420845267079
 30
0.0
 11
9.522619941495406
 21
19.01842765267076
 31
0.0
  0
LINE
  5
CC
330
2
100
AcDbEntity
  8
GAIKEI
  6
Continuous
100
AcDbLine
 10
9.522619941495406
 20
19.01842765267076
 30
0.0
 11
9.399879441495386
 21
18.91584685267082
 31
0.0
  0
LINE
  5
CD
330
2
100
AcDbEntity
  8
GAIKEI
  6
Continuous
100
AcDbLine
 10
9.328477841495441
 20
10.57741535267075
 30
0.0
 11
9.447250041495408
 21
10.47398475267073
 31
0.0
  0
LINE
  5
CE
330
2
100
AcDbEntity
  8
GAIKEI
  6
Continuous
100
AcDbLine
 10
9.191543141495401
 20
11.37568265267077
 30
0.0
 11
9.073017341495415
 21
11.49420845267082
 31
0.0
  0
LINE
  5
CF
330
2
100
AcDbEntity
  8
GAIKEI
  6
Continuous
 62
     1
100
AcDbLine
 10
8.70301734149541
 20
16.70420845267074
 30
0.0
 11
8.603017341495387
 21
16.60420845267077
 31
0.0
  0
LINE
  5
D0
330
2
100
AcDbEntity
  8
GAIKEI
  6
Continuous
 62
     1
100
AcDbLine
 10
9.009654441495399
 20
16.70420845267074
 30
0.0
 11
8.70301734149541
 21
16.70420845267074
 31
0.0
  0
LINE
  5
D1
330
2
100
AcDbEntity
  8
GAIKEI
  6
Continuous
 62
     1
100
AcDbLine
 10
8.603017341495387
 20
16.60420845267077
 30
0.0
 11
8.603017341495387
 21
15.08420845267074
 31
0.0
  0
LINE
  5
D2
330
2
100
AcDbEntity
  8
GAIKEI
  6
Continuous
 62
     1
100
AcDbLine
 10
8.70301734149541
 20
16.70420845267074
 30
0.0
 11
8.70301734149541
 21
14.98420845267077
 31
0.0
  0
LINE
  5
D3
330
2
100
AcDbEntity
  8
GAIKEI
  6
Continuous
 62
     1
100
AcDbLine
 10
8.70301734149541
 20
14.98420845267077
 30
0.0
 11
8.603017341495387
 21
15.08420845267074
 31
0.0
  0
LINE
  5
D4
330
2
100
AcDbEntity
  8
GAIKEI
  6
Continuous
 62
     1
100
AcDbLine
 10
8.879996941495392
 20
14.98420845267077
 30
0.0
 11
8.70301734149541
 21
14.98420845267077
 31
0.0
  0
LINE
  5
D5
330
2
100
AcDbEntity
  8
GAIKEI
  6
Continuous
100
AcDbLine
 10
9.447250041495408
 20
10.47398475267073
 30
0.0
 11
11.92301734149544
 21
10.34420845267078
 31
0.0
  0
LINE
  5
D6
330
2
100
AcDbEntity
  8
GAIKEI
  6
Continuous
 62
     1
100
AcDbLine
 10
36.78351726843653
 20
12.11920845267048
 30
0.0
 11
36.78351726843653
 21
12.20920845267062
 31
0.0
  0
LINE
  5
D7
330
2
100
AcDbEntity
  8
GAIKEI
  6
Continuous
 62
     1
100
AcDbLine
 10
36.52851726843653
 20
12.25420845267058
 30
0.0
 11
36.52851726843653
 21
12.37420845267047
 31
0.0
  0
LINE
  5
D8
330
2
100
AcDbEntity
  8
GAIKEI
  6
Continuous
 62
     1
100
AcDbLine
 10
36.61851726843656
 20
11.95420845267062
 30
0.0
 11
36.52851726843653
 21
11.95420845267062
 31
0.0
  0
LINE
  5
D9
330
2
100
AcDbEntity
  8
GAIKEI
  6
Continuous
 62
     1
100
AcDbLine
 10
36.36351726843668
 20
12.11920845267048
 30
0.0
 11
36.36351726843668
 21
12.20920845267062
 31
0.0
  0
LINE
  5
DA
330
2
100
AcDbEntity
  8
GAIKEI
  6
Continuous
 62
     1
100
AcDbLine
 10
36.48351726843657
 20
12.11920845267048
 30
0.0
 11
36.36351726843668
 21
12.11920845267048
 31
0.0
  0
LINE
  5
DB
330
2
100
AcDbEntity
  8
GAIKEI
  6
Continuous
 62
     1
100
AcDbLine
 10
36.61851726843656
 20
12.25420845267058
 30
0.0
 11
36.61851726843656
 21
12.37420845267047
 31
0.0
  0
LINE
  5
DC
330
2
100
AcDbEntity
  8
GAIKEI
  6
Continuous
 62
     1
100
AcDbLine
 10
36.78351726843653
 20
12.11920845267048
 30
0.0
 11
36.66351726843664
 21
12.11920845267048
 31
0.0
  0
LINE
  5
DD
330
2
100
AcDbEntity
  8
GAIKEI
  6
Continuous
 62
     1
100
AcDbLine
 10
36.52851726843653
 20
11.95420845267062
 30
0.0
 11
36.52851726843653
 21
12.07420845267052
 31
0.0
  0
LINE
  5
DE
330
2
100
AcDbEntity
  8
GAIKEI
  6
Continuous
 62
     1
100
AcDbLine
 10
36.61851726843656
 20
11.95420845267062
 30
0.0
 11
36.61851726843656
 21
12.07420845267052
 31
0.0
  0
LINE
  5
DF
330
2
100
AcDbEntity
  8
GAIKEI
  6
Continuous
 62
     1
100
AcDbLine
 10
36.48351726843657
 20
12.20920845267062
 30
0.0
 11
36.36351726843668
 21
12.20920845267062
 31
0.0
  0
LINE
  5
E0
330
2
100
AcDbEntity
  8
GAIKEI
  6
Continuous
 62
     1
100
AcDbLine
 10
36.78351726843653
 20
12.20920845267062
 30
0.0
 11
36.66351726843664
 21
12.20920845267062
 31
0.0
  0
LINE
  5
E1
330
2
100
AcDbEntity
  8
GAIKEI
  6
Continuous
 62
     1
100
AcDbLine
 10
36.61851726843656
 20
12.37420845267047
 30
0.0
 11
36.52851726843653
 21
12.37420845267047
 31
0.0
  0
LINE
  5
E2
330
2
100
AcDbEntity
  8
GAIKEI
  6
Continuous
 62
     1
100
AcDbLine
 10
15.46801726843648
 20
12.42420897208023
 30
0.0
 11
15.37801726843651
 21
12.42420897208023
 31
0.0
  0
LINE
  5
E3
330
2
100
AcDbEntity
  8
GAIKEI
  6
Continuous
 62
     1
100
AcDbLine
 10
15.6330172684365
 20
12.25920897208027
 30
0.0
 11
15.51301726843661
 21
12.25920897208027
 31
0.0
  0
LINE
  5
E4
330
2
100
AcDbEntity
  8
GAIKEI
  6
Continuous
 62
     1
100
AcDbLine
 10
15.33301726843649
 20
12.25920897208027
 30
0.0
 11
15.2130172684366
 21
12.25920897208027
 31
0.0
  0
LINE
  5
E5
330
2
100
AcDbEntity
  8
GAIKEI
  6
Continuous
 62
     1
100
AcDbLine
 10
15.46801726843648
 20
12.00420897208028
 30
0.0
 11
15.46801726843648
 21
12.12420897208017
 31
0.0
  0
LINE
  5
E6
330
2
100
AcDbEntity
  8
GAIKEI
  6
Continuous
 62
     1
100
AcDbLine
 10
15.37801726843651
 20
12.00420897208028
 30
0.0
 11
15.37801726843651
 21
12.12420897208017
 31
0.0
  0
LINE
  5
E7
330
2
100
AcDbEntity
  8
GAIKEI
  6
Continuous
 62
     1
100
AcDbLine
 10
15.6330172684365
 20
12.16920897208024
 30
0.0
 11
15.51301726843661
 21
12.16920897208024
 31
0.0
  0
LINE
  5
E8
330
2
100
AcDbEntity
  8
GAIKEI
  6
Continuous
 62
     1
100
AcDbLine
 10
15.46801726843648
 20
12.30420897208029
 30
0.0
 11
15.46801726843648
 21
12.42420897208023
 31
0.0
  0
LINE
  5
E9
330
2
100
AcDbEntity
  8
GAIKEI
  6
Continuous
 62
     1
100
AcDbLine
 10
15.33301726843649
 20
12.16920897208024
 30
0.0
 11
15.2130172684366
 21
12.16920897208024
 31
0.0
  0
LINE
  5
EA
330
2
100
AcDbEntity
  8
GAIKEI
  6
Continuous
 62
     1
100
AcDbLine
 10
15.2130172684366
 20
12.16920897208024
 30
0.0
 11
15.2130172684366
 21
12.25920897208027
 31
0.0
  0
LINE
  5
EB
330
2
100
AcDbEntity
  8
GAIKEI
  6
Continuous
 62
     1
100
AcDbLine
 10
15.46801726843648
 20
12.00420897208028
 30
0.0
 11
15.37801726843651
 21
12.00420897208028
 31
0.0
  0
LINE
  5
EC
330
2
100
AcDbEntity
  8
GAIKEI
  6
Continuous
 62
     1
100
AcDbLine
 10
15.37801726843651
 20
12.30420897208029
 30
0.0
 11
15.37801726843651
 21
12.42420897208023
 31
0.0
  0
LINE
  5
ED
330
2
100
AcDbEntity
  8
GAIKEI
  6
Continuous
 62
     1
100
AcDbLine
 10
15.6330172684365
 20
12.16920897208024
 30
0.0
 11
15.6330172684365
 21
12.25920897208027
 31
0.0
  0
LINE
  5
EE
330
2
100
AcDbEntity
  8
GAIKEI
 62
     1
100
AcDbLine
 10
-18.26551740310179
 20
18.29420949148959
 30
0.0
 11
-18.31165216819181
 21
18.04420949148959
 31
0.0
  0
DIMENSION
  5
EF
330
2
100
AcDbEntity
  8
SUNPO
100
AcDbDimension
  2
*D6
 10
-13.91580123617103
 20
27.13083250900854
 30
0.0
 11
-27.41580123617104
 21
28.88083250900854
 31
0.0
 70
    33
  1
270
 71
     5
 42
27.0
  3
STANDARD
100
AcDbAlignedDimension
 13
-40.91580123617103
 23
19.13083250900854
 33
0.0
 14
-13.91580123617103
 24
19.13083250900854
 34
0.0
1001
ACAD
1000
DSTYLE
1002
{
1070
   287
1070
     3
1070
    40
1040
1.0
1070
   140
1040
2.5
1070
   147
1040
0.5
1070
   172
1070
     1
1070
   279
1070
     0
1070
   288
1070
     0
1002
}
  0
DIMENSION
  5
FE
330
2
100
AcDbEntity
  8
SUNPO
100
AcDbDimension
  2
*D5
 10
-5.919594167666389
 20
10.3442094914896
 30
0.0
 11
-7.669594167666391
 21
14.74420949148961
 31
0.0
 70
    33
  1
88
 71
     5
 42
8.800000000000011
  3
STANDARD
100
AcDbAlignedDimension
 13
-13.91959416766639
 23
19.14420949148962
 33
0.0
 14
-13.91959416766639
 24
10.34420949148961
 34
0.0
1001
ACAD
1000
DSTYLE
1002
{
1070
   287
1070
     3
1070
    40
1040
1.0
1070
   140
1040
2.5
1070
   147
1040
0.5
1070
   172
1070
     1
1070
   279
1070
     0
1070
   288
1070
     0
1002
}
  0
DIMENSION
  5
10B
330
2
100
AcDbEntity
  8
SUNPO
100
AcDbDimension
  2
*D4
 10
44.87351726843655
 20
27.15940341853138
 30
0.0
 11
26.87353147501915
 21
28.90940341853138
 31
0.0
 70
    33
  1
360
 71
     5
 42
35.99997158683482
  3
STANDARD
100
AcDbAlignedDimension
 13
8.87354568160174
 23
19.15940341853138
 33
0.0
 14
44.87351726843655
 24
19.15940341853138
 34
0.0
1001
ACAD
1000
DSTYLE
1002
{
1070
   287
1070
     3
1070
    40
1040
1.0
1070
   140
1040
2.5
1070
   147
1040
0.5
1070
   172
1070
     1
1070
   279
1070
     0
1070
   288
1070
     0
1002
}
  0
ELLIPSE
  5
118
330
2
100
AcDbEntity
  8
GAIKEI
  6
Continuous
 62
     1
100
AcDbEllipse
 10
-36.98884919852214
 20
11.52661383772721
 30
0.0
 11
0.3893687608427875
 21
0.0
 31
0.0
210
0.0
220
0.0
230
1.0
 40
0.2859004590695319
 41
0.0
 42
6.283185307179586
  0
ELLIPSE
  5
119
330
2
100
AcDbEntity
  8
GAIKEI
  6
Continuous
 62
     1
100
AcDbEllipse
 10
-36.98884919852214
 20
11.52661383772721
 30
0.0
 11
0.5078237990525601
 21
0.0
 31
0.0
210
0.0
220
0.0
230
1.0
 40
0.3419319471865198
 41
0.0
 42
6.283185307179586
  0
ELLIPSE
  5
11A
330
2
100
AcDbEntity
  8
GAIKEI
  6
Continuous
 62
     1
100
AcDbEllipse
 10
-36.98884919852214
 20
12.64215132869668
 30
0.0
 11
0.5078237990525601
 21
0.0
 31
0.0
210
0.0
220
0.0
230
1.0
 40
0.3419319471865198
 41
0.0
 42
6.283185307179586
  0
ELLIPSE
  5
11B
330
2
100
AcDbEntity
  8
GAIKEI
  6
Continuous
 62
     1
100
AcDbEllipse
 10
-36.98884919852214
 20
12.64215132869668
 30
0.0
 11
0.3893687608427875
 21
0.0
 31
0.0
210
0.0
220
0.0
230
1.0
 40
0.2859004590695319
 41
0.0
 42
6.283185307179586
  0
ELLIPSE
  5
11C
330
2
100
AcDbEntity
  8
GAIKEI
  6
Continuous
 62
     1
100
AcDbEllipse
 10
-33.36662418351023
 20
12.64215132869668
 30
0.0
 11
0.5078237990525601
 21
0.0
 31
0.0
210
0.0
220
0.0
230
1.0
 40
0.3419319471865198
 41
0.0
 42
6.283185307179586
  0
ELLIPSE
  5
11D
330
2
100
AcDbEntity
  8
GAIKEI
  6
Continuous
 62
     1
100
AcDbEllipse
 10
-33.36662418351023
 20
12.64215132869668
 30
0.0
 11
0.3893687608427875
 21
0.0
 31
0.0
210
0.0
220
0.0
230
1.0
 40
0.2859004590695319
 41
0.0
 42
6.283185307179586
  0
ELLIPSE
  5
11E
330
2
100
AcDbEntity
  8
GAIKEI
  6
Continuous
 62
     1
100
AcDbEllipse
 10
-33.36662418351023
 20
13.73899273806415
 30
0.0
 11
0.3893687608427875
 21
0.0
 31
0.0
210
0.0
220
0.0
230
1.0
 40
0.2859004590695319
 41
0.0
 42
6.283185307179586
  0
ELLIPSE
  5
11F
330
2
100
AcDbEntity
  8
GAIKEI
  6
Continuous
 62
     1
100
AcDbEllipse
 10
-33.36662418351023
 20
13.73899273806415
 30
0.0
 11
0.5078237990525601
 21
0.0
 31
0.0
210
0.0
220
0.0
230
1.0
 40
0.3419319471865198
 41
0.0
 42
6.283185307179586
  0
ELLIPSE
  5
120
330
2
100
AcDbEntity
  8
GAIKEI
  6
Continuous
 62
     1
100
AcDbEllipse
 10
-35.16838515930141
 20
13.73899273806415
 30
0.0
 11
0.5078237990525601
 21
0.0
 31
0.0
210
0.0
220
0.0
230
1.0
 40
0.3419319471865198
 41
0.0
 42
6.283185307179586
  0
ELLIPSE
  5
121
330
2
100
AcDbEntity
  8
GAIKEI
  6
Continuous
 62
     1
100
AcDbEllipse
 10
-35.16838515930141
 20
13.73899273806415
 30
0.0
 11
0.3893687608427875
 21
0.0
 31
0.0
210
0.0
220
0.0
230
1.0
 40
0.2859004590695319
 41
0.0
 42
6.283185307179586
  0
ELLIPSE
  5
122
330
2
100
AcDbEntity
  8
GAIKEI
  6
Continuous
 62
     1
100
AcDbEllipse
 10
-36.98884919852214
 20
13.73899273806415
 30
0.0
 11
0.3893687608427875
 21
0.0
 31
0.0
210
0.0
220
0.0
230
1.0
 40
0.2859004590695319
 41
0.0
 42
6.283185307179586
  0
ELLIPSE
  5
123
330
2
100
AcDbEntity
  8
GAIKEI
  6
Continuous
 62
     1
100
AcDbEllipse
 10
-36.98884919852214
 20
13.73899273806415
 30
0.0
 11
0.5078237990525601
 21
0.0
 31
0.0
210
0.0
220
0.0
230
1.0
 40
0.3419319471865198
 41
0.0
 42
6.283185307179586
  0
CIRCLE
  5
124
330
2
100
AcDbEntity
  8
GAIKEI
  6
Continuous
 62
     1
100
AcDbCircle
 10
-35.20092356667362
 20
12.32583115961716
 30
0.0
 40
0.4157966083552703
  0
LWPOLYLINE
  5
125
330
2
100
AcDbEntity
  8
GAIKEI
  6
Continuous
 62
     1
100
AcDbPolyline
 90
        4
 70
     1
 43
0.0
 10
-37.60557137926867
 20
14.47231694524049
 10
-32.79835377627262
 20
14.47231694524049
 10
-32.79835377627262
 20
14.60088833968251
 10
-37.60557137926867
 20
14.60088833968251
  0
CIRCLE
  5
126
330
2
100
AcDbEntity
  8
GAIKEI
  6
Continuous
 62
     1
100
AcDbCircle
 10
-33.38518819391686
 20
15.13124537943542
 30
0.0
 40
0.4260575986611973
  0
CIRCLE
  5
127
330
2
100
AcDbEntity
  8
GAIKEI
  6
Continuous
 62
     1
100
AcDbCircle
 10
-35.21804004374815
 20
15.13124537943542
 30
0.0
 40
0.4260575986611973
  0
CIRCLE
  5
128
330
2
100
AcDbEntity
  8
GAIKEI
  6
Continuous
 62
     1
100
AcDbCircle
 10
-37.01873696162443
 20
15.13124537943542
 30
0.0
 40
0.4260575986611973
  0
LINE
  5
129
330
2
100
AcDbEntity
  8
GAIKEI
  6
Continuous
 62
     1
100
AcDbLine
 10
-32.25538583711318
 20
17.0942887319681
 30
0.0
 11
-32.25538583711318
 21
16.36292839257692
 31
0.0
  0
LINE
  5
12A
330
2
100
AcDbEntity
  8
GAIKEI
  6
Continuous
 62
     1
100
AcDbLine
 10
-32.25538583711318
 20
16.36292839257692
 30
0.0
 11
-32.66693571432631
 21
16.36292839257692
 31
0.0
  0
LINE
  5
12B
330
2
100
AcDbEntity
  8
GAIKEI
  6
Continuous
 62
     1
100
AcDbLine
 10
-32.25538583711318
 20
17.0942887319681
 30
0.0
 11
-32.66693571432631
 21
17.0942887319681
 31
0.0
  0
LINE
  5
12C
330
2
100
AcDbEntity
  8
GAIKEI
  6
Continuous
 62
     1
100
AcDbLine
 10
-38.10853220909292
 20
16.36292839257692
 30
0.0
 11
-38.10853220909292
 21
17.0942887319681
 31
0.0
  0
LINE
  5
12D
330
2
100
AcDbEntity
  8
GAIKEI
  6
Continuous
 62
     1
100
AcDbLine
 10
-37.71004770209595
 20
17.0942887319681
 30
0.0
 11
-38.10853220909292
 21
17.0942887319681
 31
0.0
  0
LINE
  5
12E
330
2
100
AcDbEntity
  8
GAIKEI
  6
Continuous
 62
     1
100
AcDbLine
 10
-37.71004770209595
 20
16.36292839257692
 30
0.0
 11
-38.10853220909292
 21
16.36292839257692
 31
0.0
  0
LINE
  5
12F
330
2
100
AcDbEntity
  8
GAIKEI
  6
Continuous
 62
     1
100
AcDbLine
 10
-37.71004770209595
 20
17.1399984705821
 30
0.0
 11
-37.71004770209595
 21
16.31721865396298
 31
0.0
  0
LINE
  5
130
330
2
100
AcDbEntity
  8
GAIKEI
  6
Continuous
 62
     1
100
AcDbLine
 10
-36.29902183424281
 20
17.1399984705821
 30
0.0
 11
-37.71004770209595
 21
17.1399984705821
 31
0.0
  0
LINE
  5
131
330
2
100
AcDbEntity
  8
GAIKEI
  6
Continuous
 62
     1
100
AcDbLine
 10
-36.29902183424281
 20
16.31721865396298
 30
0.0
 11
-36.29902183424281
 21
17.1399984705821
 31
0.0
  0
LINE
  5
132
330
2
100
AcDbEntity
  8
GAIKEI
  6
Continuous
 62
     1
100
AcDbLine
 10
-37.71004770209595
 20
16.31721865396298
 30
0.0
 11
-36.29902183424281
 21
16.31721865396298
 31
0.0
  0
LINE
  5
133
330
2
100
AcDbEntity
  8
GAIKEI
  6
Continuous
 62
     1
100
AcDbLine
 10
-35.90053732724579
 20
17.1399984705821
 30
0.0
 11
-35.90053732724579
 21
16.31721865396298
 31
0.0
  0
LINE
  5
134
330
2
100
AcDbEntity
  8
GAIKEI
  6
Continuous
 62
     1
100
AcDbLine
 10
-34.48951145939265
 20
17.1399984705821
 30
0.0
 11
-35.90053732724579
 21
17.1399984705821
 31
0.0
  0
LINE
  5
135
330
2
100
AcDbEntity
  8
GAIKEI
  6
Continuous
 62
     1
100
AcDbLine
 10
-34.48951145939265
 20
16.31721865396298
 30
0.0
 11
-34.48951145939265
 21
17.1399984705821
 31
0.0
  0
LINE
  5
136
330
2
100
AcDbEntity
  8
GAIKEI
  6
Continuous
 62
     1
100
AcDbLine
 10
-35.90053732724579
 20
16.31721865396298
 30
0.0
 11
-34.48951145939265
 21
16.31721865396298
 31
0.0
  0
LINE
  5
137
330
2
100
AcDbEntity
  8
GAIKEI
  6
Continuous
 62
     1
100
AcDbLine
 10
-34.07796158217946
 20
17.1399984705821
 30
0.0
 11
-34.07796158217946
 21
16.31721865396298
 31
0.0
  0
LINE
  5
138
330
2
100
AcDbEntity
  8
GAIKEI
  6
Continuous
 62
     1
100
AcDbLine
 10
-32.66693571432631
 20
17.1399984705821
 30
0.0
 11
-34.07796158217946
 21
17.1399984705821
 31
0.0
  0
LINE
  5
139
330
2
100
AcDbEntity
  8
GAIKEI
  6
Continuous
 62
     1
100
AcDbLine
 10
-32.66693571432631
 20
16.31721865396298
 30
0.0
 11
-32.66693571432631
 21
17.1399984705821
 31
0.0
  0
LINE
  5
13A
330
2
100
AcDbEntity
  8
GAIKEI
  6
Continuous
 62
     1
100
AcDbLine
 10
-34.07796158217946
 20
16.31721865396298
 30
0.0
 11
-32.66693571432631
 21
16.31721865396298
 31
0.0
  0
LINE
  5
13B
330
2
100
AcDbEntity
  8
GAIKEI
  6
Continuous
 62
     1
100
AcDbLine
 10
-34.09102695239568
 20
17.0942887319681
 30
0.0
 11
-34.48951145939265
 21
17.0942887319681
 31
0.0
  0
LINE
  5
13C
330
2
100
AcDbEntity
  8
GAIKEI
  6
Continuous
 62
     1
100
AcDbLine
 10
-34.09102695239568
 20
16.36292839257692
 30
0.0
 11
-34.48951145939265
 21
16.36292839257692
 31
0.0
  0
LINE
  5
13D
330
2
100
AcDbEntity
  8
GAIKEI
  6
Continuous
 62
     1
100
AcDbLine
 10
-35.90053732724579
 20
16.36292839257692
 30
0.0
 11
-36.29902183424281
 21
16.36292839257692
 31
0.0
  0
LINE
  5
13E
330
2
100
AcDbEntity
  8
GAIKEI
  6
Continuous
 62
     1
100
AcDbLine
 10
-35.90053732724579
 20
17.0942887319681
 30
0.0
 11
-36.29902183424281
 21
17.0942887319681
 31
0.0
  0
LINE
  5
13F
330
2
100
AcDbEntity
  8
GAIKEI
 62
     1
100
AcDbLine
 10
-32.00084490715767
 20
19.01842866777968
 30
0.0
 11
-32.01180894991319
 21
10.47398579148961
 31
0.0
  0
LINE
  5
140
330
2
100
AcDbEntity
  8
GAIKEI
  6
Continuous
 62
     1
100
AcDbLine
 10
-31.91580123617104
 20
10.46567883607963
 30
0.0
 11
-31.91580123617092
 21
18.29420949148959
 31
0.0
  0
LINE
  5
141
330
2
100
AcDbEntity
  8
GAIKEI
  6
Continuous
 62
     1
100
AcDbLine
 10
-31.91580123617092
 20
18.37083082419968
 30
0.0
 11
-31.91580123617098
 21
19.01842866777968
 31
0.0
  0
LINE
  5
142
330
2
100
AcDbEntity
  8
GAIKEI
  6
Continuous
 62
     1
100
AcDbLine
 10
-17.90994459410188
 20
18.37083082419968
 30
0.0
 11
-17.90994459410183
 21
19.01842866777968
 31
0.0
  0
LINE
  5
143
330
2
100
AcDbEntity
  8
GAIKEI
  6
Continuous
 62
     1
100
AcDbLine
 10
-13.91580123617098
 20
14.17380327289516
 30
0.0
 11
-16.05656603125942
 21
14.1738032728951
 31
0.0
  0
LINE
  5
144
330
2
100
AcDbEntity
  8
GAIKEI
  6
Continuous
 62
     1
100
AcDbLine
 10
-16.05656603125942
 20
14.1738032728951
 30
0.0
 11
-16.05656603125942
 21
11.39588229775512
 31
0.0
  0
LINE
  5
145
330
2
100
AcDbEntity
  8
GAIKEI
  6
Continuous
 62
     1
100
AcDbLine
 10
-16.05656603125942
 20
11.39588229775512
 30
0.0
 11
-13.91580123617098
 21
11.39588229775512
 31
0.0
  0
ELLIPSE
  5
146
330
2
100
AcDbEntity
  8
GAIKEI
  6
Continuous
 62
     1
100
AcDbEllipse
 10
-16.80545595111943
 20
13.48508403450421
 30
0.0
 11
0.4715490974112553
 21
0.0
 31
0.0
210
0.0
220
0.0
230
1.0
 40
0.3702268976673757
 41
0.0
 42
6.283185307179586
  0
ELLIPSE
  5
147
330
2
100
AcDbEntity
  8
GAIKEI
  6
Continuous
 62
     1
100
AcDbEllipse
 10
-16.80545595111943
 20
13.48508403450421
 30
0.0
 11
0.3230983356775871
 21
0.0
 31
0.0
210
0.0
220
0.0
230
1.0
 40
0.405248044935876
 41
0.0
 42
6.283185307179586
  0
ARC
  5
148
330
2
100
AcDbEntity
  8
GAIKEI
  6
Continuous
 62
     1
100
AcDbCircle
 10
-15.67211794517999
 20
13.07309679224715
 30
0.0
 40
0.546432448388403
100
AcDbArc
 50
134.7133364549495
 51
225.5540456910505
  0
LINE
  5
149
330
2
100
AcDbEntity
  8
GAIKEI
  6
Continuous
 62
     1
100
AcDbLine
 10
-17.44292078357955
 20
11.62580434180398
 30
0.0
 11
-16.16799155050103
 21
11.62580434180398
 31
0.0
  0
LINE
  5
14A
330
2
100
AcDbEntity
  8
GAIKEI
  6
Continuous
 62
     1
100
AcDbLine
 10
-16.16799155050103
 20
11.62580434180398
 30
0.0
 11
-16.16799155050103
 21
12.62964101213509
 31
0.0
  0
LINE
  5
14B
330
2
100
AcDbEntity
  8
GAIKEI
  6
Continuous
 62
     1
100
AcDbLine
 10
-16.16799155050103
 20
12.62964101213509
 30
0.0
 11
-17.44292078357955
 21
12.62964101213509
 31
0.0
  0
LINE
  5
14C
330
2
100
AcDbEntity
  8
GAIKEI
  6
Continuous
 62
     1
100
AcDbLine
 10
-17.44292078357955
 20
12.62964101213509
 30
0.0
 11
-17.44292078357955
 21
11.62580434180398
 31
0.0
  0
ARC
  5
14D
330
2
100
AcDbEntity
  8
GAIKEI
 62
     1
100
AcDbCircle
 10
-27.4334142338825
 20
14.43780595511458
 30
0.0
 40
1.439699362145403
100
AcDbArc
 50
124.0638233006948
 51
235.9361766993101
  0
ARC
  5
14E
330
2
100
AcDbEntity
  8
GAIKEI
 62
     1
100
AcDbCircle
 10
-22.79821228463476
 20
14.43780595511458
 30
0.0
 40
1.439699362145403
100
AcDbArc
 50
304.0638233006899
 51
55.93617669930332
  0
TEXT
  5
14F
330
2
100
AcDbEntity
  8
TOUROKU
100
AcDbText
 10
46.75979240493229
 20
42.43730815284459
 30
0.0
 40
2.0
  1
ＷＪＨＤ１８０
 72
     2
 11
62.62645907159896
 21
42.43730815284459
 31
0.0
100
AcDbText
  0
TEXT
  5
151
330
2
100
AcDbEntity
  8
MOJI1
100
AcDbText
 10
-19.87349096132834
 20
-39.56269184715529
 30
0.0
 40
3.0
  1
２．５インチリムーバルＨＤＤ×最大２台
100
AcDbText
  0
TEXT
  5
152
330
2
100
AcDbEntity
  8
MOJI1
100
AcDbText
 10
-59.87349096132835
 20
-14.56269184715529
 30
0.0
 40
3.0
  1
電　源
100
AcDbText
  0
TEXT
  5
153
330
2
100
AcDbEntity
  8
MOJI1
100
AcDbText
 10
-19.87349096132834
 20
-14.56269184715529
 30
0.0
 40
3.0
  1
ＡＣ１００Ｖ、５０ Ｈｚ／６０ Ｈｚ
100
AcDbText
  0
LINE
  5
154
330
2
100
AcDbEntity
  8
WAKU
 62
     1
100
AcDbLine
 10
-62.37349096132835
 20
-40.56269184715529
 30
0.0
 11
62.62650903867154
 21
-40.56269184715529
 31
0.0
  0
LINE
  5
156
330
2
100
AcDbEntity
  8
WAKU
 62
     1
100
AcDbLine
 10
-62.37349096132835
 20
-45.56269184715529
 30
0.0
 11
62.62650903867154
 21
-45.56269184715529
 31
0.0
  0
LINE
  5
157
330
2
100
AcDbEntity
  8
WAKU
 62
     1
100
AcDbLine
 10
-62.37349096132835
 20
-50.56269184715529
 30
0.0
 11
62.62650903867154
 21
-50.56269184715529
 31
0.0
  0
LINE
  5
158
330
2
100
AcDbEntity
  8
WAKU
 62
     1
100
AcDbLine
 10
-62.37349096132835
 20
-55.56269184715529
 30
0.0
 11
62.62650903867154
 21
-55.56269184715529
 31
0.0
  0
LINE
  5
159
330
2
100
AcDbEntity
  8
WAKU
 62
     1
100
AcDbLine
 10
-62.37349096132835
 20
-25.56269184715529
 30
0.0
 11
62.62650903867154
 21
-25.56269184715529
 31
0.0
  0
LINE
  5
15A
330
2
100
AcDbEntity
  8
WAKU
 62
     1
100
AcDbLine
 10
-62.37349096132835
 20
-30.56269184715529
 30
0.0
 11
62.62650903867154
 21
-30.56269184715529
 31
0.0
  0
LINE
  5
15B
330
2
100
AcDbEntity
  8
WAKU
 62
     1
100
AcDbLine
 10
-62.37349096132835
 20
-35.56269184715529
 30
0.0
 11
62.62650903867154
 21
-35.56269184715529
 31
0.0
  0
TEXT
  5
15C
330
2
100
AcDbEntity
  8
MOJI1
100
AcDbText
 10
-19.87349096132834
 20
-19.56269184715529
 30
0.0
 40
3.0
  1
ＪＰＥＧ
100
AcDbText
  0
TEXT
  5
15D
330
2
100
AcDbEntity
  8
MOJI1
100
AcDbText
 10
-59.87349096132835
 20
-19.56269184715529
 30
0.0
 40
3.0
  1
画像圧縮方式
100
AcDbText
  0
TEXT
  5
15E
330
2
100
AcDbEntity
  8
MOJI1
100
AcDbText
 10
-59.87349096132835
 20
-24.56269184715529
 30
0.0
 40
3.0
  1
入　力
100
AcDbText
  0
TEXT
  5
15F
330
2
100
AcDbEntity
  8
MOJI1
100
AcDbText
 10
-19.87349096132834
 20
-24.56269184715529
 30
0.0
 40
3.0
  1
映像×９、音声×１
100
AcDbText
  0
TEXT
  5
160
330
2
100
AcDbEntity
  8
MOJI1
100
AcDbText
 10
-19.87349096132834
 20
-29.56269184715529
 30
0.0
 40
3.0
  1
映像（スルーアウト）×９、音声×１
100
AcDbText
  0
TEXT
  5
161
330
2
100
AcDbEntity
  8
MOJI1
100
AcDbText
 10
-59.87349096132835
 20
-29.56269184715529
 30
0.0
 40
3.0
  1
出　力
100
AcDbText
  0
TEXT
  5
162
330
2
100
AcDbEntity
  8
MOJI1
100
AcDbText
 10
-19.87349096132834
 20
-34.56269184715529
 30
0.0
 40
3.0
  1
多画面出力（１／４／９）×２、スポット出力×１
100
AcDbText
  0
LINE
  5
163
330
2
100
AcDbEntity
  8
WAKU
 62
     4
100
AcDbLine
 10
62.62650903867148
 20
-10.56269184715529
 30
0.0
 11
62.62650903867154
 21
-60.56269184715529
 31
0.0
  0
LINE
  5
164
330
2
100
AcDbEntity
  8
WAKU
 62
     4
100
AcDbLine
 10
-22.3734909613284
 20
-10.56269184715529
 30
0.0
 11
-22.37349096132835
 21
-60.56269184715529
 31
0.0
  0
LINE
  5
165
330
2
100
AcDbEntity
  8
WAKU
 62
     4
100
AcDbLine
 10
-62.3734909613284
 20
-10.56269184715529
 30
0.0
 11
-62.37349096132835
 21
-60.56269184715529
 31
0.0
  0
LINE
  5
166
330
2
100
AcDbEntity
  8
WAKU
 62
     4
100
AcDbLine
 10
62.62650903867154
 20
-60.56269184715529
 30
0.0
 11
-62.37349096132835
 21
-60.56269184715529
 31
0.0
  0
LINE
  5
167
330
2
100
AcDbEntity
  8
WAKU
 62
     1
100
AcDbLine
 10
-62.37349096132835
 20
-20.56269184715529
 30
0.0
 11
62.62650903867154
 21
-20.56269184715529
 31
0.0
  0
LINE
  5
168
330
2
100
AcDbEntity
  8
WAKU
 62
     1
100
AcDbLine
 10
-62.37349096132835
 20
-15.56269184715529
 30
0.0
 11
62.62650903867154
 21
-15.56269184715529
 31
0.0
  0
LINE
  5
169
330
2
100
AcDbEntity
  8
WAKU
 62
     4
100
AcDbLine
 10
-62.37349096132835
 20
-10.56269184715529
 30
0.0
 11
62.62650903867154
 21
-10.56269184715529
 31
0.0
  0
TEXT
  5
16A
330
2
100
AcDbEntity
  8
MOJI1
100
AcDbText
 10
-19.87349096132834
 20
-44.56269184715529
 30
0.0
 40
3.0
  1
１０Ｂａｓｅ－Ｔ／１００Ｂａｓｅ－ＴＸ（ＲＪ－４５）
 41
0.89
100
AcDbText
  0
TEXT
  5
16B
330
2
100
AcDbEntity
  8
MOJI1
100
AcDbText
 10
-59.87349096132835
 20
-44.56269184715529
 30
0.0
 40
3.0
  1
ネットワーク接続機能
100
AcDbText
  0
TEXT
  5
16C
330
2
100
AcDbEntity
  8
MOJI1
100
AcDbText
 10
-59.87349096132835
 20
-54.56269184715529
 30
0.0
 40
3.0
  1
機　能
100
AcDbText
  0
TEXT
  5
16D
330
2
100
AcDbEntity
  8
MOJI1
100
AcDbText
 10
-19.87349096132834
 20
-54.56269184715529
 30
0.0
 40
3.0
  1
同時録画・再生可、フレームスイッチャー接続モード・ＨＤＲモード切換
 41
0.6800000000000001
100
AcDbText
  0
TEXT
  5
16E
330
2
100
AcDbEntity
  8
MOJI1
100
AcDbText
 10
-19.87349096132834
 20
-49.56269184715529
 30
0.0
 40
3.0
  1
接続ユニットによる直接再生／ｍｉｎｉＳＤメモリーカード
 41
0.84
100
AcDbText
  0
TEXT
  5
16F
330
2
100
AcDbEntity
  8
MOJI1
100
AcDbText
 10
-59.87349096132835
 20
-49.56269184715529
 30
0.0
 40
3.0
  1
ＰＣ再生
100
AcDbText
  0
TEXT
  5
170
330
2
100
AcDbEntity
  8
MOJI1
100
AcDbText
 10
-19.87349096132834
 20
-59.56269184715529
 30
0.0
 40
3.0
  1
マニュアル／タイマー／アラーム録画、縦置可
100
AcDbText
  0
TEXT
  5
171
330
2
100
AcDbEntity
  8
MOJI1
100
AcDbText
 10
-59.87349096132835
 20
-39.56269184715529
 30
0.0
 40
3.0
  1
ＨＤＤ機能
100
AcDbText
  0
ENDSEC
  0
SECTION
  2
OBJECTS
  0
DICTIONARY
  5
7
330
0
100
AcDbDictionary
281
     1
  3
ACAD_COLOR
350
2C
  3
ACAD_GROUP
350
28
  3
ACAD_LAYOUT
350
B
  3
ACAD_MATERIAL
350
2B
  3
ACAD_MLINESTYLE
350
29
  3
ACAD_PLOTSETTINGS
350
2A
  3
ACAD_PLOTSTYLENAME
350
6
  3
ACDBHEADERROUNDTRIPXREC
350
1AE
  3
AcDbVariableDictionary
350
1A9
  0
DICTIONARY
  5
11
330
10
100
AcDbDictionary
280
     1
281
     1
  3
ACAD_LAYERSTATES
360
12
  0
DICTIONARY
  5
2C
102
{ACAD_REACTORS
330
7
102
}
330
7
100
AcDbDictionary
281
     1
  0
DICTIONARY
  5
28
102
{ACAD_REACTORS
330
7
102
}
330
7
100
AcDbDictionary
281
     1
  0
DICTIONARY
  5
B
102
{ACAD_REACTORS
330
7
102
}
330
7
100
AcDbDictionary
281
     1
  3
Model
350
A
  3
レイアウト1
350
F
  0
DICTIONARY
  5
2B
102
{ACAD_REACTORS
330
7
102
}
330
7
100
AcDbDictionary
281
     1
  0
DICTIONARY
  5
29
102
{ACAD_REACTORS
330
7
102
}
330
7
100
AcDbDictionary
281
     1
  3
Standard
350
2E
  0
DICTIONARY
  5
2A
102
{ACAD_REACTORS
330
7
102
}
330
7
100
AcDbDictionary
281
     1
  0
ACDBDICTIONARYWDFLT
  5
6
102
{ACAD_REACTORS
330
7
102
}
330
7
100
AcDbDictionary
281
     1
  3
Normal
350
5
100
AcDbDictionaryWithDefault
340
5
  0
DICTIONARY
  5
1AE
102
{ACAD_REACTORS
330
7
102
}
330
7
100
AcDbDictionary
281
     1
  3
COLORDICT
350
1B0
  3
MATERIALDICT
350
1AF
  0
DICTIONARY
  5
1A9
102
{ACAD_REACTORS
330
7
102
}
330
7
100
AcDbDictionary
281
     1
  3
DIMASSOC
350
1AB
  3
HIDETEXT
350
1AA
  3
PROJECTNAME
350
1AC
  0
DICTIONARY
  5
12
102
{ACAD_REACTORS
330
11
102
}
330
11
100
AcDbDictionary
281
     1
  0
LAYOUT
  5
A
102
{ACAD_XDICTIONARY
360
1B1
102
}
102
{ACAD_REACTORS
330
B
102
}
330
B
100
AcDbPlotSettings
  1

  2
FX78BC34-A4縦.pc3
  4
A4
  6

 40
4.900083065032958
 41
4.900057315826416
 42
4.90008544921875
 43
4.90008544921875
 44
210.0156707763672
 45
297.0106506347656
 46
5.759999999999999
 47
0.0
 48
0.0
 49
0.0
140
0.0
141
0.0
142
1.0
143
1.372667656550458
 70
 11956
 72
     1
 73
     0
 74
     1
  7
tmsacad.ctb
 75
     0
147
0.7285084595881133
148
0.0063986190003789
149
0.0030382470736186
100
AcDbLayout
  1
Model
 70
     1
 71
     0
 10
0.0
 20
0.0
 11
12.0
 21
9.0
 12
0.0
 22
0.0
 32
0.0
 14
0.0
 24
0.0
 34
0.0
 15
0.0
 25
0.0
 35
0.0
146
0.0
 13
0.0
 23
0.0
 33
0.0
 16
1.0
 26
0.0
 36
0.0
 17
0.0
 27
1.0
 37
0.0
 76
     0
330
2
  0
LAYOUT
  5
F
102
{ACAD_XDICTIONARY
360
1B3
102
}
102
{ACAD_REACTORS
330
B
102
}
330
B
100
AcDbPlotSettings
  1

  2
None
  4

  6

 40
0.0
 41
0.0
 42
0.0
 43
0.0
 44
0.0
 45
0.0
 46
0.0
 47
0.0
 48
0.0
 49
0.0
140
0.0
141
0.0
142
1.0
143
1.0
 70
   688
 72
     0
 73
     0
 74
     5
  7
tmsacad.ctb
 75
    16
147
1.0
148
0.0
149
0.0
100
AcDbLayout
  1
レイアウト1
 70
     1
 71
     1
 10
0.0
 20
0.0
 11
12.0
 21
9.0
 12
0.0
 22
0.0
 32
0.0
 14
0.0
 24
0.0
 34
0.0
 15
0.0
 25
0.0
 35
0.0
146
0.0
 13
0.0
 23
0.0
 33
0.0
 16
1.0
 26
0.0
 36
0.0
 17
0.0
 27
1.0
 37
0.0
 76
     0
330
C
  0
MLINESTYLE
  5
2E
102
{ACAD_REACTORS
330
29
102
}
330
29
100
AcDbMlineStyle
  2
STANDARD
 70
     0
  3

 62
   256
 51
90.0
 52
90.0
 71
     2
 49
0.5
 62
   256
  6
BYLAYER
 49
-0.5
 62
   256
  6
BYLAYER
  0
ACDBPLACEHOLDER
  5
5
102
{ACAD_REACTORS
330
6
102
}
330
6
  0
XRECORD
  5
1B0
102
{ACAD_REACTORS
330
1AE
102
}
330
1AE
100
AcDbXrecord
280
     1
340
2C
  0
XRECORD
  5
1AF
102
{ACAD_REACTORS
330
1AE
102
}
330
1AE
100
AcDbXrecord
280
     1
340
2B
  0
DICTIONARYVAR
  5
1AB
102
{ACAD_REACTORS
330
1A9
102
}
330
1A9
100
DictionaryVariables
280
     0
  1
1
  0
DICTIONARYVAR
  5
1AA
102
{ACAD_REACTORS
330
1A9
102
}
330
1A9
100
DictionaryVariables
280
     0
  1
1
  0
DICTIONARYVAR
  5
1AC
102
{ACAD_REACTORS
330
1A9
102
}
330
1A9
100
DictionaryVariables
280
     0
  1

  0
DICTIONARY
  5
1B1
330
A
100
AcDbDictionary
280
     1
281
     1
  3
ACAD_XREC_ROUNDTRIP
360
1B2
  0
DICTIONARY
  5
1B3
330
F
100
AcDbDictionary
280
     1
281
     1
  3
ACAD_XREC_ROUNDTRIP
360
1B4
  0
XRECORD
  5
1B2
102
{ACAD_REACTORS
330
1B1
102
}
330
1B1
100
AcDbXrecord
280
     1
102
SHADEPLOT
 70
     0
102
SHADEPLOTRESLEVEL
 70
     2
102
SHADEPLOTCUSTOMDPI
 70
   300
  0
XRECORD
  5
1B4
102
{ACAD_REACTORS
330
1B3
102
}
330
1B3
100
AcDbXrecord
280
     1
102
SHADEPLOT
 70
     0
102
SHADEPLOTRESLEVEL
 70
     2
102
SHADEPLOTCUSTOMDPI
 70
   300
  0
ENDSEC
  0
EOF
