  0
SECTION
  2
HEADER
  9
$ACADVER
  1
AC1015
  9
$ACADMAINTVER
 70
    20
  9
$DWGCODEPAGE
  3
ANSI_932
  9
$INSBASE
 10
0.0
 20
372.4992141396417
 30
0.0
  9
$EXTMIN
 10
-62.50662748528885
 20
-61.27631950858358
 30
-0.0015258207003583
  9
$EXTMAX
 10
62.57388148467589
 20
51.85476240704156
 30
0.0000000349246037
  9
$LIMMIN
 10
-1101.784450318844
 20
-1579.160531687244
  9
$LIMMAX
 10
-508.2420711400536
 20
-1161.440814074914
  9
$ORTHOMODE
 70
     0
  9
$REGENMODE
 70
     1
  9
$FILLMODE
 70
     1
  9
$QTEXTMODE
 70
     0
  9
$MIRRTEXT
 70
     1
  9
$LTSCALE
 40
1.0
  9
$ATTMODE
 70
     1
  9
$TEXTSIZE
 40
3.0
  9
$TRACEWID
 40
0.5
  9
$TEXTSTYLE
  7
STANDARD
  9
$CLAYER
  8
MOJI1
  9
$CELTYPE
  6
BYLAYER
  9
$CECOLOR
 62
   256
  9
$CELTSCALE
 40
1.0
  9
$DISPSILH
 70
     0
  9
$DIMSCALE
 40
1.0
  9
$DIMASZ
 40
2.0
  9
$DIMEXO
 40
2.0
  9
$DIMDLI
 40
8.0
  9
$DIMRND
 40
0.0
  9
$DIMDLE
 40
0.0
  9
$DIMEXE
 40
2.0
  9
$DIMTP
 40
0.0
  9
$DIMTM
 40
0.0
  9
$DIMTXT
 40
2.5
  9
$DIMCEN
 40
0.0
  9
$DIMTSZ
 40
0.0
  9
$DIMTOL
 70
     0
  9
$DIMLIM
 70
     0
  9
$DIMTIH
 70
     0
  9
$DIMTOH
 70
     0
  9
$DIMSE1
 70
     0
  9
$DIMSE2
 70
     0
  9
$DIMTAD
 70
     3
  9
$DIMZIN
 70
     0
  9
$DIMBLK
  1

  9
$DIMASO
 70
     1
  9
$DIMSHO
 70
     1
  9
$DIMPOST
  1

  9
$DIMAPOST
  1

  9
$DIMALT
 70
     0
  9
$DIMALTD
 70
     2
  9
$DIMALTF
 40
25.4
  9
$DIMLFAC
 40
1.0
  9
$DIMTOFL
 70
     1
  9
$DIMTVP
 40
0.0
  9
$DIMTIX
 70
     0
  9
$DIMSOXD
 70
     0
  9
$DIMSAH
 70
     1
  9
$DIMBLK1
  1
OPEN30
  9
$DIMBLK2
  1
OPEN30
  9
$DIMSTYLE
  2
STANDARD
  9
$DIMCLRD
 70
     0
  9
$DIMCLRE
 70
     0
  9
$DIMCLRT
 70
     0
  9
$DIMTFAC
 40
1.0
  9
$DIMGAP
 40
0.5
  9
$DIMJUST
 70
     0
  9
$DIMSD1
 70
     0
  9
$DIMSD2
 70
     0
  9
$DIMTOLJ
 70
     1
  9
$DIMTZIN
 70
     0
  9
$DIMALTZ
 70
     0
  9
$DIMALTTZ
 70
     0
  9
$DIMUPT
 70
     0
  9
$DIMDEC
 70
     4
  9
$DIMTDEC
 70
     4
  9
$DIMALTU
 70
     2
  9
$DIMALTTD
 70
     2
  9
$DIMTXSTY
  7
STANDARD
  9
$DIMAUNIT
 70
     0
  9
$DIMADEC
 70
     0
  9
$DIMALTRND
 40
0.0
  9
$DIMAZIN
 70
     0
  9
$DIMDSEP
 70
    46
  9
$DIMATFIT
 70
     3
  9
$DIMFRAC
 70
     0
  9
$DIMLDRBLK
  1
OPEN30
  9
$DIMLUNIT
 70
     2
  9
$DIMLWD
 70
    -2
  9
$DIMLWE
 70
    -2
  9
$DIMTMOVE
 70
     0
  9
$LUNITS
 70
     2
  9
$LUPREC
 70
     4
  9
$SKETCHINC
 40
0.1
  9
$FILLETRAD
 40
0.0
  9
$AUNITS
 70
     0
  9
$AUPREC
 70
     0
  9
$MENU
  1
ACAD
  9
$ELEVATION
 40
0.0
  9
$PELEVATION
 40
0.0
  9
$THICKNESS
 40
0.0
  9
$LIMCHECK
 70
     0
  9
$CHAMFERA
 40
0.0
  9
$CHAMFERB
 40
0.0
  9
$CHAMFERC
 40
0.0
  9
$CHAMFERD
 40
0.0
  9
$SKPOLY
 70
     0
  9
$TDCREATE
 40
2451815.565532581
  9
$TDUCREATE
 40
2451815.190532581
  9
$TDUPDATE
 40
2454258.660785590
  9
$TDUUPDATE
 40
2454258.285785591
  9
$TDINDWG
 40
0.7645194329
  9
$TDUSRTIMER
 40
0.7645194329
  9
$USRTIMER
 70
     1
  9
$ANGBASE
 50
0.0
  9
$ANGDIR
 70
     0
  9
$PDMODE
 70
     0
  9
$PDSIZE
 40
0.0
  9
$PLINEWID
 40
0.0
  9
$SPLFRAME
 70
     0
  9
$SPLINETYPE
 70
     6
  9
$SPLINESEGS
 70
     8
  9
$HANDSEED
  5
50F
  9
$SURFTAB1
 70
     6
  9
$SURFTAB2
 70
     6
  9
$SURFTYPE
 70
     6
  9
$SURFU
 70
     6
  9
$SURFV
 70
     6
  9
$UCSBASE
  2

  9
$UCSNAME
  2

  9
$UCSORG
 10
0.0
 20
0.0
 30
0.0
  9
$UCSXDIR
 10
1.0
 20
0.0
 30
0.0
  9
$UCSYDIR
 10
0.0
 20
1.0
 30
0.0
  9
$UCSORTHOREF
  2

  9
$UCSORTHOVIEW
 70
     0
  9
$UCSORGTOP
 10
0.0
 20
0.0
 30
0.0
  9
$UCSORGBOTTOM
 10
0.0
 20
0.0
 30
0.0
  9
$UCSORGLEFT
 10
0.0
 20
0.0
 30
0.0
  9
$UCSORGRIGHT
 10
0.0
 20
0.0
 30
0.0
  9
$UCSORGFRONT
 10
0.0
 20
0.0
 30
0.0
  9
$UCSORGBACK
 10
0.0
 20
0.0
 30
0.0
  9
$PUCSBASE
  2

  9
$PUCSNAME
  2

  9
$PUCSORG
 10
0.0
 20
0.0
 30
0.0
  9
$PUCSXDIR
 10
1.0
 20
0.0
 30
0.0
  9
$PUCSYDIR
 10
0.0
 20
1.0
 30
0.0
  9
$PUCSORTHOREF
  2

  9
$PUCSORTHOVIEW
 70
     0
  9
$PUCSORGTOP
 10
0.0
 20
0.0
 30
0.0
  9
$PUCSORGBOTTOM
 10
0.0
 20
0.0
 30
0.0
  9
$PUCSORGLEFT
 10
0.0
 20
0.0
 30
0.0
  9
$PUCSORGRIGHT
 10
0.0
 20
0.0
 30
0.0
  9
$PUCSORGFRONT
 10
0.0
 20
0.0
 30
0.0
  9
$PUCSORGBACK
 10
0.0
 20
0.0
 30
0.0
  9
$USERI1
 70
     0
  9
$USERI2
 70
     0
  9
$USERI3
 70
     0
  9
$USERI4
 70
     0
  9
$USERI5
 70
     0
  9
$USERR1
 40
0.0
  9
$USERR2
 40
0.0
  9
$USERR3
 40
0.0
  9
$USERR4
 40
0.0
  9
$USERR5
 40
0.0
  9
$WORLDVIEW
 70
     1
  9
$SHADEDGE
 70
     3
  9
$SHADEDIF
 70
    70
  9
$TILEMODE
 70
     1
  9
$MAXACTVP
 70
    48
  9
$PINSBASE
 10
0.0
 20
0.0
 30
0.0
  9
$PLIMCHECK
 70
     0
  9
$PEXTMIN
 10
1.000000000000000E+20
 20
1.000000000000000E+20
 30
1.000000000000000E+20
  9
$PEXTMAX
 10
-1.000000000000000E+20
 20
-1.000000000000000E+20
 30
-1.000000000000000E+20
  9
$PLIMMIN
 10
0.0
 20
0.0
  9
$PLIMMAX
 10
12.0
 20
9.0
  9
$UNITMODE
 70
     0
  9
$VISRETAIN
 70
     1
  9
$PLINEGEN
 70
     0
  9
$PSLTSCALE
 70
     1
  9
$TREEDEPTH
 70
  3020
  9
$CMLSTYLE
  2
STANDARD
  9
$CMLJUST
 70
     0
  9
$CMLSCALE
 40
1.0
  9
$PROXYGRAPHICS
 70
     1
  9
$MEASUREMENT
 70
     0
  9
$CELWEIGHT
370
    -1
  9
$ENDCAPS
280
     0
  9
$JOINSTYLE
280
     0
  9
$LWDISPLAY
290
     0
  9
$INSUNITS
 70
     0
  9
$HYPERLINKBASE
  1

  9
$STYLESHEET
  1

  9
$XEDIT
290
     1
  9
$CEPSNTYPE
380
     0
  9
$PSTYLEMODE
290
     1
  9
$FINGERPRINTGUID
  2
{1754B7AB-9B3C-11D4-AD9E-00104B1004F2}
  9
$VERSIONGUID
  2
{F71E1403-0103-4A3D-BD79-B0AE6C521ACC}
  9
$EXTNAMES
290
     1
  9
$PSVPSCALE
 40
0.0
  9
$OLESTARTUP
290
     0
  0
ENDSEC
  0
SECTION
  2
CLASSES
  0
CLASS
  1
ACDBDICTIONARYWDFLT
  2
AcDbDictionaryWithDefault
  3
ObjectDBX Classes
 90
        0
280
     0
281
     0
  0
CLASS
  1
ACDBPLACEHOLDER
  2
AcDbPlaceHolder
  3
ObjectDBX Classes
 90
        0
280
     0
281
     0
  0
CLASS
  1
LAYOUT
  2
AcDbLayout
  3
ObjectDBX Classes
 90
        0
280
     0
281
     0
  0
CLASS
  1
DICTIONARYVAR
  2
AcDbDictionaryVar
  3
ObjectDBX Classes
 90
        0
280
     0
281
     0
  0
ENDSEC
  0
SECTION
  2
TABLES
  0
TABLE
  2
VPORT
  5
20
330
0
100
AcDbSymbolTable
 70
     3
  0
VPORT
  5
507
330
20
100
AcDbSymbolTableRecord
100
AcDbViewportTableRecord
  2
*Active
 70
     0
 10
0.0
 20
0.0
 11
1.0
 21
1.0
 12
0.0336269996935244
 22
-4.71077855077101
 13
0.0
 23
0.0
 14
1.0
 24
1.0
 15
0.0
 25
0.0
 16
0.0
 26
0.0
 36
1.0
 17
0.0
 27
0.0
 37
0.0
 40
114.0035581257713
 41
1.428571428571428
 42
50.0
 43
0.0
 44
0.0
 50
0.0
 51
0.0
 71
     0
 72
 10000
 73
     1
 74
     0
 75
     0
 76
     1
 77
     0
 78
     0
281
     0
 65
     1
110
0.0
120
0.0
130
0.0
111
1.0
121
0.0
131
0.0
112
0.0
122
1.0
132
0.0
 79
     0
146
0.0
  0
ENDTAB
  0
TABLE
  2
LTYPE
  5
1B
330
0
100
AcDbSymbolTable
 70
     4
  0
LTYPE
  5
1C
330
1B
100
AcDbSymbolTableRecord
100
AcDbLinetypeTableRecord
  2
BYBLOCK
 70
     0
  3

 72
    65
 73
     0
 40
0.0
  0
LTYPE
  5
1D
330
1B
100
AcDbSymbolTableRecord
100
AcDbLinetypeTableRecord
  2
BYLAYER
 70
     0
  3

 72
    65
 73
     0
 40
0.0
  0
LTYPE
  5
A
330
1B
100
AcDbSymbolTableRecord
100
AcDbLinetypeTableRecord
  2
CONTINUOUS
 70
     0
  3
Solid line
 72
    65
 73
     0
 40
0.0
  0
LTYPE
  5
CE
330
1B
100
AcDbSymbolTableRecord
100
AcDbLinetypeTableRecord
  2
Phantom
 70
     0
  3
Phantom
 72
    65
 73
     6
 40
45.0
 49
40.0
 74
     0
 49
-1.0
 74
     0
 49
1.0
 74
     0
 49
-1.0
 74
     0
 49
1.0
 74
     0
 49
-1.0
 74
     0
  0
LTYPE
  5
D0
330
1B
100
AcDbSymbolTableRecord
100
AcDbLinetypeTableRecord
  2
S10
 70
     0
  3
- - - - - - - - - 1,-1,1,-1
 72
    65
 73
     4
 40
4.0
 49
1.0
 74
     0
 49
-1.0
 74
     0
 49
1.0
 74
     0
 49
-1.0
 74
     0
  0
LTYPE
  5
439
330
1B
100
AcDbSymbolTableRecord
100
AcDbLinetypeTableRecord
  2
HIDDEN2
 70
     0
  3
Hidden (.5x) _ _ _ _ _ _ _ _ _ _ _ _ _ _ _ _ _
 72
    65
 73
     2
 40
1.399999999999999
 49
0.7
 74
     0
 49
-0.7
 74
     0
  0
ENDTAB
  0
TABLE
  2
LAYER
  5
14
102
{ACAD_XDICTIONARY
360
15
102
}
330
0
100
AcDbSymbolTable
 70
     7
  0
LAYER
  5
6
330
14
100
AcDbSymbolTableRecord
100
AcDbLayerTableRecord
  2
0
 70
     0
 62
     7
  6
CONTINUOUS
370
    -3
390
7
  0
LAYER
  5
337
330
14
100
AcDbSymbolTableRecord
100
AcDbLayerTableRecord
  2
DEFPOINTS
 70
     0
 62
     7
  6
CONTINUOUS
290
     0
370
    -3
390
7
  0
LAYER
  5
4B0
330
14
100
AcDbSymbolTableRecord
100
AcDbLayerTableRecord
  2
WAKU
 70
     0
 62
     4
  6
CONTINUOUS
370
    -3
390
7
  0
LAYER
  5
2B
330
14
100
AcDbSymbolTableRecord
100
AcDbLayerTableRecord
  2
MOJI1
 70
     0
 62
     2
  6
CONTINUOUS
370
    -3
390
7
  0
LAYER
  5
38
330
14
100
AcDbSymbolTableRecord
100
AcDbLayerTableRecord
  2
GAIKEI
 70
     0
 62
     7
  6
CONTINUOUS
370
    -3
390
7
  0
LAYER
  5
36
330
14
100
AcDbSymbolTableRecord
100
AcDbLayerTableRecord
  2
TOUROKU
 70
     0
 62
     1
  6
CONTINUOUS
370
    -3
390
7
  0
LAYER
  5
32D
330
14
100
AcDbSymbolTableRecord
100
AcDbLayerTableRecord
  2
SUNPO
 70
     0
 62
     3
  6
CONTINUOUS
370
    -3
390
7
  0
ENDTAB
  0
TABLE
  2
STYLE
  5
18
330
0
100
AcDbSymbolTable
 70
     2
  0
STYLE
  5
19
330
18
100
AcDbSymbolTableRecord
100
AcDbTextStyleTableRecord
  2
STANDARD
 70
     0
 40
0.0
 41
1.0
 50
0.0
 71
     0
 42
3.0
  3
MONOTXT.shx
  4
BIGFONT.shx
  0
STYLE
  5
349
330
18
100
AcDbSymbolTableRecord
100
AcDbTextStyleTableRecord
  2
CONVERTER_12
 70
     0
 40
0.0
 41
0.9
 50
0.0
 71
     0
 42
0.0
  3
txt.shx
  4

  0
ENDTAB
  0
TABLE
  2
VIEW
  5
1E
330
0
100
AcDbSymbolTable
 70
     0
  0
ENDTAB
  0
TABLE
  2
UCS
  5
1F
330
0
100
AcDbSymbolTable
 70
     0
  0
ENDTAB
  0
TABLE
  2
APPID
  5
22
330
0
100
AcDbSymbolTable
 70
     1
  0
APPID
  5
23
330
22
100
AcDbSymbolTableRecord
100
AcDbRegAppTableRecord
  2
ACAD
 70
     0
  0
ENDTAB
  0
TABLE
  2
DIMSTYLE
  5
24
330
0
100
AcDbSymbolTable
 70
     1
100
AcDbDimStyleTable
 71
     0
  0
DIMSTYLE
105
33
102
{ACAD_REACTORS
330
469
330
45C
330
32C
102
}
330
24
100
AcDbSymbolTableRecord
100
AcDbDimStyleTableRecord
  2
STANDARD
 70
     0
 40
0.0
 41
2.0
 42
2.0
 43
8.0
 44
2.0
 73
     0
 74
     0
 77
     3
140
3.0
141
0.0
173
     1
279
     2
288
     1
340
19
341
2C
343
2C
344
2C
  0
ENDTAB
  0
TABLE
  2
BLOCK_RECORD
  5
1
330
0
100
AcDbSymbolTable
 70
     7
  0
BLOCK_RECORD
  5
2
102
{ACAD_XDICTIONARY
360
3
102
}
330
1
100
AcDbSymbolTableRecord
100
AcDbBlockTableRecord
  2
*MODEL_SPACE
340
C
  0
BLOCK_RECORD
  5
E
102
{ACAD_XDICTIONARY
360
F
102
}
330
1
100
AcDbSymbolTableRecord
100
AcDbBlockTableRecord
  2
*PAPER_SPACE
340
13
  0
BLOCK_RECORD
  5
2C
330
1
100
AcDbSymbolTableRecord
100
AcDbBlockTableRecord
  2
_OPEN30
340
0
102
{BLKREFS
331
333
331
334
331
462
331
463
331
46F
331
470
331
4E3
331
4E4
331
4EF
331
4F0
331
4FB
331
4FC
102
}
  0
BLOCK_RECORD
  5
46A
330
1
100
AcDbSymbolTableRecord
100
AcDbBlockTableRecord
  2
*D1
340
0
  0
BLOCK_RECORD
  5
45D
330
1
100
AcDbSymbolTableRecord
100
AcDbBlockTableRecord
  2
*D2
340
0
  0
BLOCK_RECORD
  5
32E
330
1
100
AcDbSymbolTableRecord
100
AcDbBlockTableRecord
  2
*D3
340
0
  0
BLOCK_RECORD
  5
4DF
330
1
100
AcDbSymbolTableRecord
100
AcDbBlockTableRecord
  2
*D4
340
0
  0
BLOCK_RECORD
  5
4EB
330
1
100
AcDbSymbolTableRecord
100
AcDbBlockTableRecord
  2
*D5
340
0
  0
BLOCK_RECORD
  5
4F7
330
1
100
AcDbSymbolTableRecord
100
AcDbBlockTableRecord
  2
*D6
340
0
  0
ENDTAB
  0
ENDSEC
  0
SECTION
  2
BLOCKS
  0
BLOCK
  5
5
330
2
100
AcDbEntity
  8
0
100
AcDbBlockBegin
  2
*MODEL_SPACE
 70
     0
 10
0.0
 20
0.0
 30
0.0
  3
*MODEL_SPACE
  1

  0
ENDBLK
  5
B
330
2
100
AcDbEntity
  8
0
100
AcDbBlockEnd
  0
BLOCK
  5
11
330
E
100
AcDbEntity
 67
     1
  8
0
100
AcDbBlockBegin
  2
*PAPER_SPACE
 70
     0
 10
0.0
 20
0.0
 30
0.0
  3
*PAPER_SPACE
  1

  0
ENDBLK
  5
12
330
E
100
AcDbEntity
 67
     1
  8
0
100
AcDbBlockEnd
  0
BLOCK
  5
2D
330
2C
100
AcDbEntity
  8
0
100
AcDbBlockBegin
  2
_OPEN30
 70
     0
 10
0.0
 20
0.0
 30
0.0
  3
_OPEN30
  1

  0
LINE
  5
2E
330
2C
100
AcDbEntity
  8
0
  6
ByBlock
 62
     0
100
AcDbLine
 10
-1.0
 20
0.26794919
 30
0.0
 11
0.0
 21
0.0
 31
0.0
  0
LINE
  5
2F
330
2C
100
AcDbEntity
  8
0
  6
ByBlock
 62
     0
100
AcDbLine
 10
0.0
 20
0.0
 30
0.0
 11
-1.0
 21
-0.26794919
 31
0.0
  0
LINE
  5
30
330
2C
100
AcDbEntity
  8
0
  6
ByBlock
 62
     0
100
AcDbLine
 10
0.0
 20
0.0
 30
0.0
 11
-1.0
 21
0.0
 31
0.0
  0
ENDBLK
  5
31
330
2C
100
AcDbEntity
  8
0
100
AcDbBlockEnd
  0
BLOCK
  5
46B
330
46A
100
AcDbEntity
  8
0
100
AcDbBlockBegin
  2
*D1
 70
     1
 10
0.0
 20
0.0
 30
0.0
  3
*D1
  1

  0
LINE
  5
46C
330
46A
100
AcDbEntity
  8
SUNPO
 62
     0
370
    -2
100
AcDbLine
 10
84.48789957619011
 20
340.4638634820683
 30
0.0
 11
84.48789957619011
 21
348.4638634820683
 31
0.0
  0
LINE
  5
46D
330
46A
100
AcDbEntity
  8
SUNPO
 62
     0
370
    -2
100
AcDbLine
 10
119.4878995761901
 20
340.4638634820683
 30
0.0
 11
119.4878995761901
 21
348.4638634820683
 31
0.0
  0
LINE
  5
46E
330
46A
100
AcDbEntity
  8
SUNPO
 62
     0
370
    -2
100
AcDbLine
 10
86.4878995761901
 20
346.4638634820683
 30
0.0
 11
117.4878995761901
 21
346.4638634820683
 31
0.0
  0
INSERT
  5
46F
330
46A
100
AcDbEntity
  8
SUNPO
 62
     0
370
    -2
100
AcDbBlockReference
  2
_OPEN30
 10
84.48789957619011
 20
346.4638634820683
 30
0.0
 41
2.0
 42
2.0
 43
2.0
 50
180.0
  0
INSERT
  5
470
330
46A
100
AcDbEntity
  8
SUNPO
 62
     0
370
    -2
100
AcDbBlockReference
  2
_OPEN30
 10
119.4878995761901
 20
346.4638634820683
 30
0.0
 41
2.0
 42
2.0
 43
2.0
  0
MTEXT
  5
471
330
46A
100
AcDbEntity
  8
SUNPO
 62
     0
100
AcDbMText
 10
101.9878995761901
 20
348.2138634820683
 30
0.0
 40
2.5
 41
0.0
 71
     5
 72
     1
  1
\A1;350
 73
     1
 44
1.0
1001
ACAD
1000
MTEXTBEGIN
1070
    73
1070
     1
1070
    44
1040
1.0
1070
    74
1070
     0
1000
MTEXTEND
  0
POINT
  5
472
330
46A
100
AcDbEntity
  8
DEFPOINTS
 62
     0
100
AcDbPoint
 10
84.48789957619011
 20
338.4638634820683
 30
0.0
  0
POINT
  5
473
330
46A
100
AcDbEntity
  8
DEFPOINTS
 62
     0
100
AcDbPoint
 10
119.4878995761901
 20
338.4638634820683
 30
0.0
  0
POINT
  5
474
330
46A
100
AcDbEntity
  8
DEFPOINTS
 62
     0
100
AcDbPoint
 10
119.4878995761901
 20
346.4638634820683
 30
0.0
  0
ENDBLK
  5
475
330
46A
100
AcDbEntity
  8
0
100
AcDbBlockEnd
  0
BLOCK
  5
45E
330
45D
100
AcDbEntity
  8
0
100
AcDbBlockBegin
  2
*D2
 70
     1
 10
0.0
 20
0.0
 30
0.0
  3
*D2
  1

  0
LINE
  5
45F
330
45D
100
AcDbEntity
  8
SUNPO
 62
     0
370
    -2
100
AcDbLine
 10
15.04532288539531
 20
340.4638634820684
 30
0.0
 11
15.04532288539531
 21
348.4638634820684
 31
0.0
  0
LINE
  5
460
330
45D
100
AcDbEntity
  8
SUNPO
 62
     0
370
    -2
100
AcDbLine
 10
57.04532288539517
 20
340.4638634820684
 30
0.0
 11
57.04532288539517
 21
348.4638634820684
 31
0.0
  0
LINE
  5
461
330
45D
100
AcDbEntity
  8
SUNPO
 62
     0
370
    -2
100
AcDbLine
 10
17.04532288539531
 20
346.4638634820684
 30
0.0
 11
55.04532288539516
 21
346.4638634820684
 31
0.0
  0
INSERT
  5
462
330
45D
100
AcDbEntity
  8
SUNPO
 62
     0
370
    -2
100
AcDbBlockReference
  2
_OPEN30
 10
15.04532288539531
 20
346.4638634820684
 30
0.0
 41
2.0
 42
2.0
 43
2.0
 50
180.0
  0
INSERT
  5
463
330
45D
100
AcDbEntity
  8
SUNPO
 62
     0
370
    -2
100
AcDbBlockReference
  2
_OPEN30
 10
57.04532288539517
 20
346.4638634820684
 30
0.0
 41
2.0
 42
2.0
 43
2.0
  0
MTEXT
  5
464
330
45D
100
AcDbEntity
  8
SUNPO
 62
     0
100
AcDbMText
 10
36.04532288539524
 20
348.2138634820684
 30
0.0
 40
2.5
 41
0.0
 71
     5
 72
     1
  1
\A1;420
 73
     1
 44
1.0
1001
ACAD
1000
MTEXTBEGIN
1070
    73
1070
     1
1070
    44
1040
1.0
1070
    74
1070
     0
1000
MTEXTEND
  0
POINT
  5
465
330
45D
100
AcDbEntity
  8
DEFPOINTS
 62
     0
100
AcDbPoint
 10
15.04532288539531
 20
338.4638634820684
 30
0.0
  0
POINT
  5
466
330
45D
100
AcDbEntity
  8
DEFPOINTS
 62
     0
100
AcDbPoint
 10
57.04532288539517
 20
338.4638634820684
 30
0.0
  0
POINT
  5
467
330
45D
100
AcDbEntity
  8
DEFPOINTS
 62
     0
100
AcDbPoint
 10
57.04532288539517
 20
346.4638634820684
 30
0.0
  0
ENDBLK
  5
468
330
45D
100
AcDbEntity
  8
0
100
AcDbBlockEnd
  0
BLOCK
  5
32F
330
32E
100
AcDbEntity
  8
0
100
AcDbBlockBegin
  2
*D3
 70
     1
 10
0.0
 20
0.0
 30
0.0
  3
*D3
  1

  0
LINE
  5
330
330
32E
100
AcDbEntity
  8
SUNPO
 62
     0
370
    -2
100
AcDbLine
 10
62.01556969117101
 20
329.677081240137
 30
0.0
 11
70.01556969117101
 21
329.677081240137
 31
0.0
  0
LINE
  5
331
330
32E
100
AcDbEntity
  8
SUNPO
 62
     0
370
    -2
100
AcDbLine
 10
62.01556969117101
 20
338.477081240137
 30
0.0
 11
70.01556969117101
 21
338.477081240137
 31
0.0
  0
LINE
  5
332
330
32E
100
AcDbEntity
  8
SUNPO
 62
     0
370
    -2
100
AcDbLine
 10
68.015569691171
 20
331.677081240137
 30
0.0
 11
68.015569691171
 21
336.477081240137
 31
0.0
  0
INSERT
  5
333
330
32E
100
AcDbEntity
  8
SUNPO
 62
     0
370
    -2
100
AcDbBlockReference
  2
_OPEN30
 10
68.015569691171
 20
329.677081240137
 30
0.0
 41
2.0
 42
2.0
 43
2.0
 50
270.0
  0
INSERT
  5
334
330
32E
100
AcDbEntity
  8
SUNPO
 62
     0
370
    -2
100
AcDbBlockReference
  2
_OPEN30
 10
68.015569691171
 20
338.477081240137
 30
0.0
 41
2.0
 42
2.0
 43
2.0
 50
90.0
  0
MTEXT
  5
335
330
32E
100
AcDbEntity
  8
SUNPO
 62
     0
100
AcDbMText
 10
66.26556969117095
 20
334.077081240137
 30
0.0
 40
2.5
 41
0.0
 71
     5
 72
     1
  1
\A1;88
 11
0.0000000000000001
 21
1.0
 31
0.0
 73
     1
 44
1.0
1001
ACAD
1000
MTEXTBEGIN
1070
    73
1070
     1
1070
    44
1040
1.0
1070
    74
1070
     0
1000
MTEXTEND
  0
POINT
  5
336
330
32E
100
AcDbEntity
  8
DEFPOINTS
 62
     0
100
AcDbPoint
 10
60.01556969117101
 20
329.677081240137
 30
0.0
  0
POINT
  5
338
330
32E
100
AcDbEntity
  8
DEFPOINTS
 62
     0
100
AcDbPoint
 10
60.01556969117101
 20
338.477081240137
 30
0.0
  0
POINT
  5
339
330
32E
100
AcDbEntity
  8
DEFPOINTS
 62
     0
100
AcDbPoint
 10
68.015569691171
 20
338.477081240137
 30
0.0
  0
ENDBLK
  5
33A
330
32E
100
AcDbEntity
  8
0
100
AcDbBlockEnd
  0
BLOCK
  5
4E9
330
4DF
100
AcDbEntity
  8
0
100
AcDbBlockBegin
  2
*D4
 70
     1
 10
0.0
 20
0.0
 30
0.0
  3
*D4
  1

  0
LINE
  5
4E0
330
4DF
100
AcDbEntity
  8
SUNPO
 62
     0
370
    -2
100
AcDbLine
 10
19.99508238961334
 20
21.79061771653124
 30
0.0
 11
19.99508238961334
 21
29.79061771653125
 31
0.0
  0
LINE
  5
4E1
330
4DF
100
AcDbEntity
  8
SUNPO
 62
     0
370
    -2
100
AcDbLine
 10
54.99508238961334
 20
21.79061771653124
 30
0.0
 11
54.99508238961334
 21
29.79061771653125
 31
0.0
  0
LINE
  5
4E2
330
4DF
100
AcDbEntity
  8
SUNPO
 62
     0
370
    -2
100
AcDbLine
 10
21.99508238961334
 20
27.79061771653124
 30
0.0
 11
52.99508238961334
 21
27.79061771653124
 31
0.0
  0
INSERT
  5
4E3
330
4DF
100
AcDbEntity
  8
SUNPO
 62
     0
370
    -2
100
AcDbBlockReference
  2
_OPEN30
 10
19.99508238961334
 20
27.79061771653124
 30
0.0
 41
2.0
 42
2.0
 43
2.0
 50
180.0
  0
INSERT
  5
4E4
330
4DF
100
AcDbEntity
  8
SUNPO
 62
     0
370
    -2
100
AcDbBlockReference
  2
_OPEN30
 10
54.99508238961334
 20
27.79061771653124
 30
0.0
 41
2.0
 42
2.0
 43
2.0
  0
MTEXT
  5
4E5
330
4DF
100
AcDbEntity
  8
SUNPO
 62
     0
100
AcDbMText
 10
37.49508238961335
 20
29.54061771653125
 30
0.0
 40
2.5
 41
0.0
 71
     5
 72
     1
  1
\A1;350
 73
     1
 44
1.0
1001
ACAD
1000
MTEXTBEGIN
1070
    73
1070
     1
1070
    44
1040
1.0
1070
    74
1070
     0
1000
MTEXTEND
  0
POINT
  5
4E6
330
4DF
100
AcDbEntity
  8
DEFPOINTS
 62
     0
100
AcDbPoint
 10
19.99508238961334
 20
19.79061771653124
 30
0.0
  0
POINT
  5
4E7
330
4DF
100
AcDbEntity
  8
DEFPOINTS
 62
     0
100
AcDbPoint
 10
54.99508238961334
 20
19.79061771653124
 30
0.0
  0
POINT
  5
4E8
330
4DF
100
AcDbEntity
  8
DEFPOINTS
 62
     0
100
AcDbPoint
 10
54.99508238961334
 20
27.79061771653124
 30
0.0
  0
ENDBLK
  5
4EA
330
4DF
100
AcDbEntity
  8
0
100
AcDbBlockEnd
  0
BLOCK
  5
4F5
330
4EB
100
AcDbEntity
  8
0
100
AcDbBlockBegin
  2
*D5
 70
     1
 10
0.0
 20
0.0
 30
0.0
  3
*D5
  1

  0
LINE
  5
4EC
330
4EB
100
AcDbEntity
  8
SUNPO
 62
     0
370
    -2
100
AcDbLine
 10
-49.44749430118145
 20
21.7906177165313
 30
0.0
 11
-49.44749430118145
 21
29.7906177165313
 31
0.0
  0
LINE
  5
4ED
330
4EB
100
AcDbEntity
  8
SUNPO
 62
     0
370
    -2
100
AcDbLine
 10
-7.447494301181592
 20
21.7906177165313
 30
0.0
 11
-7.447494301181591
 21
29.7906177165313
 31
0.0
  0
LINE
  5
4EE
330
4EB
100
AcDbEntity
  8
SUNPO
 62
     0
370
    -2
100
AcDbLine
 10
-47.44749430118145
 20
27.7906177165313
 30
0.0
 11
-9.447494301181592
 21
27.7906177165313
 31
0.0
  0
INSERT
  5
4EF
330
4EB
100
AcDbEntity
  8
SUNPO
 62
     0
370
    -2
100
AcDbBlockReference
  2
_OPEN30
 10
-49.44749430118145
 20
27.7906177165313
 30
0.0
 41
2.0
 42
2.0
 43
2.0
 50
180.0
  0
INSERT
  5
4F0
330
4EB
100
AcDbEntity
  8
SUNPO
 62
     0
370
    -2
100
AcDbBlockReference
  2
_OPEN30
 10
-7.447494301181591
 20
27.7906177165313
 30
0.0
 41
2.0
 42
2.0
 43
2.0
  0
MTEXT
  5
4F1
330
4EB
100
AcDbEntity
  8
SUNPO
 62
     0
100
AcDbMText
 10
-28.44749430118152
 20
29.5406177165313
 30
0.0
 40
2.5
 41
0.0
 71
     5
 72
     1
  1
\A1;420
 73
     1
 44
1.0
1001
ACAD
1000
MTEXTBEGIN
1070
    73
1070
     1
1070
    44
1040
1.0
1070
    74
1070
     0
1000
MTEXTEND
  0
POINT
  5
4F2
330
4EB
100
AcDbEntity
  8
DEFPOINTS
 62
     0
100
AcDbPoint
 10
-49.44749430118145
 20
19.7906177165313
 30
0.0
  0
POINT
  5
4F3
330
4EB
100
AcDbEntity
  8
DEFPOINTS
 62
     0
100
AcDbPoint
 10
-7.447494301181592
 20
19.7906177165313
 30
0.0
  0
POINT
  5
4F4
330
4EB
100
AcDbEntity
  8
DEFPOINTS
 62
     0
100
AcDbPoint
 10
-7.447494301181591
 20
27.7906177165313
 30
0.0
  0
ENDBLK
  5
4F6
330
4EB
100
AcDbEntity
  8
0
100
AcDbBlockEnd
  0
BLOCK
  5
501
330
4F7
100
AcDbEntity
  8
0
100
AcDbBlockBegin
  2
*D6
 70
     1
 10
0.0
 20
0.0
 30
0.0
  3
*D6
  1

  0
LINE
  5
4F8
330
4F7
100
AcDbEntity
  8
SUNPO
 62
     0
370
    -2
100
AcDbLine
 10
-2.477247495405748
 20
11.00383547459989
 30
0.0
 11
5.522752504594249
 21
11.00383547459989
 31
0.0
  0
LINE
  5
4F9
330
4F7
100
AcDbEntity
  8
SUNPO
 62
     0
370
    -2
100
AcDbLine
 10
-2.477247495405748
 20
19.80383547459985
 30
0.0
 11
5.522752504594251
 21
19.80383547459985
 31
0.0
  0
LINE
  5
4FA
330
4F7
100
AcDbEntity
  8
SUNPO
 62
     0
370
    -2
100
AcDbLine
 10
3.52275250459425
 20
13.00383547459989
 30
0.0
 11
3.52275250459425
 21
17.80383547459985
 31
0.0
  0
INSERT
  5
4FB
330
4F7
100
AcDbEntity
  8
SUNPO
 62
     0
370
    -2
100
AcDbBlockReference
  2
_OPEN30
 10
3.522752504594249
 20
11.00383547459989
 30
0.0
 41
2.0
 42
2.0
 43
2.0
 50
270.0
  0
INSERT
  5
4FC
330
4F7
100
AcDbEntity
  8
SUNPO
 62
     0
370
    -2
100
AcDbBlockReference
  2
_OPEN30
 10
3.522752504594251
 20
19.80383547459985
 30
0.0
 41
2.0
 42
2.0
 43
2.0
 50
90.0
  0
MTEXT
  5
4FD
330
4F7
100
AcDbEntity
  8
SUNPO
 62
     0
100
AcDbMText
 10
1.772752504594247
 20
15.40383547459987
 30
0.0
 40
2.5
 41
0.0
 71
     5
 72
     1
  1
\A1;88
 11
0.0000000000000001
 21
1.0
 31
0.0
 73
     1
 44
1.0
1001
ACAD
1000
MTEXTBEGIN
1070
    73
1070
     1
1070
    44
1040
1.0
1070
    74
1070
     0
1000
MTEXTEND
  0
POINT
  5
4FE
330
4F7
100
AcDbEntity
  8
DEFPOINTS
 62
     0
100
AcDbPoint
 10
-4.477247495405748
 20
11.00383547459989
 30
0.0
  0
POINT
  5
4FF
330
4F7
100
AcDbEntity
  8
DEFPOINTS
 62
     0
100
AcDbPoint
 10
-4.477247495405748
 20
19.80383547459985
 30
0.0
  0
POINT
  5
500
330
4F7
100
AcDbEntity
  8
DEFPOINTS
 62
     0
100
AcDbPoint
 10
3.522752504594251
 20
19.80383547459985
 30
0.0
  0
ENDBLK
  5
502
330
4F7
100
AcDbEntity
  8
0
100
AcDbBlockEnd
  0
ENDSEC
  0
SECTION
  2
ENTITIES
  0
TEXT
  5
34
330
2
100
AcDbEntity
  8
MOJI1
100
AcDbText
 10
-35.49281718657665
 20
47.82596837410489
 30
0.0
 40
4.0
  1
デジタルディスクレコーダー
100
AcDbText
  0
TEXT
  5
35
330
2
100
AcDbEntity
  8
TOUROKU
100
AcDbText
 10
44.10713284635066
 20
41.82596837410488
 30
0.0
 40
2.0
  1
ＷＪＨＤ３０９５
 72
     2
 11
62.50713284635065
 21
41.82596837410488
 31
0.0
100
AcDbText
  0
LINE
  5
37
330
2
100
AcDbEntity
  8
GAIKEI
  6
Continuous
 62
     1
100
AcDbLine
 10
-22.64749430118115
 20
18.54208959181699
 30
0.0
 11
-22.04749430118113
 21
18.54208959181699
 31
0.0
  0
LINE
  5
39
330
2
100
AcDbEntity
  8
GAIKEI
  6
Continuous
 62
     1
100
AcDbLine
 10
-27.5224907553154
 20
16.82882055159132
 30
0.0
 11
-27.07249075531541
 21
16.82882055159132
 31
0.0
  0
LINE
  5
3A
330
2
100
AcDbEntity
  8
GAIKEI
  6
Continuous
 62
     1
100
AcDbLine
 10
-27.07249075531541
 20
16.67882055159128
 30
0.0
 11
-27.5224907553154
 21
16.67882055159128
 31
0.0
  0
ARC
  5
3B
330
2
100
AcDbEntity
  8
GAIKEI
 62
     1
100
AcDbCircle
 10
-27.07249075531541
 20
16.75382055159133
 30
0.0
 40
0.0750000000000242
100
AcDbArc
 50
270.0
 51
90.0
  0
ARC
  5
3C
330
2
100
AcDbEntity
  8
GAIKEI
 62
     1
100
AcDbCircle
 10
-27.5224907553154
 20
16.75382055159133
 30
0.0
 40
0.0750000000000171
100
AcDbArc
 50
90.0
 51
270.0
  0
LINE
  5
3D
330
2
100
AcDbEntity
  8
GAIKEI
  6
Continuous
 62
     1
100
AcDbLine
 10
-27.5224907553154
 20
15.52882055159125
 30
0.0
 11
-27.07249075531541
 21
15.52882055159125
 31
0.0
  0
LINE
  5
3E
330
2
100
AcDbEntity
  8
GAIKEI
  6
Continuous
 62
     1
100
AcDbLine
 10
-27.07249075531541
 20
15.37882055159122
 30
0.0
 11
-27.5224907553154
 21
15.37882055159122
 31
0.0
  0
ARC
  5
3F
330
2
100
AcDbEntity
  8
GAIKEI
 62
     1
100
AcDbCircle
 10
-27.07249075531541
 20
15.45382055159126
 30
0.0
 40
0.0750000000000242
100
AcDbArc
 50
270.0
 51
90.0
  0
ARC
  5
40
330
2
100
AcDbEntity
  8
GAIKEI
 62
     1
100
AcDbCircle
 10
-27.5224907553154
 20
15.45382055159126
 30
0.0
 40
0.0750000000000171
100
AcDbArc
 50
90.0
 51
270.0
  0
ARC
  5
41
330
2
100
AcDbEntity
  8
GAIKEI
 62
     1
100
AcDbCircle
 10
-27.5224907553154
 20
14.15382055159131
 30
0.0
 40
0.0750000000000171
100
AcDbArc
 50
90.0
 51
270.0
  0
LINE
  5
42
330
2
100
AcDbEntity
  8
GAIKEI
  6
Continuous
 62
     1
100
AcDbLine
 10
-27.5224907553154
 20
14.2288205515913
 30
0.0
 11
-27.07249075531541
 21
14.2288205515913
 31
0.0
  0
LINE
  5
43
330
2
100
AcDbEntity
  8
GAIKEI
  6
Continuous
 62
     1
100
AcDbLine
 10
-27.07249075531541
 20
14.07882055159126
 30
0.0
 11
-27.5224907553154
 21
14.07882055159126
 31
0.0
  0
ARC
  5
44
330
2
100
AcDbEntity
  8
GAIKEI
 62
     1
100
AcDbCircle
 10
-27.07249075531541
 20
14.15382055159131
 30
0.0
 40
0.0750000000000242
100
AcDbArc
 50
270.0
 51
90.0
  0
LINE
  5
45
330
2
100
AcDbEntity
  8
GAIKEI
  6
Continuous
 62
     1
100
AcDbLine
 10
-29.5224907553154
 20
16.82882055159132
 30
0.0
 11
-29.07249075531542
 21
16.82882055159132
 31
0.0
  0
LINE
  5
46
330
2
100
AcDbEntity
  8
GAIKEI
  6
Continuous
 62
     1
100
AcDbLine
 10
-29.07249075531542
 20
16.67882055159128
 30
0.0
 11
-29.5224907553154
 21
16.67882055159128
 31
0.0
  0
ARC
  5
47
330
2
100
AcDbEntity
  8
GAIKEI
 62
     1
100
AcDbCircle
 10
-29.07249075531542
 20
16.75382055159133
 30
0.0
 40
0.0750000000000242
100
AcDbArc
 50
270.0
 51
90.0
  0
ARC
  5
48
330
2
100
AcDbEntity
  8
GAIKEI
 62
     1
100
AcDbCircle
 10
-29.5224907553154
 20
16.75382055159133
 30
0.0
 40
0.0750000000000171
100
AcDbArc
 50
90.0
 51
270.0
  0
LINE
  5
49
330
2
100
AcDbEntity
  8
GAIKEI
  6
Continuous
 62
     1
100
AcDbLine
 10
-29.5224907553154
 20
15.52882055159125
 30
0.0
 11
-29.07249075531542
 21
15.52882055159125
 31
0.0
  0
LINE
  5
4A
330
2
100
AcDbEntity
  8
GAIKEI
  6
Continuous
 62
     1
100
AcDbLine
 10
-29.07249075531542
 20
15.37882055159122
 30
0.0
 11
-29.5224907553154
 21
15.37882055159122
 31
0.0
  0
ARC
  5
4B
330
2
100
AcDbEntity
  8
GAIKEI
 62
     1
100
AcDbCircle
 10
-29.07249075531542
 20
15.45382055159126
 30
0.0
 40
0.0750000000000242
100
AcDbArc
 50
270.0
 51
90.0
  0
ARC
  5
4C
330
2
100
AcDbEntity
  8
GAIKEI
 62
     1
100
AcDbCircle
 10
-29.5224907553154
 20
15.45382055159126
 30
0.0
 40
0.0750000000000171
100
AcDbArc
 50
90.0
 51
270.0
  0
LINE
  5
4D
330
2
100
AcDbEntity
  8
GAIKEI
  6
Continuous
 62
     1
100
AcDbLine
 10
-29.5224907553154
 20
14.2288205515913
 30
0.0
 11
-29.07249075531542
 21
14.2288205515913
 31
0.0
  0
LINE
  5
4E
330
2
100
AcDbEntity
  8
GAIKEI
  6
Continuous
 62
     1
100
AcDbLine
 10
-29.07249075531542
 20
14.07882055159126
 30
0.0
 11
-29.5224907553154
 21
14.07882055159126
 31
0.0
  0
ARC
  5
4F
330
2
100
AcDbEntity
  8
GAIKEI
 62
     1
100
AcDbCircle
 10
-29.07249075531542
 20
14.15382055159131
 30
0.0
 40
0.0750000000000242
100
AcDbArc
 50
270.0
 51
90.0
  0
ARC
  5
50
330
2
100
AcDbEntity
  8
GAIKEI
 62
     1
100
AcDbCircle
 10
-29.5224907553154
 20
14.15382055159131
 30
0.0
 40
0.0750000000000171
100
AcDbArc
 50
90.0
 51
270.0
  0
ARC
  5
51
330
2
100
AcDbEntity
  8
GAIKEI
 62
     1
100
AcDbCircle
 10
-29.5224907553154
 20
12.85382055159124
 30
0.0
 40
0.0750000000000171
100
AcDbArc
 50
90.0
 51
270.0
  0
ARC
  5
52
330
2
100
AcDbEntity
  8
GAIKEI
 62
     1
100
AcDbCircle
 10
-29.07249075531542
 20
12.85382055159124
 30
0.0
 40
0.0750000000000242
100
AcDbArc
 50
270.0
 51
90.0
  0
CIRCLE
  5
53
330
2
100
AcDbEntity
  8
GAIKEI
 62
     1
100
AcDbCircle
 10
-17.54747620859947
 20
16.70571162542717
 30
0.0
 40
0.6799826558700204
  0
CIRCLE
  5
54
330
2
100
AcDbEntity
  8
GAIKEI
 62
     1
100
AcDbCircle
 10
-17.54749430118113
 20
15.40383509830713
 30
0.0
 40
2.699999999999988
  0
CIRCLE
  5
55
330
2
100
AcDbEntity
  8
GAIKEI
 62
     1
100
AcDbCircle
 10
-17.54749430118113
 20
15.40383509831213
 30
0.0
 40
3.467085487505023
  0
CIRCLE
  5
56
330
2
100
AcDbEntity
  8
GAIKEI
 62
     1
100
AcDbCircle
 10
-21.39749430118115
 20
12.8038350983071
 30
0.0
 40
0.6378985376593475
  0
CIRCLE
  5
57
330
2
100
AcDbEntity
  8
GAIKEI
 62
     1
100
AcDbCircle
 10
-22.29749430118116
 20
15.52383509830713
 30
0.0
 40
0.0749999999999886
  0
CIRCLE
  5
58
330
2
100
AcDbEntity
  8
GAIKEI
 62
     1
100
AcDbCircle
 10
-22.29749430118116
 20
15.52383509830713
 30
0.0
 40
0.4119318486600357
  0
CIRCLE
  5
59
330
2
100
AcDbEntity
  8
GAIKEI
 62
     1
100
AcDbCircle
 10
-24.24749430118112
 20
16.35383509830711
 30
0.0
 40
0.0749999999999886
  0
CIRCLE
  5
5A
330
2
100
AcDbEntity
  8
GAIKEI
 62
     1
100
AcDbCircle
 10
-24.24749430118112
 20
16.35383509830711
 30
0.0
 40
0.4115440802400486
  0
CIRCLE
  5
5B
330
2
100
AcDbEntity
  8
GAIKEI
 62
     1
100
AcDbCircle
 10
-26.19749430118117
 20
15.52383509830713
 30
0.0
 40
0.4119318486600072
  0
CIRCLE
  5
5C
330
2
100
AcDbEntity
  8
GAIKEI
 62
     1
100
AcDbCircle
 10
-26.19749430118117
 20
15.53165583960708
 30
0.0
 40
0.0749999999999886
  0
CIRCLE
  5
5D
330
2
100
AcDbEntity
  8
GAIKEI
 62
     1
100
AcDbCircle
 10
-26.19749430118111
 20
12.8038350983071
 30
0.0
 40
0.125
  0
CIRCLE
  5
5E
330
2
100
AcDbEntity
  8
GAIKEI
 62
     1
100
AcDbCircle
 10
-24.24749075531543
 20
13.65382055159125
 30
0.0
 40
1.697585169428735
  0
CIRCLE
  5
5F
330
2
100
AcDbEntity
  8
GAIKEI
 62
     1
100
AcDbCircle
 10
-24.24749075531543
 20
13.65382055159125
 30
0.0
 40
1.403504210215128
  0
CIRCLE
  5
60
330
2
100
AcDbEntity
  8
GAIKEI
 62
     1
100
AcDbCircle
 10
-24.24749075531543
 20
13.65382055159125
 30
0.0
 40
0.5000000000000028
  0
CIRCLE
  5
61
330
2
100
AcDbEntity
  8
GAIKEI
 62
     1
100
AcDbCircle
 10
-24.24749075531543
 20
13.65382055159125
 30
0.0
 40
0.2999999999999978
  0
ELLIPSE
  5
62
330
2
100
AcDbEntity
  8
GAIKEI
 62
     1
100
AcDbEllipse
 10
-44.4581307824958
 20
15.40383509830713
 30
0.0
 11
2.472575022547797
 21
0.0
 31
0.0
210
0.0
220
0.0
230
1.0
 40
0.3453320179268898
 41
4.726547533773311
 42
7.839823080586128
  0
ELLIPSE
  5
63
330
2
100
AcDbEntity
  8
GAIKEI
 62
     1
100
AcDbEllipse
 10
-43.28869306327217
 20
18.00383510652716
 30
0.0
 11
-0.4500012376390395
 21
0.0
 31
0.0
210
0.0
220
0.0
230
1.0
 40
0.3333530299997998
 41
0.0
 42
6.283185307179586
  0
ELLIPSE
  5
64
330
2
100
AcDbEntity
  8
GAIKEI
 62
     1
100
AcDbEllipse
 10
-43.48669307037218
 20
17.1538351228171
 30
0.0
 11
-0.4500012376390395
 21
0.0
 31
0.0
210
0.0
220
0.0
230
1.0
 40
0.3333530299997998
 41
0.0
 42
6.283185307179586
  0
ELLIPSE
  5
65
330
2
100
AcDbEntity
  8
GAIKEI
 62
     1
100
AcDbEllipse
 10
-43.48669307002208
 20
13.65383510781714
 30
0.0
 11
-0.4500012376390395
 21
0.0
 31
0.0
210
0.0
220
0.0
230
1.0
 40
0.3333530299997998
 41
0.0
 42
6.283185307179586
  0
ELLIPSE
  5
66
330
2
100
AcDbEntity
  8
GAIKEI
 62
     1
100
AcDbEllipse
 10
-43.2886930697721
 20
12.80383512047717
 30
0.0
 11
-0.4500012376390395
 21
0.0
 31
0.0
210
0.0
220
0.0
230
1.0
 40
0.3333530299997998
 41
0.0
 42
6.283185307179586
  0
ELLIPSE
  5
67
330
2
100
AcDbEntity
  8
GAIKEI
 62
     1
100
AcDbEllipse
 10
-45.94749307031216
 20
16.50383510837713
 30
0.0
 11
-0.4500012376390395
 21
0.0
 31
0.0
210
0.0
220
0.0
230
1.0
 40
0.3333530299997998
 41
0.0
 42
6.283185307179586
  0
ELLIPSE
  5
68
330
2
100
AcDbEntity
  8
GAIKEI
 62
     1
100
AcDbEllipse
 10
-45.94749307042209
 20
15.10383510876716
 30
0.0
 11
-0.4500012376390395
 21
0.0
 31
0.0
210
0.0
220
0.0
230
1.0
 40
0.3333530299997998
 41
0.0
 42
6.283185307179586
  0
ELLIPSE
  5
69
330
2
100
AcDbEntity
  8
GAIKEI
 62
     1
100
AcDbEllipse
 10
-45.94749306313215
 20
12.80383510700716
 30
0.0
 11
-0.4500012376390395
 21
0.0
 31
0.0
210
0.0
220
0.0
230
1.0
 40
0.3333530299997998
 41
0.0
 42
6.283185307179586
  0
ARC
  5
6A
330
2
100
AcDbEntity
  8
GAIKEI
  6
Continuous
100
AcDbCircle
 10
55.58108095249662
 20
12.91383764049601
 30
0.0
 40
0.099000000000129
100
AcDbArc
 50
270.0
 51
150.3044605214525
  0
LINE
  5
6B
330
2
100
AcDbEntity
  8
GAIKEI
  6
Continuous
100
AcDbLine
 10
56.00508095249671
 20
12.43883764049599
 30
0.0
 11
55.3050809524969
 21
12.43883764049599
 31
0.0
  0
LINE
  5
6C
330
2
100
AcDbEntity
  8
GAIKEI
  6
Continuous
100
AcDbLine
 10
56.00508095249671
 20
13.38883764049598
 30
0.0
 11
55.46508285940388
 21
13.38883764049598
 31
0.0
  0
LINE
  5
6D
330
2
100
AcDbEntity
  8
GAIKEI
  6
Continuous
100
AcDbLine
 10
55.46508285940388
 20
12.6038391993809
 30
0.0
 11
55.46508285940388
 21
15.40383919938091
 31
0.0
  0
ARC
  5
6E
330
2
100
AcDbEntity
  8
GAIKEI
  6
Continuous
 62
     1
100
AcDbCircle
 10
52.39508261421491
 20
12.72383547459986
 30
0.0
 40
0.6000000000000001
100
AcDbArc
 50
270.0
 51
90.0
  0
CIRCLE
  5
6F
330
2
100
AcDbEntity
  8
GAIKEI
  6
Continuous
 62
     1
100
AcDbCircle
 10
48.19508261421493
 20
12.72383547459958
 30
0.0
 40
0.5
  0
ARC
  5
70
330
2
100
AcDbEntity
  8
GAIKEI
  6
Continuous
 62
     1
100
AcDbCircle
 10
52.39508261421491
 20
12.72383547459986
 30
0.0
 40
0.95
100
AcDbArc
 50
270.0
 51
90.0
  0
LINE
  5
71
330
2
100
AcDbEntity
  8
GAIKEI
  6
Continuous
100
AcDbLine
 10
54.99508296796449
 20
11.28370125761716
 30
0.0
 11
54.99508263870183
 21
19.53383653099473
 31
0.0
  0
LINE
  5
72
330
2
100
AcDbEntity
  8
GAIKEI
  6
Continuous
100
AcDbLine
 10
54.99508261421488
 20
19.72383547459986
 30
0.0
 11
54.99508261421488
 21
11.28370125761716
 31
0.0
  0
LINE
  5
73
330
2
100
AcDbEntity
  8
GAIKEI
  6
Continuous
100
AcDbLine
 10
51.90415370814259
 20
10.05383547459985
 30
0.0
 11
50.08601107109218
 21
10.05383547459985
 31
0.0
  0
CIRCLE
  5
74
330
2
100
AcDbEntity
  8
GAIKEI
  6
Continuous
 62
     1
100
AcDbCircle
 10
48.19508261421493
 20
12.72383547459958
 30
0.0
 40
0.35
  0
ARC
  5
75
330
2
100
AcDbEntity
  8
GAIKEI
  6
Continuous
 62
     1
100
AcDbCircle
 10
48.26508261421486
 20
12.65383547459981
 30
0.0
 40
0.0349999999999909
100
AcDbArc
 50
90.0
 51
180.0
  0
ARC
  5
76
330
2
100
AcDbEntity
  8
GAIKEI
  6
Continuous
 62
     1
100
AcDbCircle
 10
48.26508261421486
 20
12.79383547459957
 30
0.0
 40
0.0350000000000137
100
AcDbArc
 50
180.0
 51
270.0
  0
ARC
  5
77
330
2
100
AcDbEntity
  8
GAIKEI
  6
Continuous
 62
     1
100
AcDbCircle
 10
48.1250826142151
 20
12.79383547459957
 30
0.0
 40
0.0349999999997181
100
AcDbArc
 50
270.0
 51
0.0
  0
ARC
  5
78
330
2
100
AcDbEntity
  8
GAIKEI
  6
Continuous
 62
     1
100
AcDbCircle
 10
48.1250826142151
 20
12.65383547459981
 30
0.0
 40
0.0349999999999
100
AcDbArc
 50
0.0
 51
90.0
  0
LINE
  5
79
330
2
100
AcDbEntity
  8
GAIKEI
  6
Continuous
 62
     1
100
AcDbLine
 10
48.39008261421486
 20
12.68883547459967
 30
0.0
 11
48.26508261421486
 21
12.68883547459967
 31
0.0
  0
LINE
  5
7A
330
2
100
AcDbEntity
  8
GAIKEI
  6
Continuous
 62
     1
100
AcDbLine
 10
48.16008261421484
 20
12.91883547459957
 30
0.0
 11
48.16008261421484
 21
12.79383547459957
 31
0.0
  0
LINE
  5
7B
330
2
100
AcDbEntity
  8
GAIKEI
  6
Continuous
 62
     1
100
AcDbLine
 10
48.39008261421486
 20
12.75883547459955
 30
0.0
 11
48.39008261421486
 21
12.68883547459967
 31
0.0
  0
LINE
  5
7C
330
2
100
AcDbEntity
  8
GAIKEI
  6
Continuous
 62
     1
100
AcDbLine
 10
48.0000826142151
 20
12.75883547459955
 30
0.0
 11
48.0000826142151
 21
12.68883547459967
 31
0.0
  0
LINE
  5
7D
330
2
100
AcDbEntity
  8
GAIKEI
  6
Continuous
 62
     1
100
AcDbLine
 10
48.23008261421489
 20
12.52883547459976
 30
0.0
 11
48.16008261421484
 21
12.52883547459976
 31
0.0
  0
LINE
  5
7E
330
2
100
AcDbEntity
  8
GAIKEI
  6
Continuous
 62
     1
100
AcDbLine
 10
48.23008261421489
 20
12.91883547459957
 30
0.0
 11
48.16008261421484
 21
12.91883547459957
 31
0.0
  0
LINE
  5
7F
330
2
100
AcDbEntity
  8
GAIKEI
  6
Continuous
 62
     1
100
AcDbLine
 10
48.23008261421489
 20
12.65383547459976
 30
0.0
 11
48.23008261421489
 21
12.52883547459976
 31
0.0
  0
LINE
  5
80
330
2
100
AcDbEntity
  8
GAIKEI
  6
Continuous
 62
     1
100
AcDbLine
 10
48.1250826142151
 20
12.68883547459967
 30
0.0
 11
48.0000826142151
 21
12.68883547459967
 31
0.0
  0
LINE
  5
81
330
2
100
AcDbEntity
  8
GAIKEI
  6
Continuous
 62
     1
100
AcDbLine
 10
48.1250826142151
 20
12.75883547459955
 30
0.0
 11
48.0000826142151
 21
12.75883547459955
 31
0.0
  0
LINE
  5
82
330
2
100
AcDbEntity
  8
GAIKEI
  6
Continuous
 62
     1
100
AcDbLine
 10
48.16008261421484
 20
12.65383547459976
 30
0.0
 11
48.16008261421484
 21
12.52883547459976
 31
0.0
  0
LINE
  5
83
330
2
100
AcDbEntity
  8
GAIKEI
  6
Continuous
 62
     1
100
AcDbLine
 10
48.39008261421486
 20
12.75883547459955
 30
0.0
 11
48.26508261421486
 21
12.75883547459955
 31
0.0
  0
LINE
  5
84
330
2
100
AcDbEntity
  8
GAIKEI
  6
Continuous
 62
     1
100
AcDbLine
 10
48.23008261421489
 20
12.91883547459957
 30
0.0
 11
48.23008261421489
 21
12.79383547459957
 31
0.0
  0
ARC
  5
85
330
2
100
AcDbEntity
  8
GAIKEI
  6
Continuous
100
AcDbCircle
 10
50.08601107109218
 20
10.15383547459987
 30
0.0
 40
0.1
100
AcDbArc
 50
185.4403320310645
 51
270.0
  0
LINE
  5
86
330
2
100
AcDbEntity
  8
GAIKEI
  6
Continuous
100
AcDbLine
 10
49.98646152383298
 20
10.14435456533698
 30
0.0
 11
49.89508238961753
 21
11.10383547459986
 31
0.0
  0
LINE
  5
87
330
2
100
AcDbEntity
  8
GAIKEI
  6
Continuous
100
AcDbLine
 10
54.78508191854399
 20
11.10386187522584
 30
0.0
 11
52.89508238961741
 21
11.10386187522584
 31
0.0
  0
LINE
  5
88
330
2
100
AcDbEntity
  8
GAIKEI
  6
Continuous
100
AcDbLine
 10
54.78508191854399
 20
11.00386187522582
 30
0.0
 11
52.89508238961741
 21
11.00386187522582
 31
0.0
  0
LINE
  5
89
330
2
100
AcDbEntity
  8
GAIKEI
  6
Continuous
100
AcDbLine
 10
52.89508238961741
 20
11.10386187522584
 30
0.0
 11
52.89508238961741
 21
11.00386187522582
 31
0.0
  0
ARC
  5
8A
330
2
100
AcDbEntity
  8
GAIKEI
  6
Continuous
100
AcDbCircle
 10
51.90415370814259
 20
10.15383547459987
 30
0.0
 40
0.1000000000000153
100
AcDbArc
 50
270.0
 51
354.5596679689617
  0
LINE
  5
8B
330
2
100
AcDbEntity
  8
GAIKEI
  6
Continuous
100
AcDbLine
 10
52.09508238961752
 20
11.10383547459986
 30
0.0
 11
52.003703255402
 21
10.14435456533698
 31
0.0
  0
ARC
  5
8C
330
2
100
AcDbEntity
  8
GAIKEI
  6
Continuous
100
AcDbCircle
 10
54.20821564937063
 20
11.5038420406251
 30
0.0
 40
0.8568549215006772
100
AcDbArc
 50
339.2754553013186
 51
13.54353115281063
  0
LINE
  5
8D
330
2
100
AcDbEntity
  8
GAIKEI
  6
Continuous
100
AcDbLine
 10
55.00962564937061
 20
11.20062204062509
 30
0.0
 11
55.00962564937061
 21
11.72152832707348
 31
0.0
  0
ARC
  5
8E
330
2
100
AcDbEntity
  8
GAIKEI
  6
Continuous
100
AcDbCircle
 10
54.78508191854399
 20
11.10386187522584
 30
0.0
 40
0.1
100
AcDbArc
 50
270.0
 51
0.0
  0
ARC
  5
8F
330
2
100
AcDbEntity
  8
GAIKEI
  6
Continuous
100
AcDbCircle
 10
54.6850816710604
 20
11.20383547459988
 30
0.0
 40
0.1
100
AcDbArc
 50
270.0
 51
0.0
  0
LINE
  5
90
330
2
100
AcDbEntity
  8
GAIKEI
  6
Continuous
100
AcDbLine
 10
54.93508191854402
 20
11.1940956552728
 30
0.0
 11
55.00962564937061
 21
11.20062204062509
 31
0.0
  0
LINE
  5
91
330
2
100
AcDbEntity
  8
GAIKEI
  6
Continuous
100
AcDbLine
 10
54.66508296690659
 20
11.28370125761716
 30
0.0
 11
54.6650829726434
 21
11.1038365134184
 31
0.0
  0
LINE
  5
92
330
2
100
AcDbEntity
  8
GAIKEI
  6
Continuous
100
AcDbLine
 10
54.99508296796449
 20
11.28370125761716
 30
0.0
 11
54.9150829669066
 21
11.28370125761716
 31
0.0
  0
LINE
  5
93
330
2
100
AcDbEntity
  8
GAIKEI
  6
Continuous
100
AcDbLine
 10
54.66508296690659
 20
11.28370125761716
 30
0.0
 11
54.9150829669066
 21
11.28370125761716
 31
0.0
  0
LINE
  5
94
330
2
100
AcDbEntity
  8
GAIKEI
  6
Continuous
100
AcDbLine
 10
54.88508191854402
 20
11.22386187522585
 30
0.0
 11
54.78508191854399
 21
11.22386187522585
 31
0.0
  0
LINE
  5
95
330
2
100
AcDbEntity
  8
GAIKEI
  6
Continuous
100
AcDbLine
 10
54.88508191854402
 20
11.22386187522585
 30
0.0
 11
54.88508191854402
 21
11.10386187522584
 31
0.0
  0
LINE
  5
96
330
2
100
AcDbEntity
  8
GAIKEI
  6
Continuous
100
AcDbLine
 10
54.78508191854399
 20
11.22386187522585
 30
0.0
 11
54.78508191854399
 21
11.10386187522584
 31
0.0
  0
LINE
  5
97
330
2
100
AcDbEntity
  8
GAIKEI
  6
Continuous
100
AcDbLine
 10
54.93508191854402
 20
11.20383547459988
 30
0.0
 11
54.93508191854402
 21
11.10386187522584
 31
0.0
  0
LINE
  5
98
330
2
100
AcDbEntity
  8
GAIKEI
  6
Continuous
100
AcDbLine
 10
54.93508191854402
 20
11.20383547459988
 30
0.0
 11
54.88508191854402
 21
11.20383547459988
 31
0.0
  0
LINE
  5
99
330
2
100
AcDbEntity
  8
GAIKEI
  6
Continuous
100
AcDbLine
 10
54.93508191854402
 20
11.10386187522584
 30
0.0
 11
54.88508191854402
 21
11.10386187522584
 31
0.0
  0
LINE
  5
9A
330
2
100
AcDbEntity
  8
GAIKEI
  6
Continuous
100
AcDbLine
 10
54.78508191854399
 20
11.10386187522584
 30
0.0
 11
54.68737937169641
 21
11.10386187522584
 31
0.0
  0
LINE
  5
9B
330
2
100
AcDbEntity
  8
GAIKEI
  6
Continuous
100
AcDbLine
 10
54.88508191854402
 20
11.28370125761716
 30
0.0
 11
54.88508191854402
 21
11.22386187522585
 31
0.0
  0
LINE
  5
9C
330
2
100
AcDbEntity
  8
GAIKEI
  6
Continuous
100
AcDbLine
 10
54.78508191854399
 20
11.28370125761716
 30
0.0
 11
54.78508191854399
 21
11.22386187522585
 31
0.0
  0
ARC
  5
9D
330
2
100
AcDbEntity
  8
GAIKEI
  6
Continuous
100
AcDbCircle
 10
55.05008095249673
 20
12.64888649105791
 30
0.0
 40
0.0550000000001092
100
AcDbArc
 50
100.0000000000046
 51
180.0
  0
ARC
  5
9E
330
2
100
AcDbEntity
  8
GAIKEI
  6
Continuous
100
AcDbCircle
 10
55.05008095249673
 20
12.64888649105791
 30
0.0
 40
0.0550000000000496
100
AcDbArc
 50
10.0000000000316
 51
100.0000000000046
  0
ARC
  5
9F
330
2
100
AcDbEntity
  8
GAIKEI
  6
Continuous
100
AcDbCircle
 10
55.36508285940385
 20
12.6038391993809
 30
0.0
 40
0.1
100
AcDbArc
 50
270.0
 51
0.0
  0
ARC
  5
A0
330
2
100
AcDbEntity
  8
GAIKEI
  6
Continuous
100
AcDbCircle
 10
55.58108095249662
 20
12.91383764049601
 30
0.0
 40
0.0990000000000009
100
AcDbArc
 50
209.6955394785475
 51
270.0
  0
LINE
  5
A1
330
2
100
AcDbEntity
  8
GAIKEI
  6
Continuous
100
AcDbLine
 10
55.10424537891236
 20
12.65843714082956
 30
0.0
 11
55.1226890618085
 21
12.55383781733286
 31
0.0
  0
LINE
  5
A2
330
2
100
AcDbEntity
  8
GAIKEI
  6
Continuous
100
AcDbLine
 10
55.3050809524969
 20
12.45383781733318
 30
0.0
 11
55.30508095249672
 21
12.20383781733318
 31
0.0
  0
LINE
  5
A3
330
2
100
AcDbEntity
  8
GAIKEI
  6
Continuous
100
AcDbLine
 10
55.1226890618085
 20
12.55383781733286
 30
0.0
 11
55.3050809524969
 21
12.45383781733318
 31
0.0
  0
LINE
  5
A4
330
2
100
AcDbEntity
  8
GAIKEI
  6
Continuous
100
AcDbLine
 10
55.36508285940385
 20
12.50383919938087
 30
0.0
 11
55.26508285940389
 21
12.50383919938087
 31
0.0
  0
LINE
  5
A5
330
2
100
AcDbEntity
  8
GAIKEI
  6
Continuous
100
AcDbLine
 10
55.26508285940389
 20
12.4757675714149
 30
0.0
 11
55.26508285940389
 21
12.50383919938087
 31
0.0
  0
ARC
  5
A6
330
2
100
AcDbEntity
  8
GAIKEI
  6
Continuous
100
AcDbCircle
 10
55.05008095249673
 20
11.7587891436097
 30
0.0
 40
0.054999999999848
100
AcDbArc
 50
180.0
 51
259.9999999999389
  0
ARC
  5
A7
330
2
100
AcDbEntity
  8
GAIKEI
  6
Continuous
100
AcDbCircle
 10
55.05008095249673
 20
11.7587891436097
 30
0.0
 40
0.0550000000000048
100
AcDbArc
 50
259.9999999999389
 51
349.9999999999684
  0
ARC
  5
A8
330
2
100
AcDbEntity
  8
GAIKEI
  6
Continuous
100
AcDbCircle
 10
55.16508285940386
 20
11.70383919938086
 30
0.0
 40
0.1
100
AcDbArc
 50
270.0
 51
0.0
  0
LINE
  5
A9
330
2
100
AcDbEntity
  8
GAIKEI
  6
Continuous
100
AcDbLine
 10
55.1226890618085
 20
11.85383781733321
 30
0.0
 11
55.10424537891236
 21
11.74923849383668
 31
0.0
  0
LINE
  5
AA
330
2
100
AcDbEntity
  8
GAIKEI
  6
Continuous
100
AcDbLine
 10
55.30508095249672
 20
11.95383781733318
 30
0.0
 11
55.1226890618085
 21
11.85383781733321
 31
0.0
  0
LINE
  5
AB
330
2
100
AcDbEntity
  8
GAIKEI
  6
Continuous
100
AcDbLine
 10
55.05921560515253
 20
11.6038391993809
 30
0.0
 11
55.16508285940386
 21
11.6038391993809
 31
0.0
  0
LINE
  5
AC
330
2
100
AcDbEntity
  8
GAIKEI
  6
Continuous
100
AcDbLine
 10
55.26508285940389
 20
11.70383919938086
 30
0.0
 11
55.26508285940389
 21
11.93190806325151
 31
0.0
  0
LINE
  5
AD
330
2
100
AcDbEntity
  8
GAIKEI
  6
Continuous
100
AcDbLine
 10
55.30508095249672
 20
12.20383781733318
 30
0.0
 11
55.30508095249672
 21
11.95383781733318
 31
0.0
  0
LINE
  5
AE
330
2
100
AcDbEntity
  8
GAIKEI
  6
Continuous
100
AcDbLine
 10
55.1226890618085
 20
11.85383781733321
 30
0.0
 11
55.1226890618085
 21
12.55383781733286
 31
0.0
  0
ARC
  5
AF
330
2
100
AcDbEntity
  8
GAIKEI
  6
Continuous
100
AcDbCircle
 10
55.16508285940386
 20
16.30383919938089
 30
0.0
 40
0.1
100
AcDbArc
 50
0.0
 51
90.0
  0
LINE
  5
B0
330
2
100
AcDbEntity
  8
GAIKEI
  6
Continuous
100
AcDbLine
 10
55.16508285940386
 20
16.40383919938091
 30
0.0
 11
54.99508261421488
 21
16.40383919938091
 31
0.0
  0
ARC
  5
B1
330
2
100
AcDbEntity
  8
GAIKEI
  6
Continuous
100
AcDbCircle
 10
55.36508285940385
 20
15.40383919938091
 30
0.0
 40
0.1
100
AcDbArc
 50
0.0
 51
90.0
  0
LINE
  5
B2
330
2
100
AcDbEntity
  8
GAIKEI
  6
Continuous
100
AcDbLine
 10
55.36508285940385
 20
15.50383919938087
 30
0.0
 11
55.26508285940389
 21
15.50383919938087
 31
0.0
  0
LINE
  5
B3
330
2
100
AcDbEntity
  8
GAIKEI
  6
Continuous
100
AcDbLine
 10
55.26508285940389
 20
15.50383919938087
 30
0.0
 11
55.26508285940389
 21
16.30383919938089
 31
0.0
  0
ARC
  5
B4
330
2
100
AcDbEntity
  8
GAIKEI
  6
Continuous
100
AcDbCircle
 10
54.20821564937063
 20
18.40384204062474
 30
0.0
 40
0.8568549215007408
100
AcDbArc
 50
339.2754553013186
 51
20.72454469870924
  0
LINE
  5
B5
330
2
100
AcDbEntity
  8
GAIKEI
  6
Continuous
100
AcDbLine
 10
55.00962564937061
 20
18.10062204062484
 30
0.0
 11
55.00962564937061
 21
18.70706204062475
 31
0.0
  0
LINE
  5
B6
330
2
100
AcDbEntity
  8
GAIKEI
  6
Continuous
100
AcDbLine
 10
55.0950826142149
 20
18.35383919938056
 30
0.0
 11
55.0950826142149
 21
16.65383919938057
 31
0.0
  0
ARC
  5
B7
330
2
100
AcDbEntity
  8
GAIKEI
  6
Continuous
100
AcDbCircle
 10
55.39508261421492
 20
18.08383919938052
 30
0.0
 40
0.1
100
AcDbArc
 50
0.0
 51
90.0
  0
LINE
  5
B8
330
2
100
AcDbEntity
  8
GAIKEI
  6
Continuous
100
AcDbLine
 10
54.99508269595207
 20
18.09934878911036
 30
0.0
 11
55.00962564937061
 21
18.10062204062484
 31
0.0
  0
LINE
  5
B9
330
2
100
AcDbEntity
  8
GAIKEI
  6
Continuous
100
AcDbLine
 10
55.39508261421492
 20
18.18383919938054
 30
0.0
 11
55.0950826142149
 21
18.18383919938054
 31
0.0
  0
ARC
  5
BA
330
2
100
AcDbEntity
  8
GAIKEI
  6
Continuous
100
AcDbCircle
 10
55.39508261421492
 20
16.92383919938061
 30
0.0
 40
0.1
100
AcDbArc
 50
270.0
 51
0.0
  0
LINE
  5
BB
330
2
100
AcDbEntity
  8
GAIKEI
  6
Continuous
100
AcDbLine
 10
55.39508261421492
 20
16.82383919938058
 30
0.0
 11
55.0950826142149
 21
16.82383919938058
 31
0.0
  0
LINE
  5
BC
330
2
100
AcDbEntity
  8
GAIKEI
  6
Continuous
100
AcDbLine
 10
55.04508261421489
 20
16.60383919938056
 30
0.0
 11
54.99508261421488
 21
16.60383919938056
 31
0.0
  0
LINE
  5
BD
330
2
100
AcDbEntity
  8
GAIKEI
  6
Continuous
100
AcDbLine
 10
55.04508261421489
 20
16.60383919938056
 30
0.0
 11
55.0950826142149
 21
16.65383919938057
 31
0.0
  0
LINE
  5
BE
330
2
100
AcDbEntity
  8
GAIKEI
  6
Continuous
100
AcDbLine
 10
55.04508261421489
 20
18.21984736773413
 30
0.0
 11
55.04508261421489
 21
16.60383919938056
 31
0.0
  0
LINE
  5
BF
330
2
100
AcDbEntity
  8
GAIKEI
  6
Continuous
100
AcDbLine
 10
55.49508261421488
 20
18.08383919938052
 30
0.0
 11
55.49508261421488
 21
16.92383919938061
 31
0.0
  0
ARC
  5
C0
330
2
100
AcDbEntity
  8
GAIKEI
  6
Continuous
100
AcDbCircle
 10
54.91508261671538
 20
19.72383802753506
 30
0.0
 40
0.0800000000000867
100
AcDbArc
 50
0.0000028316947524
 51
90.0000050416105
  0
ARC
  5
C1
330
2
100
AcDbEntity
  8
GAIKEI
  6
Continuous
100
AcDbCircle
 10
54.91508261421472
 20
19.72383547459986
 30
0.0
 40
0.0799999999999955
100
AcDbArc
 50
0.0
 51
90.0
  0
LINE
  5
C2
330
2
100
AcDbEntity
  8
GAIKEI
  6
Continuous
100
AcDbLine
 10
54.84437193859651
 20
19.72383547459986
 30
0.0
 11
54.91508261421472
 21
19.72383547459986
 31
0.0
  0
LINE
  5
C3
330
2
100
AcDbEntity
  8
GAIKEI
  6
Continuous
100
AcDbLine
 10
54.91508261421472
 20
19.65312734941636
 30
0.0
 11
54.91508261421472
 21
19.72383547459986
 31
0.0
  0
LINE
  5
C4
330
2
100
AcDbEntity
  8
GAIKEI
  6
Continuous
100
AcDbLine
 10
54.99508263173334
 20
19.60383690814598
 30
0.0
 11
54.99508262215158
 21
19.72383803148875
 31
0.0
  0
LINE
  5
C5
330
2
100
AcDbEntity
  8
GAIKEI
  6
Continuous
100
AcDbLine
 10
54.84437193859651
 20
19.65312734319809
 30
0.0
 11
54.84437193859651
 21
19.80383802131683
 31
0.0
  0
LINE
  5
C6
330
2
100
AcDbEntity
  8
GAIKEI
  6
Continuous
100
AcDbLine
 10
54.99508262892669
 20
19.6531273564517
 30
0.0
 11
54.84437193859651
 21
19.65312734319809
 31
0.0
  0
LINE
  5
C7
330
2
100
AcDbEntity
  8
GAIKEI
  6
Continuous
100
AcDbLine
 10
54.9950826716476
 20
18.70833430796375
 30
0.0
 11
55.00962564937061
 21
18.70706204062475
 31
0.0
  0
LINE
  5
C8
330
2
100
AcDbEntity
  8
GAIKEI
  6
Continuous
100
AcDbLine
 10
55.06484263116369
 20
18.38407918243189
 30
0.0
 11
55.0950826142149
 21
18.35383919938056
 31
0.0
  0
LINE
  5
C9
330
2
100
AcDbEntity
  8
GAIKEI
  6
Continuous
100
AcDbLine
 10
56.00508095249671
 20
13.38883764049598
 30
0.0
 11
56.00508095249671
 21
12.43883764049599
 31
0.0
  0
CIRCLE
  5
CA
330
2
100
AcDbEntity
  8
GAIKEI
  6
Continuous
 62
     1
100
AcDbCircle
 10
25.49508261421488
 20
12.72383547459958
 30
0.0
 40
0.4999999999997954
  0
ARC
  5
CB
330
2
100
AcDbEntity
  8
GAIKEI
  6
Continuous
 62
     1
100
AcDbCircle
 10
24.0950826142149
 20
12.72383547459986
 30
0.0
 40
0.6000000000000001
100
AcDbArc
 50
90.0
 51
270.0
  0
ARC
  5
CC
330
2
100
AcDbEntity
  8
GAIKEI
  6
Continuous
 62
     1
100
AcDbCircle
 10
24.0950826142149
 20
12.72383547459986
 30
0.0
 40
0.95
100
AcDbArc
 50
90.0
 51
270.0
  0
LINE
  5
CD
330
2
100
AcDbEntity
  8
GAIKEI
  6
Phantom
100
AcDbLine
 10
19.99508238961749
 20
19.80383509830716
 30
0.0
 11
19.99508238961749
 21
11.00383509830715
 31
0.0
  0
LINE
  5
CF
330
2
100
AcDbEntity
  8
GAIKEI
  6
S10
 62
     1
100
AcDbLine
 10
22.99508238961749
 20
11.20383509830713
 30
0.0
 11
22.99508238961749
 21
19.60383509830717
 31
0.0
  0
LINE
  5
D1
330
2
100
AcDbEntity
  8
GAIKEI
  6
Continuous
100
AcDbLine
 10
20.24508238961926
 20
19.40383764502399
 30
0.0
 11
20.24508238961744
 21
11.17383764502426
 31
0.0
  0
LINE
  5
D2
330
2
100
AcDbEntity
  8
GAIKEI
  6
Continuous
100
AcDbLine
 10
19.99508238961749
 20
19.70383764502424
 30
0.0
 11
19.99508238961749
 21
11.10383764502427
 31
0.0
  0
LINE
  5
D3
330
2
100
AcDbEntity
  8
GAIKEI
  6
Continuous
100
AcDbLine
 10
20.26508211500436
 20
11.33383613712527
 30
0.0
 11
20.26508211500436
 21
19.28375903706086
 31
0.0
  0
LINE
  5
D4
330
2
100
AcDbEntity
  8
GAIKEI
  6
S10
 62
     1
100
AcDbLine
 10
19.99508238961749
 20
11.00383509830715
 30
0.0
 11
22.79508238961751
 21
11.00383509830715
 31
0.0
  0
LINE
  5
D5
330
2
100
AcDbEntity
  8
GAIKEI
  6
Continuous
100
AcDbLine
 10
19.64429482649751
 20
11.50383547459984
 30
0.0
 11
19.74074179512752
 21
11.40738850597984
 31
0.0
  0
ARC
  5
D6
330
2
100
AcDbEntity
  8
GAIKEI
  6
Continuous
100
AcDbCircle
 10
20.27508238961741
 20
11.17383764502426
 30
0.0
 40
0.0299999999999727
100
AcDbArc
 50
90.0
 51
180.0
  0
ARC
  5
D7
330
2
100
AcDbEntity
  8
GAIKEI
  6
Continuous
100
AcDbCircle
 10
20.36508211500438
 20
11.33383613712527
 30
0.0
 40
0.1
100
AcDbArc
 50
180.0
 51
269.9999999978635
  0
LINE
  5
D8
330
2
100
AcDbEntity
  8
GAIKEI
  6
Continuous
100
AcDbLine
 10
21.12541810663925
 20
11.00383547460052
 30
0.0
 11
21.12541810663925
 21
11.00383547460001
 31
0.0
  0
LINE
  5
D9
330
2
100
AcDbEntity
  8
GAIKEI
  6
Continuous
100
AcDbLine
 10
20.24508238961744
 20
11.17383764502426
 30
0.0
 11
20.24508238961744
 21
11.00383764502425
 31
0.0
  0
LINE
  5
DA
330
2
100
AcDbEntity
  8
GAIKEI
  6
Continuous
100
AcDbLine
 10
20.36508283356142
 20
11.20383764502423
 30
0.0
 11
20.27508238961741
 21
11.20383764502423
 31
0.0
  0
LINE
  5
DB
330
2
100
AcDbEntity
  8
GAIKEI
  6
Continuous
100
AcDbLine
 10
20.36508283356142
 20
11.23383613712525
 30
0.0
 11
20.36508283356142
 21
11.10383613712588
 31
0.0
  0
LINE
  5
DC
330
2
100
AcDbEntity
  8
GAIKEI
  6
Continuous
100
AcDbLine
 10
20.36508283356142
 20
11.18383613712564
 30
0.0
 11
20.36508283356142
 21
11.10383414710367
 31
0.0
  0
LINE
  5
DD
330
2
100
AcDbEntity
  8
GAIKEI
  6
Continuous
100
AcDbLine
 10
20.36508283356142
 20
11.23383613712525
 30
0.0
 11
20.36508211500069
 21
11.23383613712525
 31
0.0
  0
LINE
  5
DE
330
2
100
AcDbEntity
  8
GAIKEI
  6
Continuous
100
AcDbLine
 10
19.99508238961749
 20
11.10383764502427
 30
0.0
 11
20.09508238961752
 21
11.00383764502425
 31
0.0
  0
LINE
  5
DF
330
2
100
AcDbEntity
  8
GAIKEI
  6
Continuous
100
AcDbLine
 10
20.24508238961744
 20
11.00383764502425
 30
0.0
 11
20.09508238961752
 21
11.00383764502425
 31
0.0
  0
ARC
  5
E0
330
2
100
AcDbEntity
  8
GAIKEI
  6
Continuous
100
AcDbCircle
 10
20.27508238961741
 20
11.48383764502415
 30
0.0
 40
0.0299999999999118
100
AcDbArc
 50
180.0
 51
250.5282230777343
  0
LINE
  5
E1
330
2
100
AcDbEntity
  8
GAIKEI
  6
Continuous
100
AcDbLine
 10
19.74074179512752
 20
11.40738850597984
 30
0.0
 11
19.99508238961749
 21
11.40294897438775
 31
0.0
  0
LINE
  5
E2
330
2
100
AcDbEntity
  8
GAIKEI
  6
Continuous
100
AcDbLine
 10
24.90415442669979
 20
9.953835474599884
 30
0.0
 11
23.08601178964932
 21
9.953835474599884
 31
0.0
  0
LINE
  5
E3
330
2
100
AcDbEntity
  8
GAIKEI
  6
Continuous
100
AcDbLine
 10
25.14508310817462
 20
11.00383651341838
 30
0.0
 11
22.84508310817461
 21
11.00383651341838
 31
0.0
  0
ARC
  5
E4
330
2
100
AcDbEntity
  8
GAIKEI
  6
S10
 62
     1
100
AcDbCircle
 10
22.79508238961751
 20
11.20383509830713
 30
0.0
 40
0.2
100
AcDbArc
 50
270.0
 51
0.0
  0
LINE
  5
E5
330
2
100
AcDbEntity
  8
GAIKEI
  6
Continuous
100
AcDbLine
 10
22.84508310817461
 20
11.00383651341838
 30
0.0
 11
22.74508310817464
 21
11.1038365134184
 31
0.0
  0
ARC
  5
E6
330
2
100
AcDbEntity
  8
GAIKEI
  6
Continuous
100
AcDbCircle
 10
23.08601178964932
 20
10.05383547459985
 30
0.0
 40
0.1
100
AcDbArc
 50
185.4403320310645
 51
270.0
  0
LINE
  5
E7
330
2
100
AcDbEntity
  8
GAIKEI
  6
Continuous
100
AcDbLine
 10
22.9864622423903
 20
10.04435456533696
 30
0.0
 11
22.89508310817473
 21
11.00383547459984
 31
0.0
  0
LINE
  5
E8
330
2
100
AcDbEntity
  8
GAIKEI
  6
Continuous
100
AcDbLine
 10
25.24508310817464
 20
11.1038365134184
 30
0.0
 11
25.14508310817462
 21
11.00383651341838
 31
0.0
  0
ARC
  5
E9
330
2
100
AcDbEntity
  8
GAIKEI
  6
Continuous
100
AcDbCircle
 10
24.90415442669979
 20
10.05383547459985
 30
0.0
 40
0.1000000000000153
100
AcDbArc
 50
270.0
 51
354.5596679689617
  0
LINE
  5
EA
330
2
100
AcDbEntity
  8
GAIKEI
  6
Continuous
100
AcDbLine
 10
25.09508310817472
 20
11.00383547459984
 30
0.0
 11
25.00370397395921
 21
10.04435456533696
 31
0.0
  0
CIRCLE
  5
EB
330
2
100
AcDbEntity
  8
GAIKEI
  6
Continuous
 62
     1
100
AcDbCircle
 10
25.49508261421488
 20
12.72383547459958
 30
0.0
 40
0.3499999999997954
  0
ARC
  5
EC
330
2
100
AcDbEntity
  8
GAIKEI
  6
Continuous
 62
     1
100
AcDbCircle
 10
25.56508261421488
 20
12.65383547459953
 30
0.0
 40
0.0349999999999909
100
AcDbArc
 50
90.0
 51
180.0
  0
ARC
  5
ED
330
2
100
AcDbEntity
  8
GAIKEI
  6
Continuous
 62
     1
100
AcDbCircle
 10
25.56508261421488
 20
12.79383547459935
 30
0.0
 40
0.0349999999999909
100
AcDbArc
 50
180.0
 51
270.0
  0
ARC
  5
EE
330
2
100
AcDbEntity
  8
GAIKEI
  6
Continuous
 62
     1
100
AcDbCircle
 10
25.42508261421512
 20
12.79383547459935
 30
0.0
 40
0.0349999999997181
100
AcDbArc
 50
270.0
 51
0.0
  0
ARC
  5
EF
330
2
100
AcDbEntity
  8
GAIKEI
  6
Continuous
 62
     1
100
AcDbCircle
 10
25.42508261421512
 20
12.65383547459953
 30
0.0
 40
0.0349999999999
100
AcDbArc
 50
0.0
 51
90.0
  0
LINE
  5
F0
330
2
100
AcDbEntity
  8
GAIKEI
  6
Continuous
 62
     1
100
AcDbLine
 10
25.69008261421487
 20
12.6888354745995
 30
0.0
 11
25.56508261421488
 21
12.6888354745995
 31
0.0
  0
LINE
  5
F1
330
2
100
AcDbEntity
  8
GAIKEI
  6
Continuous
 62
     1
100
AcDbLine
 10
25.4600826142148
 20
12.91883547459935
 30
0.0
 11
25.4600826142148
 21
12.79383547459935
 31
0.0
  0
LINE
  5
F2
330
2
100
AcDbEntity
  8
GAIKEI
  6
Continuous
 62
     1
100
AcDbLine
 10
25.69008261421487
 20
12.75883547459938
 30
0.0
 11
25.69008261421487
 21
12.6888354745995
 31
0.0
  0
LINE
  5
F3
330
2
100
AcDbEntity
  8
GAIKEI
  6
Continuous
 62
     1
100
AcDbLine
 10
25.30008261421512
 20
12.75883547459938
 30
0.0
 11
25.30008261421512
 21
12.6888354745995
 31
0.0
  0
LINE
  5
F4
330
2
100
AcDbEntity
  8
GAIKEI
  6
Continuous
 62
     1
100
AcDbLine
 10
25.53008261421491
 20
12.52883547459953
 30
0.0
 11
25.4600826142148
 21
12.52883547459953
 31
0.0
  0
LINE
  5
F5
330
2
100
AcDbEntity
  8
GAIKEI
  6
Continuous
 62
     1
100
AcDbLine
 10
25.53008261421491
 20
12.91883547459935
 30
0.0
 11
25.4600826142148
 21
12.91883547459935
 31
0.0
  0
LINE
  5
F6
330
2
100
AcDbEntity
  8
GAIKEI
  6
Continuous
 62
     1
100
AcDbLine
 10
25.53008261421491
 20
12.65383547459953
 30
0.0
 11
25.53008261421491
 21
12.52883547459953
 31
0.0
  0
LINE
  5
F7
330
2
100
AcDbEntity
  8
GAIKEI
  6
Continuous
 62
     1
100
AcDbLine
 10
25.42508261421512
 20
12.6888354745995
 30
0.0
 11
25.30008261421512
 21
12.6888354745995
 31
0.0
  0
LINE
  5
F8
330
2
100
AcDbEntity
  8
GAIKEI
  6
Continuous
 62
     1
100
AcDbLine
 10
25.42508261421512
 20
12.75883547459938
 30
0.0
 11
25.30008261421512
 21
12.75883547459938
 31
0.0
  0
LINE
  5
F9
330
2
100
AcDbEntity
  8
GAIKEI
  6
Continuous
 62
     1
100
AcDbLine
 10
25.4600826142148
 20
12.65383547459953
 30
0.0
 11
25.4600826142148
 21
12.52883547459953
 31
0.0
  0
LINE
  5
FA
330
2
100
AcDbEntity
  8
GAIKEI
  6
Continuous
 62
     1
100
AcDbLine
 10
25.69008261421487
 20
12.75883547459938
 30
0.0
 11
25.56508261421488
 21
12.75883547459938
 31
0.0
  0
LINE
  5
FB
330
2
100
AcDbEntity
  8
GAIKEI
  6
Continuous
 62
     1
100
AcDbLine
 10
25.53008261421491
 20
12.91883547459935
 30
0.0
 11
25.53008261421491
 21
12.79383547459935
 31
0.0
  0
LINE
  5
FC
330
2
100
AcDbEntity
  8
GAIKEI
  6
Continuous
100
AcDbLine
 10
21.79508242458462
 20
19.80383317203689
 30
0.0
 11
22.33089519785
 21
19.80383317203689
 31
0.0
  0
LINE
  5
FD
330
2
100
AcDbEntity
  8
GAIKEI
  6
Continuous
100
AcDbLine
 10
22.17508238961739
 20
19.43383764502397
 30
0.0
 11
20.27508238961741
 21
19.43383764502391
 31
0.0
  0
LINE
  5
FE
330
2
100
AcDbEntity
  8
GAIKEI
  6
Continuous
100
AcDbLine
 10
22.44508504942491
 20
19.3838350983072
 30
0.0
 11
20.26508211500436
 21
19.38383509830726
 31
0.0
  0
LINE
  5
FF
330
2
100
AcDbEntity
  8
GAIKEI
  6
Phantom
100
AcDbLine
 10
22.79508238961751
 20
19.80383509830716
 30
0.0
 11
19.99508238961749
 21
19.80383509830716
 31
0.0
  0
LINE
  5
100
330
2
100
AcDbEntity
  8
GAIKEI
  6
Continuous
100
AcDbLine
 10
20.09508238961735
 20
19.80383764502409
 30
0.0
 11
22.39508238961753
 21
19.80383764502448
 31
0.0
  0
CIRCLE
  5
101
330
2
100
AcDbEntity
  8
GAIKEI
  6
Continuous
 62
     1
100
AcDbCircle
 10
22.29508238961739
 20
17.40383547459976
 30
0.0
 40
0.25
  0
CIRCLE
  5
102
330
2
100
AcDbEntity
  8
GAIKEI
  6
Continuous
 62
     1
100
AcDbCircle
 10
22.29508238961739
 20
13.40383547459976
 30
0.0
 40
0.25
  0
LINE
  5
103
330
2
100
AcDbEntity
  8
GAIKEI
  6
Continuous
100
AcDbLine
 10
19.74074179512752
 20
19.40028244321985
 30
0.0
 11
19.64429482649751
 21
19.30383547459985
 31
0.0
  0
ARC
  5
104
330
2
100
AcDbEntity
  8
GAIKEI
  6
Continuous
100
AcDbCircle
 10
20.27508238961741
 20
19.40383764502399
 30
0.0
 40
0.0299999999981083
100
AcDbArc
 50
90.0
 51
180.0
  0
ARC
  5
105
330
2
100
AcDbEntity
  8
GAIKEI
  6
Continuous
100
AcDbCircle
 10
20.36508208607774
 20
19.28383509830729
 30
0.0
 40
0.0999999999999092
100
AcDbArc
 50
90.0
 51
180.0435798881353
  0
LINE
  5
106
330
2
100
AcDbEntity
  8
GAIKEI
  6
Continuous
100
AcDbLine
 10
21.79508242458462
 20
19.80383317203689
 30
0.0
 11
21.69508948650082
 21
19.80383317203689
 31
0.0
  0
LINE
  5
107
330
2
100
AcDbEntity
  8
GAIKEI
  6
Continuous
100
AcDbLine
 10
20.26508211500436
 20
19.30383509830716
 30
0.0
 11
20.26508211500436
 21
19.38383509830703
 31
0.0
  0
LINE
  5
108
330
2
100
AcDbEntity
  8
GAIKEI
  6
Continuous
100
AcDbLine
 10
20.26710249636654
 20
19.30383509830716
 30
0.0
 11
20.26508211500436
 21
19.30383509830716
 31
0.0
  0
LINE
  5
109
330
2
100
AcDbEntity
  8
GAIKEI
  6
Continuous
100
AcDbLine
 10
19.99508238961749
 20
19.40472197481199
 30
0.0
 11
19.74074179512752
 21
19.40028244321985
 31
0.0
  0
LINE
  5
10A
330
2
100
AcDbEntity
  8
GAIKEI
  6
Continuous
100
AcDbLine
 10
20.09508238961735
 20
19.80383764502409
 30
0.0
 11
19.99508238961749
 21
19.70383764502424
 31
0.0
  0
LINE
  5
10B
330
2
100
AcDbEntity
  8
GAIKEI
  6
Continuous
100
AcDbLine
 10
21.29508238961751
 20
19.80383547459985
 30
0.0
 11
20.09508238961752
 21
19.80383547459985
 31
0.0
  0
LINE
  5
10C
330
2
100
AcDbEntity
  8
GAIKEI
  6
Continuous
100
AcDbLine
 10
21.29508238961751
 20
19.80383547459985
 30
0.0
 11
20.09508238961735
 21
19.80383547459985
 31
0.0
  0
LINE
  5
10D
330
2
100
AcDbEntity
  8
GAIKEI
  6
Continuous
100
AcDbLine
 10
21.29508238961751
 20
19.80383547459985
 30
0.0
 11
20.09508238961752
 21
19.80383547459985
 31
0.0
  0
LINE
  5
10E
330
2
100
AcDbEntity
  8
GAIKEI
  6
Continuous
 62
     1
100
AcDbLine
 10
26.71507748961699
 20
16.55383596036529
 30
0.0
 11
26.71507748961699
 21
17.05383596036529
 31
0.0
  0
LINE
  5
10F
330
2
100
AcDbEntity
  8
GAIKEI
  6
Continuous
 62
     1
100
AcDbLine
 10
26.49508238961693
 20
16.55383596036529
 30
0.0
 11
26.49508238961693
 21
17.05383596036529
 31
0.0
  0
LINE
  5
110
330
2
100
AcDbEntity
  8
GAIKEI
  6
Continuous
 62
     1
100
AcDbLine
 10
25.99508238961693
 20
16.55383596036529
 30
0.0
 11
25.99508238961693
 21
17.05383596036529
 31
0.0
  0
LINE
  5
111
330
2
100
AcDbEntity
  8
GAIKEI
  6
Continuous
 62
     1
100
AcDbLine
 10
26.21507748961699
 20
16.55383596036529
 30
0.0
 11
26.21507748961699
 21
17.05383596036529
 31
0.0
  0
LINE
  5
112
330
2
100
AcDbEntity
  8
GAIKEI
  6
Continuous
 62
     1
100
AcDbLine
 10
25.71507748961699
 20
16.55383596036529
 30
0.0
 11
25.71507748961699
 21
17.05383596036529
 31
0.0
  0
LINE
  5
113
330
2
100
AcDbEntity
  8
GAIKEI
  6
Continuous
 62
     1
100
AcDbLine
 10
25.49508238961692
 20
16.55383596036529
 30
0.0
 11
25.49508238961692
 21
17.05383596036529
 31
0.0
  0
LINE
  5
114
330
2
100
AcDbEntity
  8
GAIKEI
  6
Continuous
 62
     1
100
AcDbLine
 10
24.99508238961693
 20
16.55383596036529
 30
0.0
 11
24.99508238961693
 21
17.05383596036529
 31
0.0
  0
LINE
  5
115
330
2
100
AcDbEntity
  8
GAIKEI
  6
Continuous
 62
     1
100
AcDbLine
 10
25.21507748961699
 20
16.55383596036529
 30
0.0
 11
25.21507748961699
 21
17.05383596036529
 31
0.0
  0
LINE
  5
116
330
2
100
AcDbEntity
  8
GAIKEI
  6
Continuous
 62
     1
100
AcDbLine
 10
24.71507748961699
 20
16.55383596036529
 30
0.0
 11
24.71507748961699
 21
17.05383596036529
 31
0.0
  0
LINE
  5
117
330
2
100
AcDbEntity
  8
GAIKEI
  6
Continuous
 62
     1
100
AcDbLine
 10
24.49508238961693
 20
16.55383596036529
 30
0.0
 11
24.49508238961693
 21
17.05383596036529
 31
0.0
  0
LINE
  5
118
330
2
100
AcDbEntity
  8
GAIKEI
  6
Continuous
 62
     1
100
AcDbLine
 10
24.71507748961699
 20
16.55383596036529
 30
0.0
 11
24.49508238961693
 21
16.55383596036529
 31
0.0
  0
LINE
  5
119
330
2
100
AcDbEntity
  8
GAIKEI
  6
Continuous
 62
     1
100
AcDbLine
 10
24.71507748961699
 20
16.05383596036529
 30
0.0
 11
24.49508238961693
 21
16.05383596036529
 31
0.0
  0
LINE
  5
11A
330
2
100
AcDbEntity
  8
GAIKEI
  6
Continuous
 62
     1
100
AcDbLine
 10
24.71507748961699
 20
15.55383596036529
 30
0.0
 11
24.49508238961693
 21
15.55383596036529
 31
0.0
  0
LINE
  5
11B
330
2
100
AcDbEntity
  8
GAIKEI
  6
Continuous
 62
     1
100
AcDbLine
 10
24.71507748961699
 20
14.80383596036529
 30
0.0
 11
24.49508238961693
 21
14.80383596036529
 31
0.0
  0
LINE
  5
11C
330
2
100
AcDbEntity
  8
GAIKEI
  6
Continuous
 62
     1
100
AcDbLine
 10
24.71507748961699
 20
14.05383596036529
 30
0.0
 11
24.49508238961693
 21
14.05383596036529
 31
0.0
  0
LINE
  5
11D
330
2
100
AcDbEntity
  8
GAIKEI
  6
Continuous
 62
     1
100
AcDbLine
 10
24.71507748961699
 20
15.30383596036529
 30
0.0
 11
24.49508238961693
 21
15.30383596036529
 31
0.0
  0
LINE
  5
11E
330
2
100
AcDbEntity
  8
GAIKEI
  6
Continuous
 62
     1
100
AcDbLine
 10
24.71507748961699
 20
14.55383596036529
 30
0.0
 11
24.49508238961693
 21
14.55383596036529
 31
0.0
  0
LINE
  5
11F
330
2
100
AcDbEntity
  8
GAIKEI
  6
Continuous
 62
     1
100
AcDbLine
 10
24.49508238961693
 20
14.80383596036529
 30
0.0
 11
24.49508238961693
 21
15.30383596036529
 31
0.0
  0
LINE
  5
120
330
2
100
AcDbEntity
  8
GAIKEI
  6
Continuous
 62
     1
100
AcDbLine
 10
24.49508238961693
 20
14.05383596036529
 30
0.0
 11
24.49508238961693
 21
14.55383596036529
 31
0.0
  0
LINE
  5
121
330
2
100
AcDbEntity
  8
GAIKEI
  6
Continuous
 62
     1
100
AcDbLine
 10
24.49508238961693
 20
15.55383596036529
 30
0.0
 11
24.49508238961693
 21
16.05383596036529
 31
0.0
  0
LINE
  5
122
330
2
100
AcDbEntity
  8
GAIKEI
  6
Continuous
 62
     1
100
AcDbLine
 10
26.71507748961699
 20
14.80383596036529
 30
0.0
 11
26.71507748961699
 21
15.30383596036529
 31
0.0
  0
LINE
  5
123
330
2
100
AcDbEntity
  8
GAIKEI
  6
Continuous
 62
     1
100
AcDbLine
 10
26.49508238961693
 20
14.80383596036529
 30
0.0
 11
26.49508238961693
 21
15.30383596036529
 31
0.0
  0
LINE
  5
124
330
2
100
AcDbEntity
  8
GAIKEI
  6
Continuous
 62
     1
100
AcDbLine
 10
25.99508238961693
 20
14.80383596036529
 30
0.0
 11
25.99508238961693
 21
15.30383596036529
 31
0.0
  0
LINE
  5
125
330
2
100
AcDbEntity
  8
GAIKEI
  6
Continuous
 62
     1
100
AcDbLine
 10
26.21507748961699
 20
14.80383596036529
 30
0.0
 11
26.21507748961699
 21
15.30383596036529
 31
0.0
  0
LINE
  5
126
330
2
100
AcDbEntity
  8
GAIKEI
  6
Continuous
 62
     1
100
AcDbLine
 10
25.71507748961699
 20
14.80383596036529
 30
0.0
 11
25.71507748961699
 21
15.30383596036529
 31
0.0
  0
LINE
  5
127
330
2
100
AcDbEntity
  8
GAIKEI
  6
Continuous
 62
     1
100
AcDbLine
 10
25.49508238961692
 20
14.80383596036529
 30
0.0
 11
25.49508238961692
 21
15.30383596036529
 31
0.0
  0
LINE
  5
128
330
2
100
AcDbEntity
  8
GAIKEI
  6
Continuous
 62
     1
100
AcDbLine
 10
24.99508238961693
 20
14.80383596036529
 30
0.0
 11
24.99508238961693
 21
15.30383596036529
 31
0.0
  0
LINE
  5
129
330
2
100
AcDbEntity
  8
GAIKEI
  6
Continuous
 62
     1
100
AcDbLine
 10
25.21507748961699
 20
14.80383596036529
 30
0.0
 11
25.21507748961699
 21
15.30383596036529
 31
0.0
  0
LINE
  5
12A
330
2
100
AcDbEntity
  8
GAIKEI
  6
Continuous
 62
     1
100
AcDbLine
 10
24.71507748961699
 20
14.80383596036529
 30
0.0
 11
24.71507748961699
 21
15.30383596036529
 31
0.0
  0
LINE
  5
12B
330
2
100
AcDbEntity
  8
GAIKEI
  6
Continuous
 62
     1
100
AcDbLine
 10
26.71507748961699
 20
14.05383596036529
 30
0.0
 11
26.71507748961699
 21
14.55383596036529
 31
0.0
  0
LINE
  5
12C
330
2
100
AcDbEntity
  8
GAIKEI
  6
Continuous
 62
     1
100
AcDbLine
 10
26.71507748961699
 20
14.80383596036529
 30
0.0
 11
26.49508238961693
 21
14.80383596036529
 31
0.0
  0
LINE
  5
12D
330
2
100
AcDbEntity
  8
GAIKEI
  6
Continuous
 62
     1
100
AcDbLine
 10
26.71507748961699
 20
14.05383596036529
 30
0.0
 11
26.49508238961693
 21
14.05383596036529
 31
0.0
  0
LINE
  5
12E
330
2
100
AcDbEntity
  8
GAIKEI
  6
Continuous
 62
     1
100
AcDbLine
 10
26.71507748961699
 20
14.55383596036529
 30
0.0
 11
26.49508238961693
 21
14.55383596036529
 31
0.0
  0
LINE
  5
12F
330
2
100
AcDbEntity
  8
GAIKEI
  6
Continuous
 62
     1
100
AcDbLine
 10
26.49508238961693
 20
14.05383596036529
 30
0.0
 11
26.49508238961693
 21
14.55383596036529
 31
0.0
  0
LINE
  5
130
330
2
100
AcDbEntity
  8
GAIKEI
  6
Continuous
 62
     1
100
AcDbLine
 10
25.99508238961693
 20
14.05383596036529
 30
0.0
 11
25.99508238961693
 21
14.55383596036529
 31
0.0
  0
LINE
  5
131
330
2
100
AcDbEntity
  8
GAIKEI
  6
Continuous
 62
     1
100
AcDbLine
 10
26.21507748961699
 20
14.55383596036529
 30
0.0
 11
25.99508238961693
 21
14.55383596036529
 31
0.0
  0
LINE
  5
132
330
2
100
AcDbEntity
  8
GAIKEI
  6
Continuous
 62
     1
100
AcDbLine
 10
26.21507748961699
 20
14.05383596036529
 30
0.0
 11
25.99508238961693
 21
14.05383596036529
 31
0.0
  0
LINE
  5
133
330
2
100
AcDbEntity
  8
GAIKEI
  6
Continuous
 62
     1
100
AcDbLine
 10
26.21507748961699
 20
14.80383596036529
 30
0.0
 11
25.99508238961693
 21
14.80383596036529
 31
0.0
  0
LINE
  5
134
330
2
100
AcDbEntity
  8
GAIKEI
  6
Continuous
 62
     1
100
AcDbLine
 10
26.21507748961699
 20
14.05383596036529
 30
0.0
 11
26.21507748961699
 21
14.55383596036529
 31
0.0
  0
LINE
  5
135
330
2
100
AcDbEntity
  8
GAIKEI
  6
Continuous
 62
     1
100
AcDbLine
 10
25.71507748961699
 20
14.05383596036529
 30
0.0
 11
25.71507748961699
 21
14.55383596036529
 31
0.0
  0
LINE
  5
136
330
2
100
AcDbEntity
  8
GAIKEI
  6
Continuous
 62
     1
100
AcDbLine
 10
25.71507748961699
 20
14.80383596036529
 30
0.0
 11
25.49508238961692
 21
14.80383596036529
 31
0.0
  0
LINE
  5
137
330
2
100
AcDbEntity
  8
GAIKEI
  6
Continuous
 62
     1
100
AcDbLine
 10
25.71507748961699
 20
14.05383596036529
 30
0.0
 11
25.49508238961692
 21
14.05383596036529
 31
0.0
  0
LINE
  5
138
330
2
100
AcDbEntity
  8
GAIKEI
  6
Continuous
 62
     1
100
AcDbLine
 10
25.71507748961699
 20
14.55383596036529
 30
0.0
 11
25.49508238961692
 21
14.55383596036529
 31
0.0
  0
LINE
  5
139
330
2
100
AcDbEntity
  8
GAIKEI
  6
Continuous
 62
     1
100
AcDbLine
 10
25.49508238961692
 20
14.05383596036529
 30
0.0
 11
25.49508238961692
 21
14.55383596036529
 31
0.0
  0
LINE
  5
13A
330
2
100
AcDbEntity
  8
GAIKEI
  6
Continuous
 62
     1
100
AcDbLine
 10
24.99508238961693
 20
14.05383596036529
 30
0.0
 11
24.99508238961693
 21
14.55383596036529
 31
0.0
  0
LINE
  5
13B
330
2
100
AcDbEntity
  8
GAIKEI
  6
Continuous
 62
     1
100
AcDbLine
 10
25.21507748961699
 20
14.55383596036529
 30
0.0
 11
24.99508238961693
 21
14.55383596036529
 31
0.0
  0
LINE
  5
13C
330
2
100
AcDbEntity
  8
GAIKEI
  6
Continuous
 62
     1
100
AcDbLine
 10
25.21507748961699
 20
14.05383596036529
 30
0.0
 11
24.99508238961693
 21
14.05383596036529
 31
0.0
  0
LINE
  5
13D
330
2
100
AcDbEntity
  8
GAIKEI
  6
Continuous
 62
     1
100
AcDbLine
 10
25.21507748961699
 20
14.80383596036529
 30
0.0
 11
24.99508238961693
 21
14.80383596036529
 31
0.0
  0
LINE
  5
13E
330
2
100
AcDbEntity
  8
GAIKEI
  6
Continuous
 62
     1
100
AcDbLine
 10
25.21507748961699
 20
14.05383596036529
 30
0.0
 11
25.21507748961699
 21
14.55383596036529
 31
0.0
  0
LINE
  5
13F
330
2
100
AcDbEntity
  8
GAIKEI
  6
Continuous
 62
     1
100
AcDbLine
 10
24.71507748961699
 20
14.05383596036529
 30
0.0
 11
24.71507748961699
 21
14.55383596036529
 31
0.0
  0
LINE
  5
140
330
2
100
AcDbEntity
  8
GAIKEI
  6
Continuous
 62
     1
100
AcDbLine
 10
26.71507748961699
 20
16.55383596036529
 30
0.0
 11
26.49508238961693
 21
16.55383596036529
 31
0.0
  0
LINE
  5
141
330
2
100
AcDbEntity
  8
GAIKEI
  6
Continuous
 62
     1
100
AcDbLine
 10
26.71507748961699
 20
16.05383596036529
 30
0.0
 11
26.49508238961693
 21
16.05383596036529
 31
0.0
  0
LINE
  5
142
330
2
100
AcDbEntity
  8
GAIKEI
  6
Continuous
 62
     1
100
AcDbLine
 10
26.71507748961699
 20
15.55383596036529
 30
0.0
 11
26.49508238961693
 21
15.55383596036529
 31
0.0
  0
LINE
  5
143
330
2
100
AcDbEntity
  8
GAIKEI
  6
Continuous
 62
     1
100
AcDbLine
 10
26.71507748961699
 20
15.30383596036529
 30
0.0
 11
26.49508238961693
 21
15.30383596036529
 31
0.0
  0
LINE
  5
144
330
2
100
AcDbEntity
  8
GAIKEI
  6
Continuous
 62
     1
100
AcDbLine
 10
26.71507748961699
 20
15.55383596036529
 30
0.0
 11
26.71507748961699
 21
16.05383596036529
 31
0.0
  0
LINE
  5
145
330
2
100
AcDbEntity
  8
GAIKEI
  6
Continuous
 62
     1
100
AcDbLine
 10
26.49508238961693
 20
15.55383596036529
 30
0.0
 11
26.49508238961693
 21
16.05383596036529
 31
0.0
  0
LINE
  5
146
330
2
100
AcDbEntity
  8
GAIKEI
  6
Continuous
 62
     1
100
AcDbLine
 10
26.21507748961699
 20
16.05383596036529
 30
0.0
 11
25.99508238961693
 21
16.05383596036529
 31
0.0
  0
LINE
  5
147
330
2
100
AcDbEntity
  8
GAIKEI
  6
Continuous
 62
     1
100
AcDbLine
 10
26.21507748961699
 20
16.55383596036529
 30
0.0
 11
25.99508238961693
 21
16.55383596036529
 31
0.0
  0
LINE
  5
148
330
2
100
AcDbEntity
  8
GAIKEI
  6
Continuous
 62
     1
100
AcDbLine
 10
25.71507748961699
 20
16.55383596036529
 30
0.0
 11
25.49508238961692
 21
16.55383596036529
 31
0.0
  0
LINE
  5
149
330
2
100
AcDbEntity
  8
GAIKEI
  6
Continuous
 62
     1
100
AcDbLine
 10
25.71507748961699
 20
16.05383596036529
 30
0.0
 11
25.49508238961692
 21
16.05383596036529
 31
0.0
  0
LINE
  5
14A
330
2
100
AcDbEntity
  8
GAIKEI
  6
Continuous
 62
     1
100
AcDbLine
 10
25.21507748961699
 20
16.05383596036529
 30
0.0
 11
24.99508238961693
 21
16.05383596036529
 31
0.0
  0
LINE
  5
14B
330
2
100
AcDbEntity
  8
GAIKEI
  6
Continuous
 62
     1
100
AcDbLine
 10
25.21507748961699
 20
16.55383596036529
 30
0.0
 11
24.99508238961693
 21
16.55383596036529
 31
0.0
  0
LINE
  5
14C
330
2
100
AcDbEntity
  8
GAIKEI
  6
Continuous
 62
     1
100
AcDbLine
 10
26.21507748961699
 20
15.30383596036529
 30
0.0
 11
25.99508238961693
 21
15.30383596036529
 31
0.0
  0
LINE
  5
14D
330
2
100
AcDbEntity
  8
GAIKEI
  6
Continuous
 62
     1
100
AcDbLine
 10
26.21507748961699
 20
15.55383596036529
 30
0.0
 11
25.99508238961693
 21
15.55383596036529
 31
0.0
  0
LINE
  5
14E
330
2
100
AcDbEntity
  8
GAIKEI
  6
Continuous
 62
     1
100
AcDbLine
 10
25.71507748961699
 20
15.55383596036529
 30
0.0
 11
25.49508238961692
 21
15.55383596036529
 31
0.0
  0
LINE
  5
14F
330
2
100
AcDbEntity
  8
GAIKEI
  6
Continuous
 62
     1
100
AcDbLine
 10
25.71507748961699
 20
15.30383596036529
 30
0.0
 11
25.49508238961692
 21
15.30383596036529
 31
0.0
  0
LINE
  5
150
330
2
100
AcDbEntity
  8
GAIKEI
  6
Continuous
 62
     1
100
AcDbLine
 10
25.21507748961699
 20
15.30383596036529
 30
0.0
 11
24.99508238961693
 21
15.30383596036529
 31
0.0
  0
LINE
  5
151
330
2
100
AcDbEntity
  8
GAIKEI
  6
Continuous
 62
     1
100
AcDbLine
 10
25.21507748961699
 20
15.55383596036529
 30
0.0
 11
24.99508238961693
 21
15.55383596036529
 31
0.0
  0
LINE
  5
152
330
2
100
AcDbEntity
  8
GAIKEI
  6
Continuous
 62
     1
100
AcDbLine
 10
25.99508238961693
 20
15.55383596036529
 30
0.0
 11
25.99508238961693
 21
16.05383596036529
 31
0.0
  0
LINE
  5
153
330
2
100
AcDbEntity
  8
GAIKEI
  6
Continuous
 62
     1
100
AcDbLine
 10
26.21507748961699
 20
15.55383596036529
 30
0.0
 11
26.21507748961699
 21
16.05383596036529
 31
0.0
  0
LINE
  5
154
330
2
100
AcDbEntity
  8
GAIKEI
  6
Continuous
 62
     1
100
AcDbLine
 10
25.71507748961699
 20
15.55383596036529
 30
0.0
 11
25.71507748961699
 21
16.05383596036529
 31
0.0
  0
LINE
  5
155
330
2
100
AcDbEntity
  8
GAIKEI
  6
Continuous
 62
     1
100
AcDbLine
 10
25.49508238961692
 20
15.55383596036529
 30
0.0
 11
25.49508238961692
 21
16.05383596036529
 31
0.0
  0
LINE
  5
156
330
2
100
AcDbEntity
  8
GAIKEI
  6
Continuous
 62
     1
100
AcDbLine
 10
24.99508238961693
 20
15.55383596036529
 30
0.0
 11
24.99508238961693
 21
16.05383596036529
 31
0.0
  0
LINE
  5
157
330
2
100
AcDbEntity
  8
GAIKEI
  6
Continuous
 62
     1
100
AcDbLine
 10
25.21507748961699
 20
15.55383596036529
 30
0.0
 11
25.21507748961699
 21
16.05383596036529
 31
0.0
  0
LINE
  5
158
330
2
100
AcDbEntity
  8
GAIKEI
  6
Continuous
 62
     1
100
AcDbLine
 10
24.71507748961699
 20
15.55383596036529
 30
0.0
 11
24.71507748961699
 21
16.05383596036529
 31
0.0
  0
LINE
  5
159
330
2
100
AcDbEntity
  8
GAIKEI
  6
Continuous
 62
     1
100
AcDbLine
 10
24.71507748961699
 20
18.05383596036529
 30
0.0
 11
24.49508238961693
 21
18.05383596036529
 31
0.0
  0
LINE
  5
15A
330
2
100
AcDbEntity
  8
GAIKEI
  6
Continuous
 62
     1
100
AcDbLine
 10
24.71507748961699
 20
18.55383596036529
 30
0.0
 11
24.49508238961693
 21
18.55383596036529
 31
0.0
  0
LINE
  5
15B
330
2
100
AcDbEntity
  8
GAIKEI
  6
Continuous
 62
     1
100
AcDbLine
 10
24.71507748961699
 20
17.80383596036529
 30
0.0
 11
24.49508238961693
 21
17.80383596036529
 31
0.0
  0
LINE
  5
15C
330
2
100
AcDbEntity
  8
GAIKEI
  6
Continuous
 62
     1
100
AcDbLine
 10
24.71507748961699
 20
17.30383596036529
 30
0.0
 11
24.49508238961693
 21
17.30383596036529
 31
0.0
  0
LINE
  5
15D
330
2
100
AcDbEntity
  8
GAIKEI
  6
Continuous
 62
     1
100
AcDbLine
 10
24.71507748961699
 20
17.05383596036529
 30
0.0
 11
24.49508238961693
 21
17.05383596036529
 31
0.0
  0
LINE
  5
15E
330
2
100
AcDbEntity
  8
GAIKEI
  6
Continuous
 62
     1
100
AcDbLine
 10
24.49508238961693
 20
18.05383596036529
 30
0.0
 11
24.49508238961693
 21
18.55383596036529
 31
0.0
  0
LINE
  5
15F
330
2
100
AcDbEntity
  8
GAIKEI
  6
Continuous
 62
     1
100
AcDbLine
 10
24.49508238961693
 20
17.30383596036529
 30
0.0
 11
24.49508238961693
 21
17.80383596036529
 31
0.0
  0
ARC
  5
160
330
2
100
AcDbEntity
  8
GAIKEI
  6
Phantom
 62
     1
100
AcDbCircle
 10
22.79508238961751
 20
19.60383509830717
 30
0.0
 40
0.2
100
AcDbArc
 50
0.0
 51
90.0
  0
ARC
  5
161
330
2
100
AcDbEntity
  8
GAIKEI
  6
Continuous
 62
     1
100
AcDbCircle
 10
22.8950821150043
 20
19.75383509830715
 30
0.0
 40
0.1
100
AcDbArc
 50
270.0
 51
0.0
  0
LINE
  5
162
330
2
100
AcDbEntity
  8
GAIKEI
  6
Continuous
100
AcDbLine
 10
22.33089519785
 20
19.80383317203689
 30
0.0
 11
22.54508258361898
 21
19.80383319088435
 31
0.0
  0
LINE
  5
163
330
2
100
AcDbEntity
  8
GAIKEI
  6
Continuous
100
AcDbLine
 10
22.39508238961753
 20
19.65383764502405
 30
0.0
 11
22.39508238961753
 21
19.80383764502448
 31
0.0
  0
LINE
  5
164
330
2
100
AcDbEntity
  8
GAIKEI
  6
Continuous
100
AcDbLine
 10
22.39508238961753
 20
19.65383764502405
 30
0.0
 11
22.17508238961739
 21
19.43383764502397
 31
0.0
  0
LINE
  5
165
330
2
100
AcDbEntity
  8
GAIKEI
  6
Continuous
100
AcDbLine
 10
22.87937078611611
 20
19.72383487031277
 30
0.0
 11
22.99508211500432
 21
19.72383488090059
 31
0.0
  0
LINE
  5
166
330
2
100
AcDbEntity
  8
GAIKEI
  6
Continuous
100
AcDbLine
 10
22.7022280702347
 20
19.65383509830718
 30
0.0
 11
22.8950821150043
 21
19.65383509830718
 31
0.0
  0
LINE
  5
167
330
2
100
AcDbEntity
  8
GAIKEI
  6
Continuous
100
AcDbLine
 10
22.99508211500432
 20
19.75383509830715
 30
0.0
 11
22.99508211500432
 21
19.80383509830716
 31
0.0
  0
LINE
  5
168
330
2
100
AcDbEntity
  8
GAIKEI
  6
Continuous
100
AcDbLine
 10
22.81270429415508
 20
19.65383509830718
 30
0.0
 11
22.87937078611611
 21
19.72383487031277
 31
0.0
  0
LINE
  5
169
330
2
100
AcDbEntity
  8
GAIKEI
  6
Continuous
100
AcDbLine
 10
22.44508504942491
 20
19.3838350983072
 30
0.0
 11
22.84508530401803
 21
19.80383509830716
 31
0.0
  0
LINE
  5
16A
330
2
100
AcDbEntity
  8
GAIKEI
  6
Continuous
 62
     1
100
AcDbLine
 10
26.71507748961699
 20
18.05383596036529
 30
0.0
 11
26.71507748961699
 21
18.55383596036529
 31
0.0
  0
LINE
  5
16B
330
2
100
AcDbEntity
  8
GAIKEI
  6
Continuous
 62
     1
100
AcDbLine
 10
26.49508238961693
 20
18.05383596036529
 30
0.0
 11
26.49508238961693
 21
18.55383596036529
 31
0.0
  0
LINE
  5
16C
330
2
100
AcDbEntity
  8
GAIKEI
  6
Continuous
 62
     1
100
AcDbLine
 10
25.99508238961693
 20
18.05383596036529
 30
0.0
 11
25.99508238961693
 21
18.55383596036529
 31
0.0
  0
LINE
  5
16D
330
2
100
AcDbEntity
  8
GAIKEI
  6
Continuous
 62
     1
100
AcDbLine
 10
26.21507748961699
 20
18.05383596036529
 30
0.0
 11
26.21507748961699
 21
18.55383596036529
 31
0.0
  0
LINE
  5
16E
330
2
100
AcDbEntity
  8
GAIKEI
  6
Continuous
 62
     1
100
AcDbLine
 10
25.71507748961699
 20
18.05383596036529
 30
0.0
 11
25.71507748961699
 21
18.55383596036529
 31
0.0
  0
LINE
  5
16F
330
2
100
AcDbEntity
  8
GAIKEI
  6
Continuous
 62
     1
100
AcDbLine
 10
25.49508238961692
 20
18.05383596036529
 30
0.0
 11
25.49508238961692
 21
18.55383596036529
 31
0.0
  0
LINE
  5
170
330
2
100
AcDbEntity
  8
GAIKEI
  6
Continuous
 62
     1
100
AcDbLine
 10
24.99508238961693
 20
18.05383596036529
 30
0.0
 11
24.99508238961693
 21
18.55383596036529
 31
0.0
  0
LINE
  5
171
330
2
100
AcDbEntity
  8
GAIKEI
  6
Continuous
 62
     1
100
AcDbLine
 10
25.21507748961699
 20
18.05383596036529
 30
0.0
 11
25.21507748961699
 21
18.55383596036529
 31
0.0
  0
LINE
  5
172
330
2
100
AcDbEntity
  8
GAIKEI
  6
Continuous
 62
     1
100
AcDbLine
 10
24.71507748961699
 20
18.05383596036529
 30
0.0
 11
24.71507748961699
 21
18.55383596036529
 31
0.0
  0
LINE
  5
173
330
2
100
AcDbEntity
  8
GAIKEI
  6
Continuous
 62
     1
100
AcDbLine
 10
26.71507748961699
 20
18.05383596036529
 30
0.0
 11
26.49508238961693
 21
18.05383596036529
 31
0.0
  0
LINE
  5
174
330
2
100
AcDbEntity
  8
GAIKEI
  6
Continuous
 62
     1
100
AcDbLine
 10
26.71507748961699
 20
17.80383596036529
 30
0.0
 11
26.49508238961693
 21
17.80383596036529
 31
0.0
  0
LINE
  5
175
330
2
100
AcDbEntity
  8
GAIKEI
  6
Continuous
 62
     1
100
AcDbLine
 10
26.71507748961699
 20
17.30383596036529
 30
0.0
 11
26.49508238961693
 21
17.30383596036529
 31
0.0
  0
LINE
  5
176
330
2
100
AcDbEntity
  8
GAIKEI
  6
Continuous
 62
     1
100
AcDbLine
 10
26.71507748961699
 20
17.05383596036529
 30
0.0
 11
26.49508238961693
 21
17.05383596036529
 31
0.0
  0
LINE
  5
177
330
2
100
AcDbEntity
  8
GAIKEI
  6
Continuous
 62
     1
100
AcDbLine
 10
26.71507748961699
 20
17.30383596036529
 30
0.0
 11
26.71507748961699
 21
17.80383596036529
 31
0.0
  0
LINE
  5
178
330
2
100
AcDbEntity
  8
GAIKEI
  6
Continuous
 62
     1
100
AcDbLine
 10
26.49508238961693
 20
17.30383596036529
 30
0.0
 11
26.49508238961693
 21
17.80383596036529
 31
0.0
  0
LINE
  5
179
330
2
100
AcDbEntity
  8
GAIKEI
  6
Continuous
 62
     1
100
AcDbLine
 10
26.21507748961699
 20
17.80383596036529
 30
0.0
 11
25.99508238961693
 21
17.80383596036529
 31
0.0
  0
LINE
  5
17A
330
2
100
AcDbEntity
  8
GAIKEI
  6
Continuous
 62
     1
100
AcDbLine
 10
26.21507748961699
 20
18.05383596036529
 30
0.0
 11
25.99508238961693
 21
18.05383596036529
 31
0.0
  0
LINE
  5
17B
330
2
100
AcDbEntity
  8
GAIKEI
  6
Continuous
 62
     1
100
AcDbLine
 10
25.71507748961699
 20
18.05383596036529
 30
0.0
 11
25.49508238961692
 21
18.05383596036529
 31
0.0
  0
LINE
  5
17C
330
2
100
AcDbEntity
  8
GAIKEI
  6
Continuous
 62
     1
100
AcDbLine
 10
25.71507748961699
 20
17.80383596036529
 30
0.0
 11
25.49508238961692
 21
17.80383596036529
 31
0.0
  0
LINE
  5
17D
330
2
100
AcDbEntity
  8
GAIKEI
  6
Continuous
 62
     1
100
AcDbLine
 10
25.21507748961699
 20
17.80383596036529
 30
0.0
 11
24.99508238961693
 21
17.80383596036529
 31
0.0
  0
LINE
  5
17E
330
2
100
AcDbEntity
  8
GAIKEI
  6
Continuous
 62
     1
100
AcDbLine
 10
25.21507748961699
 20
18.05383596036529
 30
0.0
 11
24.99508238961693
 21
18.05383596036529
 31
0.0
  0
LINE
  5
17F
330
2
100
AcDbEntity
  8
GAIKEI
  6
Continuous
 62
     1
100
AcDbLine
 10
26.21507748961699
 20
17.05383596036529
 30
0.0
 11
25.99508238961693
 21
17.05383596036529
 31
0.0
  0
LINE
  5
180
330
2
100
AcDbEntity
  8
GAIKEI
  6
Continuous
 62
     1
100
AcDbLine
 10
26.21507748961699
 20
17.30383596036529
 30
0.0
 11
25.99508238961693
 21
17.30383596036529
 31
0.0
  0
LINE
  5
181
330
2
100
AcDbEntity
  8
GAIKEI
  6
Continuous
 62
     1
100
AcDbLine
 10
25.71507748961699
 20
17.30383596036529
 30
0.0
 11
25.49508238961692
 21
17.30383596036529
 31
0.0
  0
LINE
  5
182
330
2
100
AcDbEntity
  8
GAIKEI
  6
Continuous
 62
     1
100
AcDbLine
 10
25.71507748961699
 20
17.05383596036529
 30
0.0
 11
25.49508238961692
 21
17.05383596036529
 31
0.0
  0
LINE
  5
183
330
2
100
AcDbEntity
  8
GAIKEI
  6
Continuous
 62
     1
100
AcDbLine
 10
25.21507748961699
 20
17.05383596036529
 30
0.0
 11
24.99508238961693
 21
17.05383596036529
 31
0.0
  0
LINE
  5
184
330
2
100
AcDbEntity
  8
GAIKEI
  6
Continuous
 62
     1
100
AcDbLine
 10
25.21507748961699
 20
17.30383596036529
 30
0.0
 11
24.99508238961693
 21
17.30383596036529
 31
0.0
  0
LINE
  5
185
330
2
100
AcDbEntity
  8
GAIKEI
  6
Continuous
 62
     1
100
AcDbLine
 10
25.99508238961693
 20
17.30383596036529
 30
0.0
 11
25.99508238961693
 21
17.80383596036529
 31
0.0
  0
LINE
  5
186
330
2
100
AcDbEntity
  8
GAIKEI
  6
Continuous
 62
     1
100
AcDbLine
 10
26.21507748961699
 20
17.30383596036529
 30
0.0
 11
26.21507748961699
 21
17.80383596036529
 31
0.0
  0
LINE
  5
187
330
2
100
AcDbEntity
  8
GAIKEI
  6
Continuous
 62
     1
100
AcDbLine
 10
25.71507748961699
 20
17.30383596036529
 30
0.0
 11
25.71507748961699
 21
17.80383596036529
 31
0.0
  0
LINE
  5
188
330
2
100
AcDbEntity
  8
GAIKEI
  6
Continuous
 62
     1
100
AcDbLine
 10
25.49508238961692
 20
17.30383596036529
 30
0.0
 11
25.49508238961692
 21
17.80383596036529
 31
0.0
  0
LINE
  5
189
330
2
100
AcDbEntity
  8
GAIKEI
  6
Continuous
 62
     1
100
AcDbLine
 10
24.99508238961693
 20
17.30383596036529
 30
0.0
 11
24.99508238961693
 21
17.80383596036529
 31
0.0
  0
LINE
  5
18A
330
2
100
AcDbEntity
  8
GAIKEI
  6
Continuous
 62
     1
100
AcDbLine
 10
25.21507748961699
 20
17.30383596036529
 30
0.0
 11
25.21507748961699
 21
17.80383596036529
 31
0.0
  0
LINE
  5
18B
330
2
100
AcDbEntity
  8
GAIKEI
  6
Continuous
 62
     1
100
AcDbLine
 10
24.71507748961699
 20
17.30383596036529
 30
0.0
 11
24.71507748961699
 21
17.80383596036529
 31
0.0
  0
LINE
  5
18C
330
2
100
AcDbEntity
  8
GAIKEI
  6
Continuous
 62
     1
100
AcDbLine
 10
26.71507748961699
 20
18.55383596036529
 30
0.0
 11
26.49508238961693
 21
18.55383596036529
 31
0.0
  0
LINE
  5
18D
330
2
100
AcDbEntity
  8
GAIKEI
  6
Continuous
 62
     1
100
AcDbLine
 10
26.21507748961699
 20
18.55383596036529
 30
0.0
 11
25.99508238961693
 21
18.55383596036529
 31
0.0
  0
LINE
  5
18E
330
2
100
AcDbEntity
  8
GAIKEI
  6
Continuous
 62
     1
100
AcDbLine
 10
25.71507748961699
 20
18.55383596036529
 30
0.0
 11
25.49508238961692
 21
18.55383596036529
 31
0.0
  0
LINE
  5
18F
330
2
100
AcDbEntity
  8
GAIKEI
  6
Continuous
 62
     1
100
AcDbLine
 10
25.21507748961699
 20
18.55383596036529
 30
0.0
 11
24.99508238961693
 21
18.55383596036529
 31
0.0
  0
LINE
  5
190
330
2
100
AcDbEntity
  8
GAIKEI
  6
Continuous
 62
     1
100
AcDbLine
 10
31.71507748961699
 20
17.80383596036529
 30
0.0
 11
31.4950777896168
 21
17.80383596036529
 31
0.0
  0
LINE
  5
191
330
2
100
AcDbEntity
  8
GAIKEI
  6
Continuous
 62
     1
100
AcDbLine
 10
31.71507748961699
 20
18.55383596036529
 30
0.0
 11
31.4950777896168
 21
18.55383596036529
 31
0.0
  0
LINE
  5
192
330
2
100
AcDbEntity
  8
GAIKEI
  6
Continuous
 62
     1
100
AcDbLine
 10
31.71507748961699
 20
18.05383596036529
 30
0.0
 11
31.4950777896168
 21
18.05383596036529
 31
0.0
  0
LINE
  5
193
330
2
100
AcDbEntity
  8
GAIKEI
  6
Continuous
 62
     1
100
AcDbLine
 10
31.71507748961699
 20
16.05383596036529
 30
0.0
 11
31.4950777896168
 21
16.05383596036529
 31
0.0
  0
LINE
  5
194
330
2
100
AcDbEntity
  8
GAIKEI
  6
Continuous
 62
     1
100
AcDbLine
 10
31.71507748961699
 20
17.05383596036529
 30
0.0
 11
31.4950777896168
 21
17.05383596036529
 31
0.0
  0
LINE
  5
195
330
2
100
AcDbEntity
  8
GAIKEI
  6
Continuous
 62
     1
100
AcDbLine
 10
31.71507748961699
 20
16.55383596036529
 30
0.0
 11
31.4950777896168
 21
16.55383596036529
 31
0.0
  0
LINE
  5
196
330
2
100
AcDbEntity
  8
GAIKEI
  6
Continuous
 62
     1
100
AcDbLine
 10
31.71507748961699
 20
17.30383596036529
 30
0.0
 11
31.4950777896168
 21
17.30383596036529
 31
0.0
  0
LINE
  5
197
330
2
100
AcDbEntity
  8
GAIKEI
  6
Continuous
 62
     1
100
AcDbLine
 10
31.71507748961699
 20
14.55383596036529
 30
0.0
 11
31.4950777896168
 21
14.55383596036529
 31
0.0
  0
LINE
  5
198
330
2
100
AcDbEntity
  8
GAIKEI
  6
Continuous
 62
     1
100
AcDbLine
 10
31.71507748961699
 20
15.30383596036529
 30
0.0
 11
31.4950777896168
 21
15.30383596036529
 31
0.0
  0
LINE
  5
199
330
2
100
AcDbEntity
  8
GAIKEI
  6
Continuous
 62
     1
100
AcDbLine
 10
31.71507748961699
 20
14.05383596036529
 30
0.0
 11
31.4950777896168
 21
14.05383596036529
 31
0.0
  0
LINE
  5
19A
330
2
100
AcDbEntity
  8
GAIKEI
  6
Continuous
 62
     1
100
AcDbLine
 10
31.71507748961699
 20
14.80383596036529
 30
0.0
 11
31.4950777896168
 21
14.80383596036529
 31
0.0
  0
LINE
  5
19B
330
2
100
AcDbEntity
  8
GAIKEI
  6
Continuous
 62
     1
100
AcDbLine
 10
31.71507748961699
 20
15.55383596036529
 30
0.0
 11
31.4950777896168
 21
15.55383596036529
 31
0.0
  0
LINE
  5
19C
330
2
100
AcDbEntity
  8
GAIKEI
  6
Continuous
 62
     1
100
AcDbLine
 10
31.4950777896168
 20
16.55383596036529
 30
0.0
 11
31.4950777896168
 21
17.05383596036529
 31
0.0
  0
LINE
  5
19D
330
2
100
AcDbEntity
  8
GAIKEI
  6
Continuous
 62
     1
100
AcDbLine
 10
30.9950777896168
 20
16.55383596036529
 30
0.0
 11
30.9950777896168
 21
17.05383596036529
 31
0.0
  0
LINE
  5
19E
330
2
100
AcDbEntity
  8
GAIKEI
  6
Continuous
 62
     1
100
AcDbLine
 10
30.4950777896168
 20
16.55383596036529
 30
0.0
 11
30.4950777896168
 21
17.05383596036529
 31
0.0
  0
LINE
  5
19F
330
2
100
AcDbEntity
  8
GAIKEI
  6
Continuous
 62
     1
100
AcDbLine
 10
29.99508238961693
 20
16.55383596036529
 30
0.0
 11
29.99508238961693
 21
17.05383596036529
 31
0.0
  0
LINE
  5
1A0
330
2
100
AcDbEntity
  8
GAIKEI
  6
Continuous
 62
     1
100
AcDbLine
 10
29.49508238961693
 20
16.55383596036529
 30
0.0
 11
29.49508238961693
 21
17.05383596036529
 31
0.0
  0
LINE
  5
1A1
330
2
100
AcDbEntity
  8
GAIKEI
  6
Continuous
 62
     1
100
AcDbLine
 10
31.21507748961699
 20
16.55383596036529
 30
0.0
 11
31.21507748961699
 21
17.05383596036529
 31
0.0
  0
LINE
  5
1A2
330
2
100
AcDbEntity
  8
GAIKEI
  6
Continuous
 62
     1
100
AcDbLine
 10
30.71507748961699
 20
16.55383596036529
 30
0.0
 11
30.71507748961699
 21
17.05383596036529
 31
0.0
  0
LINE
  5
1A3
330
2
100
AcDbEntity
  8
GAIKEI
  6
Continuous
 62
     1
100
AcDbLine
 10
30.21507748961699
 20
16.55383596036529
 30
0.0
 11
30.21507748961699
 21
17.05383596036529
 31
0.0
  0
LINE
  5
1A4
330
2
100
AcDbEntity
  8
GAIKEI
  6
Continuous
 62
     1
100
AcDbLine
 10
29.71507748961699
 20
16.55383596036529
 30
0.0
 11
29.71507748961699
 21
17.05383596036529
 31
0.0
  0
LINE
  5
1A5
330
2
100
AcDbEntity
  8
GAIKEI
  6
Continuous
 62
     1
100
AcDbLine
 10
28.99508238961693
 20
16.55383596036529
 30
0.0
 11
28.99508238961693
 21
17.05383596036529
 31
0.0
  0
LINE
  5
1A6
330
2
100
AcDbEntity
  8
GAIKEI
  6
Continuous
 62
     1
100
AcDbLine
 10
28.49508238961693
 20
16.55383596036529
 30
0.0
 11
28.49508238961693
 21
17.05383596036529
 31
0.0
  0
LINE
  5
1A7
330
2
100
AcDbEntity
  8
GAIKEI
  6
Continuous
 62
     1
100
AcDbLine
 10
27.99508238961692
 20
16.55383596036529
 30
0.0
 11
27.99508238961692
 21
17.05383596036529
 31
0.0
  0
LINE
  5
1A8
330
2
100
AcDbEntity
  8
GAIKEI
  6
Continuous
 62
     1
100
AcDbLine
 10
29.21507748961699
 20
16.55383596036529
 30
0.0
 11
29.21507748961699
 21
17.05383596036529
 31
0.0
  0
LINE
  5
1A9
330
2
100
AcDbEntity
  8
GAIKEI
  6
Continuous
 62
     1
100
AcDbLine
 10
28.71507748961699
 20
16.55383596036529
 30
0.0
 11
28.71507748961699
 21
17.05383596036529
 31
0.0
  0
LINE
  5
1AA
330
2
100
AcDbEntity
  8
GAIKEI
  6
Continuous
 62
     1
100
AcDbLine
 10
28.21507748961699
 20
16.55383596036529
 30
0.0
 11
28.21507748961699
 21
17.05383596036529
 31
0.0
  0
LINE
  5
1AB
330
2
100
AcDbEntity
  8
GAIKEI
  6
Continuous
 62
     1
100
AcDbLine
 10
27.71507748961699
 20
16.55383596036529
 30
0.0
 11
27.71507748961699
 21
17.05383596036529
 31
0.0
  0
LINE
  5
1AC
330
2
100
AcDbEntity
  8
GAIKEI
  6
Continuous
 62
     1
100
AcDbLine
 10
27.49508238961693
 20
16.55383596036529
 30
0.0
 11
27.49508238961693
 21
17.05383596036529
 31
0.0
  0
LINE
  5
1AD
330
2
100
AcDbEntity
  8
GAIKEI
  6
Continuous
 62
     1
100
AcDbLine
 10
26.99508238961693
 20
16.55383596036529
 30
0.0
 11
26.99508238961693
 21
17.05383596036529
 31
0.0
  0
LINE
  5
1AE
330
2
100
AcDbEntity
  8
GAIKEI
  6
Continuous
 62
     1
100
AcDbLine
 10
27.21507748961699
 20
16.55383596036529
 30
0.0
 11
27.21507748961699
 21
17.05383596036529
 31
0.0
  0
LINE
  5
1AF
330
2
100
AcDbEntity
  8
GAIKEI
  6
Continuous
 62
     1
100
AcDbLine
 10
28.99508238961693
 20
14.80383596036529
 30
0.0
 11
28.99508238961693
 21
15.30383596036529
 31
0.0
  0
LINE
  5
1B0
330
2
100
AcDbEntity
  8
GAIKEI
  6
Continuous
 62
     1
100
AcDbLine
 10
28.49508238961693
 20
14.80383596036529
 30
0.0
 11
28.49508238961693
 21
15.30383596036529
 31
0.0
  0
LINE
  5
1B1
330
2
100
AcDbEntity
  8
GAIKEI
  6
Continuous
 62
     1
100
AcDbLine
 10
27.99508238961692
 20
14.80383596036529
 30
0.0
 11
27.99508238961692
 21
15.30383596036529
 31
0.0
  0
LINE
  5
1B2
330
2
100
AcDbEntity
  8
GAIKEI
  6
Continuous
 62
     1
100
AcDbLine
 10
29.21507748961699
 20
14.80383596036529
 30
0.0
 11
29.21507748961699
 21
15.30383596036529
 31
0.0
  0
LINE
  5
1B3
330
2
100
AcDbEntity
  8
GAIKEI
  6
Continuous
 62
     1
100
AcDbLine
 10
28.71507748961699
 20
14.80383596036529
 30
0.0
 11
28.71507748961699
 21
15.30383596036529
 31
0.0
  0
LINE
  5
1B4
330
2
100
AcDbEntity
  8
GAIKEI
  6
Continuous
 62
     1
100
AcDbLine
 10
28.21507748961699
 20
14.80383596036529
 30
0.0
 11
28.21507748961699
 21
15.30383596036529
 31
0.0
  0
LINE
  5
1B5
330
2
100
AcDbEntity
  8
GAIKEI
  6
Continuous
 62
     1
100
AcDbLine
 10
27.71507748961699
 20
14.80383596036529
 30
0.0
 11
27.71507748961699
 21
15.30383596036529
 31
0.0
  0
LINE
  5
1B6
330
2
100
AcDbEntity
  8
GAIKEI
  6
Continuous
 62
     1
100
AcDbLine
 10
27.49508238961693
 20
14.80383596036529
 30
0.0
 11
27.49508238961693
 21
15.30383596036529
 31
0.0
  0
LINE
  5
1B7
330
2
100
AcDbEntity
  8
GAIKEI
  6
Continuous
 62
     1
100
AcDbLine
 10
26.99508238961693
 20
14.80383596036529
 30
0.0
 11
26.99508238961693
 21
15.30383596036529
 31
0.0
  0
LINE
  5
1B8
330
2
100
AcDbEntity
  8
GAIKEI
  6
Continuous
 62
     1
100
AcDbLine
 10
27.21507748961699
 20
14.80383596036529
 30
0.0
 11
27.21507748961699
 21
15.30383596036529
 31
0.0
  0
LINE
  5
1B9
330
2
100
AcDbEntity
  8
GAIKEI
  6
Continuous
 62
     1
100
AcDbLine
 10
28.99508238961693
 20
14.05383596036529
 30
0.0
 11
28.99508238961693
 21
14.55383596036529
 31
0.0
  0
LINE
  5
1BA
330
2
100
AcDbEntity
  8
GAIKEI
  6
Continuous
 62
     1
100
AcDbLine
 10
28.49508238961693
 20
14.05383596036529
 30
0.0
 11
28.49508238961693
 21
14.55383596036529
 31
0.0
  0
LINE
  5
1BB
330
2
100
AcDbEntity
  8
GAIKEI
  6
Continuous
 62
     1
100
AcDbLine
 10
27.99508238961692
 20
14.05383596036529
 30
0.0
 11
27.99508238961692
 21
14.55383596036529
 31
0.0
  0
LINE
  5
1BC
330
2
100
AcDbEntity
  8
GAIKEI
  6
Continuous
 62
     1
100
AcDbLine
 10
29.21507748961699
 20
14.55383596036529
 30
0.0
 11
28.99508238961693
 21
14.55383596036529
 31
0.0
  0
LINE
  5
1BD
330
2
100
AcDbEntity
  8
GAIKEI
  6
Continuous
 62
     1
100
AcDbLine
 10
28.71507748961699
 20
14.55383596036529
 30
0.0
 11
28.49508238961693
 21
14.55383596036529
 31
0.0
  0
LINE
  5
1BE
330
2
100
AcDbEntity
  8
GAIKEI
  6
Continuous
 62
     1
100
AcDbLine
 10
28.21507748961699
 20
14.55383596036529
 30
0.0
 11
27.99508238961692
 21
14.55383596036529
 31
0.0
  0
LINE
  5
1BF
330
2
100
AcDbEntity
  8
GAIKEI
  6
Continuous
 62
     1
100
AcDbLine
 10
29.21507748961699
 20
14.05383596036529
 30
0.0
 11
28.99508238961693
 21
14.05383596036529
 31
0.0
  0
LINE
  5
1C0
330
2
100
AcDbEntity
  8
GAIKEI
  6
Continuous
 62
     1
100
AcDbLine
 10
29.21507748961699
 20
14.80383596036529
 30
0.0
 11
28.99508238961693
 21
14.80383596036529
 31
0.0
  0
LINE
  5
1C1
330
2
100
AcDbEntity
  8
GAIKEI
  6
Continuous
 62
     1
100
AcDbLine
 10
28.71507748961699
 20
14.05383596036529
 30
0.0
 11
28.49508238961693
 21
14.05383596036529
 31
0.0
  0
LINE
  5
1C2
330
2
100
AcDbEntity
  8
GAIKEI
  6
Continuous
 62
     1
100
AcDbLine
 10
28.71507748961699
 20
14.80383596036529
 30
0.0
 11
28.49508238961693
 21
14.80383596036529
 31
0.0
  0
LINE
  5
1C3
330
2
100
AcDbEntity
  8
GAIKEI
  6
Continuous
 62
     1
100
AcDbLine
 10
28.21507748961699
 20
14.05383596036529
 30
0.0
 11
27.99508238961692
 21
14.05383596036529
 31
0.0
  0
LINE
  5
1C4
330
2
100
AcDbEntity
  8
GAIKEI
  6
Continuous
 62
     1
100
AcDbLine
 10
28.21507748961699
 20
14.80383596036529
 30
0.0
 11
27.99508238961692
 21
14.80383596036529
 31
0.0
  0
LINE
  5
1C5
330
2
100
AcDbEntity
  8
GAIKEI
  6
Continuous
 62
     1
100
AcDbLine
 10
29.21507748961699
 20
14.05383596036529
 30
0.0
 11
29.21507748961699
 21
14.55383596036529
 31
0.0
  0
LINE
  5
1C6
330
2
100
AcDbEntity
  8
GAIKEI
  6
Continuous
 62
     1
100
AcDbLine
 10
28.71507748961699
 20
14.05383596036529
 30
0.0
 11
28.71507748961699
 21
14.55383596036529
 31
0.0
  0
LINE
  5
1C7
330
2
100
AcDbEntity
  8
GAIKEI
  6
Continuous
 62
     1
100
AcDbLine
 10
28.21507748961699
 20
14.05383596036529
 30
0.0
 11
28.21507748961699
 21
14.55383596036529
 31
0.0
  0
LINE
  5
1C8
330
2
100
AcDbEntity
  8
GAIKEI
  6
Continuous
 62
     1
100
AcDbLine
 10
27.71507748961699
 20
14.05383596036529
 30
0.0
 11
27.71507748961699
 21
14.55383596036529
 31
0.0
  0
LINE
  5
1C9
330
2
100
AcDbEntity
  8
GAIKEI
  6
Continuous
 62
     1
100
AcDbLine
 10
27.71507748961699
 20
14.80383596036529
 30
0.0
 11
27.49508238961693
 21
14.80383596036529
 31
0.0
  0
LINE
  5
1CA
330
2
100
AcDbEntity
  8
GAIKEI
  6
Continuous
 62
     1
100
AcDbLine
 10
27.71507748961699
 20
14.05383596036529
 30
0.0
 11
27.49508238961693
 21
14.05383596036529
 31
0.0
  0
LINE
  5
1CB
330
2
100
AcDbEntity
  8
GAIKEI
  6
Continuous
 62
     1
100
AcDbLine
 10
27.71507748961699
 20
14.55383596036529
 30
0.0
 11
27.49508238961693
 21
14.55383596036529
 31
0.0
  0
LINE
  5
1CC
330
2
100
AcDbEntity
  8
GAIKEI
  6
Continuous
 62
     1
100
AcDbLine
 10
27.49508238961693
 20
14.05383596036529
 30
0.0
 11
27.49508238961693
 21
14.55383596036529
 31
0.0
  0
LINE
  5
1CD
330
2
100
AcDbEntity
  8
GAIKEI
  6
Continuous
 62
     1
100
AcDbLine
 10
26.99508238961693
 20
14.05383596036529
 30
0.0
 11
26.99508238961693
 21
14.55383596036529
 31
0.0
  0
LINE
  5
1CE
330
2
100
AcDbEntity
  8
GAIKEI
  6
Continuous
 62
     1
100
AcDbLine
 10
27.21507748961699
 20
14.55383596036529
 30
0.0
 11
26.99508238961693
 21
14.55383596036529
 31
0.0
  0
LINE
  5
1CF
330
2
100
AcDbEntity
  8
GAIKEI
  6
Continuous
 62
     1
100
AcDbLine
 10
27.21507748961699
 20
14.05383596036529
 30
0.0
 11
26.99508238961693
 21
14.05383596036529
 31
0.0
  0
LINE
  5
1D0
330
2
100
AcDbEntity
  8
GAIKEI
  6
Continuous
 62
     1
100
AcDbLine
 10
27.21507748961699
 20
14.80383596036529
 30
0.0
 11
26.99508238961693
 21
14.80383596036529
 31
0.0
  0
LINE
  5
1D1
330
2
100
AcDbEntity
  8
GAIKEI
  6
Continuous
 62
     1
100
AcDbLine
 10
27.21507748961699
 20
14.05383596036529
 30
0.0
 11
27.21507748961699
 21
14.55383596036529
 31
0.0
  0
LINE
  5
1D2
330
2
100
AcDbEntity
  8
GAIKEI
  6
Continuous
 62
     1
100
AcDbLine
 10
29.21507748961699
 20
16.05383596036529
 30
0.0
 11
28.99508238961693
 21
16.05383596036529
 31
0.0
  0
LINE
  5
1D3
330
2
100
AcDbEntity
  8
GAIKEI
  6
Continuous
 62
     1
100
AcDbLine
 10
28.71507748961699
 20
16.05383596036529
 30
0.0
 11
28.49508238961693
 21
16.05383596036529
 31
0.0
  0
LINE
  5
1D4
330
2
100
AcDbEntity
  8
GAIKEI
  6
Continuous
 62
     1
100
AcDbLine
 10
28.21507748961699
 20
16.05383596036529
 30
0.0
 11
27.99508238961692
 21
16.05383596036529
 31
0.0
  0
LINE
  5
1D5
330
2
100
AcDbEntity
  8
GAIKEI
  6
Continuous
 62
     1
100
AcDbLine
 10
29.21507748961699
 20
16.55383596036529
 30
0.0
 11
28.99508238961693
 21
16.55383596036529
 31
0.0
  0
LINE
  5
1D6
330
2
100
AcDbEntity
  8
GAIKEI
  6
Continuous
 62
     1
100
AcDbLine
 10
28.71507748961699
 20
16.55383596036529
 30
0.0
 11
28.49508238961693
 21
16.55383596036529
 31
0.0
  0
LINE
  5
1D7
330
2
100
AcDbEntity
  8
GAIKEI
  6
Continuous
 62
     1
100
AcDbLine
 10
28.21507748961699
 20
16.55383596036529
 30
0.0
 11
27.99508238961692
 21
16.55383596036529
 31
0.0
  0
LINE
  5
1D8
330
2
100
AcDbEntity
  8
GAIKEI
  6
Continuous
 62
     1
100
AcDbLine
 10
27.71507748961699
 20
16.55383596036529
 30
0.0
 11
27.49508238961693
 21
16.55383596036529
 31
0.0
  0
LINE
  5
1D9
330
2
100
AcDbEntity
  8
GAIKEI
  6
Continuous
 62
     1
100
AcDbLine
 10
27.71507748961699
 20
16.05383596036529
 30
0.0
 11
27.49508238961693
 21
16.05383596036529
 31
0.0
  0
LINE
  5
1DA
330
2
100
AcDbEntity
  8
GAIKEI
  6
Continuous
 62
     1
100
AcDbLine
 10
27.21507748961699
 20
16.05383596036529
 30
0.0
 11
26.99508238961693
 21
16.05383596036529
 31
0.0
  0
LINE
  5
1DB
330
2
100
AcDbEntity
  8
GAIKEI
  6
Continuous
 62
     1
100
AcDbLine
 10
27.21507748961699
 20
16.55383596036529
 30
0.0
 11
26.99508238961693
 21
16.55383596036529
 31
0.0
  0
LINE
  5
1DC
330
2
100
AcDbEntity
  8
GAIKEI
  6
Continuous
 62
     1
100
AcDbLine
 10
29.21507748961699
 20
15.30383596036529
 30
0.0
 11
28.99508238961693
 21
15.30383596036529
 31
0.0
  0
LINE
  5
1DD
330
2
100
AcDbEntity
  8
GAIKEI
  6
Continuous
 62
     1
100
AcDbLine
 10
28.71507748961699
 20
15.30383596036529
 30
0.0
 11
28.49508238961693
 21
15.30383596036529
 31
0.0
  0
LINE
  5
1DE
330
2
100
AcDbEntity
  8
GAIKEI
  6
Continuous
 62
     1
100
AcDbLine
 10
28.21507748961699
 20
15.30383596036529
 30
0.0
 11
27.99508238961692
 21
15.30383596036529
 31
0.0
  0
LINE
  5
1DF
330
2
100
AcDbEntity
  8
GAIKEI
  6
Continuous
 62
     1
100
AcDbLine
 10
29.21507748961699
 20
15.55383596036529
 30
0.0
 11
28.99508238961693
 21
15.55383596036529
 31
0.0
  0
LINE
  5
1E0
330
2
100
AcDbEntity
  8
GAIKEI
  6
Continuous
 62
     1
100
AcDbLine
 10
28.71507748961699
 20
15.55383596036529
 30
0.0
 11
28.49508238961693
 21
15.55383596036529
 31
0.0
  0
LINE
  5
1E1
330
2
100
AcDbEntity
  8
GAIKEI
  6
Continuous
 62
     1
100
AcDbLine
 10
28.21507748961699
 20
15.55383596036529
 30
0.0
 11
27.99508238961692
 21
15.55383596036529
 31
0.0
  0
LINE
  5
1E2
330
2
100
AcDbEntity
  8
GAIKEI
  6
Continuous
 62
     1
100
AcDbLine
 10
27.71507748961699
 20
15.55383596036529
 30
0.0
 11
27.49508238961693
 21
15.55383596036529
 31
0.0
  0
LINE
  5
1E3
330
2
100
AcDbEntity
  8
GAIKEI
  6
Continuous
 62
     1
100
AcDbLine
 10
27.71507748961699
 20
15.30383596036529
 30
0.0
 11
27.49508238961693
 21
15.30383596036529
 31
0.0
  0
LINE
  5
1E4
330
2
100
AcDbEntity
  8
GAIKEI
  6
Continuous
 62
     1
100
AcDbLine
 10
27.21507748961699
 20
15.30383596036529
 30
0.0
 11
26.99508238961693
 21
15.30383596036529
 31
0.0
  0
LINE
  5
1E5
330
2
100
AcDbEntity
  8
GAIKEI
  6
Continuous
 62
     1
100
AcDbLine
 10
27.21507748961699
 20
15.55383596036529
 30
0.0
 11
26.99508238961693
 21
15.55383596036529
 31
0.0
  0
LINE
  5
1E6
330
2
100
AcDbEntity
  8
GAIKEI
  6
Continuous
 62
     1
100
AcDbLine
 10
28.99508238961693
 20
15.55383596036529
 30
0.0
 11
28.99508238961693
 21
16.05383596036529
 31
0.0
  0
LINE
  5
1E7
330
2
100
AcDbEntity
  8
GAIKEI
  6
Continuous
 62
     1
100
AcDbLine
 10
28.49508238961693
 20
15.55383596036529
 30
0.0
 11
28.49508238961693
 21
16.05383596036529
 31
0.0
  0
LINE
  5
1E8
330
2
100
AcDbEntity
  8
GAIKEI
  6
Continuous
 62
     1
100
AcDbLine
 10
27.99508238961692
 20
15.55383596036529
 30
0.0
 11
27.99508238961692
 21
16.05383596036529
 31
0.0
  0
LINE
  5
1E9
330
2
100
AcDbEntity
  8
GAIKEI
  6
Continuous
 62
     1
100
AcDbLine
 10
29.21507748961699
 20
15.55383596036529
 30
0.0
 11
29.21507748961699
 21
16.05383596036529
 31
0.0
  0
LINE
  5
1EA
330
2
100
AcDbEntity
  8
GAIKEI
  6
Continuous
 62
     1
100
AcDbLine
 10
28.71507748961699
 20
15.55383596036529
 30
0.0
 11
28.71507748961699
 21
16.05383596036529
 31
0.0
  0
LINE
  5
1EB
330
2
100
AcDbEntity
  8
GAIKEI
  6
Continuous
 62
     1
100
AcDbLine
 10
28.21507748961699
 20
15.55383596036529
 30
0.0
 11
28.21507748961699
 21
16.05383596036529
 31
0.0
  0
LINE
  5
1EC
330
2
100
AcDbEntity
  8
GAIKEI
  6
Continuous
 62
     1
100
AcDbLine
 10
27.71507748961699
 20
15.55383596036529
 30
0.0
 11
27.71507748961699
 21
16.05383596036529
 31
0.0
  0
LINE
  5
1ED
330
2
100
AcDbEntity
  8
GAIKEI
  6
Continuous
 62
     1
100
AcDbLine
 10
27.49508238961693
 20
15.55383596036529
 30
0.0
 11
27.49508238961693
 21
16.05383596036529
 31
0.0
  0
LINE
  5
1EE
330
2
100
AcDbEntity
  8
GAIKEI
  6
Continuous
 62
     1
100
AcDbLine
 10
26.99508238961693
 20
15.55383596036529
 30
0.0
 11
26.99508238961693
 21
16.05383596036529
 31
0.0
  0
LINE
  5
1EF
330
2
100
AcDbEntity
  8
GAIKEI
  6
Continuous
 62
     1
100
AcDbLine
 10
27.21507748961699
 20
15.55383596036529
 30
0.0
 11
27.21507748961699
 21
16.05383596036529
 31
0.0
  0
LINE
  5
1F0
330
2
100
AcDbEntity
  8
GAIKEI
  6
Continuous
 62
     1
100
AcDbLine
 10
31.4950777896168
 20
14.80383596036529
 30
0.0
 11
31.4950777896168
 21
15.30383596036529
 31
0.0
  0
LINE
  5
1F1
330
2
100
AcDbEntity
  8
GAIKEI
  6
Continuous
 62
     1
100
AcDbLine
 10
30.9950777896168
 20
14.80383596036529
 30
0.0
 11
30.9950777896168
 21
15.30383596036529
 31
0.0
  0
LINE
  5
1F2
330
2
100
AcDbEntity
  8
GAIKEI
  6
Continuous
 62
     1
100
AcDbLine
 10
30.4950777896168
 20
14.80383596036529
 30
0.0
 11
30.4950777896168
 21
15.30383596036529
 31
0.0
  0
LINE
  5
1F3
330
2
100
AcDbEntity
  8
GAIKEI
  6
Continuous
 62
     1
100
AcDbLine
 10
29.99508238961693
 20
14.80383596036529
 30
0.0
 11
29.99508238961693
 21
15.30383596036529
 31
0.0
  0
LINE
  5
1F4
330
2
100
AcDbEntity
  8
GAIKEI
  6
Continuous
 62
     1
100
AcDbLine
 10
29.49508238961693
 20
14.80383596036529
 30
0.0
 11
29.49508238961693
 21
15.30383596036529
 31
0.0
  0
LINE
  5
1F5
330
2
100
AcDbEntity
  8
GAIKEI
  6
Continuous
 62
     1
100
AcDbLine
 10
31.21507748961699
 20
14.80383596036529
 30
0.0
 11
31.21507748961699
 21
15.30383596036529
 31
0.0
  0
LINE
  5
1F6
330
2
100
AcDbEntity
  8
GAIKEI
  6
Continuous
 62
     1
100
AcDbLine
 10
30.71507748961699
 20
14.80383596036529
 30
0.0
 11
30.71507748961699
 21
15.30383596036529
 31
0.0
  0
LINE
  5
1F7
330
2
100
AcDbEntity
  8
GAIKEI
  6
Continuous
 62
     1
100
AcDbLine
 10
30.21507748961699
 20
14.80383596036529
 30
0.0
 11
30.21507748961699
 21
15.30383596036529
 31
0.0
  0
LINE
  5
1F8
330
2
100
AcDbEntity
  8
GAIKEI
  6
Continuous
 62
     1
100
AcDbLine
 10
29.71507748961699
 20
14.80383596036529
 30
0.0
 11
29.71507748961699
 21
15.30383596036529
 31
0.0
  0
LINE
  5
1F9
330
2
100
AcDbEntity
  8
GAIKEI
  6
Continuous
 62
     1
100
AcDbLine
 10
31.4950777896168
 20
14.05383596036529
 30
0.0
 11
31.4950777896168
 21
14.55383596036529
 31
0.0
  0
LINE
  5
1FA
330
2
100
AcDbEntity
  8
GAIKEI
  6
Continuous
 62
     1
100
AcDbLine
 10
30.9950777896168
 20
14.05383596036529
 30
0.0
 11
30.9950777896168
 21
14.55383596036529
 31
0.0
  0
LINE
  5
1FB
330
2
100
AcDbEntity
  8
GAIKEI
  6
Continuous
 62
     1
100
AcDbLine
 10
30.4950777896168
 20
14.05383596036529
 30
0.0
 11
30.4950777896168
 21
14.55383596036529
 31
0.0
  0
LINE
  5
1FC
330
2
100
AcDbEntity
  8
GAIKEI
  6
Continuous
 62
     1
100
AcDbLine
 10
29.99508238961693
 20
14.05383596036529
 30
0.0
 11
29.99508238961693
 21
14.55383596036529
 31
0.0
  0
LINE
  5
1FD
330
2
100
AcDbEntity
  8
GAIKEI
  6
Continuous
 62
     1
100
AcDbLine
 10
29.49508238961693
 20
14.05383596036529
 30
0.0
 11
29.49508238961693
 21
14.55383596036529
 31
0.0
  0
LINE
  5
1FE
330
2
100
AcDbEntity
  8
GAIKEI
  6
Continuous
 62
     1
100
AcDbLine
 10
31.21507748961699
 20
14.55383596036529
 30
0.0
 11
30.9950777896168
 21
14.55383596036529
 31
0.0
  0
LINE
  5
1FF
330
2
100
AcDbEntity
  8
GAIKEI
  6
Continuous
 62
     1
100
AcDbLine
 10
30.71507748961699
 20
14.55383596036529
 30
0.0
 11
30.4950777896168
 21
14.55383596036529
 31
0.0
  0
LINE
  5
200
330
2
100
AcDbEntity
  8
GAIKEI
  6
Continuous
 62
     1
100
AcDbLine
 10
30.21507748961699
 20
14.55383596036529
 30
0.0
 11
29.99508238961693
 21
14.55383596036529
 31
0.0
  0
LINE
  5
201
330
2
100
AcDbEntity
  8
GAIKEI
  6
Continuous
 62
     1
100
AcDbLine
 10
29.71507748961699
 20
14.55383596036529
 30
0.0
 11
29.49508238961693
 21
14.55383596036529
 31
0.0
  0
LINE
  5
202
330
2
100
AcDbEntity
  8
GAIKEI
  6
Continuous
 62
     1
100
AcDbLine
 10
31.21507748961699
 20
14.05383596036529
 30
0.0
 11
30.9950777896168
 21
14.05383596036529
 31
0.0
  0
LINE
  5
203
330
2
100
AcDbEntity
  8
GAIKEI
  6
Continuous
 62
     1
100
AcDbLine
 10
31.21507748961699
 20
14.80383596036529
 30
0.0
 11
30.9950777896168
 21
14.80383596036529
 31
0.0
  0
LINE
  5
204
330
2
100
AcDbEntity
  8
GAIKEI
  6
Continuous
 62
     1
100
AcDbLine
 10
30.71507748961699
 20
14.05383596036529
 30
0.0
 11
30.4950777896168
 21
14.05383596036529
 31
0.0
  0
LINE
  5
205
330
2
100
AcDbEntity
  8
GAIKEI
  6
Continuous
 62
     1
100
AcDbLine
 10
30.71507748961699
 20
14.80383596036529
 30
0.0
 11
30.4950777896168
 21
14.80383596036529
 31
0.0
  0
LINE
  5
206
330
2
100
AcDbEntity
  8
GAIKEI
  6
Continuous
 62
     1
100
AcDbLine
 10
30.21507748961699
 20
14.05383596036529
 30
0.0
 11
29.99508238961693
 21
14.05383596036529
 31
0.0
  0
LINE
  5
207
330
2
100
AcDbEntity
  8
GAIKEI
  6
Continuous
 62
     1
100
AcDbLine
 10
30.21507748961699
 20
14.80383596036529
 30
0.0
 11
29.99508238961693
 21
14.80383596036529
 31
0.0
  0
LINE
  5
208
330
2
100
AcDbEntity
  8
GAIKEI
  6
Continuous
 62
     1
100
AcDbLine
 10
29.71507748961699
 20
14.05383596036529
 30
0.0
 11
29.49508238961693
 21
14.05383596036529
 31
0.0
  0
LINE
  5
209
330
2
100
AcDbEntity
  8
GAIKEI
  6
Continuous
 62
     1
100
AcDbLine
 10
29.71507748961699
 20
14.80383596036529
 30
0.0
 11
29.49508238961693
 21
14.80383596036529
 31
0.0
  0
LINE
  5
20A
330
2
100
AcDbEntity
  8
GAIKEI
  6
Continuous
 62
     1
100
AcDbLine
 10
31.21507748961699
 20
14.05383596036529
 30
0.0
 11
31.21507748961699
 21
14.55383596036529
 31
0.0
  0
LINE
  5
20B
330
2
100
AcDbEntity
  8
GAIKEI
  6
Continuous
 62
     1
100
AcDbLine
 10
30.71507748961699
 20
14.05383596036529
 30
0.0
 11
30.71507748961699
 21
14.55383596036529
 31
0.0
  0
LINE
  5
20C
330
2
100
AcDbEntity
  8
GAIKEI
  6
Continuous
 62
     1
100
AcDbLine
 10
30.21507748961699
 20
14.05383596036529
 30
0.0
 11
30.21507748961699
 21
14.55383596036529
 31
0.0
  0
LINE
  5
20D
330
2
100
AcDbEntity
  8
GAIKEI
  6
Continuous
 62
     1
100
AcDbLine
 10
29.71507748961699
 20
14.05383596036529
 30
0.0
 11
29.71507748961699
 21
14.55383596036529
 31
0.0
  0
LINE
  5
20E
330
2
100
AcDbEntity
  8
GAIKEI
  6
Continuous
 62
     1
100
AcDbLine
 10
31.21507748961699
 20
16.05383596036529
 30
0.0
 11
30.9950777896168
 21
16.05383596036529
 31
0.0
  0
LINE
  5
20F
330
2
100
AcDbEntity
  8
GAIKEI
  6
Continuous
 62
     1
100
AcDbLine
 10
30.71507748961699
 20
16.05383596036529
 30
0.0
 11
30.4950777896168
 21
16.05383596036529
 31
0.0
  0
LINE
  5
210
330
2
100
AcDbEntity
  8
GAIKEI
  6
Continuous
 62
     1
100
AcDbLine
 10
30.21507748961699
 20
16.05383596036529
 30
0.0
 11
29.99508238961693
 21
16.05383596036529
 31
0.0
  0
LINE
  5
211
330
2
100
AcDbEntity
  8
GAIKEI
  6
Continuous
 62
     1
100
AcDbLine
 10
29.71507748961699
 20
16.05383596036529
 30
0.0
 11
29.49508238961693
 21
16.05383596036529
 31
0.0
  0
LINE
  5
212
330
2
100
AcDbEntity
  8
GAIKEI
  6
Continuous
 62
     1
100
AcDbLine
 10
31.21507748961699
 20
16.55383596036529
 30
0.0
 11
30.9950777896168
 21
16.55383596036529
 31
0.0
  0
LINE
  5
213
330
2
100
AcDbEntity
  8
GAIKEI
  6
Continuous
 62
     1
100
AcDbLine
 10
30.71507748961699
 20
16.55383596036529
 30
0.0
 11
30.4950777896168
 21
16.55383596036529
 31
0.0
  0
LINE
  5
214
330
2
100
AcDbEntity
  8
GAIKEI
  6
Continuous
 62
     1
100
AcDbLine
 10
30.21507748961699
 20
16.55383596036529
 30
0.0
 11
29.99508238961693
 21
16.55383596036529
 31
0.0
  0
LINE
  5
215
330
2
100
AcDbEntity
  8
GAIKEI
  6
Continuous
 62
     1
100
AcDbLine
 10
29.71507748961699
 20
16.55383596036529
 30
0.0
 11
29.49508238961693
 21
16.55383596036529
 31
0.0
  0
LINE
  5
216
330
2
100
AcDbEntity
  8
GAIKEI
  6
Continuous
 62
     1
100
AcDbLine
 10
31.21507748961699
 20
15.30383596036529
 30
0.0
 11
30.9950777896168
 21
15.30383596036529
 31
0.0
  0
LINE
  5
217
330
2
100
AcDbEntity
  8
GAIKEI
  6
Continuous
 62
     1
100
AcDbLine
 10
30.71507748961699
 20
15.30383596036529
 30
0.0
 11
30.4950777896168
 21
15.30383596036529
 31
0.0
  0
LINE
  5
218
330
2
100
AcDbEntity
  8
GAIKEI
  6
Continuous
 62
     1
100
AcDbLine
 10
30.21507748961699
 20
15.30383596036529
 30
0.0
 11
29.99508238961693
 21
15.30383596036529
 31
0.0
  0
LINE
  5
219
330
2
100
AcDbEntity
  8
GAIKEI
  6
Continuous
 62
     1
100
AcDbLine
 10
29.71507748961699
 20
15.30383596036529
 30
0.0
 11
29.49508238961693
 21
15.30383596036529
 31
0.0
  0
LINE
  5
21A
330
2
100
AcDbEntity
  8
GAIKEI
  6
Continuous
 62
     1
100
AcDbLine
 10
31.21507748961699
 20
15.55383596036529
 30
0.0
 11
30.9950777896168
 21
15.55383596036529
 31
0.0
  0
LINE
  5
21B
330
2
100
AcDbEntity
  8
GAIKEI
  6
Continuous
 62
     1
100
AcDbLine
 10
30.71507748961699
 20
15.55383596036529
 30
0.0
 11
30.4950777896168
 21
15.55383596036529
 31
0.0
  0
LINE
  5
21C
330
2
100
AcDbEntity
  8
GAIKEI
  6
Continuous
 62
     1
100
AcDbLine
 10
30.21507748961699
 20
15.55383596036529
 30
0.0
 11
29.99508238961693
 21
15.55383596036529
 31
0.0
  0
LINE
  5
21D
330
2
100
AcDbEntity
  8
GAIKEI
  6
Continuous
 62
     1
100
AcDbLine
 10
29.71507748961699
 20
15.55383596036529
 30
0.0
 11
29.49508238961693
 21
15.55383596036529
 31
0.0
  0
LINE
  5
21E
330
2
100
AcDbEntity
  8
GAIKEI
  6
Continuous
 62
     1
100
AcDbLine
 10
31.4950777896168
 20
15.55383596036529
 30
0.0
 11
31.4950777896168
 21
16.05383596036529
 31
0.0
  0
LINE
  5
21F
330
2
100
AcDbEntity
  8
GAIKEI
  6
Continuous
 62
     1
100
AcDbLine
 10
30.9950777896168
 20
15.55383596036529
 30
0.0
 11
30.9950777896168
 21
16.05383596036529
 31
0.0
  0
LINE
  5
220
330
2
100
AcDbEntity
  8
GAIKEI
  6
Continuous
 62
     1
100
AcDbLine
 10
30.4950777896168
 20
15.55383596036529
 30
0.0
 11
30.4950777896168
 21
16.05383596036529
 31
0.0
  0
LINE
  5
221
330
2
100
AcDbEntity
  8
GAIKEI
  6
Continuous
 62
     1
100
AcDbLine
 10
29.99508238961693
 20
15.55383596036529
 30
0.0
 11
29.99508238961693
 21
16.05383596036529
 31
0.0
  0
LINE
  5
222
330
2
100
AcDbEntity
  8
GAIKEI
  6
Continuous
 62
     1
100
AcDbLine
 10
29.49508238961693
 20
15.55383596036529
 30
0.0
 11
29.49508238961693
 21
16.05383596036529
 31
0.0
  0
LINE
  5
223
330
2
100
AcDbEntity
  8
GAIKEI
  6
Continuous
 62
     1
100
AcDbLine
 10
31.21507748961699
 20
15.55383596036529
 30
0.0
 11
31.21507748961699
 21
16.05383596036529
 31
0.0
  0
LINE
  5
224
330
2
100
AcDbEntity
  8
GAIKEI
  6
Continuous
 62
     1
100
AcDbLine
 10
30.71507748961699
 20
15.55383596036529
 30
0.0
 11
30.71507748961699
 21
16.05383596036529
 31
0.0
  0
LINE
  5
225
330
2
100
AcDbEntity
  8
GAIKEI
  6
Continuous
 62
     1
100
AcDbLine
 10
30.21507748961699
 20
15.55383596036529
 30
0.0
 11
30.21507748961699
 21
16.05383596036529
 31
0.0
  0
LINE
  5
226
330
2
100
AcDbEntity
  8
GAIKEI
  6
Continuous
 62
     1
100
AcDbLine
 10
29.71507748961699
 20
15.55383596036529
 30
0.0
 11
29.71507748961699
 21
16.05383596036529
 31
0.0
  0
LINE
  5
227
330
2
100
AcDbEntity
  8
GAIKEI
  6
Continuous
 62
     1
100
AcDbLine
 10
28.99508238961693
 20
18.05383596036529
 30
0.0
 11
28.99508238961693
 21
18.55383596036529
 31
0.0
  0
LINE
  5
228
330
2
100
AcDbEntity
  8
GAIKEI
  6
Continuous
 62
     1
100
AcDbLine
 10
28.49508238961693
 20
18.05383596036529
 30
0.0
 11
28.49508238961693
 21
18.55383596036529
 31
0.0
  0
LINE
  5
229
330
2
100
AcDbEntity
  8
GAIKEI
  6
Continuous
 62
     1
100
AcDbLine
 10
27.99508238961692
 20
18.05383596036529
 30
0.0
 11
27.99508238961692
 21
18.55383596036529
 31
0.0
  0
LINE
  5
22A
330
2
100
AcDbEntity
  8
GAIKEI
  6
Continuous
 62
     1
100
AcDbLine
 10
29.21507748961699
 20
18.05383596036529
 30
0.0
 11
29.21507748961699
 21
18.55383596036529
 31
0.0
  0
LINE
  5
22B
330
2
100
AcDbEntity
  8
GAIKEI
  6
Continuous
 62
     1
100
AcDbLine
 10
28.71507748961699
 20
18.05383596036529
 30
0.0
 11
28.71507748961699
 21
18.55383596036529
 31
0.0
  0
LINE
  5
22C
330
2
100
AcDbEntity
  8
GAIKEI
  6
Continuous
 62
     1
100
AcDbLine
 10
28.21507748961699
 20
18.05383596036529
 30
0.0
 11
28.21507748961699
 21
18.55383596036529
 31
0.0
  0
LINE
  5
22D
330
2
100
AcDbEntity
  8
GAIKEI
  6
Continuous
 62
     1
100
AcDbLine
 10
27.71507748961699
 20
18.05383596036529
 30
0.0
 11
27.71507748961699
 21
18.55383596036529
 31
0.0
  0
LINE
  5
22E
330
2
100
AcDbEntity
  8
GAIKEI
  6
Continuous
 62
     1
100
AcDbLine
 10
27.49508238961693
 20
18.05383596036529
 30
0.0
 11
27.49508238961693
 21
18.55383596036529
 31
0.0
  0
LINE
  5
22F
330
2
100
AcDbEntity
  8
GAIKEI
  6
Continuous
 62
     1
100
AcDbLine
 10
26.99508238961693
 20
18.05383596036529
 30
0.0
 11
26.99508238961693
 21
18.55383596036529
 31
0.0
  0
LINE
  5
230
330
2
100
AcDbEntity
  8
GAIKEI
  6
Continuous
 62
     1
100
AcDbLine
 10
27.21507748961699
 20
18.05383596036529
 30
0.0
 11
27.21507748961699
 21
18.55383596036529
 31
0.0
  0
LINE
  5
231
330
2
100
AcDbEntity
  8
GAIKEI
  6
Continuous
 62
     1
100
AcDbLine
 10
29.21507748961699
 20
17.80383596036529
 30
0.0
 11
28.99508238961693
 21
17.80383596036529
 31
0.0
  0
LINE
  5
232
330
2
100
AcDbEntity
  8
GAIKEI
  6
Continuous
 62
     1
100
AcDbLine
 10
28.71507748961699
 20
17.80383596036529
 30
0.0
 11
28.49508238961693
 21
17.80383596036529
 31
0.0
  0
LINE
  5
233
330
2
100
AcDbEntity
  8
GAIKEI
  6
Continuous
 62
     1
100
AcDbLine
 10
28.21507748961699
 20
17.80383596036529
 30
0.0
 11
27.99508238961692
 21
17.80383596036529
 31
0.0
  0
LINE
  5
234
330
2
100
AcDbEntity
  8
GAIKEI
  6
Continuous
 62
     1
100
AcDbLine
 10
29.21507748961699
 20
18.05383596036529
 30
0.0
 11
28.99508238961693
 21
18.05383596036529
 31
0.0
  0
LINE
  5
235
330
2
100
AcDbEntity
  8
GAIKEI
  6
Continuous
 62
     1
100
AcDbLine
 10
28.71507748961699
 20
18.05383596036529
 30
0.0
 11
28.49508238961693
 21
18.05383596036529
 31
0.0
  0
LINE
  5
236
330
2
100
AcDbEntity
  8
GAIKEI
  6
Continuous
 62
     1
100
AcDbLine
 10
28.21507748961699
 20
18.05383596036529
 30
0.0
 11
27.99508238961692
 21
18.05383596036529
 31
0.0
  0
LINE
  5
237
330
2
100
AcDbEntity
  8
GAIKEI
  6
Continuous
 62
     1
100
AcDbLine
 10
27.71507748961699
 20
18.05383596036529
 30
0.0
 11
27.49508238961693
 21
18.05383596036529
 31
0.0
  0
LINE
  5
238
330
2
100
AcDbEntity
  8
GAIKEI
  6
Continuous
 62
     1
100
AcDbLine
 10
27.71507748961699
 20
17.80383596036529
 30
0.0
 11
27.49508238961693
 21
17.80383596036529
 31
0.0
  0
LINE
  5
239
330
2
100
AcDbEntity
  8
GAIKEI
  6
Continuous
 62
     1
100
AcDbLine
 10
27.21507748961699
 20
17.80383596036529
 30
0.0
 11
26.99508238961693
 21
17.80383596036529
 31
0.0
  0
LINE
  5
23A
330
2
100
AcDbEntity
  8
GAIKEI
  6
Continuous
 62
     1
100
AcDbLine
 10
27.21507748961699
 20
18.05383596036529
 30
0.0
 11
26.99508238961693
 21
18.05383596036529
 31
0.0
  0
LINE
  5
23B
330
2
100
AcDbEntity
  8
GAIKEI
  6
Continuous
 62
     1
100
AcDbLine
 10
29.21507748961699
 20
17.05383596036529
 30
0.0
 11
28.99508238961693
 21
17.05383596036529
 31
0.0
  0
LINE
  5
23C
330
2
100
AcDbEntity
  8
GAIKEI
  6
Continuous
 62
     1
100
AcDbLine
 10
28.71507748961699
 20
17.05383596036529
 30
0.0
 11
28.49508238961693
 21
17.05383596036529
 31
0.0
  0
LINE
  5
23D
330
2
100
AcDbEntity
  8
GAIKEI
  6
Continuous
 62
     1
100
AcDbLine
 10
28.21507748961699
 20
17.05383596036529
 30
0.0
 11
27.99508238961692
 21
17.05383596036529
 31
0.0
  0
LINE
  5
23E
330
2
100
AcDbEntity
  8
GAIKEI
  6
Continuous
 62
     1
100
AcDbLine
 10
29.21507748961699
 20
17.30383596036529
 30
0.0
 11
28.99508238961693
 21
17.30383596036529
 31
0.0
  0
LINE
  5
23F
330
2
100
AcDbEntity
  8
GAIKEI
  6
Continuous
 62
     1
100
AcDbLine
 10
28.71507748961699
 20
17.30383596036529
 30
0.0
 11
28.49508238961693
 21
17.30383596036529
 31
0.0
  0
LINE
  5
240
330
2
100
AcDbEntity
  8
GAIKEI
  6
Continuous
 62
     1
100
AcDbLine
 10
28.21507748961699
 20
17.30383596036529
 30
0.0
 11
27.99508238961692
 21
17.30383596036529
 31
0.0
  0
LINE
  5
241
330
2
100
AcDbEntity
  8
GAIKEI
  6
Continuous
 62
     1
100
AcDbLine
 10
27.71507748961699
 20
17.30383596036529
 30
0.0
 11
27.49508238961693
 21
17.30383596036529
 31
0.0
  0
LINE
  5
242
330
2
100
AcDbEntity
  8
GAIKEI
  6
Continuous
 62
     1
100
AcDbLine
 10
27.71507748961699
 20
17.05383596036529
 30
0.0
 11
27.49508238961693
 21
17.05383596036529
 31
0.0
  0
LINE
  5
243
330
2
100
AcDbEntity
  8
GAIKEI
  6
Continuous
 62
     1
100
AcDbLine
 10
27.21507748961699
 20
17.05383596036529
 30
0.0
 11
26.99508238961693
 21
17.05383596036529
 31
0.0
  0
LINE
  5
244
330
2
100
AcDbEntity
  8
GAIKEI
  6
Continuous
 62
     1
100
AcDbLine
 10
27.21507748961699
 20
17.30383596036529
 30
0.0
 11
26.99508238961693
 21
17.30383596036529
 31
0.0
  0
LINE
  5
245
330
2
100
AcDbEntity
  8
GAIKEI
  6
Continuous
 62
     1
100
AcDbLine
 10
28.99508238961693
 20
17.30383596036529
 30
0.0
 11
28.99508238961693
 21
17.80383596036529
 31
0.0
  0
LINE
  5
246
330
2
100
AcDbEntity
  8
GAIKEI
  6
Continuous
 62
     1
100
AcDbLine
 10
28.49508238961693
 20
17.30383596036529
 30
0.0
 11
28.49508238961693
 21
17.80383596036529
 31
0.0
  0
LINE
  5
247
330
2
100
AcDbEntity
  8
GAIKEI
  6
Continuous
 62
     1
100
AcDbLine
 10
27.99508238961692
 20
17.30383596036529
 30
0.0
 11
27.99508238961692
 21
17.80383596036529
 31
0.0
  0
LINE
  5
248
330
2
100
AcDbEntity
  8
GAIKEI
  6
Continuous
 62
     1
100
AcDbLine
 10
29.21507748961699
 20
17.30383596036529
 30
0.0
 11
29.21507748961699
 21
17.80383596036529
 31
0.0
  0
LINE
  5
249
330
2
100
AcDbEntity
  8
GAIKEI
  6
Continuous
 62
     1
100
AcDbLine
 10
28.71507748961699
 20
17.30383596036529
 30
0.0
 11
28.71507748961699
 21
17.80383596036529
 31
0.0
  0
LINE
  5
24A
330
2
100
AcDbEntity
  8
GAIKEI
  6
Continuous
 62
     1
100
AcDbLine
 10
28.21507748961699
 20
17.30383596036529
 30
0.0
 11
28.21507748961699
 21
17.80383596036529
 31
0.0
  0
LINE
  5
24B
330
2
100
AcDbEntity
  8
GAIKEI
  6
Continuous
 62
     1
100
AcDbLine
 10
27.71507748961699
 20
17.30383596036529
 30
0.0
 11
27.71507748961699
 21
17.80383596036529
 31
0.0
  0
LINE
  5
24C
330
2
100
AcDbEntity
  8
GAIKEI
  6
Continuous
 62
     1
100
AcDbLine
 10
27.49508238961693
 20
17.30383596036529
 30
0.0
 11
27.49508238961693
 21
17.80383596036529
 31
0.0
  0
LINE
  5
24D
330
2
100
AcDbEntity
  8
GAIKEI
  6
Continuous
 62
     1
100
AcDbLine
 10
26.99508238961693
 20
17.30383596036529
 30
0.0
 11
26.99508238961693
 21
17.80383596036529
 31
0.0
  0
LINE
  5
24E
330
2
100
AcDbEntity
  8
GAIKEI
  6
Continuous
 62
     1
100
AcDbLine
 10
27.21507748961699
 20
17.30383596036529
 30
0.0
 11
27.21507748961699
 21
17.80383596036529
 31
0.0
  0
LINE
  5
24F
330
2
100
AcDbEntity
  8
GAIKEI
  6
Continuous
 62
     1
100
AcDbLine
 10
29.21507748961699
 20
18.55383596036529
 30
0.0
 11
28.99508238961693
 21
18.55383596036529
 31
0.0
  0
LINE
  5
250
330
2
100
AcDbEntity
  8
GAIKEI
  6
Continuous
 62
     1
100
AcDbLine
 10
28.71507748961699
 20
18.55383596036529
 30
0.0
 11
28.49508238961693
 21
18.55383596036529
 31
0.0
  0
LINE
  5
251
330
2
100
AcDbEntity
  8
GAIKEI
  6
Continuous
 62
     1
100
AcDbLine
 10
28.21507748961699
 20
18.55383596036529
 30
0.0
 11
27.99508238961692
 21
18.55383596036529
 31
0.0
  0
LINE
  5
252
330
2
100
AcDbEntity
  8
GAIKEI
  6
Continuous
 62
     1
100
AcDbLine
 10
27.71507748961699
 20
18.55383596036529
 30
0.0
 11
27.49508238961693
 21
18.55383596036529
 31
0.0
  0
LINE
  5
253
330
2
100
AcDbEntity
  8
GAIKEI
  6
Continuous
 62
     1
100
AcDbLine
 10
27.21507748961699
 20
18.55383596036529
 30
0.0
 11
26.99508238961693
 21
18.55383596036529
 31
0.0
  0
LINE
  5
254
330
2
100
AcDbEntity
  8
GAIKEI
  6
Continuous
 62
     1
100
AcDbLine
 10
31.4950777896168
 20
18.05383596036529
 30
0.0
 11
31.4950777896168
 21
18.55383596036529
 31
0.0
  0
LINE
  5
255
330
2
100
AcDbEntity
  8
GAIKEI
  6
Continuous
 62
     1
100
AcDbLine
 10
30.9950777896168
 20
18.05383596036529
 30
0.0
 11
30.9950777896168
 21
18.55383596036529
 31
0.0
  0
LINE
  5
256
330
2
100
AcDbEntity
  8
GAIKEI
  6
Continuous
 62
     1
100
AcDbLine
 10
30.4950777896168
 20
18.05383596036529
 30
0.0
 11
30.4950777896168
 21
18.55383596036529
 31
0.0
  0
LINE
  5
257
330
2
100
AcDbEntity
  8
GAIKEI
  6
Continuous
 62
     1
100
AcDbLine
 10
29.99508238961693
 20
18.05383596036529
 30
0.0
 11
29.99508238961693
 21
18.55383596036529
 31
0.0
  0
LINE
  5
258
330
2
100
AcDbEntity
  8
GAIKEI
  6
Continuous
 62
     1
100
AcDbLine
 10
29.49508238961693
 20
18.05383596036529
 30
0.0
 11
29.49508238961693
 21
18.55383596036529
 31
0.0
  0
LINE
  5
259
330
2
100
AcDbEntity
  8
GAIKEI
  6
Continuous
 62
     1
100
AcDbLine
 10
31.21507748961699
 20
18.05383596036529
 30
0.0
 11
31.21507748961699
 21
18.55383596036529
 31
0.0
  0
LINE
  5
25A
330
2
100
AcDbEntity
  8
GAIKEI
  6
Continuous
 62
     1
100
AcDbLine
 10
30.71507748961699
 20
18.05383596036529
 30
0.0
 11
30.71507748961699
 21
18.55383596036529
 31
0.0
  0
LINE
  5
25B
330
2
100
AcDbEntity
  8
GAIKEI
  6
Continuous
 62
     1
100
AcDbLine
 10
30.21507748961699
 20
18.05383596036529
 30
0.0
 11
30.21507748961699
 21
18.55383596036529
 31
0.0
  0
LINE
  5
25C
330
2
100
AcDbEntity
  8
GAIKEI
  6
Continuous
 62
     1
100
AcDbLine
 10
29.71507748961699
 20
18.05383596036529
 30
0.0
 11
29.71507748961699
 21
18.55383596036529
 31
0.0
  0
LINE
  5
25D
330
2
100
AcDbEntity
  8
GAIKEI
  6
Continuous
 62
     1
100
AcDbLine
 10
31.21507748961699
 20
17.80383596036529
 30
0.0
 11
30.9950777896168
 21
17.80383596036529
 31
0.0
  0
LINE
  5
25E
330
2
100
AcDbEntity
  8
GAIKEI
  6
Continuous
 62
     1
100
AcDbLine
 10
30.71507748961699
 20
17.80383596036529
 30
0.0
 11
30.4950777896168
 21
17.80383596036529
 31
0.0
  0
LINE
  5
25F
330
2
100
AcDbEntity
  8
GAIKEI
  6
Continuous
 62
     1
100
AcDbLine
 10
30.21507748961699
 20
17.80383596036529
 30
0.0
 11
29.99508238961693
 21
17.80383596036529
 31
0.0
  0
LINE
  5
260
330
2
100
AcDbEntity
  8
GAIKEI
  6
Continuous
 62
     1
100
AcDbLine
 10
29.71507748961699
 20
17.80383596036529
 30
0.0
 11
29.49508238961693
 21
17.80383596036529
 31
0.0
  0
LINE
  5
261
330
2
100
AcDbEntity
  8
GAIKEI
  6
Continuous
 62
     1
100
AcDbLine
 10
31.21507748961699
 20
18.05383596036529
 30
0.0
 11
30.9950777896168
 21
18.05383596036529
 31
0.0
  0
LINE
  5
262
330
2
100
AcDbEntity
  8
GAIKEI
  6
Continuous
 62
     1
100
AcDbLine
 10
30.71507748961699
 20
18.05383596036529
 30
0.0
 11
30.4950777896168
 21
18.05383596036529
 31
0.0
  0
LINE
  5
263
330
2
100
AcDbEntity
  8
GAIKEI
  6
Continuous
 62
     1
100
AcDbLine
 10
30.21507748961699
 20
18.05383596036529
 30
0.0
 11
29.99508238961693
 21
18.05383596036529
 31
0.0
  0
LINE
  5
264
330
2
100
AcDbEntity
  8
GAIKEI
  6
Continuous
 62
     1
100
AcDbLine
 10
29.71507748961699
 20
18.05383596036529
 30
0.0
 11
29.49508238961693
 21
18.05383596036529
 31
0.0
  0
LINE
  5
265
330
2
100
AcDbEntity
  8
GAIKEI
  6
Continuous
 62
     1
100
AcDbLine
 10
31.21507748961699
 20
17.05383596036529
 30
0.0
 11
30.9950777896168
 21
17.05383596036529
 31
0.0
  0
LINE
  5
266
330
2
100
AcDbEntity
  8
GAIKEI
  6
Continuous
 62
     1
100
AcDbLine
 10
30.71507748961699
 20
17.05383596036529
 30
0.0
 11
30.4950777896168
 21
17.05383596036529
 31
0.0
  0
LINE
  5
267
330
2
100
AcDbEntity
  8
GAIKEI
  6
Continuous
 62
     1
100
AcDbLine
 10
30.21507748961699
 20
17.05383596036529
 30
0.0
 11
29.99508238961693
 21
17.05383596036529
 31
0.0
  0
LINE
  5
268
330
2
100
AcDbEntity
  8
GAIKEI
  6
Continuous
 62
     1
100
AcDbLine
 10
29.71507748961699
 20
17.05383596036529
 30
0.0
 11
29.49508238961693
 21
17.05383596036529
 31
0.0
  0
LINE
  5
269
330
2
100
AcDbEntity
  8
GAIKEI
  6
Continuous
 62
     1
100
AcDbLine
 10
31.21507748961699
 20
17.30383596036529
 30
0.0
 11
30.9950777896168
 21
17.30383596036529
 31
0.0
  0
LINE
  5
26A
330
2
100
AcDbEntity
  8
GAIKEI
  6
Continuous
 62
     1
100
AcDbLine
 10
30.71507748961699
 20
17.30383596036529
 30
0.0
 11
30.4950777896168
 21
17.30383596036529
 31
0.0
  0
LINE
  5
26B
330
2
100
AcDbEntity
  8
GAIKEI
  6
Continuous
 62
     1
100
AcDbLine
 10
30.21507748961699
 20
17.30383596036529
 30
0.0
 11
29.99508238961693
 21
17.30383596036529
 31
0.0
  0
LINE
  5
26C
330
2
100
AcDbEntity
  8
GAIKEI
  6
Continuous
 62
     1
100
AcDbLine
 10
29.71507748961699
 20
17.30383596036529
 30
0.0
 11
29.49508238961693
 21
17.30383596036529
 31
0.0
  0
LINE
  5
26D
330
2
100
AcDbEntity
  8
GAIKEI
  6
Continuous
 62
     1
100
AcDbLine
 10
31.4950777896168
 20
17.30383596036529
 30
0.0
 11
31.4950777896168
 21
17.80383596036529
 31
0.0
  0
LINE
  5
26E
330
2
100
AcDbEntity
  8
GAIKEI
  6
Continuous
 62
     1
100
AcDbLine
 10
30.9950777896168
 20
17.30383596036529
 30
0.0
 11
30.9950777896168
 21
17.80383596036529
 31
0.0
  0
LINE
  5
26F
330
2
100
AcDbEntity
  8
GAIKEI
  6
Continuous
 62
     1
100
AcDbLine
 10
30.4950777896168
 20
17.30383596036529
 30
0.0
 11
30.4950777896168
 21
17.80383596036529
 31
0.0
  0
LINE
  5
270
330
2
100
AcDbEntity
  8
GAIKEI
  6
Continuous
 62
     1
100
AcDbLine
 10
29.99508238961693
 20
17.30383596036529
 30
0.0
 11
29.99508238961693
 21
17.80383596036529
 31
0.0
  0
LINE
  5
271
330
2
100
AcDbEntity
  8
GAIKEI
  6
Continuous
 62
     1
100
AcDbLine
 10
29.49508238961693
 20
17.30383596036529
 30
0.0
 11
29.49508238961693
 21
17.80383596036529
 31
0.0
  0
LINE
  5
272
330
2
100
AcDbEntity
  8
GAIKEI
  6
Continuous
 62
     1
100
AcDbLine
 10
31.21507748961699
 20
17.30383596036529
 30
0.0
 11
31.21507748961699
 21
17.80383596036529
 31
0.0
  0
LINE
  5
273
330
2
100
AcDbEntity
  8
GAIKEI
  6
Continuous
 62
     1
100
AcDbLine
 10
30.71507748961699
 20
17.30383596036529
 30
0.0
 11
30.71507748961699
 21
17.80383596036529
 31
0.0
  0
LINE
  5
274
330
2
100
AcDbEntity
  8
GAIKEI
  6
Continuous
 62
     1
100
AcDbLine
 10
30.21507748961699
 20
17.30383596036529
 30
0.0
 11
30.21507748961699
 21
17.80383596036529
 31
0.0
  0
LINE
  5
275
330
2
100
AcDbEntity
  8
GAIKEI
  6
Continuous
 62
     1
100
AcDbLine
 10
29.71507748961699
 20
17.30383596036529
 30
0.0
 11
29.71507748961699
 21
17.80383596036529
 31
0.0
  0
LINE
  5
276
330
2
100
AcDbEntity
  8
GAIKEI
  6
Continuous
 62
     1
100
AcDbLine
 10
31.21507748961699
 20
18.55383596036529
 30
0.0
 11
30.9950777896168
 21
18.55383596036529
 31
0.0
  0
LINE
  5
277
330
2
100
AcDbEntity
  8
GAIKEI
  6
Continuous
 62
     1
100
AcDbLine
 10
30.71507748961699
 20
18.55383596036529
 30
0.0
 11
30.4950777896168
 21
18.55383596036529
 31
0.0
  0
LINE
  5
278
330
2
100
AcDbEntity
  8
GAIKEI
  6
Continuous
 62
     1
100
AcDbLine
 10
30.21507748961699
 20
18.55383596036529
 30
0.0
 11
29.99508238961693
 21
18.55383596036529
 31
0.0
  0
LINE
  5
279
330
2
100
AcDbEntity
  8
GAIKEI
  6
Continuous
 62
     1
100
AcDbLine
 10
29.71507748961699
 20
18.55383596036529
 30
0.0
 11
29.49508238961693
 21
18.55383596036529
 31
0.0
  0
LINE
  5
27A
330
2
100
AcDbEntity
  8
GAIKEI
  6
Continuous
 62
     1
100
AcDbLine
 10
31.9950777896168
 20
16.55383596036529
 30
0.0
 11
31.9950777896168
 21
17.05383596036529
 31
0.0
  0
LINE
  5
27B
330
2
100
AcDbEntity
  8
GAIKEI
  6
Continuous
 62
     1
100
AcDbLine
 10
32.21507748961699
 20
16.55383596036529
 30
0.0
 11
32.21507748961699
 21
17.05383596036529
 31
0.0
  0
LINE
  5
27C
330
2
100
AcDbEntity
  8
GAIKEI
  6
Continuous
 62
     1
100
AcDbLine
 10
31.71507748961699
 20
16.55383596036529
 30
0.0
 11
31.71507748961699
 21
17.05383596036529
 31
0.0
  0
LINE
  5
27D
330
2
100
AcDbEntity
  8
GAIKEI
  6
Continuous
 62
     1
100
AcDbLine
 10
31.9950777896168
 20
14.80383596036529
 30
0.0
 11
31.9950777896168
 21
15.30383596036529
 31
0.0
  0
LINE
  5
27E
330
2
100
AcDbEntity
  8
GAIKEI
  6
Continuous
 62
     1
100
AcDbLine
 10
32.21507748961699
 20
14.80383596036529
 30
0.0
 11
32.21507748961699
 21
15.30383596036529
 31
0.0
  0
LINE
  5
27F
330
2
100
AcDbEntity
  8
GAIKEI
  6
Continuous
 62
     1
100
AcDbLine
 10
31.71507748961699
 20
14.80383596036529
 30
0.0
 11
31.71507748961699
 21
15.30383596036529
 31
0.0
  0
LINE
  5
280
330
2
100
AcDbEntity
  8
GAIKEI
  6
Continuous
 62
     1
100
AcDbLine
 10
31.9950777896168
 20
14.05383596036529
 30
0.0
 11
31.9950777896168
 21
14.55383596036529
 31
0.0
  0
LINE
  5
281
330
2
100
AcDbEntity
  8
GAIKEI
  6
Continuous
 62
     1
100
AcDbLine
 10
32.21507748961699
 20
14.55383596036529
 30
0.0
 11
31.9950777896168
 21
14.55383596036529
 31
0.0
  0
LINE
  5
282
330
2
100
AcDbEntity
  8
GAIKEI
  6
Continuous
 62
     1
100
AcDbLine
 10
32.21507748961699
 20
14.05383596036529
 30
0.0
 11
31.9950777896168
 21
14.05383596036529
 31
0.0
  0
LINE
  5
283
330
2
100
AcDbEntity
  8
GAIKEI
  6
Continuous
 62
     1
100
AcDbLine
 10
32.21507748961699
 20
14.80383596036529
 30
0.0
 11
31.9950777896168
 21
14.80383596036529
 31
0.0
  0
LINE
  5
284
330
2
100
AcDbEntity
  8
GAIKEI
  6
Continuous
 62
     1
100
AcDbLine
 10
32.21507748961699
 20
14.05383596036529
 30
0.0
 11
32.21507748961699
 21
14.55383596036529
 31
0.0
  0
LINE
  5
285
330
2
100
AcDbEntity
  8
GAIKEI
  6
Continuous
 62
     1
100
AcDbLine
 10
31.71507748961699
 20
14.05383596036529
 30
0.0
 11
31.71507748961699
 21
14.55383596036529
 31
0.0
  0
LINE
  5
286
330
2
100
AcDbEntity
  8
GAIKEI
  6
Continuous
 62
     1
100
AcDbLine
 10
32.21507748961699
 20
16.05383596036529
 30
0.0
 11
31.9950777896168
 21
16.05383596036529
 31
0.0
  0
LINE
  5
287
330
2
100
AcDbEntity
  8
GAIKEI
  6
Continuous
 62
     1
100
AcDbLine
 10
32.21507748961699
 20
16.55383596036529
 30
0.0
 11
31.9950777896168
 21
16.55383596036529
 31
0.0
  0
LINE
  5
288
330
2
100
AcDbEntity
  8
GAIKEI
  6
Continuous
 62
     1
100
AcDbLine
 10
32.21507748961699
 20
15.30383596036529
 30
0.0
 11
31.9950777896168
 21
15.30383596036529
 31
0.0
  0
LINE
  5
289
330
2
100
AcDbEntity
  8
GAIKEI
  6
Continuous
 62
     1
100
AcDbLine
 10
32.21507748961699
 20
15.55383596036529
 30
0.0
 11
31.9950777896168
 21
15.55383596036529
 31
0.0
  0
LINE
  5
28A
330
2
100
AcDbEntity
  8
GAIKEI
  6
Continuous
 62
     1
100
AcDbLine
 10
31.9950777896168
 20
15.55383596036529
 30
0.0
 11
31.9950777896168
 21
16.05383596036529
 31
0.0
  0
LINE
  5
28B
330
2
100
AcDbEntity
  8
GAIKEI
  6
Continuous
 62
     1
100
AcDbLine
 10
32.21507748961699
 20
15.55383596036529
 30
0.0
 11
32.21507748961699
 21
16.05383596036529
 31
0.0
  0
LINE
  5
28C
330
2
100
AcDbEntity
  8
GAIKEI
  6
Continuous
 62
     1
100
AcDbLine
 10
31.71507748961699
 20
15.55383596036529
 30
0.0
 11
31.71507748961699
 21
16.05383596036529
 31
0.0
  0
LINE
  5
28D
330
2
100
AcDbEntity
  8
GAIKEI
  6
Continuous
 62
     1
100
AcDbLine
 10
31.9950777896168
 20
18.05383596036529
 30
0.0
 11
31.9950777896168
 21
18.55383596036529
 31
0.0
  0
LINE
  5
28E
330
2
100
AcDbEntity
  8
GAIKEI
  6
Continuous
 62
     1
100
AcDbLine
 10
32.21507748961699
 20
18.05383596036529
 30
0.0
 11
32.21507748961699
 21
18.55383596036529
 31
0.0
  0
LINE
  5
28F
330
2
100
AcDbEntity
  8
GAIKEI
  6
Continuous
 62
     1
100
AcDbLine
 10
31.71507748961699
 20
18.05383596036529
 30
0.0
 11
31.71507748961699
 21
18.55383596036529
 31
0.0
  0
LINE
  5
290
330
2
100
AcDbEntity
  8
GAIKEI
  6
Continuous
 62
     1
100
AcDbLine
 10
32.21507748961699
 20
17.80383596036529
 30
0.0
 11
31.9950777896168
 21
17.80383596036529
 31
0.0
  0
LINE
  5
291
330
2
100
AcDbEntity
  8
GAIKEI
  6
Continuous
 62
     1
100
AcDbLine
 10
32.21507748961699
 20
18.05383596036529
 30
0.0
 11
31.9950777896168
 21
18.05383596036529
 31
0.0
  0
LINE
  5
292
330
2
100
AcDbEntity
  8
GAIKEI
  6
Continuous
 62
     1
100
AcDbLine
 10
32.21507748961699
 20
17.05383596036529
 30
0.0
 11
31.9950777896168
 21
17.05383596036529
 31
0.0
  0
LINE
  5
293
330
2
100
AcDbEntity
  8
GAIKEI
  6
Continuous
 62
     1
100
AcDbLine
 10
32.21507748961699
 20
17.30383596036529
 30
0.0
 11
31.9950777896168
 21
17.30383596036529
 31
0.0
  0
LINE
  5
294
330
2
100
AcDbEntity
  8
GAIKEI
  6
Continuous
 62
     1
100
AcDbLine
 10
31.9950777896168
 20
17.30383596036529
 30
0.0
 11
31.9950777896168
 21
17.80383596036529
 31
0.0
  0
LINE
  5
295
330
2
100
AcDbEntity
  8
GAIKEI
  6
Continuous
 62
     1
100
AcDbLine
 10
32.21507748961699
 20
17.30383596036529
 30
0.0
 11
32.21507748961699
 21
17.80383596036529
 31
0.0
  0
LINE
  5
296
330
2
100
AcDbEntity
  8
GAIKEI
  6
Continuous
 62
     1
100
AcDbLine
 10
31.71507748961699
 20
17.30383596036529
 30
0.0
 11
31.71507748961699
 21
17.80383596036529
 31
0.0
  0
LINE
  5
297
330
2
100
AcDbEntity
  8
GAIKEI
  6
Continuous
 62
     1
100
AcDbLine
 10
32.21507748961699
 20
18.55383596036529
 30
0.0
 11
31.9950777896168
 21
18.55383596036529
 31
0.0
  0
LINE
  5
298
330
2
100
AcDbEntity
  8
GAIKEI
  6
Continuous
 62
     1
100
AcDbLine
 10
19.39140323781748
 20
13.12418471601989
 30
0.0
 11
19.36415251669768
 21
13.12370905290987
 31
0.0
  0
ARC
  5
299
330
2
100
AcDbEntity
  8
GAIKEI
  6
Continuous
 62
     1
100
AcDbCircle
 10
19.36467627709749
 20
13.09371196404987
 30
0.0
 40
0.0299999525399571
100
AcDbArc
 50
91.00030537062947
 51
158.3601987273162
  0
LINE
  5
29A
330
2
100
AcDbEntity
  8
GAIKEI
  6
Continuous
 62
     1
100
AcDbLine
 10
19.46128780315757
 20
12.5822663935499
 30
0.0
 11
19.42810748130762
 21
12.58284555822985
 31
0.0
  0
LINE
  5
29B
330
2
100
AcDbEntity
  8
GAIKEI
  6
Continuous
 62
     1
100
AcDbLine
 10
19.3113052164075
 20
12.31488434933982
 30
0.0
 11
19.5033338484576
 21
12.31153247709989
 31
0.0
  0
LINE
  5
29C
330
2
100
AcDbEntity
  8
GAIKEI
  6
Continuous
 62
     1
100
AcDbLine
 10
19.51574197001753
 20
12.21880087011988
 30
0.0
 11
19.49945091415748
 21
12.21936976631986
 31
0.0
  0
ARC
  5
29D
330
2
100
AcDbEntity
  8
GAIKEI
  6
Continuous
 62
     1
100
AcDbCircle
 10
39.26035967141763
 20
15.40383547459981
 30
0.0
 40
20.05000000000012
100
AcDbArc
 50
187.4755106083009
 51
187.4787209537095
  0
ARC
  5
29E
330
2
100
AcDbEntity
  8
GAIKEI
  6
Continuous
 62
     1
100
AcDbCircle
 10
19.45017847676752
 20
12.80438918067983
 30
0.0
 40
0.0699999999999647
100
AcDbArc
 50
114.3737112284258
 51
187.4754994329409
  0
ARC
  5
29F
330
2
100
AcDbEntity
  8
GAIKEI
  6
Continuous
 62
     1
100
AcDbCircle
 10
19.45032415591765
 20
12.80327921210988
 30
0.0
 40
0.0700000000000525
100
AcDbArc
 50
187.4787209537095
 51
261.7104243439765
  0
ARC
  5
2A0
330
2
100
AcDbEntity
  8
GAIKEI
  6
Continuous
 62
     1
100
AcDbCircle
 10
19.42863078093762
 20
12.61284269553988
 30
0.0
 40
0.0299999514999896
100
AcDbArc
 50
216.7914103767209
 51
269.0005760365093
  0
ARC
  5
2A1
330
2
100
AcDbEntity
  8
GAIKEI
  6
Continuous
 62
     1
100
AcDbCircle
 10
20.43658037070759
 20
12.9383354745998
 30
0.0
 40
1.199999999999976
100
AcDbArc
 50
211.6103289600187
 51
215.572722212176
  0
ARC
  5
2A2
330
2
100
AcDbEntity
  8
GAIKEI
  6
Continuous
 62
     1
100
AcDbCircle
 10
19.50119572542758
 20
12.26934033580988
 30
0.0
 40
0.0499999798300328
100
AcDbArc
 50
215.5737904768638
 51
268.0002230987913
  0
LINE
  5
2A3
330
2
100
AcDbEntity
  8
GAIKEI
  6
Continuous
 62
     1
100
AcDbLine
 10
19.56335687258763
 20
18.77771607160986
 30
0.0
 11
19.49429482649748
 21
18.77771607160986
 31
0.0
  0
LINE
  5
2A4
330
2
100
AcDbEntity
  8
GAIKEI
  6
Continuous
 62
     1
100
AcDbLine
 10
19.48334691663763
 20
18.5943076705899
 30
0.0
 11
19.49429482649748
 21
18.59449876706986
 31
0.0
  0
LINE
  5
2A5
330
2
100
AcDbEntity
  8
GAIKEI
  6
Continuous
 62
     1
100
AcDbLine
 10
19.49429482649748
 20
18.77771607160986
 30
0.0
 11
19.49429482649748
 21
18.32995487757983
 31
0.0
  0
ARC
  5
2A6
330
2
100
AcDbEntity
  8
GAIKEI
  6
Continuous
 62
     1
100
AcDbCircle
 10
19.4843940610175
 20
18.53431680887985
 30
0.0
 40
0.0599999999999565
100
AcDbArc
 50
90.99999999997569
 51
140.693666865213
  0
LINE
  5
2A7
330
2
100
AcDbEntity
  8
GAIKEI
  6
Continuous
 62
     1
100
AcDbLine
 10
19.37285231727753
 20
17.79345918719986
 30
0.0
 11
19.40356586142752
 21
17.79292308028988
 31
0.0
  0
ARC
  5
2A8
330
2
100
AcDbEntity
  8
GAIKEI
  6
Continuous
 62
     1
100
AcDbCircle
 10
19.37346315081765
 20
17.82845385751983
 30
0.0
 40
0.035000000010009
100
AcDbArc
 50
204.8415136832919
 51
269.0000011465193
  0
LINE
  5
2A9
330
2
100
AcDbEntity
  8
GAIKEI
  6
Continuous
 62
     1
100
AcDbLine
 10
19.32601376535763
 20
17.02304333852981
 30
0.0
 11
19.29404648079765
 21
17.02248534750987
 31
0.0
  0
ARC
  5
2AA
330
2
100
AcDbEntity
  8
GAIKEI
  6
Continuous
 62
     1
100
AcDbCircle
 10
19.38711172385751
 20
17.60323964126991
 30
0.0
 40
0.0354166666700415
100
AcDbArc
 50
92.43195114128637
 51
254.9374177199406
  0
LINE
  5
2AB
330
2
100
AcDbEntity
  8
GAIKEI
  6
Continuous
 62
     1
100
AcDbLine
 10
19.21261091831752
 20
15.10383547459986
 30
0.0
 11
17.92517444085763
 21
15.10383547459986
 31
0.0
  0
LINE
  5
2AC
330
2
100
AcDbEntity
  8
GAIKEI
  6
Continuous
 62
     1
100
AcDbLine
 10
19.16107545856755
 20
15.70383547459988
 30
0.0
 11
17.92517444085763
 21
15.70383547459988
 31
0.0
  0
LINE
  5
2AD
330
2
100
AcDbEntity
  8
GAIKEI
  6
Continuous
100
AcDbLine
 10
17.9694050904676
 20
15.00383547459984
 30
0.0
 11
19.26436151448763
 21
15.00383547459984
 31
0.0
  0
LINE
  5
2AE
330
2
100
AcDbEntity
  8
GAIKEI
  6
Continuous
100
AcDbLine
 10
17.96940510664751
 20
15.8038354745999
 30
0.0
 11
19.19205607481763
 21
15.8038354745999
 31
0.0
  0
LINE
  5
2AF
330
2
100
AcDbEntity
  8
GAIKEI
  6
Continuous
100
AcDbLine
 10
18.07646377720755
 20
12.98076124025982
 30
0.0
 11
19.23636086763758
 21
12.91997360954991
 31
0.0
  0
LINE
  5
2B0
330
2
100
AcDbEntity
  8
GAIKEI
  6
Continuous
100
AcDbLine
 10
18.01379402479756
 20
15.00383547459984
 30
0.0
 11
18.01379402479756
 21
13.1591513855098
 31
0.0
  0
ARC
  5
2B1
330
2
100
AcDbEntity
  8
GAIKEI
  6
Continuous
100
AcDbCircle
 10
37.89399482649765
 20
15.40383547459981
 30
0.0
 40
19.99999999999998
100
AcDbArc
 50
180.0
 51
185.8566382263051
  0
ARC
  5
2B2
330
2
100
AcDbEntity
  8
GAIKEI
  6
Continuous
100
AcDbCircle
 10
18.02823171170757
 20
13.36610245311993
 30
0.0
 40
0.0299999999999401
100
AcDbArc
 50
185.8566382263314
 51
245.4343706815554
  0
ARC
  5
2B3
330
2
100
AcDbEntity
  8
GAIKEI
  6
Continuous
100
AcDbCircle
 10
18.07908057501754
 20
13.0306927169899
 30
0.0
 40
0.0499999999999892
100
AcDbArc
 50
186.831769052119
 51
267.0000000000466
  0
LINE
  5
2B4
330
2
100
AcDbEntity
  8
GAIKEI
  6
Continuous
100
AcDbLine
 10
18.01379402479756
 20
13.1591513855098
 30
0.0
 11
18.02943558984748
 21
13.02474499077988
 31
0.0
  0
SPLINE
  5
2B5
330
2
100
AcDbEntity
  8
GAIKEI
  6
Continuous
100
AcDbSpline
210
0.0
220
0.0
230
1.0
 70
     8
 71
     3
 72
    25
 73
    21
 74
    19
 42
0.0000000001
 43
0.0000000001
 44
0.00000000001
 40
0.0
 40
0.0
 40
0.0
 40
0.0
 40
0.0033606225895605
 40
0.0072373741319107
 40
0.0170326610306492
 40
0.0276546641789593
 40
0.0479201883069774
 40
0.068322869630739
 40
0.0983698172575826
 40
0.1281181434901275
 40
0.1687969191315587
 40
0.2097526285460887
 40
0.2646619447354108
 40
0.3209305709258543
 40
0.3870733656275005
 40
0.4533412269423055
 40
0.5164408724010481
 40
0.5777248354186736
 40
0.6310125150494792
 40
0.6833166305620074
 40
0.6833166305620074
 40
0.6833166305620074
 40
0.6833166305620074
 10
17.90360758362766
 20
16.02384989373985
 30
0.0
 10
17.90368028256077
 20
16.02496773978254
 30
0.0
 10
17.90383684562719
 20
16.02737511217162
 30
0.0
 10
17.90420531005391
 20
16.03304069684765
 30
0.0
 10
17.90473087026331
 20
16.04112163831462
 30
0.0
 10
17.90561100202848
 20
16.05465398508454
 30
0.0
 10
17.90672066409931
 20
16.07171467202215
 30
0.0
 10
17.90825068548243
 20
16.09523668106823
 30
0.0
 10
17.90998601245513
 20
16.12191294971092
 30
0.0
 10
17.91216027463048
 20
16.15533364835244
 30
0.0
 10
17.91457087057321
 20
16.19238291269607
 30
0.0
 10
17.917526372211
 20
16.23780145363537
 30
0.0
 10
17.92081981889848
 20
16.28840561122643
 30
0.0
 10
17.92465917378223
 20
16.34738769700669
 30
0.0
 10
17.92874521673616
 20
16.41014791955899
 30
0.0
 10
17.93298010943046
 20
16.47518027829068
 30
0.0
 10
17.93711054688511
 20
16.53859639814249
 30
0.0
 10
17.94096053051406
 20
16.59769488961933
 30
0.0
 10
17.94457719431236
 20
16.65320244300938
 30
0.0
 10
17.946866124381
 20
16.68832520295228
 30
0.0
 10
17.94799992897771
 20
16.70572300256987
 30
0.0
 11
17.90360758362766
 21
16.02384989373985
 31
0.0
 11
17.90382568079747
 21
16.0272034318437
 31
0.0
 11
17.90407727599404
 21
16.03107201070139
 31
0.0
 11
17.90471298894317
 21
16.0408466469849
 31
0.0
 11
17.90540237771239
 21
16.05144625518557
 31
0.0
 11
17.90671771116558
 21
16.07166904841722
 31
0.0
 11
17.90804203184177
 21
16.09202870411042
 31
0.0
 11
17.90999250411676
 21
16.12201227827353
 31
0.0
 11
17.91192376950482
 21
16.15169784930793
 31
0.0
 11
17.91456493056029
 21
16.19229079273367
 31
0.0
 11
17.91722440293745
 21
16.2331600640793
 31
0.0
 11
17.92079049124902
 21
16.2879534580108
 31
0.0
 11
17.92444548108426
 21
16.34410325180084
 31
0.0
 11
17.92874266326316
 21
16.41010630867146
 31
0.0
 11
17.9330488759997
 21
16.47623410899103
 31
0.0
 11
17.93715002031729
 21
16.53920033702087
 31
0.0
 11
17.94113392290654
 21
16.60035467164488
 31
0.0
 11
17.94459862828279
 21
16.65352959634714
 31
0.0
 11
17.94799992897771
 21
16.70572300256987
 31
0.0
  0
LINE
  5
2B6
330
2
100
AcDbEntity
  8
GAIKEI
  6
Continuous
100
AcDbLine
 10
18.01379402479756
 20
17.64851956368983
 30
0.0
 11
18.01379402479756
 21
15.8038354745999
 31
0.0
  0
SPLINE
  5
2B7
330
2
100
AcDbEntity
  8
GAIKEI
  6
Continuous
 62
     1
100
AcDbSpline
210
0.0
220
0.0
230
1.0
 70
     8
 71
     3
 72
    35
 73
    31
 74
    29
 42
0.0000000001
 43
0.0000000001
 44
0.00000000001
 40
0.0
 40
0.0
 40
0.0
 40
0.0
 40
0.0034428935335281
 40
0.0067225169634686
 40
0.0092863749263978
 40
0.0117747820221296
 40
0.0139454598449351
 40
0.0161851910332623
 40
0.0183990832279769
 40
0.0206092466364458
 40
0.0227561695272063
 40
0.0249000603291088
 40
0.0270074897737218
 40
0.0291159318997628
 40
0.03122260281636
 40
0.0333318784561075
 40
0.0354554198665866
 40
0.0375766167376725
 40
0.0397269416959097
 40
0.0418761298702485
 40
0.0440885396295552
 40
0.0463056806141286
 40
0.0486068167749787
 40
0.05091401497623
 40
0.0532480616170525
 40
0.0555218834826275
 40
0.0580361859022857
 40
0.0606075450017096
 40
0.0637407923141922
 40
0.067005543795536
 40
0.067005543795536
 40
0.067005543795536
 40
0.067005543795536
 10
17.95221361259757
 20
15.57933644860992
 30
0.0
 10
17.95106446212287
 20
15.57940494282775
 30
0.0
 10
17.94882065658997
 20
15.57953868310653
 30
0.0
 10
17.94583676145774
 20
15.58046208410917
 30
0.0
 10
17.94332838527344
 20
15.58166230344795
 30
0.0
 10
17.94128033378558
 20
15.5829403305475
 30
0.0
 10
17.93948791911708
 20
15.5843886127202
 30
0.0
 10
17.93792907202444
 20
15.58595807184343
 30
0.0
 10
17.93652245992567
 20
15.58768173250098
 30
0.0
 10
17.93531143395802
 20
15.58951107360394
 30
0.0
 10
17.93428793481372
 20
15.59142448439701
 30
0.0
 10
17.93345509808261
 20
15.59339102344251
 30
0.0
 10
17.93280201056396
 20
15.59541058835612
 30
0.0
 10
17.93232682910218
 20
15.59746644783644
 30
0.0
 10
17.93202730283512
 20
15.59955573823947
 30
0.0
 10
17.93190519179298
 20
15.60166786883667
 30
0.0
 10
17.93196137242221
 20
15.603787684748
 30
0.0
 10
17.93220011252823
 20
15.60590858570998
 30
0.0
 10
17.93262291828657
 20
15.6080094439892
 30
0.0
 10
17.93323790108525
 20
15.61009412126265
 30
0.0
 10
17.93404930108781
 20
15.6121349153849
 30
0.0
 10
17.93507421250297
 20
15.61413450857514
 30
0.0
 10
17.93630985908837
 20
15.6160498843455
 30
0.0
 10
17.93776687571937
 20
15.61785313462997
 30
0.0
 10
17.93939880315895
 20
15.61948781052763
 30
0.0
 10
17.94126605402931
 20
15.62096303389489
 30
0.0
 10
17.94337367572768
 20
15.6222322444496
 30
0.0
 10
17.94587645385212
 20
15.62335685661304
 30
0.0
 10
17.94877550463887
 20
15.62418385885649
 30
0.0
 10
17.95091189084385
 20
15.62428423857204
 30
0.0
 10
17.95200203953754
 20
15.62433546002984
 30
0.0
 11
17.95221361259757
 21
15.57933644860992
 31
0.0
 11
17.94878812239204
 21
15.57968218367472
 31
0.0
 11
17.94564406825321
 21
15.58061537894599
 31
0.0
 11
17.9433284510859
 21
15.58171596278583
 31
0.0
 11
17.94122178500163
 21
15.5830403977157
 31
0.0
 11
17.93953202647856
 21
15.58440295352892
 31
0.0
 11
17.93795029399626
 21
15.58598867675522
 31
0.0
 11
17.93655134607144
 21
15.5877045623439
 31
0.0
 11
17.93532989371806
 21
15.58954653857625
 31
0.0
 11
17.93431675279123
 21
15.59143937331845
 31
0.0
 11
17.93348005732025
 21
15.59341325489021
 31
0.0
 11
17.9328311204091
 21
15.59541828350581
 31
0.0
 11
17.9323560116328
 21
15.59747249864779
 31
0.0
 11
17.93205700509514
 21
15.59955784213059
 31
0.0
 11
17.93193500594026
 21
15.60166358663804
 31
0.0
 11
17.93199165990319
 21
15.60378637217843
 31
0.0
 11
17.93222906540779
 21
15.60589424190692
 31
0.0
 11
17.93265373930262
 21
15.60800221475046
 31
0.0
 11
17.93326253311824
 21
15.61006337459355
 31
0.0
 11
17.93408069439601
 21
15.61211894484694
 31
0.0
 11
17.93509271207841
 21
15.6140916420756
 31
0.0
 11
17.9363418983674
 21
15.61602419511399
 31
0.0
 11
17.93779120228026
 21
15.6178193780317
 31
0.0
 11
17.93944396616808
 21
15.61946745122566
 31
0.0
 11
17.94122914552872
 21
15.6208757837598
 31
0.0
 11
17.94337987578655
 21
15.62217811859216
 31
0.0
 11
17.94572702774076
 21
15.62322824492838
 31
0.0
 11
17.94874941480111
 21
15.62405432917262
 31
0.0
 11
17.95200203953754
 21
15.62433546002984
 31
0.0
  0
LINE
  5
2B8
330
2
100
AcDbEntity
  8
GAIKEI
  6
Continuous
 62
     1
100
AcDbLine
 10
17.95221361259746
 20
15.11733759094994
 30
0.0
 11
17.95221361259746
 21
15.10383547459986
 31
0.0
  0
LINE
  5
2B9
330
2
100
AcDbEntity
  8
GAIKEI
  6
Continuous
 62
     1
100
AcDbLine
 10
17.95221361259746
 20
15.18333669766986
 30
0.0
 11
17.95221361259746
 21
15.16233369046989
 31
0.0
  0
LINE
  5
2BA
330
2
100
AcDbEntity
  8
GAIKEI
  6
Continuous
 62
     1
100
AcDbLine
 10
17.95221361259746
 20
15.2493360468199
 30
0.0
 11
17.95221361259746
 21
15.22833450058982
 31
0.0
  0
LINE
  5
2BB
330
2
100
AcDbEntity
  8
GAIKEI
  6
Continuous
 62
     1
100
AcDbLine
 10
17.95221361259746
 20
15.31533564126988
 30
0.0
 11
17.95221361259746
 21
15.29433506646984
 31
0.0
  0
LINE
  5
2BC
330
2
100
AcDbEntity
  8
GAIKEI
  6
Continuous
 62
     1
100
AcDbLine
 10
17.95221361259746
 20
15.38133547812987
 30
0.0
 11
17.95221361259746
 21
15.36033539086992
 31
0.0
  0
LINE
  5
2BD
330
2
100
AcDbEntity
  8
GAIKEI
  6
Continuous
 62
     1
100
AcDbLine
 10
17.95221361259746
 20
15.44733555832982
 30
0.0
 11
17.95221361259746
 21
15.42633547106987
 31
0.0
  0
LINE
  5
2BE
330
2
100
AcDbEntity
  8
GAIKEI
  6
Continuous
 62
     1
100
AcDbLine
 10
17.95221361259746
 20
15.5133358827299
 30
0.0
 11
17.95221361259746
 21
15.49233530792986
 31
0.0
  0
LINE
  5
2BF
330
2
100
AcDbEntity
  8
GAIKEI
  6
Continuous
 62
     1
100
AcDbLine
 10
17.95221361259746
 20
15.57933644860992
 30
0.0
 11
17.95221361259746
 21
15.55833490236983
 31
0.0
  0
LINE
  5
2C0
330
2
100
AcDbEntity
  8
GAIKEI
  6
Continuous
 62
     1
100
AcDbLine
 10
17.95206897563753
 20
15.55833399147985
 30
0.0
 11
17.95221361259746
 21
15.55833490236983
 31
0.0
  0
LINE
  5
2C1
330
2
100
AcDbEntity
  8
GAIKEI
  6
Continuous
 62
     1
100
AcDbLine
 10
17.95221361259746
 20
15.11733759094994
 30
0.0
 11
17.95193524335752
 21
15.1173336451298
 31
0.0
  0
LINE
  5
2C2
330
2
100
AcDbEntity
  8
GAIKEI
  6
Continuous
 62
     1
100
AcDbLine
 10
17.95221361259746
 20
15.18333669766986
 30
0.0
 11
17.95200203925765
 21
15.18333472186992
 31
0.0
  0
LINE
  5
2C3
330
2
100
AcDbEntity
  8
GAIKEI
  6
Continuous
 62
     1
100
AcDbLine
 10
17.95221361259746
 20
15.2493360468199
 30
0.0
 11
17.95206897741752
 21
15.24933699875981
 31
0.0
  0
SPLINE
  5
2C4
330
2
100
AcDbEntity
  8
GAIKEI
  6
Continuous
 62
     1
100
AcDbSpline
210
0.0
220
0.0
230
1.0
 70
    24
 71
     3
 72
     9
 73
     5
 74
     3
 42
0.0000000001
 43
0.0000000001
 44
0.00000000001
 40
0.0
 40
0.0
 40
0.0
 40
0.0
 40
0.0001391305549987
 40
0.0002782611099974
 40
0.0002782611099974
 40
0.0002782611099974
 40
0.0002782611099974
 10
17.95221361259757
 20
15.11733547468992
 30
0.0
 10
17.9521672357459
 20
15.11733547468987
 30
0.0
 10
17.95207448204257
 20
15.11733547468987
 30
0.0
 10
17.95198172833925
 20
15.11733547468998
 30
0.0
 10
17.95193535148758
 20
15.11733547468992
 30
0.0
 11
17.95221361259757
 21
15.11733547468992
 31
0.0
 11
17.95207448204257
 21
15.11733547468992
 31
0.0
 11
17.95193535148758
 21
15.11733547468992
 31
0.0
  0
SPLINE
  5
2C5
330
2
100
AcDbEntity
  8
GAIKEI
  6
Continuous
 62
     1
100
AcDbSpline
210
0.0
220
0.0
230
1.0
 70
     8
 71
     3
 72
    35
 73
    31
 74
    29
 42
0.0000000001
 43
0.0000000001
 44
0.00000000001
 40
0.0
 40
0.0
 40
0.0
 40
0.0
 40
0.003221168118915
 40
0.0063195640741793
 40
0.008894357332496
 40
0.0114166109507946
 40
0.0137140783181459
 40
0.016068619336513
 40
0.0183921137304639
 40
0.0207088185411058
 40
0.0229370853173378
 40
0.0251607542158842
 40
0.0273178042101181
 40
0.0294765924886869
 40
0.0315996835003128
 40
0.0337239130672254
 40
0.0358268976371258
 40
0.0379272299680518
 40
0.040028367110574
 40
0.0421298519692499
 40
0.0442662252468447
 40
0.0464051564693878
 40
0.0486004449235329
 40
0.0507981792952084
 40
0.0530175769857553
 40
0.055167237739633
 40
0.057643184246293
 40
0.0601972535599904
 40
0.0634847627978184
 40
0.0669385633191167
 40
0.0669385633191167
 40
0.0669385633191167
 40
0.0669385633191167
 10
17.95193524365766
 20
15.1173354984499
 30
0.0
 10
17.95085969760288
 20
15.11738552362084
 30
0.0
 10
17.94874959904328
 20
15.11748366729461
 30
0.0
 10
17.94587276663303
 20
15.11829442769635
 30
0.0
 10
17.94337262591627
 20
15.11940623573002
 30
0.0
 10
17.94125243610382
 20
15.12067750917839
 30
0.0
 10
17.93936984686962
 20
15.12216159636
 30
0.0
 10
17.93772447854067
 20
15.12381158725793
 30
0.0
 10
17.93626005298301
 20
15.12563144982056
 30
0.0
 10
17.93502264724883
 20
15.12756287179985
 30
0.0
 10
17.93400023879405
 20
15.1295780238197
 30
0.0
 10
17.93319492208835
 20
15.13163212547397
 30
0.0
 10
17.93258864607851
 20
15.1337289737686
 30
0.0
 10
17.93217712925119
 20
15.13583829677168
 30
0.0
 10
17.93195098728537
 20
15.13796428874411
 30
0.0
 10
17.93190812122196
 20
15.14008318899493
 30
0.0
 10
17.93204305670106
 20
15.14219052075805
 30
0.0
 10
17.93235350199146
 20
15.14427146547234
 30
0.0
 10
17.93283823098832
 20
15.14631835771058
 30
0.0
 10
17.93349922738588
 20
15.14832802226294
 30
0.0
 10
17.93433788988619
 20
15.15028425534939
 30
0.0
 10
17.93536400306591
 20
15.15218470689768
 30
0.0
 10
17.93657329638297
 20
15.15399946120567
 30
0.0
 10
17.93797230584843
 20
15.15570709120481
 30
0.0
 10
17.93951866167265
 20
15.1572617260104
 30
0.0
 10
17.94129567084393
 20
15.15870027294869
 30
0.0
 10
17.94332873030674
 20
15.15997477981364
 30
0.0
 10
17.94582839234518
 20
15.16118175485616
 30
0.0
 10
17.94881151327905
 20
15.16211799466828
 30
0.0
 10
17.95106108240648
 20
15.16226061913954
 30
0.0
 10
17.95221361259757
 20
15.16233369046989
 30
0.0
 11
17.95193524365766
 21
15.1173354984499
 31
0.0
 11
17.9487257708235
 21
15.11760973954295
 31
0.0
 11
17.94573451225733
 21
15.11841747073953
 31
0.0
 11
17.94338045223196
 21
15.11946052477458
 31
0.0
 11
17.94122008000352
 21
15.12076227557622
 31
0.0
 11
17.93941492626072
 21
15.12218346390608
 31
0.0
 11
17.93774858034447
 21
15.123846940595
 31
0.0
 11
17.93629260818181
 21
15.12565767836185
 31
0.0
 11
17.93504108637683
 21
15.12760724609632
 31
0.0
 11
17.93403210945837
 21
15.12959398674474
 31
0.0
 11
17.93321969831993
 21
15.13166393638482
 31
0.0
 11
17.93261985515028
 21
15.13373590473628
 31
0.0
 11
17.93220598647821
 21
15.13585464954252
 31
0.0
 11
17.93198132727366
 21
15.13796582070694
 31
0.0
 11
17.93193794689415
 21
15.1400896072771
 31
0.0
 11
17.93207248642886
 21
15.14218828381598
 31
0.0
 11
17.93238250736431
 21
15.14426560972203
 31
0.0
 11
17.93286695549397
 21
15.14631013590218
 31
0.0
 11
17.93352397949513
 21
15.14830627168743
 31
0.0
 11
17.93436644453612
 21
15.15026951987244
 31
0.0
 11
17.93538309519408
 21
15.15215139346395
 31
0.0
 11
17.93660184688815
 21
15.15397730028115
 31
0.0
 11
17.93799386552291
 21
15.15567798264095
 31
0.0
 11
17.93956228284588
 21
15.15724826707691
 31
0.0
 11
17.9412345035833
 21
15.15859908873875
 31
0.0
 11
17.94332776687361
 21
15.15992141997611
 31
0.0
 11
17.94563074767575
 21
15.16102575212005
 31
0.0
 11
17.94877862554222
 21
15.16197368773316
 31
0.0
 11
17.95221361259757
 21
15.16233369046989
 31
0.0
  0
SPLINE
  5
2C6
330
2
100
AcDbEntity
  8
GAIKEI
  6
Continuous
 62
     1
100
AcDbSpline
210
0.0
220
0.0
230
1.0
 70
     8
 71
     3
 72
    35
 73
    31
 74
    29
 42
0.0000000001
 43
0.0000000001
 44
0.00000000001
 40
0.0
 40
0.0
 40
0.0
 40
0.0
 40
0.0035146621452444
 40
0.0068597260107037
 40
0.0094447441172565
 40
0.0119482469441717
 40
0.0141015914315581
 40
0.0163240252938365
 40
0.0185147459645331
 40
0.0207039817764319
 40
0.0228378611978383
 40
0.0249699965004488
 40
0.0270720470117307
 40
0.0291760240744225
 40
0.0312736687847352
 40
0.0333721473558404
 40
0.0354735533958634
 40
0.0375719347460887
 40
0.0396935784421652
 40
0.041816186934203
 40
0.043993578587769
 40
0.0461737425467643
 40
0.048423899021073
 40
0.050676588148264
 40
0.0529582724806898
 40
0.0551723802457662
 40
0.0577013610343556
 40
0.0603041929785577
 40
0.0636080536401419
 40
0.0670714814210939
 40
0.0670714814210939
 40
0.0670714814210939
 40
0.0670714814210939
 10
17.95221361259757
 20
15.5133358827299
 30
0.0
 10
17.95104015386889
 20
15.51340265680488
 30
0.0
 10
17.94874986108083
 20
15.5135329828048
 30
0.0
 10
17.9457164508126
 20
15.51448097112092
 30
0.0
 10
17.94318377841843
 20
15.51570890091909
 30
0.0
 10
17.9411379238219
 20
15.51700261121203
 30
0.0
 10
17.93936025392277
 20
15.51845858815591
 30
0.0
 10
17.93782412281926
 20
15.52002328762927
 30
0.0
 10
17.93643966278951
 20
15.52173847527297
 30
0.0
 10
17.93524774699017
 20
15.52355749892433
 30
0.0
 10
17.93423947786117
 20
15.52546170937501
 30
0.0
 10
17.93341847800973
 20
15.52742228636208
 30
0.0
 10
17.93277540381123
 20
15.52943749782201
 30
0.0
 10
17.93230963191479
 20
15.53148904697127
 30
0.0
 10
17.93201878194756
 20
15.53357136129022
 30
0.0
 10
17.9319047587754
 20
15.53566991368092
 30
0.0
 10
17.93196649915723
 20
15.53777089419151
 30
0.0
 10
17.93220594148438
 20
15.53986691857074
 30
0.0
 10
17.93262486570303
 20
15.541941903527
 30
0.0
 10
17.93322990458932
 20
15.54399799907264
 30
0.0
 10
17.93402405516734
 20
15.54601009501778
 30
0.0
 10
17.93502183614089
 20
15.54797729112391
 30
0.0
 10
17.93621861791985
 20
15.54986076583043
 30
0.0
 10
17.93762440700082
 20
15.5516371587135
 30
0.0
 10
17.93919492986929
 20
15.55325376105133
 30
0.0
 10
17.94101060378358
 20
15.55474071999487
 30
0.0
 10
17.94309099184374
 20
15.55604553987439
 30
0.0
 10
17.94563454380926
 20
15.55725338551343
 30
0.0
 10
17.94865199159866
 20
15.5581665622991
 30
0.0
 10
17.95091221610374
 20
15.55827828678889
 30
0.0
 10
17.95206897547769
 20
15.55833546621983
 30
0.0
 11
17.95221361259757
 21
15.5133358827299
 31
0.0
 11
17.94871610780154
 21
15.51368274033319
 31
0.0
 11
17.94551171647481
 21
15.51464259891088
 31
0.0
 11
17.94318267935489
 21
15.51576416242011
 31
0.0
 11
17.9410714309829
 21
15.51710958306665
 31
0.0
 11
17.93940404240948
 21
15.51847219373246
 31
0.0
 11
17.93784383776665
 21
15.52005490461721
 31
0.0
 11
17.93646861684499
 21
15.5217601976928
 31
0.0
 11
17.93526731642504
 21
15.52359039733795
 31
0.0
 11
17.9342683118349
 21
15.52547598244979
 31
0.0
 11
17.93344408571829
 21
15.52744236294637
 31
0.0
 11
17.93280456454374
 21
15.52944476875422
 31
0.0
 11
17.93233837230946
 21
15.53149644716006
 31
0.0
 11
17.9320482444553
 21
15.53357393101294
 31
0.0
 11
17.93193407435274
 21
15.53566930150549
 31
0.0
 11
17.93199604865367
 21
15.53776979347907
 31
0.0
 11
17.93223445425445
 21
15.53985458772803
 31
0.0
 11
17.93265467827575
 21
15.54193419916891
 31
0.0
 11
17.93325442909793
 21
15.54397031452953
 31
0.0
 11
17.93405467073188
 21
15.54599532014441
 31
0.0
 11
17.93504138848539
 21
15.54793941452561
 31
0.0
 11
17.93624979144385
 21
15.54983756268865
 31
0.0
 11
17.93764695657239
 21
15.55160463311944
 31
0.0
 11
17.93924046874616
 21
15.55323766782356
 31
0.0
 11
17.94095478548797
 21
15.55463887848015
 31
0.0
 11
17.94309290918488
 21
15.55598949718495
 31
0.0
 11
17.94544668620722
 21
15.55710056327609
 31
0.0
 11
17.94861990396668
 21
15.55802044605241
 31
0.0
 11
17.95206897547769
 21
15.55833546621983
 31
0.0
  0
SPLINE
  5
2C7
330
2
100
AcDbEntity
  8
GAIKEI
  6
Continuous
 62
     1
100
AcDbSpline
210
0.0
220
0.0
230
1.0
 70
     8
 71
     3
 72
    35
 73
    31
 74
    29
 42
0.0000000001
 43
0.0000000001
 44
0.00000000001
 40
0.0
 40
0.0
 40
0.0
 40
0.0
 40
0.0035194101146035
 40
0.0068700181330009
 40
0.0094654410125749
 40
0.0119801020023847
 40
0.0141464848493596
 40
0.0163817449132627
 40
0.018583341167884
 40
0.0207824735358377
 40
0.0229267867717878
 40
0.0250704659545912
 40
0.0271867243957774
 40
0.029306004469115
 40
0.0314124118151131
 40
0.0335171701350021
 40
0.0356160641792868
 40
0.0377124057558492
 40
0.0398310357
 40
0.0419520540509096
 40
0.0441247032057756
 40
0.0462991413659552
 40
0.0485361144357325
 40
0.0507753100530584
 40
0.0530359305441956
 40
0.055224409858806
 40
0.0577442576646274
 40
0.0603436548124465
 40
0.0636938772453412
 40
0.0672163104571872
 40
0.0672163104571872
 40
0.0672163104571872
 40
0.0672163104571872
 10
17.95221361259757
 20
15.44733555832988
 30
0.0
 10
17.95103830781653
 20
15.44739817912881
 30
0.0
 10
17.94874406960764
 20
15.4475204172341
 30
0.0
 10
17.94570122234805
 20
15.44846223440851
 30
0.0
 10
17.94315793910399
 20
15.4496892233675
 30
0.0
 10
17.94110127902323
 20
15.45098770500795
 30
0.0
 10
17.93931444660872
 20
15.45245216327538
 30
0.0
 10
17.93777205309675
 20
15.45402802159049
 30
0.0
 10
17.93638468417691
 20
15.45575534371585
 30
0.0
 10
17.93519307045078
 20
15.4575870858846
 30
0.0
 10
17.93418779095678
 20
15.45950494776969
 30
0.0
 10
17.93337143580781
 20
15.46148057540358
 30
0.0
 10
17.93273523365124
 20
15.46351239048954
 30
0.0
 10
17.93227987623514
 20
15.4655794064368
 30
0.0
 10
17.93200189856361
 20
15.46767370959821
 30
0.0
 10
17.93190284704244
 20
15.4697772392854
 30
0.0
 10
17.93198027671636
 20
15.47187826296869
 30
0.0
 10
17.93223422810669
 20
15.47397001734481
 30
0.0
 10
17.93266710962797
 20
15.47603986924326
 30
0.0
 10
17.93328544735303
 20
15.47808873505562
 30
0.0
 10
17.93409113499561
 20
15.48009186519181
 30
0.0
 10
17.93509721073565
 20
15.48204592402305
 30
0.0
 10
17.93629826408376
 20
15.48391374804129
 30
0.0
 10
17.93770200247445
 20
15.48567130671557
 30
0.0
 10
17.93926338040126
 20
15.48726857505466
 30
0.0
 10
17.94106703522951
 20
15.48874062053073
 30
0.0
 10
17.94313780656686
 20
15.4900364872816
 30
0.0
 10
17.94568969904136
 20
15.49125250943894
 30
0.0
 10
17.94874078431974
 20
15.49217622834374
 30
0.0
 10
17.95103682557502
 20
15.49228140293445
 30
0.0
 10
17.95221361259757
 20
15.49233530792986
 30
0.0
 11
17.95221361259757
 21
15.44733555832988
 31
0.0
 11
17.94871019937164
 21
15.44767073488509
 31
0.0
 11
17.94549785638281
 21
15.44862332431137
 31
0.0
 11
17.94315733006044
 21
15.44974500004798
 31
0.0
 11
17.94103565893039
 21
15.45109482652185
 31
0.0
 11
17.93935865127315
 21
15.45246627100022
 31
0.0
 11
17.93779179525472
 21
15.45406043214979
 31
0.0
 11
17.93641391146337
 21
15.45577754086093
 31
0.0
 11
17.93521326225089
 21
15.45761999157679
 31
0.0
 11
17.93421717548352
 21
15.45951890979665
 31
0.0
 11
17.93339786510239
 21
15.46149984163247
 31
0.0
 11
17.93276506697475
 21
15.46351927628592
 31
0.0
 11
17.93230859499727
 21
15.46558881279515
 31
0.0
 11
17.93203155270191
 21
15.46767692186171
 31
0.0
 11
17.93193224989181
 21
15.46977933631587
 31
0.0
 11
17.93200963780146
 21
15.47187680319774
 31
0.0
 11
17.93226262931966
 21
15.47395782297116
 31
0.0
 11
17.9326967058804
 21
15.47603150818827
 31
0.0
 11
17.93330994531516
 21
15.47806194071376
 31
0.0
 11
17.93412157907176
 21
15.48007729552006
 31
0.0
 11
17.93511743878707
 21
15.48201028407146
 31
0.0
 11
17.93632891437283
 21
15.48389080937574
 31
0.0
 11
17.93772548429314
 21
15.4856411206253
 31
0.0
 11
17.93930935550799
 21
15.48725411689924
 31
0.0
 11
17.94100625013397
 21
15.48863614090004
 31
0.0
 11
17.94313751354946
 21
15.48998051778852
 31
0.0
 11
17.94548710462311
 21
15.49109240236828
 31
0.0
 11
17.94870485989867
 21
15.49202516243201
 31
0.0
 11
17.95221361259757
 21
15.49233530792986
 31
0.0
  0
SPLINE
  5
2C8
330
2
100
AcDbEntity
  8
GAIKEI
  6
Continuous
 62
     1
100
AcDbSpline
210
0.0
220
0.0
230
1.0
 70
    24
 71
     3
 72
     9
 73
     5
 74
     3
 42
0.0000000001
 43
0.0000000001
 44
0.00000000001
 40
0.0
 40
0.0
 40
0.0
 40
0.0
 40
0.0001057693699522
 40
0.0002115387399044
 40
0.0002115387399044
 40
0.0002115387399044
 40
0.0002115387399044
 10
17.95221361259757
 20
15.18333547464988
 30
0.0
 10
17.95217835614092
 20
15.18333547464988
 30
0.0
 10
17.95210784322762
 20
15.18333547464982
 30
0.0
 10
17.95203733031432
 20
15.18333547464982
 30
0.0
 10
17.95200207385767
 20
15.18333547464988
 30
0.0
 11
17.95221361259757
 21
15.18333547464988
 31
0.0
 11
17.95210784322762
 21
15.18333547464988
 31
0.0
 11
17.95200207385767
 21
15.18333547464988
 31
0.0
  0
SPLINE
  5
2C9
330
2
100
AcDbEntity
  8
GAIKEI
  6
Continuous
 62
     1
100
AcDbSpline
210
0.0
220
0.0
230
1.0
 70
     8
 71
     3
 72
    35
 73
    31
 74
    29
 42
0.0000000001
 43
0.0000000001
 44
0.00000000001
 40
0.0
 40
0.0
 40
0.0
 40
0.0
 40
0.0035249515978848
 40
0.0068772183065987
 40
0.0094767231110233
 40
0.0119964413185178
 40
0.0141841249531531
 40
0.016444121065004
 40
0.0186830360474728
 40
0.020919757429291
 40
0.0230943223900062
 40
0.025267174137521
 40
0.0273884023889006
 40
0.0295071928623592
 40
0.0316031696327807
 40
0.0337015440340306
 40
0.0358057248868529
 40
0.0379116840607894
 40
0.04003105908764
 40
0.0421475043460271
 40
0.0442914040862291
 40
0.0464358184290751
 40
0.0486347480993947
 40
0.0508361412115471
 40
0.0530711533483122
 40
0.0552373252517444
 40
0.057751772246436
 40
0.0603469705071938
 40
0.0636972547527846
 40
0.0672163085822188
 40
0.0672163085822188
 40
0.0672163085822188
 40
0.0672163085822188
 10
17.95221361259757
 20
15.31533564126988
 30
0.0
 10
17.95103598019747
 20
15.31538961814516
 30
0.0
 10
17.94873840677684
 20
15.31549492760683
 30
0.0
 10
17.9456859615498
 20
15.31641973198339
 30
0.0
 10
17.94313379431494
 20
15.31763672975325
 30
0.0
 10
17.94106352505593
 20
15.31893287956438
 30
0.0
 10
17.93926057366639
 20
15.32040496496614
 30
0.0
 10
17.93769986315158
 20
15.32200208657747
 30
0.0
 10
17.93629660355923
 20
15.32375953165814
 30
0.0
 10
17.93509585025327
 20
15.3256273864165
 30
0.0
 10
17.93408998996801
 20
15.32758158569794
 30
0.0
 10
17.93328447342024
 20
15.32958497851803
 30
0.0
 10
17.93266632198499
 20
15.33163410102168
 30
0.0
 10
17.93223372421133
 20
15.33370401511257
 30
0.0
 10
17.93198006824114
 20
15.33579556016366
 30
0.0
 10
17.93190286995084
 20
15.33789610341671
 30
0.0
 10
17.93200209469776
 20
15.33999910735736
 30
0.0
 10
17.93228015301273
 20
15.34209308433145
 30
0.0
 10
17.93273560250159
 20
15.34416002445823
 30
0.0
 10
17.93337200608684
 20
15.34619195293453
 30
0.0
 10
17.93418857010169
 20
15.34816767789226
 30
0.0
 10
17.93519402465252
 20
15.35008549393239
 30
0.0
 10
17.93638574208812
 20
15.35191704643023
 30
0.0
 10
17.93777310039334
 20
15.35364409611486
 30
0.0
 10
17.9393154453692
 20
15.35521969206661
 30
0.0
 10
17.94110219274829
 20
15.35668389827566
 30
0.0
 10
17.94315873320256
 20
15.35798216067582
 30
0.0
 10
17.94570183883442
 20
15.35920893117622
 30
0.0
 10
17.94874441686718
 20
15.36015056927431
 30
0.0
 10
17.95103842719523
 20
15.36027278280227
 30
0.0
 10
17.95221361259757
 20
15.36033539086992
 30
0.0
 11
17.95221361259757
 21
15.31533564126988
 31
0.0
 11
17.94870236991755
 21
15.31564621913361
 31
0.0
 11
17.94548283429833
 21
15.31658017977673
 31
0.0
 11
17.9431334317386
 21
15.31769271419892
 31
0.0
 11
17.94100257522529
 21
15.31903749312681
 31
0.0
 11
17.93930657564499
 21
15.32041935603928
 31
0.0
 11
17.93772341023384
 21
15.32203217025875
 31
0.0
 11
17.93632725451914
 21
15.32378245295564
 31
0.0
 11
17.93511614305424
 21
15.32566291342039
 31
0.0
 11
17.93412044945017
 21
15.32759613017367
 31
0.0
 11
17.93330897790474
 21
15.32961176869475
 31
0.0
 11
17.93269592448342
 21
15.33164247664939
 31
0.0
 11
17.93226209370624
 21
15.33371637730448
 31
0.0
 11
17.93200941029045
 21
15.33579706702511
 31
0.0
 11
17.93193226232199
 21
15.33789402275158
 31
0.0
 11
17.9320317249614
 21
15.33999585153736
 31
0.0
 11
17.93230883472114
 21
15.34208349954969
 31
0.0
 11
17.93276543772134
 21
15.34415310439232
 31
0.0
 11
17.93339843243245
 21
15.34617267321448
 31
0.0
 11
17.93421797546682
 21
15.3481537474965
 31
0.0
 11
17.93521426578308
 21
15.35005267310839
 31
0.0
 11
17.93641496081147
 21
15.35189485202039
 31
0.0
 11
17.93779284585537
 21
15.3536116992588
 31
0.0
 11
17.93935963553065
 21
15.35520557797594
 31
0.0
 11
17.94103656238076
 21
15.3565767880454
 31
0.0
 11
17.94315812124011
 21
15.35792639231903
 31
0.0
 11
17.94549849184204
 21
15.35904787324097
 31
0.0
 11
17.94871055086167
 21
15.36000028144161
 31
0.0
 11
17.95221361259757
 21
15.36033539086992
 31
0.0
  0
SPLINE
  5
2CA
330
2
100
AcDbEntity
  8
GAIKEI
  6
Continuous
 62
     1
100
AcDbSpline
210
0.0
220
0.0
230
1.0
 70
     8
 71
     3
 72
    35
 73
    31
 74
    29
 42
0.0000000001
 43
0.0000000001
 44
0.00000000001
 40
0.0
 40
0.0
 40
0.0
 40
0.0
 40
0.0032602488671235
 40
0.0063892200621084
 40
0.0089582428743811
 40
0.0114704284192185
 40
0.0137440340694101
 40
0.0160779184721259
 40
0.0183860327607078
 40
0.0206880799738782
 40
0.0229062314317768
 40
0.025119576968818
 40
0.0272691536273449
 40
0.0294197211781647
 40
0.0315409914303889
 40
0.033664699842342
 40
0.035774598822284
 40
0.0378820359386548
 40
0.0399911315364104
 40
0.0420990520724121
 40
0.0442428390620672
 40
0.0463895750940224
 40
0.0485996707638887
 40
0.0508135815631653
 40
0.0530541634268918
 40
0.0552258305023272
 40
0.0577156971198841
 40
0.0602809453204058
 40
0.0635616859778316
 40
0.0670055543028935
 40
0.0670055543028935
 40
0.0670055543028935
 40
0.0670055543028935
 10
17.95200203935758
 20
15.18333548912983
 30
0.0
 10
17.95091339947217
 20
15.1833865683152
 30
0.0
 10
17.948779955039
 20
15.18348666992369
 30
0.0
 10
17.94588424554942
 20
15.18431152111344
 30
0.0
 10
17.94338353397394
 20
15.18543361399474
 30
0.0
 10
17.94127647390924
 20
15.18670070643731
 30
0.0
 10
17.9394088896345
 20
15.18817416566037
 30
0.0
 10
17.93777577804121
 20
15.18980791358666
 30
0.0
 10
17.93631729927695
 20
15.19161070364504
 30
0.0
 10
17.93508008799072
 20
15.19352620288737
 30
0.0
 10
17.93405375003337
 20
15.19552614097159
 30
0.0
 10
17.93324117095797
 20
15.19756730895148
 30
0.0
 10
17.93262520161877
 20
15.19965224128771
 30
0.0
 10
17.93220154310066
 20
15.20175316935524
 30
0.0
 10
17.93196202083572
 20
15.20387414446321
 30
0.0
 10
17.93190504332679
 20
15.20599422690668
 30
0.0
 10
17.93202643750888
 20
15.2081069217744
 30
0.0
 10
17.932325412023
 20
15.21019698161854
 30
0.0
 10
17.93280012026203
 20
15.21225360577011
 30
0.0
 10
17.9334527653172
 20
15.21427368072085
 30
0.0
 10
17.93428510502633
 20
15.2162405013309
 30
0.0
 10
17.93530799146252
 20
15.21815410296034
 30
0.0
 10
17.93651843707306
 20
15.21998373306599
 30
0.0
 10
17.93792468286676
 20
15.22170803634969
 30
0.0
 10
17.9394835060308
 20
15.22327839833065
 30
0.0
 10
17.94127640211822
 20
15.22472784122243
 30
0.0
 10
17.94332526352522
 20
15.22600700859362
 30
0.0
 10
17.94583468287436
 20
15.2272081301947
 30
0.0
 10
17.94881963136828
 20
15.228132135245
 30
0.0
 10
17.95106413622093
 20
15.22826596332709
 30
0.0
 10
17.95221361259757
 20
15.22833450058982
 30
0.0
 11
17.95200203935758
 21
15.18333548912983
 31
0.0
 11
17.94875386696515
 21
15.18361584387764
 31
0.0
 11
17.94573530455091
 21
15.18443970168721
 31
0.0
 11
17.94338973118391
 21
15.185487634791
 31
0.0
 11
17.94124000245938
 21
15.18678753579593
 31
0.0
 11
17.93945405608974
 21
15.18819454617875
 31
0.0
 11
17.93780033726745
 21
15.18984143125732
 31
0.0
 11
17.93634935707939
 21
15.19163643768155
 31
0.0
 11
17.93509861283473
 21
15.19356906806683
 31
0.0
 11
17.93408515956128
 21
15.1955421642005
 31
0.0
 11
17.93326575192333
 21
15.19759824532468
 31
0.0
 11
17.93265601898395
 21
15.19965953267814
 31
0.0
 11
17.93223049244159
 21
15.20176758105339
 31
0.0
 11
17.93199230748257
 21
15.20387543669557
 31
0.0
 11
17.93193486574785
 21
15.20599836812784
 31
0.0
 11
17.9320561605993
 21
15.20810477769498
 31
0.0
 11
17.93235461673657
 21
15.21019097402649
 31
0.0
 11
17.93282926409137
 21
15.2122459665153
 31
0.0
 11
17.93347780432157
 21
15.21425163960828
 31
0.0
 11
17.93431392911532
 21
15.21622565024307
 31
0.0
 11
17.93532643869622
 21
15.21811861087116
 31
0.0
 11
17.93654730763001
 21
15.2199608925859
 31
0.0
 11
17.93794573839915
 21
15.22167722367607
 31
0.0
 11
17.93952760277807
 21
15.2232640167233
 31
0.0
 11
17.94121777382224
 21
15.22462763680528
 31
0.0
 11
17.94332539000697
 21
15.2259533025969
 31
0.0
 11
17.94564211223587
 21
15.22705479996159
 31
0.0
 11
17.94878716301099
 21
15.22798856378784
 31
0.0
 11
17.95221361259757
 21
15.22833450058982
 31
0.0
  0
SPLINE
  5
2CB
330
2
100
AcDbEntity
  8
GAIKEI
  6
Continuous
 62
     1
100
AcDbSpline
210
0.0
220
0.0
230
1.0
 70
    24
 71
     3
 72
     9
 73
     5
 74
     3
 42
0.0000000001
 43
0.0000000001
 44
0.00000000001
 40
0.0
 40
0.0
 40
0.0
 40
0.0
 40
0.0000723467999251
 40
0.0001446935999638
 40
0.0001446935999638
 40
0.0001446935999638
 40
0.0001446935999638
 10
17.95221361259757
 20
15.2493354746199
 30
0.0
 10
17.95218949699759
 20
15.24933547461984
 30
0.0
 10
17.9521412657976
 20
15.24933547461978
 30
0.0
 10
17.95209303459762
 20
15.2493354746199
 30
0.0
 10
17.95206891899761
 20
15.2493354746199
 30
0.0
 11
17.95221361259757
 21
15.2493354746199
 31
0.0
 11
17.95214126579765
 21
15.2493354746199
 31
0.0
 11
17.95206891899761
 21
15.2493354746199
 31
0.0
  0
SPLINE
  5
2CC
330
2
100
AcDbEntity
  8
GAIKEI
  6
Continuous
 62
     1
100
AcDbSpline
210
0.0
220
0.0
230
1.0
 70
     8
 71
     3
 72
    35
 73
    31
 74
    29
 42
0.0000000001
 43
0.0000000001
 44
0.00000000001
 40
0.0
 40
0.0
 40
0.0
 40
0.0
 40
0.003465658964574
 40
0.0067713178576744
 40
0.0093742460454902
 40
0.0119031209710336
 40
0.0141165900317529
 40
0.01639780236314
 40
0.0186503600099793
 40
0.0209004243275709
 40
0.0230807066949437
 40
0.0252582493956956
 40
0.0273808069358423
 40
0.029502295414861
 40
0.0316002407143123
 40
0.0337011799572207
 40
0.0357995160182661
 40
0.0378971812751337
 40
0.0400014390524263
 40
0.0421037044999399
 40
0.04423576788665
 40
0.0463694975720749
 40
0.0485584907766796
 40
0.0507490424746999
 40
0.0529714157510406
 40
0.0551247103661061
 40
0.0576280392401678
 40
0.0602128493763527
 40
0.0635574041393791
 40
0.067071482362348
 40
0.067071482362348
 40
0.067071482362348
 40
0.067071482362348
 10
17.95206897724756
 20
15.24933548299992
 30
0.0
 10
17.95091146928453
 20
15.24939272751209
 30
0.0
 10
17.94864989236058
 20
15.24950457371256
 30
0.0
 10
17.94563124288069
 20
15.25041870492276
 30
0.0
 10
17.94308744801177
 20
15.25162741561956
 30
0.0
 10
17.9410074838504
 20
15.25293249947606
 30
0.0
 10
17.93919239683663
 20
15.25441953145366
 30
0.0
 10
17.9376224153961
 20
15.25603607738327
 30
0.0
 10
17.93621700110086
 20
15.25781246958002
 30
0.0
 10
17.93502046878451
 20
15.25969606037807
 30
0.0
 10
17.93402289268537
 20
15.26166342709229
 30
0.0
 10
17.93322896459209
 20
15.26367568934887
 30
0.0
 10
17.93262417057312
 20
15.26573183732404
 30
0.0
 10
17.93220553364986
 20
15.26780666189432
 30
0.0
 10
17.93196636033832
 20
15.26990235985028
 30
0.0
 10
17.9319047883169
 20
15.2720029948436
 30
0.0
 10
17.93201895318077
 20
15.27410134316631
 30
0.0
 10
17.93230995840469
 20
15.27618368862448
 30
0.0
 10
17.93277590509973
 20
15.27823537574545
 30
0.0
 10
17.93341921279831
 20
15.2802506627238
 30
0.0
 10
17.93424040272157
 20
15.28221115656208
 30
0.0
 10
17.93524875274505
 20
15.28411514829895
 30
0.0
 10
17.93644071629143
 20
15.28593391663287
 30
0.0
 10
17.93782521075762
 20
15.28764887312394
 30
0.0
 10
17.93936138878915
 20
15.28921339569939
 30
0.0
 10
17.94113909156432
 20
15.29066918250737
 30
0.0
 10
17.94318491043009
 20
15.29196267790269
 30
0.0
 10
17.94571739541706
 20
15.29319031308881
 30
0.0
 10
17.94875042288473
 20
15.29413802707654
 30
0.0
 10
17.95104034947408
 20
15.29426831325293
 30
0.0
 10
17.95221361259757
 20
15.2943350664699
 30
0.0
 11
17.95206897724756
 21
15.24933548299992
 31
0.0
 11
17.94861770041052
 21
15.24965088790293
 31
0.0
 11
17.94544291573504
 21
15.25057182383006
 31
0.0
 11
17.94308930565893
 21
15.25168346889955
 31
0.0
 11
17.94095153561119
 21
15.25303444914072
 31
0.0
 11
17.93923796539445
 21
15.25443556383805
 31
0.0
 11
17.93764503316151
 21
15.25606850492767
 31
0.0
 11
17.93624818130581
 21
15.25783565541519
 31
0.0
 11
17.93504005905197
 21
15.25973387301417
 31
0.0
 11
17.9340535184441
 21
15.26167819007435
 31
0.0
 11
17.9332534688092
 21
15.26370343395973
 31
0.0
 11
17.93265397474726
 21
15.26573957181875
 31
0.0
 11
17.93223402604474
 21
15.26781908052368
 31
0.0
 11
17.93199589100624
 21
15.26990346680816
 31
0.0
 11
17.93193409739854
 21
15.27200349710614
 31
0.0
 11
17.93204840885858
 21
15.27409871716981
 31
0.0
 11
17.93233868323341
 21
15.27617620130144
 31
0.0
 11
17.93280508387835
 21
15.27822812021594
 31
0.0
 11
17.9334448535339
 21
15.28023067228758
 31
0.0
 11
17.93426923960294
 21
15.28219690775012
 31
0.0
 11
17.93526833327132
 21
15.28408227620542
 31
0.0
 11
17.93646964994713
 21
15.28591217497154
 31
0.0
 11
17.93784489625568
 21
15.28761723049337
 31
0.0
 11
17.93940517329201
 21
15.28919978493138
 31
0.0
 11
17.94107262188129
 21
15.29056224333493
 31
0.0
 11
17.94318381564443
 21
15.2919074259791
 31
0.0
 11
17.94551273681662
 21
15.29302875091588
 31
0.0
 11
17.94871668364806
 21
15.29398831918558
 31
0.0
 11
17.95221361259757
 21
15.2943350664699
 31
0.0
  0
SPLINE
  5
2CD
330
2
100
AcDbEntity
  8
GAIKEI
  6
Continuous
 62
     1
100
AcDbSpline
210
0.0
220
0.0
230
1.0
 70
     8
 71
     3
 72
    33
 73
    29
 74
    27
 42
0.0000000001
 43
0.0000000001
 44
0.00000000001
 40
0.0
 40
0.0
 40
0.0
 40
0.0
 40
0.0038367385801577
 40
0.0074871839567764
 40
0.0103105413687024
 40
0.0130466330094324
 40
0.0153872165662029
 40
0.0178018792802429
 40
0.0201544605399859
 40
0.0225043024160482
 40
0.0247647306292437
 40
0.0270232594677307
 40
0.0292208705782927
 40
0.0314174711585383
 40
0.0335925311226042
 40
0.03576759517419
 40
0.0379642001701571
 40
0.0401618099164101
 40
0.0424203238168891
 40
0.0446807362934946
 40
0.0470305699105531
 40
0.0493831474902546
 40
0.0517978156663452
 40
0.0541384020490408
 40
0.0568744976380572
 40
0.0596978598269003
 40
0.0633483147390388
 40
0.0671850636652126
 40
0.0671850636652126
 40
0.0671850636652126
 40
0.0671850636652126
 10
17.95220186866754
 20
15.38133547466992
 30
0.0
 10
17.95091990129747
 20
15.38140593276392
 30
0.0
 10
17.94841821260387
 20
15.38154342785259
 30
0.0
 10
17.94512346785591
 20
15.38265022639928
 30
0.0
 10
17.94240486277144
 20
15.38408606701352
 30
0.0
 10
17.94023806838376
 20
15.38559764898571
 30
0.0
 10
17.93839214320178
 20
15.38728819694233
 30
0.0
 10
17.93684019416858
 20
15.38908488273756
 30
0.0
 10
17.93548111466569
 20
15.39103440207123
 30
0.0
 10
17.93435852842864
 20
15.39307057471831
 30
0.0
 10
17.93345337220728
 20
15.39517735468956
 30
0.0
 10
17.9327667743606
 20
15.39731179178767
 30
0.0
 10
17.93228206580562
 20
15.39947875247065
 30
0.0
 10
17.93199539658663
 20
15.40165255281187
 30
0.0
 10
17.93190028768404
 20
15.40383547522822
 30
0.0
 10
17.93199539698821
 20
15.40601839906969
 30
0.0
 10
17.93228206576842
 20
15.4081922018899
 30
0.0
 10
17.93276677481545
 20
15.41035915846555
 30
0.0
 10
17.93345337046413
 20
15.41249358492843
 30
0.0
 10
17.93435851872212
 20
15.41460035406527
 30
0.0
 10
17.93548109734452
 20
15.41663652040313
 30
0.0
 10
17.93684017335005
 20
15.41858603953108
 30
0.0
 10
17.93839212061752
 20
15.42038272885816
 30
0.0
 10
17.9402380461423
 20
15.42207328251373
 30
0.0
 10
17.94240484178002
 20
15.42358486950593
 30
0.0
 10
17.9451234505738
 20
15.42502071614274
 30
0.0
 10
17.94841820244778
 20
15.42612752020807
 30
0.0
 10
17.95091989781491
 20
15.42626501604798
 30
0.0
 10
17.95220186865754
 20
15.42633547452982
 30
0.0
 11
17.95220186866754
 21
15.38133547466992
 31
0.0
 11
17.94838462909808
 21
15.38172179707652
 31
0.0
 11
17.94490933037616
 21
15.38283895876628
 31
0.0
 11
17.94240907984601
 21
15.38415048244582
 31
0.0
 11
17.94017068565682
 21
15.38572394643341
 31
0.0
 11
17.93844272865635
 21
15.38730271050406
 31
0.0
 11
17.93686013062415
 21
15.38912643731777
 31
0.0
 11
17.93551558897149
 21
15.39105694148196
 31
0.0
 11
17.93437938176248
 21
15.39311382991371
 31
0.0
 11
17.93348653766935
 21
15.39519045340688
 31
0.0
 11
17.93279416242478
 21
15.39734023689249
 31
0.0
 11
17.93231410729811
 21
15.39948477452765
 31
0.0
 11
17.93202658586699
 21
15.40166247642088
 31
0.0
 11
17.9319318864056
 21
15.40383547385744
 31
0.0
 11
17.93202658614046
 21
15.40600847537348
 31
0.0
 11
17.93231410796954
 21
15.40818618166821
 31
0.0
 11
17.93279416388566
 21
15.41033071772858
 31
0.0
 11
17.93348653514613
 21
15.4124804868037
 31
0.0
 11
17.93437937077817
 21
15.41455709680525
 31
0.0
 11
17.93551557091524
 21
15.41661397970819
 31
0.0
 11
17.93686010788423
 21
15.41854448264979
 31
0.0
 11
17.93844270675527
 21
15.42036821596747
 31
0.0
 11
17.94017066343531
 21
15.42194698457837
 31
0.0
 11
17.94240905876677
 21
15.42352045380664
 31
0.0
 11
17.94490931201028
 21
15.42483198259691
 31
0.0
 11
17.9483846189006
 21
15.42594915003451
 31
0.0
 11
17.95220186865754
 21
15.42633547452982
 31
0.0
  0
SPLINE
  5
2CE
330
2
100
AcDbEntity
  8
GAIKEI
  6
Continuous
 62
     1
100
AcDbSpline
210
0.0
220
0.0
230
1.0
 70
    24
 71
     3
 72
     9
 73
     5
 74
     3
 42
0.0000000001
 43
0.0000000001
 44
0.00000000001
 40
0.0
 40
0.0
 40
0.0
 40
0.0
 40
0.0000723468000388
 40
0.0001446935999638
 40
0.0001446935999638
 40
0.0001446935999638
 40
0.0001446935999638
 10
17.95206891899761
 20
15.5583354745799
 30
0.0
 10
17.95209303459761
 20
15.55833547457985
 30
0.0
 10
17.95214126579759
 20
15.55833547457985
 30
0.0
 10
17.9521894969976
 20
15.5583354745799
 30
0.0
 10
17.95221361259757
 20
15.5583354745799
 30
0.0
 11
17.95206891899761
 21
15.5583354745799
 31
0.0
 11
17.95214126579765
 21
15.5583354745799
 31
0.0
 11
17.95221361259757
 21
15.5583354745799
 31
0.0
  0
LINE
  5
2CF
330
2
100
AcDbEntity
  8
GAIKEI
  6
Continuous
 62
     1
100
AcDbLine
 10
17.95221361259746
 20
15.64533725872985
 30
0.0
 11
17.95221361259746
 21
15.62433425152988
 31
0.0
  0
LINE
  5
2D0
330
2
100
AcDbEntity
  8
GAIKEI
  6
Continuous
 62
     1
100
AcDbLine
 10
17.95221361259746
 20
15.70383547459988
 30
0.0
 11
17.95221361259746
 21
15.69033335824991
 31
0.0
  0
LINE
  5
2D1
330
2
100
AcDbEntity
  8
GAIKEI
  6
Continuous
 62
     1
100
AcDbLine
 10
17.95193524472756
 20
15.6903372796898
 30
0.0
 11
17.95221361259746
 21
15.69033335824991
 31
0.0
  0
LINE
  5
2D2
330
2
100
AcDbEntity
  8
GAIKEI
  6
Continuous
 62
     1
100
AcDbLine
 10
17.95200203942761
 20
15.62433622329985
 30
0.0
 11
17.95221361259746
 21
15.62433425152988
 31
0.0
  0
SPLINE
  5
2D3
330
2
100
AcDbEntity
  8
GAIKEI
  6
Continuous
 62
     1
100
AcDbSpline
210
0.0
220
0.0
230
1.0
 70
     8
 71
     3
 72
    35
 73
    31
 74
    29
 42
0.0000000001
 43
0.0000000001
 44
0.00000000001
 40
0.0
 40
0.0
 40
0.0
 40
0.0
 40
0.0034541372708639
 40
0.0067418518878304
 40
0.0092952675399404
 40
0.0117704115616879
 40
0.013918870018973
 40
0.0161370918267602
 40
0.0183340097602483
 40
0.0205285868589581
 40
0.0226672838761219
 40
0.0248034794680061
 40
0.0269046125606942
 40
0.0290052456338329
 40
0.031104738609154
 40
0.0332068894095694
 40
0.0353305323208729
 40
0.0374531881080766
 40
0.0396115656955365
 40
0.041768116223412
 40
0.0439907343249013
 40
0.0462178182867591
 40
0.048533241549959
 40
0.0508554241948115
 40
0.0532097254874381
 40
0.0555069838271431
 40
0.0580313479213655
 40
0.0606085588061543
 40
0.0637119932159178
 40
0.066938544450382
 40
0.066938544450382
 40
0.066938544450382
 40
0.066938544450382
 10
17.95221361259757
 20
15.64533725872991
 30
0.0
 10
17.95106096931469
 20
15.64541033834263
 30
0.0
 10
17.94881121787658
 20
15.64555297654334
 30
0.0
 10
17.94582815156548
 20
15.64648928676081
 30
0.0
 10
17.94332889148605
 20
15.64769612244276
 30
0.0
 10
17.94129654464548
 20
15.64897008699358
 30
0.0
 10
17.93952026685359
 20
15.65040784181405
 30
0.0
 10
17.93797446535953
 20
15.65196151746085
 30
0.0
 10
17.93657574691035
 20
15.6536682167308
 30
0.0
 10
17.9353664267276
 20
15.65548224330064
 30
0.0
 10
17.93434008478826
 20
15.65738214540533
 30
0.0
 10
17.93350111426355
 20
15.65933796879005
 30
0.0
 10
17.93283977043596
 20
15.66134715478557
 30
0.0
 10
17.93235469314241
 20
15.66339338300486
 30
0.0
 10
17.93204383374895
 20
15.66547352865683
 30
0.0
 10
17.93190830695731
 20
15.66758006412925
 30
0.0
 10
17.93195047133932
 20
15.66969835852342
 30
0.0
 10
17.93217584016955
 20
15.67182395014458
 30
0.0
 10
17.93258648281329
 20
15.67393298448621
 30
0.0
 10
17.93319176269983
 20
15.67602943805292
 30
0.0
 10
17.93399585538779
 20
15.67808303439591
 30
0.0
 10
17.9350167270434
 20
15.68009764495639
 30
0.0
 10
17.93625236343631
 20
15.68202869484276
 30
0.0
 10
17.93771500741707
 20
15.68384876688782
 30
0.0
 10
17.93935880055434
 20
15.68549949320714
 30
0.0
 10
17.94124071036153
 20
15.6869853310294
 30
0.0
 10
17.94336125185825
 20
15.68825884918084
 30
0.0
 10
17.94586361384012
 20
15.68937352386047
 30
0.0
 10
17.94874430416871
 20
15.69018679439699
 30
0.0
 10
17.95085789511536
 20
15.69028526018633
 30
0.0
 10
17.95193524502758
 20
15.69033545064991
 30
0.0
 11
17.95221361259757
 21
15.64533725872991
 31
0.0
 11
17.94877829280995
 21
15.64569731739556
 31
0.0
 11
17.94563024235867
 21
15.64664539215994
 31
0.0
 11
17.94332786724573
 21
15.64774947564035
 31
0.0
 11
17.94123524477948
 21
15.64907131872564
 31
0.0
 11
17.93956386388981
 21
15.65042126674848
 31
0.0
 11
17.93799607903702
 21
15.65199052091651
 31
0.0
 11
17.93660429536322
 21
15.65369034049865
 31
0.0
 11
17.93538558166966
 21
15.65551541736698
 31
0.0
 11
17.93436864344147
 21
15.65739686935183
 31
0.0
 11
17.93352583166052
 21
15.65935977533752
 31
0.0
 11
17.93286847090058
 21
15.66135542989292
 31
0.0
 11
17.93238366089474
 21
15.6633993522413
 31
0.0
 11
17.93207323292984
 21
15.66547576868123
 31
0.0
 11
17.93193811885811
 21
15.66757357281301
 31
0.0
 11
17.93198079621413
 21
15.66969678685262
 31
0.0
 11
17.93220468403905
 21
15.67180760229524
 31
0.0
 11
17.93261768976788
 21
15.67392609706229
 31
0.0
 11
17.93321658394598
 21
15.67599782000292
 31
0.0
 11
17.93402771303135
 21
15.6780671437649
 31
0.0
 11
17.93503516682119
 21
15.68005333102559
 31
0.0
 11
17.93628489355694
 21
15.68200252777649
 31
0.0
 11
17.93773887004426
 21
15.68381318638882
 31
0.0
 11
17.9394038727936
 21
15.68547766841669
 31
0.0
 11
17.94120780453033
 21
15.68690006996638
 31
0.0
 11
17.94336905797581
 21
15.68820444630188
 31
0.0
 11
17.94572467740471
 21
15.68924994764137
 31
0.0
 11
17.94872044741032
 21
15.69006029769485
 31
0.0
 11
17.95193524502758
 21
15.69033545064991
 31
0.0
  0
SPLINE
  5
2D4
330
2
100
AcDbEntity
  8
GAIKEI
  6
Continuous
 62
     1
100
AcDbSpline
210
0.0
220
0.0
230
1.0
 70
    24
 71
     3
 72
     9
 73
     5
 74
     3
 42
0.0000000001
 43
0.0000000001
 44
0.00000000001
 40
0.0
 40
0.0
 40
0.0
 40
0.0
 40
0.0001057693699522
 40
0.0002115387399044
 40
0.0002115387399044
 40
0.0002115387399044
 40
0.0002115387399044
 10
17.95200207385767
 20
15.62433547454992
 30
0.0
 10
17.95203733031431
 20
15.62433547454986
 30
0.0
 10
17.95210784322762
 20
15.62433547454986
 30
0.0
 10
17.95217835614092
 20
15.62433547454992
 30
0.0
 10
17.95221361259757
 20
15.62433547454992
 30
0.0
 11
17.95200207385767
 21
15.62433547454992
 31
0.0
 11
17.95210784322762
 21
15.62433547454992
 31
0.0
 11
17.95221361259757
 21
15.62433547454992
 31
0.0
  0
SPLINE
  5
2D5
330
2
100
AcDbEntity
  8
GAIKEI
  6
Continuous
 62
     1
100
AcDbSpline
210
0.0
220
0.0
230
1.0
 70
    24
 71
     3
 72
     9
 73
     5
 74
     3
 42
0.0000000001
 43
0.0000000001
 44
0.00000000001
 40
0.0
 40
0.0
 40
0.0
 40
0.0
 40
0.0001391305549987
 40
0.0002782611099974
 40
0.0002782611099974
 40
0.0002782611099974
 40
0.0002782611099974
 10
17.95193535148758
 20
15.69033547450988
 30
0.0
 10
17.95198172833923
 20
15.69033547450988
 30
0.0
 10
17.95207448204257
 20
15.69033547450988
 30
0.0
 10
17.9521672357459
 20
15.69033547450993
 30
0.0
 10
17.95221361259757
 20
15.69033547450988
 30
0.0
 11
17.95193535148758
 21
15.69033547450988
 31
0.0
 11
17.95207448204257
 21
15.69033547450988
 31
0.0
 11
17.95221361259757
 21
15.69033547450988
 31
0.0
  0
LINE
  5
2D6
330
2
100
AcDbEntity
  8
GAIKEI
  6
Continuous
100
AcDbLine
 10
17.92517444085763
 20
15.10383547459986
 30
0.0
 11
17.92517444085763
 21
15.05296265666987
 31
0.0
  0
SPLINE
  5
2D7
330
2
100
AcDbEntity
  8
GAIKEI
  6
Continuous
100
AcDbSpline
210
0.0
220
0.0
230
1.0
 70
     8
 71
     3
 72
    25
 73
    21
 74
    19
 42
0.0000000001
 43
0.0000000001
 44
0.00000000001
 40
0.0
 40
0.0
 40
0.0
 40
0.0
 40
0.0049121824082542
 40
0.0096238426599241
 40
0.0134474063883293
 40
0.0171717399739006
 40
0.0205855889069515
 40
0.0240945496047342
 40
0.0277283697288181
 40
0.031363748067105
 40
0.0350777297315221
 40
0.0387937570882051
 40
0.042572107092093
 40
0.0463480499274864
 40
0.0501157381441302
 40
0.0537692534212923
 40
0.0579298081873321
 40
0.062219715643883
 40
0.0676914946459765
 40
0.0734208770762269
 40
0.0734208770762269
 40
0.0734208770762269
 40
0.0734208770762269
 10
17.92517444085763
 20
15.05296265666987
 30
0.0
 10
17.92521168285343
 20
15.05132454717358
 30
0.0
 10
17.92528464657468
 20
15.04811519810192
 30
0.0
 10
17.92590372590905
 20
15.04366594351819
 30
0.0
 10
17.92676936833898
 20
15.03967043127437
 30
0.0
 10
17.92776295343714
 20
15.036151035736
 30
0.0
 10
17.92897051393177
 20
15.03281070728775
 30
0.0
 10
17.93039296756983
 20
15.02958923570225
 30
0.0
 10
17.93206548948805
 20
15.02640612715476
 30
0.0
 10
17.93400378360081
 20
15.02329632153851
 30
0.0
 10
17.9361866595589
 20
15.02031854268426
 30
0.0
 10
17.93862848865235
 20
15.01748571017941
 30
0.0
 10
17.94130491106597
 20
15.0148431227866
 30
0.0
 10
17.94420949798115
 20
15.01242666924304
 30
0.0
 10
17.9472689257296
 20
15.01028078550132
 30
0.0
 10
17.95062031576305
 20
15.00835356991052
 30
0.0
 10
17.95430571812707
 20
15.00669451966303
 30
0.0
 10
17.95869383304641
 20
15.00517273920837
 30
0.0
 10
17.96376018081915
 20
15.00404066758057
 30
0.0
 10
17.96749809059987
 20
15.00390491295155
 30
0.0
 10
17.96941002756756
 20
15.00383547459989
 30
0.0
 11
17.92517444085763
 21
15.05296265666987
 31
0.0
 11
17.92538258507994
 21
15.04805488609713
 31
0.0
 11
17.92600852331708
 21
15.04338498849114
 31
0.0
 11
17.92681517433084
 21
15.03964748213968
 31
0.0
 11
17.92783535217222
 21
15.03606559746418
 31
0.0
 11
17.92899563294065
 21
15.0328549724353
 31
0.0
 11
17.93041136411966
 21
15.02964428552945
 31
0.0
 11
17.93210394221216
 21
15.02642872522136
 31
0.0
 11
17.93402730140207
 21
15.02334381597001
 31
0.0
 11
17.93622447576865
 21
15.02034947387091
 31
0.0
 11
17.93865105749592
 21
15.01753512484555
 31
0.0
 11
17.94134151844366
 21
15.01488232469467
 31
0.0
 11
17.94424315802587
 21
15.012466081323
 31
0.0
 11
17.94733098531088
 21
15.01030719337876
 31
0.0
 11
17.95049940710453
 21
15.0084880514882
 31
0.0
 11
17.95428826921613
 21
15.00676911581155
 31
0.0
 11
17.9583436853519
 21
15.00537022126531
 31
0.0
 11
17.9636937276781
 21
15.00422243532898
 31
0.0
 11
17.96941002756756
 21
15.00383547459989
 31
0.0
  0
LINE
  5
2D8
330
2
100
AcDbEntity
  8
GAIKEI
  6
Continuous
100
AcDbLine
 10
17.92517444085763
 20
15.75470829252987
 30
0.0
 11
17.92517444085763
 21
15.70383547459988
 31
0.0
  0
SPLINE
  5
2D9
330
2
100
AcDbEntity
  8
GAIKEI
  6
Continuous
100
AcDbSpline
210
0.0
220
0.0
230
1.0
 70
     8
 71
     3
 72
    25
 73
    21
 74
    19
 42
0.0000000001
 43
0.0000000001
 44
0.00000000001
 40
0.0
 40
0.0
 40
0.0
 40
0.0
 40
0.0057459737976627
 40
0.0112327474300469
 40
0.0155286356570029
 40
0.0196941525011811
 40
0.0233469330828946
 40
0.0271142994702713
 40
0.0308876886251278
 40
0.0346635131240684
 40
0.0383757932058435
 40
0.0420860802835465
 40
0.0457174063375232
 40
0.0493472118760831
 40
0.0528522829025183
 40
0.0562622740234277
 40
0.0599830991683701
 40
0.0638032172316106
 40
0.0685117708786518
 40
0.073420844928342
 40
0.073420844928342
 40
0.073420844928342
 40
0.073420844928342
 10
17.96941002756756
 20
15.8038354745999
 30
0.0
 10
17.96749254032852
 20
15.80376565276958
 30
0.0
 10
17.96374406346191
 20
15.80362915876299
 30
0.0
 10
17.95866598777607
 20
15.80249109988335
 30
0.0
 10
17.95427104338901
 20
15.80096262343699
 30
0.0
 10
17.95058404813517
 20
15.79929877282171
 30
0.0
 10
17.94723344876509
 20
15.79736757504258
 30
0.0
 10
17.94417707842484
 20
15.79521943950698
 30
0.0
 10
17.94127606547962
 20
15.79280152500422
 30
0.0
 10
17.93860392482959
 20
15.79015880571273
 30
0.0
 10
17.93616636835423
 20
15.78732669598634
 30
0.0
 10
17.93398766920356
 20
15.78435062269955
 30
0.0
 10
17.93205315319312
 20
15.78124309677571
 30
0.0
 10
17.93038393969374
 20
15.77806276476474
 30
0.0
 10
17.92896426483756
 20
15.7748443628958
 30
0.0
 10
17.9277589392958
 20
15.77150722648923
 30
0.0
 10
17.92676708605373
 20
15.76799109619361
 30
0.0
 10
17.92590273889772
 20
15.76399874045103
 30
0.0
 10
17.92528449781592
 20
15.7595526395574
 30
0.0
 10
17.92521163290351
 20
15.75634536463991
 30
0.0
 10
17.92517444085763
 20
15.75470829252987
 30
0.0
 11
17.96941002756756
 21
15.8038354745999
 31
0.0
 11
17.9636772474816
 21
15.80344631220526
 31
0.0
 11
17.95831324241788
 21
15.80229213086357
 31
0.0
 11
17.95425338319148
 21
15.80088778093557
 31
0.0
 11
17.95046162116296
 21
15.79916323134273
 31
0.0
 11
17.94729563584781
 21
15.79734132493394
 31
0.0
 11
17.94421014988694
 21
15.79517965292319
 31
0.0
 11
17.94131265646882
 21
15.79276242359896
 31
0.0
 11
17.9386261848964
 21
15.79010917631734
 31
0.0
 11
17.93620412991095
 21
15.78729587344475
 31
0.0
 11
17.93401106065067
 21
15.78430310258505
 31
0.0
 11
17.93209153274483
 21
15.78122058064207
 31
0.0
 11
17.93040229065173
 21
15.77800780156491
 31
0.0
 11
17.92898931618811
 21
15.77480015038912
 31
0.0
 11
17.92783126900411
 21
15.77159282032124
 31
0.0
 11
17.92681281709304
 21
15.76801409213038
 31
0.0
 11
17.92600744268372
 21
15.76427983529965
 31
0.0
 11
17.92538231556244
 21
15.7596129633784
 31
0.0
 11
17.92517444085763
 21
15.75470829252987
 31
0.0
  0
LINE
  5
2DA
330
2
100
AcDbEntity
  8
GAIKEI
  6
Continuous
100
AcDbLine
 10
17.89399482649765
 20
15.40383547459981
 30
0.0
 11
17.9036075836276
 21
16.02384989373985
 31
0.0
  0
SPLINE
  5
2DB
330
2
100
AcDbEntity
  8
GAIKEI
  6
Continuous
100
AcDbSpline
210
0.0
220
0.0
230
1.0
 70
     8
 71
     3
 72
    29
 73
    25
 74
    23
 42
0.0000000001
 43
0.0000000001
 44
0.00000000001
 40
0.0
 40
0.0
 40
0.0
 40
0.0
 40
0.0357972722319506
 40
0.0722090766821033
 40
0.1151755461692695
 40
0.1592800874145245
 40
0.208782073254195
 40
0.2582522800171124
 40
0.306429737659897
 40
0.3540515174683535
 40
0.3970178298331119
 40
0.4399829643937981
 40
0.4775269217764193
 40
0.5150713537877323
 40
0.5462864436007057
 40
0.5775037725123231
 40
0.6016333148290352
 40
0.6257804177917375
 40
0.6420586603883951
 40
0.6581165371032323
 40
0.6663544248698884
 40
0.6739488056993838
 40
0.6768808940119944
 40
0.6794064560308817
 40
0.6794064560308817
 40
0.6794064560308817
 40
0.6794064560308817
 10
17.94799992897771
 20
16.70572300256987
 30
0.0
 10
17.94877597639042
 20
16.717630164061
 30
0.0
 10
17.95034139363145
 20
16.74164889743281
 30
0.0
 10
17.95283862377286
 20
16.77995944284828
 30
0.0
 10
17.95551628480049
 20
16.82103319335823
 30
0.0
 10
17.95847820876798
 20
16.86646106836764
 30
0.0
 10
17.96158161652755
 20
16.91405223411169
 30
0.0
 10
17.96477388013308
 20
16.9629981278739
 30
0.0
 10
17.96792582477178
 20
17.01131858435161
 30
0.0
 10
17.97093709274372
 20
17.05747564496846
 30
0.0
 10
17.97383566466075
 20
17.10189892327446
 30
0.0
 10
17.97651586873731
 20
17.14297003237459
 30
0.0
 10
17.97907870415545
 20
17.18223766307847
 30
0.0
 10
17.98138672576962
 20
17.21759690989341
 30
0.0
 10
17.98355761786931
 20
17.25085174367837
 30
0.0
 10
17.98543740211018
 20
17.27964443333746
 30
0.0
 10
17.98716384598529
 20
17.30608612276222
 30
0.0
 10
17.98856594954481
 20
17.32755869053085
 30
0.0
 10
17.98979281582869
 20
17.34634641581022
 30
0.0
 10
17.99067416564534
 20
17.35984233722251
 30
0.0
 10
17.99136690945272
 20
17.37044978912144
 30
0.0
 10
17.99177453442034
 20
17.37669127814581
 30
0.0
 10
17.99205807335647
 20
17.38103270607882
 30
0.0
 10
17.99217663489837
 20
17.38284805531327
 30
0.0
 10
17.99223149999761
 20
17.38368811958986
 30
0.0
 11
17.94799992897771
 21
16.70572300256987
 31
0.0
 11
17.95032812434147
 21
16.74144448358055
 31
0.0
 11
17.9526965482226
 21
16.77777917873044
 31
0.0
 11
17.95549166981721
 21
16.82065463552641
 31
0.0
 11
17.95836121485627
 21
16.86466572810229
 31
0.0
 11
17.96158239201315
 21
16.91406279906601
 31
0.0
 11
17.96480200614758
 21
16.96342812537904
 31
0.0
 11
17.96793795823623
 21
17.01150341247563
 31
0.0
 11
17.97103819575039
 21
17.05902417046076
 31
0.0
 11
17.97383575218754
 21
17.10189931099938
 31
0.0
 11
17.97663360516634
 21
17.14477325187874
 31
0.0
 11
17.9790787413641
 21
17.18223750210376
 31
0.0
 11
17.98152419364305
 21
17.21970220733686
 31
0.0
 11
17.98355760212763
 21
17.25085099675101
 31
0.0
 11
17.98559135374262
 21
17.28200200762939
 31
0.0
 11
17.98716348433038
 21
17.30608028036289
 31
0.0
 11
17.98873687704235
 21
17.33017606872653
 31
0.0
 11
17.98979761165702
 21
17.34641971437992
 31
0.0
 11
17.99084404003679
 21
17.36244345901826
 31
0.0
 11
17.99138089058169
 21
17.37066383530822
 31
0.0
 11
17.99187581715932
 21
17.3782420717697
 31
0.0
 11
17.99206690490609
 21
17.38116792674663
 31
0.0
 11
17.99223149999761
 21
17.38368811958986
 31
0.0
  0
LINE
  5
2DC
330
2
100
AcDbEntity
  8
GAIKEI
  6
Continuous
100
AcDbLine
 10
18.01379402479756
 20
17.64851956368983
 30
0.0
 11
18.02943558984748
 21
17.78292595841987
 31
0.0
  0
LINE
  5
2DD
330
2
100
AcDbEntity
  8
GAIKEI
  6
Continuous
100
AcDbLine
 10
17.99223149999761
 20
17.38368811958986
 30
0.0
 11
17.99838830191754
 21
17.44462968738986
 31
0.0
  0
ARC
  5
2DE
330
2
100
AcDbEntity
  8
GAIKEI
  6
Continuous
100
AcDbCircle
 10
18.02823171170757
 20
17.44156849607992
 30
0.0
 40
0.0299999999999528
100
AcDbArc
 50
114.5656293184453
 51
174.1433617736686
  0
ARC
  5
2DF
330
2
100
AcDbEntity
  8
GAIKEI
  6
Continuous
100
AcDbCircle
 10
18.07908057501754
 20
17.77697823220984
 30
0.0
 40
0.0499999999999167
100
AcDbArc
 50
92.99999999995339
 51
173.168230947881
  0
ARC
  5
2E0
330
2
100
AcDbEntity
  8
GAIKEI
  6
Continuous
 62
     1
100
AcDbCircle
 10
39.22049482649754
 20
13.65383547459982
 30
0.0
 40
19.99999999999996
100
AcDbArc
 50
176.2955702474092
 51
177.8178259304946
  0
LINE
  5
2E1
330
2
100
AcDbEntity
  8
GAIKEI
  6
Continuous
 62
     1
100
AcDbLine
 10
19.2851078686175
 20
14.4223293234499
 30
0.0
 11
19.25544779989763
 21
14.42181160501985
 31
0.0
  0
ARC
  5
2E2
330
2
100
AcDbEntity
  8
GAIKEI
  6
Continuous
 62
     1
100
AcDbCircle
 10
19.2559714695376
 20
14.39181453892985
 30
0.0
 40
0.029999951800074
100
AcDbArc
 50
91.00013258676916
 51
154.6060649826959
  0
ARC
  5
2E3
330
2
100
AcDbEntity
  8
GAIKEI
  6
Continuous
 62
     1
100
AcDbCircle
 10
19.86429482649748
 20
13.65383547459982
 30
0.0
 40
0.699999999999962
100
AcDbArc
 50
157.8811902600933
 51
202.1188097399067
  0
ARC
  5
2E4
330
2
100
AcDbEntity
  8
GAIKEI
  6
Continuous
 62
     1
100
AcDbCircle
 10
19.24360342988757
 20
13.40156143674988
 30
0.0
 40
0.0299999999999175
100
AcDbArc
 50
202.1188097305762
 51
239.0471120195293
  0
ARC
  5
2E5
330
2
100
AcDbEntity
  8
GAIKEI
  6
Continuous
 62
     1
100
AcDbCircle
 10
39.26035967141763
 20
15.40383547459981
 30
0.0
 40
20.05000000000003
100
AcDbArc
 50
183.7288733848915
 51
183.7323085369036
  0
ARC
  5
2E6
330
2
100
AcDbEntity
  8
GAIKEI
  6
Continuous
 62
     1
100
AcDbCircle
 10
19.28674886658746
 20
13.91531920332983
 30
0.0
 40
0.029999951299965
100
AcDbArc
 50
212.7853058520266
 51
269.0002764897466
  0
ARC
  5
2E7
330
2
100
AcDbEntity
  8
GAIKEI
  6
Continuous
 62
     1
100
AcDbCircle
 10
19.24360342988757
 20
13.90610951244986
 30
0.0
 40
0.0299999999999555
100
AcDbArc
 50
120.9528879804707
 51
157.8811902760402
  0
LINE
  5
2E8
330
2
100
AcDbEntity
  8
GAIKEI
  6
Continuous
 62
     1
100
AcDbLine
 10
19.22840883901756
 20
13.09125404130981
 30
0.0
 11
19.26228230542756
 21
12.36164626106978
 31
0.0
  0
LINE
  5
2E9
330
2
100
AcDbEntity
  8
GAIKEI
  6
Continuous
 62
     1
100
AcDbLine
 10
19.22839696799747
 20
13.09209791345978
 30
0.0
 11
19.22839696799747
 21
13.96859185571992
 31
0.0
  0
ARC
  5
2EA
330
2
100
AcDbEntity
  8
GAIKEI
  6
Continuous
 62
     1
100
AcDbCircle
 10
19.69964080434749
 20
14.18123001533985
 30
0.0
 40
0.5211100644499692
100
AcDbArc
 50
154.6088079988156
 51
212.782529100599
  0
LINE
  5
2EB
330
2
100
AcDbEntity
  8
GAIKEI
  6
Continuous
 62
     1
100
AcDbLine
 10
19.16764851103767
 20
16.43000302339982
 30
0.0
 11
19.16099439148752
 21
16.28015068709982
 31
0.0
  0
ARC
  5
2EC
330
2
100
AcDbEntity
  8
GAIKEI
  6
Continuous
 62
     1
100
AcDbCircle
 10
19.29409738130766
 20
16.34931421867992
 30
0.0
 40
0.1499999999999902
100
AcDbArc
 50
147.4574791946115
 51
207.4574791945888
  0
LINE
  5
2ED
330
2
100
AcDbEntity
  8
GAIKEI
  6
Continuous
 62
     1
100
AcDbLine
 10
19.26046528428765
 20
15.46883547459976
 30
0.0
 11
19.2403898197075
 21
15.46883547459976
 31
0.0
  0
LINE
  5
2EE
330
2
100
AcDbEntity
  8
GAIKEI
  6
Continuous
 62
     1
100
AcDbLine
 10
19.26046528428765
 20
15.33883547459987
 30
0.0
 11
19.2403898197075
 21
15.33883547459987
 31
0.0
  0
LINE
  5
2EF
330
2
100
AcDbEntity
  8
GAIKEI
  6
Continuous
 62
     1
100
AcDbLine
 10
19.26174038973761
 20
15.1688354745998
 30
0.0
 11
19.24211701030765
 21
15.1688354745998
 31
0.0
  0
LINE
  5
2F0
330
2
100
AcDbEntity
  8
GAIKEI
  6
Continuous
 62
     1
100
AcDbLine
 10
19.26369050374762
 20
15.0388354745998
 30
0.0
 11
19.24315840666759
 21
15.0388354745998
 31
0.0
  0
LINE
  5
2F1
330
2
100
AcDbEntity
  8
GAIKEI
  6
Continuous
 62
     1
100
AcDbLine
 10
19.26155001637767
 20
15.18575282958983
 30
0.0
 11
19.2308286965075
 21
15.18628907221983
 31
0.0
  0
ARC
  5
2F2
330
2
100
AcDbEntity
  8
GAIKEI
  6
Continuous
 62
     1
100
AcDbCircle
 10
19.28035967917765
 20
15.40439234343984
 30
0.0
 40
0.0700000000000514
100
AcDbArc
 50
107.0128401091164
 51
107.8260020094724
  0
ARC
  5
2F3
330
2
100
AcDbEntity
  8
GAIKEI
  6
Continuous
 62
     1
100
AcDbCircle
 10
19.28035967917765
 20
15.40327859204984
 30
0.0
 40
0.0700000000000107
100
AcDbArc
 50
252.1739200363148
 51
252.9872827411539
  0
ARC
  5
2F4
330
2
100
AcDbEntity
  8
GAIKEI
  6
Continuous
 62
     1
100
AcDbCircle
 10
19.23135227175748
 20
15.21628569504986
 30
0.0
 40
0.0299999645399627
100
AcDbArc
 50
208.9015582429887
 51
269.0000308095097
  0
ARC
  5
2F5
330
2
100
AcDbEntity
  8
GAIKEI
  6
Continuous
 62
     1
100
AcDbCircle
 10
39.26035967141763
 20
15.40383547459981
 30
0.0
 40
20.05000000000004
100
AcDbArc
 50
180.7584413064049
 51
180.9587818212999
  0
ARC
  5
2F6
330
2
100
AcDbEntity
  8
GAIKEI
  6
Continuous
 62
     1
100
AcDbCircle
 10
39.26035967141763
 20
15.40383547459981
 30
0.0
 40
20.05000000000001
100
AcDbArc
 50
179.8998410065935
 51
180.1001589934065
  0
ARC
  5
2F7
330
2
100
AcDbEntity
  8
GAIKEI
  6
Continuous
 62
     1
100
AcDbCircle
 10
19.24039026271748
 20
15.36883590424992
 30
0.0
 40
0.0299999999999955
100
AcDbArc
 50
180.1001662680807
 51
269.9999975406587
  0
ARC
  5
2F8
330
2
100
AcDbEntity
  8
GAIKEI
  6
Continuous
 62
     1
100
AcDbCircle
 10
19.24039026271748
 20
15.43883504494982
 30
0.0
 40
0.0299999999999727
100
AcDbArc
 50
90.00000245934128
 51
179.8998337319192
  0
ARC
  5
2F9
330
2
100
AcDbEntity
  8
GAIKEI
  6
Continuous
 62
     1
100
AcDbCircle
 10
19.24316268024768
 20
15.06883590424985
 30
0.0
 40
0.029999999999998
100
AcDbArc
 50
180.9587890788188
 51
269.99997637714
  0
ARC
  5
2FA
330
2
100
AcDbEntity
  8
GAIKEI
  6
Continuous
 62
     1
100
AcDbCircle
 10
19.24211362268761
 20
15.13883504502991
 30
0.0
 40
0.0300000000000579
100
AcDbArc
 50
89.99998135496761
 51
180.7584340460091
  0
ARC
  5
2FB
330
2
100
AcDbEntity
  8
GAIKEI
  6
Continuous
 62
     1
100
AcDbCircle
 10
19.31217783672753
 20
14.94279421509981
 30
0.0
 40
0.0499999999998841
100
AcDbArc
 50
166.368555358028
 51
176.2955702475398
  0
SPLINE
  5
2FC
330
2
100
AcDbEntity
  8
GAIKEI
  6
Continuous
 62
     1
100
AcDbSpline
210
0.0
220
0.0
230
1.0
 70
     8
 71
     3
 72
     9
 73
     5
 74
     3
 42
0.0000000001
 43
0.0000000001
 44
0.00000000001
 40
0.0
 40
0.0
 40
0.0
 40
0.0
 40
0.0010059995708624
 40
0.002011952907896
 40
0.002011952907896
 40
0.002011952907896
 40
0.002011952907896
 10
19.20448493787762
 20
15.20265106975984
 30
0.0
 10
19.20433501021026
 20
15.20295108649031
 30
0.0
 10
19.20403516176591
 20
15.2035511061631
 30
0.0
 10
19.20376604571221
 20
15.20416552396727
 30
0.0
 10
19.20363149077747
 20
15.20447272580992
 30
0.0
 11
19.20448493787762
 21
15.20265106975984
 31
0.0
 11
19.2040428383263
 21
15.20355471964961
 31
0.0
 11
19.20363149077747
 21
15.20447272580992
 31
0.0
  0
SPLINE
  5
2FD
330
2
100
AcDbEntity
  8
GAIKEI
  6
Continuous
 62
     1
100
AcDbSpline
210
0.0
220
0.0
230
1.0
 70
    24
 71
     3
 72
     9
 73
     5
 74
     3
 42
0.0000000001
 43
0.0000000001
 44
0.00000000001
 40
0.0
 40
0.0
 40
0.0
 40
0.0
 40
0.0005196047177805
 40
0.0010392094354071
 40
0.0010392094354071
 40
0.0010392094354071
 40
0.0010392094354071
 10
19.20497330492765
 20
15.20173376180986
 30
0.0
 10
19.20489191041929
 20
15.20188664646815
 30
0.0
 10
19.20472912140259
 20
15.20219241578479
 30
0.0
 10
19.20456633238593
 20
15.20249818510154
 30
0.0
 10
19.20448493787762
 20
15.20265106975984
 30
0.0
 11
19.20497330492765
 21
15.20173376180986
 31
0.0
 11
19.20472912140258
 21
15.2021924157849
 31
0.0
 11
19.20448493787762
 21
15.20265106975984
 31
0.0
  0
SPLINE
  5
2FE
330
2
100
AcDbEntity
  8
GAIKEI
  6
Continuous
 62
     1
100
AcDbSpline
210
0.0
220
0.0
230
1.0
 70
    24
 71
     3
 72
     9
 73
     5
 74
     3
 42
0.0000000001
 43
0.0000000001
 44
0.00000000001
 40
0.0
 40
0.0
 40
0.0
 40
0.0
 40
0.0007003041720069
 40
0.0014006083440222
 40
0.0014006083440222
 40
0.0014006083440222
 40
0.0014006083440222
 10
19.20568127465765
 20
15.20052525752987
 30
0.0
 10
19.20556327970267
 20
15.2007266749099
 30
0.0
 10
19.20532728979273
 20
15.20112950966995
 30
0.0
 10
19.20509129988267
 20
15.20153234442983
 30
0.0
 10
19.20497330492765
 20
15.20173376180986
 30
0.0
 11
19.20568127465765
 21
15.20052525752987
 31
0.0
 11
19.2053272897927
 21
15.20112950966989
 31
0.0
 11
19.20497330492765
 21
15.20173376180986
 31
0.0
  0
SPLINE
  5
2FF
330
2
100
AcDbEntity
  8
GAIKEI
  6
Continuous
 62
     1
100
AcDbSpline
210
0.0
220
0.0
230
1.0
 70
    24
 71
     3
 72
     9
 73
     5
 74
     3
 42
0.0000000001
 43
0.0000000001
 44
0.00000000001
 40
0.0
 40
0.0
 40
0.0
 40
0.0
 40
0.0023928721916912
 40
0.0047857443832694
 40
0.0047857443832694
 40
0.0047857443832694
 40
0.0047857443832694
 10
19.2085125542477
 20
15.19666686340992
 30
0.0
 10
19.20804067431601
 20
15.19730992909655
 30
0.0
 10
19.20709691445262
 20
15.19859606046981
 30
0.0
 10
19.20615315458929
 20
15.19988219184319
 30
0.0
 10
19.20568127465765
 20
15.20052525752987
 30
0.0
 11
19.2085125542477
 21
15.19666686340992
 31
0.0
 11
19.20709691445262
 21
15.19859606046992
 31
0.0
 11
19.20568127465765
 21
15.20052525752987
 31
0.0
  0
SPLINE
  5
300
330
2
100
AcDbEntity
  8
GAIKEI
  6
Continuous
 62
     1
100
AcDbSpline
210
0.0
220
0.0
230
1.0
 70
    24
 71
     3
 72
     9
 73
     5
 74
     3
 42
0.0000000001
 43
0.0000000001
 44
0.00000000001
 40
0.0
 40
0.0
 40
0.0
 40
0.0
 40
0.0010787906060202
 40
0.0021575812119571
 40
0.0021575812119571
 40
0.0021575812119571
 40
0.0021575812119571
 10
19.20998175843761
 20
15.19508680146981
 30
0.0
 10
19.20973689107263
 20
15.19535014512655
 30
0.0
 10
19.20924715634268
 20
15.19587683243992
 30
0.0
 10
19.20875742161269
 20
15.19640351975323
 30
0.0
 10
19.2085125542477
 20
15.19666686340992
 30
0.0
 11
19.20998175843761
 21
15.19508680146981
 31
0.0
 11
19.20924715634265
 21
15.19587683243992
 31
0.0
 11
19.2085125542477
 21
15.19666686340992
 31
0.0
  0
SPLINE
  5
301
330
2
100
AcDbEntity
  8
GAIKEI
  6
Continuous
 62
     1
100
AcDbSpline
210
0.0
220
0.0
230
1.0
 70
     8
 71
     3
 72
     9
 73
     5
 74
     3
 42
0.0000000001
 43
0.0000000001
 44
0.00000000001
 40
0.0
 40
0.0
 40
0.0
 40
0.0
 40
0.0068064517796964
 40
0.013596240881866
 40
0.013596240881866
 40
0.013596240881866
 40
0.013596240881866
 10
19.22143500420759
 20
15.18792393958989
 30
0.0
 10
19.21931931660256
 20
15.18879236567414
 30
0.0
 10
19.21509312074607
 20
15.19052709187389
 30
0.0
 10
19.21168415327007
 20
15.19356814057568
 30
0.0
 10
19.20998175843761
 20
15.19508680146981
 30
0.0
 11
19.22143500420759
 21
15.18792393958989
 31
0.0
 11
19.21529274956572
 21
15.19085659943101
 31
0.0
 11
19.20998175843761
 21
15.19508680146981
 31
0.0
  0
SPLINE
  5
302
330
2
100
AcDbEntity
  8
GAIKEI
  6
Continuous
 62
     1
100
AcDbSpline
210
0.0
220
0.0
230
1.0
 70
     8
 71
     3
 72
    11
 73
     7
 74
     5
 42
0.0000000001
 43
0.0000000001
 44
0.00000000001
 40
0.0
 40
0.0
 40
0.0
 40
0.0
 40
0.002221849774376
 40
0.0044919632687985
 40
0.0069465691522269
 40
0.0094271002349889
 40
0.0094271002349889
 40
0.0094271002349889
 40
0.0094271002349889
 10
19.23068304601759
 20
15.18629242596984
 30
0.0
 10
19.2299426248249
 20
15.1863217371702
 30
0.0
 10
19.22844569877738
 20
15.18638099627821
 30
0.0
 10
19.22614847811228
 20
15.18669176215502
 30
0.0
 10
19.22379130936412
 20
15.1871714211419
 30
0.0
 10
19.22222318514325
 20
15.1876722231716
 30
0.0
 10
19.22143500420759
 20
15.18792393958989
 30
0.0
 11
19.23068304601759
 21
15.18629242596984
 31
0.0
 11
19.22846458133625
 21
15.18641502644931
 31
0.0
 11
19.22621336444388
 21
15.18670732386812
 31
0.0
 11
19.22381126567563
 21
15.18721231055167
 31
0.0
 11
19.22143500420759
 21
15.18792393958989
 31
0.0
  0
SPLINE
  5
303
330
2
100
AcDbEntity
  8
GAIKEI
  6
Continuous
 62
     1
100
AcDbSpline
210
0.0
220
0.0
230
1.0
 70
     8
 71
     3
 72
     9
 73
     5
 74
     3
 42
0.0000000001
 43
0.0000000001
 44
0.00000000001
 40
0.0
 40
0.0
 40
0.0
 40
0.0
 40
0.0010059995708624
 40
0.002011952907896
 40
0.002011952907896
 40
0.002011952907896
 40
0.002011952907896
 10
19.20448493787762
 20
15.20265106975984
 30
0.0
 10
19.20433501021026
 20
15.20295108649031
 30
0.0
 10
19.20403516176591
 20
15.2035511061631
 30
0.0
 10
19.20376604571221
 20
15.20416552396727
 30
0.0
 10
19.20363149077747
 20
15.20447272580992
 30
0.0
 11
19.20448493787762
 21
15.20265106975984
 31
0.0
 11
19.2040428383263
 21
15.20355471964961
 31
0.0
 11
19.20363149077747
 21
15.20447272580992
 31
0.0
  0
SPLINE
  5
304
330
2
100
AcDbEntity
  8
GAIKEI
  6
Continuous
 62
     1
100
AcDbSpline
210
0.0
220
0.0
230
1.0
 70
    24
 71
     3
 72
     9
 73
     5
 74
     3
 42
0.0000000001
 43
0.0000000001
 44
0.00000000001
 40
0.0
 40
0.0
 40
0.0
 40
0.0
 40
0.0005196047177805
 40
0.0010392094354071
 40
0.0010392094354071
 40
0.0010392094354071
 40
0.0010392094354071
 10
19.20497330492765
 20
15.20173376180986
 30
0.0
 10
19.20489191041929
 20
15.20188664646815
 30
0.0
 10
19.20472912140259
 20
15.20219241578479
 30
0.0
 10
19.20456633238593
 20
15.20249818510154
 30
0.0
 10
19.20448493787762
 20
15.20265106975984
 30
0.0
 11
19.20497330492765
 21
15.20173376180986
 31
0.0
 11
19.20472912140258
 21
15.2021924157849
 31
0.0
 11
19.20448493787762
 21
15.20265106975984
 31
0.0
  0
SPLINE
  5
305
330
2
100
AcDbEntity
  8
GAIKEI
  6
Continuous
 62
     1
100
AcDbSpline
210
0.0
220
0.0
230
1.0
 70
    24
 71
     3
 72
     9
 73
     5
 74
     3
 42
0.0000000001
 43
0.0000000001
 44
0.00000000001
 40
0.0
 40
0.0
 40
0.0
 40
0.0
 40
0.0007003041720069
 40
0.0014006083440222
 40
0.0014006083440222
 40
0.0014006083440222
 40
0.0014006083440222
 10
19.20568127465765
 20
15.20052525752987
 30
0.0
 10
19.20556327970267
 20
15.2007266749099
 30
0.0
 10
19.20532728979273
 20
15.20112950966995
 30
0.0
 10
19.20509129988267
 20
15.20153234442983
 30
0.0
 10
19.20497330492765
 20
15.20173376180986
 30
0.0
 11
19.20568127465765
 21
15.20052525752987
 31
0.0
 11
19.2053272897927
 21
15.20112950966989
 31
0.0
 11
19.20497330492765
 21
15.20173376180986
 31
0.0
  0
LINE
  5
306
330
2
100
AcDbEntity
  8
GAIKEI
  6
Continuous
 62
     1
100
AcDbLine
 10
19.25616757078762
 20
16.31647859141986
 30
0.0
 11
19.25616477074754
 21
16.31641870871982
 31
0.0
  0
LINE
  5
307
330
2
100
AcDbEntity
  8
GAIKEI
  6
Continuous
 62
     1
100
AcDbLine
 10
19.24491728057751
 20
16.01604315506989
 30
0.0
 11
19.23974429983752
 21
16.01613344978995
 31
0.0
  0
LINE
  5
308
330
2
100
AcDbEntity
  8
GAIKEI
  6
Continuous
 62
     1
100
AcDbLine
 10
19.26565046505755
 20
15.86198969320986
 30
0.0
 11
19.23446650921767
 21
15.86144537522995
 31
0.0
  0
LINE
  5
309
330
2
100
AcDbEntity
  8
GAIKEI
  6
Continuous
 62
     1
100
AcDbLine
 10
19.26369050374762
 20
15.76883547459982
 30
0.0
 11
19.24315840666759
 21
15.76883547459982
 31
0.0
  0
LINE
  5
30A
330
2
100
AcDbEntity
  8
GAIKEI
  6
Continuous
 62
     1
100
AcDbLine
 10
19.26174038973761
 20
15.63883547459983
 30
0.0
 11
19.24211701030765
 21
15.63883547459983
 31
0.0
  0
ARC
  5
30B
330
2
100
AcDbEntity
  8
GAIKEI
  6
Continuous
 62
     1
100
AcDbCircle
 10
19.23257625738756
 20
15.69140661840987
 30
0.0
 40
0.0299999645200544
100
AcDbArc
 50
137.0203257912479
 51
150.8032356857425
  0
ARC
  5
30C
330
2
100
AcDbEntity
  8
GAIKEI
  6
Continuous
 62
     1
100
AcDbCircle
 10
39.26035967141763
 20
15.40383547459981
 30
0.0
 40
20.04999999999997
100
AcDbArc
 50
179.0412181787
 51
179.2415586935951
  0
ARC
  5
30D
330
2
100
AcDbEntity
  8
GAIKEI
  6
Continuous
 62
     1
100
AcDbCircle
 10
19.24211362268761
 20
15.66883590416984
 30
0.0
 40
0.0299999999999971
100
AcDbArc
 50
179.2415659539648
 51
270.0000186450324
  0
ARC
  5
30E
330
2
100
AcDbEntity
  8
GAIKEI
  6
Continuous
 62
     1
100
AcDbCircle
 10
19.24316268024768
 20
15.73883504494989
 30
0.0
 40
0.0300000000000962
100
AcDbArc
 50
90.00002362285998
 51
179.0412109211811
  0
ARC
  5
30F
330
2
100
AcDbEntity
  8
GAIKEI
  6
Continuous
 62
     1
100
AcDbCircle
 10
19.96001399610759
 20
16.31974451776995
 30
0.0
 40
0.8000000000001406
100
AcDbArc
 50
182.8368581857928
 51
200.814589084901
  0
ARC
  5
310
330
2
100
AcDbEntity
  8
GAIKEI
  6
Continuous
 62
     1
100
AcDbCircle
 10
19.24026790384766
 20
16.04612956393992
 30
0.0
 40
0.0299999893900436
100
AcDbArc
 50
200.8157935727937
 51
268.9999599216911
  0
SPLINE
  5
311
330
2
100
AcDbEntity
  8
GAIKEI
  6
Continuous
 62
     1
100
AcDbSpline
210
0.0
220
0.0
230
1.0
 70
     8
 71
     3
 72
    19
 73
    15
 74
    13
 42
0.0000000001
 43
0.0000000001
 44
0.00000000001
 40
0.0
 40
0.0
 40
0.0
 40
0.0
 40
0.0533627412774246
 40
0.1059372303675445
 40
0.1517325364332793
 40
0.1969648343186778
 40
0.2355712571187158
 40
0.274403006047757
 40
0.3073328514285962
 40
0.3396985476520927
 40
0.3682128093676708
 40
0.3968416313571557
 40
0.4256515539683724
 40
0.4551402521064093
 40
0.4551402521064093
 40
0.4551402521064093
 40
0.4551402521064093
 10
19.24059147645755
 20
15.86155469855993
 30
0.0
 10
19.24101119961393
 20
15.8793373370641
 30
0.0
 10
19.24184444595109
 20
15.91463993634335
 30
0.0
 10
19.2432105568389
 20
15.96519908962585
 30
0.0
 10
19.24461289852759
 20
16.01304593429796
 30
0.0
 10
19.2459749825085
 20
16.0562358444962
 30
0.0
 10
19.24735089590109
 20
16.09710287036603
 30
0.0
 10
19.24866068309933
 20
16.13386890967746
 30
0.0
 10
19.24995697839469
 20
16.16855380627845
 30
0.0
 10
19.25117713399842
 20
16.19979994145166
 30
0.0
 10
19.25238776114024
 20
16.22961164014623
 30
0.0
 10
19.25358861610483
 20
16.2582374720904
 30
0.0
 10
19.25484279190857
 20
16.28718614746873
 30
0.0
 10
19.2557206489479
 20
16.30659918648496
 30
0.0
 10
19.2561646879476
 20
16.31641871977985
 30
0.0
 11
19.24059147645755
 21
15.86155469855993
 31
0.0
 11
19.24188123369731
 21
15.91490185108847
 31
0.0
 11
19.24329300546424
 21
15.96745738175428
 31
0.0
 11
19.24463548434249
 21
16.01323300636079
 31
0.0
 11
19.2460619082766
 21
16.05844280714285
 31
0.0
 11
19.24736090060503
 21
16.0970273701227
 31
0.0
 11
19.24874294649925
 21
16.13583451732569
 31
0.0
 11
19.24997326098838
 21
16.16874137136955
 31
0.0
 11
19.25123615071106
 21
16.20108241961446
 31
0.0
 11
19.25239255520972
 21
16.22957322251329
 31
0.0
 11
19.25359260389166
 21
16.2581768819237
 31
0.0
 11
19.25484196941033
 21
16.28695970191524
 31
0.0
 11
19.2561646879476
 21
16.31641871977985
 31
0.0
  0
SPLINE
  5
312
330
2
100
AcDbEntity
  8
GAIKEI
  6
Continuous
 62
     1
100
AcDbSpline
210
0.0
220
0.0
230
1.0
 70
    24
 71
     3
 72
     9
 73
     5
 74
     3
 42
0.0000000001
 43
0.0000000001
 44
0.00000000001
 40
0.0
 40
0.0
 40
0.0
 40
0.0
 40
0.0468298062986251
 40
0.0936596125973053
 40
0.0936596125973053
 40
0.0936596125973053
 40
0.0936596125973053
 10
19.24207409292757
 20
15.92236007580993
 30
0.0
 10
19.24251478657757
 20
15.93796378925657
 30
0.0
 10
19.24339617387763
 20
15.9691712161499
 30
0.0
 10
19.24427756117762
 20
16.00037864304323
 30
0.0
 10
19.2447182548276
 20
16.01598235648993
 30
0.0
 11
19.24207409292757
 21
15.92236007580993
 31
0.0
 11
19.24339617387761
 21
15.9691712161499
 31
0.0
 11
19.2447182548276
 21
16.01598235648993
 31
0.0
  0
SPLINE
  5
313
330
2
100
AcDbEntity
  8
GAIKEI
  6
Continuous
 62
     1
100
AcDbSpline
210
0.0
220
0.0
230
1.0
 70
    24
 71
     3
 72
     9
 73
     5
 74
     3
 42
0.0000000001
 43
0.0000000001
 44
0.00000000001
 40
0.0
 40
0.0
 40
0.0
 40
0.0
 40
0.025742587943034
 40
0.0514851758860112
 40
0.0514851758860112
 40
0.0514851758860112
 40
0.0514851758860112
 10
19.24080710156778
 20
15.87089049188984
 30
0.0
 10
19.24101826679441
 20
15.87946875587653
 30
0.0
 10
19.2414405972477
 20
15.89662528384991
 30
0.0
 10
19.24186292770093
 20
15.91378181182324
 30
0.0
 10
19.24207409292757
 20
15.92236007580993
 30
0.0
 11
19.24080710156778
 21
15.87089049188984
 31
0.0
 11
19.24144059724767
 21
15.89662528384991
 31
0.0
 11
19.24207409292757
 21
15.92236007580993
 31
0.0
  0
SPLINE
  5
314
330
2
100
AcDbEntity
  8
GAIKEI
  6
Continuous
 62
     1
100
AcDbSpline
210
0.0
220
0.0
230
1.0
 70
    24
 71
     3
 72
     9
 73
     5
 74
     3
 42
0.0000000001
 43
0.0000000001
 44
0.00000000001
 40
0.0
 40
0.0
 40
0.0
 40
0.0
 40
0.0046691552343589
 40
0.0093383104687217
 40
0.0093383104687217
 40
0.0093383104687217
 40
0.0093383104687217
 10
19.24059147540754
 20
15.86155467120983
 30
0.0
 10
19.24062741310087
 20
15.86311064132314
 30
0.0
 10
19.24069928848752
 20
15.86622258154978
 30
0.0
 10
19.24077116387437
 20
15.86933452177658
 30
0.0
 10
19.24080710156778
 20
15.87089049188984
 30
0.0
 11
19.24059147540754
 21
15.86155467120983
 31
0.0
 11
19.24069928848757
 21
15.86622258154983
 31
0.0
 11
19.24080710156778
 21
15.87089049188984
 31
0.0
  0
SPLINE
  5
315
330
2
100
AcDbEntity
  8
GAIKEI
  6
Continuous
 62
     1
100
AcDbSpline
210
0.0
220
0.0
230
1.0
 70
     8
 71
     3
 72
    21
 73
    17
 74
    15
 42
0.0000000001
 43
0.0000000001
 44
0.00000000001
 40
0.0
 40
0.0
 40
0.0
 40
0.0
 40
0.0029978096883302
 40
0.0059978846813105
 40
0.0089967424726153
 40
0.0119938966363721
 40
0.0149854740894973
 40
0.0179781826422439
 40
0.0209646435321938
 40
0.0239510487198207
 40
0.0269654787455106
 40
0.0300626980703286
 40
0.0328186500499933
 40
0.0355006373839661
 40
0.0374320526364211
 40
0.0392016038591257
 40
0.0392016038591257
 40
0.0392016038591257
 40
0.0392016038591257
 10
19.25616829286752
 20
16.31648096381985
 30
0.0
 10
19.25625056624281
 20
16.31747807611953
 30
0.0
 10
19.25641517516352
 20
16.31947305419015
 30
0.0
 10
19.25711762797257
 20
16.32239977423353
 30
0.0
 10
19.25813582027561
 20
16.32522624946699
 30
0.0
 10
19.25949375261746
 20
16.32790543644864
 30
0.0
 10
19.26115650473362
 20
16.33040340970689
 30
0.0
 10
19.26310681602268
 20
16.33267968480538
 30
0.0
 10
19.2653111385454
 20
16.33470797817847
 30
0.0
 10
19.26774836217697
 20
16.3364625815326
 30
0.0
 10
19.27041418235035
 20
16.33792437343652
 30
0.0
 10
19.2731632614023
 20
16.33902755837187
 30
0.0
 10
19.27590839167979
 20
16.33979993717952
 30
0.0
 10
19.27834419246162
 20
16.34015752021469
 30
0.0
 10
19.28046986329139
 20
16.34029121267491
 30
0.0
 10
19.28170369208764
 20
16.34026509928316
 30
0.0
 10
19.28229362535768
 20
16.34025261362984
 30
0.0
 11
19.25616829286752
 21
16.31648096381985
 31
0.0
 11
19.25649097999167
 21
16.31946135573156
 31
0.0
 11
19.25717038968304
 21
16.32238348721983
 31
0.0
 11
19.2581928696398
 21
16.3252026507111
 31
0.0
 11
19.2595456577136
 21
16.32787714085106
 31
0.0
 11
19.2612045641182
 21
16.3303666318028
 31
0.0
 11
19.26315080095708
 21
16.33264005799441
 31
0.0
 11
19.26534896155664
 21
16.33466170055078
 31
0.0
 11
19.26777319845314
 21
16.33640574510707
 31
0.0
 11
19.27041520565507
 21
16.33785715350058
 31
0.0
 11
19.27328809045275
 21
16.33901443500707
 31
0.0
 11
19.27594461832689
 21
16.3397480091125
 31
0.0
 11
19.27859616526905
 21
16.34015094195194
 31
0.0
 11
19.28052412767994
 21
16.34026637946584
 31
0.0
 11
19.28229362535768
 21
16.34025261362984
 31
0.0
  0
SPLINE
  5
316
330
2
100
AcDbEntity
  8
GAIKEI
  6
Continuous
 62
     1
100
AcDbSpline
210
0.0
220
0.0
230
1.0
 70
     8
 71
     3
 72
    15
 73
    11
 74
     9
 42
0.0000000001
 43
0.0000000001
 44
0.00000000001
 40
0.0
 40
0.0
 40
0.0
 40
0.0
 40
0.0026120207317831
 40
0.0054373894731513
 40
0.0091635948479949
 40
0.0128586507422166
 40
0.0174703529543315
 40
0.0221091304191828
 40
0.0279344834046519
 40
0.0340559425795644
 40
0.0340559425795644
 40
0.0340559425795644
 40
0.0340559425795644
 10
19.20756234836756
 20
15.8436025643299
 30
0.0
 10
19.20793880971794
 20
15.84438822772944
 30
0.0
 10
19.2087224815161
 20
15.84602372696054
 30
0.0
 10
19.21032903237187
 20
15.84862721484427
 30
0.0
 10
19.21238880621234
 20
15.85136396199146
 30
0.0
 10
19.21526499217984
 20
15.8541789320667
 30
0.0
 10
19.21874691267416
 20
15.85675322910208
 30
0.0
 10
19.22315567498691
 20
15.85918585471381
 30
0.0
 10
19.22843637345171
 20
15.86102087788254
 30
0.0
 10
19.23242353184034
 20
15.86130108448571
 30
0.0
 10
19.23446652263755
 20
15.86144466029981
 30
0.0
 11
19.20756234836756
 21
15.8436025643299
 31
0.0
 11
19.20873087154314
 21
15.84593863065845
 31
0.0
 11
19.21020241364186
 21
15.84835053289038
 31
0.0
 11
19.21246617403688
 21
15.85131026182551
 31
0.0
 11
19.21509510345231
 21
15.85390683036689
 31
0.0
 11
19.21879359523063
 21
15.85666163632356
 31
0.0
 11
19.22286204058446
 21
15.85889009066938
 31
0.0
 11
19.22838570222865
 21
15.86074046885932
 31
0.0
 11
19.23446652263755
 21
15.86144466029981
 31
0.0
  0
LINE
  5
317
330
2
100
AcDbEntity
  8
GAIKEI
  6
Continuous
 62
     1
100
AcDbLine
 10
19.14373666517758
 20
15.60662143863982
 30
0.0
 11
19.14154961459758
 21
15.46271274190991
 31
0.0
  0
ARC
  5
318
330
2
100
AcDbEntity
  8
GAIKEI
  6
Continuous
 62
     1
100
AcDbCircle
 10
19.6597060585475
 20
15.45274422742994
 30
0.0
 40
0.5192853671600197
100
AcDbArc
 50
150.8052328405965
 51
208.8995620777908
  0
ARC
  5
319
330
2
100
AcDbEntity
  8
GAIKEI
  6
Continuous
 62
     1
100
AcDbCircle
 10
19.2724857968775
 20
15.5296561147199
 30
0.0
 40
0.1499999999999612
100
AcDbArc
 50
149.1293151489477
 51
208.6237439880999
  0
ARC
  5
31A
330
2
100
AcDbEntity
  8
GAIKEI
  6
Continuous
 62
     1
100
AcDbCircle
 10
19.93898163871756
 20
15.51952705265984
 30
0.0
 40
0.7999999999999666
100
AcDbArc
 50
156.1029399246929
 51
173.7499361578035
  0
ARC
  5
31B
330
2
100
AcDbEntity
  8
GAIKEI
  6
Continuous
 62
     1
100
AcDbCircle
 10
39.26035967141763
 20
15.40383547459981
 30
0.0
 40
20.05000000000007
100
AcDbArc
 50
176.2676914630963
 51
176.2711266151085
  0
LINE
  5
31C
330
2
100
AcDbEntity
  8
GAIKEI
  6
Continuous
 62
     1
100
AcDbLine
 10
19.28961930478761
 20
16.48526287833982
 30
0.0
 11
19.26077450065759
 21
16.48576636626984
 31
0.0
  0
ARC
  5
31D
330
2
100
AcDbEntity
  8
GAIKEI
  6
Continuous
 62
     1
100
AcDbCircle
 10
19.26129814923763
 20
16.51576298876983
 30
0.0
 40
0.0299999649399685
100
AcDbArc
 50
205.103149477921
 51
268.9998905080851
  0
ARC
  5
31E
330
2
100
AcDbEntity
  8
GAIKEI
  6
Continuous
 62
     1
100
AcDbCircle
 10
19.70630448085762
 20
16.72422887481985
 30
0.0
 40
0.5214155325700385
100
AcDbArc
 50
146.9141874037892
 51
205.1011449219081
  0
ARC
  5
31F
330
2
100
AcDbEntity
  8
GAIKEI
  6
Continuous
 62
     1
100
AcDbCircle
 10
19.96001399610759
 20
16.31974451776995
 30
0.0
 40
0.8000000000000191
100
AcDbArc
 50
160.3773340600912
 51
172.0781002034876
  0
ARC
  5
320
330
2
100
AcDbEntity
  8
GAIKEI
  6
S10
 62
     1
100
AcDbCircle
 10
-4.947494301181507
 20
19.20383509830713
 30
0.0
 40
0.3
100
AcDbArc
 50
270.0
 51
90.0
  0
ARC
  5
321
330
2
100
AcDbEntity
  8
GAIKEI
  6
S10
 62
     1
100
AcDbCircle
 10
-5.347494301181541
 20
19.20383509830713
 30
0.0
 40
0.3
100
AcDbArc
 50
90.0
 51
270.0
  0
LINE
  5
322
330
2
100
AcDbEntity
  8
GAIKEI
  6
S10
 62
     1
100
AcDbLine
 10
-7.217494301181432
 20
19.80383509830716
 30
0.0
 11
-7.217494301181432
 21
11.00383509830715
 31
0.0
  0
LINE
  5
323
330
2
100
AcDbEntity
  8
GAIKEI
  6
S10
 62
     1
100
AcDbLine
 10
-4.447494301181507
 20
11.20383509830713
 30
0.0
 11
-4.44749430118162
 21
19.60383509830711
 31
0.0
  0
ARC
  5
324
330
2
100
AcDbEntity
  8
GAIKEI
  6
S10
 62
     1
100
AcDbCircle
 10
-4.947494301181507
 20
11.60383509830711
 30
0.0
 40
0.3
100
AcDbArc
 50
270.0
 51
90.0
  0
ARC
  5
325
330
2
100
AcDbEntity
  8
GAIKEI
  6
S10
 62
     1
100
AcDbCircle
 10
-4.647494301181723
 20
11.20383509830713
 30
0.0
 40
0.2000000000001819
100
AcDbArc
 50
270.0000000000521
 51
0.0
  0
LINE
  5
326
330
2
100
AcDbEntity
  8
GAIKEI
  6
S10
 62
     1
100
AcDbLine
 10
-4.947494301181507
 20
11.30383509830716
 30
0.0
 11
-5.347494301181541
 21
11.30383509830716
 31
0.0
  0
LINE
  5
327
330
2
100
AcDbEntity
  8
GAIKEI
  6
S10
 62
     1
100
AcDbLine
 10
-4.947494301181507
 20
11.90383509830712
 30
0.0
 11
-5.347494301181541
 21
11.90383509830712
 31
0.0
  0
ARC
  5
328
330
2
100
AcDbEntity
  8
GAIKEI
  6
S10
 62
     1
100
AcDbCircle
 10
-5.347494301181541
 20
11.60383509830711
 30
0.0
 40
0.3
100
AcDbArc
 50
90.0
 51
270.0
  0
LINE
  5
329
330
2
100
AcDbEntity
  8
GAIKEI
  6
S10
 62
     1
100
AcDbLine
 10
-5.347494301181541
 20
18.90383509830712
 30
0.0
 11
-4.947494301181507
 21
18.90383509830712
 31
0.0
  0
ARC
  5
32A
330
2
100
AcDbEntity
  8
GAIKEI
  6
S10
 62
     1
100
AcDbCircle
 10
-4.647494301181495
 20
19.60383509830711
 30
0.0
 40
0.2
100
AcDbArc
 50
0.0
 51
90.0
  0
LINE
  5
32B
330
2
100
AcDbEntity
  8
GAIKEI
  6
S10
 62
     1
100
AcDbLine
 10
-5.347494301181541
 20
19.50383509830715
 30
0.0
 11
-4.947494301181507
 21
19.50383509830715
 31
0.0
  0
DIMENSION
  5
32C
330
2
100
AcDbEntity
  8
SUNPO
100
AcDbDimension
  2
*D6
 10
3.522752504594251
 20
19.80383547459985
 30
0.0
 11
1.772752504594247
 21
15.40383547459987
 31
0.0
 70
    33
  1
88
 71
     5
 42
8.799999999999956
  3
STANDARD
100
AcDbAlignedDimension
 13
-4.477247495405748
 23
11.00383547459989
 33
0.0
 14
-4.477247495405748
 24
19.80383547459985
 34
0.0
1001
ACAD
1000
DSTYLE
1002
{
1070
   287
1070
     3
1070
   287
1070
     3
1070
   287
1070
     3
1070
   287
1070
     3
1070
   287
1070
     3
1070
   287
1070
     3
1070
   287
1070
     3
1070
   287
1070
     3
1070
   287
1070
     3
1070
   287
1070
     3
1070
    40
1040
1.0
1070
   140
1040
2.5
1070
   147
1040
0.5
1070
   172
1070
     1
1070
   279
1070
     0
1070
   288
1070
     0
1002
}
  0
ARC
  5
33B
330
2
100
AcDbEntity
  8
GAIKEI
  6
Continuous
100
AcDbCircle
 10
39.26035967141757
 20
15.40383547459987
 30
0.0
 40
20.00000000000003
100
AcDbArc
 50
168.755276407594
 51
191.244723592386
  0
LINE
  5
33C
330
2
100
AcDbEntity
  8
GAIKEI
  6
Continuous
100
AcDbLine
 10
18.07646377720755
 20
17.82690970893981
 30
0.0
 11
19.31119491364757
 21
17.89161922581985
 31
0.0
  0
LINE
  5
33D
330
2
100
AcDbEntity
  8
GAIKEI
  6
Continuous
 62
     1
100
AcDbLine
 10
19.32004837502757
 20
13.88473173693984
 30
0.0
 11
19.28622541085758
 21
13.8853221189799
 31
0.0
  0
ARC
  5
33E
330
2
100
AcDbEntity
  8
GAIKEI
  6
Continuous
 62
     1
100
AcDbCircle
 10
19.32265790313761
 20
14.10443245813991
 30
0.0
 40
0.0700000000000195
100
AcDbArc
 50
109.9981701752805
 51
183.7288613721844
  0
ARC
  5
33F
330
2
100
AcDbEntity
  8
GAIKEI
  6
Continuous
 62
     1
100
AcDbCircle
 10
19.32273584335758
 20
14.10323711594986
 30
0.0
 40
0.070000000000015
100
AcDbArc
 50
183.7323085368775
 51
257.1295143079823
  0
ARC
  5
340
330
2
100
AcDbEntity
  8
GAIKEI
  6
Continuous
 62
     1
100
AcDbCircle
 10
19.31217783672753
 20
12.36487673409982
 30
0.0
 40
0.0499999999999768
100
AcDbArc
 50
183.7044297524602
 51
269.0000000000764
  0
ARC
  5
341
330
2
100
AcDbEntity
  8
GAIKEI
  6
Continuous
 62
     1
100
AcDbCircle
 10
19.82663919524748
 20
12.9104644139299
 30
0.0
 40
0.5269810699799988
100
AcDbArc
 50
158.3630107746812
 51
216.7884878017223
  0
ARC
  5
342
330
2
100
AcDbEntity
  8
GAIKEI
  6
Continuous
 62
     1
100
AcDbCircle
 10
19.99508238961755
 20
18.11622898193985
 30
0.0
 40
0.7200000000000065
100
AcDbArc
 50
140.693666865196
 51
204.8415117422948
  0
ARC
  5
343
330
2
100
AcDbEntity
  8
GAIKEI
  6
Continuous
 62
     1
100
AcDbCircle
 10
19.32273584238749
 20
16.7044338184499
 30
0.0
 40
0.0699999999999406
100
AcDbArc
 50
102.8705139758565
 51
176.2676793237324
  0
ARC
  5
344
330
2
100
AcDbEntity
  8
GAIKEI
  6
Continuous
 62
     1
100
AcDbCircle
 10
19.32265790218753
 20
16.70323847641992
 30
0.0
 40
0.0699999999999577
100
AcDbArc
 50
176.2711266151347
 51
249.2708210723005
  0
ARC
  5
345
330
2
100
AcDbEntity
  8
GAIKEI
  6
Continuous
 62
     1
100
AcDbCircle
 10
19.29456996367753
 20
16.9924887491199
 30
0.0
 40
0.0299999656899754
100
AcDbArc
 50
90.9997940859311
 51
146.912220453417
  0
CIRCLE
  5
346
330
2
100
AcDbEntity
  8
GAIKEI
  6
Continuous
 62
     1
100
AcDbCircle
 10
-14.55775392460134
 20
15.95382055159132
 30
0.0
 40
0.1
  0
ARC
  5
347
330
2
100
AcDbEntity
  8
GAIKEI
  6
Continuous
 62
     1
100
AcDbCircle
 10
-17.54749075531538
 20
15.40382055159125
 30
0.0
 40
3.049999999999981
100
AcDbArc
 50
12.64135139518152
 51
44.78092384896475
  0
MTEXT
  5
348
330
2
100
AcDbEntity
  8
GAIKEI
 62
     1
100
AcDbMText
 10
-14.50775392460122
 20
15.65382055159131
 30
0.0
 40
0.25
 41
0.0
 71
     5
 72
     1
  1
+
  7
CONVERTER_12
 73
     1
 44
1.0
1001
ACAD
1000
MTEXTBEGIN
1070
    73
1070
     1
1070
    44
1040
1.0
1070
    74
1070
     0
1000
MTEXTEND
  0
LINE
  5
34A
330
2
100
AcDbEntity
  8
GAIKEI
  6
Continuous
 62
     1
100
AcDbLine
 10
-15.38258459252233
 20
17.5522342236527
 30
0.0
 11
-15.32934919507647
 21
17.60506406804774
 31
0.0
  0
LINE
  5
34B
330
2
100
AcDbEntity
  8
GAIKEI
  6
Continuous
 62
     1
100
AcDbLine
 10
-19.76563231555417
 20
17.60506406804774
 30
0.0
 11
-19.71239691810842
 21
17.5522342236527
 31
0.0
  0
ARC
  5
34C
330
2
100
AcDbEntity
  8
GAIKEI
  6
Continuous
 62
     1
100
AcDbCircle
 10
-17.54749430118113
 20
15.40383509830713
 30
0.0
 40
2.264235080440018
100
AcDbArc
 50
10.25141203509699
 51
169.7485879649063
  0
ARC
  5
34D
330
2
100
AcDbEntity
  8
GAIKEI
  6
Continuous
 62
     1
100
AcDbCircle
 10
-17.54749430118113
 20
15.40383509830713
 30
0.0
 40
2.500000000000003
100
AcDbArc
 50
9.174773793700191
 51
170.8252262062998
  0
ARC
  5
34E
330
2
100
AcDbEntity
  8
GAIKEI
  6
Continuous
 62
     1
100
AcDbCircle
 10
-17.54749075531538
 20
15.40382055159125
 30
0.0
 40
3.125000000000053
100
AcDbArc
 50
18.59926694960519
 51
44.78092384896475
  0
ARC
  5
34F
330
2
100
AcDbEntity
  8
GAIKEI
  6
Continuous
 62
     1
100
AcDbCircle
 10
-17.54749430118113
 20
15.40383509830713
 30
0.0
 40
2.264235080440079
100
AcDbArc
 50
190.2514120350937
 51
349.748587964903
  0
ARC
  5
350
330
2
100
AcDbEntity
  8
GAIKEI
  6
Continuous
 62
     1
100
AcDbCircle
 10
-17.54749430118113
 20
15.40383509830713
 30
0.0
 40
2.500000000000078
100
AcDbArc
 50
189.1747737937001
 51
350.8252262062998
  0
ARC
  5
351
330
2
100
AcDbEntity
  8
GAIKEI
  6
Continuous
 62
     1
100
AcDbCircle
 10
-17.54749430118113
 20
15.40383509830713
 30
0.0
 40
2.260000000000036
100
AcDbArc
 50
169.7487565300267
 51
190.2512434699733
  0
LINE
  5
352
330
2
100
AcDbEntity
  8
GAIKEI
  6
Continuous
 62
     1
100
AcDbLine
 10
-20.21853372601916
 20
15.00943886231994
 30
0.0
 11
-19.77141754956119
 21
15.00163442042719
 31
0.0
  0
LINE
  5
353
330
2
100
AcDbEntity
  8
GAIKEI
  6
Continuous
 62
     1
100
AcDbLine
 10
-19.77141754956119
 20
15.80603577619718
 30
0.0
 11
-20.2185337260177
 21
15.79823133430426
 31
0.0
  0
ARC
  5
354
330
2
100
AcDbEntity
  8
GAIKEI
  6
Continuous
 62
     1
100
AcDbCircle
 10
-17.54749430118113
 20
15.40383509830713
 30
0.0
 40
2.259999999999992
100
AcDbArc
 50
349.7487565300267
 51
10.25124346997331
  0
LINE
  5
355
330
2
100
AcDbEntity
  8
GAIKEI
  6
Continuous
 62
     1
100
AcDbLine
 10
-15.32357105279118
 20
15.00163442042719
 30
0.0
 11
-14.87645487634309
 21
15.00943886232005
 31
0.0
  0
LINE
  5
356
330
2
100
AcDbEntity
  8
GAIKEI
  6
Continuous
 62
     1
100
AcDbLine
 10
-14.51963547030846
 20
16.42309924828419
 30
0.0
 11
-14.57142559217198
 21
16.07130549128965
 31
0.0
  0
LINE
  5
357
330
2
100
AcDbEntity
  8
GAIKEI
  6
Continuous
 62
     1
100
AcDbLine
 10
-14.58570172174313
 20
16.40053049967628
 30
0.0
 11
-14.51963547030846
 21
16.42309924828419
 31
0.0
  0
LINE
  5
358
330
2
100
AcDbEntity
  8
GAIKEI
  6
Continuous
 62
     1
100
AcDbLine
 10
-15.32357105279118
 20
15.80603577619718
 30
0.0
 11
-14.87645487634455
 21
15.7982313343042
 31
0.0
  0
LINE
  5
359
330
2
100
AcDbEntity
  8
GAIKEI
  6
Continuous
 62
     1
100
AcDbLine
 10
-19.33722758602937
 20
17.90382055159125
 30
0.0
 11
-19.03722758602942
 21
18.02882055159125
 31
0.0
  0
LINE
  5
35A
330
2
100
AcDbEntity
  8
GAIKEI
  6
Continuous
 62
     1
100
AcDbLine
 10
-19.03722758602942
 20
18.02882055159125
 30
0.0
 11
-19.03722758602942
 21
17.77931894932794
 31
0.0
  0
LINE
  5
35B
330
2
100
AcDbEntity
  8
GAIKEI
  6
Continuous
 62
     1
100
AcDbLine
 10
-19.03722758602942
 20
17.77931894932794
 30
0.0
 11
-19.33722758602937
 21
17.90382055159125
 31
0.0
  0
LINE
  5
35C
330
2
100
AcDbEntity
  8
GAIKEI
  6
Continuous
 62
     1
100
AcDbLine
 10
-19.33722758602937
 20
17.77931894932794
 30
0.0
 11
-19.63722758602944
 21
17.90382055159125
 31
0.0
  0
LINE
  5
35D
330
2
100
AcDbEntity
  8
GAIKEI
  6
Continuous
 62
     1
100
AcDbLine
 10
-19.33722758602937
 20
18.02882055159125
 30
0.0
 11
-19.33722758602937
 21
17.77931894932794
 31
0.0
  0
LINE
  5
35E
330
2
100
AcDbEntity
  8
GAIKEI
  6
Continuous
 62
     1
100
AcDbLine
 10
-19.63722758602944
 20
17.90382055159125
 30
0.0
 11
-19.33722758602937
 21
18.02882055159125
 31
0.0
  0
LINE
  5
35F
330
2
100
AcDbEntity
  8
GAIKEI
  6
Continuous
 62
     1
100
AcDbLine
 10
-15.74749075531542
 20
18.02882055159125
 30
0.0
 11
-15.44749075531536
 21
17.90382055159125
 31
0.0
  0
LINE
  5
360
330
2
100
AcDbEntity
  8
GAIKEI
  6
Continuous
 62
     1
100
AcDbLine
 10
-15.74749075531542
 20
17.77931894932794
 30
0.0
 11
-15.74749075531542
 21
18.02882055159125
 31
0.0
  0
LINE
  5
361
330
2
100
AcDbEntity
  8
GAIKEI
  6
Continuous
 62
     1
100
AcDbLine
 10
-15.44749075531536
 20
17.90382055159125
 30
0.0
 11
-15.74749075531542
 21
17.77931894932794
 31
0.0
  0
LINE
  5
362
330
2
100
AcDbEntity
  8
GAIKEI
  6
Continuous
 62
     1
100
AcDbLine
 10
-15.74749075531542
 20
17.90382055159125
 30
0.0
 11
-16.04749075531538
 21
17.77931894932794
 31
0.0
  0
LINE
  5
363
330
2
100
AcDbEntity
  8
GAIKEI
  6
Continuous
 62
     1
100
AcDbLine
 10
-16.04749075531538
 20
17.77931894932794
 30
0.0
 11
-16.04749075531538
 21
18.02882055159125
 31
0.0
  0
LINE
  5
364
330
2
100
AcDbEntity
  8
GAIKEI
  6
Continuous
 62
     1
100
AcDbLine
 10
-16.04749075531538
 20
18.02882055159125
 30
0.0
 11
-15.74749075531542
 21
17.90382055159125
 31
0.0
  0
LINE
  5
365
330
2
100
AcDbEntity
  8
GAIKEI
  6
Continuous
 62
     7
100
AcDbLine
 10
-8.447494301181222
 20
11.40383509830712
 30
0.0
 11
-13.70643626795117
 21
11.40383509830712
 31
0.0
  0
LINE
  5
366
330
2
100
AcDbEntity
  8
GAIKEI
  6
Continuous
100
AcDbLine
 10
-13.54749430118113
 20
11.00383509830715
 30
0.0
 11
-13.45611516696567
 21
10.04435418904416
 31
0.0
  0
LINE
  5
367
330
2
100
AcDbEntity
  8
GAIKEI
  6
Continuous
100
AcDbLine
 10
-11.43887343539666
 20
10.04435418904416
 30
0.0
 11
-11.34749430118131
 21
11.00383509830715
 31
0.0
  0
LINE
  5
368
330
2
100
AcDbEntity
  8
GAIKEI
  6
Continuous
100
AcDbLine
 10
-13.35656561970654
 20
9.953835098306967
 30
0.0
 11
-11.53842298265613
 21
9.953835098306967
 31
0.0
  0
ARC
  5
369
330
2
100
AcDbEntity
  8
GAIKEI
  6
Continuous
100
AcDbCircle
 10
-13.35656561970654
 20
10.05383509830693
 30
0.0
 40
0.0999999999997329
100
AcDbArc
 50
185.4403320309859
 51
270.0
  0
ARC
  5
36A
330
2
100
AcDbEntity
  8
GAIKEI
  6
Continuous
100
AcDbCircle
 10
-11.53842298265613
 20
10.05383509830693
 30
0.0
 40
0.1
100
AcDbArc
 50
270.0
 51
354.559667969014
  0
LINE
  5
36B
330
2
100
AcDbEntity
  8
GAIKEI
  6
Continuous
100
AcDbLine
 10
-13.70643626795117
 20
11.51795150814712
 30
0.0
 11
-13.70643626795117
 21
11.40383509830712
 31
0.0
  0
LINE
  5
36C
330
2
100
AcDbEntity
  8
GAIKEI
  6
Continuous
 62
     1
100
AcDbLine
 10
-8.451835384731225
 20
13.39739940696711
 30
0.0
 11
-13.15325296820444
 21
13.39739940696711
 31
0.0
  0
LINE
  5
36D
330
2
100
AcDbEntity
  8
GAIKEI
  6
Continuous
 62
     1
100
AcDbLine
 10
-13.18095884140894
 20
13.26024441819709
 30
0.0
 11
-8.447494301181222
 21
13.26024441819714
 31
0.0
  0
LINE
  5
36E
330
2
100
AcDbEntity
  8
GAIKEI
  6
Continuous
 62
     1
100
AcDbLine
 10
-8.447494301181222
 20
19.40383509830713
 30
0.0
 11
-13.70643626795117
 21
19.40383509830713
 31
0.0
  0
LINE
  5
36F
330
2
100
AcDbEntity
  8
GAIKEI
  6
Continuous
 62
     1
100
AcDbLine
 10
-13.70643626795117
 20
19.40383509830713
 30
0.0
 11
-13.70643626795117
 21
19.28973966835656
 31
0.0
  0
LINE
  5
370
330
2
100
AcDbEntity
  8
GAIKEI
  6
Continuous
 62
     7
100
AcDbLine
 10
-8.447494301181222
 20
11.40383509830712
 30
0.0
 11
-8.447494301181222
 21
19.40383509830713
 31
0.0
  0
LINE
  5
371
330
2
100
AcDbEntity
  8
GAIKEI
  6
Continuous
100
AcDbLine
 10
-7.44749430118145
 20
11.00383509830715
 30
0.0
 11
-7.44749430118145
 21
19.8038350983071
 31
0.0
  0
CIRCLE
  5
372
330
2
100
AcDbEntity
  8
GAIKEI
  6
Continuous
 62
     1
100
AcDbCircle
 10
-28.29749075531544
 20
15.45382055159132
 30
0.0
 40
0.3
  0
CIRCLE
  5
373
330
2
100
AcDbEntity
  8
GAIKEI
  6
Continuous
 62
     1
100
AcDbCircle
 10
-28.29749075531544
 20
14.15382055159125
 30
0.0
 40
0.3
  0
CIRCLE
  5
374
330
2
100
AcDbEntity
  8
GAIKEI
  6
Continuous
 62
     1
100
AcDbCircle
 10
-28.29749075531544
 20
12.8538205515913
 30
0.0
 40
0.3
  0
CIRCLE
  5
375
330
2
100
AcDbEntity
  8
GAIKEI
  6
Continuous
 62
     1
100
AcDbCircle
 10
-28.29749075531544
 20
16.75382055159127
 30
0.0
 40
0.3
  0
LINE
  5
376
330
2
100
AcDbEntity
  8
GAIKEI
  6
Continuous
 62
     1
100
AcDbLine
 10
-28.49349430118122
 20
17.63862403265716
 30
0.0
 11
-21.0014943011812
 21
17.63862403265716
 31
0.0
  0
CIRCLE
  5
377
330
2
100
AcDbEntity
  8
GAIKEI
  6
Continuous
 62
     1
100
AcDbCircle
 10
-33.1474907553154
 20
12.80078462708701
 30
0.0
 40
0.5
  0
CIRCLE
  5
378
330
2
100
AcDbEntity
  8
GAIKEI
  6
Continuous
 62
     1
100
AcDbCircle
 10
-33.1474907553154
 20
12.80078462708701
 30
0.0
 40
0.6000000000000001
  0
LINE
  5
379
330
2
100
AcDbEntity
  8
GAIKEI
  6
Continuous
 62
     1
100
AcDbLine
 10
-30.01938196560121
 20
11.92076557112716
 30
0.0
 11
-30.01938196560121
 21
18.88690462549715
 31
0.0
  0
SPLINE
  5
37A
330
2
100
AcDbEntity
  8
GAIKEI
  6
Continuous
 62
     1
100
AcDbSpline
210
0.0
220
0.0
230
1.0
 70
     8
 71
     3
 72
    11
 73
     7
 74
     5
 42
0.0000000001
 43
0.0000000001
 44
0.00000000001
 40
0.0
 40
0.0
 40
0.0
 40
0.0
 40
0.0049954346844814
 40
0.0099908194454596
 40
0.0149859545900203
 40
0.0199810398113545
 40
0.0199810398113545
 40
0.0199810398113545
 40
0.0199810398113545
 10
-30.01938196560121
 20
11.92076557112716
 30
0.0
 10
-30.01938710810851
 20
11.91910043417317
 30
0.0
 10
-30.01939739307167
 20
11.91577017690639
 30
0.0
 10
-30.01941284956084
 20
11.91077488262249
 30
0.0
 10
-30.0194283252435
 20
11.90577970488618
 30
0.0
 10
-30.01943866173246
 20
11.90244964747307
 30
0.0
 10
-30.01944382995112
 20
11.90078462708703
 30
0.0
 11
-30.01938196560121
 21
11.92076557112716
 31
0.0
 11
-30.01939739801105
 21
11.91577016028043
 31
0.0
 11
-30.01941285307748
 21
11.91077479942748
 31
0.0
 11
-30.01942833018416
 21
11.90577968826039
 31
0.0
 11
-30.01944382995112
 21
11.90078462708703
 31
0.0
  0
LINE
  5
37B
330
2
100
AcDbEntity
  8
GAIKEI
  6
Continuous
 62
     1
100
AcDbLine
 10
-29.07249075531542
 20
12.77882055159125
 30
0.0
 11
-29.5224907553154
 21
12.77882055159125
 31
0.0
  0
CIRCLE
  5
37C
330
2
100
AcDbEntity
  8
GAIKEI
  6
Continuous
 62
     1
100
AcDbCircle
 10
-33.1474907553154
 20
17.90078462708698
 30
0.0
 40
0.5
  0
CIRCLE
  5
37D
330
2
100
AcDbEntity
  8
GAIKEI
  6
Continuous
 62
     1
100
AcDbCircle
 10
-33.1474907553154
 20
17.90078462708698
 30
0.0
 40
0.6000000000000001
  0
LINE
  5
37E
330
2
100
AcDbEntity
  8
GAIKEI
  6
Continuous
 62
     1
100
AcDbLine
 10
-33.04749075531544
 20
15.35078462708702
 30
0.0
 11
-33.04749075531544
 21
15.09239260539721
 31
0.0
  0
CIRCLE
  5
37F
330
2
100
AcDbEntity
  8
GAIKEI
  6
Continuous
 62
     1
100
AcDbCircle
 10
-33.1474907553154
 20
14.500784627087
 30
0.0
 40
0.5
  0
CIRCLE
  5
380
330
2
100
AcDbEntity
  8
GAIKEI
  6
Continuous
 62
     1
100
AcDbCircle
 10
-33.1474907553154
 20
14.500784627087
 30
0.0
 40
0.6000000000000001
  0
CIRCLE
  5
381
330
2
100
AcDbEntity
  8
GAIKEI
  6
Continuous
 62
     1
100
AcDbCircle
 10
-33.1474907553154
 20
16.20078462708704
 30
0.0
 40
0.5
  0
CIRCLE
  5
382
330
2
100
AcDbEntity
  8
GAIKEI
  6
Continuous
 62
     1
100
AcDbCircle
 10
-33.1474907553154
 20
16.20078462708704
 30
0.0
 40
0.6000000000000001
  0
ARC
  5
383
330
2
100
AcDbEntity
  8
GAIKEI
  6
Continuous
 62
     1
100
AcDbCircle
 10
-33.09749075531539
 20
17.05078462708701
 30
0.0
 40
0.05
100
AcDbArc
 50
0.0
 51
90.0
  0
LINE
  5
384
330
2
100
AcDbEntity
  8
GAIKEI
  6
Continuous
 62
     1
100
AcDbLine
 10
-33.04749075531544
 20
17.05078462708701
 30
0.0
 11
-33.04749075531544
 21
16.79239260539719
 31
0.0
  0
ARC
  5
385
330
2
100
AcDbEntity
  8
GAIKEI
  6
Continuous
 62
     1
100
AcDbCircle
 10
-33.09749075531539
 20
15.35078462708702
 30
0.0
 40
0.05
100
AcDbArc
 50
0.0
 51
90.0
  0
LINE
  5
386
330
2
100
AcDbEntity
  8
GAIKEI
  6
Continuous
 62
     1
100
AcDbLine
 10
-29.5224907553154
 20
12.92882055159128
 30
0.0
 11
-29.07249075531542
 21
12.92882055159128
 31
0.0
  0
ARC
  5
387
330
2
100
AcDbEntity
  8
GAIKEI
  6
Continuous
 62
     1
100
AcDbCircle
 10
-33.09749075531539
 20
18.750784627087
 30
0.0
 40
0.05
100
AcDbArc
 50
0.0
 51
90.0
  0
LINE
  5
388
330
2
100
AcDbEntity
  8
GAIKEI
  6
Continuous
 62
     1
100
AcDbLine
 10
-33.04749075531544
 20
18.750784627087
 30
0.0
 11
-33.04749075531544
 21
18.49239260539718
 31
0.0
  0
SPLINE
  5
389
330
2
100
AcDbEntity
  8
GAIKEI
  6
Continuous
 62
     1
100
AcDbSpline
210
0.0
220
0.0
230
1.0
 70
     8
 71
     3
 72
    11
 73
     7
 74
     5
 42
0.0000000001
 43
0.0000000001
 44
0.00000000001
 40
0.0
 40
0.0
 40
0.0
 40
0.0
 40
0.0299104953713715
 40
0.059822808621457
 40
0.0897442112779307
 40
0.1196674318183609
 40
0.1196674318183609
 40
0.1196674318183609
 40
0.1196674318183609
 10
-30.01975793284117
 20
19.00657146665713
 30
0.0
 10
-30.01972614062707
 20
18.99660135222126
 30
0.0
 10
-30.01966255426662
 20
18.9766605173931
 30
0.0
 10
-30.0195682181491
 20
18.94674592904022
 30
0.0
 10
-30.01947457103353
 20
18.916827096779
 30
0.0
 10
-30.01941283470376
 20
18.89687898457725
 30
0.0
 10
-30.01938196560121
 20
18.88690462549715
 30
0.0
 11
-30.01975793284117
 21
19.00657146665713
 31
0.0
 11
-30.01966273184371
 21
18.97666112279199
 31
0.0
 11
-30.01956834472276
 21
18.94674895845969
 31
0.0
 11
-30.01947474842831
 21
18.91682770219154
 31
0.0
 11
-30.01938196560121
 21
18.88690462549715
 31
0.0
  0
LINE
  5
38A
330
2
100
AcDbEntity
  8
GAIKEI
  6
Continuous
 62
     1
100
AcDbLine
 10
-30.02249430118121
 20
19.00383509830715
 30
0.0
 11
-30.01975793284117
 21
19.00657146665708
 31
0.0
  0
LINE
  5
38B
330
2
100
AcDbEntity
  8
GAIKEI
  6
Continuous
 62
     1
100
AcDbLine
 10
-24.24749075531543
 20
12.70382055159132
 30
0.0
 11
-24.37249075531543
 21
13.00382055159127
 31
0.0
  0
LINE
  5
38C
330
2
100
AcDbEntity
  8
GAIKEI
  6
Continuous
 62
     1
100
AcDbLine
 10
-24.24749075531543
 20
12.70382055159132
 30
0.0
 11
-24.12249075531543
 21
13.00382055159127
 31
0.0
  0
LINE
  5
38D
330
2
100
AcDbEntity
  8
GAIKEI
  6
Continuous
 62
     1
100
AcDbLine
 10
-20.94749075531536
 20
19.06832215385469
 30
0.0
 11
-21.84749075531545
 21
19.06832215385469
 31
0.0
  0
LINE
  5
38E
330
2
100
AcDbEntity
  8
GAIKEI
  6
Continuous
 62
     1
100
AcDbLine
 10
-21.84749075531545
 20
18.66832215385466
 30
0.0
 11
-20.94749075531536
 21
18.66832215385466
 31
0.0
  0
LINE
  5
38F
330
2
100
AcDbEntity
  8
GAIKEI
  6
Continuous
 62
     1
100
AcDbLine
 10
-25.19749075531541
 20
13.65382055159125
 30
0.0
 11
-24.8974907553154
 21
13.52882055159125
 31
0.0
  0
LINE
  5
390
330
2
100
AcDbEntity
  8
GAIKEI
  6
Continuous
 62
     1
100
AcDbLine
 10
-25.19749075531541
 20
13.65382055159125
 30
0.0
 11
-24.8974907553154
 21
13.77882055159125
 31
0.0
  0
LINE
  5
391
330
2
100
AcDbEntity
  8
GAIKEI
  6
Continuous
 62
     1
100
AcDbLine
 10
-24.8974907553154
 20
13.52882055159125
 30
0.0
 11
-24.8974907553154
 21
13.77882055159125
 31
0.0
  0
LINE
  5
392
330
2
100
AcDbEntity
  8
GAIKEI
  6
Continuous
 62
     1
100
AcDbLine
 10
-25.86625493568613
 20
13.13507446380208
 30
0.0
 11
-26.1091070033919
 21
12.89222239609637
 31
0.0
  0
LINE
  5
393
330
2
100
AcDbEntity
  8
GAIKEI
  6
Continuous
 62
     1
100
AcDbLine
 10
-24.37249075531543
 20
14.30382055159128
 30
0.0
 11
-24.12249075531543
 21
14.30382055159128
 31
0.0
  0
LINE
  5
394
330
2
100
AcDbEntity
  8
GAIKEI
  6
Continuous
 62
     1
100
AcDbLine
 10
-24.24749075531543
 20
14.60382055159129
 30
0.0
 11
-24.12249075531543
 21
14.30382055159128
 31
0.0
  0
LINE
  5
395
330
2
100
AcDbEntity
  8
GAIKEI
  6
Continuous
 62
     1
100
AcDbLine
 10
-24.24749075531543
 20
14.60382055159129
 30
0.0
 11
-24.37249075531543
 21
14.30382055159128
 31
0.0
  0
LINE
  5
396
330
2
100
AcDbEntity
  8
GAIKEI
  6
Continuous
 62
     1
100
AcDbLine
 10
-23.29749075531538
 20
13.65382055159125
 30
0.0
 11
-23.59749075531539
 21
13.52882055159125
 31
0.0
  0
LINE
  5
397
330
2
100
AcDbEntity
  8
GAIKEI
  6
Continuous
 62
     1
100
AcDbLine
 10
-24.12249075531543
 20
13.00382055159127
 30
0.0
 11
-24.37249075531543
 21
13.00382055159127
 31
0.0
  0
LINE
  5
398
330
2
100
AcDbEntity
  8
GAIKEI
  6
Continuous
 62
     1
100
AcDbLine
 10
-23.29749075531538
 20
13.65382055159125
 30
0.0
 11
-23.59749075531539
 21
13.77882055159125
 31
0.0
  0
LINE
  5
399
330
2
100
AcDbEntity
  8
GAIKEI
  6
Continuous
 62
     1
100
AcDbLine
 10
-23.59749075531539
 20
13.77882055159125
 30
0.0
 11
-23.59749075531539
 21
13.52882055159125
 31
0.0
  0
LINE
  5
39A
330
2
100
AcDbEntity
  8
GAIKEI
  6
Continuous
 62
     1
100
AcDbLine
 10
-25.04749430118119
 20
18.342089591817
 30
0.0
 11
-24.44749430118117
 21
18.342089591817
 31
0.0
  0
LINE
  5
39B
330
2
100
AcDbEntity
  8
GAIKEI
  6
Continuous
 62
     1
100
AcDbLine
 10
-25.04749430118119
 20
18.5420895918171
 30
0.0
 11
-24.44749430118117
 21
18.5420895918171
 31
0.0
  0
LINE
  5
39C
330
2
100
AcDbEntity
  8
GAIKEI
  6
Continuous
 62
     1
100
AcDbLine
 10
-25.04749430118119
 20
18.5420895918171
 30
0.0
 11
-25.04749430118119
 21
18.342089591817
 31
0.0
  0
LINE
  5
39D
330
2
100
AcDbEntity
  8
GAIKEI
  6
Continuous
 62
     1
100
AcDbLine
 10
-25.8455924134791
 20
18.9933221538547
 30
0.0
 11
-25.54559241347909
 21
18.8683221538547
 31
0.0
  0
LINE
  5
39E
330
2
100
AcDbEntity
  8
GAIKEI
  6
Continuous
 62
     1
100
AcDbLine
 10
-25.8455924134791
 20
18.74382055159134
 30
0.0
 11
-25.8455924134791
 21
18.9933221538547
 31
0.0
  0
LINE
  5
39F
330
2
100
AcDbEntity
  8
GAIKEI
  6
Continuous
 62
     1
100
AcDbLine
 10
-25.54559241347909
 20
18.8683221538547
 30
0.0
 11
-25.8455924134791
 21
18.74382055159134
 31
0.0
  0
LINE
  5
3A0
330
2
100
AcDbEntity
  8
GAIKEI
  6
Continuous
 62
     1
100
AcDbLine
 10
-24.63365208564659
 20
18.99382055159134
 30
0.0
 11
-24.55365208564661
 21
18.99382055159134
 31
0.0
  0
LINE
  5
3A1
330
2
100
AcDbEntity
  8
GAIKEI
  6
Continuous
 62
     1
100
AcDbLine
 10
-24.55365208564661
 20
18.99382055159134
 30
0.0
 11
-24.55365208564661
 21
18.74382055159134
 31
0.0
  0
LINE
  5
3A2
330
2
100
AcDbEntity
  8
GAIKEI
  6
Continuous
 62
     1
100
AcDbLine
 10
-24.63365208564659
 20
18.99382055159134
 30
0.0
 11
-24.63365208564659
 21
18.74382055159134
 31
0.0
  0
LINE
  5
3A3
330
2
100
AcDbEntity
  8
GAIKEI
  6
Continuous
 62
     1
100
AcDbLine
 10
-24.63365208564659
 20
18.74382055159134
 30
0.0
 11
-24.55365208564661
 21
18.74382055159134
 31
0.0
  0
LINE
  5
3A4
330
2
100
AcDbEntity
  8
GAIKEI
  6
Continuous
 62
     1
100
AcDbLine
 10
-24.51615208564664
 20
18.99382055159134
 30
0.0
 11
-24.43615208564654
 21
18.99382055159134
 31
0.0
  0
LINE
  5
3A5
330
2
100
AcDbEntity
  8
GAIKEI
  6
Continuous
 62
     1
100
AcDbLine
 10
-24.43615208564654
 20
18.99382055159134
 30
0.0
 11
-24.43615208564654
 21
18.74382055159134
 31
0.0
  0
LINE
  5
3A6
330
2
100
AcDbEntity
  8
GAIKEI
  6
Continuous
 62
     1
100
AcDbLine
 10
-24.51615208564664
 20
18.99382055159134
 30
0.0
 11
-24.51615208564664
 21
18.74382055159134
 31
0.0
  0
LINE
  5
3A7
330
2
100
AcDbEntity
  8
GAIKEI
  6
Continuous
 62
     1
100
AcDbLine
 10
-24.51615208564664
 20
18.74382055159134
 30
0.0
 11
-24.43615208564654
 21
18.74382055159134
 31
0.0
  0
LINE
  5
3A8
330
2
100
AcDbEntity
  8
GAIKEI
  6
Continuous
 62
     1
100
AcDbLine
 10
-24.44749430118117
 20
18.342089591817
 30
0.0
 11
-24.44749430118117
 21
18.5420895918171
 31
0.0
  0
ARC
  5
3A9
330
2
100
AcDbEntity
  8
GAIKEI
  6
Continuous
 62
     1
100
AcDbCircle
 10
-21.84749075531545
 20
18.96832215385473
 30
0.0
 40
0.1
100
AcDbArc
 50
90.0
 51
180.0
  0
ARC
  5
3AA
330
2
100
AcDbEntity
  8
GAIKEI
  6
Continuous
 62
     1
100
AcDbCircle
 10
-21.84749075531545
 20
18.76832215385468
 30
0.0
 40
0.1
100
AcDbArc
 50
180.0
 51
270.0
  0
LINE
  5
3AB
330
2
100
AcDbEntity
  8
GAIKEI
  6
Continuous
 62
     1
100
AcDbLine
 10
-21.94749075531536
 20
18.96832215385473
 30
0.0
 11
-21.94749075531536
 21
18.76832215385468
 31
0.0
  0
CIRCLE
  5
3AC
330
2
100
AcDbEntity
  8
GAIKEI
  6
Continuous
 62
     1
100
AcDbCircle
 10
-22.82749075531547
 20
18.8683221538547
 30
0.0
 40
0.0875
  0
LINE
  5
3AD
330
2
100
AcDbEntity
  8
GAIKEI
  6
Continuous
 62
     1
100
AcDbLine
 10
-22.11704540729897
 20
18.8533221538546
 30
0.0
 11
-22.01704540729895
 21
18.8533221538546
 31
0.0
  0
LINE
  5
3AE
330
2
100
AcDbEntity
  8
GAIKEI
  6
Continuous
 62
     1
100
AcDbLine
 10
-22.01704540729895
 20
18.8533221538546
 30
0.0
 11
-22.01704540729895
 21
18.88332215385475
 31
0.0
  0
LINE
  5
3AF
330
2
100
AcDbEntity
  8
GAIKEI
  6
Continuous
 62
     1
100
AcDbLine
 10
-22.01704540729895
 20
18.88332215385475
 30
0.0
 11
-22.11704540729897
 21
18.88332215385475
 31
0.0
  0
LINE
  5
3B0
330
2
100
AcDbEntity
  8
GAIKEI
  6
Continuous
 62
     1
100
AcDbLine
 10
-22.11704540729897
 20
18.88332215385475
 30
0.0
 11
-22.11704540729897
 21
18.8533221538546
 31
0.0
  0
LINE
  5
3B1
330
2
100
AcDbEntity
  8
GAIKEI
  6
Continuous
 62
     1
100
AcDbLine
 10
-22.64749430118115
 20
18.54208959181699
 30
0.0
 11
-22.64749430118115
 21
18.342089591817
 31
0.0
  0
LINE
  5
3B2
330
2
100
AcDbEntity
  8
GAIKEI
  6
Continuous
 62
     1
100
AcDbLine
 10
-22.64749430118115
 20
18.342089591817
 30
0.0
 11
-22.04749430118113
 21
18.342089591817
 31
0.0
  0
LINE
  5
3B3
330
2
100
AcDbEntity
  8
GAIKEI
  6
Continuous
 62
     1
100
AcDbLine
 10
-22.04749430118113
 20
18.342089591817
 30
0.0
 11
-22.04749430118113
 21
18.54208959181699
 31
0.0
  0
ARC
  5
3B4
330
2
100
AcDbEntity
  8
GAIKEI
  6
Continuous
 62
     1
100
AcDbCircle
 10
-20.94749075531536
 20
18.76832215385468
 30
0.0
 40
0.1
100
AcDbArc
 50
270.0
 51
0.0
  0
ARC
  5
3B5
330
2
100
AcDbEntity
  8
GAIKEI
  6
Continuous
 62
     1
100
AcDbCircle
 10
-20.94749075531536
 20
18.96832215385473
 30
0.0
 40
0.1
100
AcDbArc
 50
0.0
 51
90.0
  0
LINE
  5
3B6
330
2
100
AcDbEntity
  8
GAIKEI
  6
Continuous
 62
     1
100
AcDbLine
 10
-20.84749075531545
 20
18.76832215385468
 30
0.0
 11
-20.84749075531545
 21
18.96832215385473
 31
0.0
  0
ARC
  5
3B7
330
2
100
AcDbEntity
  8
GAIKEI
  6
Continuous
 62
     1
100
AcDbCircle
 10
-17.54749075531538
 20
15.40382055159125
 30
0.0
 40
3.125000000000024
100
AcDbArc
 50
135.2190761510352
 51
161.400733050388
  0
ARC
  5
3B8
330
2
100
AcDbEntity
  8
GAIKEI
  6
Continuous
 62
     1
100
AcDbCircle
 10
-17.54749075531538
 20
15.40382055159125
 30
0.0
 40
3.049999999999995
100
AcDbArc
 50
135.2190761510352
 51
167.3586486048185
  0
CIRCLE
  5
3B9
330
2
100
AcDbEntity
  8
GAIKEI
  6
Continuous
 62
     1
100
AcDbCircle
 10
-20.53722758602953
 20
15.95382055159132
 30
0.0
 40
0.1
  0
LINE
  5
3BA
330
2
100
AcDbEntity
  8
GAIKEI
  6
Continuous
 62
     1
100
AcDbLine
 10
-20.57534604032241
 20
16.42309924828419
 30
0.0
 11
-20.50927978888751
 21
16.40053049967628
 31
0.0
  0
LINE
  5
3BB
330
2
100
AcDbEntity
  8
GAIKEI
  6
Continuous
 62
     1
100
AcDbLine
 10
-20.52355591845878
 20
16.07130549128965
 30
0.0
 11
-20.57534604032241
 21
16.42309924828419
 31
0.0
  0
MTEXT
  5
3BC
330
2
100
AcDbEntity
  8
GAIKEI
 62
     1
100
AcDbMText
 10
-20.58722758602948
 20
15.65382055159131
 30
0.0
 40
0.25
 41
0.0
 71
     5
 72
     1
  1
-
  7
CONVERTER_12
 73
     1
 44
1.0
1001
ACAD
1000
MTEXTBEGIN
1070
    73
1070
     1
1070
    44
1040
1.0
1070
    74
1070
     0
1000
MTEXTEND
  0
ARC
  5
3BD
330
2
100
AcDbEntity
  8
GAIKEI
  6
Continuous
 62
     1
100
AcDbCircle
 10
-34.04749430118125
 20
15.40383509830713
 30
0.0
 40
10.39999999999996
100
AcDbArc
 50
184.7522335673224
 51
202.0243128369859
  0
LINE
  5
3BE
330
2
100
AcDbEntity
  8
GAIKEI
  6
Continuous
100
AcDbLine
 10
-43.43887343539671
 20
10.04435418904416
 30
0.0
 11
-43.34749430118131
 21
11.00383509830715
 31
0.0
  0
LINE
  5
3BF
330
2
100
AcDbEntity
  8
GAIKEI
  6
Continuous
100
AcDbLine
 10
-45.54749430118113
 20
11.00383509830715
 30
0.0
 11
-45.45611516696562
 21
10.04435418904416
 31
0.0
  0
LINE
  5
3C0
330
2
100
AcDbEntity
  8
GAIKEI
  6
Continuous
100
AcDbLine
 10
-45.35656561970642
 20
9.953835098306967
 30
0.0
 11
-43.53842298265584
 21
9.953835098306967
 31
0.0
  0
ARC
  5
3C1
330
2
100
AcDbEntity
  8
GAIKEI
  6
Continuous
100
AcDbCircle
 10
-45.35656561970642
 20
10.05383509830693
 30
0.0
 40
0.0999999999998008
100
AcDbArc
 50
185.4403320309859
 51
270.0
  0
ARC
  5
3C2
330
2
100
AcDbEntity
  8
GAIKEI
  6
Continuous
100
AcDbCircle
 10
-43.53842298265584
 20
10.05383509830693
 30
0.0
 40
0.1
100
AcDbArc
 50
270.0
 51
354.559667969014
  0
LINE
  5
3C3
330
2
100
AcDbEntity
  8
GAIKEI
  6
Continuous
100
AcDbLine
 10
-43.68855233440121
 20
11.50383509830715
 30
0.0
 11
-43.68855233440121
 21
11.40383509830712
 31
0.0
  0
ARC
  5
3C4
330
2
100
AcDbEntity
  8
GAIKEI
  6
Continuous
 62
     1
100
AcDbCircle
 10
-34.04749430118125
 20
15.40383509830713
 30
0.0
 40
10.40000000000002
100
AcDbArc
 50
157.975687163014
 51
175.2477664326776
  0
CIRCLE
  5
3C5
330
2
100
AcDbEntity
  8
GAIKEI
  6
Continuous
 62
     1
100
AcDbCircle
 10
-43.78749430118119
 20
15.08663509830717
 30
0.0
 40
0.0649999999999864
  0
SPLINE
  5
3C6
330
2
100
AcDbEntity
  8
GAIKEI
  6
Continuous
 62
     1
100
AcDbSpline
210
0.0
220
0.0
230
1.0
 70
     8
 71
     3
 72
    11
 73
     7
 74
     5
 42
0.0000000001
 43
0.0000000001
 44
0.00000000001
 40
0.0
 40
0.0
 40
0.0
 40
0.0
 40
0.0026939835643823
 40
0.0053878496664206
 40
0.0080811286684768
 40
0.010774290292714
 40
0.010774290292714
 40
0.010774290292714
 40
0.010774290292714
 10
-44.42258863791113
 20
14.54305204831701
 30
0.0
 10
-44.42169064934499
 20
14.54305532201647
 30
0.0
 10
-44.41989471136654
 20
14.54306186927266
 30
0.0
 10
-44.41720102468313
 20
14.54307298989835
 30
0.0
 10
-44.4145076156963
 20
14.54308497639351
 30
0.0
 10
-44.41271215731108
 20
14.54309383375352
 30
0.0
 10
-44.41181444768119
 20
14.54309826233714
 30
0.0
 11
-44.42258863791113
 21
14.54305204831701
 31
0.0
 11
-44.41989467304757
 21
14.54306208619653
 31
0.0
 11
-44.41720082960478
 21
14.54307313524521
 31
0.0
 11
-44.41450757759549
 21
14.54308519332755
 31
0.0
 11
-44.41181444768119
 21
14.54309826233714
 31
0.0
  0
CIRCLE
  5
3C7
330
2
100
AcDbEntity
  8
GAIKEI
  6
Continuous
 62
     1
100
AcDbCircle
 10
-44.01749430118122
 20
15.08663509830717
 30
0.0
 40
0.0650000000000091
  0
CIRCLE
  5
3C8
330
2
100
AcDbEntity
  8
GAIKEI
  6
Continuous
 62
     1
100
AcDbCircle
 10
-44.24749430118123
 20
15.08663509830717
 30
0.0
 40
0.0650000000000091
  0
CIRCLE
  5
3C9
330
2
100
AcDbEntity
  8
GAIKEI
 62
     1
100
AcDbCircle
 10
-43.55470970090891
 20
14.87773550219742
 30
0.0
 40
0.1
  0
CIRCLE
  5
3CA
330
2
100
AcDbEntity
  8
GAIKEI
  6
Continuous
 62
     1
100
AcDbCircle
 10
-43.78749430118119
 20
15.40383509830713
 30
0.0
 40
0.0649999999999864
  0
CIRCLE
  5
3CB
330
2
100
AcDbEntity
  8
GAIKEI
  6
Continuous
 62
     1
100
AcDbCircle
 10
-43.78749430118119
 20
15.7210350983072
 30
0.0
 40
0.0649999999999864
  0
SPLINE
  5
3CC
330
2
100
AcDbEntity
  8
GAIKEI
  6
Continuous
 62
     1
100
AcDbSpline
210
0.0
220
0.0
230
1.0
 70
     8
 71
     3
 72
    11
 73
     7
 74
     5
 42
0.0000000001
 43
0.0000000001
 44
0.00000000001
 40
0.0
 40
0.0
 40
0.0
 40
0.0
 40
0.0026939835642115
 40
0.0053878496664171
 40
0.0080811286684825
 40
0.0107742902927616
 40
0.0107742902927616
 40
0.0107742902927616
 40
0.0107742902927616
 10
-44.42258863791113
 20
16.26461814830713
 30
0.0
 10
-44.42169064934503
 20
16.26461487460767
 30
0.0
 10
-44.4198947113666
 20
16.26460832735131
 30
0.0
 10
-44.41720102468319
 20
16.26459720672693
 30
0.0
 10
-44.41450761569628
 20
16.26458522023102
 30
0.0
 10
-44.41271215731107
 20
16.26457636286409
 30
0.0
 10
-44.41181444768119
 20
16.26457193427717
 30
0.0
 11
-44.42258863791113
 21
16.26461814830713
 31
0.0
 11
-44.41989467304773
 21
16.26460811042767
 31
0.0
 11
-44.41720082960478
 21
16.26459706137979
 31
0.0
 11
-44.41450757759549
 21
16.26458500329539
 31
0.0
 11
-44.41181444768119
 21
16.26457193427717
 31
0.0
  0
CIRCLE
  5
3CD
330
2
100
AcDbEntity
  8
GAIKEI
  6
Continuous
 62
     1
100
AcDbCircle
 10
-44.01749430118122
 20
15.40383509830713
 30
0.0
 40
0.0650000000000091
  0
CIRCLE
  5
3CE
330
2
100
AcDbEntity
  8
GAIKEI
  6
Continuous
 62
     1
100
AcDbCircle
 10
-44.24749430118123
 20
15.40383509830713
 30
0.0
 40
0.0650000000000091
  0
CIRCLE
  5
3CF
330
2
100
AcDbEntity
  8
GAIKEI
  6
Continuous
 62
     1
100
AcDbCircle
 10
-44.24749430118123
 20
15.7210350983072
 30
0.0
 40
0.0650000000000091
  0
CIRCLE
  5
3D0
330
2
100
AcDbEntity
  8
GAIKEI
  6
Continuous
 62
     1
100
AcDbCircle
 10
-44.01749430118122
 20
15.7210350983072
 30
0.0
 40
0.0650000000000091
  0
LINE
  5
3D1
330
2
100
AcDbEntity
  8
GAIKEI
  6
Continuous
 62
     1
100
AcDbLine
 10
-44.41174194682122
 20
16.26544448763701
 30
0.0
 11
-44.41181444768125
 21
16.26457193427717
 31
0.0
  0
LINE
  5
3D2
330
2
100
AcDbEntity
  8
GAIKEI
  6
Continuous
 62
     1
100
AcDbLine
 10
-43.68855233440121
 20
19.40383509830713
 30
0.0
 11
-43.68855233440121
 21
19.3038350983071
 31
0.0
  0
CIRCLE
  5
3D3
330
2
100
AcDbEntity
  8
GAIKEI
  6
Continuous
 62
     1
100
AcDbCircle
 10
-35.0224907553154
 20
12.80078462708701
 30
0.0
 40
0.5
  0
CIRCLE
  5
3D4
330
2
100
AcDbEntity
  8
GAIKEI
  6
Continuous
 62
     1
100
AcDbCircle
 10
-35.0224907553154
 20
12.80078462708701
 30
0.0
 40
0.6000000000000001
  0
CIRCLE
  5
3D5
330
2
100
AcDbEntity
  8
GAIKEI
  6
Continuous
 62
     1
100
AcDbCircle
 10
-36.8974907553154
 20
12.80078462708701
 30
0.0
 40
0.5
  0
CIRCLE
  5
3D6
330
2
100
AcDbEntity
  8
GAIKEI
  6
Continuous
 62
     1
100
AcDbCircle
 10
-36.8974907553154
 20
12.80078462708701
 30
0.0
 40
0.6000000000000001
  0
CIRCLE
  5
3D7
330
2
100
AcDbEntity
  8
GAIKEI
  6
Continuous
 62
     1
100
AcDbCircle
 10
-39.39749430118121
 20
12.8038350983071
 30
0.0
 40
0.1
  0
LINE
  5
3D8
330
2
100
AcDbEntity
  8
GAIKEI
  6
Continuous
 62
     1
100
AcDbLine
 10
-40.80060350502122
 20
18.88791895397708
 30
0.0
 11
-40.80060350502122
 21
11.91975124263712
 31
0.0
  0
SPLINE
  5
3D9
330
2
100
AcDbEntity
  8
GAIKEI
  6
Continuous
 62
     1
100
AcDbSpline
210
0.0
220
0.0
230
1.0
 70
     8
 71
     3
 72
    11
 73
     7
 74
     5
 42
0.0000000001
 43
0.0000000001
 44
0.00000000001
 40
0.0
 40
0.0
 40
0.0
 40
0.0
 40
0.0047418340860164
 40
0.0094836231821374
 40
0.0142251873293449
 40
0.018966706486731
 40
0.018966706486731
 40
0.018966706486731
 40
0.018966706486731
 10
-40.80060350502117
 20
11.91975124263712
 30
0.0
 10
-40.80059862221971
 20
11.91817063881706
 30
0.0
 10
-40.80058885666311
 20
11.9150094461736
 30
0.0
 10
-40.80057418215672
 20
11.91026773977074
 30
0.0
 10
-40.80055949035571
 20
11.90552613839838
 30
0.0
 10
-40.80054967837052
 20
11.90236512585869
 30
0.0
 10
-40.80054477240122
 20
11.90078462708703
 30
0.0
 11
-40.80060350502117
 21
11.91975124263712
 31
0.0
 11
-40.80058885221228
 21
11.91500943119058
 31
0.0
 11
-40.80057417898792
 21
11.91026766479729
 31
0.0
 11
-40.80055948590382
 21
11.90552612341548
 31
0.0
 11
-40.80054477240122
 21
11.90078462708703
 31
0.0
  0
LINE
  5
3DA
330
2
100
AcDbEntity
  8
GAIKEI
  6
Continuous
 62
     1
100
AcDbLine
 10
-40.79749430118124
 20
11.90383509830712
 30
0.0
 11
-40.80054477240122
 21
11.90078462708697
 31
0.0
  0
CIRCLE
  5
3DB
330
2
100
AcDbEntity
  8
GAIKEI
  6
Continuous
 62
     1
100
AcDbCircle
 10
-35.0224907553154
 20
17.90078462708698
 30
0.0
 40
0.6000000000000001
  0
CIRCLE
  5
3DC
330
2
100
AcDbEntity
  8
GAIKEI
  6
Continuous
 62
     1
100
AcDbCircle
 10
-35.0224907553154
 20
17.90078462708698
 30
0.0
 40
0.5
  0
CIRCLE
  5
3DD
330
2
100
AcDbEntity
  8
GAIKEI
  6
Continuous
 62
     1
100
AcDbCircle
 10
-35.0224907553154
 20
14.500784627087
 30
0.0
 40
0.6000000000000001
  0
CIRCLE
  5
3DE
330
2
100
AcDbEntity
  8
GAIKEI
  6
Continuous
 62
     1
100
AcDbCircle
 10
-35.0224907553154
 20
14.500784627087
 30
0.0
 40
0.5
  0
CIRCLE
  5
3DF
330
2
100
AcDbEntity
  8
GAIKEI
  6
Continuous
 62
     1
100
AcDbCircle
 10
-35.0224907553154
 20
16.20078462708704
 30
0.0
 40
0.5
  0
CIRCLE
  5
3E0
330
2
100
AcDbEntity
  8
GAIKEI
  6
Continuous
 62
     1
100
AcDbCircle
 10
-35.0224907553154
 20
16.20078462708704
 30
0.0
 40
0.6000000000000001
  0
LINE
  5
3E1
330
2
100
AcDbEntity
  8
GAIKEI
  6
Continuous
 62
     1
100
AcDbLine
 10
-36.17249075531544
 20
15.40078462708698
 30
0.0
 11
-34.97249075531539
 21
15.40078462708698
 31
0.0
  0
LINE
  5
3E2
330
2
100
AcDbEntity
  8
GAIKEI
  6
Continuous
 62
     1
100
AcDbLine
 10
-36.17249075531544
 20
17.10078462708702
 30
0.0
 11
-34.97249075531539
 21
17.10078462708702
 31
0.0
  0
LINE
  5
3E3
330
2
100
AcDbEntity
  8
GAIKEI
  6
Continuous
 62
     1
100
AcDbLine
 10
-36.17249075531544
 20
18.80078462708701
 30
0.0
 11
-34.97249075531539
 21
18.80078462708701
 31
0.0
  0
CIRCLE
  5
3E4
330
2
100
AcDbEntity
  8
GAIKEI
  6
Continuous
 62
     1
100
AcDbCircle
 10
-36.8974907553154
 20
17.90078462708698
 30
0.0
 40
0.5
  0
CIRCLE
  5
3E5
330
2
100
AcDbEntity
  8
GAIKEI
  6
Continuous
 62
     1
100
AcDbCircle
 10
-36.8974907553154
 20
17.90078462708698
 30
0.0
 40
0.6000000000000001
  0
LINE
  5
3E6
330
2
100
AcDbEntity
  8
GAIKEI
  6
Continuous
 62
     1
100
AcDbLine
 10
-38.74749075531543
 20
14.80078462708701
 30
0.0
 11
-37.41710599758602
 21
14.80078462708701
 31
0.0
  0
LINE
  5
3E7
330
2
100
AcDbEntity
  8
GAIKEI
  6
Continuous
 62
     1
100
AcDbLine
 10
-38.74749075531543
 20
15.40078462708698
 30
0.0
 11
-36.84749075531539
 21
15.40078462708698
 31
0.0
  0
LINE
  5
3E8
330
2
100
AcDbEntity
  8
GAIKEI
  6
Continuous
 62
     1
100
AcDbLine
 10
-38.74749075531543
 20
13.10078462708702
 30
0.0
 11
-37.41710599758602
 21
13.10078462708702
 31
0.0
  0
LINE
  5
3E9
330
2
100
AcDbEntity
  8
GAIKEI
  6
Continuous
 62
     1
100
AcDbLine
 10
-38.74749075531543
 20
13.70078462708704
 30
0.0
 11
-36.84749075531539
 21
13.70078462708704
 31
0.0
  0
LINE
  5
3EA
330
2
100
AcDbEntity
  8
GAIKEI
  6
Continuous
 62
     1
100
AcDbLine
 10
-38.79749075531544
 20
15.35078462708702
 30
0.0
 11
-38.79749075531544
 21
14.85078462708702
 31
0.0
  0
ARC
  5
3EB
330
2
100
AcDbEntity
  8
GAIKEI
  6
Continuous
 62
     1
100
AcDbCircle
 10
-38.74749075531543
 20
14.85078462708702
 30
0.0
 40
0.05
100
AcDbArc
 50
180.0
 51
270.0
  0
ARC
  5
3EC
330
2
100
AcDbEntity
  8
GAIKEI
  6
Continuous
 62
     1
100
AcDbCircle
 10
-38.74749075531543
 20
13.15078462708697
 30
0.0
 40
0.05
100
AcDbArc
 50
180.0
 51
270.0
  0
ARC
  5
3ED
330
2
100
AcDbEntity
  8
GAIKEI
  6
Continuous
 62
     1
100
AcDbCircle
 10
-38.74749075531543
 20
13.65078462708698
 30
0.0
 40
0.05
100
AcDbArc
 50
90.0
 51
180.0
  0
LINE
  5
3EE
330
2
100
AcDbEntity
  8
GAIKEI
  6
Continuous
 62
     1
100
AcDbLine
 10
-38.79749075531544
 20
13.65078462708698
 30
0.0
 11
-38.79749075531544
 21
13.15078462708697
 31
0.0
  0
ARC
  5
3EF
330
2
100
AcDbEntity
  8
GAIKEI
  6
Continuous
 62
     1
100
AcDbCircle
 10
-38.79748187012086
 20
17.05078462708701
 30
0.0
 40
0.05
100
AcDbArc
 50
0.0
 51
90.0
  0
ARC
  5
3F0
330
2
100
AcDbEntity
  8
GAIKEI
  6
Continuous
 62
     1
100
AcDbCircle
 10
-39.99748187012085
 20
17.05078462708701
 30
0.0
 40
0.05
100
AcDbArc
 50
90.0
 51
180.0
  0
LINE
  5
3F1
330
2
100
AcDbEntity
  8
GAIKEI
  6
Continuous
 62
     1
100
AcDbLine
 10
-38.79748187012086
 20
17.10078462708702
 30
0.0
 11
-39.99748187012085
 21
17.10078462708702
 31
0.0
  0
ARC
  5
3F2
330
2
100
AcDbEntity
  8
GAIKEI
  6
Continuous
 62
     1
100
AcDbCircle
 10
-38.74749075531543
 20
15.35078462708702
 30
0.0
 40
0.05
100
AcDbArc
 50
90.0
 51
180.0
  0
ARC
  5
3F3
330
2
100
AcDbEntity
  8
GAIKEI
  6
Continuous
 62
     1
100
AcDbCircle
 10
-38.9767711920021
 20
16.45078462708704
 30
0.0
 40
0.05
100
AcDbArc
 50
90.0
 51
134.9999999999811
  0
ARC
  5
3F4
330
2
100
AcDbEntity
  8
GAIKEI
  6
Continuous
 62
     1
100
AcDbCircle
 10
-38.79748187012086
 20
16.55078462708701
 30
0.0
 40
0.05
100
AcDbArc
 50
270.0
 51
0.0
  0
LINE
  5
3F5
330
2
100
AcDbEntity
  8
GAIKEI
  6
Continuous
 62
     1
100
AcDbLine
 10
-39.01212653106154
 20
16.48613996614642
 30
0.0
 11
-39.14132658883995
 21
16.35693990836802
 31
0.0
  0
LINE
  5
3F6
330
2
100
AcDbEntity
  8
GAIKEI
  6
Continuous
 62
     1
100
AcDbLine
 10
-38.9767711920021
 20
16.500784627087
 30
0.0
 11
-38.79748187012086
 21
16.500784627087
 31
0.0
  0
ARC
  5
3F7
330
2
100
AcDbEntity
  8
GAIKEI
  6
Continuous
 62
     1
100
AcDbCircle
 10
-39.81819254823955
 20
16.45078462708704
 30
0.0
 40
0.050000000000121
100
AcDbArc
 50
45.00000000001885
 51
90.0
  0
ARC
  5
3F8
330
2
100
AcDbEntity
  8
GAIKEI
  6
Continuous
 62
     1
100
AcDbCircle
 10
-39.99748187012085
 20
16.55078462708701
 30
0.0
 40
0.05
100
AcDbArc
 50
180.0
 51
270.0
  0
LINE
  5
3F9
330
2
100
AcDbEntity
  8
GAIKEI
  6
Continuous
 62
     1
100
AcDbLine
 10
-39.78283720918012
 20
16.48613996614642
 30
0.0
 11
-39.65363715140171
 21
16.35693990836802
 31
0.0
  0
LINE
  5
3FA
330
2
100
AcDbEntity
  8
GAIKEI
  6
Continuous
 62
     1
100
AcDbLine
 10
-39.99748187012085
 20
16.500784627087
 30
0.0
 11
-39.81819254823955
 21
16.500784627087
 31
0.0
  0
CIRCLE
  5
3FB
330
2
100
AcDbEntity
  8
GAIKEI
  6
Continuous
 62
     1
100
AcDbCircle
 10
-39.39749430118121
 20
16.20383509830708
 30
0.0
 40
0.3050000000000068
  0
CIRCLE
  5
3FC
330
2
100
AcDbEntity
  8
GAIKEI
  6
Continuous
 62
     1
100
AcDbCircle
 10
-39.39749430118121
 20
16.20383509830708
 30
0.0
 40
0.15
  0
LINE
  5
3FD
330
2
100
AcDbEntity
  8
GAIKEI
  6
Continuous
 62
     1
100
AcDbLine
 10
-40.04748187012086
 20
17.05078462708701
 30
0.0
 11
-40.04748187012086
 21
16.55078462708701
 31
0.0
  0
LINE
  5
3FE
330
2
100
AcDbEntity
  8
GAIKEI
  6
Continuous
 62
     1
100
AcDbLine
 10
-38.74748187012085
 20
17.05078462708701
 30
0.0
 11
-38.74748187012085
 21
16.55078462708701
 31
0.0
  0
LINE
  5
3FF
330
2
100
AcDbEntity
  8
GAIKEI
  6
Continuous
 62
     1
100
AcDbLine
 10
-36.22249075531539
 20
15.35078462708702
 30
0.0
 11
-36.22249075531539
 21
14.85078462708702
 31
0.0
  0
LINE
  5
400
330
2
100
AcDbEntity
  8
GAIKEI
  6
Continuous
 62
     1
100
AcDbLine
 10
-36.79749075531544
 20
15.35078462708702
 30
0.0
 11
-36.79749075531544
 21
15.09239260539721
 31
0.0
  0
CIRCLE
  5
401
330
2
100
AcDbEntity
  8
GAIKEI
  6
Continuous
 62
     1
100
AcDbCircle
 10
-36.8974907553154
 20
14.500784627087
 30
0.0
 40
0.5
  0
CIRCLE
  5
402
330
2
100
AcDbEntity
  8
GAIKEI
  6
Continuous
 62
     1
100
AcDbCircle
 10
-36.8974907553154
 20
14.500784627087
 30
0.0
 40
0.6000000000000001
  0
ARC
  5
403
330
2
100
AcDbEntity
  8
GAIKEI
  6
Continuous
 62
     1
100
AcDbCircle
 10
-36.17249075531544
 20
14.85078462708702
 30
0.0
 40
0.05
100
AcDbArc
 50
180.0
 51
270.0
  0
ARC
  5
404
330
2
100
AcDbEntity
  8
GAIKEI
  6
Continuous
 62
     1
100
AcDbCircle
 10
-36.84749075531539
 20
13.65078462708698
 30
0.0
 40
0.05
100
AcDbArc
 50
0.0
 51
90.0
  0
LINE
  5
405
330
2
100
AcDbEntity
  8
GAIKEI
  6
Continuous
 62
     1
100
AcDbLine
 10
-36.79749075531544
 20
13.65078462708698
 30
0.0
 11
-36.79749075531544
 21
13.39239260539716
 31
0.0
  0
LINE
  5
406
330
2
100
AcDbEntity
  8
GAIKEI
  6
Continuous
 62
     1
100
AcDbLine
 10
-36.17249075531544
 20
14.80078462708701
 30
0.0
 11
-35.54210599758602
 21
14.80078462708701
 31
0.0
  0
LINE
  5
407
330
2
100
AcDbEntity
  8
GAIKEI
  6
Continuous
 62
     1
100
AcDbLine
 10
-38.04749075531544
 20
17.10078462708702
 30
0.0
 11
-36.84749075531539
 21
17.10078462708702
 31
0.0
  0
CIRCLE
  5
408
330
2
100
AcDbEntity
  8
GAIKEI
  6
Continuous
 62
     1
100
AcDbCircle
 10
-36.8974907553154
 20
16.20078462708704
 30
0.0
 40
0.5
  0
CIRCLE
  5
409
330
2
100
AcDbEntity
  8
GAIKEI
  6
Continuous
 62
     1
100
AcDbCircle
 10
-36.8974907553154
 20
16.20078462708704
 30
0.0
 40
0.6000000000000001
  0
ARC
  5
40A
330
2
100
AcDbEntity
  8
GAIKEI
  6
Continuous
 62
     1
100
AcDbCircle
 10
-38.04749075531544
 20
17.05078462708701
 30
0.0
 40
0.05
100
AcDbArc
 50
90.0
 51
180.0
  0
ARC
  5
40B
330
2
100
AcDbEntity
  8
GAIKEI
  6
Continuous
 62
     1
100
AcDbCircle
 10
-38.04749075531544
 20
16.55078462708701
 30
0.0
 40
0.05
100
AcDbArc
 50
180.0
 51
270.0
  0
LINE
  5
40C
330
2
100
AcDbEntity
  8
GAIKEI
  6
Continuous
 62
     1
100
AcDbLine
 10
-38.04749075531544
 20
16.500784627087
 30
0.0
 11
-37.41710599758602
 21
16.500784627087
 31
0.0
  0
LINE
  5
40D
330
2
100
AcDbEntity
  8
GAIKEI
  6
Continuous
 62
     1
100
AcDbLine
 10
-38.09749075531539
 20
17.05078462708701
 30
0.0
 11
-38.09749075531539
 21
16.55078462708701
 31
0.0
  0
ARC
  5
40E
330
2
100
AcDbEntity
  8
GAIKEI
  6
Continuous
 62
     1
100
AcDbCircle
 10
-36.84749075531539
 20
17.05078462708701
 30
0.0
 40
0.05
100
AcDbArc
 50
0.0
 51
90.0
  0
ARC
  5
40F
330
2
100
AcDbEntity
  8
GAIKEI
  6
Continuous
 62
     1
100
AcDbCircle
 10
-36.17249075531544
 20
17.05078462708701
 30
0.0
 40
0.05
100
AcDbArc
 50
90.0
 51
180.0
  0
LINE
  5
410
330
2
100
AcDbEntity
  8
GAIKEI
  6
Continuous
 62
     1
100
AcDbLine
 10
-36.79749075531544
 20
17.05078462708701
 30
0.0
 11
-36.79749075531544
 21
16.79239260539719
 31
0.0
  0
ARC
  5
411
330
2
100
AcDbEntity
  8
GAIKEI
  6
Continuous
 62
     1
100
AcDbCircle
 10
-36.17249075531544
 20
15.35078462708702
 30
0.0
 40
0.05
100
AcDbArc
 50
90.0
 51
180.0
  0
ARC
  5
412
330
2
100
AcDbEntity
  8
GAIKEI
  6
Continuous
 62
     1
100
AcDbCircle
 10
-36.84749075531539
 20
15.35078462708702
 30
0.0
 40
0.05
100
AcDbArc
 50
0.0
 51
90.0
  0
ARC
  5
413
330
2
100
AcDbEntity
  8
GAIKEI
  6
Continuous
 62
     1
100
AcDbCircle
 10
-36.17249075531544
 20
16.55078462708701
 30
0.0
 40
0.05
100
AcDbArc
 50
180.0
 51
270.0
  0
LINE
  5
414
330
2
100
AcDbEntity
  8
GAIKEI
  6
Continuous
 62
     1
100
AcDbLine
 10
-36.22249075531539
 20
17.05078462708701
 30
0.0
 11
-36.22249075531539
 21
16.55078462708701
 31
0.0
  0
LINE
  5
415
330
2
100
AcDbEntity
  8
GAIKEI
  6
Continuous
 62
     1
100
AcDbLine
 10
-36.17249075531544
 20
16.500784627087
 30
0.0
 11
-35.54210599758602
 21
16.500784627087
 31
0.0
  0
SPLINE
  5
416
330
2
100
AcDbEntity
  8
GAIKEI
  6
Continuous
 62
     1
100
AcDbSpline
210
0.0
220
0.0
230
1.0
 70
     8
 71
     3
 72
    11
 73
     7
 74
     5
 42
0.0000000001
 43
0.0000000001
 44
0.00000000001
 40
0.0
 40
0.0
 40
0.0
 40
0.0
 40
0.0296570184929128
 40
0.0593158244502697
 40
0.0889835677423174
 40
0.1186530985038591
 40
0.1186530985038591
 40
0.1186530985038591
 40
0.1186530985038591
 10
-40.80023066952117
 20
19.00657146665713
 30
0.0
 10
-40.8002621929655
 20
18.99668584408658
 30
0.0
 10
-40.80032524175414
 20
18.97691400312709
 30
0.0
 10
-40.80041878913473
 20
18.94725296139319
 30
0.0
 10
-40.80051165913964
 20
18.91758774675395
 30
0.0
 10
-40.8005728891125
 20
18.89780875017607
 30
0.0
 10
-40.80060350502117
 20
18.88791895397713
 30
0.0
 11
-40.80023066952117
 21
19.00657146665713
 31
0.0
 11
-40.80032506717498
 21
18.97691459839746
 31
0.0
 11
-40.8004186646935
 21
18.9472559401284
 31
0.0
 11
-40.80051148473399
 21
18.9175883420375
 31
0.0
 11
-40.80060350502117
 21
18.88791895397713
 31
0.0
  0
CIRCLE
  5
417
330
2
100
AcDbEntity
  8
GAIKEI
  6
Continuous
 62
     1
100
AcDbCircle
 10
-39.39749430118121
 20
17.90383509830713
 30
0.0
 40
0.3050000000000068
  0
CIRCLE
  5
418
330
2
100
AcDbEntity
  8
GAIKEI
  6
Continuous
 62
     1
100
AcDbCircle
 10
-39.39749430118121
 20
17.90383509830713
 30
0.0
 40
0.15
  0
LINE
  5
419
330
2
100
AcDbEntity
  8
GAIKEI
  6
Continuous
 62
     1
100
AcDbLine
 10
-38.04749075531544
 20
18.80078462708701
 30
0.0
 11
-36.84749075531539
 21
18.80078462708701
 31
0.0
  0
ARC
  5
41A
330
2
100
AcDbEntity
  8
GAIKEI
  6
Continuous
 62
     1
100
AcDbCircle
 10
-38.04749075531544
 20
18.250784627087
 30
0.0
 40
0.05
100
AcDbArc
 50
180.0
 51
270.0
  0
ARC
  5
41B
330
2
100
AcDbEntity
  8
GAIKEI
  6
Continuous
 62
     1
100
AcDbCircle
 10
-38.04749075531544
 20
18.750784627087
 30
0.0
 40
0.05
100
AcDbArc
 50
90.0
 51
180.0
  0
LINE
  5
41C
330
2
100
AcDbEntity
  8
GAIKEI
  6
Continuous
 62
     1
100
AcDbLine
 10
-38.09749075531539
 20
18.750784627087
 30
0.0
 11
-38.09749075531539
 21
18.250784627087
 31
0.0
  0
LINE
  5
41D
330
2
100
AcDbEntity
  8
GAIKEI
  6
Continuous
 62
     1
100
AcDbLine
 10
-38.04749075531544
 20
18.20078462708704
 30
0.0
 11
-37.41710599758602
 21
18.20078462708704
 31
0.0
  0
ARC
  5
41E
330
2
100
AcDbEntity
  8
GAIKEI
  6
Continuous
 62
     1
100
AcDbCircle
 10
-36.17249075531544
 20
18.750784627087
 30
0.0
 40
0.05
100
AcDbArc
 50
90.0
 51
180.0
  0
ARC
  5
41F
330
2
100
AcDbEntity
  8
GAIKEI
  6
Continuous
 62
     1
100
AcDbCircle
 10
-36.17249075531544
 20
18.250784627087
 30
0.0
 40
0.05
100
AcDbArc
 50
180.0
 51
270.0
  0
ARC
  5
420
330
2
100
AcDbEntity
  8
GAIKEI
  6
Continuous
 62
     1
100
AcDbCircle
 10
-36.84749075531539
 20
18.750784627087
 30
0.0
 40
0.05
100
AcDbArc
 50
0.0
 51
90.0
  0
LINE
  5
421
330
2
100
AcDbEntity
  8
GAIKEI
  6
Continuous
 62
     1
100
AcDbLine
 10
-36.22249075531539
 20
18.750784627087
 30
0.0
 11
-36.22249075531539
 21
18.250784627087
 31
0.0
  0
LINE
  5
422
330
2
100
AcDbEntity
  8
GAIKEI
  6
Continuous
 62
     1
100
AcDbLine
 10
-36.79749075531544
 20
18.750784627087
 30
0.0
 11
-36.79749075531544
 21
18.49239260539718
 31
0.0
  0
LINE
  5
423
330
2
100
AcDbEntity
  8
GAIKEI
  6
Continuous
 62
     1
100
AcDbLine
 10
-36.17249075531544
 20
18.20078462708704
 30
0.0
 11
-35.54210599758602
 21
18.20078462708704
 31
0.0
  0
LINE
  5
424
330
2
100
AcDbEntity
  8
GAIKEI
  6
Continuous
 62
     1
100
AcDbLine
 10
-34.34749075531539
 20
15.35078462708702
 30
0.0
 11
-34.34749075531539
 21
14.85078462708702
 31
0.0
  0
LINE
  5
425
330
2
100
AcDbEntity
  8
GAIKEI
  6
Continuous
 62
     1
100
AcDbLine
 10
-34.92249075531544
 20
15.35078462708702
 30
0.0
 11
-34.92249075531544
 21
15.09239260539721
 31
0.0
  0
ARC
  5
426
330
2
100
AcDbEntity
  8
GAIKEI
  6
Continuous
 62
     1
100
AcDbCircle
 10
-34.29749075531544
 20
14.85078462708702
 30
0.0
 40
0.05
100
AcDbArc
 50
180.0
 51
270.0
  0
ARC
  5
427
330
2
100
AcDbEntity
  8
GAIKEI
  6
Continuous
 62
     1
100
AcDbCircle
 10
-34.97249075531539
 20
17.05078462708701
 30
0.0
 40
0.05
100
AcDbArc
 50
0.0
 51
90.0
  0
ARC
  5
428
330
2
100
AcDbEntity
  8
GAIKEI
  6
Continuous
 62
     1
100
AcDbCircle
 10
-34.29749075531544
 20
17.05078462708701
 30
0.0
 40
0.05
100
AcDbArc
 50
90.0
 51
180.0
  0
LINE
  5
429
330
2
100
AcDbEntity
  8
GAIKEI
  6
Continuous
 62
     1
100
AcDbLine
 10
-34.92249075531544
 20
17.05078462708701
 30
0.0
 11
-34.92249075531544
 21
16.79239260539719
 31
0.0
  0
ARC
  5
42A
330
2
100
AcDbEntity
  8
GAIKEI
  6
Continuous
 62
     1
100
AcDbCircle
 10
-34.29749075531544
 20
15.35078462708702
 30
0.0
 40
0.05
100
AcDbArc
 50
90.0
 51
180.0
  0
ARC
  5
42B
330
2
100
AcDbEntity
  8
GAIKEI
  6
Continuous
 62
     1
100
AcDbCircle
 10
-34.97249075531539
 20
15.35078462708702
 30
0.0
 40
0.05
100
AcDbArc
 50
0.0
 51
90.0
  0
ARC
  5
42C
330
2
100
AcDbEntity
  8
GAIKEI
  6
Continuous
 62
     1
100
AcDbCircle
 10
-34.29749075531544
 20
16.55078462708701
 30
0.0
 40
0.05
100
AcDbArc
 50
180.0
 51
270.0
  0
LINE
  5
42D
330
2
100
AcDbEntity
  8
GAIKEI
  6
Continuous
 62
     1
100
AcDbLine
 10
-34.34749075531539
 20
17.05078462708701
 30
0.0
 11
-34.34749075531539
 21
16.55078462708701
 31
0.0
  0
ARC
  5
42E
330
2
100
AcDbEntity
  8
GAIKEI
  6
Continuous
 62
     1
100
AcDbCircle
 10
-34.29749075531544
 20
18.250784627087
 30
0.0
 40
0.05
100
AcDbArc
 50
180.0
 51
270.0
  0
ARC
  5
42F
330
2
100
AcDbEntity
  8
GAIKEI
  6
Continuous
 62
     1
100
AcDbCircle
 10
-34.29749075531544
 20
18.750784627087
 30
0.0
 40
0.05
100
AcDbArc
 50
90.0
 51
180.0
  0
ARC
  5
430
330
2
100
AcDbEntity
  8
GAIKEI
  6
Continuous
 62
     1
100
AcDbCircle
 10
-34.97249075531539
 20
18.750784627087
 30
0.0
 40
0.05
100
AcDbArc
 50
0.0
 51
90.0
  0
LINE
  5
431
330
2
100
AcDbEntity
  8
GAIKEI
  6
Continuous
 62
     1
100
AcDbLine
 10
-34.34749075531539
 20
18.750784627087
 30
0.0
 11
-34.34749075531539
 21
18.250784627087
 31
0.0
  0
LINE
  5
432
330
2
100
AcDbEntity
  8
GAIKEI
  6
Continuous
 62
     1
100
AcDbLine
 10
-34.92249075531544
 20
18.750784627087
 30
0.0
 11
-34.92249075531544
 21
18.49239260539718
 31
0.0
  0
LINE
  5
433
330
2
100
AcDbEntity
  8
GAIKEI
  6
Continuous
 62
     7
100
AcDbLine
 10
-48.44749430118122
 20
19.40383509830713
 30
0.0
 11
-48.44749430118122
 21
11.40383509830712
 31
0.0
  0
LINE
  5
434
330
2
100
AcDbEntity
  8
GAIKEI
  6
Continuous
100
AcDbLine
 10
-49.44749430118122
 20
11.00383509830715
 30
0.0
 11
-49.44749430118122
 21
19.8038350983071
 31
0.0
  0
LINE
  5
435
330
2
100
AcDbEntity
  8
GAIKEI
  6
S10
 62
     1
100
AcDbLine
 10
-49.67749430118124
 20
19.80383509830716
 30
0.0
 11
-49.67749430118124
 21
11.00383509830715
 31
0.0
  0
LINE
  5
436
330
2
100
AcDbEntity
  8
GAIKEI
  6
S10
 62
     1
100
AcDbLine
 10
-52.44749430118111
 20
11.20383509830713
 30
0.0
 11
-52.44749430118099
 21
19.60383509830711
 31
0.0
  0
ARC
  5
437
330
2
100
AcDbEntity
  8
GAIKEI
  6
S10
 62
     1
100
AcDbCircle
 10
-52.24749430118095
 20
11.20383509830713
 30
0.0
 40
0.2000000000001819
100
AcDbArc
 50
180.0
 51
269.9999999999479
  0
LINE
  5
438
330
2
100
AcDbEntity
  8
GAIKEI
  6
HIDDEN2
 62
     1
100
AcDbLine
 10
-49.44749430118122
 20
11.00383509830715
 30
0.0
 11
-52.24749430118112
 21
11.00383509830715
 31
0.0
  0
ARC
  5
43A
330
2
100
AcDbEntity
  8
GAIKEI
  6
S10
 62
     1
100
AcDbCircle
 10
-51.54749430118113
 20
11.60383509830711
 30
0.0
 40
0.3
100
AcDbArc
 50
270.0
 51
90.0
  0
ARC
  5
43B
330
2
100
AcDbEntity
  8
GAIKEI
  6
S10
 62
     1
100
AcDbCircle
 10
-51.94749430118111
 20
11.60383509830711
 30
0.0
 40
0.3
100
AcDbArc
 50
90.0
 51
270.0
  0
LINE
  5
43C
330
2
100
AcDbEntity
  8
GAIKEI
  6
S10
 62
     1
100
AcDbLine
 10
-51.94749430118111
 20
11.30383509830716
 30
0.0
 11
-51.54749430118113
 21
11.30383509830716
 31
0.0
  0
LINE
  5
43D
330
2
100
AcDbEntity
  8
GAIKEI
  6
S10
 62
     1
100
AcDbLine
 10
-51.94749430118111
 20
11.90383509830712
 30
0.0
 11
-51.54749430118113
 21
11.90383509830712
 31
0.0
  0
ARC
  5
43E
330
2
100
AcDbEntity
  8
GAIKEI
  6
S10
 62
     1
100
AcDbCircle
 10
-52.24749430118112
 20
19.60383509830711
 30
0.0
 40
0.2
100
AcDbArc
 50
90.0
 51
180.0
  0
LINE
  5
43F
330
2
100
AcDbEntity
  8
GAIKEI
  6
HIDDEN2
 62
     1
100
AcDbLine
 10
-52.24749430118112
 20
19.80383509830716
 30
0.0
 11
-49.44749430118122
 21
19.80383509830716
 31
0.0
  0
ARC
  5
440
330
2
100
AcDbEntity
  8
GAIKEI
  6
S10
 62
     1
100
AcDbCircle
 10
-51.54749430118113
 20
19.20383509830713
 30
0.0
 40
0.3
100
AcDbArc
 50
270.0
 51
90.0
  0
ARC
  5
441
330
2
100
AcDbEntity
  8
GAIKEI
  6
S10
 62
     1
100
AcDbCircle
 10
-51.94749430118111
 20
19.20383509830713
 30
0.0
 40
0.3
100
AcDbArc
 50
90.0
 51
270.0
  0
LINE
  5
442
330
2
100
AcDbEntity
  8
GAIKEI
  6
S10
 62
     1
100
AcDbLine
 10
-51.54749430118113
 20
19.50383509830715
 30
0.0
 11
-51.94749430118111
 21
19.50383509830715
 31
0.0
  0
LINE
  5
443
330
2
100
AcDbEntity
  8
GAIKEI
  6
S10
 62
     1
100
AcDbLine
 10
-51.54749430118113
 20
18.90383509830712
 30
0.0
 11
-51.94749430118111
 21
18.90383509830712
 31
0.0
  0
LINE
  5
444
330
2
100
AcDbEntity
  8
GAIKEI
  6
Continuous
 62
     7
100
AcDbLine
 10
-48.44749430118122
 20
11.40383509830712
 30
0.0
 11
-43.68855233440121
 21
11.40383509830707
 31
0.0
  0
LINE
  5
445
330
2
100
AcDbEntity
  8
GAIKEI
  6
Continuous
 62
     1
100
AcDbLine
 10
-48.44749430118122
 20
19.40383509830713
 30
0.0
 11
-43.68855233440121
 21
19.40383509830707
 31
0.0
  0
LINE
  5
446
330
2
100
AcDbEntity
  8
GAIKEI
  6
Continuous
100
AcDbLine
 10
-49.44749430118122
 20
19.8038350983071
 30
0.0
 11
-7.44749430118145
 21
19.8038350983071
 31
0.0
  0
LINE
  5
447
330
2
100
AcDbEntity
  8
GAIKEI
  6
Continuous
100
AcDbLine
 10
-7.44749430118145
 20
11.00383509830715
 30
0.0
 11
-49.44749430118122
 21
11.00383509830715
 31
0.0
  0
LINE
  5
448
330
2
100
AcDbEntity
  8
GAIKEI
  6
Continuous
100
AcDbLine
 10
-7.44749430118145
 20
11.00383509830715
 30
0.0
 11
-49.44749430118122
 21
11.00383509830715
 31
0.0
  0
LINE
  5
449
330
2
100
AcDbEntity
  8
GAIKEI
  6
Continuous
100
AcDbLine
 10
-49.44749430118122
 20
19.8038350983071
 30
0.0
 11
-7.44749430118145
 21
19.8038350983071
 31
0.0
  0
LINE
  5
44A
330
2
100
AcDbEntity
  8
GAIKEI
  6
Continuous
 62
     1
100
AcDbLine
 10
-43.68855233440121
 20
19.40383509830713
 30
0.0
 11
-13.70643626795117
 21
19.40383509830713
 31
0.0
  0
LINE
  5
44B
330
2
100
AcDbEntity
  8
GAIKEI
  6
Continuous
100
AcDbLine
 10
-43.68855233440121
 20
11.40383509830712
 30
0.0
 11
-13.70643626795117
 21
11.40383509830712
 31
0.0
  0
LINE
  5
44C
330
2
100
AcDbEntity
  8
GAIKEI
  6
Continuous
 62
     1
100
AcDbLine
 10
-40.80054477240122
 20
11.90078462708697
 30
0.0
 11
-30.01944382995123
 21
11.90078462708697
 31
0.0
  0
LINE
  5
44D
330
2
100
AcDbEntity
  8
GAIKEI
  6
Continuous
 62
     1
100
AcDbLine
 10
-40.80023066952122
 20
19.00657146665708
 30
0.0
 11
-30.01975793284117
 21
19.00657146665708
 31
0.0
  0
LINE
  5
44E
330
2
100
AcDbEntity
  8
GAIKEI
  6
Continuous
 62
     1
100
AcDbLine
 10
-34.29749075531544
 20
14.80078462708701
 30
0.0
 11
-33.66710599758602
 21
14.80078462708701
 31
0.0
  0
LINE
  5
44F
330
2
100
AcDbEntity
  8
GAIKEI
  6
Continuous
 62
     1
100
AcDbLine
 10
-34.29749075531544
 20
17.10078462708702
 30
0.0
 11
-33.09749075531539
 21
17.10078462708702
 31
0.0
  0
LINE
  5
450
330
2
100
AcDbEntity
  8
GAIKEI
  6
Continuous
 62
     1
100
AcDbLine
 10
-34.29749075531544
 20
15.40078462708698
 30
0.0
 11
-33.09749075531539
 21
15.40078462708698
 31
0.0
  0
LINE
  5
451
330
2
100
AcDbEntity
  8
GAIKEI
  6
Continuous
 62
     1
100
AcDbLine
 10
-34.29749075531544
 20
16.500784627087
 30
0.0
 11
-33.66710599758602
 21
16.500784627087
 31
0.0
  0
LINE
  5
452
330
2
100
AcDbEntity
  8
GAIKEI
  6
Continuous
 62
     1
100
AcDbLine
 10
-34.29749075531544
 20
18.80078462708701
 30
0.0
 11
-33.09749075531539
 21
18.80078462708701
 31
0.0
  0
LINE
  5
453
330
2
100
AcDbEntity
  8
GAIKEI
  6
Continuous
 62
     1
100
AcDbLine
 10
-34.29749075531544
 20
18.20078462708704
 30
0.0
 11
-33.66710599758602
 21
18.20078462708704
 31
0.0
  0
LINE
  5
454
330
2
100
AcDbEntity
  8
GAIKEI
  6
S10
 62
     1
100
AcDbLine
 10
-7.44749430118145
 20
11.00383509830715
 30
0.0
 11
-4.647494301181495
 21
11.00383509830715
 31
0.0
  0
LINE
  5
455
330
2
100
AcDbEntity
  8
GAIKEI
  6
S10
 62
     1
100
AcDbLine
 10
-4.647494301181495
 20
19.80383509830716
 30
0.0
 11
-7.44749430118145
 21
19.80383509830716
 31
0.0
  0
LINE
  5
456
330
2
100
AcDbEntity
  8
GAIKEI
  6
Continuous
100
AcDbLine
 10
54.66508297972149
 20
11.1038365134184
 30
0.0
 11
20.36508283356142
 21
11.1038365134184
 31
0.0
  0
LINE
  5
457
330
2
100
AcDbEntity
  8
GAIKEI
  6
Continuous
100
AcDbLine
 10
22.84508566239219
 20
19.80383547459985
 30
0.0
 11
54.91508261421472
 21
19.80383547459985
 31
0.0
  0
LINE
  5
458
330
2
100
AcDbEntity
  8
GAIKEI
  6
Continuous
 62
     1
100
AcDbLine
 10
24.0950826142149
 20
13.32383547459989
 30
0.0
 11
52.39508261421491
 21
13.32383547459989
 31
0.0
  0
LINE
  5
459
330
2
100
AcDbEntity
  8
GAIKEI
  6
Continuous
 62
     1
100
AcDbLine
 10
24.0950826142149
 20
12.1238354745999
 30
0.0
 11
52.39508261421491
 21
12.1238354745999
 31
0.0
  0
LINE
  5
45A
330
2
100
AcDbEntity
  8
GAIKEI
  6
Continuous
 62
     1
100
AcDbLine
 10
24.0950826142149
 20
11.77383547459988
 30
0.0
 11
52.39508261421491
 21
11.77383547459988
 31
0.0
  0
LINE
  5
45B
330
2
100
AcDbEntity
  8
GAIKEI
  6
Continuous
 62
     1
100
AcDbLine
 10
24.0950826142149
 20
13.67383547459991
 30
0.0
 11
52.39508261421491
 21
13.67383547459991
 31
0.0
  0
DIMENSION
  5
45C
330
2
100
AcDbEntity
  8
SUNPO
100
AcDbDimension
  2
*D5
 10
-7.447494301181591
 20
27.7906177165313
 30
0.0
 11
-28.44749430118152
 21
29.5406177165313
 31
0.0
 70
    33
  1
420
 71
     5
 42
41.99999999999985
  3
STANDARD
100
AcDbAlignedDimension
 13
-49.44749430118145
 23
19.7906177165313
 33
0.0
 14
-7.447494301181592
 24
19.7906177165313
 34
0.0
1001
ACAD
1000
DSTYLE
1002
{
1070
   287
1070
     3
1070
   287
1070
     3
1070
   287
1070
     3
1070
   287
1070
     3
1070
   287
1070
     3
1070
   287
1070
     3
1070
   287
1070
     3
1070
   287
1070
     3
1070
   287
1070
     3
1070
   287
1070
     3
1070
    40
1040
1.0
1070
   140
1040
2.5
1070
   147
1040
0.5
1070
   172
1070
     1
1070
   279
1070
     0
1070
   288
1070
     0
1002
}
  0
DIMENSION
  5
469
330
2
100
AcDbEntity
  8
SUNPO
100
AcDbDimension
  2
*D4
 10
54.99508238961334
 20
27.79061771653124
 30
0.0
 11
37.49508238961335
 21
29.54061771653125
 31
0.0
 70
    33
  1
350
 71
     5
 42
35.0
  3
STANDARD
100
AcDbAlignedDimension
 13
19.99508238961334
 23
19.79061771653124
 33
0.0
 14
54.99508238961334
 24
19.79061771653124
 34
0.0
1001
ACAD
1000
DSTYLE
1002
{
1070
   287
1070
     3
1070
   287
1070
     3
1070
   287
1070
     3
1070
   287
1070
     3
1070
   287
1070
     3
1070
   287
1070
     3
1070
   287
1070
     3
1070
   287
1070
     3
1070
   287
1070
     3
1070
   287
1070
     3
1070
    40
1040
1.0
1070
   140
1040
2.5
1070
   147
1040
0.5
1070
   172
1070
     1
1070
   279
1070
     0
1070
   288
1070
     0
1002
}
  0
LINE
  5
476
330
2
100
AcDbEntity
  8
GAIKEI
  6
Continuous
 62
     1
100
AcDbLine
 10
-34.29749075531544
 20
13.70078462708699
 30
0.0
 11
-33.09749075531539
 21
13.70078462708699
 31
0.0
  0
LINE
  5
477
330
2
100
AcDbEntity
  8
GAIKEI
  6
Continuous
 62
     1
100
AcDbLine
 10
-34.29749075531544
 20
13.10078462708702
 30
0.0
 11
-33.66710599758602
 21
13.10078462708702
 31
0.0
  0
ARC
  5
478
330
2
100
AcDbEntity
  8
GAIKEI
  6
Continuous
 62
     1
100
AcDbCircle
 10
-34.29749075531544
 20
13.65078462708703
 30
0.0
 40
0.05
100
AcDbArc
 50
90.0
 51
180.0
  0
ARC
  5
479
330
2
100
AcDbEntity
  8
GAIKEI
  6
Continuous
 62
     1
100
AcDbCircle
 10
-34.29749075531544
 20
13.15078462708703
 30
0.0
 40
0.05
100
AcDbArc
 50
180.0
 51
270.0
  0
LINE
  5
47A
330
2
100
AcDbEntity
  8
GAIKEI
  6
Continuous
 62
     1
100
AcDbLine
 10
-34.34749075531539
 20
13.65078462708703
 30
0.0
 11
-34.34749075531539
 21
13.15078462708703
 31
0.0
  0
ARC
  5
47B
330
2
100
AcDbEntity
  8
GAIKEI
  6
Continuous
 62
     1
100
AcDbCircle
 10
-33.09749075531539
 20
13.65078462708703
 30
0.0
 40
0.05
100
AcDbArc
 50
0.0
 51
90.0
  0
LINE
  5
47C
330
2
100
AcDbEntity
  8
GAIKEI
  6
Continuous
 62
     1
100
AcDbLine
 10
-33.04749075531544
 20
13.65078462708703
 30
0.0
 11
-33.04749075531544
 21
13.39239260539722
 31
0.0
  0
LINE
  5
47D
330
2
100
AcDbEntity
  8
GAIKEI
 62
     1
100
AcDbLine
 10
-28.13682677058108
 20
18.59483471160718
 30
0.0
 11
-28.47905492738431
 21
18.59483471160712
 31
0.0
  0
LINE
  5
47E
330
2
100
AcDbEntity
  8
GAIKEI
 62
     1
100
AcDbLine
 10
-28.47905492738431
 20
18.59483471160712
 30
0.0
 11
-28.47883153751096
 21
17.79297495945724
 31
0.0
  0
LINE
  5
47F
330
2
100
AcDbEntity
  8
GAIKEI
 62
     1
100
AcDbLine
 10
-28.47883153751096
 20
17.79297495945724
 30
0.0
 11
-28.13682677058108
 21
17.79297495945718
 31
0.0
  0
LINE
  5
480
330
2
100
AcDbEntity
  8
GAIKEI
 62
     1
100
AcDbLine
 10
-28.13682677058108
 20
17.79297495945718
 30
0.0
 11
-28.13682677058108
 21
18.59483471160718
 31
0.0
  0
LINE
  5
481
330
2
100
AcDbEntity
  8
GAIKEI
 62
     1
100
AcDbLine
 10
-26.15988791852107
 20
18.59483471160718
 30
0.0
 11
-25.73510068383115
 21
18.59483471160718
 31
0.0
  0
LINE
  5
482
330
2
100
AcDbEntity
  8
GAIKEI
 62
     1
100
AcDbLine
 10
-26.15988791852107
 20
17.79297495945718
 30
0.0
 11
-25.73510068383115
 21
17.79297495945718
 31
0.0
  0
LINE
  5
483
330
2
100
AcDbEntity
  8
GAIKEI
 62
     1
100
AcDbLine
 10
-26.15988791852107
 20
18.59483471160718
 30
0.0
 11
-26.15988791852107
 21
17.79297495945718
 31
0.0
  0
LINE
  5
484
330
2
100
AcDbEntity
  8
GAIKEI
 62
     1
100
AcDbLine
 10
-25.73510068383115
 20
18.59483471160718
 30
0.0
 11
-25.73510068383115
 21
17.79297495945718
 31
0.0
  0
LINE
  5
485
330
2
100
AcDbEntity
  8
GAIKEI
 62
     1
100
AcDbLine
 10
-28.00692835355113
 20
17.80442084556705
 30
0.0
 11
-26.28806024880117
 21
17.80442084556705
 31
0.0
  0
LINE
  5
486
330
2
100
AcDbEntity
  8
GAIKEI
 62
     1
100
AcDbLine
 10
-28.00501818356122
 20
18.58133918106716
 30
0.0
 11
-26.28997041879114
 21
18.58133918106716
 31
0.0
  0
ARC
  5
487
330
2
100
AcDbEntity
  8
GAIKEI
 62
     1
100
AcDbCircle
 10
-28.00513444978631
 20
18.45111744248248
 30
0.0
 40
0.1302217904878131
100
AcDbArc
 50
89.94884446867009
 51
179.7368779702214
  0
ARC
  5
488
330
2
100
AcDbEntity
  8
GAIKEI
 62
     1
100
AcDbCircle
 10
-28.00685768685838
 20
17.93419015435813
 30
0.0
 40
0.1297693280320774
100
AcDbArc
 50
179.782167326337
 51
269.9687992262252
  0
ARC
  5
489
330
2
100
AcDbEntity
  8
GAIKEI
 62
     1
100
AcDbCircle
 10
-26.28813091549398
 20
17.93419015435813
 30
0.0
 40
0.1297693280320774
100
AcDbArc
 50
270.0312007737748
 51
0.2178326736630193
  0
ARC
  5
48A
330
2
100
AcDbEntity
  8
GAIKEI
 62
     1
100
AcDbCircle
 10
-26.28985415256605
 20
18.45111744248248
 30
0.0
 40
0.1302217904878131
100
AcDbArc
 50
0.2631220297785961
 51
90.05115553132991
  0
LINE
  5
48B
330
2
100
AcDbEntity
  8
GAIKEI
 62
     1
100
AcDbLine
 10
-25.60452580839072
 20
18.5754371671793
 30
0.0
 11
-23.88947804362064
 21
18.5754371671793
 31
0.0
  0
LINE
  5
48C
330
2
100
AcDbEntity
  8
GAIKEI
 62
     1
100
AcDbLine
 10
-25.60643597838063
 20
17.79851883167919
 30
0.0
 11
-23.88756787363067
 21
17.79851883167919
 31
0.0
  0
ARC
  5
48D
330
2
100
AcDbEntity
  8
GAIKEI
 62
     1
100
AcDbCircle
 10
-25.60636531168788
 20
17.92828814047027
 30
0.0
 40
0.1297693280320774
100
AcDbArc
 50
179.782167326337
 51
269.9687992262252
  0
ARC
  5
48E
330
2
100
AcDbEntity
  8
GAIKEI
 62
     1
100
AcDbCircle
 10
-25.60464207461583
 20
18.44521542859462
 30
0.0
 40
0.1302217904878131
100
AcDbArc
 50
89.94884446867009
 51
179.7368779702214
  0
ARC
  5
48F
330
2
100
AcDbEntity
  8
GAIKEI
 62
     1
100
AcDbCircle
 10
-23.88936177739555
 20
18.44521542859462
 30
0.0
 40
0.1302217904878131
100
AcDbArc
 50
0.2631220297785961
 51
90.05115553132991
  0
ARC
  5
490
330
2
100
AcDbEntity
  8
GAIKEI
 62
     1
100
AcDbCircle
 10
-23.88763854032348
 20
17.92828814047027
 30
0.0
 40
0.1297693280320774
100
AcDbArc
 50
270.0312007737748
 51
0.2178326736630193
  0
LINE
  5
491
330
2
100
AcDbEntity
  8
GAIKEI
 62
     1
100
AcDbLine
 10
-23.75939554335056
 20
18.58893269771931
 30
0.0
 11
-23.75939554335058
 21
17.78707294556932
 31
0.0
  0
LINE
  5
492
330
2
100
AcDbEntity
  8
GAIKEI
 62
     1
100
AcDbLine
 10
-23.75939554335058
 20
17.78707294556932
 30
0.0
 11
-23.33460830866065
 21
17.78707294556932
 31
0.0
  0
LINE
  5
493
330
2
100
AcDbEntity
  8
GAIKEI
 62
     1
100
AcDbLine
 10
-23.75939554335056
 20
18.58893269771931
 30
0.0
 11
-23.33460830866065
 21
18.58893269771931
 31
0.0
  0
LINE
  5
494
330
2
100
AcDbEntity
  8
GAIKEI
 62
     1
100
AcDbLine
 10
-23.33460830866065
 20
18.58893269771931
 30
0.0
 11
-23.33460830866065
 21
17.78707294556932
 31
0.0
  0
LINE
  5
495
330
2
100
AcDbEntity
  8
GAIKEI
 62
     1
100
AcDbLine
 10
-23.20574219593524
 20
18.56953935457221
 30
0.0
 11
-21.49069443116517
 21
18.56953935457221
 31
0.0
  0
ARC
  5
496
330
2
100
AcDbEntity
  8
GAIKEI
 62
     1
100
AcDbCircle
 10
-23.20585846216034
 20
18.43931761598753
 30
0.0
 40
0.1302217904878131
100
AcDbArc
 50
89.94884446867009
 51
179.7368779702214
  0
LINE
  5
497
330
2
100
AcDbEntity
  8
GAIKEI
 62
     1
100
AcDbLine
 10
-23.20765236592515
 20
17.7926210190721
 30
0.0
 11
-21.4887842611752
 21
17.7926210190721
 31
0.0
  0
ARC
  5
498
330
2
100
AcDbEntity
  8
GAIKEI
 62
     1
100
AcDbCircle
 10
-23.20758169923241
 20
17.92239032786318
 30
0.0
 40
0.1297693280320774
100
AcDbArc
 50
179.782167326337
 51
269.9687992262252
  0
ARC
  5
499
330
2
100
AcDbEntity
  8
GAIKEI
 62
     1
100
AcDbCircle
 10
-21.48885492786801
 20
17.92239032786318
 30
0.0
 40
0.1297693280320774
100
AcDbArc
 50
270.0312007737748
 51
0.2178326736630193
  0
ARC
  5
49A
330
2
100
AcDbEntity
  8
GAIKEI
 62
     1
100
AcDbCircle
 10
-21.49057816494006
 20
18.43931761598753
 30
0.0
 40
0.1302217904878131
100
AcDbArc
 50
0.2631220297785961
 51
90.05115553132991
  0
LINE
  5
49B
330
2
100
AcDbEntity
  8
GAIKEI
 62
     1
100
AcDbLine
 10
-21.35866903996242
 20
17.79151534065767
 30
0.0
 11
-21.01666427303255
 21
17.79151534065761
 31
0.0
  0
LINE
  5
49C
330
2
100
AcDbEntity
  8
GAIKEI
 62
     1
100
AcDbLine
 10
-21.35889242983578
 20
18.59337509280755
 30
0.0
 11
-21.35866903996242
 21
17.79151534065767
 31
0.0
  0
LINE
  5
49D
330
2
100
AcDbEntity
  8
GAIKEI
 62
     1
100
AcDbLine
 10
-21.01666427303255
 20
18.5933750928076
 30
0.0
 11
-21.35889242983578
 21
18.59337509280755
 31
0.0
  0
LINE
  5
49E
330
2
100
AcDbEntity
  8
GAIKEI
 62
     1
100
AcDbLine
 10
-21.01666427303255
 20
17.79151534065761
 30
0.0
 11
-21.01666427303255
 21
18.5933750928076
 31
0.0
  0
ARC
  5
49F
330
2
100
AcDbEntity
  8
GAIKEI
 62
     1
100
AcDbCircle
 10
-34.02310757396973
 20
15.40357690552071
 30
0.0
 40
10.4350232117203
100
AcDbArc
 50
175.3054998986214
 51
184.730271850707
  0
ARC
  5
4A0
330
2
100
AcDbEntity
  8
GAIKEI
 62
     1
100
AcDbCircle
 10
-24.24747979146983
 20
13.6481384688322
 30
0.0
 40
2.730698719723774
100
AcDbArc
 50
99.45971113485446
 51
126.7810938722959
  0
ARC
  5
4A1
330
2
100
AcDbEntity
  8
GAIKEI
 62
     1
100
AcDbCircle
 10
-24.2475088108923
 20
13.64813846883231
 30
0.0
 40
2.730698719723629
100
AcDbArc
 50
53.21890612770429
 51
80.54028886514693
  0
ARC
  5
4A2
330
2
100
AcDbEntity
  8
GAIKEI
 62
     1
100
AcDbCircle
 10
-21.39735525995587
 20
15.70424280236841
 30
0.0
 40
3.025428609491665
100
AcDbArc
 50
245.3077811083734
 51
257.027822563602
  0
ARC
  5
4A3
330
2
100
AcDbEntity
  8
GAIKEI
 62
     1
100
AcDbCircle
 10
-21.40957808918772
 20
15.73713132347547
 30
0.0
 40
3.010366616267874
100
AcDbArc
 50
283.070445565146
 51
295.9788108225398
  0
ARC
  5
4A4
330
2
100
AcDbEntity
  8
GAIKEI
 62
     1
100
AcDbCircle
 10
-23.43988670825593
 20
15.40384558825218
 30
0.0
 40
10.48046899120762
100
AcDbArc
 50
338.2365891792125
 51
21.7634108207839
  0
ARC
  5
4A5
330
2
100
AcDbEntity
  8
GAIKEI
 62
     1
100
AcDbCircle
 10
-49.00302363347043
 20
15.40383509831213
 30
0.0
 40
19.30052911982637
100
AcDbArc
 50
349.6031554854619
 51
10.39684451454144
  0
ARC
  5
4A6
330
2
100
AcDbEntity
  8
GAIKEI
 62
     1
100
AcDbCircle
 10
-22.95304469699252
 20
15.40383509830713
 30
0.0
 40
18.18444928281809
100
AcDbArc
 50
168.9540086772123
 51
191.0459913227876
  0
TEXT
  5
4A7
330
2
100
AcDbEntity
  8
MOJI1
100
AcDbText
 10
-19.99281718657664
 20
-25.17403162589511
 30
0.0
 40
3.0
  1
ループスルー９系統、モニター出力２系統
100
AcDbText
  0
TEXT
  5
4A8
330
2
100
AcDbEntity
  8
MOJI1
100
AcDbText
 10
-59.99281718657664
 20
-25.17403162589511
 30
0.0
 40
3.0
  1
映像出力
100
AcDbText
  0
TEXT
  5
4A9
330
2
100
AcDbEntity
  8
MOJI1
100
AcDbText
 10
-19.99281718657664
 20
-30.17403162589517
 30
0.0
 40
3.0
  1
ＲＧＢ出力１系統（Ｄ－ｓｕｂ１５ﾋﾟﾝ）、Ｓ端子１系統
 41
0.9
100
AcDbText
  0
TEXT
  5
4AA
330
2
100
AcDbEntity
  8
MOJI1
100
AcDbText
 10
-19.99281718657664
 20
-35.17403162589517
 30
0.0
 40
3.0
  1
前面出力端子１系統（ＲＣＡピン）
100
AcDbText
  0
TEXT
  5
4AB
330
2
100
AcDbEntity
  8
MOJI1
100
AcDbText
 10
-59.99281718657664
 20
-40.17403162589516
 30
0.0
 40
3.0
  1
音声出力
100
AcDbText
  0
TEXT
  5
4AC
330
2
100
AcDbEntity
  8
MOJI1
100
AcDbText
 10
-19.99281718657664
 20
-40.17403162589516
 30
0.0
 40
3.0
  1
２系統（ＲＣＡピン）
100
AcDbText
  0
TEXT
  5
4AD
330
2
100
AcDbEntity
  8
MOJI1
100
AcDbText
 10
-19.99281718657664
 20
-45.17403162589516
 30
0.0
 40
3.0
  1
１～９ｃｈアラーム入出力、アラーム復帰入力
100
AcDbText
  0
TEXT
  5
4AE
330
2
100
AcDbEntity
  8
MOJI1
100
AcDbText
 10
-59.99281718657664
 20
-45.17403162589516
 30
0.0
 40
3.0
  1
アラーム端子
100
AcDbText
  0
LINE
  5
4AF
330
2
100
AcDbEntity
  8
WAKU
 62
     1
100
AcDbLine
 10
-62.49281718657664
 20
-46.17403162589511
 30
0.0
 11
62.50718281342336
 21
-46.17403162589511
 31
0.0
  0
LINE
  5
4B1
330
2
100
AcDbEntity
  8
WAKU
 62
     1
100
AcDbLine
 10
-62.49281718657664
 20
-51.17403162589511
 30
0.0
 11
62.50718281342336
 21
-51.17403162589511
 31
0.0
  0
LINE
  5
4B2
330
2
100
AcDbEntity
  8
WAKU
 62
     1
100
AcDbLine
 10
-62.49281718657664
 20
-41.17403162589511
 30
0.0
 11
62.50718281342336
 21
-41.17403162589511
 31
0.0
  0
LINE
  5
4B3
330
2
100
AcDbEntity
  8
WAKU
 62
     4
100
AcDbLine
 10
62.50718281342336
 20
-61.17403162589511
 30
0.0
 11
62.50718281342336
 21
-6.174031625895111
 31
0.0
  0
LINE
  5
4B4
330
2
100
AcDbEntity
  8
WAKU
 62
     4
100
AcDbLine
 10
-22.49281718657664
 20
-61.17403162589511
 30
0.0
 11
-22.49281718657664
 21
-6.174031625895111
 31
0.0
  0
TEXT
  5
4B5
330
2
100
AcDbEntity
  8
MOJI1
100
AcDbText
 10
-59.99281718657664
 20
-15.17403162589511
 30
0.0
 40
3.0
  1
映像入力
100
AcDbText
  0
TEXT
  5
4B6
330
2
100
AcDbEntity
  8
MOJI1
100
AcDbText
 10
-59.99281718657664
 20
-20.17403162589511
 30
0.0
 40
3.0
  1
音声入力
100
AcDbText
  0
TEXT
  5
4B7
330
2
100
AcDbEntity
  8
MOJI1
100
AcDbText
 10
-59.99281718657664
 20
-55.17403162589511
 30
0.0
 40
3.0
  1
機  能
100
AcDbText
  0
TEXT
  5
4B8
330
2
100
AcDbEntity
  8
MOJI1
100
AcDbText
 10
-59.99281718657664
 20
-10.17403162589511
 30
0.0
 40
3.0
  1
電　源
100
AcDbText
  0
TEXT
  5
4B9
330
2
100
AcDbEntity
  8
MOJI1
100
AcDbText
 10
-59.99281718657664
 20
-50.17403162589516
 30
0.0
 40
3.0
  1
内蔵ハードディスク
100
AcDbText
  0
TEXT
  5
4BA
330
2
100
AcDbEntity
  8
MOJI1
100
AcDbText
 10
-19.99281718657664
 20
-55.17403162589511
 30
0.0
 40
3.0
  1
ネットワーク接続機能
100
AcDbText
  0
TEXT
  5
4BB
330
2
100
AcDbEntity
  8
MOJI1
100
AcDbText
 10
-19.99281718657664
 20
-15.17403162589511
 30
0.0
 40
3.0
  1
９系統　※制御信号多重：６系統（１～６ｃｈ）
100
AcDbText
  0
TEXT
  5
4BC
330
2
100
AcDbEntity
  8
MOJI1
100
AcDbText
 10
-19.99281718657664
 20
-20.17403162589511
 30
0.0
 40
3.0
  1
４系統（ＲＣＡピン）
100
AcDbText
  0
TEXT
  5
4BD
330
2
100
AcDbEntity
  8
MOJI1
100
AcDbText
 10
-19.99281718657664
 20
-50.17403162589516
 30
0.0
 40
3.0
  1
５００ＧＢ（１４．５ＴＢまで増設可）
100
AcDbText
  0
TEXT
  5
4BE
330
2
100
AcDbEntity
  8
MOJI1
100
AcDbText
 10
-19.99281718657664
 20
-10.17403162589511
 30
0.0
 40
3.0
  1
ＡＣ１００Ｖ　５０／６０Ｈｚ
100
AcDbText
  0
TEXT
  5
4BF
330
2
100
AcDbEntity
  8
MOJI1
100
AcDbText
 10
-19.99281718657664
 20
-60.17403162589511
 30
0.0
 40
3.0
  1
（１０Ｂａｓｅ－Ｔ／１００Ｂａｓｅ－Ｔｘ）
100
AcDbText
  0
LINE
  5
4C0
330
2
100
AcDbEntity
  8
WAKU
 62
     4
100
AcDbLine
 10
-62.49281718657664
 20
-6.174031625895111
 30
0.0
 11
-62.49281718657664
 21
-61.17403162589511
 31
0.0
  0
LINE
  5
4C1
330
2
100
AcDbEntity
  8
WAKU
 62
     1
100
AcDbLine
 10
-62.49281718657664
 20
-11.17403162589511
 30
0.0
 11
62.50718281342336
 21
-11.17403162589511
 31
0.0
  0
LINE
  5
4C2
330
2
100
AcDbEntity
  8
WAKU
 62
     1
100
AcDbLine
 10
-62.49281718657664
 20
-16.17403162589511
 30
0.0
 11
62.50718281342336
 21
-16.17403162589511
 31
0.0
  0
LINE
  5
4C3
330
2
100
AcDbEntity
  8
WAKU
 62
     1
100
AcDbLine
 10
-62.49281718657664
 20
-21.17403162589511
 30
0.0
 11
62.50718281342336
 21
-21.17403162589511
 31
0.0
  0
LINE
  5
4C4
330
2
100
AcDbEntity
  8
WAKU
 62
     1
100
AcDbLine
 10
-62.49281718657664
 20
-26.17403162589511
 30
0.0
 11
62.50718281342336
 21
-26.17403162589511
 31
0.0
  0
LINE
  5
4C5
330
2
100
AcDbEntity
  8
WAKU
 62
     1
100
AcDbLine
 10
-62.49281718657664
 20
-31.17403162589511
 30
0.0
 11
62.50718281342336
 21
-31.17403162589511
 31
0.0
  0
LINE
  5
4C6
330
2
100
AcDbEntity
  8
WAKU
 62
     1
100
AcDbLine
 10
-62.49281718657664
 20
-56.17403162589511
 30
0.0
 11
62.50718281342336
 21
-56.17403162589511
 31
0.0
  0
LINE
  5
4C7
330
2
100
AcDbEntity
  8
WAKU
 62
     4
100
AcDbLine
 10
62.50718281342336
 20
-6.174031625895111
 30
0.0
 11
-62.49281718657664
 21
-6.174031625895111
 31
0.0
  0
LINE
  5
4C8
330
2
100
AcDbEntity
  8
WAKU
 62
     4
100
AcDbLine
 10
-62.49281718657664
 20
-61.17403162589511
 30
0.0
 11
62.50718281342336
 21
-61.17403162589511
 31
0.0
  0
LINE
  5
4C9
330
2
100
AcDbEntity
  8
WAKU
 62
     1
100
AcDbLine
 10
-62.49281718657664
 20
-36.17403162589511
 30
0.0
 11
62.50718281342336
 21
-36.17403162589511
 31
0.0
  0
ENDSEC
  0
SECTION
  2
OBJECTS
  0
DICTIONARY
  5
9
330
0
100
AcDbDictionary
281
     1
  3
ACAD_COLOR
350
2A
  3
ACAD_GROUP
350
26
  3
ACAD_LAYOUT
350
D
  3
ACAD_MATERIAL
350
29
  3
ACAD_MLINESTYLE
350
27
  3
ACAD_PLOTSETTINGS
350
28
  3
ACAD_PLOTSTYLENAME
350
8
  3
ACDBHEADERROUNDTRIPXREC
350
508
  3
AcDbVariableDictionary
350
503
  0
DICTIONARY
  5
15
330
14
100
AcDbDictionary
280
     1
281
     1
  3
ACAD_LAYERFILTERS
360
16
  3
ACAD_LAYERSTATES
360
17
  0
DICTIONARY
  5
3
330
2
100
AcDbDictionary
280
     1
281
     1
  3
ACAD_LAYOUTSELFREF
360
4
  0
DICTIONARY
  5
F
330
E
100
AcDbDictionary
280
     1
281
     1
  3
ACAD_LAYOUTSELFREF
360
10
  0
DICTIONARY
  5
2A
102
{ACAD_REACTORS
330
9
102
}
330
9
100
AcDbDictionary
281
     1
  0
DICTIONARY
  5
26
102
{ACAD_REACTORS
330
9
102
}
330
9
100
AcDbDictionary
281
     1
  0
DICTIONARY
  5
D
102
{ACAD_REACTORS
330
9
102
}
330
9
100
AcDbDictionary
281
     1
  3
Model
350
C
  3
ﾚｲｱｳﾄ1
350
13
  0
DICTIONARY
  5
29
102
{ACAD_REACTORS
330
9
102
}
330
9
100
AcDbDictionary
281
     1
  0
DICTIONARY
  5
27
102
{ACAD_REACTORS
330
9
102
}
330
9
100
AcDbDictionary
281
     1
  3
STANDARD
350
32
  0
DICTIONARY
  5
28
102
{ACAD_REACTORS
330
9
102
}
330
9
100
AcDbDictionary
281
     1
  0
ACDBDICTIONARYWDFLT
  5
8
102
{ACAD_REACTORS
330
9
102
}
330
9
100
AcDbDictionary
281
     1
  3
Normal
350
7
100
AcDbDictionaryWithDefault
340
7
  0
DICTIONARY
  5
508
102
{ACAD_REACTORS
330
9
102
}
330
9
100
AcDbDictionary
281
     1
  3
COLORDICT
350
50A
  3
MATERIALDICT
350
509
  0
DICTIONARY
  5
503
102
{ACAD_REACTORS
330
9
102
}
330
9
100
AcDbDictionary
281
     1
  3
DIMASSOC
350
505
  3
HIDETEXT
350
504
  3
PROJECTNAME
350
506
  0
DICTIONARY
  5
16
102
{ACAD_REACTORS
330
15
102
}
330
15
100
AcDbDictionary
280
     1
281
     1
  0
DICTIONARY
  5
17
102
{ACAD_REACTORS
330
15
102
}
330
15
100
AcDbDictionary
281
     1
  0
XRECORD
  5
4
102
{ACAD_REACTORS
330
3
102
}
330
3
100
AcDbXrecord
280
     1
340
2
  0
XRECORD
  5
10
102
{ACAD_REACTORS
330
F
102
}
330
F
100
AcDbXrecord
280
     1
340
E
  0
LAYOUT
  5
C
102
{ACAD_XDICTIONARY
360
50B
102
}
102
{ACAD_REACTORS
330
D
102
}
330
D
100
AcDbPlotSettings
  1

  2
FX78BC34-A4縦.pc3
  4
A4
  6

 40
4.900083065032958
 41
4.900057315826416
 42
4.90008544921875
 43
4.90008544921875
 44
210.0156707763672
 45
297.0106506347656
 46
5.73
 47
0.0
 48
0.0
 49
0.0
140
0.0
141
0.0
142
1.0
143
1.372886859422437
 70
 11956
 72
     1
 73
     0
 74
     1
  7
tmsacad.ctb
 75
     0
147
0.7283921418118108
148
0.6007982431128767
149
0.0333771406676533
100
AcDbLayout
  1
Model
 70
     1
 71
     0
 10
0.0
 20
0.0
 11
12.0
 21
9.0
 12
0.0
 22
0.0
 32
0.0
 14
0.0
 24
0.0
 34
0.0
 15
0.0
 25
0.0
 35
0.0
146
0.0
 13
0.0
 23
0.0
 33
0.0
 16
1.0
 26
0.0
 36
0.0
 17
0.0
 27
1.0
 37
0.0
 76
     0
330
2
  0
LAYOUT
  5
13
102
{ACAD_XDICTIONARY
360
50D
102
}
102
{ACAD_REACTORS
330
D
102
}
330
D
100
AcDbPlotSettings
  1

  2
C:\Program Files\ACAD2000\plotters\DWF ePlot.pc3
  4

  6

 40
0.0
 41
0.0
 42
0.0
 43
0.0
 44
0.0
 45
0.0
 46
0.0
 47
0.0
 48
0.0
 49
0.0
140
0.0
141
0.0
142
1.0
143
1.0
 70
   688
 72
     0
 73
     0
 74
     5
  7
tmsacad.ctb
 75
    16
147
1.0
148
0.0
149
0.0
100
AcDbLayout
  1
ﾚｲｱｳﾄ1
 70
     1
 71
     1
 10
0.0
 20
0.0
 11
12.0
 21
9.0
 12
0.0
 22
0.0
 32
0.0
 14
1.000000000000000E+20
 24
1.000000000000000E+20
 34
1.000000000000000E+20
 15
-1.000000000000000E+20
 25
-1.000000000000000E+20
 35
-1.000000000000000E+20
146
0.0
 13
0.0
 23
0.0
 33
0.0
 16
1.0
 26
0.0
 36
0.0
 17
0.0
 27
1.0
 37
0.0
 76
     0
330
E
  0
MLINESTYLE
  5
32
102
{ACAD_REACTORS
330
27
102
}
330
27
100
AcDbMlineStyle
  2
STANDARD
 70
     0
  3

 62
   256
 51
90.0
 52
90.0
 71
     2
 49
0.5
 62
   256
  6
BYLAYER
 49
-0.5
 62
   256
  6
BYLAYER
  0
ACDBPLACEHOLDER
  5
7
102
{ACAD_REACTORS
330
8
102
}
330
8
  0
XRECORD
  5
50A
102
{ACAD_REACTORS
330
508
102
}
330
508
100
AcDbXrecord
280
     1
340
2A
  0
XRECORD
  5
509
102
{ACAD_REACTORS
330
508
102
}
330
508
100
AcDbXrecord
280
     1
340
29
  0
DICTIONARYVAR
  5
505
102
{ACAD_REACTORS
330
503
102
}
330
503
100
DictionaryVariables
280
     0
  1
1
  0
DICTIONARYVAR
  5
504
102
{ACAD_REACTORS
330
503
102
}
330
503
100
DictionaryVariables
280
     0
  1
1
  0
DICTIONARYVAR
  5
506
102
{ACAD_REACTORS
330
503
102
}
330
503
100
DictionaryVariables
280
     0
  1

  0
DICTIONARY
  5
50B
330
C
100
AcDbDictionary
280
     1
281
     1
  3
ACAD_XREC_ROUNDTRIP
360
50C
  0
DICTIONARY
  5
50D
330
13
100
AcDbDictionary
280
     1
281
     1
  3
ACAD_XREC_ROUNDTRIP
360
50E
  0
XRECORD
  5
50C
102
{ACAD_REACTORS
330
50B
102
}
330
50B
100
AcDbXrecord
280
     1
102
SHADEPLOT
 70
     0
102
SHADEPLOTRESLEVEL
 70
     2
102
SHADEPLOTCUSTOMDPI
 70
   300
  0
XRECORD
  5
50E
102
{ACAD_REACTORS
330
50D
102
}
330
50D
100
AcDbXrecord
280
     1
102
SHADEPLOT
 70
     0
102
SHADEPLOTRESLEVEL
 70
     2
102
SHADEPLOTCUSTOMDPI
 70
   300
  0
ENDSEC
  0
EOF
