  0
SECTION
  2
HEADER
  9
$ACADVER
  1
AC1015
  9
$ACADMAINTVER
 70
    13
  9
$DWGCODEPAGE
  3
ANSI_932
  9
$INSBASE
 10
129.0
 20
246.4992141396418
 30
0.0
  9
$EXTMIN
 10
-60.01388449174601
 20
-118.1033851473566
 30
-0.0015258207003583
  9
$EXTMAX
 10
65.12371905260079
 20
114.7732010224472
 30
0.0000000349246037
  9
$LIMMIN
 10
-1101.784450318844
 20
-1579.160531687243
  9
$LIMMAX
 10
-508.2420711400536
 20
-1161.440814074914
  9
$ORTHOMODE
 70
     1
  9
$REGENMODE
 70
     1
  9
$FILLMODE
 70
     1
  9
$QTEXTMODE
 70
     0
  9
$MIRRTEXT
 70
     1
  9
$LTSCALE
 40
1.0
  9
$ATTMODE
 70
     1
  9
$TEXTSIZE
 40
3.0
  9
$TRACEWID
 40
0.5
  9
$TEXTSTYLE
  7
STANDARD
  9
$CLAYER
  8
SUNPO
  9
$CELTYPE
  6
BYLAYER
  9
$CECOLOR
 62
   256
  9
$CELTSCALE
 40
1.0
  9
$DISPSILH
 70
     0
  9
$DIMSCALE
 40
1.0
  9
$DIMASZ
 40
2.0
  9
$DIMEXO
 40
2.0
  9
$DIMDLI
 40
8.0
  9
$DIMRND
 40
0.0
  9
$DIMDLE
 40
0.0
  9
$DIMEXE
 40
2.0
  9
$DIMTP
 40
0.0
  9
$DIMTM
 40
0.0
  9
$DIMTXT
 40
2.5
  9
$DIMCEN
 40
0.0
  9
$DIMTSZ
 40
0.0
  9
$DIMTOL
 70
     0
  9
$DIMLIM
 70
     0
  9
$DIMTIH
 70
     0
  9
$DIMTOH
 70
     0
  9
$DIMSE1
 70
     0
  9
$DIMSE2
 70
     0
  9
$DIMTAD
 70
     3
  9
$DIMZIN
 70
     0
  9
$DIMBLK
  1

  9
$DIMASO
 70
     1
  9
$DIMSHO
 70
     1
  9
$DIMPOST
  1

  9
$DIMAPOST
  1

  9
$DIMALT
 70
     0
  9
$DIMALTD
 70
     2
  9
$DIMALTF
 40
25.4
  9
$DIMLFAC
 40
1.0
  9
$DIMTOFL
 70
     1
  9
$DIMTVP
 40
0.0
  9
$DIMTIX
 70
     0
  9
$DIMSOXD
 70
     0
  9
$DIMSAH
 70
     1
  9
$DIMBLK1
  1
OPEN30
  9
$DIMBLK2
  1
OPEN30
  9
$DIMSTYLE
  2
STANDARD
  9
$DIMCLRD
 70
     0
  9
$DIMCLRE
 70
     0
  9
$DIMCLRT
 70
     0
  9
$DIMTFAC
 40
1.0
  9
$DIMGAP
 40
0.5
  9
$DIMJUST
 70
     0
  9
$DIMSD1
 70
     0
  9
$DIMSD2
 70
     0
  9
$DIMTOLJ
 70
     1
  9
$DIMTZIN
 70
     0
  9
$DIMALTZ
 70
     0
  9
$DIMALTTZ
 70
     0
  9
$DIMUPT
 70
     0
  9
$DIMDEC
 70
     4
  9
$DIMTDEC
 70
     4
  9
$DIMALTU
 70
     2
  9
$DIMALTTD
 70
     2
  9
$DIMTXSTY
  7
STANDARD
  9
$DIMAUNIT
 70
     0
  9
$DIMADEC
 70
     0
  9
$DIMALTRND
 40
0.0
  9
$DIMAZIN
 70
     0
  9
$DIMDSEP
 70
    46
  9
$DIMATFIT
 70
     3
  9
$DIMFRAC
 70
     0
  9
$DIMLDRBLK
  1
OPEN30
  9
$DIMLUNIT
 70
     2
  9
$DIMLWD
 70
    -2
  9
$DIMLWE
 70
    -2
  9
$DIMTMOVE
 70
     0
  9
$LUNITS
 70
     2
  9
$LUPREC
 70
     4
  9
$SKETCHINC
 40
0.1
  9
$FILLETRAD
 40
0.0
  9
$AUNITS
 70
     0
  9
$AUPREC
 70
     0
  9
$MENU
  1
ACAD
  9
$ELEVATION
 40
0.0
  9
$PELEVATION
 40
0.0
  9
$THICKNESS
 40
0.0
  9
$LIMCHECK
 70
     0
  9
$CHAMFERA
 40
0.0
  9
$CHAMFERB
 40
0.0
  9
$CHAMFERC
 40
0.0
  9
$CHAMFERD
 40
0.0
  9
$SKPOLY
 70
     0
  9
$TDCREATE
 40
2451815.565532581
  9
$TDUCREATE
 40
2451815.190532581
  9
$TDUPDATE
 40
2453986.606344212
  9
$TDUUPDATE
 40
2453986.231344213
  9
$TDINDWG
 40
0.7241529861
  9
$TDUSRTIMER
 40
0.7241529861
  9
$USRTIMER
 70
     1
  9
$ANGBASE
 50
0.0
  9
$ANGDIR
 70
     0
  9
$PDMODE
 70
     0
  9
$PDSIZE
 40
0.0
  9
$PLINEWID
 40
0.0
  9
$SPLFRAME
 70
     0
  9
$SPLINETYPE
 70
     6
  9
$SPLINESEGS
 70
     8
  9
$HANDSEED
  5
44D
  9
$SURFTAB1
 70
     6
  9
$SURFTAB2
 70
     6
  9
$SURFTYPE
 70
     6
  9
$SURFU
 70
     6
  9
$SURFV
 70
     6
  9
$UCSBASE
  2

  9
$UCSNAME
  2

  9
$UCSORG
 10
0.0
 20
0.0
 30
0.0
  9
$UCSXDIR
 10
1.0
 20
0.0
 30
0.0
  9
$UCSYDIR
 10
0.0
 20
1.0
 30
0.0
  9
$UCSORTHOREF
  2

  9
$UCSORTHOVIEW
 70
     0
  9
$UCSORGTOP
 10
0.0
 20
0.0
 30
0.0
  9
$UCSORGBOTTOM
 10
0.0
 20
0.0
 30
0.0
  9
$UCSORGLEFT
 10
0.0
 20
0.0
 30
0.0
  9
$UCSORGRIGHT
 10
0.0
 20
0.0
 30
0.0
  9
$UCSORGFRONT
 10
0.0
 20
0.0
 30
0.0
  9
$UCSORGBACK
 10
0.0
 20
0.0
 30
0.0
  9
$PUCSBASE
  2

  9
$PUCSNAME
  2

  9
$PUCSORG
 10
0.0
 20
0.0
 30
0.0
  9
$PUCSXDIR
 10
1.0
 20
0.0
 30
0.0
  9
$PUCSYDIR
 10
0.0
 20
1.0
 30
0.0
  9
$PUCSORTHOREF
  2

  9
$PUCSORTHOVIEW
 70
     0
  9
$PUCSORGTOP
 10
0.0
 20
0.0
 30
0.0
  9
$PUCSORGBOTTOM
 10
0.0
 20
0.0
 30
0.0
  9
$PUCSORGLEFT
 10
0.0
 20
0.0
 30
0.0
  9
$PUCSORGRIGHT
 10
0.0
 20
0.0
 30
0.0
  9
$PUCSORGFRONT
 10
0.0
 20
0.0
 30
0.0
  9
$PUCSORGBACK
 10
0.0
 20
0.0
 30
0.0
  9
$USERI1
 70
     0
  9
$USERI2
 70
     0
  9
$USERI3
 70
     0
  9
$USERI4
 70
     0
  9
$USERI5
 70
     0
  9
$USERR1
 40
0.0
  9
$USERR2
 40
0.0
  9
$USERR3
 40
0.0
  9
$USERR4
 40
0.0
  9
$USERR5
 40
0.0
  9
$WORLDVIEW
 70
     1
  9
$SHADEDGE
 70
     3
  9
$SHADEDIF
 70
    70
  9
$TILEMODE
 70
     1
  9
$MAXACTVP
 70
    48
  9
$PINSBASE
 10
0.0
 20
0.0
 30
0.0
  9
$PLIMCHECK
 70
     0
  9
$PEXTMIN
 10
1.000000000000000E+20
 20
1.000000000000000E+20
 30
1.000000000000000E+20
  9
$PEXTMAX
 10
-1.000000000000000E+20
 20
-1.000000000000000E+20
 30
-1.000000000000000E+20
  9
$PLIMMIN
 10
0.0
 20
0.0
  9
$PLIMMAX
 10
12.0
 20
9.0
  9
$UNITMODE
 70
     0
  9
$VISRETAIN
 70
     1
  9
$PLINEGEN
 70
     0
  9
$PSLTSCALE
 70
     1
  9
$TREEDEPTH
 70
  3020
  9
$CMLSTYLE
  2
STANDARD
  9
$CMLJUST
 70
     0
  9
$CMLSCALE
 40
1.0
  9
$PROXYGRAPHICS
 70
     1
  9
$MEASUREMENT
 70
     0
  9
$CELWEIGHT
370
    -1
  9
$ENDCAPS
280
     0
  9
$JOINSTYLE
280
     0
  9
$LWDISPLAY
290
     0
  9
$INSUNITS
 70
     0
  9
$HYPERLINKBASE
  1

  9
$STYLESHEET
  1

  9
$XEDIT
290
     1
  9
$CEPSNTYPE
380
     0
  9
$PSTYLEMODE
290
     1
  9
$FINGERPRINTGUID
  2
{1754B7AB-9B3C-11D4-AD9E-00104B1004F2}
  9
$VERSIONGUID
  2
{B2AB475B-E291-4985-9A2A-00FD14ACE53D}
  9
$EXTNAMES
290
     1
  9
$PSVPSCALE
 40
0.0
  9
$OLESTARTUP
290
     0
  0
ENDSEC
  0
SECTION
  2
CLASSES
  0
CLASS
  1
ACDBDICTIONARYWDFLT
  2
AcDbDictionaryWithDefault
  3
AutoCAD 2000
 90
        0
280
     0
281
     0
  0
CLASS
  1
ACDBPLACEHOLDER
  2
AcDbPlaceHolder
  3
AutoCAD 2000
 90
        0
280
     0
281
     0
  0
CLASS
  1
LAYOUT
  2
AcDbLayout
  3
AutoCAD 2000
 90
        0
280
     0
281
     0
  0
CLASS
  1
LONG_TRANSACTION
  2
AcDbLongTransaction
  3
AutoCAD 2000
 90
    32768
280
     0
281
     0
  0
CLASS
  1
LWPOLYLINE
  2
AcDbPolyline
  3
AutoCAD 2000
 90
    32768
280
     0
281
     1
  0
CLASS
  1
HATCH
  2
AcDbHatch
  3
AutoCAD 2000
 90
    32768
280
     0
281
     1
  0
CLASS
  1
XRECORD
  2
AcDbXrecord
  3
AutoCAD 2000
 90
    32768
280
     0
281
     0
  0
CLASS
  1
LONG_TRANSACTION
  2
AcDbLongTransaction
  3
AutoCAD 2000
 90
    32768
280
     0
281
     0
  0
CLASS
  1
LWPOLYLINE
  2
AcDbPolyline
  3
AutoCAD 2000
 90
    32768
280
     0
281
     1
  0
CLASS
  1
HATCH
  2
AcDbHatch
  3
AutoCAD 2000
 90
    32768
280
     0
281
     1
  0
CLASS
  1
XRECORD
  2
AcDbXrecord
  3
AutoCAD 2000
 90
    32768
280
     0
281
     0
  0
CLASS
  1
LONG_TRANSACTION
  2
AcDbLongTransaction
  3
AutoCAD 2000
 90
    32768
280
     0
281
     0
  0
CLASS
  1
LWPOLYLINE
  2
AcDbPolyline
  3
AutoCAD 2000
 90
    32768
280
     0
281
     1
  0
CLASS
  1
HATCH
  2
AcDbHatch
  3
AutoCAD 2000
 90
    32768
280
     0
281
     1
  0
CLASS
  1
XRECORD
  2
AcDbXrecord
  3
AutoCAD 2000
 90
    32768
280
     0
281
     0
  0
CLASS
  1
LONG_TRANSACTION
  2
AcDbLongTransaction
  3
AutoCAD 2000
 90
    32768
280
     0
281
     0
  0
CLASS
  1
LWPOLYLINE
  2
AcDbPolyline
  3
AutoCAD 2000
 90
    32768
280
     0
281
     1
  0
CLASS
  1
HATCH
  2
AcDbHatch
  3
AutoCAD 2000
 90
    32768
280
     0
281
     1
  0
CLASS
  1
XRECORD
  2
AcDbXrecord
  3
AutoCAD 2000
 90
    32768
280
     0
281
     0
  0
CLASS
  1
LONG_TRANSACTION
  2
AcDbLongTransaction
  3
AutoCAD 2000
 90
    32768
280
     0
281
     0
  0
CLASS
  1
LWPOLYLINE
  2
AcDbPolyline
  3
AutoCAD 2000
 90
    32768
280
     0
281
     1
  0
CLASS
  1
HATCH
  2
AcDbHatch
  3
AutoCAD 2000
 90
    32768
280
     0
281
     1
  0
CLASS
  1
XRECORD
  2
AcDbXrecord
  3
AutoCAD 2000
 90
    32768
280
     0
281
     0
  0
CLASS
  1
LONG_TRANSACTION
  2
AcDbLongTransaction
  3
AutoCAD 2000
 90
    32768
280
     0
281
     0
  0
CLASS
  1
LWPOLYLINE
  2
AcDbPolyline
  3
AutoCAD 2000
 90
    32768
280
     0
281
     1
  0
CLASS
  1
HATCH
  2
AcDbHatch
  3
AutoCAD 2000
 90
    32768
280
     0
281
     1
  0
CLASS
  1
XRECORD
  2
AcDbXrecord
  3
AutoCAD 2000
 90
    32768
280
     0
281
     0
  0
CLASS
  1
LONG_TRANSACTION
  2
AcDbLongTransaction
  3
AutoCAD 2000
 90
    32768
280
     0
281
     0
  0
CLASS
  1
LWPOLYLINE
  2
AcDbPolyline
  3
AutoCAD 2000
 90
    32768
280
     0
281
     1
  0
CLASS
  1
HATCH
  2
AcDbHatch
  3
AutoCAD 2000
 90
    32768
280
     0
281
     1
  0
CLASS
  1
XRECORD
  2
AcDbXrecord
  3
AutoCAD 2000
 90
    32768
280
     0
281
     0
  0
CLASS
  1
LONG_TRANSACTION
  2
AcDbLongTransaction
  3
AutoCAD 2000
 90
    32768
280
     0
281
     0
  0
CLASS
  1
LWPOLYLINE
  2
AcDbPolyline
  3
AutoCAD 2000
 90
    32768
280
     0
281
     1
  0
CLASS
  1
HATCH
  2
AcDbHatch
  3
AutoCAD 2000
 90
    32768
280
     0
281
     1
  0
CLASS
  1
XRECORD
  2
AcDbXrecord
  3
AutoCAD 2000
 90
    32768
280
     0
281
     0
  0
CLASS
  1
DICTIONARYVAR
  2
AcDbDictionaryVar
  3
AutoCAD 2000
 90
        0
280
     0
281
     0
  0
CLASS
  1
LONG_TRANSACTION
  2
AcDbLongTransaction
  3
AutoCAD 2000
 90
    32768
280
     0
281
     0
  0
CLASS
  1
LWPOLYLINE
  2
AcDbPolyline
  3
AutoCAD 2000
 90
    32768
280
     0
281
     1
  0
CLASS
  1
HATCH
  2
AcDbHatch
  3
AutoCAD 2000
 90
    32768
280
     0
281
     1
  0
CLASS
  1
XRECORD
  2
AcDbXrecord
  3
AutoCAD 2000
 90
    32768
280
     0
281
     0
  0
CLASS
  1
LONG_TRANSACTION
  2
AcDbLongTransaction
  3
AutoCAD 2000
 90
    32768
280
     0
281
     0
  0
CLASS
  1
LWPOLYLINE
  2
AcDbPolyline
  3
AutoCAD 2000
 90
    32768
280
     0
281
     1
  0
CLASS
  1
HATCH
  2
AcDbHatch
  3
AutoCAD 2000
 90
    32768
280
     0
281
     1
  0
CLASS
  1
XRECORD
  2
AcDbXrecord
  3
AutoCAD 2000
 90
    32768
280
     0
281
     0
  0
CLASS
  1
LONG_TRANSACTION
  2
AcDbLongTransaction
  3
AutoCAD 2000
 90
    32768
280
     0
281
     0
  0
CLASS
  1
LWPOLYLINE
  2
AcDbPolyline
  3
AutoCAD 2000
 90
    32768
280
     0
281
     1
  0
CLASS
  1
HATCH
  2
AcDbHatch
  3
AutoCAD 2000
 90
    32768
280
     0
281
     1
  0
CLASS
  1
XRECORD
  2
AcDbXrecord
  3
AutoCAD 2000
 90
    32768
280
     0
281
     0
  0
CLASS
  1
LONG_TRANSACTION
  2
AcDbLongTransaction
  3
AutoCAD 2000
 90
    32768
280
     0
281
     0
  0
CLASS
  1
LWPOLYLINE
  2
AcDbPolyline
  3
AutoCAD 2000
 90
    32768
280
     0
281
     1
  0
CLASS
  1
HATCH
  2
AcDbHatch
  3
AutoCAD 2000
 90
    32768
280
     0
281
     1
  0
CLASS
  1
XRECORD
  2
AcDbXrecord
  3
AutoCAD 2000
 90
    32768
280
     0
281
     0
  0
CLASS
  1
LONG_TRANSACTION
  2
AcDbLongTransaction
  3
AutoCAD 2000
 90
    32768
280
     0
281
     0
  0
CLASS
  1
LWPOLYLINE
  2
AcDbPolyline
  3
AutoCAD 2000
 90
    32768
280
     0
281
     1
  0
CLASS
  1
HATCH
  2
AcDbHatch
  3
AutoCAD 2000
 90
    32768
280
     0
281
     1
  0
CLASS
  1
XRECORD
  2
AcDbXrecord
  3
AutoCAD 2000
 90
    32768
280
     0
281
     0
  0
CLASS
  1
LONG_TRANSACTION
  2
AcDbLongTransaction
  3
AutoCAD 2000
 90
    32768
280
     0
281
     0
  0
CLASS
  1
LWPOLYLINE
  2
AcDbPolyline
  3
AutoCAD 2000
 90
    32768
280
     0
281
     1
  0
CLASS
  1
HATCH
  2
AcDbHatch
  3
AutoCAD 2000
 90
    32768
280
     0
281
     1
  0
CLASS
  1
XRECORD
  2
AcDbXrecord
  3
AutoCAD 2000
 90
    32768
280
     0
281
     0
  0
ENDSEC
  0
SECTION
  2
TABLES
  0
TABLE
  2
VPORT
  5
21
330
0
100
AcDbSymbolTable
 70
     3
  0
VPORT
  5
44C
330
21
100
AcDbSymbolTableRecord
100
AcDbViewportTableRecord
  2
*Active
 70
     0
 10
0.0
 20
0.0
 11
1.0
 21
1.0
 12
2.554917280427375
 22
-1.665092062454732
 13
0.0
 23
0.0
 14
1.0
 24
1.0
 15
0.0
 25
0.0
 16
0.0
 26
0.0
 36
1.0
 17
0.0
 27
0.0
 37
0.0
 40
234.6542700336955
 41
1.442038216560509
 42
50.0
 43
0.0
 44
0.0
 50
0.0
 51
0.0
 71
     0
 72
  1000
 73
     1
 74
     0
 75
     0
 76
     1
 77
     0
 78
     0
281
     0
 65
     1
110
0.0
120
0.0
130
0.0
111
1.0
121
0.0
131
0.0
112
0.0
122
1.0
132
0.0
 79
     0
146
0.0
  0
ENDTAB
  0
TABLE
  2
LTYPE
  5
1C
330
0
100
AcDbSymbolTable
 70
     1
  0
LTYPE
  5
1D
330
1C
100
AcDbSymbolTableRecord
100
AcDbLinetypeTableRecord
  2
BYBLOCK
 70
     0
  3

 72
    65
 73
     0
 40
0.0
  0
LTYPE
  5
1E
330
1C
100
AcDbSymbolTableRecord
100
AcDbLinetypeTableRecord
  2
BYLAYER
 70
     0
  3

 72
    65
 73
     0
 40
0.0
  0
LTYPE
  5
A
330
1C
100
AcDbSymbolTableRecord
100
AcDbLinetypeTableRecord
  2
CONTINUOUS
 70
     0
  3
Solid line
 72
    65
 73
     0
 40
0.0
  0
ENDTAB
  0
TABLE
  2
LAYER
  5
14
102
{ACAD_XDICTIONARY
360
15
102
}
330
0
100
AcDbSymbolTable
 70
     7
  0
LAYER
  5
6
330
14
100
AcDbSymbolTableRecord
100
AcDbLayerTableRecord
  2
0
 70
     0
 62
     7
  6
CONTINUOUS
370
    -3
390
7
  0
LAYER
  5
2E7
330
14
100
AcDbSymbolTableRecord
100
AcDbLayerTableRecord
  2
DEFPOINTS
 70
     0
 62
     7
  6
CONTINUOUS
290
     0
370
    -3
390
7
  0
LAYER
  5
306
330
14
100
AcDbSymbolTableRecord
100
AcDbLayerTableRecord
  2
WAKU
 70
     0
 62
     4
  6
CONTINUOUS
370
    -3
390
7
  0
LAYER
  5
36
330
14
100
AcDbSymbolTableRecord
100
AcDbLayerTableRecord
  2
MOJI1
 70
     0
 62
     2
  6
CONTINUOUS
370
    -3
390
7
  0
LAYER
  5
3A
330
14
100
AcDbSymbolTableRecord
100
AcDbLayerTableRecord
  2
GAIKEI
 70
     0
 62
     7
  6
CONTINUOUS
370
    -3
390
7
  0
LAYER
  5
33
330
14
100
AcDbSymbolTableRecord
100
AcDbLayerTableRecord
  2
SUNPO
 70
     0
 62
     3
  6
CONTINUOUS
370
    -3
390
7
  0
LAYER
  5
38
330
14
100
AcDbSymbolTableRecord
100
AcDbLayerTableRecord
  2
TOUROKU
 70
     0
 62
     1
  6
CONTINUOUS
370
    -3
390
7
  0
ENDTAB
  0
TABLE
  2
STYLE
  5
19
330
0
100
AcDbSymbolTable
 70
     1
  0
STYLE
  5
1A
330
19
100
AcDbSymbolTableRecord
100
AcDbTextStyleTableRecord
  2
STANDARD
 70
     0
 40
0.0
 41
1.0
 50
0.0
 71
     0
 42
3.0
  3
MONOTXT.shx
  4
BIGFONT.shx
  0
ENDTAB
  0
TABLE
  2
VIEW
  5
1F
330
0
100
AcDbSymbolTable
 70
     0
  0
ENDTAB
  0
TABLE
  2
UCS
  5
20
330
0
100
AcDbSymbolTable
 70
     0
  0
ENDTAB
  0
TABLE
  2
APPID
  5
23
330
0
100
AcDbSymbolTable
 70
     1
  0
APPID
  5
24
330
23
100
AcDbSymbolTableRecord
100
AcDbRegAppTableRecord
  2
ACAD
 70
     0
  0
ENDTAB
  0
TABLE
  2
DIMSTYLE
  5
25
330
0
100
AcDbSymbolTable
 70
     1
100
AcDbDimStyleTable
 71
     0
  0
DIMSTYLE
105
26
102
{ACAD_REACTORS
330
2DD
330
2EB
330
2F8
102
}
330
25
100
AcDbSymbolTableRecord
100
AcDbDimStyleTableRecord
  2
STANDARD
 70
     0
 40
0.0
 41
2.0
 42
2.0
 43
8.0
 44
2.0
 73
     0
 74
     0
 77
     3
140
3.0
141
0.0
173
     1
279
     2
288
     1
340
1A
341
27
343
27
344
27
  0
ENDTAB
  0
TABLE
  2
BLOCK_RECORD
  5
1
330
0
100
AcDbSymbolTable
 70
     4
  0
BLOCK_RECORD
  5
2
102
{ACAD_XDICTIONARY
360
3
102
}
330
1
100
AcDbSymbolTableRecord
100
AcDbBlockTableRecord
  2
*MODEL_SPACE
340
C
  0
BLOCK_RECORD
  5
E
102
{ACAD_XDICTIONARY
360
F
102
}
330
1
100
AcDbSymbolTableRecord
100
AcDbBlockTableRecord
  2
*PAPER_SPACE
340
13
  0
BLOCK_RECORD
  5
27
330
1
100
AcDbSymbolTableRecord
100
AcDbBlockTableRecord
  2
_OPEN30
340
0
102
{BLKREFS
331
3CA
331
3CB
331
3D5
331
3D6
331
3DE
331
3DF
331
434
331
435
331
43D
331
43E
331
446
331
447
102
}
  0
BLOCK_RECORD
  5
371
330
1
100
AcDbSymbolTableRecord
100
AcDbBlockTableRecord
  2
*D1
340
0
  0
BLOCK_RECORD
  5
37F
330
1
100
AcDbSymbolTableRecord
100
AcDbBlockTableRecord
  2
*D2
340
0
  0
BLOCK_RECORD
  5
38B
330
1
100
AcDbSymbolTableRecord
100
AcDbBlockTableRecord
  2
*D3
340
0
  0
ENDTAB
  0
ENDSEC
  0
SECTION
  2
BLOCKS
  0
BLOCK
  5
5
330
2
100
AcDbEntity
  8
0
100
AcDbBlockBegin
  2
*MODEL_SPACE
 70
     0
 10
0.0
 20
0.0
 30
0.0
  3
*MODEL_SPACE
  1

  0
ENDBLK
  5
B
330
2
100
AcDbEntity
  8
0
100
AcDbBlockEnd
  0
BLOCK
  5
11
330
E
100
AcDbEntity
 67
     1
  8
0
100
AcDbBlockBegin
  2
*PAPER_SPACE
 70
     0
 10
0.0
 20
0.0
 30
0.0
  3
*PAPER_SPACE
  1

  0
ENDBLK
  5
12
330
E
100
AcDbEntity
 67
     1
  8
0
100
AcDbBlockEnd
  0
BLOCK
  5
28
330
27
100
AcDbEntity
  8
0
100
AcDbBlockBegin
  2
_OPEN30
 70
     0
 10
0.0
 20
0.0
 30
0.0
  3
_OPEN30
  1

  0
LINE
  5
29
330
27
100
AcDbEntity
  8
0
  6
ByBlock
 62
     0
100
AcDbLine
 10
-1.0
 20
0.26794919
 30
0.0
 11
0.0
 21
0.0
 31
0.0
  0
LINE
  5
2A
330
27
100
AcDbEntity
  8
0
  6
ByBlock
 62
     0
100
AcDbLine
 10
0.0
 20
0.0
 30
0.0
 11
-1.0
 21
-0.26794919
 31
0.0
  0
LINE
  5
2B
330
27
100
AcDbEntity
  8
0
  6
ByBlock
 62
     0
100
AcDbLine
 10
0.0
 20
0.0
 30
0.0
 11
-1.0
 21
0.0
 31
0.0
  0
ENDBLK
  5
2C
330
27
100
AcDbEntity
  8
0
100
AcDbBlockEnd
  0
BLOCK
  5
37B
330
371
100
AcDbEntity
  8
0
100
AcDbBlockBegin
  2
*D1
 70
     1
 10
0.0
 20
0.0
 30
0.0
  3
*D1
  1

  0
LINE
  5
431
330
371
100
AcDbEntity
  8
SUNPO
 62
     0
370
    -2
100
AcDbLine
 10
-46.94926592088018
 20
64.9421370753177
 30
0.0
 11
-46.94926592088018
 21
72.94213707531771
 31
0.0
  0
LINE
  5
432
330
371
100
AcDbEntity
  8
SUNPO
 62
     0
370
    -2
100
AcDbLine
 10
-4.949265920880179
 20
64.9421370753177
 30
0.0
 11
-4.949265920880178
 21
72.94213707531771
 31
0.0
  0
LINE
  5
433
330
371
100
AcDbEntity
  8
SUNPO
 62
     0
370
    -2
100
AcDbLine
 10
-44.94926592088018
 20
70.9421370753177
 30
0.0
 11
-6.949265920880178
 21
70.9421370753177
 31
0.0
  0
INSERT
  5
434
330
371
100
AcDbEntity
  8
SUNPO
 62
     0
370
    -2
100
AcDbBlockReference
  2
_OPEN30
 10
-46.94926592088018
 20
70.9421370753177
 30
0.0
 41
2.0
 42
2.0
 43
2.0
 50
180.0
  0
INSERT
  5
435
330
371
100
AcDbEntity
  8
SUNPO
 62
     0
370
    -2
100
AcDbBlockReference
  2
_OPEN30
 10
-4.949265920880178
 20
70.9421370753177
 30
0.0
 41
2.0
 42
2.0
 43
2.0
  0
MTEXT
  5
436
330
371
100
AcDbEntity
  8
SUNPO
 62
     0
100
AcDbMText
 10
-25.94926592088018
 20
72.6921370753177
 30
0.0
 40
2.5
 41
0.0
 71
     5
 72
     1
  1
\A1;420
 73
     1
 44
1.0
  0
POINT
  5
437
330
371
100
AcDbEntity
  8
DEFPOINTS
 62
     0
100
AcDbPoint
 10
-46.94926592088018
 20
62.94213707531771
 30
0.0
  0
POINT
  5
438
330
371
100
AcDbEntity
  8
DEFPOINTS
 62
     0
100
AcDbPoint
 10
-4.949265920880179
 20
62.94213707531771
 30
0.0
  0
POINT
  5
439
330
371
100
AcDbEntity
  8
DEFPOINTS
 62
     0
100
AcDbPoint
 10
-4.949265920880178
 20
70.9421370753177
 30
0.0
  0
ENDBLK
  5
37C
330
371
100
AcDbEntity
  8
0
100
AcDbBlockEnd
  0
BLOCK
  5
389
330
37F
100
AcDbEntity
  8
0
100
AcDbBlockBegin
  2
*D2
 70
     1
 10
0.0
 20
0.0
 30
0.0
  3
*D2
  1

  0
LINE
  5
43A
330
37F
100
AcDbEntity
  8
SUNPO
 62
     0
370
    -2
100
AcDbLine
 10
0.0507340791199341
 20
36.44213707531775
 30
0.0
 11
8.050734079119928
 21
36.44213707531775
 31
0.0
  0
LINE
  5
43B
330
37F
100
AcDbEntity
  8
SUNPO
 62
     0
370
    -2
100
AcDbLine
 10
0.050734079119934
 20
62.94213707531771
 30
0.0
 11
8.050734079119933
 21
62.94213707531771
 31
0.0
  0
LINE
  5
43C
330
37F
100
AcDbEntity
  8
SUNPO
 62
     0
370
    -2
100
AcDbLine
 10
6.050734079119928
 20
38.44213707531776
 30
0.0
 11
6.050734079119933
 21
60.9421370753177
 31
0.0
  0
INSERT
  5
43D
330
37F
100
AcDbEntity
  8
SUNPO
 62
     0
370
    -2
100
AcDbBlockReference
  2
_OPEN30
 10
6.050734079119927
 20
36.44213707531775
 30
0.0
 41
2.0
 42
2.0
 43
2.0
 50
270.0
  0
INSERT
  5
43E
330
37F
100
AcDbEntity
  8
SUNPO
 62
     0
370
    -2
100
AcDbBlockReference
  2
_OPEN30
 10
6.050734079119933
 20
62.94213707531771
 30
0.0
 41
2.0
 42
2.0
 43
2.0
 50
90.0
  0
MTEXT
  5
43F
330
37F
100
AcDbEntity
  8
SUNPO
 62
     0
100
AcDbMText
 10
4.300734079119922
 20
49.69213707531773
 30
0.0
 40
2.5
 41
0.0
 71
     5
 72
     1
  1
\A1;265
 11
0.0000000000000001
 21
1.0
 31
0.0
 73
     1
 44
1.0
  0
POINT
  5
440
330
37F
100
AcDbEntity
  8
DEFPOINTS
 62
     0
100
AcDbPoint
 10
-1.949265920880066
 20
36.44213707531775
 30
0.0
  0
POINT
  5
441
330
37F
100
AcDbEntity
  8
DEFPOINTS
 62
     0
100
AcDbPoint
 10
-1.949265920880066
 20
62.94213707531771
 30
0.0
  0
POINT
  5
442
330
37F
100
AcDbEntity
  8
DEFPOINTS
 62
     0
100
AcDbPoint
 10
6.050734079119933
 20
62.94213707531771
 30
0.0
  0
ENDBLK
  5
38A
330
37F
100
AcDbEntity
  8
0
100
AcDbBlockEnd
  0
BLOCK
  5
395
330
38B
100
AcDbEntity
  8
0
100
AcDbBlockBegin
  2
*D3
 70
     1
 10
0.0
 20
0.0
 30
0.0
  3
*D3
  1

  0
LINE
  5
443
330
38B
100
AcDbEntity
  8
SUNPO
 62
     0
370
    -2
100
AcDbLine
 10
57.24337852904186
 20
64.94213707531791
 30
0.0
 11
57.24337852904181
 21
72.94213707531792
 31
0.0
  0
LINE
  5
444
330
38B
100
AcDbEntity
  8
SUNPO
 62
     0
370
    -2
100
AcDbLine
 10
20.04340741053171
 20
64.94213707531764
 30
0.0
 11
20.04340741053165
 21
72.94213707531764
 31
0.0
  0
LINE
  5
445
330
38B
100
AcDbEntity
  8
SUNPO
 62
     0
370
    -2
100
AcDbLine
 10
55.24337852904182
 20
70.9421370753179
 30
0.0
 11
22.04340741053167
 21
70.94213707531766
 31
0.0
  0
INSERT
  5
446
330
38B
100
AcDbEntity
  8
SUNPO
 62
     0
370
    -2
100
AcDbBlockReference
  2
_OPEN30
 10
57.24337852904182
 20
70.94213707531792
 30
0.0
 41
2.0
 42
2.0
 43
2.0
 50
0.0000000000003997
  0
INSERT
  5
447
330
38B
100
AcDbEntity
  8
SUNPO
 62
     0
370
    -2
100
AcDbBlockReference
  2
_OPEN30
 10
20.04340741053167
 20
70.94213707531764
 30
0.0
 41
2.0
 42
2.0
 43
2.0
 50
180.0000000000004
  0
MTEXT
  5
448
330
38B
100
AcDbEntity
  8
SUNPO
 62
     0
100
AcDbMText
 10
38.64339296978673
 20
72.69213707531777
 30
0.0
 40
2.5
 41
0.0
 71
     5
 72
     1
  1
\A1;372
 73
     1
 44
1.0
  0
POINT
  5
449
330
38B
100
AcDbEntity
  8
DEFPOINTS
 62
     0
100
AcDbPoint
 10
57.24337852904188
 20
62.9421370753179
 30
0.0
  0
POINT
  5
44A
330
38B
100
AcDbEntity
  8
DEFPOINTS
 62
     0
100
AcDbPoint
 10
20.04340741053173
 20
62.94213707531764
 30
0.0
  0
POINT
  5
44B
330
38B
100
AcDbEntity
  8
DEFPOINTS
 62
     0
100
AcDbPoint
 10
20.04340741053167
 20
70.94213707531764
 30
0.0
  0
ENDBLK
  5
396
330
38B
100
AcDbEntity
  8
0
100
AcDbBlockEnd
  0
ENDSEC
  0
SECTION
  2
ENTITIES
  0
TEXT
  5
35
330
2
100
AcDbEntity
  8
MOJI1
100
AcDbText
 10
-32.94050173026522
 20
111.0073270162931
 30
0.0
 40
4.0
  1
マトリクススイッチャー
100
AcDbText
  0
TEXT
  5
37
330
2
100
AcDbEntity
  8
TOUROKU
100
AcDbText
 10
46.79278163599547
 20
105.0073270162932
 30
0.0
 40
2.0
  1
ＷＪＳＸ１０００
 72
     2
 11
65.05944830266213
 21
105.0073270162932
 31
0.0
100
AcDbText
  0
CIRCLE
  5
39
330
2
100
AcDbEntity
  8
GAIKEI
 62
     1
100
AcDbCircle
 10
23.27275786204279
 20
59.66214811080334
 30
0.0
 40
0.4792706206264174
  0
CIRCLE
  5
3B
330
2
100
AcDbEntity
  8
GAIKEI
 62
     1
100
AcDbCircle
 10
23.27325310422372
 20
59.6621481108034
 30
0.0
 40
0.252202080655131
  0
CIRCLE
  5
3C
330
2
100
AcDbEntity
  8
GAIKEI
 62
     1
100
AcDbCircle
 10
23.27288167258797
 20
59.6621481108034
 30
0.0
 40
0.3533552961167127
  0
LINE
  5
3D
330
2
100
AcDbEntity
  8
GAIKEI
 62
     1
100
AcDbLine
 10
20.04340741053181
 20
62.43748529291696
 30
0.0
 11
19.89235854533825
 21
62.43748529291696
 31
0.0
  0
LINE
  5
3E
330
2
100
AcDbEntity
  8
GAIKEI
 62
     1
100
AcDbLine
 10
20.04340741053181
 20
61.6299929168577
 30
0.0
 11
20.04340741053181
 21
62.03411053652309
 31
0.0
  0
LINE
  5
3F
330
2
100
AcDbEntity
  8
GAIKEI
 62
     1
100
AcDbLine
 10
20.04340741053181
 20
61.6299929168577
 30
0.0
 11
19.89235854533825
 21
61.6299929168577
 31
0.0
  0
LINE
  5
40
330
2
100
AcDbEntity
  8
GAIKEI
 62
     1
100
AcDbLine
 10
20.04340741053181
 20
62.03411053652309
 30
0.0
 11
20.04340741053181
 21
62.43748529291696
 31
0.0
  0
LINE
  5
41
330
2
100
AcDbEntity
  8
GAIKEI
 62
     1
100
AcDbLine
 10
19.13538087173714
 20
62.12449223454865
 30
0.0
 11
19.13538087173714
 21
62.79034534685269
 31
0.0
  0
LINE
  5
42
330
2
100
AcDbEntity
  8
GAIKEI
 62
     1
100
AcDbLine
 10
19.13538087173714
 20
62.69575409028885
 30
0.0
 11
19.89235854533825
 21
62.69575409028885
 31
0.0
  0
LINE
  5
43
330
2
100
AcDbEntity
  8
GAIKEI
 62
     1
100
AcDbLine
 10
19.13538087173714
 20
62.56352442797191
 30
0.0
 11
19.89235854533825
 21
62.56352442797191
 31
0.0
  0
LINE
  5
44
330
2
100
AcDbEntity
  8
GAIKEI
 62
     1
100
AcDbLine
 10
19.13538087173714
 20
62.41247556277835
 30
0.0
 11
19.89235854533825
 21
62.41247556277835
 31
0.0
  0
LINE
  5
45
330
2
100
AcDbEntity
  8
GAIKEI
 62
     1
100
AcDbLine
 10
19.13538087173714
 20
62.26093145540386
 30
0.0
 11
19.89235854533825
 21
62.26093145540386
 31
0.0
  0
LINE
  5
46
330
2
100
AcDbEntity
  8
GAIKEI
 62
     1
100
AcDbLine
 10
19.27702013549242
 20
62.10938734802937
 30
0.0
 11
19.89235854533825
 21
62.10938734802937
 31
0.0
  0
LINE
  5
47
330
2
100
AcDbEntity
  8
GAIKEI
 62
     1
100
AcDbLine
 10
19.13538087173714
 20
61.27688524183145
 30
0.0
 11
19.13538087173714
 21
61.94323359631642
 31
0.0
  0
LINE
  5
48
330
2
100
AcDbEntity
  8
GAIKEI
 62
     1
100
AcDbLine
 10
19.89235854533825
 20
61.65525026808677
 30
0.0
 11
19.13538087173714
 21
61.65525026808677
 31
0.0
  0
LINE
  5
49
330
2
100
AcDbEntity
  8
GAIKEI
 62
     1
100
AcDbLine
 10
19.89235854533825
 20
61.8065467543708
 30
0.0
 11
19.13538087173714
 21
61.8065467543708
 31
0.0
  0
LINE
  5
4A
330
2
100
AcDbEntity
  8
GAIKEI
 62
     1
100
AcDbLine
 10
19.89235854533825
 20
61.95784324065482
 30
0.0
 11
19.27702013549242
 21
61.95784324065482
 31
0.0
  0
LINE
  5
4B
330
2
100
AcDbEntity
  8
GAIKEI
 62
     1
100
AcDbLine
 10
19.89235854533825
 20
61.50420140289321
 30
0.0
 11
19.13538087173714
 21
61.50420140289321
 31
0.0
  0
LINE
  5
4C
330
2
100
AcDbEntity
  8
GAIKEI
 62
     1
100
AcDbLine
 10
19.27702013549242
 20
61.94323359631647
 30
0.0
 11
19.08461854818852
 21
61.94323359631647
 31
0.0
  0
LINE
  5
4D
330
2
100
AcDbEntity
  8
GAIKEI
 62
     1
100
AcDbLine
 10
19.08461854818852
 20
61.94323359631647
 30
0.0
 11
19.08461854818852
 21
61.32764756538012
 31
0.0
  0
LINE
  5
4E
330
2
100
AcDbEntity
  8
GAIKEI
 62
     1
100
AcDbLine
 10
19.08461854818852
 20
61.32764756538012
 30
0.0
 11
19.13538087173714
 21
61.27688524183145
 31
0.0
  0
LINE
  5
4F
330
2
100
AcDbEntity
  8
GAIKEI
 62
     1
100
AcDbLine
 10
19.13538087173714
 20
61.27688524183145
 30
0.0
 11
19.89235854533825
 21
61.27688524183145
 31
0.0
  0
LINE
  5
50
330
2
100
AcDbEntity
  8
GAIKEI
 62
     1
100
AcDbLine
 10
19.89235854533825
 20
61.27688524183145
 30
0.0
 11
19.89235854533825
 21
62.79034534685274
 31
0.0
  0
LINE
  5
51
330
2
100
AcDbEntity
  8
GAIKEI
 62
     1
100
AcDbLine
 10
19.89235854533825
 20
62.79034534685274
 30
0.0
 11
19.13538087173714
 21
62.79034534685274
 31
0.0
  0
LINE
  5
52
330
2
100
AcDbEntity
  8
GAIKEI
 62
     1
100
AcDbLine
 10
19.13538087173714
 20
62.79034534685274
 30
0.0
 11
19.08461854818852
 21
62.74007826548507
 31
0.0
  0
LINE
  5
53
330
2
100
AcDbEntity
  8
GAIKEI
 62
     1
100
AcDbLine
 10
19.08461854818852
 20
62.74007826548507
 30
0.0
 11
19.08461854818852
 21
62.12449223454871
 31
0.0
  0
LINE
  5
54
330
2
100
AcDbEntity
  8
GAIKEI
 62
     1
100
AcDbLine
 10
19.08461854818852
 20
62.12449223454871
 30
0.0
 11
19.27702013549242
 21
62.12449223454871
 31
0.0
  0
LINE
  5
55
330
2
100
AcDbEntity
  8
GAIKEI
 62
     1
100
AcDbLine
 10
19.27702013549242
 20
62.12449223454871
 30
0.0
 11
19.27702013549242
 21
61.94323359631647
 31
0.0
  0
LINE
  5
56
330
2
100
AcDbEntity
  8
GAIKEI
 62
     1
100
AcDbLine
 10
19.89235854533825
 20
61.37172411948575
 30
0.0
 11
19.13538087173714
 21
61.37172411948575
 31
0.0
  0
LINE
  5
57
330
2
100
AcDbEntity
  8
GAIKEI
100
AcDbLine
 10
-41.07623799914063
 20
35.59213707531779
 30
0.0
 11
-40.92623799914065
 21
36.44213707531775
 31
0.0
  0
LINE
  5
58
330
2
100
AcDbEntity
  8
GAIKEI
100
AcDbLine
 10
-42.77623799914062
 20
35.59213707531779
 30
0.0
 11
-41.07623799914063
 21
35.59213707531779
 31
0.0
  0
LINE
  5
59
330
2
100
AcDbEntity
  8
GAIKEI
100
AcDbLine
 10
-42.92623799914065
 20
36.44213707531775
 30
0.0
 11
-42.77623799914062
 21
35.59213707531779
 31
0.0
  0
LINE
  5
5A
330
2
100
AcDbEntity
  8
GAIKEI
100
AcDbLine
 10
-9.122280337211975
 20
35.59213707531779
 30
0.0
 11
-8.972280337211998
 21
36.44213707531775
 31
0.0
  0
LINE
  5
5B
330
2
100
AcDbEntity
  8
GAIKEI
100
AcDbLine
 10
-10.82228033721196
 20
35.59213707531779
 30
0.0
 11
-9.122280337211975
 21
35.59213707531779
 31
0.0
  0
LINE
  5
5C
330
2
100
AcDbEntity
  8
GAIKEI
100
AcDbLine
 10
-10.97228033721199
 20
36.44213707531775
 30
0.0
 11
-10.82228033721196
 21
35.59213707531779
 31
0.0
  0
LINE
  5
5D
330
2
100
AcDbEntity
  8
GAIKEI
100
AcDbLine
 10
-4.949265920880179
 20
62.94213707531771
 30
0.0
 11
-1.949265920880066
 21
62.94213707531771
 31
0.0
  0
ARC
  5
5E
330
2
100
AcDbEntity
  8
GAIKEI
  6
Continuous
100
AcDbCircle
 10
-4.249265920880134
 20
53.69213707531776
 30
0.0
 40
0.45
100
AcDbArc
 50
332.7339555492685
 51
207.2660444507314
  0
ARC
  5
5F
330
2
100
AcDbEntity
  8
GAIKEI
  6
Continuous
100
AcDbCircle
 10
-4.249265920880134
 20
53.69213707531776
 30
0.0
 40
0.4
100
AcDbArc
 50
0.0
 51
180.0
  0
LINE
  5
60
330
2
100
AcDbEntity
  8
GAIKEI
100
AcDbLine
 10
-4.949265920880179
 20
36.44213707531775
 30
0.0
 11
-1.949265920880066
 21
36.44213707531775
 31
0.0
  0
ARC
  5
61
330
2
100
AcDbEntity
  8
GAIKEI
  6
Continuous
100
AcDbCircle
 10
-4.249265920880134
 20
45.69213707531775
 30
0.0
 40
0.45
100
AcDbArc
 50
152.7339555492685
 51
27.26604445073148
  0
ARC
  5
62
330
2
100
AcDbEntity
  8
GAIKEI
  6
Continuous
100
AcDbCircle
 10
-4.249265920880134
 20
45.69213707531775
 30
0.0
 40
0.4
100
AcDbArc
 50
180.0
 51
0.0
  0
LINE
  5
63
330
2
100
AcDbEntity
  8
GAIKEI
  6
Continuous
100
AcDbLine
 10
-3.849265920880043
 20
45.69213707531775
 30
0.0
 11
-3.849265920880043
 21
53.69213707531776
 31
0.0
  0
LINE
  5
64
330
2
100
AcDbEntity
  8
GAIKEI
  6
Continuous
100
AcDbLine
 10
-4.649265920880111
 20
45.69213707531775
 30
0.0
 11
-4.649265920880111
 21
53.69213707531776
 31
0.0
  0
LINE
  5
65
330
2
100
AcDbEntity
  8
GAIKEI
  6
Continuous
100
AcDbLine
 10
-1.949265920880066
 20
36.44213707531775
 30
0.0
 11
-1.949265920880066
 21
62.94213707531771
 31
0.0
  0
LINE
  5
66
330
2
100
AcDbEntity
  8
GAIKEI
  6
Continuous
100
AcDbLine
 10
-4.949265920880179
 20
36.44213707531775
 30
0.0
 11
-4.949265920880179
 21
62.94213707531771
 31
0.0
  0
LINE
  5
67
330
2
100
AcDbEntity
  8
GAIKEI
100
AcDbLine
 10
-49.94926592088018
 20
62.94213707531771
 30
0.0
 11
-46.94926592088018
 21
62.94213707531771
 31
0.0
  0
ARC
  5
68
330
2
100
AcDbEntity
  8
GAIKEI
100
AcDbCircle
 10
-47.64926592088011
 20
54.7139209940417
 30
0.0
 40
0.4
100
AcDbArc
 50
0.0
 51
180.0
  0
ARC
  5
69
330
2
100
AcDbEntity
  8
GAIKEI
100
AcDbCircle
 10
-47.64926592088011
 20
54.7139209940417
 30
0.0
 40
0.45
100
AcDbArc
 50
332.7339555492685
 51
207.2660444507314
  0
LINE
  5
6A
330
2
100
AcDbEntity
  8
GAIKEI
100
AcDbLine
 10
-49.94926592088018
 20
36.44213707531775
 30
0.0
 11
-46.94926592088018
 21
36.44213707531775
 31
0.0
  0
ARC
  5
6B
330
2
100
AcDbEntity
  8
GAIKEI
100
AcDbCircle
 10
-47.64926592088011
 20
44.48457420105012
 30
0.0
 40
0.4
100
AcDbArc
 50
180.0
 51
0.0
  0
ARC
  5
6C
330
2
100
AcDbEntity
  8
GAIKEI
100
AcDbCircle
 10
-47.64926592088011
 20
44.48457420105012
 30
0.0
 40
0.45
100
AcDbArc
 50
152.7339555492685
 51
27.26604445073148
  0
LINE
  5
6D
330
2
100
AcDbEntity
  8
GAIKEI
100
AcDbLine
 10
-47.24926592088013
 20
44.48457420105012
 30
0.0
 11
-47.24926592088013
 21
54.7139209940417
 31
0.0
  0
LINE
  5
6E
330
2
100
AcDbEntity
  8
GAIKEI
100
AcDbLine
 10
-48.04926592088008
 20
44.48457420105012
 30
0.0
 11
-48.04926592088008
 21
54.7139209940417
 31
0.0
  0
LINE
  5
6F
330
2
100
AcDbEntity
  8
GAIKEI
100
AcDbLine
 10
-49.94926592088018
 20
36.44213707531775
 30
0.0
 11
-49.94926592088018
 21
62.94213707531771
 31
0.0
  0
LINE
  5
70
330
2
100
AcDbEntity
  8
GAIKEI
100
AcDbLine
 10
-46.94926592088018
 20
36.44213707531775
 30
0.0
 11
-46.94926592088018
 21
62.94213707531771
 31
0.0
  0
LINE
  5
71
330
2
100
AcDbEntity
  8
GAIKEI
100
AcDbLine
 10
-46.94926592088018
 20
36.44213707531775
 30
0.0
 11
-4.949265920880179
 21
36.44213707531775
 31
0.0
  0
LINE
  5
72
330
2
100
AcDbEntity
  8
GAIKEI
100
AcDbLine
 10
-46.94926592088018
 20
62.94213707531771
 30
0.0
 11
-4.949265920880179
 21
62.94213707531771
 31
0.0
  0
LINE
  5
73
330
2
100
AcDbEntity
  8
GAIKEI
 62
     1
100
AcDbLine
 10
-24.17551851884445
 20
40.3423929645146
 30
0.0
 11
-6.029762116217398
 21
40.3423929645146
 31
0.0
  0
LINE
  5
74
330
2
100
AcDbEntity
  8
GAIKEI
 62
     1
100
AcDbLine
 10
-24.17551851884445
 20
40.89861041707808
 30
0.0
 11
-6.029762116217398
 21
40.89861041707808
 31
0.0
  0
LINE
  5
75
330
2
100
AcDbEntity
  8
GAIKEI
 62
     1
100
AcDbLine
 10
-24.17551851884445
 20
41.47095026106399
 30
0.0
 11
-6.029762116217398
 21
41.47095026106399
 31
0.0
  0
LINE
  5
76
330
2
100
AcDbEntity
  8
GAIKEI
 62
     1
100
AcDbLine
 10
-24.17551851884445
 20
42.03522857257155
 30
0.0
 11
-6.029762116217398
 21
42.03522857257155
 31
0.0
  0
LINE
  5
77
330
2
100
AcDbEntity
  8
GAIKEI
 62
     1
100
AcDbLine
 10
-24.17551851884445
 20
42.58338449265671
 30
0.0
 11
-6.029762116217398
 21
42.58338449265671
 31
0.0
  0
LINE
  5
78
330
2
100
AcDbEntity
  8
GAIKEI
 62
     1
100
AcDbLine
 10
-24.17551851884445
 20
43.16378519558656
 30
0.0
 11
-6.029762116217398
 21
43.16378519558656
 31
0.0
  0
LINE
  5
79
330
2
100
AcDbEntity
  8
GAIKEI
 62
     1
100
AcDbLine
 10
-5.935518518844446
 20
43.74418589851643
 30
0.0
 11
-5.935518518844446
 21
39.74333333984941
 31
0.0
  0
LINE
  5
7A
330
2
100
AcDbEntity
  8
GAIKEI
 62
     1
100
AcDbLine
 10
-6.505518518844439
 20
43.74418589851643
 30
0.0
 11
-6.505518518844439
 21
39.74333333984941
 31
0.0
  0
LINE
  5
7B
330
2
100
AcDbEntity
  8
GAIKEI
 62
     1
100
AcDbLine
 10
-7.075518518844432
 20
43.74418589851643
 30
0.0
 11
-7.075518518844432
 21
39.74333333984941
 31
0.0
  0
LINE
  5
7C
330
2
100
AcDbEntity
  8
GAIKEI
 62
     1
100
AcDbLine
 10
-7.645518518844482
 20
43.74418589851643
 30
0.0
 11
-7.645518518844482
 21
39.74333333984941
 31
0.0
  0
LINE
  5
7D
330
2
100
AcDbEntity
  8
GAIKEI
 62
     1
100
AcDbLine
 10
-8.215518518844419
 20
43.74418589851643
 30
0.0
 11
-8.215518518844419
 21
39.74333333984941
 31
0.0
  0
LINE
  5
7E
330
2
100
AcDbEntity
  8
GAIKEI
 62
     1
100
AcDbLine
 10
-8.785518518844469
 20
43.74418589851643
 30
0.0
 11
-8.785518518844469
 21
39.74333333984941
 31
0.0
  0
LINE
  5
7F
330
2
100
AcDbEntity
  8
GAIKEI
 62
     1
100
AcDbLine
 10
-9.355518518844462
 20
43.74418589851643
 30
0.0
 11
-9.355518518844462
 21
39.74333333984941
 31
0.0
  0
LINE
  5
80
330
2
100
AcDbEntity
  8
GAIKEI
 62
     1
100
AcDbLine
 10
-9.925518518844455
 20
43.74418589851643
 30
0.0
 11
-9.925518518844455
 21
39.74333333984941
 31
0.0
  0
LINE
  5
81
330
2
100
AcDbEntity
  8
GAIKEI
 62
     1
100
AcDbLine
 10
-10.49551851884444
 20
43.74418589851643
 30
0.0
 11
-10.49551851884444
 21
39.74333333984941
 31
0.0
  0
LINE
  5
82
330
2
100
AcDbEntity
  8
GAIKEI
 62
     1
100
AcDbLine
 10
-11.06551851884444
 20
43.74418589851643
 30
0.0
 11
-11.06551851884444
 21
39.74333333984941
 31
0.0
  0
LINE
  5
83
330
2
100
AcDbEntity
  8
GAIKEI
 62
     1
100
AcDbLine
 10
-11.63551851884443
 20
43.74418589851643
 30
0.0
 11
-11.63551851884443
 21
39.74333333984941
 31
0.0
  0
LINE
  5
84
330
2
100
AcDbEntity
  8
GAIKEI
 62
     1
100
AcDbLine
 10
-12.20551851884442
 20
43.74418589851643
 30
0.0
 11
-12.20551851884442
 21
39.74333333984941
 31
0.0
  0
LINE
  5
85
330
2
100
AcDbEntity
  8
GAIKEI
 62
     1
100
AcDbLine
 10
-12.77551851884447
 20
43.74418589851643
 30
0.0
 11
-12.77551851884447
 21
39.74333333984941
 31
0.0
  0
LINE
  5
86
330
2
100
AcDbEntity
  8
GAIKEI
 62
     1
100
AcDbLine
 10
-13.34551851884441
 20
43.74418589851643
 30
0.0
 11
-13.34551851884441
 21
39.74333333984941
 31
0.0
  0
LINE
  5
87
330
2
100
AcDbEntity
  8
GAIKEI
 62
     1
100
AcDbLine
 10
-13.91551851884446
 20
43.74418589851643
 30
0.0
 11
-13.91551851884446
 21
39.74333333984941
 31
0.0
  0
LINE
  5
88
330
2
100
AcDbEntity
  8
GAIKEI
 62
     1
100
AcDbLine
 10
-14.48551851884445
 20
43.74418589851643
 30
0.0
 11
-14.48551851884445
 21
39.74333333984941
 31
0.0
  0
LINE
  5
89
330
2
100
AcDbEntity
  8
GAIKEI
 62
     1
100
AcDbLine
 10
-15.05551851884445
 20
43.74418589851643
 30
0.0
 11
-15.05551851884445
 21
39.74333333984941
 31
0.0
  0
LINE
  5
8A
330
2
100
AcDbEntity
  8
GAIKEI
 62
     1
100
AcDbLine
 10
-15.62551851884444
 20
43.74418589851643
 30
0.0
 11
-15.62551851884444
 21
39.74333333984941
 31
0.0
  0
LINE
  5
8B
330
2
100
AcDbEntity
  8
GAIKEI
 62
     1
100
AcDbLine
 10
-16.19551851884443
 20
43.74418589851643
 30
0.0
 11
-16.19551851884443
 21
39.74333333984941
 31
0.0
  0
LINE
  5
8C
330
2
100
AcDbEntity
  8
GAIKEI
 62
     1
100
AcDbLine
 10
-16.76551851884448
 20
43.74418589851643
 30
0.0
 11
-16.76551851884448
 21
39.74333333984941
 31
0.0
  0
LINE
  5
8D
330
2
100
AcDbEntity
  8
GAIKEI
 62
     1
100
AcDbLine
 10
-17.33551851884442
 20
43.74418589851643
 30
0.0
 11
-17.33551851884442
 21
39.74333333984941
 31
0.0
  0
LINE
  5
8E
330
2
100
AcDbEntity
  8
GAIKEI
 62
     1
100
AcDbLine
 10
-17.90551851884447
 20
43.74418589851643
 30
0.0
 11
-17.90551851884447
 21
39.74333333984941
 31
0.0
  0
LINE
  5
8F
330
2
100
AcDbEntity
  8
GAIKEI
 62
     1
100
AcDbLine
 10
-18.47551851884446
 20
43.74418589851643
 30
0.0
 11
-18.47551851884446
 21
39.74333333984941
 31
0.0
  0
LINE
  5
90
330
2
100
AcDbEntity
  8
GAIKEI
 62
     1
100
AcDbLine
 10
-19.04551851884446
 20
43.74418589851643
 30
0.0
 11
-19.04551851884446
 21
39.74333333984941
 31
0.0
  0
LINE
  5
91
330
2
100
AcDbEntity
  8
GAIKEI
 62
     1
100
AcDbLine
 10
-19.61551851884445
 20
43.74418589851643
 30
0.0
 11
-19.61551851884445
 21
39.74333333984941
 31
0.0
  0
LINE
  5
92
330
2
100
AcDbEntity
  8
GAIKEI
 62
     1
100
AcDbLine
 10
-20.18551851884444
 20
43.74418589851643
 30
0.0
 11
-20.18551851884444
 21
39.74333333984941
 31
0.0
  0
LINE
  5
93
330
2
100
AcDbEntity
  8
GAIKEI
 62
     1
100
AcDbLine
 10
-20.75551851884444
 20
43.74418589851643
 30
0.0
 11
-20.75551851884444
 21
39.74333333984941
 31
0.0
  0
LINE
  5
94
330
2
100
AcDbEntity
  8
GAIKEI
 62
     1
100
AcDbLine
 10
-21.32551851884443
 20
43.74418589851643
 30
0.0
 11
-21.32551851884443
 21
39.74333333984941
 31
0.0
  0
LINE
  5
95
330
2
100
AcDbEntity
  8
GAIKEI
 62
     1
100
AcDbLine
 10
-21.89551851884448
 20
43.74418589851643
 30
0.0
 11
-21.89551851884448
 21
39.74333333984941
 31
0.0
  0
LINE
  5
96
330
2
100
AcDbEntity
  8
GAIKEI
 62
     1
100
AcDbLine
 10
-22.46551851884441
 20
43.74418589851643
 30
0.0
 11
-22.46551851884441
 21
39.74333333984941
 31
0.0
  0
LINE
  5
97
330
2
100
AcDbEntity
  8
GAIKEI
 62
     1
100
AcDbLine
 10
-23.03551851884447
 20
43.74418589851643
 30
0.0
 11
-23.03551851884447
 21
39.74333333984941
 31
0.0
  0
LINE
  5
98
330
2
100
AcDbEntity
  8
GAIKEI
 62
     1
100
AcDbLine
 10
-23.60551851884446
 20
43.74418589851643
 30
0.0
 11
-23.60551851884446
 21
39.74333333984941
 31
0.0
  0
LINE
  5
99
330
2
100
AcDbEntity
  8
GAIKEI
 62
     1
100
AcDbLine
 10
-24.17551851884445
 20
39.74333333984941
 30
0.0
 11
-6.029762116217398
 21
39.74333333984941
 31
0.0
  0
LINE
  5
9A
330
2
100
AcDbEntity
  8
GAIKEI
 62
     1
100
AcDbLine
 10
-24.17551851884445
 20
43.74418589851643
 30
0.0
 11
-24.17551851884445
 21
39.74333333984941
 31
0.0
  0
LINE
  5
9B
330
2
100
AcDbEntity
  8
GAIKEI
 62
     1
100
AcDbLine
 10
-24.17551851884445
 20
43.74418589851643
 30
0.0
 11
-6.029762116217398
 21
43.74418589851643
 31
0.0
  0
LINE
  5
9C
330
2
100
AcDbEntity
  8
GAIKEI
 62
     1
100
AcDbLine
 10
-9.693282553971357
 20
61.94191321285467
 30
0.0
 11
-8.177573959217625
 21
61.94191321285467
 31
0.0
  0
LINE
  5
9D
330
2
100
AcDbEntity
  8
GAIKEI
 62
     1
100
AcDbLine
 10
-9.693282553971357
 20
62.12365939311877
 30
0.0
 11
-8.188483689001543
 21
62.12365939311877
 31
0.0
  0
LINE
  5
9E
330
2
100
AcDbEntity
  8
GAIKEI
 62
     1
100
AcDbLine
 10
-43.71056386547798
 20
62.12365939311877
 30
0.0
 11
-42.20551705210403
 21
62.12365939311877
 31
0.0
  0
LINE
  5
9F
330
2
100
AcDbEntity
  8
GAIKEI
 62
     1
100
AcDbLine
 10
-43.71056386547798
 20
61.94191321285467
 30
0.0
 11
-42.19460732232005
 21
61.94191321285467
 31
0.0
  0
CIRCLE
  5
A0
330
2
100
AcDbEntity
  8
GAIKEI
 62
     1
100
AcDbCircle
 10
-42.958040458791
 20
62.03266232878462
 30
0.0
 40
0.7578542973768731
  0
CIRCLE
  5
A1
330
2
100
AcDbEntity
  8
GAIKEI
 62
     1
100
AcDbCircle
 10
-8.940883121486422
 20
62.03266232878462
 30
0.0
 40
0.7578542973768731
  0
LINE
  5
A2
330
2
100
AcDbEntity
  8
GAIKEI
 62
     1
100
AcDbLine
 10
-49.39926592088017
 20
59.47975042122886
 30
0.0
 11
-48.99926592088013
 21
59.47975042122886
 31
0.0
  0
ARC
  5
A3
330
2
100
AcDbEntity
  8
GAIKEI
 62
     1
100
AcDbCircle
 10
-48.99926592088013
 20
59.17975042122884
 30
0.0
 40
0.3
100
AcDbArc
 50
270.0
 51
90.0
  0
ARC
  5
A4
330
2
100
AcDbEntity
  8
GAIKEI
 62
     1
100
AcDbCircle
 10
-49.39926592088017
 20
59.17975042122884
 30
0.0
 40
0.3
100
AcDbArc
 50
90.0
 51
270.0
  0
LINE
  5
A5
330
2
100
AcDbEntity
  8
GAIKEI
 62
     1
100
AcDbLine
 10
-49.39926592088017
 20
58.87975042122883
 30
0.0
 11
-48.99926592088013
 21
58.87975042122883
 31
0.0
  0
LINE
  5
A6
330
2
100
AcDbEntity
  8
GAIKEI
 62
     1
100
AcDbLine
 10
-49.39926592088176
 20
53.09982517138348
 30
0.0
 11
-48.99926592088172
 21
53.09982517138348
 31
0.0
  0
ARC
  5
A7
330
2
100
AcDbEntity
  8
GAIKEI
 62
     1
100
AcDbCircle
 10
-49.39926592088176
 20
53.39982517138349
 30
0.0
 40
0.3
100
AcDbArc
 50
90.0
 51
270.0
  0
ARC
  5
A8
330
2
100
AcDbEntity
  8
GAIKEI
 62
     1
100
AcDbCircle
 10
-48.99926592088172
 20
53.39982517138349
 30
0.0
 40
0.3
100
AcDbArc
 50
270.0
 51
90.0
  0
LINE
  5
A9
330
2
100
AcDbEntity
  8
GAIKEI
 62
     1
100
AcDbLine
 10
-49.39926592088176
 20
53.69982517138351
 30
0.0
 11
-48.99926592088172
 21
53.69982517138351
 31
0.0
  0
LINE
  5
AA
330
2
100
AcDbEntity
  8
GAIKEI
 62
     1
100
AcDbLine
 10
-49.39926592088028
 20
45.99978747956646
 30
0.0
 11
-48.99926592088025
 21
45.99978747956646
 31
0.0
  0
ARC
  5
AB
330
2
100
AcDbEntity
  8
GAIKEI
 62
     1
100
AcDbCircle
 10
-48.99926592088025
 20
45.69978747956645
 30
0.0
 40
0.3
100
AcDbArc
 50
270.0
 51
90.0
  0
ARC
  5
AC
330
2
100
AcDbEntity
  8
GAIKEI
 62
     1
100
AcDbCircle
 10
-49.39926592088028
 20
45.69978747956645
 30
0.0
 40
0.3
100
AcDbArc
 50
90.0
 51
270.0
  0
LINE
  5
AD
330
2
100
AcDbEntity
  8
GAIKEI
 62
     1
100
AcDbLine
 10
-49.39926592088028
 20
45.39978747956644
 30
0.0
 11
-48.99926592088025
 21
45.39978747956644
 31
0.0
  0
LINE
  5
AE
330
2
100
AcDbEntity
  8
GAIKEI
 62
     1
100
AcDbLine
 10
-49.39926592088028
 20
39.62011017812528
 30
0.0
 11
-48.99926592088025
 21
39.62011017812528
 31
0.0
  0
ARC
  5
AF
330
2
100
AcDbEntity
  8
GAIKEI
 62
     1
100
AcDbCircle
 10
-49.39926592088028
 20
39.92011017812529
 30
0.0
 40
0.3
100
AcDbArc
 50
90.0
 51
270.0
  0
ARC
  5
B0
330
2
100
AcDbEntity
  8
GAIKEI
 62
     1
100
AcDbCircle
 10
-48.99926592088025
 20
39.92011017812529
 30
0.0
 40
0.3
100
AcDbArc
 50
270.0
 51
90.0
  0
LINE
  5
B1
330
2
100
AcDbEntity
  8
GAIKEI
 62
     1
100
AcDbLine
 10
-49.39926592088028
 20
40.22011017812531
 30
0.0
 11
-48.99926592088025
 21
40.22011017812531
 31
0.0
  0
LINE
  5
B2
330
2
100
AcDbEntity
  8
GAIKEI
 62
     1
100
AcDbLine
 10
-2.499265920880077
 20
40.22011017812531
 30
0.0
 11
-2.899265920880111
 21
40.22011017812531
 31
0.0
  0
ARC
  5
B3
330
2
100
AcDbEntity
  8
GAIKEI
 62
     1
100
AcDbCircle
 10
-2.899265920880111
 20
39.92011017812529
 30
0.0
 40
0.3
100
AcDbArc
 50
90.0
 51
270.0
  0
ARC
  5
B4
330
2
100
AcDbEntity
  8
GAIKEI
 62
     1
100
AcDbCircle
 10
-2.499265920880077
 20
39.92011017812529
 30
0.0
 40
0.3
100
AcDbArc
 50
270.0
 51
90.0
  0
LINE
  5
B5
330
2
100
AcDbEntity
  8
GAIKEI
 62
     1
100
AcDbLine
 10
-2.499265920880077
 20
39.62011017812528
 30
0.0
 11
-2.899265920880111
 21
39.62011017812528
 31
0.0
  0
LINE
  5
B6
330
2
100
AcDbEntity
  8
GAIKEI
  6
Continuous
 62
     1
100
AcDbLine
 10
-2.499265920880077
 20
45.39978747956644
 30
0.0
 11
-2.899265920880111
 21
45.39978747956644
 31
0.0
  0
ARC
  5
B7
330
2
100
AcDbEntity
  8
GAIKEI
  6
Continuous
 62
     1
100
AcDbCircle
 10
-2.499265920880077
 20
45.69978747956645
 30
0.0
 40
0.3
100
AcDbArc
 50
270.0
 51
90.0
  0
ARC
  5
B8
330
2
100
AcDbEntity
  8
GAIKEI
  6
Continuous
 62
     1
100
AcDbCircle
 10
-2.899265920880111
 20
45.69978747956645
 30
0.0
 40
0.3
100
AcDbArc
 50
90.0
 51
270.0
  0
LINE
  5
B9
330
2
100
AcDbEntity
  8
GAIKEI
  6
Continuous
 62
     1
100
AcDbLine
 10
-2.499265920880077
 20
45.99978747956646
 30
0.0
 11
-2.899265920880111
 21
45.99978747956646
 31
0.0
  0
LINE
  5
BA
330
2
100
AcDbEntity
  8
GAIKEI
  6
Continuous
 62
     1
100
AcDbLine
 10
-2.499265920878599
 20
53.69982517138351
 30
0.0
 11
-2.899265920878633
 21
53.69982517138351
 31
0.0
  0
ARC
  5
BB
330
2
100
AcDbEntity
  8
GAIKEI
  6
Continuous
 62
     1
100
AcDbCircle
 10
-2.899265920878633
 20
53.39982517138349
 30
0.0
 40
0.3
100
AcDbArc
 50
90.0
 51
270.0
  0
ARC
  5
BC
330
2
100
AcDbEntity
  8
GAIKEI
  6
Continuous
 62
     1
100
AcDbCircle
 10
-2.499265920878599
 20
53.39982517138349
 30
0.0
 40
0.3
100
AcDbArc
 50
270.0
 51
90.0
  0
LINE
  5
BD
330
2
100
AcDbEntity
  8
GAIKEI
  6
Continuous
 62
     1
100
AcDbLine
 10
-2.499265920878599
 20
53.09982517138348
 30
0.0
 11
-2.899265920878633
 21
53.09982517138348
 31
0.0
  0
LINE
  5
BE
330
2
100
AcDbEntity
  8
GAIKEI
 62
     1
100
AcDbLine
 10
-2.499265920880134
 20
58.87975042122883
 30
0.0
 11
-2.899265920880225
 21
58.87975042122883
 31
0.0
  0
ARC
  5
BF
330
2
100
AcDbEntity
  8
GAIKEI
 62
     1
100
AcDbCircle
 10
-2.499265920880134
 20
59.17975042122884
 30
0.0
 40
0.3
100
AcDbArc
 50
270.0
 51
90.0
  0
ARC
  5
C0
330
2
100
AcDbEntity
  8
GAIKEI
 62
     1
100
AcDbCircle
 10
-2.899265920880225
 20
59.17975042122884
 30
0.0
 40
0.3
100
AcDbArc
 50
90.0
 51
270.0
  0
LINE
  5
C1
330
2
100
AcDbEntity
  8
GAIKEI
 62
     1
100
AcDbLine
 10
-2.499265920880134
 20
59.47975042122886
 30
0.0
 11
-2.899265920880225
 21
59.47975042122886
 31
0.0
  0
LINE
  5
C2
330
2
100
AcDbEntity
  8
GAIKEI
100
AcDbLine
 10
20.04340741053169
 20
62.94213707531771
 30
0.0
 11
20.04340741053187
 21
36.44213707531775
 31
0.0
  0
LINE
  5
C3
330
2
100
AcDbEntity
  8
GAIKEI
100
AcDbLine
 10
20.04340741053169
 20
62.94213707531771
 30
0.0
 11
55.08362737786473
 21
62.94213707531773
 31
0.0
  0
LINE
  5
C4
330
2
100
AcDbEntity
  8
GAIKEI
100
AcDbLine
 10
20.04340741053187
 20
36.44213707531775
 30
0.0
 11
55.08362737786467
 21
36.44213707531775
 31
0.0
  0
LINE
  5
C5
330
2
100
AcDbEntity
  8
GAIKEI
100
AcDbLine
 10
55.08362737786473
 20
62.94213707531773
 30
0.0
 11
55.08362737786467
 21
36.44213707531775
 31
0.0
  0
LINE
  5
C6
330
2
100
AcDbEntity
  8
GAIKEI
100
AcDbLine
 10
24.08037404864728
 20
36.64444350624092
 30
0.0
 11
24.08037404864728
 21
62.74007826548501
 31
0.0
  0
LINE
  5
C7
330
2
100
AcDbEntity
  8
GAIKEI
100
AcDbLine
 10
24.08037404864728
 20
36.64444350624092
 30
0.0
 11
23.87856285990506
 21
36.44213707531781
 31
0.0
  0
LINE
  5
C8
330
2
100
AcDbEntity
  8
GAIKEI
 62
     1
100
AcDbLine
 10
20.36680055470032
 20
36.44213707531781
 30
0.0
 11
20.36680055470032
 21
62.94213707531776
 31
0.0
  0
LINE
  5
C9
330
2
100
AcDbEntity
  8
GAIKEI
100
AcDbLine
 10
24.08037404864728
 20
62.74007826548501
 30
0.0
 11
23.87856285990506
 21
62.94213707531771
 31
0.0
  0
LINE
  5
CA
330
2
100
AcDbEntity
  8
GAIKEI
100
AcDbLine
 10
24.08037404864734
 20
60.92377756680519
 30
0.0
 11
55.08362737786467
 21
60.92377756680519
 31
0.0
  0
ARC
  5
CB
330
2
100
AcDbEntity
  8
GAIKEI
100
AcDbCircle
 10
17.19340741053184
 20
53.5921370753174
 30
0.0
 40
0.5
100
AcDbArc
 50
90.0
 51
180.0
  0
LINE
  5
CC
330
2
100
AcDbEntity
  8
GAIKEI
100
AcDbLine
 10
19.97299947021519
 20
54.0921370753174
 30
0.0
 11
19.97299947021519
 21
53.24213707531817
 31
0.0
  0
LINE
  5
CD
330
2
100
AcDbEntity
  8
GAIKEI
100
AcDbLine
 10
19.97299947021519
 20
53.29213707531806
 30
0.0
 11
17.79340741053187
 21
53.29213707531806
 31
0.0
  0
LINE
  5
CE
330
2
100
AcDbEntity
  8
GAIKEI
100
AcDbLine
 10
20.04340741053181
 20
53.24213707531817
 30
0.0
 11
19.97299947021519
 21
53.24213707531817
 31
0.0
  0
ARC
  5
CF
330
2
100
AcDbEntity
  8
GAIKEI
100
AcDbCircle
 10
17.79340741053187
 20
52.99213707531805
 30
0.0
 40
0.3
100
AcDbArc
 50
90.0
 51
180.0
  0
LINE
  5
D0
330
2
100
AcDbEntity
  8
GAIKEI
100
AcDbLine
 10
19.97299947021519
 20
54.0921370753174
 30
0.0
 11
17.19340741053184
 21
54.0921370753174
 31
0.0
  0
LINE
  5
D1
330
2
100
AcDbEntity
  8
GAIKEI
100
AcDbLine
 10
19.97299947021519
 20
54.1421370753174
 30
0.0
 11
19.97299947021519
 21
54.0921370753174
 31
0.0
  0
LINE
  5
D2
330
2
100
AcDbEntity
  8
GAIKEI
100
AcDbLine
 10
20.04340741053181
 20
54.1421370753174
 30
0.0
 11
19.97299947021519
 21
54.1421370753174
 31
0.0
  0
LINE
  5
D3
330
2
100
AcDbEntity
  8
GAIKEI
100
AcDbLine
 10
19.97299947021519
 20
46.14213707531809
 30
0.0
 11
19.97299947021519
 21
46.09213707531745
 31
0.0
  0
ARC
  5
D4
330
2
100
AcDbEntity
  8
GAIKEI
100
AcDbCircle
 10
17.79340741053187
 20
46.39213707531746
 30
0.0
 40
0.3
100
AcDbArc
 50
180.0
 51
270.0
  0
LINE
  5
D5
330
2
100
AcDbEntity
  8
GAIKEI
100
AcDbLine
 10
19.97299947021519
 20
45.29213707531744
 30
0.0
 11
17.19340741053184
 21
45.29213707531744
 31
0.0
  0
LINE
  5
D6
330
2
100
AcDbEntity
  8
GAIKEI
100
AcDbLine
 10
19.97299947021519
 20
46.09213707531745
 30
0.0
 11
17.79340741053187
 21
46.09213707531745
 31
0.0
  0
LINE
  5
D7
330
2
100
AcDbEntity
  8
GAIKEI
100
AcDbLine
 10
20.04340741053181
 20
45.24213707531749
 30
0.0
 11
19.97299947021519
 21
45.24213707531749
 31
0.0
  0
ARC
  5
D8
330
2
100
AcDbEntity
  8
GAIKEI
100
AcDbCircle
 10
17.19340741053184
 20
45.79213707531744
 30
0.0
 40
0.5
100
AcDbArc
 50
180.0
 51
270.0
  0
LINE
  5
D9
330
2
100
AcDbEntity
  8
GAIKEI
100
AcDbLine
 10
19.97299947021519
 20
45.29213707531744
 30
0.0
 11
19.97299947021519
 21
45.24213707531749
 31
0.0
  0
LINE
  5
DA
330
2
100
AcDbEntity
  8
GAIKEI
100
AcDbLine
 10
19.97299947021519
 20
46.09213707531745
 30
0.0
 11
19.97299947021519
 21
45.29213707531744
 31
0.0
  0
LINE
  5
DB
330
2
100
AcDbEntity
  8
GAIKEI
100
AcDbLine
 10
20.04340741053181
 20
46.14213707531809
 30
0.0
 11
19.97299947021519
 21
46.14213707531809
 31
0.0
  0
LINE
  5
DC
330
2
100
AcDbEntity
  8
GAIKEI
100
AcDbLine
 10
16.69340741053184
 20
53.5921370753174
 30
0.0
 11
16.69340741053184
 21
45.79213707531744
 31
0.0
  0
LINE
  5
DD
330
2
100
AcDbEntity
  8
GAIKEI
100
AcDbLine
 10
17.4934074105318
 20
52.99213707531805
 30
0.0
 11
17.4934074105318
 21
46.39213707531746
 31
0.0
  0
LINE
  5
DE
330
2
100
AcDbEntity
  8
GAIKEI
100
AcDbLine
 10
53.28362737786415
 20
36.44213707531775
 30
0.0
 11
53.13362737786417
 21
35.59213707531779
 31
0.0
  0
LINE
  5
DF
330
2
100
AcDbEntity
  8
GAIKEI
100
AcDbLine
 10
51.43362737786424
 20
35.59213707531779
 30
0.0
 11
51.28362737786415
 21
36.44213707531775
 31
0.0
  0
LINE
  5
E0
330
2
100
AcDbEntity
  8
GAIKEI
100
AcDbLine
 10
53.13362737786417
 20
35.59213707531779
 30
0.0
 11
51.43362737786424
 21
35.59213707531779
 31
0.0
  0
LINE
  5
E1
330
2
100
AcDbEntity
  8
GAIKEI
100
AcDbLine
 10
51.43362737786424
 20
35.59213707531779
 30
0.0
 11
53.13362737786417
 21
35.59213707531779
 31
0.0
  0
LINE
  5
E2
330
2
100
AcDbEntity
  8
GAIKEI
100
AcDbLine
 10
23.99249270505987
 20
35.59213707531779
 30
0.0
 11
23.84249270505989
 21
36.44213707531775
 31
0.0
  0
LINE
  5
E3
330
2
100
AcDbEntity
  8
GAIKEI
100
AcDbLine
 10
25.84249270505989
 20
36.44213707531775
 30
0.0
 11
25.69249270505991
 21
35.59213707531779
 31
0.0
  0
LINE
  5
E4
330
2
100
AcDbEntity
  8
GAIKEI
100
AcDbLine
 10
23.99249270505987
 20
35.59213707531779
 30
0.0
 11
25.69249270505991
 21
35.59213707531779
 31
0.0
  0
LINE
  5
E5
330
2
100
AcDbEntity
  8
GAIKEI
100
AcDbLine
 10
25.69249270505991
 20
35.59213707531779
 30
0.0
 11
23.99249270505987
 21
35.59213707531779
 31
0.0
  0
LINE
  5
E6
330
2
100
AcDbEntity
  8
GAIKEI
 62
     1
100
AcDbLine
 10
23.22756701302995
 20
59.75352029319094
 30
0.0
 11
23.22756701302995
 21
59.87386414316478
 31
0.0
  0
LINE
  5
E7
330
2
100
AcDbEntity
  8
GAIKEI
 62
     1
100
AcDbLine
 10
23.22756701302995
 20
59.87386414316478
 30
0.0
 11
23.31869157432703
 21
59.87386414316478
 31
0.0
  0
LINE
  5
E8
330
2
100
AcDbEntity
  8
GAIKEI
 62
     1
100
AcDbLine
 10
23.31869157432703
 20
59.87386414316478
 30
0.0
 11
23.31869157432703
 21
59.75352029319094
 31
0.0
  0
LINE
  5
E9
330
2
100
AcDbEntity
  8
GAIKEI
 62
     1
100
AcDbLine
 10
23.36351099170411
 20
59.70746277036141
 30
0.0
 11
23.48484532603993
 21
59.70746277036141
 31
0.0
  0
LINE
  5
EA
330
2
100
AcDbEntity
  8
GAIKEI
 62
     1
100
AcDbLine
 10
23.48484532603993
 20
59.70746277036141
 30
0.0
 11
23.48484532603993
 21
59.61683345124527
 31
0.0
  0
LINE
  5
EB
330
2
100
AcDbEntity
  8
GAIKEI
 62
     1
100
AcDbLine
 10
23.48484532603993
 20
59.61683345124527
 30
0.0
 11
23.36351099170411
 21
59.61683345124527
 31
0.0
  0
LINE
  5
EC
330
2
100
AcDbEntity
  8
GAIKEI
 62
     1
100
AcDbLine
 10
23.31869157432703
 20
59.57151879168719
 30
0.0
 11
23.31869157432703
 21
59.4504320784419
 31
0.0
  0
LINE
  5
ED
330
2
100
AcDbEntity
  8
GAIKEI
 62
     1
100
AcDbLine
 10
23.31869157432703
 20
59.4504320784419
 30
0.0
 11
23.22756701302995
 21
59.4504320784419
 31
0.0
  0
LINE
  5
EE
330
2
100
AcDbEntity
  8
GAIKEI
 62
     1
100
AcDbLine
 10
23.22756701302995
 20
59.4504320784419
 30
0.0
 11
23.22756701302995
 21
59.57151879168719
 31
0.0
  0
LINE
  5
EF
330
2
100
AcDbEntity
  8
GAIKEI
 62
     1
100
AcDbLine
 10
23.18200473238141
 20
59.61683345124527
 30
0.0
 11
23.06116564022659
 21
59.61683345124527
 31
0.0
  0
LINE
  5
F0
330
2
100
AcDbEntity
  8
GAIKEI
 62
     1
100
AcDbLine
 10
23.06116564022659
 20
59.61683345124527
 30
0.0
 11
23.06116564022659
 21
59.70746277036141
 31
0.0
  0
LINE
  5
F1
330
2
100
AcDbEntity
  8
GAIKEI
 62
     1
100
AcDbLine
 10
23.06116564022659
 20
59.70746277036141
 30
0.0
 11
23.18200473238141
 21
59.70746277036141
 31
0.0
  0
ARC
  5
F2
330
2
100
AcDbEntity
  8
GAIKEI
 62
     1
100
AcDbCircle
 10
23.1821733648639
 20
59.75286089437236
 30
0.0
 40
0.0453984372047078
100
AcDbArc
 50
269.7871743533774
 51
0.8322334465143308
  0
ARC
  5
F3
330
2
100
AcDbEntity
  8
GAIKEI
 62
     1
100
AcDbCircle
 10
23.3639370275178
 20
59.75271341217876
 30
0.0
 40
0.0452526473414126
100
AcDbArc
 50
178.9783287978178
 51
269.4605748814484
  0
ARC
  5
F4
330
2
100
AcDbEntity
  8
GAIKEI
 62
     1
100
AcDbCircle
 10
23.36376591208972
 20
59.57175919325635
 30
0.0
 40
0.0450749788425272
100
AcDbArc
 50
90.32403653740674
 51
180.3055810774727
  0
ARC
  5
F5
330
2
100
AcDbEntity
  8
GAIKEI
 62
     1
100
AcDbCircle
 10
23.1823340111859
 20
59.57160157217862
 30
0.0
 40
0.0452330775918896
100
AcDbArc
 50
359.8951436496493
 51
90.41709415802531
  0
ARC
  5
F6
330
2
100
AcDbEntity
  8
GAIKEI
 62
     1
100
AcDbCircle
 10
29.75791206891489
 20
61.66102833365923
 30
0.0
 40
0.0452330775918896
100
AcDbArc
 50
359.8951436496493
 51
90.41709415802531
  0
ARC
  5
F7
330
2
100
AcDbEntity
  8
GAIKEI
 62
     1
100
AcDbCircle
 10
29.9393439698187
 20
61.66118595473699
 30
0.0
 40
0.0450749788425272
100
AcDbArc
 50
90.32403653740674
 51
180.3055810774727
  0
ARC
  5
F8
330
2
100
AcDbEntity
  8
GAIKEI
 62
     1
100
AcDbCircle
 10
29.93951508524679
 20
61.84214017365937
 30
0.0
 40
0.0452526473414126
100
AcDbArc
 50
178.9783287978178
 51
269.4605748814484
  0
ARC
  5
F9
330
2
100
AcDbEntity
  8
GAIKEI
 62
     1
100
AcDbCircle
 10
29.75775142259289
 20
61.842287655853
 30
0.0
 40
0.0453984372047078
100
AcDbArc
 50
269.7871743533774
 51
0.8322334465143308
  0
LINE
  5
FA
330
2
100
AcDbEntity
  8
GAIKEI
 62
     1
100
AcDbLine
 10
29.63674369795558
 20
61.796889531842
 30
0.0
 11
29.7575827901104
 21
61.796889531842
 31
0.0
  0
LINE
  5
FB
330
2
100
AcDbEntity
  8
GAIKEI
 62
     1
100
AcDbLine
 10
29.63674369795558
 20
61.70626021272591
 30
0.0
 11
29.63674369795558
 21
61.796889531842
 31
0.0
  0
LINE
  5
FC
330
2
100
AcDbEntity
  8
GAIKEI
 62
     1
100
AcDbLine
 10
29.7575827901104
 20
61.70626021272591
 30
0.0
 11
29.63674369795558
 21
61.70626021272591
 31
0.0
  0
LINE
  5
FD
330
2
100
AcDbEntity
  8
GAIKEI
 62
     1
100
AcDbLine
 10
29.80314507075894
 20
61.53985883992248
 30
0.0
 11
29.80314507075894
 21
61.66094555316783
 31
0.0
  0
LINE
  5
FE
330
2
100
AcDbEntity
  8
GAIKEI
 62
     1
100
AcDbLine
 10
29.89426963205602
 20
61.53985883992248
 30
0.0
 11
29.80314507075894
 21
61.53985883992248
 31
0.0
  0
LINE
  5
FF
330
2
100
AcDbEntity
  8
GAIKEI
 62
     1
100
AcDbLine
 10
29.89426963205602
 20
61.66094555316783
 30
0.0
 11
29.89426963205602
 21
61.53985883992248
 31
0.0
  0
LINE
  5
100
330
2
100
AcDbEntity
  8
GAIKEI
 62
     1
100
AcDbLine
 10
30.06042338376892
 20
61.70626021272591
 30
0.0
 11
29.9390890494331
 21
61.70626021272591
 31
0.0
  0
LINE
  5
101
330
2
100
AcDbEntity
  8
GAIKEI
 62
     1
100
AcDbLine
 10
30.06042338376892
 20
61.796889531842
 30
0.0
 11
30.06042338376892
 21
61.70626021272591
 31
0.0
  0
LINE
  5
102
330
2
100
AcDbEntity
  8
GAIKEI
 62
     1
100
AcDbLine
 10
29.9390890494331
 20
61.796889531842
 30
0.0
 11
30.06042338376892
 21
61.796889531842
 31
0.0
  0
LINE
  5
103
330
2
100
AcDbEntity
  8
GAIKEI
 62
     1
100
AcDbLine
 10
29.89426963205602
 20
61.96329090464542
 30
0.0
 11
29.89426963205602
 21
61.84294705467152
 31
0.0
  0
LINE
  5
104
330
2
100
AcDbEntity
  8
GAIKEI
 62
     1
100
AcDbLine
 10
29.80314507075894
 20
61.96329090464542
 30
0.0
 11
29.89426963205602
 21
61.96329090464542
 31
0.0
  0
LINE
  5
105
330
2
100
AcDbEntity
  8
GAIKEI
 62
     1
100
AcDbLine
 10
29.80314507075894
 20
61.84294705467152
 30
0.0
 11
29.80314507075894
 21
61.96329090464542
 31
0.0
  0
CIRCLE
  5
106
330
2
100
AcDbEntity
  8
GAIKEI
 62
     1
100
AcDbCircle
 10
29.84845973031696
 20
61.75157487228398
 30
0.0
 40
0.3533552961167127
  0
CIRCLE
  5
107
330
2
100
AcDbEntity
  8
GAIKEI
 62
     1
100
AcDbCircle
 10
29.84883116195272
 20
61.75157487228398
 30
0.0
 40
0.252202080655131
  0
CIRCLE
  5
108
330
2
100
AcDbEntity
  8
GAIKEI
 62
     1
100
AcDbCircle
 10
29.84833591977178
 20
61.75157487228398
 30
0.0
 40
0.4792706206264174
  0
CIRCLE
  5
109
330
2
100
AcDbEntity
  8
GAIKEI
 62
     1
100
AcDbCircle
 10
46.50578518250449
 20
61.75157487228398
 30
0.0
 40
0.4792706206264174
  0
CIRCLE
  5
10A
330
2
100
AcDbEntity
  8
GAIKEI
 62
     1
100
AcDbCircle
 10
46.50628042468542
 20
61.75157487228398
 30
0.0
 40
0.252202080655131
  0
CIRCLE
  5
10B
330
2
100
AcDbEntity
  8
GAIKEI
 62
     1
100
AcDbCircle
 10
46.50590899304967
 20
61.75157487228398
 30
0.0
 40
0.3533552961167127
  0
LINE
  5
10C
330
2
100
AcDbEntity
  8
GAIKEI
 62
     1
100
AcDbLine
 10
46.46059433349165
 20
61.84294705467152
 30
0.0
 11
46.46059433349165
 21
61.96329090464542
 31
0.0
  0
LINE
  5
10D
330
2
100
AcDbEntity
  8
GAIKEI
 62
     1
100
AcDbLine
 10
46.46059433349165
 20
61.96329090464542
 30
0.0
 11
46.55171889478873
 21
61.96329090464542
 31
0.0
  0
LINE
  5
10E
330
2
100
AcDbEntity
  8
GAIKEI
 62
     1
100
AcDbLine
 10
46.55171889478873
 20
61.96329090464542
 30
0.0
 11
46.55171889478873
 21
61.84294705467152
 31
0.0
  0
LINE
  5
10F
330
2
100
AcDbEntity
  8
GAIKEI
 62
     1
100
AcDbLine
 10
46.59653831216582
 20
61.796889531842
 30
0.0
 11
46.71787264650163
 21
61.796889531842
 31
0.0
  0
LINE
  5
110
330
2
100
AcDbEntity
  8
GAIKEI
 62
     1
100
AcDbLine
 10
46.71787264650163
 20
61.796889531842
 30
0.0
 11
46.71787264650163
 21
61.70626021272591
 31
0.0
  0
LINE
  5
111
330
2
100
AcDbEntity
  8
GAIKEI
 62
     1
100
AcDbLine
 10
46.71787264650163
 20
61.70626021272591
 30
0.0
 11
46.59653831216582
 21
61.70626021272591
 31
0.0
  0
LINE
  5
112
330
2
100
AcDbEntity
  8
GAIKEI
 62
     1
100
AcDbLine
 10
46.55171889478873
 20
61.66094555316783
 30
0.0
 11
46.55171889478873
 21
61.53985883992248
 31
0.0
  0
LINE
  5
113
330
2
100
AcDbEntity
  8
GAIKEI
 62
     1
100
AcDbLine
 10
46.55171889478873
 20
61.53985883992248
 30
0.0
 11
46.46059433349165
 21
61.53985883992248
 31
0.0
  0
LINE
  5
114
330
2
100
AcDbEntity
  8
GAIKEI
 62
     1
100
AcDbLine
 10
46.46059433349165
 20
61.53985883992248
 30
0.0
 11
46.46059433349165
 21
61.66094555316783
 31
0.0
  0
LINE
  5
115
330
2
100
AcDbEntity
  8
GAIKEI
 62
     1
100
AcDbLine
 10
46.41503205284311
 20
61.70626021272591
 30
0.0
 11
46.29419296068829
 21
61.70626021272591
 31
0.0
  0
LINE
  5
116
330
2
100
AcDbEntity
  8
GAIKEI
 62
     1
100
AcDbLine
 10
46.29419296068829
 20
61.70626021272591
 30
0.0
 11
46.29419296068829
 21
61.796889531842
 31
0.0
  0
LINE
  5
117
330
2
100
AcDbEntity
  8
GAIKEI
 62
     1
100
AcDbLine
 10
46.29419296068829
 20
61.796889531842
 30
0.0
 11
46.41503205284311
 21
61.796889531842
 31
0.0
  0
ARC
  5
118
330
2
100
AcDbEntity
  8
GAIKEI
 62
     1
100
AcDbCircle
 10
46.41520068532559
 20
61.842287655853
 30
0.0
 40
0.0453984372047078
100
AcDbArc
 50
269.7871743533774
 51
0.8322334465143308
  0
ARC
  5
119
330
2
100
AcDbEntity
  8
GAIKEI
 62
     1
100
AcDbCircle
 10
46.5969643479795
 20
61.84214017365937
 30
0.0
 40
0.0452526473414126
100
AcDbArc
 50
178.9783287978178
 51
269.4605748814484
  0
ARC
  5
11A
330
2
100
AcDbEntity
  8
GAIKEI
 62
     1
100
AcDbCircle
 10
46.59679323255142
 20
61.66118595473699
 30
0.0
 40
0.0450749788425272
100
AcDbArc
 50
90.32403653740674
 51
180.3055810774727
  0
ARC
  5
11B
330
2
100
AcDbEntity
  8
GAIKEI
 62
     1
100
AcDbCircle
 10
46.4153613316476
 20
61.66102833365923
 30
0.0
 40
0.0452330775918896
100
AcDbArc
 50
359.8951436496493
 51
90.41709415802531
  0
ARC
  5
11C
330
2
100
AcDbEntity
  8
GAIKEI
 62
     1
100
AcDbCircle
 10
52.98115835630262
 20
59.5495632951258
 30
0.0
 40
0.0452330775918896
100
AcDbArc
 50
359.8951436496493
 51
90.41709415802531
  0
ARC
  5
11D
330
2
100
AcDbEntity
  8
GAIKEI
 62
     1
100
AcDbCircle
 10
53.16259025720643
 20
59.54972091620357
 30
0.0
 40
0.0450749788425272
100
AcDbArc
 50
90.32403653740674
 51
180.3055810774727
  0
ARC
  5
11E
330
2
100
AcDbEntity
  8
GAIKEI
 62
     1
100
AcDbCircle
 10
53.16276137263452
 20
59.73067513512595
 30
0.0
 40
0.0452526473414126
100
AcDbArc
 50
178.9783287978178
 51
269.4605748814484
  0
ARC
  5
11F
330
2
100
AcDbEntity
  8
GAIKEI
 62
     1
100
AcDbCircle
 10
52.98099770998061
 20
59.73082261731957
 30
0.0
 40
0.0453984372047078
100
AcDbArc
 50
269.7871743533774
 51
0.8322334465143308
  0
LINE
  5
120
330
2
100
AcDbEntity
  8
GAIKEI
 62
     1
100
AcDbLine
 10
52.8599899853433
 20
59.68542449330858
 30
0.0
 11
52.98082907749813
 21
59.68542449330858
 31
0.0
  0
LINE
  5
121
330
2
100
AcDbEntity
  8
GAIKEI
 62
     1
100
AcDbLine
 10
52.8599899853433
 20
59.59479517419248
 30
0.0
 11
52.8599899853433
 21
59.68542449330858
 31
0.0
  0
LINE
  5
122
330
2
100
AcDbEntity
  8
GAIKEI
 62
     1
100
AcDbLine
 10
52.98082907749813
 20
59.59479517419248
 30
0.0
 11
52.8599899853433
 21
59.59479517419248
 31
0.0
  0
LINE
  5
123
330
2
100
AcDbEntity
  8
GAIKEI
 62
     1
100
AcDbLine
 10
53.02639135814667
 20
59.42839380138906
 30
0.0
 11
53.02639135814667
 21
59.54948051463441
 31
0.0
  0
LINE
  5
124
330
2
100
AcDbEntity
  8
GAIKEI
 62
     1
100
AcDbLine
 10
53.11751591944375
 20
59.42839380138906
 30
0.0
 11
53.02639135814667
 21
59.42839380138906
 31
0.0
  0
LINE
  5
125
330
2
100
AcDbEntity
  8
GAIKEI
 62
     1
100
AcDbLine
 10
53.11751591944375
 20
59.54948051463441
 30
0.0
 11
53.11751591944375
 21
59.42839380138906
 31
0.0
  0
LINE
  5
126
330
2
100
AcDbEntity
  8
GAIKEI
 62
     1
100
AcDbLine
 10
53.28366967115664
 20
59.59479517419248
 30
0.0
 11
53.16233533682083
 21
59.59479517419248
 31
0.0
  0
LINE
  5
127
330
2
100
AcDbEntity
  8
GAIKEI
 62
     1
100
AcDbLine
 10
53.28366967115664
 20
59.68542449330858
 30
0.0
 11
53.28366967115664
 21
59.59479517419248
 31
0.0
  0
LINE
  5
128
330
2
100
AcDbEntity
  8
GAIKEI
 62
     1
100
AcDbLine
 10
53.16233533682083
 20
59.68542449330858
 30
0.0
 11
53.28366967115664
 21
59.68542449330858
 31
0.0
  0
LINE
  5
129
330
2
100
AcDbEntity
  8
GAIKEI
 62
     1
100
AcDbLine
 10
53.11751591944375
 20
59.85182586611199
 30
0.0
 11
53.11751591944375
 21
59.7314820161381
 31
0.0
  0
LINE
  5
12A
330
2
100
AcDbEntity
  8
GAIKEI
 62
     1
100
AcDbLine
 10
53.02639135814667
 20
59.85182586611199
 30
0.0
 11
53.11751591944375
 21
59.85182586611199
 31
0.0
  0
LINE
  5
12B
330
2
100
AcDbEntity
  8
GAIKEI
 62
     1
100
AcDbLine
 10
53.02639135814667
 20
59.7314820161381
 30
0.0
 11
53.02639135814667
 21
59.85182586611199
 31
0.0
  0
CIRCLE
  5
12C
330
2
100
AcDbEntity
  8
GAIKEI
 62
     1
100
AcDbCircle
 10
53.07170601770469
 20
59.64010983375056
 30
0.0
 40
0.3533552961167127
  0
CIRCLE
  5
12D
330
2
100
AcDbEntity
  8
GAIKEI
 62
     1
100
AcDbCircle
 10
53.07207744934044
 20
59.64010983375056
 30
0.0
 40
0.252202080655131
  0
CIRCLE
  5
12E
330
2
100
AcDbEntity
  8
GAIKEI
 62
     1
100
AcDbCircle
 10
53.07158220715951
 20
59.64010983375056
 30
0.0
 40
0.4792706206264174
  0
CIRCLE
  5
12F
330
2
100
AcDbEntity
  8
GAIKEI
 62
     1
100
AcDbCircle
 10
53.07207744934044
 20
49.63968447357564
 30
0.0
 40
0.4792706206264174
  0
CIRCLE
  5
130
330
2
100
AcDbEntity
  8
GAIKEI
 62
     1
100
AcDbCircle
 10
53.07257269152137
 20
49.6396844735757
 30
0.0
 40
0.252202080655131
  0
CIRCLE
  5
131
330
2
100
AcDbEntity
  8
GAIKEI
 62
     1
100
AcDbCircle
 10
53.07220125988561
 20
49.6396844735757
 30
0.0
 40
0.3533552961167127
  0
LINE
  5
132
330
2
100
AcDbEntity
  8
GAIKEI
 62
     1
100
AcDbLine
 10
53.0268866003276
 20
49.73105665596325
 30
0.0
 11
53.0268866003276
 21
49.85140050593708
 31
0.0
  0
LINE
  5
133
330
2
100
AcDbEntity
  8
GAIKEI
 62
     1
100
AcDbLine
 10
53.0268866003276
 20
49.85140050593708
 30
0.0
 11
53.11801116162468
 21
49.85140050593708
 31
0.0
  0
LINE
  5
134
330
2
100
AcDbEntity
  8
GAIKEI
 62
     1
100
AcDbLine
 10
53.11801116162468
 20
49.85140050593708
 30
0.0
 11
53.11801116162468
 21
49.73105665596325
 31
0.0
  0
LINE
  5
135
330
2
100
AcDbEntity
  8
GAIKEI
 62
     1
100
AcDbLine
 10
53.16283057900176
 20
49.68499913313372
 30
0.0
 11
53.28416491333758
 21
49.68499913313372
 31
0.0
  0
LINE
  5
136
330
2
100
AcDbEntity
  8
GAIKEI
 62
     1
100
AcDbLine
 10
53.28416491333758
 20
49.68499913313372
 30
0.0
 11
53.28416491333758
 21
49.59436981401757
 31
0.0
  0
LINE
  5
137
330
2
100
AcDbEntity
  8
GAIKEI
 62
     1
100
AcDbLine
 10
53.28416491333758
 20
49.59436981401757
 30
0.0
 11
53.16283057900176
 21
49.59436981401757
 31
0.0
  0
LINE
  5
138
330
2
100
AcDbEntity
  8
GAIKEI
 62
     1
100
AcDbLine
 10
53.11801116162468
 20
49.5490551544595
 30
0.0
 11
53.11801116162468
 21
49.42796844121421
 31
0.0
  0
LINE
  5
139
330
2
100
AcDbEntity
  8
GAIKEI
 62
     1
100
AcDbLine
 10
53.11801116162468
 20
49.42796844121421
 30
0.0
 11
53.0268866003276
 21
49.42796844121421
 31
0.0
  0
LINE
  5
13A
330
2
100
AcDbEntity
  8
GAIKEI
 62
     1
100
AcDbLine
 10
53.0268866003276
 20
49.42796844121421
 30
0.0
 11
53.0268866003276
 21
49.5490551544595
 31
0.0
  0
LINE
  5
13B
330
2
100
AcDbEntity
  8
GAIKEI
 62
     1
100
AcDbLine
 10
52.98132431967906
 20
49.59436981401757
 30
0.0
 11
52.86048522752423
 21
49.59436981401757
 31
0.0
  0
LINE
  5
13C
330
2
100
AcDbEntity
  8
GAIKEI
 62
     1
100
AcDbLine
 10
52.86048522752423
 20
49.59436981401757
 30
0.0
 11
52.86048522752423
 21
49.68499913313372
 31
0.0
  0
LINE
  5
13D
330
2
100
AcDbEntity
  8
GAIKEI
 62
     1
100
AcDbLine
 10
52.86048522752423
 20
49.68499913313372
 30
0.0
 11
52.98132431967906
 21
49.68499913313372
 31
0.0
  0
ARC
  5
13E
330
2
100
AcDbEntity
  8
GAIKEI
 62
     1
100
AcDbCircle
 10
52.98149295216155
 20
49.73039725714466
 30
0.0
 40
0.0453984372047078
100
AcDbArc
 50
269.7871743533774
 51
0.8322334465143308
  0
ARC
  5
13F
330
2
100
AcDbEntity
  8
GAIKEI
 62
     1
100
AcDbCircle
 10
53.16325661481545
 20
49.73024977495106
 30
0.0
 40
0.0452526473414126
100
AcDbArc
 50
178.9783287978178
 51
269.4605748814484
  0
ARC
  5
140
330
2
100
AcDbEntity
  8
GAIKEI
 62
     1
100
AcDbCircle
 10
53.16308549938736
 20
49.54929555602865
 30
0.0
 40
0.0450749788425272
100
AcDbArc
 50
90.32403653740674
 51
180.3055810774727
  0
ARC
  5
141
330
2
100
AcDbEntity
  8
GAIKEI
 62
     1
100
AcDbCircle
 10
52.98165359848354
 20
49.54913793495092
 30
0.0
 40
0.0452330775918896
100
AcDbArc
 50
359.8951436496493
 51
90.41709415802531
  0
ARC
  5
142
330
2
100
AcDbEntity
  8
GAIKEI
 62
     1
100
AcDbCircle
 10
52.98115835630262
 20
39.75118048790986
 30
0.0
 40
0.0452330775918896
100
AcDbArc
 50
359.8951436496493
 51
90.41709415802531
  0
ARC
  5
143
330
2
100
AcDbEntity
  8
GAIKEI
 62
     1
100
AcDbCircle
 10
53.16259025720643
 20
39.75133810898762
 30
0.0
 40
0.0450749788425272
100
AcDbArc
 50
90.32403653740674
 51
180.3055810774727
  0
ARC
  5
144
330
2
100
AcDbEntity
  8
GAIKEI
 62
     1
100
AcDbCircle
 10
53.16276137263452
 20
39.93229232791
 30
0.0
 40
0.0452526473414126
100
AcDbArc
 50
178.9783287978178
 51
269.4605748814484
  0
ARC
  5
145
330
2
100
AcDbEntity
  8
GAIKEI
 62
     1
100
AcDbCircle
 10
52.98099770998061
 20
39.93243981010363
 30
0.0
 40
0.0453984372047078
100
AcDbArc
 50
269.7871743533774
 51
0.8322334465143308
  0
LINE
  5
146
330
2
100
AcDbEntity
  8
GAIKEI
 62
     1
100
AcDbLine
 10
52.8599899853433
 20
39.88704168609263
 30
0.0
 11
52.98082907749813
 21
39.88704168609263
 31
0.0
  0
LINE
  5
147
330
2
100
AcDbEntity
  8
GAIKEI
 62
     1
100
AcDbLine
 10
52.8599899853433
 20
39.79641236697654
 30
0.0
 11
52.8599899853433
 21
39.88704168609263
 31
0.0
  0
LINE
  5
148
330
2
100
AcDbEntity
  8
GAIKEI
 62
     1
100
AcDbLine
 10
52.98082907749813
 20
39.79641236697654
 30
0.0
 11
52.8599899853433
 21
39.79641236697654
 31
0.0
  0
LINE
  5
149
330
2
100
AcDbEntity
  8
GAIKEI
 62
     1
100
AcDbLine
 10
53.02639135814667
 20
39.63001099417311
 30
0.0
 11
53.02639135814667
 21
39.75109770741847
 31
0.0
  0
LINE
  5
14A
330
2
100
AcDbEntity
  8
GAIKEI
 62
     1
100
AcDbLine
 10
53.11751591944375
 20
39.63001099417311
 30
0.0
 11
53.02639135814667
 21
39.63001099417311
 31
0.0
  0
LINE
  5
14B
330
2
100
AcDbEntity
  8
GAIKEI
 62
     1
100
AcDbLine
 10
53.11751591944375
 20
39.75109770741847
 30
0.0
 11
53.11751591944375
 21
39.63001099417311
 31
0.0
  0
LINE
  5
14C
330
2
100
AcDbEntity
  8
GAIKEI
 62
     1
100
AcDbLine
 10
53.28366967115664
 20
39.79641236697654
 30
0.0
 11
53.16233533682083
 21
39.79641236697654
 31
0.0
  0
LINE
  5
14D
330
2
100
AcDbEntity
  8
GAIKEI
 62
     1
100
AcDbLine
 10
53.28366967115664
 20
39.88704168609263
 30
0.0
 11
53.28366967115664
 21
39.79641236697654
 31
0.0
  0
LINE
  5
14E
330
2
100
AcDbEntity
  8
GAIKEI
 62
     1
100
AcDbLine
 10
53.16233533682083
 20
39.88704168609263
 30
0.0
 11
53.28366967115664
 21
39.88704168609263
 31
0.0
  0
LINE
  5
14F
330
2
100
AcDbEntity
  8
GAIKEI
 62
     1
100
AcDbLine
 10
53.11751591944375
 20
40.05344305889605
 30
0.0
 11
53.11751591944375
 21
39.93309920892215
 31
0.0
  0
LINE
  5
150
330
2
100
AcDbEntity
  8
GAIKEI
 62
     1
100
AcDbLine
 10
53.02639135814667
 20
40.05344305889605
 30
0.0
 11
53.11751591944375
 21
40.05344305889605
 31
0.0
  0
LINE
  5
151
330
2
100
AcDbEntity
  8
GAIKEI
 62
     1
100
AcDbLine
 10
53.02639135814667
 20
39.93309920892215
 30
0.0
 11
53.02639135814667
 21
40.05344305889605
 31
0.0
  0
CIRCLE
  5
152
330
2
100
AcDbEntity
  8
GAIKEI
 62
     1
100
AcDbCircle
 10
53.07170601770469
 20
39.84172702653461
 30
0.0
 40
0.3533552961167127
  0
CIRCLE
  5
153
330
2
100
AcDbEntity
  8
GAIKEI
 62
     1
100
AcDbCircle
 10
53.07207744934044
 20
39.84172702653461
 30
0.0
 40
0.252202080655131
  0
CIRCLE
  5
154
330
2
100
AcDbEntity
  8
GAIKEI
 62
     1
100
AcDbCircle
 10
53.07158220715951
 20
39.84172702653461
 30
0.0
 40
0.4792706206264174
  0
CIRCLE
  5
155
330
2
100
AcDbEntity
  8
GAIKEI
 62
     1
100
AcDbCircle
 10
46.50578518250443
 20
36.98715109546697
 30
0.0
 40
0.4792706206264174
  0
CIRCLE
  5
156
330
2
100
AcDbEntity
  8
GAIKEI
 62
     1
100
AcDbCircle
 10
46.50628042468537
 20
36.987151095467
 30
0.0
 40
0.252202080655131
  0
CIRCLE
  5
157
330
2
100
AcDbEntity
  8
GAIKEI
 62
     1
100
AcDbCircle
 10
46.50590899304961
 20
36.987151095467
 30
0.0
 40
0.3533552961167127
  0
LINE
  5
158
330
2
100
AcDbEntity
  8
GAIKEI
 62
     1
100
AcDbLine
 10
46.4605943334916
 20
37.07852327785454
 30
0.0
 11
46.4605943334916
 21
37.1988671278284
 31
0.0
  0
LINE
  5
159
330
2
100
AcDbEntity
  8
GAIKEI
 62
     1
100
AcDbLine
 10
46.4605943334916
 20
37.1988671278284
 30
0.0
 11
46.55171889478867
 21
37.1988671278284
 31
0.0
  0
LINE
  5
15A
330
2
100
AcDbEntity
  8
GAIKEI
 62
     1
100
AcDbLine
 10
46.55171889478867
 20
37.1988671278284
 30
0.0
 11
46.55171889478867
 21
37.07852327785454
 31
0.0
  0
LINE
  5
15B
330
2
100
AcDbEntity
  8
GAIKEI
 62
     1
100
AcDbLine
 10
46.59653831216576
 20
37.03246575502501
 30
0.0
 11
46.71787264650157
 21
37.03246575502501
 31
0.0
  0
LINE
  5
15C
330
2
100
AcDbEntity
  8
GAIKEI
 62
     1
100
AcDbLine
 10
46.71787264650157
 20
37.03246575502501
 30
0.0
 11
46.71787264650157
 21
36.94183643590889
 31
0.0
  0
LINE
  5
15D
330
2
100
AcDbEntity
  8
GAIKEI
 62
     1
100
AcDbLine
 10
46.71787264650157
 20
36.94183643590889
 30
0.0
 11
46.59653831216576
 21
36.94183643590889
 31
0.0
  0
LINE
  5
15E
330
2
100
AcDbEntity
  8
GAIKEI
 62
     1
100
AcDbLine
 10
46.55171889478867
 20
36.89652177635082
 30
0.0
 11
46.55171889478867
 21
36.7754350631055
 31
0.0
  0
LINE
  5
15F
330
2
100
AcDbEntity
  8
GAIKEI
 62
     1
100
AcDbLine
 10
46.55171889478867
 20
36.7754350631055
 30
0.0
 11
46.4605943334916
 21
36.7754350631055
 31
0.0
  0
LINE
  5
160
330
2
100
AcDbEntity
  8
GAIKEI
 62
     1
100
AcDbLine
 10
46.4605943334916
 20
36.7754350631055
 30
0.0
 11
46.4605943334916
 21
36.89652177635082
 31
0.0
  0
LINE
  5
161
330
2
100
AcDbEntity
  8
GAIKEI
 62
     1
100
AcDbLine
 10
46.41503205284306
 20
36.94183643590889
 30
0.0
 11
46.29419296068824
 21
36.94183643590889
 31
0.0
  0
LINE
  5
162
330
2
100
AcDbEntity
  8
GAIKEI
 62
     1
100
AcDbLine
 10
46.29419296068824
 20
36.94183643590889
 30
0.0
 11
46.29419296068824
 21
37.03246575502501
 31
0.0
  0
LINE
  5
163
330
2
100
AcDbEntity
  8
GAIKEI
 62
     1
100
AcDbLine
 10
46.29419296068824
 20
37.03246575502501
 30
0.0
 11
46.41503205284306
 21
37.03246575502501
 31
0.0
  0
ARC
  5
164
330
2
100
AcDbEntity
  8
GAIKEI
 62
     1
100
AcDbCircle
 10
46.41520068532554
 20
37.07786387903599
 30
0.0
 40
0.0453984372047078
100
AcDbArc
 50
269.7871743533774
 51
0.8322334465143308
  0
ARC
  5
165
330
2
100
AcDbEntity
  8
GAIKEI
 62
     1
100
AcDbCircle
 10
46.59696434797945
 20
37.07771639684239
 30
0.0
 40
0.0452526473414126
100
AcDbArc
 50
178.9783287978178
 51
269.4605748814484
  0
ARC
  5
166
330
2
100
AcDbEntity
  8
GAIKEI
 62
     1
100
AcDbCircle
 10
46.59679323255136
 20
36.89676217791998
 30
0.0
 40
0.0450749788425272
100
AcDbArc
 50
90.32403653740674
 51
180.3055810774727
  0
ARC
  5
167
330
2
100
AcDbEntity
  8
GAIKEI
 62
     1
100
AcDbCircle
 10
46.41536133164755
 20
36.89660455684224
 30
0.0
 40
0.0452330775918896
100
AcDbArc
 50
359.8951436496493
 51
90.41709415802531
  0
ARC
  5
168
330
2
100
AcDbEntity
  8
GAIKEI
 62
     1
100
AcDbCircle
 10
29.93520876969944
 20
36.89660455684224
 30
0.0
 40
0.0452330775918896
100
AcDbArc
 50
359.8951436496493
 51
90.41709415802531
  0
ARC
  5
169
330
2
100
AcDbEntity
  8
GAIKEI
 62
     1
100
AcDbCircle
 10
30.11664067060326
 20
36.89676217791998
 30
0.0
 40
0.0450749788425272
100
AcDbArc
 50
90.32403653740674
 51
180.3055810774727
  0
ARC
  5
16A
330
2
100
AcDbEntity
  8
GAIKEI
 62
     1
100
AcDbCircle
 10
30.11681178603135
 20
37.07771639684239
 30
0.0
 40
0.0452526473414126
100
AcDbArc
 50
178.9783287978178
 51
269.4605748814484
  0
ARC
  5
16B
330
2
100
AcDbEntity
  8
GAIKEI
 62
     1
100
AcDbCircle
 10
29.93504812337744
 20
37.07786387903599
 30
0.0
 40
0.0453984372047078
100
AcDbArc
 50
269.7871743533774
 51
0.8322334465143308
  0
LINE
  5
16C
330
2
100
AcDbEntity
  8
GAIKEI
 62
     1
100
AcDbLine
 10
29.81404039874013
 20
37.03246575502501
 30
0.0
 11
29.93487949089495
 21
37.03246575502501
 31
0.0
  0
LINE
  5
16D
330
2
100
AcDbEntity
  8
GAIKEI
 62
     1
100
AcDbLine
 10
29.81404039874013
 20
36.94183643590889
 30
0.0
 11
29.81404039874013
 21
37.03246575502501
 31
0.0
  0
LINE
  5
16E
330
2
100
AcDbEntity
  8
GAIKEI
 62
     1
100
AcDbLine
 10
29.93487949089495
 20
36.94183643590889
 30
0.0
 11
29.81404039874013
 21
36.94183643590889
 31
0.0
  0
LINE
  5
16F
330
2
100
AcDbEntity
  8
GAIKEI
 62
     1
100
AcDbLine
 10
29.9804417715435
 20
36.7754350631055
 30
0.0
 11
29.9804417715435
 21
36.89652177635082
 31
0.0
  0
LINE
  5
170
330
2
100
AcDbEntity
  8
GAIKEI
 62
     1
100
AcDbLine
 10
30.07156633284057
 20
36.7754350631055
 30
0.0
 11
29.9804417715435
 21
36.7754350631055
 31
0.0
  0
LINE
  5
171
330
2
100
AcDbEntity
  8
GAIKEI
 62
     1
100
AcDbLine
 10
30.07156633284057
 20
36.89652177635082
 30
0.0
 11
30.07156633284057
 21
36.7754350631055
 31
0.0
  0
LINE
  5
172
330
2
100
AcDbEntity
  8
GAIKEI
 62
     1
100
AcDbLine
 10
30.23772008455347
 20
36.94183643590889
 30
0.0
 11
30.11638575021766
 21
36.94183643590889
 31
0.0
  0
LINE
  5
173
330
2
100
AcDbEntity
  8
GAIKEI
 62
     1
100
AcDbLine
 10
30.23772008455347
 20
37.03246575502501
 30
0.0
 11
30.23772008455347
 21
36.94183643590889
 31
0.0
  0
LINE
  5
174
330
2
100
AcDbEntity
  8
GAIKEI
 62
     1
100
AcDbLine
 10
30.11638575021766
 20
37.03246575502501
 30
0.0
 11
30.23772008455347
 21
37.03246575502501
 31
0.0
  0
LINE
  5
175
330
2
100
AcDbEntity
  8
GAIKEI
 62
     1
100
AcDbLine
 10
30.07156633284057
 20
37.1988671278284
 30
0.0
 11
30.07156633284057
 21
37.07852327785454
 31
0.0
  0
LINE
  5
176
330
2
100
AcDbEntity
  8
GAIKEI
 62
     1
100
AcDbLine
 10
29.9804417715435
 20
37.1988671278284
 30
0.0
 11
30.07156633284057
 21
37.1988671278284
 31
0.0
  0
LINE
  5
177
330
2
100
AcDbEntity
  8
GAIKEI
 62
     1
100
AcDbLine
 10
29.9804417715435
 20
37.07852327785454
 30
0.0
 11
29.9804417715435
 21
37.1988671278284
 31
0.0
  0
CIRCLE
  5
178
330
2
100
AcDbEntity
  8
GAIKEI
 62
     1
100
AcDbCircle
 10
30.02575643110151
 20
36.987151095467
 30
0.0
 40
0.3533552961167127
  0
CIRCLE
  5
179
330
2
100
AcDbEntity
  8
GAIKEI
 62
     1
100
AcDbCircle
 10
30.02612786273727
 20
36.987151095467
 30
0.0
 40
0.252202080655131
  0
CIRCLE
  5
17A
330
2
100
AcDbEntity
  8
GAIKEI
 62
     1
100
AcDbCircle
 10
30.02563262055633
 20
36.98715109546697
 30
0.0
 40
0.4792706206264174
  0
CIRCLE
  5
17B
330
2
100
AcDbEntity
  8
GAIKEI
 62
     1
100
AcDbCircle
 10
23.27325310422378
 20
39.72212603983212
 30
0.0
 40
0.4792706206264174
  0
CIRCLE
  5
17C
330
2
100
AcDbEntity
  8
GAIKEI
 62
     1
100
AcDbCircle
 10
23.27374834640471
 20
39.72212603983214
 30
0.0
 40
0.252202080655131
  0
CIRCLE
  5
17D
330
2
100
AcDbEntity
  8
GAIKEI
 62
     1
100
AcDbCircle
 10
23.27337691476896
 20
39.72212603983214
 30
0.0
 40
0.3533552961167127
  0
LINE
  5
17E
330
2
100
AcDbEntity
  8
GAIKEI
 62
     1
100
AcDbLine
 10
23.22806225521094
 20
39.81349822221969
 30
0.0
 11
23.22806225521094
 21
39.93384207219355
 31
0.0
  0
LINE
  5
17F
330
2
100
AcDbEntity
  8
GAIKEI
 62
     1
100
AcDbLine
 10
23.22806225521094
 20
39.93384207219355
 30
0.0
 11
23.31918681650802
 21
39.93384207219355
 31
0.0
  0
LINE
  5
180
330
2
100
AcDbEntity
  8
GAIKEI
 62
     1
100
AcDbLine
 10
23.31918681650802
 20
39.93384207219355
 30
0.0
 11
23.31918681650802
 21
39.81349822221969
 31
0.0
  0
LINE
  5
181
330
2
100
AcDbEntity
  8
GAIKEI
 62
     1
100
AcDbLine
 10
23.3640062338851
 20
39.76744069939016
 30
0.0
 11
23.48534056822092
 21
39.76744069939016
 31
0.0
  0
LINE
  5
182
330
2
100
AcDbEntity
  8
GAIKEI
 62
     1
100
AcDbLine
 10
23.48534056822092
 20
39.76744069939016
 30
0.0
 11
23.48534056822092
 21
39.67681138027404
 31
0.0
  0
LINE
  5
183
330
2
100
AcDbEntity
  8
GAIKEI
 62
     1
100
AcDbLine
 10
23.48534056822092
 20
39.67681138027404
 30
0.0
 11
23.3640062338851
 21
39.67681138027404
 31
0.0
  0
LINE
  5
184
330
2
100
AcDbEntity
  8
GAIKEI
 62
     1
100
AcDbLine
 10
23.31918681650802
 20
39.63149672071597
 30
0.0
 11
23.31918681650802
 21
39.51041000747065
 31
0.0
  0
LINE
  5
185
330
2
100
AcDbEntity
  8
GAIKEI
 62
     1
100
AcDbLine
 10
23.31918681650802
 20
39.51041000747065
 30
0.0
 11
23.22806225521094
 21
39.51041000747065
 31
0.0
  0
LINE
  5
186
330
2
100
AcDbEntity
  8
GAIKEI
 62
     1
100
AcDbLine
 10
23.22806225521094
 20
39.51041000747065
 30
0.0
 11
23.22806225521094
 21
39.63149672071597
 31
0.0
  0
LINE
  5
187
330
2
100
AcDbEntity
  8
GAIKEI
 62
     1
100
AcDbLine
 10
23.1824999745624
 20
39.67681138027404
 30
0.0
 11
23.06166088240757
 21
39.67681138027404
 31
0.0
  0
LINE
  5
188
330
2
100
AcDbEntity
  8
GAIKEI
 62
     1
100
AcDbLine
 10
23.06166088240757
 20
39.67681138027404
 30
0.0
 11
23.06166088240757
 21
39.76744069939016
 31
0.0
  0
LINE
  5
189
330
2
100
AcDbEntity
  8
GAIKEI
 62
     1
100
AcDbLine
 10
23.06166088240757
 20
39.76744069939016
 30
0.0
 11
23.1824999745624
 21
39.76744069939016
 31
0.0
  0
ARC
  5
18A
330
2
100
AcDbEntity
  8
GAIKEI
 62
     1
100
AcDbCircle
 10
23.18266860704488
 20
39.81283882340113
 30
0.0
 40
0.0453984372047078
100
AcDbArc
 50
269.7871743533774
 51
0.8322334465143308
  0
ARC
  5
18B
330
2
100
AcDbEntity
  8
GAIKEI
 62
     1
100
AcDbCircle
 10
23.36443226969879
 20
39.81269134120754
 30
0.0
 40
0.0452526473414126
100
AcDbArc
 50
178.9783287978178
 51
269.4605748814484
  0
ARC
  5
18C
330
2
100
AcDbEntity
  8
GAIKEI
 62
     1
100
AcDbCircle
 10
23.3642611542707
 20
39.63173712228513
 30
0.0
 40
0.0450749788425272
100
AcDbArc
 50
90.32403653740674
 51
180.3055810774727
  0
ARC
  5
18D
330
2
100
AcDbEntity
  8
GAIKEI
 62
     1
100
AcDbCircle
 10
23.18282925336689
 20
39.6315795012074
 30
0.0
 40
0.0452330775918896
100
AcDbArc
 50
359.8951436496493
 51
90.41709415802531
  0
ARC
  5
18E
330
2
100
AcDbEntity
  8
GAIKEI
 62
     1
100
AcDbCircle
 10
23.18245782173107
 20
49.47980402961616
 30
0.0
 40
0.0452330775918896
100
AcDbArc
 50
359.8951436496493
 51
90.41709415802531
  0
ARC
  5
18F
330
2
100
AcDbEntity
  8
GAIKEI
 62
     1
100
AcDbCircle
 10
23.36388972263489
 20
49.47996165069389
 30
0.0
 40
0.0450749788425272
100
AcDbArc
 50
90.32403653740674
 51
180.3055810774727
  0
ARC
  5
190
330
2
100
AcDbEntity
  8
GAIKEI
 62
     1
100
AcDbCircle
 10
23.36406083806298
 20
49.6609158696163
 30
0.0
 40
0.0452526473414126
100
AcDbArc
 50
178.9783287978178
 51
269.4605748814484
  0
ARC
  5
191
330
2
100
AcDbEntity
  8
GAIKEI
 62
     1
100
AcDbCircle
 10
23.18229717540907
 20
49.6610633518099
 30
0.0
 40
0.0453984372047078
100
AcDbArc
 50
269.7871743533774
 51
0.8322334465143308
  0
LINE
  5
192
330
2
100
AcDbEntity
  8
GAIKEI
 62
     1
100
AcDbLine
 10
23.06128945077176
 20
49.61566522779896
 30
0.0
 11
23.18212854292659
 21
49.61566522779896
 31
0.0
  0
LINE
  5
193
330
2
100
AcDbEntity
  8
GAIKEI
 62
     1
100
AcDbLine
 10
23.06128945077176
 20
49.52503590868281
 30
0.0
 11
23.06128945077176
 21
49.61566522779896
 31
0.0
  0
LINE
  5
194
330
2
100
AcDbEntity
  8
GAIKEI
 62
     1
100
AcDbLine
 10
23.18212854292659
 20
49.52503590868281
 30
0.0
 11
23.06128945077176
 21
49.52503590868281
 31
0.0
  0
LINE
  5
195
330
2
100
AcDbEntity
  8
GAIKEI
 62
     1
100
AcDbLine
 10
23.22769082357513
 20
49.35863453587945
 30
0.0
 11
23.22769082357513
 21
49.47972124912474
 31
0.0
  0
LINE
  5
196
330
2
100
AcDbEntity
  8
GAIKEI
 62
     1
100
AcDbLine
 10
23.31881538487221
 20
49.35863453587945
 30
0.0
 11
23.22769082357513
 21
49.35863453587945
 31
0.0
  0
LINE
  5
197
330
2
100
AcDbEntity
  8
GAIKEI
 62
     1
100
AcDbLine
 10
23.31881538487221
 20
49.47972124912474
 30
0.0
 11
23.31881538487221
 21
49.35863453587945
 31
0.0
  0
LINE
  5
198
330
2
100
AcDbEntity
  8
GAIKEI
 62
     1
100
AcDbLine
 10
23.4849691365851
 20
49.52503590868281
 30
0.0
 11
23.36363480224929
 21
49.52503590868281
 31
0.0
  0
LINE
  5
199
330
2
100
AcDbEntity
  8
GAIKEI
 62
     1
100
AcDbLine
 10
23.4849691365851
 20
49.61566522779896
 30
0.0
 11
23.4849691365851
 21
49.52503590868281
 31
0.0
  0
LINE
  5
19A
330
2
100
AcDbEntity
  8
GAIKEI
 62
     1
100
AcDbLine
 10
23.36363480224929
 20
49.61566522779896
 30
0.0
 11
23.4849691365851
 21
49.61566522779896
 31
0.0
  0
LINE
  5
19B
330
2
100
AcDbEntity
  8
GAIKEI
 62
     1
100
AcDbLine
 10
23.31881538487221
 20
49.78206660060232
 30
0.0
 11
23.31881538487221
 21
49.66172275062849
 31
0.0
  0
LINE
  5
19C
330
2
100
AcDbEntity
  8
GAIKEI
 62
     1
100
AcDbLine
 10
23.22769082357513
 20
49.78206660060232
 30
0.0
 11
23.31881538487221
 21
49.78206660060232
 31
0.0
  0
LINE
  5
19D
330
2
100
AcDbEntity
  8
GAIKEI
 62
     1
100
AcDbLine
 10
23.22769082357513
 20
49.66172275062849
 30
0.0
 11
23.22769082357513
 21
49.78206660060232
 31
0.0
  0
CIRCLE
  5
19E
330
2
100
AcDbEntity
  8
GAIKEI
 62
     1
100
AcDbCircle
 10
23.27300548313314
 20
49.57035056824094
 30
0.0
 40
0.3533552961167127
  0
CIRCLE
  5
19F
330
2
100
AcDbEntity
  8
GAIKEI
 62
     1
100
AcDbCircle
 10
23.2733769147689
 20
49.57035056824094
 30
0.0
 40
0.252202080655131
  0
CIRCLE
  5
1A0
330
2
100
AcDbEntity
  8
GAIKEI
 62
     1
100
AcDbCircle
 10
23.27288167258797
 20
49.57035056824088
 30
0.0
 40
0.4792706206264174
  0
LINE
  5
1A1
330
2
100
AcDbEntity
  8
GAIKEI
 62
     1
100
AcDbLine
 10
55.08362737786467
 20
61.74414623956955
 30
0.0
 11
57.14556819830187
 21
61.67406947096333
 31
0.0
  0
LINE
  5
1A2
330
2
100
AcDbEntity
  8
GAIKEI
 62
     1
100
AcDbLine
 10
57.24337852904193
 20
61.57279244495652
 30
0.0
 11
57.24337852904193
 21
59.95161716557595
 31
0.0
  0
LINE
  5
1A3
330
2
100
AcDbEntity
  8
GAIKEI
 62
     1
100
AcDbLine
 10
57.14556819830187
 20
59.85058776065961
 30
0.0
 11
55.08362737786467
 21
59.78026337096287
 31
0.0
  0
LINE
  5
1A4
330
2
100
AcDbEntity
  8
GAIKEI
 62
     1
100
AcDbLine
 10
56.11298825099516
 20
59.91298827546086
 30
0.0
 11
56.11298825099516
 21
61.61142133507161
 31
0.0
  0
LINE
  5
1A5
330
2
100
AcDbEntity
  8
GAIKEI
 62
     1
100
AcDbLine
 10
56.30514221720858
 20
61.13128404062848
 30
0.0
 11
56.30514221720858
 21
61.70229827527816
 31
0.0
  0
LINE
  5
1A6
330
2
100
AcDbEntity
  8
GAIKEI
 62
     1
100
AcDbLine
 10
56.70851697360252
 20
61.13376025153332
 30
0.0
 11
56.70851697360252
 21
61.68867911530174
 31
0.0
  0
LINE
  5
1A7
330
2
100
AcDbEntity
  8
GAIKEI
 62
     1
100
AcDbLine
 10
56.91032816234468
 20
61.12162681809974
 30
0.0
 11
56.91032816234468
 21
61.68174572476829
 31
0.0
  0
ARC
  5
1A8
330
2
100
AcDbEntity
  8
GAIKEI
 62
     1
100
AcDbCircle
 10
56.01210509594404
 20
59.91277912455462
 30
0.0
 40
0.1008833718566655
100
AcDbArc
 50
272.0268731405882
 51
0.1187854110284281
  0
ARC
  5
1A9
330
2
100
AcDbEntity
  8
GAIKEI
 62
     1
100
AcDbCircle
 10
56.01248944486491
 20
61.61175420264226
 30
0.0
 40
0.1004993573831423
100
AcDbArc
 50
359.810228221331
 51
88.18462417113606
  0
ARC
  5
1AA
330
2
100
AcDbEntity
  8
GAIKEI
 62
     1
100
AcDbCircle
 10
57.14185498785202
 20
61.57261370013879
 30
0.0
 40
0.1015236985410308
100
AcDbArc
 50
0.100876239782508
 51
87.90394999039827
  0
ARC
  5
1AB
330
2
100
AcDbEntity
  8
GAIKEI
 62
     1
100
AcDbCircle
 10
57.14224014492623
 20
59.95167138812888
 30
0.0
 40
0.1011383986506614
100
AcDbArc
 50
271.885711497856
 51
359.9692824522695
  0
LINE
  5
1AC
330
2
100
AcDbEntity
  8
GAIKEI
 62
     1
100
AcDbLine
 10
57.04156734029976
 20
61.10355047849458
 30
0.0
 11
57.24337852904193
 21
61.10355047849458
 31
0.0
  0
ARC
  5
1AD
330
2
100
AcDbEntity
  8
GAIKEI
 62
     1
100
AcDbCircle
 10
56.59248123663587
 20
57.92072702512029
 30
0.0
 40
3.214349617551518
100
AcDbArc
 50
81.96876670038614
 51
91.29512382599585
  0
LINE
  5
1AE
330
2
100
AcDbEntity
  8
GAIKEI
 62
     1
100
AcDbLine
 10
56.51685824957002
 20
61.13524597807617
 30
0.0
 11
56.51685824957002
 21
61.69536488474472
 31
0.0
  0
ARC
  5
1AF
330
2
100
AcDbEntity
  8
GAIKEI
 62
     1
100
AcDbCircle
 10
56.82323031541563
 20
60.76213009256173
 30
0.0
 40
0.2183370304044753
100
AcDbArc
 50
301.8726153820601
 51
58.13154691384174
  0
ARC
  5
1B0
330
2
100
AcDbEntity
  8
GAIKEI
 62
     1
100
AcDbCircle
 10
56.04692946805943
 20
58.97238907645555
 30
0.0
 40
2.16706970729222
100
AcDbArc
 50
65.70591412608867
 51
82.54314167893877
  0
ARC
  5
1B1
330
2
100
AcDbEntity
  8
GAIKEI
 62
     1
100
AcDbCircle
 10
56.04043001013872
 20
62.57967610428551
 30
0.0
 40
2.195091260017512
100
AcDbArc
 50
277.5322271556307
 51
294.1505282283001
  0
LINE
  5
1B2
330
2
100
AcDbEntity
  8
GAIKEI
 62
     1
100
AcDbLine
 10
56.30514221720858
 20
61.13128404062848
 30
0.0
 11
56.32817097862335
 21
61.12113157591875
 31
0.0
  0
LINE
  5
1B3
330
2
100
AcDbEntity
  8
GAIKEI
 62
     1
100
AcDbLine
 10
55.08362737786467
 20
60.88465343450917
 30
0.0
 11
55.50755468476854
 21
60.88465343450917
 31
0.0
  0
LINE
  5
1B4
330
2
100
AcDbEntity
  8
GAIKEI
 62
     1
100
AcDbLine
 10
55.08362737786467
 20
60.08706590206912
 30
0.0
 11
55.50755468476854
 21
60.08706590206912
 31
0.0
  0
CIRCLE
  5
1B5
330
2
100
AcDbEntity
  8
GAIKEI
 62
     1
100
AcDbCircle
 10
55.50767849531377
 20
60.48598347883444
 30
0.0
 40
0.2777070529747067
  0
ARC
  5
1B6
330
2
100
AcDbEntity
  8
GAIKEI
 62
     1
100
AcDbCircle
 10
55.50743085663526
 20
60.48585966828915
 30
0.0
 40
0.3987937854447412
100
AcDbArc
 50
270.0177907224008
 51
89.98220927759096
  0
LINE
  5
1B7
330
2
100
AcDbEntity
  8
GAIKEI
 62
     1
100
AcDbLine
 10
55.4723924899202
 20
60.55655548962159
 30
0.0
 11
55.4723924899202
 21
60.61722265678946
 31
0.0
  0
LINE
  5
1B8
330
2
100
AcDbEntity
  8
GAIKEI
 62
     1
100
AcDbLine
 10
55.4723924899202
 20
60.61722265678946
 30
0.0
 11
55.54296450070734
 21
60.61722265678946
 31
0.0
  0
LINE
  5
1B9
330
2
100
AcDbEntity
  8
GAIKEI
 62
     1
100
AcDbLine
 10
55.54296450070734
 20
60.61722265678946
 30
0.0
 11
55.54296450070734
 21
60.55655548962159
 31
0.0
  0
LINE
  5
1BA
330
2
100
AcDbEntity
  8
GAIKEI
 62
     1
100
AcDbLine
 10
55.57812669555573
 20
60.52139329477324
 30
0.0
 11
55.63879386272361
 21
60.52139329477324
 31
0.0
  0
LINE
  5
1BB
330
2
100
AcDbEntity
  8
GAIKEI
 62
     1
100
AcDbLine
 10
55.63879386272361
 20
60.52139329477324
 30
0.0
 11
55.63879386272361
 21
60.45032604180511
 31
0.0
  0
LINE
  5
1BC
330
2
100
AcDbEntity
  8
GAIKEI
 62
     1
100
AcDbLine
 10
55.63879386272361
 20
60.45032604180511
 30
0.0
 11
55.57812669555573
 21
60.45032604180511
 31
0.0
  0
LINE
  5
1BD
330
2
100
AcDbEntity
  8
GAIKEI
 62
     1
100
AcDbLine
 10
55.54296450070734
 20
60.41516384695677
 30
0.0
 11
55.54296450070734
 21
60.35474430087936
 31
0.0
  0
LINE
  5
1BE
330
2
100
AcDbEntity
  8
GAIKEI
 62
     1
100
AcDbLine
 10
55.54296450070734
 20
60.35474430087936
 30
0.0
 11
55.4723924899202
 21
60.35474430087936
 31
0.0
  0
LINE
  5
1BF
330
2
100
AcDbEntity
  8
GAIKEI
 62
     1
100
AcDbLine
 10
55.4723924899202
 20
60.35474430087936
 30
0.0
 11
55.4723924899202
 21
60.41516384695677
 31
0.0
  0
LINE
  5
1C0
330
2
100
AcDbEntity
  8
GAIKEI
 62
     1
100
AcDbLine
 10
55.43673505289087
 20
60.45032604180511
 30
0.0
 11
55.37656312790398
 21
60.45032604180511
 31
0.0
  0
LINE
  5
1C1
330
2
100
AcDbEntity
  8
GAIKEI
 62
     1
100
AcDbLine
 10
55.37656312790398
 20
60.45032604180511
 30
0.0
 11
55.37656312790398
 21
60.52139329477324
 31
0.0
  0
LINE
  5
1C2
330
2
100
AcDbEntity
  8
GAIKEI
 62
     1
100
AcDbLine
 10
55.37656312790398
 20
60.52139329477324
 30
0.0
 11
55.43673505289087
 21
60.52139329477324
 31
0.0
  0
ARC
  5
1C3
330
2
100
AcDbEntity
  8
GAIKEI
 62
     1
100
AcDbCircle
 10
55.43698840712261
 20
60.55679729682243
 30
0.0
 40
0.035404908550466
100
AcDbArc
 50
269.5899932329766
 51
359.6086802552525
  0
ARC
  5
1C4
330
2
100
AcDbEntity
  8
GAIKEI
 62
     1
100
AcDbCircle
 10
55.43698841321816
 20
60.41492204593737
 30
0.0
 40
0.0354049024128063
100
AcDbArc
 50
0.3913098089274758
 51
90.41001670278289
  0
ARC
  5
1C5
330
2
100
AcDbEntity
  8
GAIKEI
 62
     1
100
AcDbCircle
 10
55.57810251784946
 20
60.41518802466288
 30
0.0
 40
0.0351380254601931
100
AcDbArc
 50
89.96057602499575
 51
180.0394239747262
  0
ARC
  5
1C6
330
2
100
AcDbEntity
  8
GAIKEI
 62
     1
100
AcDbCircle
 10
55.57810251710122
 20
60.55653131116702
 30
0.0
 40
0.0351380247123788
100
AcDbArc
 50
179.9605748040292
 51
270.0394251959013
  0
LINE
  5
1C7
330
2
100
AcDbEntity
  8
GAIKEI
 62
     1
100
AcDbLine
 10
56.51685824957002
 20
60.3891636324563
 30
0.0
 11
56.51685824957002
 21
59.82904472578775
 31
0.0
  0
ARC
  5
1C8
330
2
100
AcDbEntity
  8
GAIKEI
 62
     1
100
AcDbCircle
 10
56.59248123663587
 20
63.60368258541218
 30
0.0
 40
3.214349617551518
100
AcDbArc
 50
268.7048761740041
 51
278.0312332996138
  0
LINE
  5
1C9
330
2
100
AcDbEntity
  8
GAIKEI
 62
     1
100
AcDbLine
 10
56.91032816234468
 20
60.40278279243273
 30
0.0
 11
56.91032816234468
 21
59.84266388576418
 31
0.0
  0
LINE
  5
1CA
330
2
100
AcDbEntity
  8
GAIKEI
 62
     1
100
AcDbLine
 10
56.70851697360252
 20
60.39064935899915
 30
0.0
 11
56.70851697360252
 21
59.83573049523073
 31
0.0
  0
LINE
  5
1CB
330
2
100
AcDbEntity
  8
GAIKEI
 62
     1
100
AcDbLine
 10
57.04156734029976
 20
60.42085913203789
 30
0.0
 11
57.24337852904193
 21
60.42085913203789
 31
0.0
  0
LINE
  5
1CC
330
2
100
AcDbEntity
  8
GAIKEI
 62
     1
100
AcDbLine
 10
56.30514221720858
 20
60.39312556990399
 30
0.0
 11
56.32817097862335
 21
60.40327803461372
 31
0.0
  0
LINE
  5
1CD
330
2
100
AcDbEntity
  8
GAIKEI
 62
     1
100
AcDbLine
 10
56.30514221720858
 20
60.39312556990399
 30
0.0
 11
56.30514221720858
 21
59.82211133525431
 31
0.0
  0
LINE
  5
1CE
330
2
100
AcDbEntity
  8
GAIKEI
 62
     1
100
AcDbLine
 10
56.30514221720853
 20
58.27522238301799
 30
0.0
 11
56.30514221720853
 21
57.70420814836831
 31
0.0
  0
LINE
  5
1CF
330
2
100
AcDbEntity
  8
GAIKEI
 62
     1
100
AcDbLine
 10
56.30514221720853
 20
58.27522238301799
 30
0.0
 11
56.32817097862329
 21
58.28537484772772
 31
0.0
  0
LINE
  5
1D0
330
2
100
AcDbEntity
  8
GAIKEI
 62
     1
100
AcDbLine
 10
57.04156734029971
 20
58.30295594515189
 30
0.0
 11
57.24337852904188
 21
58.30295594515189
 31
0.0
  0
LINE
  5
1D1
330
2
100
AcDbEntity
  8
GAIKEI
 62
     1
100
AcDbLine
 10
56.70851697360245
 20
58.27274617211319
 30
0.0
 11
56.70851697360245
 21
57.71782730834477
 31
0.0
  0
LINE
  5
1D2
330
2
100
AcDbEntity
  8
GAIKEI
 62
     1
100
AcDbLine
 10
56.91032816234462
 20
58.28487960554676
 30
0.0
 11
56.91032816234462
 21
57.72476069887821
 31
0.0
  0
ARC
  5
1D3
330
2
100
AcDbEntity
  8
GAIKEI
 62
     1
100
AcDbCircle
 10
56.59248123663582
 20
61.48577939852621
 30
0.0
 40
3.214349617551518
100
AcDbArc
 50
268.7048761740041
 51
278.0312332996138
  0
LINE
  5
1D4
330
2
100
AcDbEntity
  8
GAIKEI
 62
     1
100
AcDbLine
 10
56.51685824956996
 20
58.2712604455703
 30
0.0
 11
56.51685824956996
 21
57.71114153890176
 31
0.0
  0
ARC
  5
1D5
330
2
100
AcDbEntity
  8
GAIKEI
 62
     1
100
AcDbCircle
 10
55.57810251710117
 20
58.43862812428103
 30
0.0
 40
0.0351380247123788
100
AcDbArc
 50
179.9605748040292
 51
270.0394251959013
  0
ARC
  5
1D6
330
2
100
AcDbEntity
  8
GAIKEI
 62
     1
100
AcDbCircle
 10
55.5781025178494
 20
58.29728483777691
 30
0.0
 40
0.0351380254601931
100
AcDbArc
 50
89.96057602499575
 51
180.0394239747262
  0
ARC
  5
1D7
330
2
100
AcDbEntity
  8
GAIKEI
 62
     1
100
AcDbCircle
 10
55.4369884132181
 20
58.29701885905137
 30
0.0
 40
0.0354049024128063
100
AcDbArc
 50
0.3913098089274758
 51
90.41001670278289
  0
ARC
  5
1D8
330
2
100
AcDbEntity
  8
GAIKEI
 62
     1
100
AcDbCircle
 10
55.43698840712256
 20
58.43889410993646
 30
0.0
 40
0.035404908550466
100
AcDbArc
 50
269.5899932329766
 51
359.6086802552525
  0
LINE
  5
1D9
330
2
100
AcDbEntity
  8
GAIKEI
 62
     1
100
AcDbLine
 10
55.37656312790392
 20
58.40349010788725
 30
0.0
 11
55.43673505289081
 21
58.40349010788725
 31
0.0
  0
LINE
  5
1DA
330
2
100
AcDbEntity
  8
GAIKEI
 62
     1
100
AcDbLine
 10
55.37656312790392
 20
58.33242285491914
 30
0.0
 11
55.37656312790392
 21
58.40349010788725
 31
0.0
  0
LINE
  5
1DB
330
2
100
AcDbEntity
  8
GAIKEI
 62
     1
100
AcDbLine
 10
55.43673505289081
 20
58.33242285491914
 30
0.0
 11
55.37656312790392
 21
58.33242285491914
 31
0.0
  0
LINE
  5
1DC
330
2
100
AcDbEntity
  8
GAIKEI
 62
     1
100
AcDbLine
 10
55.47239248992013
 20
58.23684111399339
 30
0.0
 11
55.47239248992013
 21
58.2972606600708
 31
0.0
  0
LINE
  5
1DD
330
2
100
AcDbEntity
  8
GAIKEI
 62
     1
100
AcDbLine
 10
55.54296450070729
 20
58.23684111399339
 30
0.0
 11
55.47239248992013
 21
58.23684111399339
 31
0.0
  0
LINE
  5
1DE
330
2
100
AcDbEntity
  8
GAIKEI
 62
     1
100
AcDbLine
 10
55.54296450070729
 20
58.2972606600708
 30
0.0
 11
55.54296450070729
 21
58.23684111399339
 31
0.0
  0
LINE
  5
1DF
330
2
100
AcDbEntity
  8
GAIKEI
 62
     1
100
AcDbLine
 10
55.63879386272356
 20
58.33242285491914
 30
0.0
 11
55.57812669555568
 21
58.33242285491914
 31
0.0
  0
LINE
  5
1E0
330
2
100
AcDbEntity
  8
GAIKEI
 62
     1
100
AcDbLine
 10
55.63879386272356
 20
58.40349010788725
 30
0.0
 11
55.63879386272356
 21
58.33242285491914
 31
0.0
  0
LINE
  5
1E1
330
2
100
AcDbEntity
  8
GAIKEI
 62
     1
100
AcDbLine
 10
55.57812669555568
 20
58.40349010788725
 30
0.0
 11
55.63879386272356
 21
58.40349010788725
 31
0.0
  0
LINE
  5
1E2
330
2
100
AcDbEntity
  8
GAIKEI
 62
     1
100
AcDbLine
 10
55.54296450070729
 20
58.49931946990349
 30
0.0
 11
55.54296450070729
 21
58.43865230273559
 31
0.0
  0
LINE
  5
1E3
330
2
100
AcDbEntity
  8
GAIKEI
 62
     1
100
AcDbLine
 10
55.47239248992013
 20
58.49931946990349
 30
0.0
 11
55.54296450070729
 21
58.49931946990349
 31
0.0
  0
LINE
  5
1E4
330
2
100
AcDbEntity
  8
GAIKEI
 62
     1
100
AcDbLine
 10
55.47239248992013
 20
58.43865230273559
 30
0.0
 11
55.47239248992013
 21
58.49931946990349
 31
0.0
  0
ARC
  5
1E5
330
2
100
AcDbEntity
  8
GAIKEI
 62
     1
100
AcDbCircle
 10
55.50743085663521
 20
58.36795648140316
 30
0.0
 40
0.3987937854447412
100
AcDbArc
 50
270.0177907224008
 51
89.98220927759096
  0
CIRCLE
  5
1E6
330
2
100
AcDbEntity
  8
GAIKEI
 62
     1
100
AcDbCircle
 10
55.50767849531371
 20
58.36808029194845
 30
0.0
 40
0.2777070529747067
  0
LINE
  5
1E7
330
2
100
AcDbEntity
  8
GAIKEI
 62
     1
100
AcDbLine
 10
55.08362737786462
 20
57.96916271518316
 30
0.0
 11
55.50755468476848
 21
57.96916271518316
 31
0.0
  0
LINE
  5
1E8
330
2
100
AcDbEntity
  8
GAIKEI
 62
     1
100
AcDbLine
 10
55.08362737786462
 20
58.7667502476232
 30
0.0
 11
55.50755468476848
 21
58.7667502476232
 31
0.0
  0
LINE
  5
1E9
330
2
100
AcDbEntity
  8
GAIKEI
 62
     1
100
AcDbLine
 10
56.30514221720853
 20
59.01338085374252
 30
0.0
 11
56.32817097862329
 21
59.00322838903275
 31
0.0
  0
ARC
  5
1EA
330
2
100
AcDbEntity
  8
GAIKEI
 62
     1
100
AcDbCircle
 10
56.04043001013867
 20
60.46177291739951
 30
0.0
 40
2.195091260017512
100
AcDbArc
 50
277.5322271556307
 51
294.1505282283001
  0
ARC
  5
1EB
330
2
100
AcDbEntity
  8
GAIKEI
 62
     1
100
AcDbCircle
 10
56.04692946805937
 20
56.85448588956956
 30
0.0
 40
2.16706970729222
100
AcDbArc
 50
65.70591412608867
 51
82.54314167893877
  0
ARC
  5
1EC
330
2
100
AcDbEntity
  8
GAIKEI
 62
     1
100
AcDbCircle
 10
56.82323031541557
 20
58.64422690567576
 30
0.0
 40
0.2183370304044753
100
AcDbArc
 50
301.8726153820601
 51
58.13154691384174
  0
LINE
  5
1ED
330
2
100
AcDbEntity
  8
GAIKEI
 62
     1
100
AcDbLine
 10
56.51685824956996
 20
59.0173427911902
 30
0.0
 11
56.51685824956996
 21
59.57746169785875
 31
0.0
  0
ARC
  5
1EE
330
2
100
AcDbEntity
  8
GAIKEI
 62
     1
100
AcDbCircle
 10
56.59248123663582
 20
55.8028238382343
 30
0.0
 40
3.214349617551518
100
AcDbArc
 50
81.96876670038614
 51
91.29512382599585
  0
LINE
  5
1EF
330
2
100
AcDbEntity
  8
GAIKEI
 62
     1
100
AcDbLine
 10
57.04156734029971
 20
58.98564729160861
 30
0.0
 11
57.24337852904188
 21
58.98564729160861
 31
0.0
  0
ARC
  5
1F0
330
2
100
AcDbEntity
  8
GAIKEI
 62
     1
100
AcDbCircle
 10
57.14224014492618
 20
57.83376820124292
 30
0.0
 40
0.1011383986506614
100
AcDbArc
 50
271.885711497856
 51
359.9692824522695
  0
ARC
  5
1F1
330
2
100
AcDbEntity
  8
GAIKEI
 62
     1
100
AcDbCircle
 10
57.14185498785195
 20
59.45471051325279
 30
0.0
 40
0.1015236985410308
100
AcDbArc
 50
0.100876239782508
 51
87.90394999039827
  0
ARC
  5
1F2
330
2
100
AcDbEntity
  8
GAIKEI
 62
     1
100
AcDbCircle
 10
56.01248944486485
 20
59.49385101575626
 30
0.0
 40
0.1004993573831423
100
AcDbArc
 50
359.810228221331
 51
88.18462417113606
  0
ARC
  5
1F3
330
2
100
AcDbEntity
  8
GAIKEI
 62
     1
100
AcDbCircle
 10
56.01210509594398
 20
57.79487593766865
 30
0.0
 40
0.1008833718566655
100
AcDbArc
 50
272.0268731405882
 51
0.1187854110284281
  0
LINE
  5
1F4
330
2
100
AcDbEntity
  8
GAIKEI
 62
     1
100
AcDbLine
 10
56.91032816234462
 20
59.00372363121374
 30
0.0
 11
56.91032816234462
 21
59.56384253788229
 31
0.0
  0
LINE
  5
1F5
330
2
100
AcDbEntity
  8
GAIKEI
 62
     1
100
AcDbLine
 10
56.70851697360245
 20
59.01585706464732
 30
0.0
 11
56.70851697360245
 21
59.57077592841574
 31
0.0
  0
LINE
  5
1F6
330
2
100
AcDbEntity
  8
GAIKEI
 62
     1
100
AcDbLine
 10
56.30514221720853
 20
59.01338085374252
 30
0.0
 11
56.30514221720853
 21
59.58439508839219
 31
0.0
  0
LINE
  5
1F7
330
2
100
AcDbEntity
  8
GAIKEI
 62
     1
100
AcDbLine
 10
56.1129882509951
 20
57.79508508857486
 30
0.0
 11
56.1129882509951
 21
59.49351814818562
 31
0.0
  0
LINE
  5
1F8
330
2
100
AcDbEntity
  8
GAIKEI
 62
     1
100
AcDbLine
 10
57.14556819830182
 20
57.73268457377361
 30
0.0
 11
55.08362737786462
 21
57.6623601840769
 31
0.0
  0
LINE
  5
1F9
330
2
100
AcDbEntity
  8
GAIKEI
 62
     1
100
AcDbLine
 10
57.24337852904188
 20
59.45488925807055
 30
0.0
 11
57.24337852904188
 21
57.83371397868996
 31
0.0
  0
LINE
  5
1FA
330
2
100
AcDbEntity
  8
GAIKEI
 62
     1
100
AcDbLine
 10
55.08362737786462
 20
59.62624305268355
 30
0.0
 11
57.14556819830182
 21
59.55616628407736
 31
0.0
  0
LINE
  5
1FB
330
2
100
AcDbEntity
  8
GAIKEI
 62
     1
100
AcDbLine
 10
55.08362737786462
 20
53.60979341726116
 30
0.0
 11
57.14556819830182
 21
53.53971664865497
 31
0.0
  0
LINE
  5
1FC
330
2
100
AcDbEntity
  8
GAIKEI
 62
     1
100
AcDbLine
 10
57.24337852904188
 20
53.43843962264816
 30
0.0
 11
57.24337852904188
 21
51.81726434326757
 31
0.0
  0
LINE
  5
1FD
330
2
100
AcDbEntity
  8
GAIKEI
 62
     1
100
AcDbLine
 10
57.14556819830182
 20
51.71623493835122
 30
0.0
 11
55.08362737786462
 21
51.64591054865451
 31
0.0
  0
LINE
  5
1FE
330
2
100
AcDbEntity
  8
GAIKEI
 62
     1
100
AcDbLine
 10
56.1129882509951
 20
51.77863545315247
 30
0.0
 11
56.1129882509951
 21
53.47706851276322
 31
0.0
  0
LINE
  5
1FF
330
2
100
AcDbEntity
  8
GAIKEI
 62
     1
100
AcDbLine
 10
56.30514221720853
 20
52.99693121832013
 30
0.0
 11
56.30514221720853
 21
53.56794545296981
 31
0.0
  0
LINE
  5
200
330
2
100
AcDbEntity
  8
GAIKEI
 62
     1
100
AcDbLine
 10
56.70851697360245
 20
52.99940742922493
 30
0.0
 11
56.70851697360245
 21
53.55432629299335
 31
0.0
  0
LINE
  5
201
330
2
100
AcDbEntity
  8
GAIKEI
 62
     1
100
AcDbLine
 10
56.91032816234462
 20
52.98727399579135
 30
0.0
 11
56.91032816234462
 21
53.54739290245991
 31
0.0
  0
ARC
  5
202
330
2
100
AcDbEntity
  8
GAIKEI
 62
     1
100
AcDbCircle
 10
56.01210509594398
 20
51.77842630224626
 30
0.0
 40
0.1008833718566655
100
AcDbArc
 50
272.0268731405882
 51
0.1187854110284281
  0
ARC
  5
203
330
2
100
AcDbEntity
  8
GAIKEI
 62
     1
100
AcDbCircle
 10
56.01248944486485
 20
53.47740138033387
 30
0.0
 40
0.1004993573831423
100
AcDbArc
 50
359.810228221331
 51
88.18462417113606
  0
ARC
  5
204
330
2
100
AcDbEntity
  8
GAIKEI
 62
     1
100
AcDbCircle
 10
57.14185498785195
 20
53.43826087783043
 30
0.0
 40
0.1015236985410308
100
AcDbArc
 50
0.100876239782508
 51
87.90394999039827
  0
ARC
  5
205
330
2
100
AcDbEntity
  8
GAIKEI
 62
     1
100
AcDbCircle
 10
57.14224014492618
 20
51.81731856582053
 30
0.0
 40
0.1011383986506614
100
AcDbArc
 50
271.885711497856
 51
359.9692824522695
  0
LINE
  5
206
330
2
100
AcDbEntity
  8
GAIKEI
 62
     1
100
AcDbLine
 10
57.04156734029971
 20
52.96919765618622
 30
0.0
 11
57.24337852904188
 21
52.96919765618622
 31
0.0
  0
ARC
  5
207
330
2
100
AcDbEntity
  8
GAIKEI
 62
     1
100
AcDbCircle
 10
56.59248123663582
 20
49.78637420281192
 30
0.0
 40
3.214349617551518
100
AcDbArc
 50
81.96876670038614
 51
91.29512382599585
  0
LINE
  5
208
330
2
100
AcDbEntity
  8
GAIKEI
 62
     1
100
AcDbLine
 10
56.51685824956996
 20
53.00089315576781
 30
0.0
 11
56.51685824956996
 21
53.56101206243636
 31
0.0
  0
ARC
  5
209
330
2
100
AcDbEntity
  8
GAIKEI
 62
     1
100
AcDbCircle
 10
56.82323031541557
 20
52.62777727025337
 30
0.0
 40
0.2183370304044753
100
AcDbArc
 50
301.8726153820601
 51
58.13154691384174
  0
ARC
  5
20A
330
2
100
AcDbEntity
  8
GAIKEI
 62
     1
100
AcDbCircle
 10
56.04692946805937
 20
50.8380362541472
 30
0.0
 40
2.16706970729222
100
AcDbArc
 50
65.70591412608867
 51
82.54314167893877
  0
ARC
  5
20B
330
2
100
AcDbEntity
  8
GAIKEI
 62
     1
100
AcDbCircle
 10
56.04043001013867
 20
54.44532328197713
 30
0.0
 40
2.195091260017512
100
AcDbArc
 50
277.5322271556307
 51
294.1505282283001
  0
LINE
  5
20C
330
2
100
AcDbEntity
  8
GAIKEI
 62
     1
100
AcDbLine
 10
56.30514221720853
 20
52.99693121832013
 30
0.0
 11
56.32817097862329
 21
52.9867787536104
 31
0.0
  0
LINE
  5
20D
330
2
100
AcDbEntity
  8
GAIKEI
 62
     1
100
AcDbLine
 10
55.08362737786462
 20
52.75030061220082
 30
0.0
 11
55.50755468476848
 21
52.75030061220082
 31
0.0
  0
LINE
  5
20E
330
2
100
AcDbEntity
  8
GAIKEI
 62
     1
100
AcDbLine
 10
55.08362737786462
 20
51.95271307976077
 30
0.0
 11
55.50755468476848
 21
51.95271307976077
 31
0.0
  0
CIRCLE
  5
20F
330
2
100
AcDbEntity
  8
GAIKEI
 62
     1
100
AcDbCircle
 10
55.50767849531371
 20
52.35163065652606
 30
0.0
 40
0.2777070529747067
  0
ARC
  5
210
330
2
100
AcDbEntity
  8
GAIKEI
 62
     1
100
AcDbCircle
 10
55.50743085663521
 20
52.35150684598079
 30
0.0
 40
0.3987937854447412
100
AcDbArc
 50
270.0177907224008
 51
89.98220927759096
  0
LINE
  5
211
330
2
100
AcDbEntity
  8
GAIKEI
 62
     1
100
AcDbLine
 10
55.47239248992013
 20
52.4222026673132
 30
0.0
 11
55.47239248992013
 21
52.4828698344811
 31
0.0
  0
LINE
  5
212
330
2
100
AcDbEntity
  8
GAIKEI
 62
     1
100
AcDbLine
 10
55.47239248992013
 20
52.4828698344811
 30
0.0
 11
55.54296450070729
 21
52.4828698344811
 31
0.0
  0
LINE
  5
213
330
2
100
AcDbEntity
  8
GAIKEI
 62
     1
100
AcDbLine
 10
55.54296450070729
 20
52.4828698344811
 30
0.0
 11
55.54296450070729
 21
52.4222026673132
 31
0.0
  0
LINE
  5
214
330
2
100
AcDbEntity
  8
GAIKEI
 62
     1
100
AcDbLine
 10
55.57812669555568
 20
52.38704047246486
 30
0.0
 11
55.63879386272356
 21
52.38704047246486
 31
0.0
  0
LINE
  5
215
330
2
100
AcDbEntity
  8
GAIKEI
 62
     1
100
AcDbLine
 10
55.63879386272356
 20
52.38704047246486
 30
0.0
 11
55.63879386272356
 21
52.31597321949675
 31
0.0
  0
LINE
  5
216
330
2
100
AcDbEntity
  8
GAIKEI
 62
     1
100
AcDbLine
 10
55.63879386272356
 20
52.31597321949675
 30
0.0
 11
55.57812669555568
 21
52.31597321949675
 31
0.0
  0
LINE
  5
217
330
2
100
AcDbEntity
  8
GAIKEI
 62
     1
100
AcDbLine
 10
55.54296450070729
 20
52.28081102464841
 30
0.0
 11
55.54296450070729
 21
52.220391478571
 31
0.0
  0
LINE
  5
218
330
2
100
AcDbEntity
  8
GAIKEI
 62
     1
100
AcDbLine
 10
55.54296450070729
 20
52.220391478571
 30
0.0
 11
55.47239248992013
 21
52.220391478571
 31
0.0
  0
LINE
  5
219
330
2
100
AcDbEntity
  8
GAIKEI
 62
     1
100
AcDbLine
 10
55.47239248992013
 20
52.220391478571
 30
0.0
 11
55.47239248992013
 21
52.28081102464841
 31
0.0
  0
LINE
  5
21A
330
2
100
AcDbEntity
  8
GAIKEI
 62
     1
100
AcDbLine
 10
55.43673505289081
 20
52.31597321949675
 30
0.0
 11
55.37656312790392
 21
52.31597321949675
 31
0.0
  0
LINE
  5
21B
330
2
100
AcDbEntity
  8
GAIKEI
 62
     1
100
AcDbLine
 10
55.37656312790392
 20
52.31597321949675
 30
0.0
 11
55.37656312790392
 21
52.38704047246486
 31
0.0
  0
LINE
  5
21C
330
2
100
AcDbEntity
  8
GAIKEI
 62
     1
100
AcDbLine
 10
55.37656312790392
 20
52.38704047246486
 30
0.0
 11
55.43673505289081
 21
52.38704047246486
 31
0.0
  0
ARC
  5
21D
330
2
100
AcDbEntity
  8
GAIKEI
 62
     1
100
AcDbCircle
 10
55.43698840712256
 20
52.42244447451406
 30
0.0
 40
0.035404908550466
100
AcDbArc
 50
269.5899932329766
 51
359.6086802552525
  0
ARC
  5
21E
330
2
100
AcDbEntity
  8
GAIKEI
 62
     1
100
AcDbCircle
 10
55.4369884132181
 20
52.28056922362899
 30
0.0
 40
0.0354049024128063
100
AcDbArc
 50
0.3913098089274758
 51
90.41001670278289
  0
ARC
  5
21F
330
2
100
AcDbEntity
  8
GAIKEI
 62
     1
100
AcDbCircle
 10
55.5781025178494
 20
52.28083520235452
 30
0.0
 40
0.0351380254601931
100
AcDbArc
 50
89.96057602499575
 51
180.0394239747262
  0
ARC
  5
220
330
2
100
AcDbEntity
  8
GAIKEI
 62
     1
100
AcDbCircle
 10
55.57810251710117
 20
52.42217848885866
 30
0.0
 40
0.0351380247123788
100
AcDbArc
 50
179.9605748040292
 51
270.0394251959013
  0
LINE
  5
221
330
2
100
AcDbEntity
  8
GAIKEI
 62
     1
100
AcDbLine
 10
56.51685824956996
 20
52.25481081014791
 30
0.0
 11
56.51685824956996
 21
51.69469190347936
 31
0.0
  0
ARC
  5
222
330
2
100
AcDbEntity
  8
GAIKEI
 62
     1
100
AcDbCircle
 10
56.59248123663582
 20
55.46932976310381
 30
0.0
 40
3.214349617551518
100
AcDbArc
 50
268.7048761740041
 51
278.0312332996138
  0
LINE
  5
223
330
2
100
AcDbEntity
  8
GAIKEI
 62
     1
100
AcDbLine
 10
56.91032816234462
 20
52.26842997012437
 30
0.0
 11
56.91032816234462
 21
51.70831106345582
 31
0.0
  0
LINE
  5
224
330
2
100
AcDbEntity
  8
GAIKEI
 62
     1
100
AcDbLine
 10
56.70851697360245
 20
52.2562965366908
 30
0.0
 11
56.70851697360245
 21
51.70137767292238
 31
0.0
  0
LINE
  5
225
330
2
100
AcDbEntity
  8
GAIKEI
 62
     1
100
AcDbLine
 10
57.04156734029971
 20
52.2865063097295
 30
0.0
 11
57.24337852904188
 21
52.2865063097295
 31
0.0
  0
LINE
  5
226
330
2
100
AcDbEntity
  8
GAIKEI
 62
     1
100
AcDbLine
 10
56.30514221720853
 20
52.2587727475956
 30
0.0
 11
56.32817097862329
 21
52.26892521230536
 31
0.0
  0
LINE
  5
227
330
2
100
AcDbEntity
  8
GAIKEI
 62
     1
100
AcDbLine
 10
56.30514221720853
 20
52.2587727475956
 30
0.0
 11
56.30514221720853
 21
51.68775851294592
 31
0.0
  0
LINE
  5
228
330
2
100
AcDbEntity
  8
GAIKEI
 62
     1
100
AcDbLine
 10
56.30514221720858
 20
54.37667593448157
 30
0.0
 11
56.30514221720858
 21
53.80566169983189
 31
0.0
  0
LINE
  5
229
330
2
100
AcDbEntity
  8
GAIKEI
 62
     1
100
AcDbLine
 10
56.30514221720858
 20
54.37667593448157
 30
0.0
 11
56.32817097862335
 21
54.38682839919133
 31
0.0
  0
LINE
  5
22A
330
2
100
AcDbEntity
  8
GAIKEI
 62
     1
100
AcDbLine
 10
57.04156734029976
 20
54.40440949661547
 30
0.0
 11
57.24337852904193
 21
54.40440949661547
 31
0.0
  0
LINE
  5
22B
330
2
100
AcDbEntity
  8
GAIKEI
 62
     1
100
AcDbLine
 10
56.70851697360252
 20
54.37419972357679
 30
0.0
 11
56.70851697360252
 21
53.81928085980837
 31
0.0
  0
LINE
  5
22C
330
2
100
AcDbEntity
  8
GAIKEI
 62
     1
100
AcDbLine
 10
56.91032816234468
 20
54.38633315701037
 30
0.0
 11
56.91032816234468
 21
53.82621425034182
 31
0.0
  0
ARC
  5
22D
330
2
100
AcDbEntity
  8
GAIKEI
 62
     1
100
AcDbCircle
 10
56.59248123663587
 20
57.58723294998981
 30
0.0
 40
3.214349617551518
100
AcDbArc
 50
268.7048761740041
 51
278.0312332996138
  0
LINE
  5
22E
330
2
100
AcDbEntity
  8
GAIKEI
 62
     1
100
AcDbLine
 10
56.51685824957002
 20
54.37271399703388
 30
0.0
 11
56.51685824957002
 21
53.81259509036533
 31
0.0
  0
ARC
  5
22F
330
2
100
AcDbEntity
  8
GAIKEI
 62
     1
100
AcDbCircle
 10
55.57810251710122
 20
54.54008167574463
 30
0.0
 40
0.0351380247123788
100
AcDbArc
 50
179.9605748040292
 51
270.0394251959013
  0
ARC
  5
230
330
2
100
AcDbEntity
  8
GAIKEI
 62
     1
100
AcDbCircle
 10
55.57810251784946
 20
54.39873838924052
 30
0.0
 40
0.0351380254601931
100
AcDbArc
 50
89.96057602499575
 51
180.0394239747262
  0
ARC
  5
231
330
2
100
AcDbEntity
  8
GAIKEI
 62
     1
100
AcDbCircle
 10
55.43698841321816
 20
54.39847241051495
 30
0.0
 40
0.0354049024128063
100
AcDbArc
 50
0.3913098089274758
 51
90.41001670278289
  0
ARC
  5
232
330
2
100
AcDbEntity
  8
GAIKEI
 62
     1
100
AcDbCircle
 10
55.43698840712261
 20
54.54034766140006
 30
0.0
 40
0.035404908550466
100
AcDbArc
 50
269.5899932329766
 51
359.6086802552525
  0
LINE
  5
233
330
2
100
AcDbEntity
  8
GAIKEI
 62
     1
100
AcDbLine
 10
55.37656312790398
 20
54.50494365935083
 30
0.0
 11
55.43673505289087
 21
54.50494365935083
 31
0.0
  0
LINE
  5
234
330
2
100
AcDbEntity
  8
GAIKEI
 62
     1
100
AcDbLine
 10
55.37656312790398
 20
54.43387640638275
 30
0.0
 11
55.37656312790398
 21
54.50494365935083
 31
0.0
  0
LINE
  5
235
330
2
100
AcDbEntity
  8
GAIKEI
 62
     1
100
AcDbLine
 10
55.43673505289087
 20
54.43387640638275
 30
0.0
 11
55.37656312790398
 21
54.43387640638275
 31
0.0
  0
LINE
  5
236
330
2
100
AcDbEntity
  8
GAIKEI
 62
     1
100
AcDbLine
 10
55.4723924899202
 20
54.338294665457
 30
0.0
 11
55.4723924899202
 21
54.39871421153441
 31
0.0
  0
LINE
  5
237
330
2
100
AcDbEntity
  8
GAIKEI
 62
     1
100
AcDbLine
 10
55.54296450070734
 20
54.338294665457
 30
0.0
 11
55.4723924899202
 21
54.338294665457
 31
0.0
  0
LINE
  5
238
330
2
100
AcDbEntity
  8
GAIKEI
 62
     1
100
AcDbLine
 10
55.54296450070734
 20
54.39871421153441
 30
0.0
 11
55.54296450070734
 21
54.338294665457
 31
0.0
  0
LINE
  5
239
330
2
100
AcDbEntity
  8
GAIKEI
 62
     1
100
AcDbLine
 10
55.63879386272361
 20
54.43387640638275
 30
0.0
 11
55.57812669555573
 21
54.43387640638275
 31
0.0
  0
LINE
  5
23A
330
2
100
AcDbEntity
  8
GAIKEI
 62
     1
100
AcDbLine
 10
55.63879386272361
 20
54.50494365935083
 30
0.0
 11
55.63879386272361
 21
54.43387640638275
 31
0.0
  0
LINE
  5
23B
330
2
100
AcDbEntity
  8
GAIKEI
 62
     1
100
AcDbLine
 10
55.57812669555573
 20
54.50494365935083
 30
0.0
 11
55.63879386272361
 21
54.50494365935083
 31
0.0
  0
LINE
  5
23C
330
2
100
AcDbEntity
  8
GAIKEI
 62
     1
100
AcDbLine
 10
55.54296450070734
 20
54.6007730213671
 30
0.0
 11
55.54296450070734
 21
54.54010585419917
 31
0.0
  0
LINE
  5
23D
330
2
100
AcDbEntity
  8
GAIKEI
 62
     1
100
AcDbLine
 10
55.4723924899202
 20
54.6007730213671
 30
0.0
 11
55.54296450070734
 21
54.6007730213671
 31
0.0
  0
LINE
  5
23E
330
2
100
AcDbEntity
  8
GAIKEI
 62
     1
100
AcDbLine
 10
55.4723924899202
 20
54.54010585419917
 30
0.0
 11
55.4723924899202
 21
54.6007730213671
 31
0.0
  0
ARC
  5
23F
330
2
100
AcDbEntity
  8
GAIKEI
 62
     1
100
AcDbCircle
 10
55.50743085663526
 20
54.46941003286676
 30
0.0
 40
0.3987937854447412
100
AcDbArc
 50
270.0177907224008
 51
89.98220927759096
  0
CIRCLE
  5
240
330
2
100
AcDbEntity
  8
GAIKEI
 62
     1
100
AcDbCircle
 10
55.50767849531377
 20
54.46953384341203
 30
0.0
 40
0.2777070529747067
  0
LINE
  5
241
330
2
100
AcDbEntity
  8
GAIKEI
 62
     1
100
AcDbLine
 10
55.08362737786467
 20
54.07061626664677
 30
0.0
 11
55.50755468476854
 21
54.07061626664677
 31
0.0
  0
LINE
  5
242
330
2
100
AcDbEntity
  8
GAIKEI
 62
     1
100
AcDbLine
 10
55.08362737786467
 20
54.86820379908682
 30
0.0
 11
55.50755468476854
 21
54.86820379908682
 31
0.0
  0
LINE
  5
243
330
2
100
AcDbEntity
  8
GAIKEI
 62
     1
100
AcDbLine
 10
56.30514221720858
 20
55.11483440520613
 30
0.0
 11
56.32817097862335
 21
55.10468194049636
 31
0.0
  0
ARC
  5
244
330
2
100
AcDbEntity
  8
GAIKEI
 62
     1
100
AcDbCircle
 10
56.04043001013872
 20
56.56322646886309
 30
0.0
 40
2.195091260017512
100
AcDbArc
 50
277.5322271556307
 51
294.1505282283001
  0
ARC
  5
245
330
2
100
AcDbEntity
  8
GAIKEI
 62
     1
100
AcDbCircle
 10
56.04692946805943
 20
52.95593944103316
 30
0.0
 40
2.16706970729222
100
AcDbArc
 50
65.70591412608867
 51
82.54314167893877
  0
ARC
  5
246
330
2
100
AcDbEntity
  8
GAIKEI
 62
     1
100
AcDbCircle
 10
56.82323031541563
 20
54.74568045713937
 30
0.0
 40
0.2183370304044753
100
AcDbArc
 50
301.8726153820601
 51
58.13154691384174
  0
LINE
  5
247
330
2
100
AcDbEntity
  8
GAIKEI
 62
     1
100
AcDbLine
 10
56.51685824957002
 20
55.11879634265381
 30
0.0
 11
56.51685824957002
 21
55.67891524932235
 31
0.0
  0
ARC
  5
248
330
2
100
AcDbEntity
  8
GAIKEI
 62
     1
100
AcDbCircle
 10
56.59248123663587
 20
51.90427738969788
 30
0.0
 40
3.214349617551518
100
AcDbArc
 50
81.96876670038614
 51
91.29512382599585
  0
LINE
  5
249
330
2
100
AcDbEntity
  8
GAIKEI
 62
     1
100
AcDbLine
 10
57.04156734029976
 20
55.08710084307222
 30
0.0
 11
57.24337852904193
 21
55.08710084307222
 31
0.0
  0
ARC
  5
24A
330
2
100
AcDbEntity
  8
GAIKEI
 62
     1
100
AcDbCircle
 10
57.14224014492623
 20
53.93522175270653
 30
0.0
 40
0.1011383986506614
100
AcDbArc
 50
271.885711497856
 51
359.9692824522695
  0
ARC
  5
24B
330
2
100
AcDbEntity
  8
GAIKEI
 62
     1
100
AcDbCircle
 10
57.14185498785202
 20
55.5561640647164
 30
0.0
 40
0.1015236985410308
100
AcDbArc
 50
0.100876239782508
 51
87.90394999039827
  0
ARC
  5
24C
330
2
100
AcDbEntity
  8
GAIKEI
 62
     1
100
AcDbCircle
 10
56.01248944486491
 20
55.59530456721984
 30
0.0
 40
0.1004993573831423
100
AcDbArc
 50
359.810228221331
 51
88.18462417113606
  0
ARC
  5
24D
330
2
100
AcDbEntity
  8
GAIKEI
 62
     1
100
AcDbCircle
 10
56.01210509594404
 20
53.89632948913225
 30
0.0
 40
0.1008833718566655
100
AcDbArc
 50
272.0268731405882
 51
0.1187854110284281
  0
LINE
  5
24E
330
2
100
AcDbEntity
  8
GAIKEI
 62
     1
100
AcDbLine
 10
56.91032816234468
 20
55.10517718267732
 30
0.0
 11
56.91032816234468
 21
55.66529608934587
 31
0.0
  0
LINE
  5
24F
330
2
100
AcDbEntity
  8
GAIKEI
 62
     1
100
AcDbLine
 10
56.70851697360252
 20
55.1173106161109
 30
0.0
 11
56.70851697360252
 21
55.67222947987932
 31
0.0
  0
LINE
  5
250
330
2
100
AcDbEntity
  8
GAIKEI
 62
     1
100
AcDbLine
 10
56.30514221720858
 20
55.11483440520613
 30
0.0
 11
56.30514221720858
 21
55.68584863985581
 31
0.0
  0
LINE
  5
251
330
2
100
AcDbEntity
  8
GAIKEI
 62
     1
100
AcDbLine
 10
56.11298825099516
 20
53.89653864003844
 30
0.0
 11
56.11298825099516
 21
55.59497169964919
 31
0.0
  0
LINE
  5
252
330
2
100
AcDbEntity
  8
GAIKEI
 62
     1
100
AcDbLine
 10
57.14556819830187
 20
53.83413812523719
 30
0.0
 11
55.08362737786467
 21
53.76381373554051
 31
0.0
  0
LINE
  5
253
330
2
100
AcDbEntity
  8
GAIKEI
 62
     1
100
AcDbLine
 10
57.24337852904193
 20
55.55634280953416
 30
0.0
 11
57.24337852904193
 21
53.93516753015354
 31
0.0
  0
LINE
  5
254
330
2
100
AcDbEntity
  8
GAIKEI
 62
     1
100
AcDbLine
 10
55.08362737786467
 20
55.72769660414713
 30
0.0
 11
57.14556819830187
 21
55.65761983554097
 31
0.0
  0
LINE
  5
255
330
2
100
AcDbEntity
  8
GAIKEI
 62
     1
100
AcDbLine
 10
55.08362737786467
 20
45.83626219544936
 30
0.0
 11
57.14556819830187
 21
45.76618542684321
 31
0.0
  0
LINE
  5
256
330
2
100
AcDbEntity
  8
GAIKEI
 62
     1
100
AcDbLine
 10
57.24337852904193
 20
45.66490840083639
 30
0.0
 11
57.24337852904193
 21
44.04373312145577
 31
0.0
  0
LINE
  5
257
330
2
100
AcDbEntity
  8
GAIKEI
 62
     1
100
AcDbLine
 10
57.14556819830187
 20
43.94270371653942
 30
0.0
 11
55.08362737786467
 21
43.87237932684274
 31
0.0
  0
LINE
  5
258
330
2
100
AcDbEntity
  8
GAIKEI
 62
     1
100
AcDbLine
 10
56.11298825099516
 20
44.00510423134067
 30
0.0
 11
56.11298825099516
 21
45.70353729095143
 31
0.0
  0
LINE
  5
259
330
2
100
AcDbEntity
  8
GAIKEI
 62
     1
100
AcDbLine
 10
56.30514221720858
 20
45.22339999650836
 30
0.0
 11
56.30514221720858
 21
45.79441423115804
 31
0.0
  0
LINE
  5
25A
330
2
100
AcDbEntity
  8
GAIKEI
 62
     1
100
AcDbLine
 10
56.70851697360252
 20
45.22587620741314
 30
0.0
 11
56.70851697360252
 21
45.78079507118156
 31
0.0
  0
LINE
  5
25B
330
2
100
AcDbEntity
  8
GAIKEI
 62
     1
100
AcDbLine
 10
56.91032816234468
 20
45.21374277397955
 30
0.0
 11
56.91032816234468
 21
45.77386168064811
 31
0.0
  0
ARC
  5
25C
330
2
100
AcDbEntity
  8
GAIKEI
 62
     1
100
AcDbCircle
 10
56.01210509594404
 20
44.00489508043449
 30
0.0
 40
0.1008833718566655
100
AcDbArc
 50
272.0268731405882
 51
0.1187854110284281
  0
ARC
  5
25D
330
2
100
AcDbEntity
  8
GAIKEI
 62
     1
100
AcDbCircle
 10
56.01248944486491
 20
45.70387015852207
 30
0.0
 40
0.1004993573831423
100
AcDbArc
 50
359.810228221331
 51
88.18462417113606
  0
ARC
  5
25E
330
2
100
AcDbEntity
  8
GAIKEI
 62
     1
100
AcDbCircle
 10
57.14185498785202
 20
45.66472965601863
 30
0.0
 40
0.1015236985410308
100
AcDbArc
 50
0.100876239782508
 51
87.90394999039827
  0
ARC
  5
25F
330
2
100
AcDbEntity
  8
GAIKEI
 62
     1
100
AcDbCircle
 10
57.14224014492623
 20
44.04378734400876
 30
0.0
 40
0.1011383986506614
100
AcDbArc
 50
271.885711497856
 51
359.9692824522695
  0
LINE
  5
260
330
2
100
AcDbEntity
  8
GAIKEI
 62
     1
100
AcDbLine
 10
57.04156734029976
 20
45.19566643437445
 30
0.0
 11
57.24337852904193
 21
45.19566643437445
 31
0.0
  0
ARC
  5
261
330
2
100
AcDbEntity
  8
GAIKEI
 62
     1
100
AcDbCircle
 10
56.59248123663587
 20
42.01284298100012
 30
0.0
 40
3.214349617551518
100
AcDbArc
 50
81.96876670038614
 51
91.29512382599585
  0
LINE
  5
262
330
2
100
AcDbEntity
  8
GAIKEI
 62
     1
100
AcDbLine
 10
56.51685824957002
 20
45.22736193395604
 30
0.0
 11
56.51685824957002
 21
45.7874808406246
 31
0.0
  0
ARC
  5
263
330
2
100
AcDbEntity
  8
GAIKEI
 62
     1
100
AcDbCircle
 10
56.82323031541563
 20
44.85424604844161
 30
0.0
 40
0.2183370304044753
100
AcDbArc
 50
301.8726153820601
 51
58.13154691384174
  0
ARC
  5
264
330
2
100
AcDbEntity
  8
GAIKEI
 62
     1
100
AcDbCircle
 10
56.04692946805943
 20
43.0645050323354
 30
0.0
 40
2.16706970729222
100
AcDbArc
 50
65.70591412608867
 51
82.54314167893877
  0
ARC
  5
265
330
2
100
AcDbEntity
  8
GAIKEI
 62
     1
100
AcDbCircle
 10
56.04043001013872
 20
46.67179206016533
 30
0.0
 40
2.195091260017512
100
AcDbArc
 50
277.5322271556307
 51
294.1505282283001
  0
LINE
  5
266
330
2
100
AcDbEntity
  8
GAIKEI
 62
     1
100
AcDbLine
 10
56.30514221720858
 20
45.22339999650836
 30
0.0
 11
56.32817097862335
 21
45.2132475317986
 31
0.0
  0
LINE
  5
267
330
2
100
AcDbEntity
  8
GAIKEI
 62
     1
100
AcDbLine
 10
55.08362737786467
 20
44.97676939038905
 30
0.0
 11
55.50755468476854
 21
44.97676939038905
 31
0.0
  0
LINE
  5
268
330
2
100
AcDbEntity
  8
GAIKEI
 62
     1
100
AcDbLine
 10
55.08362737786467
 20
44.179181857949
 30
0.0
 11
55.50755468476854
 21
44.179181857949
 31
0.0
  0
CIRCLE
  5
269
330
2
100
AcDbEntity
  8
GAIKEI
 62
     1
100
AcDbCircle
 10
55.50767849531377
 20
44.57809943471426
 30
0.0
 40
0.2777070529747067
  0
ARC
  5
26A
330
2
100
AcDbEntity
  8
GAIKEI
 62
     1
100
AcDbCircle
 10
55.50743085663526
 20
44.57797562416899
 30
0.0
 40
0.3987937854447412
100
AcDbArc
 50
270.0177907224008
 51
89.98220927759096
  0
LINE
  5
26B
330
2
100
AcDbEntity
  8
GAIKEI
 62
     1
100
AcDbLine
 10
55.4723924899202
 20
44.6486714455014
 30
0.0
 11
55.4723924899202
 21
44.70933861266934
 31
0.0
  0
LINE
  5
26C
330
2
100
AcDbEntity
  8
GAIKEI
 62
     1
100
AcDbLine
 10
55.4723924899202
 20
44.70933861266934
 30
0.0
 11
55.54296450070734
 21
44.70933861266934
 31
0.0
  0
LINE
  5
26D
330
2
100
AcDbEntity
  8
GAIKEI
 62
     1
100
AcDbLine
 10
55.54296450070734
 20
44.70933861266934
 30
0.0
 11
55.54296450070734
 21
44.6486714455014
 31
0.0
  0
LINE
  5
26E
330
2
100
AcDbEntity
  8
GAIKEI
 62
     1
100
AcDbLine
 10
55.57812669555573
 20
44.61350925065306
 30
0.0
 11
55.63879386272361
 21
44.61350925065306
 31
0.0
  0
LINE
  5
26F
330
2
100
AcDbEntity
  8
GAIKEI
 62
     1
100
AcDbLine
 10
55.63879386272361
 20
44.61350925065306
 30
0.0
 11
55.63879386272361
 21
44.54244199768498
 31
0.0
  0
LINE
  5
270
330
2
100
AcDbEntity
  8
GAIKEI
 62
     1
100
AcDbLine
 10
55.63879386272361
 20
44.54244199768498
 30
0.0
 11
55.57812669555573
 21
44.54244199768498
 31
0.0
  0
LINE
  5
271
330
2
100
AcDbEntity
  8
GAIKEI
 62
     1
100
AcDbLine
 10
55.54296450070734
 20
44.50727980283665
 30
0.0
 11
55.54296450070734
 21
44.44686025675923
 31
0.0
  0
LINE
  5
272
330
2
100
AcDbEntity
  8
GAIKEI
 62
     1
100
AcDbLine
 10
55.54296450070734
 20
44.44686025675923
 30
0.0
 11
55.4723924899202
 21
44.44686025675923
 31
0.0
  0
LINE
  5
273
330
2
100
AcDbEntity
  8
GAIKEI
 62
     1
100
AcDbLine
 10
55.4723924899202
 20
44.44686025675923
 30
0.0
 11
55.4723924899202
 21
44.50727980283665
 31
0.0
  0
LINE
  5
274
330
2
100
AcDbEntity
  8
GAIKEI
 62
     1
100
AcDbLine
 10
55.43673505289087
 20
44.54244199768498
 30
0.0
 11
55.37656312790398
 21
44.54244199768498
 31
0.0
  0
LINE
  5
275
330
2
100
AcDbEntity
  8
GAIKEI
 62
     1
100
AcDbLine
 10
55.37656312790398
 20
44.54244199768498
 30
0.0
 11
55.37656312790398
 21
44.61350925065306
 31
0.0
  0
LINE
  5
276
330
2
100
AcDbEntity
  8
GAIKEI
 62
     1
100
AcDbLine
 10
55.37656312790398
 20
44.61350925065306
 30
0.0
 11
55.43673505289087
 21
44.61350925065306
 31
0.0
  0
ARC
  5
277
330
2
100
AcDbEntity
  8
GAIKEI
 62
     1
100
AcDbCircle
 10
55.43698840712261
 20
44.6489132527023
 30
0.0
 40
0.035404908550466
100
AcDbArc
 50
269.5899932329766
 51
359.6086802552525
  0
ARC
  5
278
330
2
100
AcDbEntity
  8
GAIKEI
 62
     1
100
AcDbCircle
 10
55.43698841321816
 20
44.50703800181719
 30
0.0
 40
0.0354049024128063
100
AcDbArc
 50
0.3913098089274758
 51
90.41001670278289
  0
ARC
  5
279
330
2
100
AcDbEntity
  8
GAIKEI
 62
     1
100
AcDbCircle
 10
55.57810251784946
 20
44.50730398054275
 30
0.0
 40
0.0351380254601931
100
AcDbArc
 50
89.96057602499575
 51
180.0394239747262
  0
ARC
  5
27A
330
2
100
AcDbEntity
  8
GAIKEI
 62
     1
100
AcDbCircle
 10
55.57810251710122
 20
44.64864726704687
 30
0.0
 40
0.0351380247123788
100
AcDbArc
 50
179.9605748040292
 51
270.0394251959013
  0
LINE
  5
27B
330
2
100
AcDbEntity
  8
GAIKEI
 62
     1
100
AcDbLine
 10
56.51685824957002
 20
44.48127958833612
 30
0.0
 11
56.51685824957002
 21
43.92116068166757
 31
0.0
  0
ARC
  5
27C
330
2
100
AcDbEntity
  8
GAIKEI
 62
     1
100
AcDbCircle
 10
56.59248123663587
 20
47.69579854129204
 30
0.0
 40
3.214349617551518
100
AcDbArc
 50
268.7048761740041
 51
278.0312332996138
  0
LINE
  5
27D
330
2
100
AcDbEntity
  8
GAIKEI
 62
     1
100
AcDbLine
 10
56.91032816234468
 20
44.4948987483126
 30
0.0
 11
56.91032816234468
 21
43.93477984164405
 31
0.0
  0
LINE
  5
27E
330
2
100
AcDbEntity
  8
GAIKEI
 62
     1
100
AcDbLine
 10
56.70851697360252
 20
44.48276531487903
 30
0.0
 11
56.70851697360252
 21
43.92784645111061
 31
0.0
  0
LINE
  5
27F
330
2
100
AcDbEntity
  8
GAIKEI
 62
     1
100
AcDbLine
 10
57.04156734029976
 20
44.5129750879177
 30
0.0
 11
57.24337852904193
 21
44.5129750879177
 31
0.0
  0
LINE
  5
280
330
2
100
AcDbEntity
  8
GAIKEI
 62
     1
100
AcDbLine
 10
56.30514221720858
 20
44.4852415257838
 30
0.0
 11
56.32817097862335
 21
44.49539399049356
 31
0.0
  0
LINE
  5
281
330
2
100
AcDbEntity
  8
GAIKEI
 62
     1
100
AcDbLine
 10
56.30514221720858
 20
44.4852415257838
 30
0.0
 11
56.30514221720858
 21
43.91422729113412
 31
0.0
  0
LINE
  5
282
330
2
100
AcDbEntity
  8
GAIKEI
 62
     1
100
AcDbLine
 10
56.30514221720853
 20
42.36733833889783
 30
0.0
 11
56.30514221720853
 21
41.79632410424815
 31
0.0
  0
LINE
  5
283
330
2
100
AcDbEntity
  8
GAIKEI
 62
     1
100
AcDbLine
 10
56.30514221720853
 20
42.36733833889783
 30
0.0
 11
56.32817097862329
 21
42.37749080360759
 31
0.0
  0
LINE
  5
284
330
2
100
AcDbEntity
  8
GAIKEI
 62
     1
100
AcDbLine
 10
57.04156734029971
 20
42.39507190103174
 30
0.0
 11
57.24337852904188
 21
42.39507190103174
 31
0.0
  0
LINE
  5
285
330
2
100
AcDbEntity
  8
GAIKEI
 62
     1
100
AcDbLine
 10
56.70851697360245
 20
42.36486212799303
 30
0.0
 11
56.70851697360245
 21
41.80994326422461
 31
0.0
  0
LINE
  5
286
330
2
100
AcDbEntity
  8
GAIKEI
 62
     1
100
AcDbLine
 10
56.91032816234462
 20
42.3769955614266
 30
0.0
 11
56.91032816234462
 21
41.81687665475806
 31
0.0
  0
ARC
  5
287
330
2
100
AcDbEntity
  8
GAIKEI
 62
     1
100
AcDbCircle
 10
56.59248123663582
 20
45.57789535440605
 30
0.0
 40
3.214349617551518
100
AcDbArc
 50
268.7048761740041
 51
278.0312332996138
  0
LINE
  5
288
330
2
100
AcDbEntity
  8
GAIKEI
 62
     1
100
AcDbLine
 10
56.51685824956996
 20
42.36337640145015
 30
0.0
 11
56.51685824956996
 21
41.8032574947816
 31
0.0
  0
ARC
  5
289
330
2
100
AcDbEntity
  8
GAIKEI
 62
     1
100
AcDbCircle
 10
55.57810251710117
 20
42.5307440801609
 30
0.0
 40
0.0351380247123788
100
AcDbArc
 50
179.9605748040292
 51
270.0394251959013
  0
ARC
  5
28A
330
2
100
AcDbEntity
  8
GAIKEI
 62
     1
100
AcDbCircle
 10
55.5781025178494
 20
42.38940079365676
 30
0.0
 40
0.0351380254601931
100
AcDbArc
 50
89.96057602499575
 51
180.0394239747262
  0
ARC
  5
28B
330
2
100
AcDbEntity
  8
GAIKEI
 62
     1
100
AcDbCircle
 10
55.4369884132181
 20
42.38913481493122
 30
0.0
 40
0.0354049024128063
100
AcDbArc
 50
0.3913098089274758
 51
90.41001670278289
  0
ARC
  5
28C
330
2
100
AcDbEntity
  8
GAIKEI
 62
     1
100
AcDbCircle
 10
55.43698840712256
 20
42.5310100658163
 30
0.0
 40
0.035404908550466
100
AcDbArc
 50
269.5899932329766
 51
359.6086802552525
  0
LINE
  5
28D
330
2
100
AcDbEntity
  8
GAIKEI
 62
     1
100
AcDbLine
 10
55.37656312790392
 20
42.4956060637671
 30
0.0
 11
55.43673505289081
 21
42.4956060637671
 31
0.0
  0
LINE
  5
28E
330
2
100
AcDbEntity
  8
GAIKEI
 62
     1
100
AcDbLine
 10
55.37656312790392
 20
42.42453881079899
 30
0.0
 11
55.37656312790392
 21
42.4956060637671
 31
0.0
  0
LINE
  5
28F
330
2
100
AcDbEntity
  8
GAIKEI
 62
     1
100
AcDbLine
 10
55.43673505289081
 20
42.42453881079899
 30
0.0
 11
55.37656312790392
 21
42.42453881079899
 31
0.0
  0
LINE
  5
290
330
2
100
AcDbEntity
  8
GAIKEI
 62
     1
100
AcDbLine
 10
55.47239248992013
 20
42.32895706987323
 30
0.0
 11
55.47239248992013
 21
42.38937661595065
 31
0.0
  0
LINE
  5
291
330
2
100
AcDbEntity
  8
GAIKEI
 62
     1
100
AcDbLine
 10
55.54296450070729
 20
42.32895706987323
 30
0.0
 11
55.47239248992013
 21
42.32895706987323
 31
0.0
  0
LINE
  5
292
330
2
100
AcDbEntity
  8
GAIKEI
 62
     1
100
AcDbLine
 10
55.54296450070729
 20
42.38937661595065
 30
0.0
 11
55.54296450070729
 21
42.32895706987323
 31
0.0
  0
LINE
  5
293
330
2
100
AcDbEntity
  8
GAIKEI
 62
     1
100
AcDbLine
 10
55.63879386272356
 20
42.42453881079899
 30
0.0
 11
55.57812669555568
 21
42.42453881079899
 31
0.0
  0
LINE
  5
294
330
2
100
AcDbEntity
  8
GAIKEI
 62
     1
100
AcDbLine
 10
55.63879386272356
 20
42.4956060637671
 30
0.0
 11
55.63879386272356
 21
42.42453881079899
 31
0.0
  0
LINE
  5
295
330
2
100
AcDbEntity
  8
GAIKEI
 62
     1
100
AcDbLine
 10
55.57812669555568
 20
42.4956060637671
 30
0.0
 11
55.63879386272356
 21
42.4956060637671
 31
0.0
  0
LINE
  5
296
330
2
100
AcDbEntity
  8
GAIKEI
 62
     1
100
AcDbLine
 10
55.54296450070729
 20
42.59143542578335
 30
0.0
 11
55.54296450070729
 21
42.53076825861543
 31
0.0
  0
LINE
  5
297
330
2
100
AcDbEntity
  8
GAIKEI
 62
     1
100
AcDbLine
 10
55.47239248992013
 20
42.59143542578335
 30
0.0
 11
55.54296450070729
 21
42.59143542578335
 31
0.0
  0
LINE
  5
298
330
2
100
AcDbEntity
  8
GAIKEI
 62
     1
100
AcDbLine
 10
55.47239248992013
 20
42.53076825861543
 30
0.0
 11
55.47239248992013
 21
42.59143542578335
 31
0.0
  0
ARC
  5
299
330
2
100
AcDbEntity
  8
GAIKEI
 62
     1
100
AcDbCircle
 10
55.50743085663521
 20
42.46007243728302
 30
0.0
 40
0.3987937854447412
100
AcDbArc
 50
270.0177907224008
 51
89.98220927759096
  0
CIRCLE
  5
29A
330
2
100
AcDbEntity
  8
GAIKEI
 62
     1
100
AcDbCircle
 10
55.50767849531371
 20
42.46019624782829
 30
0.0
 40
0.2777070529747067
  0
LINE
  5
29B
330
2
100
AcDbEntity
  8
GAIKEI
 62
     1
100
AcDbLine
 10
55.08362737786462
 20
42.061278671063
 30
0.0
 11
55.50755468476848
 21
42.061278671063
 31
0.0
  0
LINE
  5
29C
330
2
100
AcDbEntity
  8
GAIKEI
 62
     1
100
AcDbLine
 10
55.08362737786462
 20
42.85886620350305
 30
0.0
 11
55.50755468476848
 21
42.85886620350305
 31
0.0
  0
LINE
  5
29D
330
2
100
AcDbEntity
  8
GAIKEI
 62
     1
100
AcDbLine
 10
56.30514221720853
 20
43.10549680962236
 30
0.0
 11
56.32817097862329
 21
43.09534434491263
 31
0.0
  0
ARC
  5
29E
330
2
100
AcDbEntity
  8
GAIKEI
 62
     1
100
AcDbCircle
 10
56.04043001013867
 20
44.55388887327936
 30
0.0
 40
2.195091260017512
100
AcDbArc
 50
277.5322271556307
 51
294.1505282283001
  0
ARC
  5
29F
330
2
100
AcDbEntity
  8
GAIKEI
 62
     1
100
AcDbCircle
 10
56.04692946805937
 20
40.94660184544943
 30
0.0
 40
2.16706970729222
100
AcDbArc
 50
65.70591412608867
 51
82.54314167893877
  0
ARC
  5
2A0
330
2
100
AcDbEntity
  8
GAIKEI
 62
     1
100
AcDbCircle
 10
56.82323031541557
 20
42.73634286155561
 30
0.0
 40
0.2183370304044753
100
AcDbArc
 50
301.8726153820601
 51
58.13154691384174
  0
LINE
  5
2A1
330
2
100
AcDbEntity
  8
GAIKEI
 62
     1
100
AcDbLine
 10
56.51685824956996
 20
43.10945874707004
 30
0.0
 11
56.51685824956996
 21
43.6695776537386
 31
0.0
  0
ARC
  5
2A2
330
2
100
AcDbEntity
  8
GAIKEI
 62
     1
100
AcDbCircle
 10
56.59248123663582
 20
39.89493979411415
 30
0.0
 40
3.214349617551518
100
AcDbArc
 50
81.96876670038614
 51
91.29512382599585
  0
LINE
  5
2A3
330
2
100
AcDbEntity
  8
GAIKEI
 62
     1
100
AcDbLine
 10
57.04156734029971
 20
43.07776324748846
 30
0.0
 11
57.24337852904188
 21
43.07776324748846
 31
0.0
  0
ARC
  5
2A4
330
2
100
AcDbEntity
  8
GAIKEI
 62
     1
100
AcDbCircle
 10
57.14224014492618
 20
41.92588415712276
 30
0.0
 40
0.1011383986506614
100
AcDbArc
 50
271.885711497856
 51
359.9692824522695
  0
ARC
  5
2A5
330
2
100
AcDbEntity
  8
GAIKEI
 62
     1
100
AcDbCircle
 10
57.14185498785195
 20
43.54682646913267
 30
0.0
 40
0.1015236985410308
100
AcDbArc
 50
0.100876239782508
 51
87.90394999039827
  0
ARC
  5
2A6
330
2
100
AcDbEntity
  8
GAIKEI
 62
     1
100
AcDbCircle
 10
56.01248944486485
 20
43.58596697163611
 30
0.0
 40
0.1004993573831423
100
AcDbArc
 50
359.810228221331
 51
88.18462417113606
  0
ARC
  5
2A7
330
2
100
AcDbEntity
  8
GAIKEI
 62
     1
100
AcDbCircle
 10
56.01210509594398
 20
41.88699189354849
 30
0.0
 40
0.1008833718566655
100
AcDbArc
 50
272.0268731405882
 51
0.1187854110284281
  0
LINE
  5
2A8
330
2
100
AcDbEntity
  8
GAIKEI
 62
     1
100
AcDbLine
 10
56.91032816234462
 20
43.09583958709359
 30
0.0
 11
56.91032816234462
 21
43.65595849376214
 31
0.0
  0
LINE
  5
2A9
330
2
100
AcDbEntity
  8
GAIKEI
 62
     1
100
AcDbLine
 10
56.70851697360245
 20
43.10797302052717
 30
0.0
 11
56.70851697360245
 21
43.66289188429559
 31
0.0
  0
LINE
  5
2AA
330
2
100
AcDbEntity
  8
GAIKEI
 62
     1
100
AcDbLine
 10
56.30514221720853
 20
43.10549680962236
 30
0.0
 11
56.30514221720853
 21
43.67651104427205
 31
0.0
  0
LINE
  5
2AB
330
2
100
AcDbEntity
  8
GAIKEI
 62
     1
100
AcDbLine
 10
56.1129882509951
 20
41.88720104445471
 30
0.0
 11
56.1129882509951
 21
43.58563410406546
 31
0.0
  0
LINE
  5
2AC
330
2
100
AcDbEntity
  8
GAIKEI
 62
     1
100
AcDbLine
 10
57.14556819830182
 20
41.82480052965345
 30
0.0
 11
55.08362737786462
 21
41.75447613995674
 31
0.0
  0
LINE
  5
2AD
330
2
100
AcDbEntity
  8
GAIKEI
 62
     1
100
AcDbLine
 10
57.24337852904188
 20
43.5470052139504
 30
0.0
 11
57.24337852904188
 21
41.9258299345698
 31
0.0
  0
LINE
  5
2AE
330
2
100
AcDbEntity
  8
GAIKEI
 62
     1
100
AcDbLine
 10
55.08362737786462
 20
43.71835900856339
 30
0.0
 11
57.14556819830182
 21
43.64828223995721
 31
0.0
  0
LINE
  5
2AF
330
2
100
AcDbEntity
  8
GAIKEI
 62
     1
100
AcDbLine
 10
56.30514221720858
 20
38.47572528089489
 30
0.0
 11
56.30514221720858
 21
37.90471104624521
 31
0.0
  0
LINE
  5
2B0
330
2
100
AcDbEntity
  8
GAIKEI
 62
     1
100
AcDbLine
 10
56.30514221720858
 20
38.47572528089489
 30
0.0
 11
56.32817097862335
 21
38.48587774560465
 31
0.0
  0
LINE
  5
2B1
330
2
100
AcDbEntity
  8
GAIKEI
 62
     1
100
AcDbLine
 10
57.04156734029976
 20
38.50345884302879
 30
0.0
 11
57.24337852904193
 21
38.50345884302879
 31
0.0
  0
LINE
  5
2B2
330
2
100
AcDbEntity
  8
GAIKEI
 62
     1
100
AcDbLine
 10
56.70851697360252
 20
38.47324906999011
 30
0.0
 11
56.70851697360252
 21
37.91833020622169
 31
0.0
  0
LINE
  5
2B3
330
2
100
AcDbEntity
  8
GAIKEI
 62
     1
100
AcDbLine
 10
56.91032816234468
 20
38.48538250342369
 30
0.0
 11
56.91032816234468
 21
37.92526359675514
 31
0.0
  0
ARC
  5
2B4
330
2
100
AcDbEntity
  8
GAIKEI
 62
     1
100
AcDbCircle
 10
56.59248123663587
 20
41.68628229640313
 30
0.0
 40
3.214349617551518
100
AcDbArc
 50
268.7048761740041
 51
278.0312332996138
  0
LINE
  5
2B5
330
2
100
AcDbEntity
  8
GAIKEI
 62
     1
100
AcDbLine
 10
56.51685824957002
 20
38.4717633434472
 30
0.0
 11
56.51685824957002
 21
37.91164443677866
 31
0.0
  0
ARC
  5
2B6
330
2
100
AcDbEntity
  8
GAIKEI
 62
     1
100
AcDbCircle
 10
55.57810251710122
 20
38.63913102215795
 30
0.0
 40
0.0351380247123788
100
AcDbArc
 50
179.9605748040292
 51
270.0394251959013
  0
ARC
  5
2B7
330
2
100
AcDbEntity
  8
GAIKEI
 62
     1
100
AcDbCircle
 10
55.57810251784946
 20
38.49778773565384
 30
0.0
 40
0.0351380254601931
100
AcDbArc
 50
89.96057602499575
 51
180.0394239747262
  0
ARC
  5
2B8
330
2
100
AcDbEntity
  8
GAIKEI
 62
     1
100
AcDbCircle
 10
55.43698841321816
 20
38.49752175692827
 30
0.0
 40
0.0354049024128063
100
AcDbArc
 50
0.3913098089274758
 51
90.41001670278289
  0
ARC
  5
2B9
330
2
100
AcDbEntity
  8
GAIKEI
 62
     1
100
AcDbCircle
 10
55.43698840712261
 20
38.63939700781338
 30
0.0
 40
0.035404908550466
100
AcDbArc
 50
269.5899932329766
 51
359.6086802552525
  0
LINE
  5
2BA
330
2
100
AcDbEntity
  8
GAIKEI
 62
     1
100
AcDbLine
 10
55.37656312790398
 20
38.60399300576415
 30
0.0
 11
55.43673505289087
 21
38.60399300576415
 31
0.0
  0
LINE
  5
2BB
330
2
100
AcDbEntity
  8
GAIKEI
 62
     1
100
AcDbLine
 10
55.37656312790398
 20
38.53292575279607
 30
0.0
 11
55.37656312790398
 21
38.60399300576415
 31
0.0
  0
LINE
  5
2BC
330
2
100
AcDbEntity
  8
GAIKEI
 62
     1
100
AcDbLine
 10
55.43673505289087
 20
38.53292575279607
 30
0.0
 11
55.37656312790398
 21
38.53292575279607
 31
0.0
  0
LINE
  5
2BD
330
2
100
AcDbEntity
  8
GAIKEI
 62
     1
100
AcDbLine
 10
55.4723924899202
 20
38.43734401187032
 30
0.0
 11
55.4723924899202
 21
38.49776355794773
 31
0.0
  0
LINE
  5
2BE
330
2
100
AcDbEntity
  8
GAIKEI
 62
     1
100
AcDbLine
 10
55.54296450070734
 20
38.43734401187032
 30
0.0
 11
55.4723924899202
 21
38.43734401187032
 31
0.0
  0
LINE
  5
2BF
330
2
100
AcDbEntity
  8
GAIKEI
 62
     1
100
AcDbLine
 10
55.54296450070734
 20
38.49776355794773
 30
0.0
 11
55.54296450070734
 21
38.43734401187032
 31
0.0
  0
LINE
  5
2C0
330
2
100
AcDbEntity
  8
GAIKEI
 62
     1
100
AcDbLine
 10
55.63879386272361
 20
38.53292575279607
 30
0.0
 11
55.57812669555573
 21
38.53292575279607
 31
0.0
  0
LINE
  5
2C1
330
2
100
AcDbEntity
  8
GAIKEI
 62
     1
100
AcDbLine
 10
55.63879386272361
 20
38.60399300576415
 30
0.0
 11
55.63879386272361
 21
38.53292575279607
 31
0.0
  0
LINE
  5
2C2
330
2
100
AcDbEntity
  8
GAIKEI
 62
     1
100
AcDbLine
 10
55.57812669555573
 20
38.60399300576415
 30
0.0
 11
55.63879386272361
 21
38.60399300576415
 31
0.0
  0
LINE
  5
2C3
330
2
100
AcDbEntity
  8
GAIKEI
 62
     1
100
AcDbLine
 10
55.54296450070734
 20
38.69982236778042
 30
0.0
 11
55.54296450070734
 21
38.63915520061249
 31
0.0
  0
LINE
  5
2C4
330
2
100
AcDbEntity
  8
GAIKEI
 62
     1
100
AcDbLine
 10
55.4723924899202
 20
38.69982236778042
 30
0.0
 11
55.54296450070734
 21
38.69982236778042
 31
0.0
  0
LINE
  5
2C5
330
2
100
AcDbEntity
  8
GAIKEI
 62
     1
100
AcDbLine
 10
55.4723924899202
 20
38.63915520061249
 30
0.0
 11
55.4723924899202
 21
38.69982236778042
 31
0.0
  0
ARC
  5
2C6
330
2
100
AcDbEntity
  8
GAIKEI
 62
     1
100
AcDbCircle
 10
55.50743085663526
 20
38.56845937928008
 30
0.0
 40
0.3987937854447412
100
AcDbArc
 50
270.0177907224008
 51
89.98220927759096
  0
CIRCLE
  5
2C7
330
2
100
AcDbEntity
  8
GAIKEI
 62
     1
100
AcDbCircle
 10
55.50767849531377
 20
38.56858318982535
 30
0.0
 40
0.2777070529747067
  0
LINE
  5
2C8
330
2
100
AcDbEntity
  8
GAIKEI
 62
     1
100
AcDbLine
 10
55.08362737786467
 20
38.16966561306008
 30
0.0
 11
55.50755468476854
 21
38.16966561306008
 31
0.0
  0
LINE
  5
2C9
330
2
100
AcDbEntity
  8
GAIKEI
 62
     1
100
AcDbLine
 10
55.08362737786467
 20
38.96725314550014
 30
0.0
 11
55.50755468476854
 21
38.96725314550014
 31
0.0
  0
LINE
  5
2CA
330
2
100
AcDbEntity
  8
GAIKEI
 62
     1
100
AcDbLine
 10
56.30514221720858
 20
39.21388375161944
 30
0.0
 11
56.32817097862335
 21
39.20373128690968
 31
0.0
  0
ARC
  5
2CB
330
2
100
AcDbEntity
  8
GAIKEI
 62
     1
100
AcDbCircle
 10
56.04043001013872
 20
40.66227581527641
 30
0.0
 40
2.195091260017512
100
AcDbArc
 50
277.5322271556307
 51
294.1505282283001
  0
ARC
  5
2CC
330
2
100
AcDbEntity
  8
GAIKEI
 62
     1
100
AcDbCircle
 10
56.04692946805943
 20
37.05498878744649
 30
0.0
 40
2.16706970729222
100
AcDbArc
 50
65.70591412608867
 51
82.54314167893877
  0
ARC
  5
2CD
330
2
100
AcDbEntity
  8
GAIKEI
 62
     1
100
AcDbCircle
 10
56.82323031541563
 20
38.84472980355269
 30
0.0
 40
0.2183370304044753
100
AcDbArc
 50
301.8726153820601
 51
58.13154691384174
  0
LINE
  5
2CE
330
2
100
AcDbEntity
  8
GAIKEI
 62
     1
100
AcDbLine
 10
56.51685824957002
 20
39.21784568906713
 30
0.0
 11
56.51685824957002
 21
39.77796459573568
 31
0.0
  0
ARC
  5
2CF
330
2
100
AcDbEntity
  8
GAIKEI
 62
     1
100
AcDbCircle
 10
56.59248123663587
 20
36.0033267361112
 30
0.0
 40
3.214349617551518
100
AcDbArc
 50
81.96876670038614
 51
91.29512382599585
  0
LINE
  5
2D0
330
2
100
AcDbEntity
  8
GAIKEI
 62
     1
100
AcDbLine
 10
57.04156734029976
 20
39.18615018948554
 30
0.0
 11
57.24337852904193
 21
39.18615018948554
 31
0.0
  0
ARC
  5
2D1
330
2
100
AcDbEntity
  8
GAIKEI
 62
     1
100
AcDbCircle
 10
57.14224014492623
 20
38.03427109911984
 30
0.0
 40
0.1011383986506614
100
AcDbArc
 50
271.885711497856
 51
359.9692824522695
  0
ARC
  5
2D2
330
2
100
AcDbEntity
  8
GAIKEI
 62
     1
100
AcDbCircle
 10
57.14185498785202
 20
39.65521341112972
 30
0.0
 40
0.1015236985410308
100
AcDbArc
 50
0.100876239782508
 51
87.90394999039827
  0
ARC
  5
2D3
330
2
100
AcDbEntity
  8
GAIKEI
 62
     1
100
AcDbCircle
 10
56.01248944486491
 20
39.69435391363316
 30
0.0
 40
0.1004993573831423
100
AcDbArc
 50
359.810228221331
 51
88.18462417113606
  0
ARC
  5
2D4
330
2
100
AcDbEntity
  8
GAIKEI
 62
     1
100
AcDbCircle
 10
56.01210509594404
 20
37.99537883554558
 30
0.0
 40
0.1008833718566655
100
AcDbArc
 50
272.0268731405882
 51
0.1187854110284281
  0
LINE
  5
2D5
330
2
100
AcDbEntity
  8
GAIKEI
 62
     1
100
AcDbLine
 10
56.91032816234468
 20
39.20422652909064
 30
0.0
 11
56.91032816234468
 21
39.76434543575919
 31
0.0
  0
LINE
  5
2D6
330
2
100
AcDbEntity
  8
GAIKEI
 62
     1
100
AcDbLine
 10
56.70851697360252
 20
39.21635996252422
 30
0.0
 11
56.70851697360252
 21
39.77127882629264
 31
0.0
  0
LINE
  5
2D7
330
2
100
AcDbEntity
  8
GAIKEI
 62
     1
100
AcDbLine
 10
56.30514221720858
 20
39.21388375161944
 30
0.0
 11
56.30514221720858
 21
39.78489798626913
 31
0.0
  0
LINE
  5
2D8
330
2
100
AcDbEntity
  8
GAIKEI
 62
     1
100
AcDbLine
 10
56.11298825099516
 20
37.99558798645176
 30
0.0
 11
56.11298825099516
 21
39.69402104606251
 31
0.0
  0
LINE
  5
2D9
330
2
100
AcDbEntity
  8
GAIKEI
 62
     1
100
AcDbLine
 10
57.14556819830187
 20
37.93318747165051
 30
0.0
 11
55.08362737786467
 21
37.86286308195383
 31
0.0
  0
LINE
  5
2DA
330
2
100
AcDbEntity
  8
GAIKEI
 62
     1
100
AcDbLine
 10
57.24337852904193
 20
39.65539215594748
 30
0.0
 11
57.24337852904193
 21
38.03421687656685
 31
0.0
  0
LINE
  5
2DB
330
2
100
AcDbEntity
  8
GAIKEI
 62
     1
100
AcDbLine
 10
55.08362737786467
 20
39.82674595056045
 30
0.0
 11
57.14556819830187
 21
39.75666918195429
 31
0.0
  0
ELLIPSE
  5
2DC
330
2
100
AcDbEntity
  8
GAIKEI
 62
     1
100
AcDbEllipse
 10
-43.48477821747019
 20
44.18622581028887
 30
0.0
 11
0.2852228014029379
 21
0.0
 31
0.0
210
0.0
220
0.0
230
1.0
 40
0.4024069559575568
 41
0.0
 42
6.283185307179586
  0
DIMENSION
  5
2DD
330
2
100
AcDbEntity
  8
SUNPO
100
AcDbDimension
  2
*D1
 10
-4.949265920880178
 20
70.9421370753177
 30
0.0
 11
-25.94926592088018
 21
72.6921370753177
 31
0.0
 70
    33
  1
420
 71
     5
 42
42.0
  3
STANDARD
100
AcDbAlignedDimension
 13
-46.94926592088018
 23
62.94213707531771
 33
0.0
 14
-4.949265920880179
 24
62.94213707531771
 34
0.0
1001
ACAD
1000
DSTYLE
1002
{
1070
   287
1070
     3
1070
   287
1070
     3
1070
    40
1040
1.0
1070
   140
1040
2.5
1070
   147
1040
0.5
1070
   172
1070
     1
1070
   279
1070
     0
1070
   288
1070
     0
1002
}
  0
DIMENSION
  5
2EB
330
2
100
AcDbEntity
  8
SUNPO
100
AcDbDimension
  2
*D2
 10
6.050734079119933
 20
62.94213707531771
 30
0.0
 11
4.300734079119922
 21
49.69213707531773
 31
0.0
 70
    33
  1
265
 71
     5
 42
26.49999999999994
  3
STANDARD
100
AcDbAlignedDimension
 13
-1.949265920880066
 23
36.44213707531775
 33
0.0
 14
-1.949265920880066
 24
62.94213707531771
 34
0.0
1001
ACAD
1000
DSTYLE
1002
{
1070
   287
1070
     3
1070
   287
1070
     3
1070
    40
1040
1.0
1070
   140
1040
2.5
1070
   147
1040
0.5
1070
   172
1070
     1
1070
   279
1070
     0
1070
   288
1070
     0
1002
}
  0
DIMENSION
  5
2F8
330
2
100
AcDbEntity
  8
SUNPO
100
AcDbDimension
  2
*D3
 10
20.04340741053167
 20
70.94213707531764
 30
0.0
 11
38.64339296978673
 21
72.69213707531777
 31
0.0
 70
    33
  1
372
 71
     5
 42
37.19997111851014
  3
STANDARD
100
AcDbAlignedDimension
 13
57.24337852904188
 23
62.9421370753179
 33
0.0
 14
20.04340741053173
 24
62.94213707531764
 34
0.0
1001
ACAD
1000
DSTYLE
1002
{
1070
   287
1070
     3
1070
   287
1070
     3
1070
    40
1040
1.0
1070
   140
1040
2.5
1070
   147
1040
0.5
1070
   172
1070
     1
1070
   279
1070
     0
1070
   288
1070
     0
1002
}
  0
LINE
  5
305
330
2
100
AcDbEntity
  8
WAKU
 62
     1
100
AcDbLine
 10
-59.94050173026522
 20
-112.9926729837068
 30
0.0
 11
65.05949826973483
 21
-112.9926729837068
 31
0.0
  0
TEXT
  5
307
330
2
100
AcDbEntity
  8
MOJI1
100
AcDbText
 10
-18.44050173026522
 20
-101.9926729837068
 30
0.0
 40
3.0
  1
×１
100
AcDbText
  0
TEXT
  5
308
330
2
100
AcDbEntity
  8
MOJI1
100
AcDbText
 10
-57.44050173026522
 20
-101.9926729837068
 30
0.0
 40
3.0
  1
拡張スロット部
100
AcDbText
  0
LINE
  5
309
330
2
100
AcDbEntity
  8
WAKU
 62
     1
100
AcDbLine
 10
-59.94050173026522
 20
-97.99267298370683
 30
0.0
 11
65.05949826973483
 21
-97.99267298370683
 31
0.0
  0
TEXT
  5
30A
330
2
100
AcDbEntity
  8
MOJI1
100
AcDbText
 10
-18.44050173026522
 20
-36.99267298370682
 30
0.0
 40
3.0
  1
ＡＣ１００Ｖ　５０／６０Ｈｚ
100
AcDbText
  0
LINE
  5
30B
330
2
100
AcDbEntity
  8
WAKU
 62
     4
100
AcDbLine
 10
65.05949826973483
 20
-32.99267298370682
 30
0.0
 11
-59.94050173026517
 21
-32.99267298370682
 31
0.0
  0
LINE
  5
30C
330
2
100
AcDbEntity
  8
WAKU
 62
     1
100
AcDbLine
 10
65.05949826973483
 20
-37.99267298370682
 30
0.0
 11
-59.94050173026522
 21
-37.99267298370682
 31
0.0
  0
LINE
  5
30D
330
2
100
AcDbEntity
  8
WAKU
 62
     1
100
AcDbLine
 10
65.05949826973483
 20
-42.99267298370682
 30
0.0
 11
-59.94050173026522
 21
-42.99267298370682
 31
0.0
  0
LINE
  5
30E
330
2
100
AcDbEntity
  8
WAKU
 62
     1
100
AcDbLine
 10
65.05949826973483
 20
-47.99267298370682
 30
0.0
 11
-59.94050173026522
 21
-47.99267298370682
 31
0.0
  0
LINE
  5
30F
330
2
100
AcDbEntity
  8
WAKU
 62
     1
100
AcDbLine
 10
65.05949826973483
 20
-52.99267298370683
 30
0.0
 11
-59.94050173026522
 21
-52.99267298370683
 31
0.0
  0
LINE
  5
310
330
2
100
AcDbEntity
  8
WAKU
 62
     1
100
AcDbLine
 10
65.05949826973483
 20
-57.99267298370683
 30
0.0
 11
-59.94050173026522
 21
-57.99267298370683
 31
0.0
  0
LINE
  5
311
330
2
100
AcDbEntity
  8
WAKU
 62
     1
100
AcDbLine
 10
65.05949826973483
 20
-62.99267298370683
 30
0.0
 11
-59.94050173026522
 21
-62.99267298370683
 31
0.0
  0
LINE
  5
312
330
2
100
AcDbEntity
  8
WAKU
 62
     1
100
AcDbLine
 10
65.05949826973483
 20
-67.99267298370683
 30
0.0
 11
-59.94050173026522
 21
-67.99267298370683
 31
0.0
  0
LINE
  5
313
330
2
100
AcDbEntity
  8
WAKU
 62
     1
100
AcDbLine
 10
65.05949826973483
 20
-72.99267298370683
 30
0.0
 11
-59.94050173026522
 21
-72.99267298370683
 31
0.0
  0
LINE
  5
314
330
2
100
AcDbEntity
  8
WAKU
 62
     1
100
AcDbLine
 10
65.05949826973483
 20
-77.99267298370683
 30
0.0
 11
-59.94050173026522
 21
-77.99267298370683
 31
0.0
  0
LINE
  5
315
330
2
100
AcDbEntity
  8
WAKU
 62
     1
100
AcDbLine
 10
65.05949826973483
 20
-82.99267298370683
 30
0.0
 11
-59.94050173026522
 21
-82.99267298370683
 31
0.0
  0
LINE
  5
316
330
2
100
AcDbEntity
  8
WAKU
 62
     1
100
AcDbLine
 10
-59.94050173026522
 20
-92.99267298370683
 30
0.0
 11
65.05949826973483
 21
-92.99267298370683
 31
0.0
  0
LINE
  5
317
330
2
100
AcDbEntity
  8
WAKU
 62
     1
100
AcDbLine
 10
-59.94050173026522
 20
-102.9926729837068
 30
0.0
 11
65.05949826973483
 21
-102.9926729837068
 31
0.0
  0
LINE
  5
318
330
2
100
AcDbEntity
  8
WAKU
 62
     1
100
AcDbLine
 10
65.05949826973483
 20
-87.99267298370683
 30
0.0
 11
-59.94050173026522
 21
-87.99267298370683
 31
0.0
  0
LINE
  5
319
330
2
100
AcDbEntity
  8
WAKU
 62
     4
100
AcDbLine
 10
-59.94050173026522
 20
-117.9926729837068
 30
0.0
 11
65.05949826973483
 21
-117.9926729837068
 31
0.0
  0
LINE
  5
31A
330
2
100
AcDbEntity
  8
WAKU
 62
     4
100
AcDbLine
 10
-20.94050173026522
 20
-117.9926729837068
 30
0.0
 11
-20.94050173026522
 21
-32.99267298370682
 31
0.0
  0
LINE
  5
31B
330
2
100
AcDbEntity
  8
WAKU
 62
     4
100
AcDbLine
 10
-59.94050173026522
 20
-32.99267298370682
 30
0.0
 11
-59.94050173026522
 21
-117.9926729837068
 31
0.0
  0
TEXT
  5
31C
330
2
100
AcDbEntity
  8
MOJI1
100
AcDbText
 10
-18.44050173026522
 20
-81.99267298370683
 30
0.0
 40
3.0
  1
アラーム出力×２１
100
AcDbText
  0
TEXT
  5
31D
330
2
100
AcDbEntity
  8
MOJI1
100
AcDbText
 10
-18.44050173026522
 20
-76.99267298370682
 30
0.0
 40
3.0
  1
データ端子×４
100
AcDbText
  0
TEXT
  5
31E
330
2
100
AcDbEntity
  8
MOJI1
100
AcDbText
 10
-18.44050173026522
 20
-71.99267298370682
 30
0.0
 40
3.0
  1
モニター出力×１６
100
AcDbText
  0
TEXT
  5
31F
330
2
100
AcDbEntity
  8
MOJI1
100
AcDbText
 10
-18.44050173026522
 20
-86.99267298370683
 30
0.0
 40
3.0
  1
増設用端子×２
100
AcDbText
  0
TEXT
  5
320
330
2
100
AcDbEntity
  8
MOJI1
100
AcDbText
 10
-18.44050173026522
 20
-51.99267298370682
 30
0.0
 40
3.0
  1
映像出力×４
100
AcDbText
  0
TEXT
  5
321
330
2
100
AcDbEntity
  8
MOJI1
100
AcDbText
 10
-18.44050173026522
 20
-46.99267298370682
 30
0.0
 40
3.0
  1
カメラ入力×３２
100
AcDbText
  0
TEXT
  5
322
330
2
100
AcDbEntity
  8
MOJI1
100
AcDbText
 10
-57.44050173026522
 20
-36.99267298370682
 30
0.0
 40
3.0
  1
電　源
100
AcDbText
  0
TEXT
  5
323
330
2
100
AcDbEntity
  8
MOJI1
100
AcDbText
 10
-57.44050173026522
 20
-66.99267298370682
 30
0.0
 40
3.0
  1
ビデオ出力ボード部
100
AcDbText
  0
TEXT
  5
324
330
2
100
AcDbEntity
  8
MOJI1
100
AcDbText
 10
-18.44050173026522
 20
-61.99267298370682
 30
0.0
 40
3.0
  1
増設用端子×２
100
AcDbText
  0
TEXT
  5
325
330
2
100
AcDbEntity
  8
MOJI1
100
AcDbText
 10
-18.44050173026522
 20
-56.99267298370682
 30
0.0
 40
3.0
  1
アラーム入力端子×３２
100
AcDbText
  0
LINE
  5
326
330
2
100
AcDbEntity
  8
WAKU
 62
     4
100
AcDbLine
 10
65.05949826973483
 20
-117.9926729837068
 30
0.0
 11
65.05949826973483
 21
-32.99267298370682
 31
0.0
  0
TEXT
  5
327
330
2
100
AcDbEntity
  8
MOJI1
100
AcDbText
 10
-57.44050173026522
 20
-41.99267298370682
 30
0.0
 40
3.0
  1
ビデオ入力ボード部
100
AcDbText
  0
LINE
  5
328
330
2
100
AcDbEntity
  8
WAKU
 62
     1
100
AcDbLine
 10
-59.94050173026522
 20
-107.9926729837068
 30
0.0
 11
65.05949826973483
 21
-107.9926729837068
 31
0.0
  0
TEXT
  5
329
330
2
100
AcDbEntity
  8
MOJI1
100
AcDbText
 10
-18.44050173026522
 20
-96.99267298370683
 30
0.0
 40
3.0
  1
シリアル端子×２
100
AcDbText
  0
TEXT
  5
32A
330
2
100
AcDbEntity
  8
MOJI1
100
AcDbText
 10
-18.44050173026522
 20
-91.99267298370683
 30
0.0
 40
3.0
  1
外部同期入出力×各１
100
AcDbText
  0
TEXT
  5
32B
330
2
100
AcDbEntity
  8
MOJI1
100
AcDbText
 10
-57.44050173026522
 20
-106.9926729837068
 30
0.0
 40
3.0
  1
機　能
100
AcDbText
  0
TEXT
  5
32C
330
2
100
AcDbEntity
  8
MOJI1
100
AcDbText
 10
-18.44050173026522
 20
-106.9926729837068
 30
0.0
 40
3.0
  1
モニター制御、カメラ／レシーバ制御
100
AcDbText
  0
TEXT
  5
32D
330
2
100
AcDbEntity
  8
MOJI1
100
AcDbText
 10
-18.44050173026522
 20
-111.9926729837068
 30
0.0
 40
3.0
  1
レコーダー制御、アラーム制御、タイマー制御
100
AcDbText
  0
ENDSEC
  0
SECTION
  2
OBJECTS
  0
DICTIONARY
  5
9
330
0
100
AcDbDictionary
281
     1
  3
ACAD_COLOR
350
32
  3
ACAD_GROUP
350
2E
  3
ACAD_LAYOUT
350
D
  3
ACAD_MATERIAL
350
31
  3
ACAD_MLINESTYLE
350
2F
  3
ACAD_PLOTSETTINGS
350
30
  3
ACAD_PLOTSTYLENAME
350
8
  3
AcDbVariableDictionary
350
33D
  0
DICTIONARY
  5
15
330
14
100
AcDbDictionary
280
     1
281
     1
  3
ACAD_LAYERFILTERS
360
16
  3
ACAD_LAYERSTATES
360
18
  0
DICTIONARY
  5
3
330
2
100
AcDbDictionary
280
     1
281
     1
  0
DICTIONARY
  5
F
330
E
100
AcDbDictionary
280
     1
281
     1
  0
DICTIONARY
  5
32
102
{ACAD_REACTORS
330
9
102
}
330
9
100
AcDbDictionary
281
     1
  0
DICTIONARY
  5
2E
102
{ACAD_REACTORS
330
9
102
}
330
9
100
AcDbDictionary
281
     1
  0
DICTIONARY
  5
D
102
{ACAD_REACTORS
330
9
102
}
330
9
100
AcDbDictionary
281
     1
  3
Model
350
C
  3
ﾚｲｱｳﾄ1
350
13
  0
DICTIONARY
  5
31
102
{ACAD_REACTORS
330
9
102
}
330
9
100
AcDbDictionary
281
     1
  0
DICTIONARY
  5
2F
102
{ACAD_REACTORS
330
9
102
}
330
9
100
AcDbDictionary
281
     1
  3
STANDARD
350
34
  0
DICTIONARY
  5
30
102
{ACAD_REACTORS
330
9
102
}
330
9
100
AcDbDictionary
281
     1
  0
ACDBDICTIONARYWDFLT
  5
8
102
{ACAD_REACTORS
330
9
102
}
330
9
100
AcDbDictionary
281
     1
  3
Normal
350
7
100
AcDbDictionaryWithDefault
340
7
  0
DICTIONARY
  5
33D
102
{ACAD_REACTORS
330
9
102
}
330
9
100
AcDbDictionary
281
     1
  3
DIMASSOC
350
33F
  3
HIDETEXT
350
33E
  3
PROJECTNAME
350
340
  0
DICTIONARY
  5
16
102
{ACAD_REACTORS
330
15
102
}
330
15
100
AcDbDictionary
280
     1
281
     1
  3
ロック画層
360
17
  0
DICTIONARY
  5
18
102
{ACAD_REACTORS
330
15
102
}
330
15
100
AcDbDictionary
281
     1
  0
LAYOUT
  5
C
102
{ACAD_XDICTIONARY
360
339
102
}
102
{ACAD_REACTORS
330
D
102
}
330
D
100
AcDbPlotSettings
  1

  2
\\URANUS\8FPAM09
  4
A4
  6

 40
4.180416584014892
 41
4.349743366241455
 42
4.222747802734375
 43
4.349761962890625
 44
210.0156707763671
 45
297.0106506347656
 46
6.099999999999999
 47
0.0
 48
0.0
 49
0.0
140
0.0
141
0.0
142
1.0
143
1.367326719178609
 70
 11956
 72
     1
 73
     0
 74
     1
  7
tmsacad.ctb
 75
     0
147
0.7313540984562396
148
0.5
149
0.0016206966918162
100
AcDbLayout
  1
Model
 70
     1
 71
     0
 10
0.0
 20
0.0
 11
12.0
 21
9.0
 12
0.0
 22
0.0
 32
0.0
 14
0.0
 24
0.0
 34
0.0
 15
0.0
 25
0.0
 35
0.0
146
0.0
 13
0.0
 23
0.0
 33
0.0
 16
1.0
 26
0.0
 36
0.0
 17
0.0
 27
1.0
 37
0.0
 76
     0
330
2
  0
LAYOUT
  5
13
102
{ACAD_XDICTIONARY
360
33B
102
}
102
{ACAD_REACTORS
330
D
102
}
330
D
100
AcDbPlotSettings
  1

  2
C:\Program Files\ACAD2000\plotters\DWF ePlot.pc3
  4

  6

 40
0.0
 41
0.0
 42
0.0
 43
0.0
 44
0.0
 45
0.0
 46
0.0
 47
0.0
 48
0.0
 49
0.0
140
0.0
141
0.0
142
1.0
143
1.0
 70
   688
 72
     0
 73
     0
 74
     5
  7
tmsacad.ctb
 75
    16
147
1.0
148
0.0
149
0.0
100
AcDbLayout
  1
ﾚｲｱｳﾄ1
 70
     1
 71
     1
 10
0.0
 20
0.0
 11
12.0
 21
9.0
 12
0.0
 22
0.0
 32
0.0
 14
1.000000000000000E+20
 24
1.000000000000000E+20
 34
1.000000000000000E+20
 15
-1.000000000000000E+20
 25
-1.000000000000000E+20
 35
-1.000000000000000E+20
146
0.0
 13
0.0
 23
0.0
 33
0.0
 16
1.0
 26
0.0
 36
0.0
 17
0.0
 27
1.0
 37
0.0
 76
     0
330
E
  0
MLINESTYLE
  5
34
102
{ACAD_REACTORS
330
2F
102
}
330
2F
100
AcDbMlineStyle
  2
STANDARD
 70
     0
  3

 62
   256
 51
90.0
 52
90.0
 71
     2
 49
0.5
 62
   256
  6
BYLAYER
 49
-0.5
 62
   256
  6
BYLAYER
  0
ACDBPLACEHOLDER
  5
7
102
{ACAD_REACTORS
330
8
102
}
330
8
  0
DICTIONARYVAR
  5
33F
102
{ACAD_REACTORS
330
33D
102
}
330
33D
100
DictionaryVariables
280
     0
  1
1
  0
DICTIONARYVAR
  5
33E
102
{ACAD_REACTORS
330
33D
102
}
330
33D
100
DictionaryVariables
280
     0
  1
1
  0
DICTIONARYVAR
  5
340
102
{ACAD_REACTORS
330
33D
102
}
330
33D
100
DictionaryVariables
280
     0
  1

  0
XRECORD
  5
17
102
{ACAD_REACTORS
330
16
102
}
330
16
100
AcDbXrecord
280
     1
  1
ロック画層
  1
*
  1
*
  1
*
 70
   256
  1
*
  1
*
  0
DICTIONARY
  5
339
330
C
100
AcDbDictionary
280
     1
281
     1
  3
ACAD_XREC_ROUNDTRIP
360
33A
  0
DICTIONARY
  5
33B
330
13
100
AcDbDictionary
280
     1
281
     1
  3
ACAD_XREC_ROUNDTRIP
360
33C
  0
XRECORD
  5
33A
102
{ACAD_REACTORS
330
339
102
}
330
339
100
AcDbXrecord
280
     1
102
SHADEPLOT
 70
     0
102
SHADEPLOTRESLEVEL
 70
     2
102
SHADEPLOTCUSTOMDPI
 70
   300
  0
XRECORD
  5
33C
102
{ACAD_REACTORS
330
33B
102
}
330
33B
100
AcDbXrecord
280
     1
102
SHADEPLOT
 70
     0
102
SHADEPLOTRESLEVEL
 70
     2
102
SHADEPLOTCUSTOMDPI
 70
   300
  0
ENDSEC
  0
EOF
