  0
SECTION
  2
HEADER
  9
$ACADVER
  1
AC1015
  9
$ACADMAINTVER
 70
    20
  9
$DWGCODEPAGE
  3
ANSI_932
  9
$INSBASE
 10
0.0
 20
372.4992141396417
 30
0.0
  9
$EXTMIN
 10
1.993230709841839
 20
257.4894550161468
 30
-0.0015258207003583
  9
$EXTMAX
 10
127.0122361786972
 20
370.2422763936049
 30
0.0000000349246037
  9
$LIMMIN
 10
-41.81177879839061
 20
255.592517631642
  9
$LIMMAX
 10
169.4632482513187
 20
396.3826272616728
  9
$ORTHOMODE
 70
     1
  9
$REGENMODE
 70
     1
  9
$FILLMODE
 70
     1
  9
$QTEXTMODE
 70
     0
  9
$MIRRTEXT
 70
     1
  9
$LTSCALE
 40
1.0
  9
$ATTMODE
 70
     1
  9
$TEXTSIZE
 40
2.5
  9
$TRACEWID
 40
0.5
  9
$TEXTSTYLE
  7
STANDARD
  9
$CLAYER
  8
0
  9
$CELTYPE
  6
ByLayer
  9
$CECOLOR
 62
   256
  9
$CELTSCALE
 40
1.0
  9
$DISPSILH
 70
     0
  9
$DIMSCALE
 40
1.0
  9
$DIMASZ
 40
2.0
  9
$DIMEXO
 40
2.0
  9
$DIMDLI
 40
8.0
  9
$DIMRND
 40
0.0
  9
$DIMDLE
 40
0.0
  9
$DIMEXE
 40
2.0
  9
$DIMTP
 40
0.0
  9
$DIMTM
 40
0.0
  9
$DIMTXT
 40
2.5
  9
$DIMCEN
 40
0.0
  9
$DIMTSZ
 40
0.0
  9
$DIMTOL
 70
     0
  9
$DIMLIM
 70
     0
  9
$DIMTIH
 70
     0
  9
$DIMTOH
 70
     0
  9
$DIMSE1
 70
     0
  9
$DIMSE2
 70
     0
  9
$DIMTAD
 70
     3
  9
$DIMZIN
 70
     0
  9
$DIMBLK
  1

  9
$DIMASO
 70
     1
  9
$DIMSHO
 70
     1
  9
$DIMPOST
  1

  9
$DIMAPOST
  1

  9
$DIMALT
 70
     0
  9
$DIMALTD
 70
     2
  9
$DIMALTF
 40
25.4
  9
$DIMLFAC
 40
1.0
  9
$DIMTOFL
 70
     1
  9
$DIMTVP
 40
0.0
  9
$DIMTIX
 70
     0
  9
$DIMSOXD
 70
     0
  9
$DIMSAH
 70
     1
  9
$DIMBLK1
  1
OPEN30
  9
$DIMBLK2
  1
OPEN30
  9
$DIMSTYLE
  2
STANDARD
  9
$DIMCLRD
 70
     0
  9
$DIMCLRE
 70
     0
  9
$DIMCLRT
 70
     0
  9
$DIMTFAC
 40
1.0
  9
$DIMGAP
 40
0.5
  9
$DIMJUST
 70
     0
  9
$DIMSD1
 70
     0
  9
$DIMSD2
 70
     0
  9
$DIMTOLJ
 70
     1
  9
$DIMTZIN
 70
     0
  9
$DIMALTZ
 70
     0
  9
$DIMALTTZ
 70
     0
  9
$DIMUPT
 70
     0
  9
$DIMDEC
 70
     4
  9
$DIMTDEC
 70
     4
  9
$DIMALTU
 70
     2
  9
$DIMALTTD
 70
     2
  9
$DIMTXSTY
  7
STANDARD
  9
$DIMAUNIT
 70
     0
  9
$DIMADEC
 70
     0
  9
$DIMALTRND
 40
0.0
  9
$DIMAZIN
 70
     0
  9
$DIMDSEP
 70
    46
  9
$DIMATFIT
 70
     3
  9
$DIMFRAC
 70
     0
  9
$DIMLDRBLK
  1

  9
$DIMLUNIT
 70
     2
  9
$DIMLWD
 70
    -2
  9
$DIMLWE
 70
    -2
  9
$DIMTMOVE
 70
     0
  9
$LUNITS
 70
     2
  9
$LUPREC
 70
     4
  9
$SKETCHINC
 40
0.1
  9
$FILLETRAD
 40
1.5
  9
$AUNITS
 70
     0
  9
$AUPREC
 70
     0
  9
$MENU
  1
ACAD
  9
$ELEVATION
 40
0.0
  9
$PELEVATION
 40
0.0
  9
$THICKNESS
 40
0.0
  9
$LIMCHECK
 70
     0
  9
$CHAMFERA
 40
0.0
  9
$CHAMFERB
 40
0.0
  9
$CHAMFERC
 40
0.0
  9
$CHAMFERD
 40
0.0
  9
$SKPOLY
 70
     0
  9
$TDCREATE
 40
2451814.815532581
  9
$TDUCREATE
 40
2451814.440532581
  9
$TDUPDATE
 40
2453731.692422778
  9
$TDUUPDATE
 40
2453731.317422778
  9
$TDINDWG
 40
0.5914933333
  9
$TDUSRTIMER
 40
0.5914933333
  9
$USRTIMER
 70
     1
  9
$ANGBASE
 50
0.0
  9
$ANGDIR
 70
     0
  9
$PDMODE
 70
     0
  9
$PDSIZE
 40
0.0
  9
$PLINEWID
 40
0.0
  9
$SPLFRAME
 70
     0
  9
$SPLINETYPE
 70
     6
  9
$SPLINESEGS
 70
     8
  9
$HANDSEED
  5
1DF
  9
$SURFTAB1
 70
     6
  9
$SURFTAB2
 70
     6
  9
$SURFTYPE
 70
     6
  9
$SURFU
 70
     6
  9
$SURFV
 70
     6
  9
$UCSBASE
  2

  9
$UCSNAME
  2

  9
$UCSORG
 10
0.0
 20
0.0
 30
0.0
  9
$UCSXDIR
 10
1.0
 20
0.0
 30
0.0
  9
$UCSYDIR
 10
0.0
 20
1.0
 30
0.0
  9
$UCSORTHOREF
  2

  9
$UCSORTHOVIEW
 70
     0
  9
$UCSORGTOP
 10
0.0
 20
0.0
 30
0.0
  9
$UCSORGBOTTOM
 10
0.0
 20
0.0
 30
0.0
  9
$UCSORGLEFT
 10
0.0
 20
0.0
 30
0.0
  9
$UCSORGRIGHT
 10
0.0
 20
0.0
 30
0.0
  9
$UCSORGFRONT
 10
0.0
 20
0.0
 30
0.0
  9
$UCSORGBACK
 10
0.0
 20
0.0
 30
0.0
  9
$PUCSBASE
  2

  9
$PUCSNAME
  2

  9
$PUCSORG
 10
0.0
 20
0.0
 30
0.0
  9
$PUCSXDIR
 10
1.0
 20
0.0
 30
0.0
  9
$PUCSYDIR
 10
0.0
 20
1.0
 30
0.0
  9
$PUCSORTHOREF
  2

  9
$PUCSORTHOVIEW
 70
     0
  9
$PUCSORGTOP
 10
0.0
 20
0.0
 30
0.0
  9
$PUCSORGBOTTOM
 10
0.0
 20
0.0
 30
0.0
  9
$PUCSORGLEFT
 10
0.0
 20
0.0
 30
0.0
  9
$PUCSORGRIGHT
 10
0.0
 20
0.0
 30
0.0
  9
$PUCSORGFRONT
 10
0.0
 20
0.0
 30
0.0
  9
$PUCSORGBACK
 10
0.0
 20
0.0
 30
0.0
  9
$USERI1
 70
     0
  9
$USERI2
 70
     0
  9
$USERI3
 70
     0
  9
$USERI4
 70
     0
  9
$USERI5
 70
     0
  9
$USERR1
 40
0.0
  9
$USERR2
 40
0.0
  9
$USERR3
 40
0.0
  9
$USERR4
 40
0.0
  9
$USERR5
 40
0.0
  9
$WORLDVIEW
 70
     1
  9
$SHADEDGE
 70
     3
  9
$SHADEDIF
 70
    70
  9
$TILEMODE
 70
     1
  9
$MAXACTVP
 70
    48
  9
$PINSBASE
 10
0.0
 20
0.0
 30
0.0
  9
$PLIMCHECK
 70
     0
  9
$PEXTMIN
 10
1.000000000000000E+20
 20
1.000000000000000E+20
 30
1.000000000000000E+20
  9
$PEXTMAX
 10
-1.000000000000000E+20
 20
-1.000000000000000E+20
 30
-1.000000000000000E+20
  9
$PLIMMIN
 10
0.0
 20
0.0
  9
$PLIMMAX
 10
12.0
 20
9.0
  9
$UNITMODE
 70
     0
  9
$VISRETAIN
 70
     1
  9
$PLINEGEN
 70
     0
  9
$PSLTSCALE
 70
     1
  9
$TREEDEPTH
 70
  3020
  9
$CMLSTYLE
  2
Standard
  9
$CMLJUST
 70
     0
  9
$CMLSCALE
 40
1.0
  9
$PROXYGRAPHICS
 70
     1
  9
$MEASUREMENT
 70
     0
  9
$CELWEIGHT
370
    -1
  9
$ENDCAPS
280
     0
  9
$JOINSTYLE
280
     0
  9
$LWDISPLAY
290
     0
  9
$INSUNITS
 70
     0
  9
$HYPERLINKBASE
  1

  9
$STYLESHEET
  1

  9
$XEDIT
290
     1
  9
$CEPSNTYPE
380
     0
  9
$PSTYLEMODE
290
     1
  9
$FINGERPRINTGUID
  2
{183BB634-0E6A-4889-81DC-B851DCBD5C80}
  9
$VERSIONGUID
  2
{DC347414-6F53-40D0-9597-BE295D078433}
  9
$EXTNAMES
290
     1
  9
$PSVPSCALE
 40
0.0
  9
$OLESTARTUP
290
     0
  0
ENDSEC
  0
SECTION
  2
CLASSES
  0
CLASS
  1
ACDBDICTIONARYWDFLT
  2
AcDbDictionaryWithDefault
  3
ObjectDBX Classes
 90
        0
280
     0
281
     0
  0
CLASS
  1
DICTIONARYVAR
  2
AcDbDictionaryVar
  3
ObjectDBX Classes
 90
        0
280
     0
281
     0
  0
CLASS
  1
ACDBPLACEHOLDER
  2
AcDbPlaceHolder
  3
ObjectDBX Classes
 90
        0
280
     0
281
     0
  0
CLASS
  1
LAYOUT
  2
AcDbLayout
  3
ObjectDBX Classes
 90
        0
280
     0
281
     0
  0
ENDSEC
  0
SECTION
  2
TABLES
  0
TABLE
  2
VPORT
  5
17A
330
0
100
AcDbSymbolTable
 70
     2
  0
VPORT
  5
1D6
330
17A
100
AcDbSymbolTableRecord
100
AcDbViewportTableRecord
  2
*Active
 70
     0
 10
0.0
 20
0.0
 11
1.0
 21
1.0
 12
64.50273344426955
 22
313.8658657048759
 13
0.0
 23
0.0
 14
1.0
 24
1.0
 15
0.0
 25
0.0
 16
0.0
 26
0.0
 36
1.0
 17
0.0
 27
0.0
 37
0.0
 40
113.719274132122
 41
1.589413447782546
 42
50.0
 43
0.0
 44
0.0
 50
0.0
 51
0.0
 71
     0
 72
  1000
 73
     1
 74
     0
 75
     0
 76
     0
 77
     0
 78
     0
281
     0
 65
     1
110
0.0
120
0.0
130
0.0
111
1.0
121
0.0
131
0.0
112
0.0
122
1.0
132
0.0
 79
     0
146
0.0
  0
ENDTAB
  0
TABLE
  2
LTYPE
  5
177
330
0
100
AcDbSymbolTable
 70
     2
  0
LTYPE
  5
185
330
177
100
AcDbSymbolTableRecord
100
AcDbLinetypeTableRecord
  2
ByBlock
 70
     0
  3

 72
    65
 73
     0
 40
0.0
  0
LTYPE
  5
186
330
177
100
AcDbSymbolTableRecord
100
AcDbLinetypeTableRecord
  2
ByLayer
 70
     0
  3

 72
    65
 73
     0
 40
0.0
  0
LTYPE
  5
187
330
177
100
AcDbSymbolTableRecord
100
AcDbLinetypeTableRecord
  2
CONTINUOUS
 70
     0
  3
Solid line
 72
    65
 73
     0
 40
0.0
  0
LTYPE
  5
198
330
177
100
AcDbSymbolTableRecord
100
AcDbLinetypeTableRecord
  2
DASHDOT
 70
     0
  3
__ . __ . __ .
 72
    65
 73
     4
 40
101.1315789473684
 49
50.56578947368421
 74
     0
 49
-25.28289473684211
 74
     0
 49
0.0
 74
     0
 49
-25.28289473684211
 74
     0
  0
ENDTAB
  0
TABLE
  2
LAYER
  5
174
330
0
100
AcDbSymbolTable
 70
     7
  0
LAYER
  5
182
330
174
100
AcDbSymbolTableRecord
100
AcDbLayerTableRecord
  2
0
 70
     0
 62
     7
  6
CONTINUOUS
370
    -3
390
181
  0
LAYER
  5
196
330
174
100
AcDbSymbolTableRecord
100
AcDbLayerTableRecord
  2
SUNPO
 70
     0
 62
     3
  6
CONTINUOUS
370
    -3
390
181
  0
LAYER
  5
199
330
174
100
AcDbSymbolTableRecord
100
AcDbLayerTableRecord
  2
DEFPOINTS
 70
     0
 62
     7
  6
CONTINUOUS
290
     0
370
    -3
390
181
  0
LAYER
  5
19A
330
174
100
AcDbSymbolTableRecord
100
AcDbLayerTableRecord
  2
WAKU
 70
     0
 62
     4
  6
CONTINUOUS
370
    -3
390
181
  0
LAYER
  5
19B
330
174
100
AcDbSymbolTableRecord
100
AcDbLayerTableRecord
  2
MOJI1
 70
     0
 62
     2
  6
CONTINUOUS
370
    -3
390
181
  0
LAYER
  5
19C
330
174
100
AcDbSymbolTableRecord
100
AcDbLayerTableRecord
  2
GAIKEI
 70
     0
 62
     7
  6
CONTINUOUS
370
    -3
390
181
  0
LAYER
  5
19D
330
174
100
AcDbSymbolTableRecord
100
AcDbLayerTableRecord
  2
TOUROKU
 70
     0
 62
     1
  6
CONTINUOUS
370
    -3
390
181
  0
ENDTAB
  0
TABLE
  2
STYLE
  5
175
330
0
100
AcDbSymbolTable
 70
     2
  0
STYLE
  5
183
330
175
100
AcDbSymbolTableRecord
100
AcDbTextStyleTableRecord
  2
STANDARD
 70
     0
 40
0.0
 41
1.0
 50
0.0
 71
     0
 42
2.5
  3
MONOTXT.shx
  4
BIGFONT.shx
  0
ENDTAB
  0
TABLE
  2
VIEW
  5
178
330
0
100
AcDbSymbolTable
 70
     0
  0
ENDTAB
  0
TABLE
  2
UCS
  5
179
330
0
100
AcDbSymbolTable
 70
     0
  0
ENDTAB
  0
TABLE
  2
APPID
  5
17B
330
0
100
AcDbSymbolTable
 70
     1
  0
APPID
  5
184
330
17B
100
AcDbSymbolTableRecord
100
AcDbRegAppTableRecord
  2
ACAD
 70
     0
  0
ENDTAB
  0
TABLE
  2
DIMSTYLE
  5
17C
330
0
100
AcDbSymbolTable
 70
     1
100
AcDbDimStyleTable
 71
     1
340
19F
  0
DIMSTYLE
105
19F
102
{ACAD_REACTORS
330
D6
330
C7
330
37
102
}
330
17C
100
AcDbSymbolTableRecord
100
AcDbDimStyleTableRecord
  2
STANDARD
 70
     0
 40
0.0
 41
2.0
 42
2.0
 43
8.0
 44
2.0
 73
     0
 74
     0
 77
     3
140
3.0
141
0.0
173
     1
279
     2
340
183
  0
ENDTAB
  0
TABLE
  2
BLOCK_RECORD
  5
173
330
0
100
AcDbSymbolTable
 70
     9
  0
BLOCK_RECORD
  5
192
330
173
100
AcDbSymbolTableRecord
100
AcDbBlockTableRecord
  2
*Model_Space
340
195
  0
BLOCK_RECORD
  5
18E
330
173
100
AcDbSymbolTableRecord
100
AcDbBlockTableRecord
  2
*Paper_Space
340
191
  0
BLOCK_RECORD
  5
1A6
330
173
100
AcDbSymbolTableRecord
100
AcDbBlockTableRecord
  2
_OPEN30
340
0
102
{BLKREFS
331
3C
331
3D
331
DB
331
DC
331
CC
331
CD
331
1B3
331
1B4
331
1BF
331
1C0
331
1CB
331
1CC
102
}
  0
BLOCK_RECORD
  5
1AF
330
173
100
AcDbSymbolTableRecord
100
AcDbBlockTableRecord
  2
*D6
340
0
  0
BLOCK_RECORD
  5
1BB
330
173
100
AcDbSymbolTableRecord
100
AcDbBlockTableRecord
  2
*D7
340
0
  0
BLOCK_RECORD
  5
1C7
330
173
100
AcDbSymbolTableRecord
100
AcDbBlockTableRecord
  2
*D8
340
0
  0
ENDTAB
  0
ENDSEC
  0
SECTION
  2
BLOCKS
  0
BLOCK
  5
193
330
192
100
AcDbEntity
  8
0
100
AcDbBlockBegin
  2
*Model_Space
 70
     0
 10
0.0
 20
0.0
 30
0.0
  3
*Model_Space
  1

  0
ENDBLK
  5
194
330
192
100
AcDbEntity
  8
0
100
AcDbBlockEnd
  0
BLOCK
  5
18F
330
18E
100
AcDbEntity
 67
     1
  8
0
100
AcDbBlockBegin
  2
*Paper_Space
 70
     0
 10
0.0
 20
0.0
 30
0.0
  3
*Paper_Space
  1

  0
ENDBLK
  5
190
330
18E
100
AcDbEntity
 67
     1
  8
0
100
AcDbBlockEnd
  0
BLOCK
  5
1A7
330
1A6
100
AcDbEntity
  8
0
100
AcDbBlockBegin
  2
_OPEN30
 70
     0
 10
0.0
 20
0.0
 30
0.0
  3
_OPEN30
  1

  0
LINE
  5
29
330
1A6
100
AcDbEntity
  8
0
  6
ByBlock
 62
     0
100
AcDbLine
 10
-1.0
 20
0.26794919
 30
0.0
 11
0.0
 21
0.0
 31
0.0
  0
LINE
  5
2A
330
1A6
100
AcDbEntity
  8
0
  6
ByBlock
 62
     0
100
AcDbLine
 10
0.0
 20
0.0
 30
0.0
 11
-1.0
 21
-0.26794919
 31
0.0
  0
LINE
  5
2B
330
1A6
100
AcDbEntity
  8
0
  6
ByBlock
 62
     0
100
AcDbLine
 10
0.0
 20
0.0
 30
0.0
 11
-1.0
 21
0.0
 31
0.0
  0
ENDBLK
  5
2D
330
1A6
100
AcDbEntity
  8
0
100
AcDbBlockEnd
  0
BLOCK
  5
1B9
330
1AF
100
AcDbEntity
  8
0
100
AcDbBlockBegin
  2
*D6
 70
     1
 10
0.0
 20
0.0
 30
0.0
  3
*D6
  1

  0
LINE
  5
1B0
330
1AF
100
AcDbEntity
  8
SUNPO
 62
     0
370
    -2
100
AcDbLine
 10
12.10835764491111
 20
344.5919923166215
 30
0.0
 11
12.10835764491111
 21
352.5919923166216
 31
0.0
  0
LINE
  5
1B1
330
1AF
100
AcDbEntity
  8
SUNPO
 62
     0
370
    -2
100
AcDbLine
 10
60.10835764491117
 20
344.5919923166216
 30
0.0
 11
60.10835764491117
 21
352.5919923166216
 31
0.0
  0
LINE
  5
1B2
330
1AF
100
AcDbEntity
  8
SUNPO
 62
     0
370
    -2
100
AcDbLine
 10
14.10835764491111
 20
350.5919923166216
 30
0.0
 11
58.10835764491117
 21
350.5919923166216
 31
0.0
  0
INSERT
  5
1B3
330
1AF
100
AcDbEntity
  8
SUNPO
 62
     0
370
    -2
100
AcDbBlockReference
  2
_OPEN30
 10
12.10835764491111
 20
350.5919923166216
 30
0.0
 41
2.0
 42
2.0
 43
2.0
 50
180.0
  0
INSERT
  5
1B4
330
1AF
100
AcDbEntity
  8
SUNPO
 62
     0
370
    -2
100
AcDbBlockReference
  2
_OPEN30
 10
60.10835764491117
 20
350.5919923166216
 30
0.0
 41
2.0
 42
2.0
 43
2.0
  0
MTEXT
  5
1B5
330
1AF
100
AcDbEntity
  8
SUNPO
 62
     0
100
AcDbMText
 10
36.10835764491115
 20
352.3419923166216
 30
0.0
 40
2.5
 41
0.0
 71
     5
 72
     1
  1
\A1;480
 73
     1
 44
1.0
1001
ACAD
1000
MTEXTBEGIN
1070
    73
1070
     1
1070
    44
1040
1.0
1070
    74
1070
     0
1000
MTEXTEND
  0
POINT
  5
1B6
330
1AF
100
AcDbEntity
  8
DEFPOINTS
 62
     0
100
AcDbPoint
 10
12.10835764491111
 20
342.5919923166215
 30
0.0
  0
POINT
  5
1B7
330
1AF
100
AcDbEntity
  8
DEFPOINTS
 62
     0
100
AcDbPoint
 10
60.10835764491117
 20
342.5919923166216
 30
0.0
  0
POINT
  5
1B8
330
1AF
100
AcDbEntity
  8
DEFPOINTS
 62
     0
100
AcDbPoint
 10
60.10835764491117
 20
350.5919923166216
 30
0.0
  0
ENDBLK
  5
1BA
330
1AF
100
AcDbEntity
  8
0
100
AcDbBlockEnd
  0
BLOCK
  5
1C5
330
1BB
100
AcDbEntity
  8
0
100
AcDbBlockBegin
  2
*D7
 70
     1
 10
0.0
 20
0.0
 30
0.0
  3
*D7
  1

  0
LINE
  5
1BC
330
1BB
100
AcDbEntity
  8
SUNPO
 62
     0
370
    -2
100
AcDbLine
 10
80.49312811168295
 20
344.5919923166215
 30
0.0
 11
80.49312811168295
 21
352.5919923166215
 31
0.0
  0
LINE
  5
1BD
330
1BB
100
AcDbEntity
  8
SUNPO
 62
     0
370
    -2
100
AcDbLine
 10
117.593128111683
 20
344.5919923166215
 30
0.0
 11
117.593128111683
 21
352.5919923166215
 31
0.0
  0
LINE
  5
1BE
330
1BB
100
AcDbEntity
  8
SUNPO
 62
     0
370
    -2
100
AcDbLine
 10
82.49312811168294
 20
350.5919923166215
 30
0.0
 11
115.593128111683
 21
350.5919923166215
 31
0.0
  0
INSERT
  5
1BF
330
1BB
100
AcDbEntity
  8
SUNPO
 62
     0
370
    -2
100
AcDbBlockReference
  2
_OPEN30
 10
80.49312811168295
 20
350.5919923166215
 30
0.0
 41
2.0
 42
2.0
 43
2.0
 50
180.0
  0
INSERT
  5
1C0
330
1BB
100
AcDbEntity
  8
SUNPO
 62
     0
370
    -2
100
AcDbBlockReference
  2
_OPEN30
 10
117.593128111683
 20
350.5919923166215
 30
0.0
 41
2.0
 42
2.0
 43
2.0
  0
MTEXT
  5
1C1
330
1BB
100
AcDbEntity
  8
SUNPO
 62
     0
100
AcDbMText
 10
99.04312811168297
 20
352.3419923166215
 30
0.0
 40
2.5
 41
0.0
 71
     5
 72
     1
  1
\A1;371
 73
     1
 44
1.0
1001
ACAD
1000
MTEXTBEGIN
1070
    73
1070
     1
1070
    44
1040
1.0
1070
    74
1070
     0
1000
MTEXTEND
  0
POINT
  5
1C2
330
1BB
100
AcDbEntity
  8
DEFPOINTS
 62
     0
100
AcDbPoint
 10
80.49312811168295
 20
342.5919923166215
 30
0.0
  0
POINT
  5
1C3
330
1BB
100
AcDbEntity
  8
DEFPOINTS
 62
     0
100
AcDbPoint
 10
117.593128111683
 20
342.5919923166215
 30
0.0
  0
POINT
  5
1C4
330
1BB
100
AcDbEntity
  8
DEFPOINTS
 62
     0
100
AcDbPoint
 10
117.593128111683
 20
350.5919923166215
 30
0.0
  0
ENDBLK
  5
1C6
330
1BB
100
AcDbEntity
  8
0
100
AcDbBlockEnd
  0
BLOCK
  5
1D1
330
1C7
100
AcDbEntity
  8
0
100
AcDbBlockBegin
  2
*D8
 70
     1
 10
0.0
 20
0.0
 30
0.0
  3
*D8
  1

  0
LINE
  5
1C8
330
1C7
100
AcDbEntity
  8
SUNPO
 62
     0
370
    -2
100
AcDbLine
 10
62.10835764491117
 20
316.0919923166215
 30
0.0
 11
70.10835764491118
 21
316.0919923166215
 31
0.0
  0
LINE
  5
1C9
330
1C7
100
AcDbEntity
  8
SUNPO
 62
     0
370
    -2
100
AcDbLine
 10
62.10835764491117
 20
342.5919923166215
 30
0.0
 11
70.10835764491118
 21
342.5919923166215
 31
0.0
  0
LINE
  5
1CA
330
1C7
100
AcDbEntity
  8
SUNPO
 62
     0
370
    -2
100
AcDbLine
 10
68.10835764491118
 20
318.0919923166215
 30
0.0
 11
68.10835764491118
 21
340.5919923166215
 31
0.0
  0
INSERT
  5
1CB
330
1C7
100
AcDbEntity
  8
SUNPO
 62
     0
370
    -2
100
AcDbBlockReference
  2
_OPEN30
 10
68.10835764491118
 20
316.0919923166215
 30
0.0
 41
2.0
 42
2.0
 43
2.0
 50
270.0
  0
INSERT
  5
1CC
330
1C7
100
AcDbEntity
  8
SUNPO
 62
     0
370
    -2
100
AcDbBlockReference
  2
_OPEN30
 10
68.10835764491118
 20
342.5919923166215
 30
0.0
 41
2.0
 42
2.0
 43
2.0
 50
90.0
  0
MTEXT
  5
1CD
330
1C7
100
AcDbEntity
  8
SUNPO
 62
     0
100
AcDbMText
 10
66.35835764491112
 20
329.3419923166215
 30
0.0
 40
2.5
 41
0.0
 71
     5
 72
     1
  1
\A1;265
 11
0.0000000000000001
 21
1.0
 31
0.0
 73
     1
 44
1.0
1001
ACAD
1000
MTEXTBEGIN
1070
    73
1070
     1
1070
    44
1040
1.0
1070
    74
1070
     0
1000
MTEXTEND
  0
POINT
  5
1CE
330
1C7
100
AcDbEntity
  8
DEFPOINTS
 62
     0
100
AcDbPoint
 10
60.10835764491117
 20
316.0919923166215
 30
0.0
  0
POINT
  5
1CF
330
1C7
100
AcDbEntity
  8
DEFPOINTS
 62
     0
100
AcDbPoint
 10
60.10835764491117
 20
342.5919923166215
 30
0.0
  0
POINT
  5
1D0
330
1C7
100
AcDbEntity
  8
DEFPOINTS
 62
     0
100
AcDbPoint
 10
68.10835764491118
 20
342.5919923166215
 30
0.0
  0
ENDBLK
  5
1D2
330
1C7
100
AcDbEntity
  8
0
100
AcDbBlockEnd
  0
ENDSEC
  0
SECTION
  2
ENTITIES
  0
TEXT
  5
2E
330
192
100
AcDbEntity
  8
MOJI1
100
AcDbText
 10
28.99999999999995
 20
366.4992141396418
 30
0.0
 40
4.0
  1
マトリクススイッチャー
100
AcDbText
  0
TEXT
  5
30
330
192
100
AcDbEntity
  8
TOUROKU
100
AcDbText
 10
108.5999500329274
 20
360.4992141396417
 30
0.0
 40
2.0
  1
ＷＪＳＸ７７７Ｄ
 72
     2
 11
126.9999500329274
 21
360.4992141396417
 31
0.0
100
AcDbText
  0
LINE
  5
32
330
192
100
AcDbEntity
  8
GAIKEI
 62
     7
100
AcDbLine
 10
15.10835764491111
 20
316.0919923166215
 30
0.0
 11
15.10835764491111
 21
342.5919923166215
 31
0.0
  0
LINE
  5
34
330
192
100
AcDbEntity
  8
GAIKEI
 62
     7
100
AcDbLine
 10
12.10835764491111
 20
316.0919923166215
 30
0.0
 11
12.10835764491111
 21
342.5919923166215
 31
0.0
  0
LINE
  5
35
330
192
100
AcDbEntity
  8
GAIKEI
 62
     1
100
AcDbLine
 10
14.00835764491109
 20
325.3419923166215
 30
0.0
 11
14.00835764491109
 21
333.3419923166215
 31
0.0
  0
LINE
  5
36
330
192
100
AcDbEntity
  8
GAIKEI
 62
     1
100
AcDbLine
 10
14.8083576449111
 20
325.3419923166215
 30
0.0
 11
14.8083576449111
 21
333.3419923166215
 31
0.0
  0
DIMENSION
  5
37
330
192
100
AcDbEntity
  8
SUNPO
100
AcDbDimension
  2
*D8
 10
68.10835764491118
 20
342.5919923166215
 30
0.0
 11
66.35835764491112
 21
329.3419923166215
 31
0.0
 70
    33
  1
265
 71
     5
 42
26.5
  3
STANDARD
100
AcDbAlignedDimension
 13
60.10835764491117
 23
316.0919923166215
 33
0.0
 14
60.10835764491117
 24
342.5919923166215
 34
0.0
1001
ACAD
1000
DSTYLE
1002
{
1070
    40
1040
1.0
1070
   140
1040
2.5
1070
   147
1040
0.5
1070
   172
1070
     1
1070
   279
1070
     0
1070
   343
1005
1A6
1070
   344
1005
1A6
1002
}
  0
LINE
  5
47
330
192
100
AcDbEntity
  8
GAIKEI
 62
     7
100
AcDbLine
 10
57.10835764491111
 20
316.0919923166215
 30
0.0
 11
57.10835764491111
 21
342.5919923166215
 31
0.0
  0
LINE
  5
48
330
192
100
AcDbEntity
  8
GAIKEI
 62
     7
100
AcDbLine
 10
60.10835764491117
 20
316.0919923166215
 30
0.0
 11
60.10835764491117
 21
342.5919923166215
 31
0.0
  0
LINE
  5
49
330
192
100
AcDbEntity
  8
GAIKEI
 62
     1
100
AcDbLine
 10
57.40835764491112
 20
325.3419923166215
 30
0.0
 11
57.40835764491112
 21
333.3419923166215
 31
0.0
  0
LINE
  5
4A
330
192
100
AcDbEntity
  8
GAIKEI
 62
     1
100
AcDbLine
 10
58.20835764491108
 20
325.3419923166215
 30
0.0
 11
58.20835764491108
 21
333.3419923166215
 31
0.0
  0
LINE
  5
4B
330
192
100
AcDbEntity
  8
GAIKEI
 62
     7
100
AcDbLine
 10
80.49312811168295
 20
342.5919923166215
 30
0.0
 11
80.49312811168295
 21
316.0919923166215
 31
0.0
  0
LINE
  5
4C
330
192
100
AcDbEntity
  8
GAIKEI
 62
     7
100
AcDbLine
 10
77.24312811168295
 20
333.2419923166211
 30
0.0
 11
77.24312811168295
 21
325.4419923166212
 31
0.0
  0
ARC
  5
4D
330
192
100
AcDbEntity
  8
GAIKEI
 62
     7
100
AcDbCircle
 10
78.34312811168297
 20
332.6419923166219
 30
0.0
 40
0.3
100
AcDbArc
 50
90.0
 51
180.0
  0
LINE
  5
4E
330
192
100
AcDbEntity
  8
GAIKEI
 62
     7
100
AcDbLine
 10
84.73100945527027
 20
342.5919923166215
 30
0.0
 11
84.73100945527027
 21
316.0919923166215
 31
0.0
  0
LINE
  5
4F
330
192
100
AcDbEntity
  8
GAIKEI
 62
     7
100
AcDbLine
 10
115.4931281116838
 20
342.5919923166215
 30
0.0
 11
115.4931281116828
 21
316.0919923166215
 31
0.0
  0
LINE
  5
50
330
192
100
AcDbEntity
  8
GAIKEI
 62
     7
100
AcDbLine
 10
80.49312811168295
 20
316.0919923166215
 30
0.0
 11
117.593128111683
 21
316.0919923166215
 31
0.0
  0
CIRCLE
  5
51
330
192
100
AcDbEntity
  8
GAIKEI
 62
     1
100
AcDbCircle
 10
56.5083576449111
 20
321.2819303202885
 30
0.0
 40
0.3
  0
LINE
  5
52
330
192
100
AcDbEntity
  8
GAIKEI
 62
     7
100
AcDbLine
 10
15.10835764491111
 20
316.0919923166215
 30
0.0
 11
57.10835764491111
 21
316.0919923166215
 31
0.0
  0
ARC
  5
53
330
192
100
AcDbEntity
  8
GAIKEI
 62
     1
100
AcDbCircle
 10
13.20835764491108
 20
326.3919923166214
 30
0.0
 40
0.15
100
AcDbArc
 50
0.0
 51
90.0
  0
ARC
  5
54
330
192
100
AcDbEntity
  8
GAIKEI
 62
     1
100
AcDbCircle
 10
12.50835764491109
 20
326.3919923166214
 30
0.0
 40
0.15
100
AcDbArc
 50
90.0
 51
180.0
  0
ARC
  5
55
330
192
100
AcDbEntity
  8
GAIKEI
 62
     1
100
AcDbCircle
 10
13.20835764491108
 20
326.2919923166216
 30
0.0
 40
0.15
100
AcDbArc
 50
270.0
 51
0.0
  0
ARC
  5
56
330
192
100
AcDbEntity
  8
GAIKEI
 62
     1
100
AcDbCircle
 10
12.50835764491109
 20
326.2919923166216
 30
0.0
 40
0.15
100
AcDbArc
 50
180.0
 51
270.0
  0
LINE
  5
57
330
192
100
AcDbEntity
  8
GAIKEI
 62
     1
100
AcDbLine
 10
13.35835764491111
 20
326.3919923166214
 30
0.0
 11
13.35835764491111
 21
326.2919923166216
 31
0.0
  0
LINE
  5
58
330
192
100
AcDbEntity
  8
GAIKEI
 62
     1
100
AcDbLine
 10
12.35835764491111
 20
326.3919923166214
 30
0.0
 11
12.35835764491111
 21
326.2919923166216
 31
0.0
  0
LINE
  5
59
330
192
100
AcDbEntity
  8
GAIKEI
 62
     1
100
AcDbLine
 10
12.50835764491109
 20
326.5419923166215
 30
0.0
 11
13.20835764491108
 21
326.5419923166215
 31
0.0
  0
LINE
  5
5A
330
192
100
AcDbEntity
  8
GAIKEI
 62
     1
100
AcDbLine
 10
12.50835764491109
 20
326.1419923166214
 30
0.0
 11
13.20835764491108
 21
326.1419923166214
 31
0.0
  0
CIRCLE
  5
5B
330
192
100
AcDbEntity
  8
GAIKEI
 62
     1
100
AcDbCircle
 10
15.70835764491108
 20
321.2819303202885
 30
0.0
 40
0.3
  0
LINE
  5
5C
330
192
100
AcDbEntity
  8
GAIKEI
 62
     1
100
AcDbLine
 10
12.50835764491109
 20
320.1419923166215
 30
0.0
 11
13.20835764491108
 21
320.1419923166215
 31
0.0
  0
LINE
  5
5D
330
192
100
AcDbEntity
  8
GAIKEI
 62
     1
100
AcDbLine
 10
12.50835764491109
 20
320.5419923166215
 30
0.0
 11
13.20835764491108
 21
320.5419923166215
 31
0.0
  0
LINE
  5
5E
330
192
100
AcDbEntity
  8
GAIKEI
 62
     1
100
AcDbLine
 10
12.35835764491111
 20
320.3919923166215
 30
0.0
 11
12.35835764491111
 21
320.2919923166215
 31
0.0
  0
LINE
  5
5F
330
192
100
AcDbEntity
  8
GAIKEI
 62
     1
100
AcDbLine
 10
13.35835764491111
 20
320.3919923166215
 30
0.0
 11
13.35835764491111
 21
320.2919923166215
 31
0.0
  0
ARC
  5
60
330
192
100
AcDbEntity
  8
GAIKEI
 62
     1
100
AcDbCircle
 10
12.50835764491109
 20
320.2919923166215
 30
0.0
 40
0.15
100
AcDbArc
 50
180.0
 51
270.0
  0
ARC
  5
61
330
192
100
AcDbEntity
  8
GAIKEI
 62
     1
100
AcDbCircle
 10
13.20835764491108
 20
320.2919923166215
 30
0.0
 40
0.15
100
AcDbArc
 50
270.0
 51
0.0
  0
ARC
  5
62
330
192
100
AcDbEntity
  8
GAIKEI
 62
     1
100
AcDbCircle
 10
12.50835764491109
 20
320.3919923166215
 30
0.0
 40
0.15
100
AcDbArc
 50
90.0
 51
180.0
  0
ARC
  5
63
330
192
100
AcDbEntity
  8
GAIKEI
 62
     1
100
AcDbCircle
 10
13.20835764491108
 20
320.3919923166215
 30
0.0
 40
0.15
100
AcDbArc
 50
0.0
 51
90.0
  0
ARC
  5
64
330
192
100
AcDbEntity
  8
GAIKEI
 62
     1
100
AcDbCircle
 10
14.40835764491112
 20
325.3419923166215
 30
0.0
 40
0.4
100
AcDbArc
 50
180.0
 51
0.0
  0
LINE
  5
65
330
192
100
AcDbEntity
  8
GAIKEI
 62
     7
100
AcDbLine
 10
12.10835764491111
 20
316.0919923166215
 30
0.0
 11
15.10835764491111
 21
316.0919923166215
 31
0.0
  0
ARC
  5
66
330
192
100
AcDbEntity
  8
GAIKEI
 62
     1
100
AcDbCircle
 10
14.40835764491112
 20
325.3419923166215
 30
0.0
 40
0.45
100
AcDbArc
 50
152.7339555492681
 51
27.26604445073186
  0
LINE
  5
67
330
192
100
AcDbEntity
  8
GAIKEI
 62
     1
100
AcDbLine
 10
12.50835764491109
 20
332.5419923166216
 30
0.0
 11
13.20835764491108
 21
332.5419923166216
 31
0.0
  0
LINE
  5
68
330
192
100
AcDbEntity
  8
GAIKEI
 62
     1
100
AcDbLine
 10
12.50835764491109
 20
332.1419923166214
 30
0.0
 11
13.20835764491108
 21
332.1419923166214
 31
0.0
  0
LINE
  5
69
330
192
100
AcDbEntity
  8
GAIKEI
 62
     1
100
AcDbLine
 10
12.35835764491111
 20
332.2919923166215
 30
0.0
 11
12.35835764491111
 21
332.3919923166214
 31
0.0
  0
LINE
  5
6A
330
192
100
AcDbEntity
  8
GAIKEI
 62
     1
100
AcDbLine
 10
13.35835764491111
 20
332.2919923166215
 30
0.0
 11
13.35835764491111
 21
332.3919923166214
 31
0.0
  0
ARC
  5
6B
330
192
100
AcDbEntity
  8
GAIKEI
 62
     1
100
AcDbCircle
 10
12.50835764491109
 20
332.3919923166214
 30
0.0
 40
0.15
100
AcDbArc
 50
90.0
 51
180.0
  0
ARC
  5
6C
330
192
100
AcDbEntity
  8
GAIKEI
 62
     1
100
AcDbCircle
 10
13.20835764491108
 20
332.3919923166214
 30
0.0
 40
0.15
100
AcDbArc
 50
0.0
 51
90.0
  0
ARC
  5
6D
330
192
100
AcDbEntity
  8
GAIKEI
 62
     1
100
AcDbCircle
 10
12.50835764491109
 20
332.2919923166215
 30
0.0
 40
0.15
100
AcDbArc
 50
180.0
 51
270.0
  0
ARC
  5
6E
330
192
100
AcDbEntity
  8
GAIKEI
 62
     1
100
AcDbCircle
 10
13.20835764491108
 20
332.2919923166215
 30
0.0
 40
0.15
100
AcDbArc
 50
270.0
 51
0.0
  0
LINE
  5
6F
330
192
100
AcDbEntity
  8
GAIKEI
 62
     1
100
AcDbLine
 10
17.36351686933534
 20
320.8640760613749
 30
0.0
 11
19.3919736433063
 21
320.8640760613749
 31
0.0
  0
LINE
  5
70
330
192
100
AcDbEntity
  8
GAIKEI
 62
     1
100
AcDbLine
 10
17.36351686933534
 20
322.1240189962397
 30
0.0
 11
19.3919736433063
 21
322.1240189962397
 31
0.0
  0
LINE
  5
71
330
192
100
AcDbEntity
  8
GAIKEI
 62
     1
100
AcDbLine
 10
17.16351686933535
 20
323.5839619311045
 30
0.0
 11
19.59197364330629
 21
323.5839619311045
 31
0.0
  0
LINE
  5
72
330
192
100
AcDbEntity
  8
GAIKEI
 62
     1
100
AcDbLine
 10
17.16351686933535
 20
320.6640760613749
 30
0.0
 11
19.59197364330629
 21
320.6640760613749
 31
0.0
  0
LINE
  5
73
330
192
100
AcDbEntity
  8
GAIKEI
 62
     1
100
AcDbLine
 10
17.36351686933534
 20
322.1240189962397
 30
0.0
 11
17.36351686933534
 21
320.8640760613749
 31
0.0
  0
LINE
  5
74
330
192
100
AcDbEntity
  8
GAIKEI
 62
     1
100
AcDbLine
 10
17.16351686933535
 20
323.5839619311045
 30
0.0
 11
17.16351686933535
 21
320.6640760613749
 31
0.0
  0
LINE
  5
75
330
192
100
AcDbEntity
  8
GAIKEI
 62
     1
100
AcDbLine
 10
18.06021449114559
 20
321.3842307619501
 30
0.0
 11
18.75521471910759
 21
321.3842307619501
 31
0.0
  0
LINE
  5
76
330
192
100
AcDbEntity
  8
GAIKEI
 62
     1
100
AcDbLine
 10
18.75521471910759
 20
321.5538642956645
 30
0.0
 11
18.75521471910759
 21
321.3842307619501
 31
0.0
  0
LINE
  5
77
330
192
100
AcDbEntity
  8
GAIKEI
 62
     1
100
AcDbLine
 10
18.06021449114559
 20
321.5538642956645
 30
0.0
 11
18.06021449114559
 21
321.3842307619501
 31
0.0
  0
LINE
  5
78
330
192
100
AcDbEntity
  8
GAIKEI
 62
     1
100
AcDbLine
 10
18.06021449114559
 20
321.5538642956645
 30
0.0
 11
18.75521471910759
 21
321.5538642956645
 31
0.0
  0
LINE
  5
79
330
192
100
AcDbEntity
  8
GAIKEI
 62
     1
100
AcDbLine
 10
19.3919736433063
 20
322.1240189962397
 30
0.0
 11
19.3919736433063
 21
320.8640760613749
 31
0.0
  0
LINE
  5
7A
330
192
100
AcDbEntity
  8
GAIKEI
 62
     1
100
AcDbLine
 10
19.59197364330629
 20
323.5839619311045
 30
0.0
 11
19.59197364330629
 21
320.6640760613749
 31
0.0
  0
LINE
  5
7B
330
192
100
AcDbEntity
  8
GAIKEI
 62
     7
100
AcDbLine
 10
17.70835764491108
 20
316.0919923166215
 30
0.0
 11
17.85835764491111
 21
315.2419923166215
 31
0.0
  0
LINE
  5
7C
330
192
100
AcDbEntity
  8
GAIKEI
 62
     7
100
AcDbLine
 10
17.85835764491111
 20
315.2419923166215
 30
0.0
 11
19.5583576449111
 21
315.2419923166215
 31
0.0
  0
LINE
  5
7D
330
192
100
AcDbEntity
  8
GAIKEI
 62
     7
100
AcDbLine
 10
19.5583576449111
 20
315.2419923166215
 30
0.0
 11
19.70835764491108
 21
316.0919923166215
 31
0.0
  0
LINE
  5
7E
330
192
100
AcDbEntity
  8
GAIKEI
 62
     7
100
AcDbLine
 10
54.35835764491111
 20
315.2419923166215
 30
0.0
 11
52.65835764491112
 21
315.2419923166215
 31
0.0
  0
LINE
  5
7F
330
192
100
AcDbEntity
  8
GAIKEI
 62
     7
100
AcDbLine
 10
54.5083576449111
 20
316.0919923166215
 30
0.0
 11
54.35835764491111
 21
315.2419923166215
 31
0.0
  0
LINE
  5
80
330
192
100
AcDbEntity
  8
GAIKEI
 62
     7
100
AcDbLine
 10
52.65835764491112
 20
315.2419923166215
 30
0.0
 11
52.5083576449111
 21
316.0919923166215
 31
0.0
  0
LINE
  5
81
330
192
100
AcDbEntity
  8
GAIKEI
 62
     1
100
AcDbLine
 10
59.70835764491108
 20
326.1419923166214
 30
0.0
 11
59.0083576449111
 21
326.1419923166214
 31
0.0
  0
LINE
  5
82
330
192
100
AcDbEntity
  8
GAIKEI
 62
     1
100
AcDbLine
 10
59.70835764491108
 20
326.5419923166215
 30
0.0
 11
59.0083576449111
 21
326.5419923166215
 31
0.0
  0
LINE
  5
83
330
192
100
AcDbEntity
  8
GAIKEI
 62
     1
100
AcDbLine
 10
59.85835764491111
 20
326.3919923166214
 30
0.0
 11
59.85835764491111
 21
326.2919923166216
 31
0.0
  0
LINE
  5
84
330
192
100
AcDbEntity
  8
GAIKEI
 62
     1
100
AcDbLine
 10
58.85835764491111
 20
326.3919923166214
 30
0.0
 11
58.85835764491111
 21
326.2919923166216
 31
0.0
  0
ARC
  5
85
330
192
100
AcDbEntity
  8
GAIKEI
 62
     1
100
AcDbCircle
 10
59.70835764491108
 20
326.2919923166216
 30
0.0
 40
0.15
100
AcDbArc
 50
270.0
 51
0.0
  0
ARC
  5
86
330
192
100
AcDbEntity
  8
GAIKEI
 62
     1
100
AcDbCircle
 10
59.0083576449111
 20
326.2919923166216
 30
0.0
 40
0.15
100
AcDbArc
 50
180.0
 51
270.0
  0
ARC
  5
87
330
192
100
AcDbEntity
  8
GAIKEI
 62
     1
100
AcDbCircle
 10
59.70835764491108
 20
326.3919923166214
 30
0.0
 40
0.15
100
AcDbArc
 50
0.0
 51
90.0
  0
ARC
  5
88
330
192
100
AcDbEntity
  8
GAIKEI
 62
     1
100
AcDbCircle
 10
59.0083576449111
 20
326.3919923166214
 30
0.0
 40
0.15
100
AcDbArc
 50
90.0
 51
180.0
  0
ARC
  5
89
330
192
100
AcDbEntity
  8
GAIKEI
 62
     1
100
AcDbCircle
 10
59.0083576449111
 20
320.3919923166215
 30
0.0
 40
0.15
100
AcDbArc
 50
90.0
 51
180.0
  0
ARC
  5
8A
330
192
100
AcDbEntity
  8
GAIKEI
 62
     1
100
AcDbCircle
 10
59.70835764491108
 20
320.3919923166215
 30
0.0
 40
0.15
100
AcDbArc
 50
0.0
 51
90.0
  0
ARC
  5
8B
330
192
100
AcDbEntity
  8
GAIKEI
 62
     1
100
AcDbCircle
 10
59.0083576449111
 20
320.2919923166215
 30
0.0
 40
0.15
100
AcDbArc
 50
180.0
 51
270.0
  0
ARC
  5
8C
330
192
100
AcDbEntity
  8
GAIKEI
 62
     1
100
AcDbCircle
 10
59.70835764491108
 20
320.2919923166215
 30
0.0
 40
0.15
100
AcDbArc
 50
270.0
 51
0.0
  0
LINE
  5
8D
330
192
100
AcDbEntity
  8
GAIKEI
 62
     1
100
AcDbLine
 10
58.85835764491111
 20
320.3919923166215
 30
0.0
 11
58.85835764491111
 21
320.2919923166215
 31
0.0
  0
LINE
  5
8E
330
192
100
AcDbEntity
  8
GAIKEI
 62
     1
100
AcDbLine
 10
59.85835764491111
 20
320.3919923166215
 30
0.0
 11
59.85835764491111
 21
320.2919923166215
 31
0.0
  0
LINE
  5
8F
330
192
100
AcDbEntity
  8
GAIKEI
 62
     1
100
AcDbLine
 10
59.70835764491108
 20
320.5419923166215
 30
0.0
 11
59.0083576449111
 21
320.5419923166215
 31
0.0
  0
LINE
  5
90
330
192
100
AcDbEntity
  8
GAIKEI
 62
     1
100
AcDbLine
 10
59.70835764491108
 20
320.1419923166215
 30
0.0
 11
59.0083576449111
 21
320.1419923166215
 31
0.0
  0
ARC
  5
91
330
192
100
AcDbEntity
  8
GAIKEI
 62
     1
100
AcDbCircle
 10
57.8083576449111
 20
325.3419923166215
 30
0.0
 40
0.4
100
AcDbArc
 50
180.0
 51
0.0
  0
LINE
  5
92
330
192
100
AcDbEntity
  8
GAIKEI
 62
     7
100
AcDbLine
 10
57.10835764491111
 20
316.0919923166215
 30
0.0
 11
60.10835764491117
 21
316.0919923166215
 31
0.0
  0
ARC
  5
93
330
192
100
AcDbEntity
  8
GAIKEI
 62
     1
100
AcDbCircle
 10
57.8083576449111
 20
325.3419923166215
 30
0.0
 40
0.45
100
AcDbArc
 50
152.7339555492681
 51
27.26604445073186
  0
ARC
  5
94
330
192
100
AcDbEntity
  8
GAIKEI
 62
     1
100
AcDbCircle
 10
59.0083576449111
 20
332.2919923166215
 30
0.0
 40
0.15
100
AcDbArc
 50
180.0
 51
270.0
  0
ARC
  5
95
330
192
100
AcDbEntity
  8
GAIKEI
 62
     1
100
AcDbCircle
 10
59.70835764491108
 20
332.2919923166215
 30
0.0
 40
0.15
100
AcDbArc
 50
270.0
 51
0.0
  0
ARC
  5
96
330
192
100
AcDbEntity
  8
GAIKEI
 62
     1
100
AcDbCircle
 10
59.0083576449111
 20
332.3919923166214
 30
0.0
 40
0.15
100
AcDbArc
 50
90.0
 51
180.0
  0
ARC
  5
97
330
192
100
AcDbEntity
  8
GAIKEI
 62
     1
100
AcDbCircle
 10
59.70835764491108
 20
332.3919923166214
 30
0.0
 40
0.15
100
AcDbArc
 50
0.0
 51
90.0
  0
LINE
  5
98
330
192
100
AcDbEntity
  8
GAIKEI
 62
     1
100
AcDbLine
 10
58.85835764491111
 20
332.2919923166215
 30
0.0
 11
58.85835764491111
 21
332.3919923166214
 31
0.0
  0
LINE
  5
99
330
192
100
AcDbEntity
  8
GAIKEI
 62
     1
100
AcDbLine
 10
59.85835764491111
 20
332.2919923166215
 30
0.0
 11
59.85835764491111
 21
332.3919923166214
 31
0.0
  0
LINE
  5
9A
330
192
100
AcDbEntity
  8
GAIKEI
 62
     1
100
AcDbLine
 10
59.70835764491108
 20
332.1419923166214
 30
0.0
 11
59.0083576449111
 21
332.1419923166214
 31
0.0
  0
LINE
  5
9B
330
192
100
AcDbEntity
  8
GAIKEI
 62
     1
100
AcDbLine
 10
59.70835764491108
 20
332.5419923166216
 30
0.0
 11
59.0083576449111
 21
332.5419923166216
 31
0.0
  0
LINE
  5
9C
330
192
100
AcDbEntity
  8
GAIKEI
 62
     7
100
AcDbLine
 10
78.04312811168291
 20
332.6419923166219
 30
0.0
 11
78.04312811168291
 21
326.0419923166212
 31
0.0
  0
LINE
  5
9D
330
192
100
AcDbEntity
  8
GAIKEI
 62
     7
100
AcDbLine
 10
80.49312811168295
 20
325.7919923166218
 30
0.0
 11
80.42272017136635
 21
325.7919923166218
 31
0.0
  0
ARC
  5
9E
330
192
100
AcDbEntity
  8
GAIKEI
 62
     1
100
AcDbCircle
 10
80.61800692116618
 20
321.3419923166211
 30
0.0
 40
0.3249534075186139
100
AcDbArc
 50
112.6001403538655
 51
247.3998596461346
  0
LINE
  5
9F
330
192
100
AcDbEntity
  8
GAIKEI
 62
     7
100
AcDbLine
 10
80.42272017136635
 20
325.7419923166211
 30
0.0
 11
80.42272017136635
 21
324.9419923166211
 31
0.0
  0
LINE
  5
A0
330
192
100
AcDbEntity
  8
GAIKEI
 62
     7
100
AcDbLine
 10
80.42272017136635
 20
324.9419923166211
 30
0.0
 11
80.42272017136635
 21
324.8919923166212
 31
0.0
  0
ARC
  5
A1
330
192
100
AcDbEntity
  8
GAIKEI
 62
     7
100
AcDbCircle
 10
77.74312811168295
 20
325.4419923166212
 30
0.0
 40
0.5
100
AcDbArc
 50
180.0
 51
270.0
  0
LINE
  5
A2
330
192
100
AcDbEntity
  8
GAIKEI
 62
     7
100
AcDbLine
 10
80.49312811168295
 20
324.8919923166212
 30
0.0
 11
80.42272017136635
 21
324.8919923166212
 31
0.0
  0
LINE
  5
A3
330
192
100
AcDbEntity
  8
GAIKEI
 62
     7
100
AcDbLine
 10
80.42272017136635
 20
325.7419923166211
 30
0.0
 11
78.34312811168297
 21
325.7419923166211
 31
0.0
  0
LINE
  5
A4
330
192
100
AcDbEntity
  8
GAIKEI
 62
     7
100
AcDbLine
 10
80.42272017136635
 20
324.9419923166211
 30
0.0
 11
77.74312811168295
 21
324.9419923166211
 31
0.0
  0
ARC
  5
A5
330
192
100
AcDbEntity
  8
GAIKEI
 62
     7
100
AcDbCircle
 10
78.34312811168297
 20
326.0419923166212
 30
0.0
 40
0.3
100
AcDbArc
 50
180.0
 51
270.0
  0
LINE
  5
A6
330
192
100
AcDbEntity
  8
GAIKEI
 62
     7
100
AcDbLine
 10
80.42272017136635
 20
325.7919923166218
 30
0.0
 11
80.42272017136635
 21
325.7419923166211
 31
0.0
  0
CIRCLE
  5
A7
330
192
100
AcDbEntity
  8
GAIKEI
 62
     1
100
AcDbCircle
 10
84.23034484374637
 20
320.311941275526
 30
0.0
 40
0.3
  0
CIRCLE
  5
A8
330
192
100
AcDbEntity
  8
GAIKEI
 62
     1
100
AcDbCircle
 10
85.11308406677063
 20
316.5472898505763
 30
0.0
 40
0.3
  0
LINE
  5
A9
330
192
100
AcDbEntity
  8
GAIKEI
 62
     7
100
AcDbLine
 10
86.34312811168298
 20
315.2419923166215
 30
0.0
 11
84.64312811168294
 21
315.2419923166215
 31
0.0
  0
LINE
  5
AA
330
192
100
AcDbEntity
  8
GAIKEI
 62
     7
100
AcDbLine
 10
84.64312811168294
 20
315.2419923166215
 30
0.0
 11
86.34312811168298
 21
315.2419923166215
 31
0.0
  0
LINE
  5
AB
330
192
100
AcDbEntity
  8
GAIKEI
 62
     7
100
AcDbLine
 10
86.49312811168295
 20
316.0919923166215
 30
0.0
 11
86.34312811168298
 21
315.2419923166215
 31
0.0
  0
LINE
  5
AC
330
192
100
AcDbEntity
  8
GAIKEI
 62
     7
100
AcDbLine
 10
84.64312811168294
 20
315.2419923166215
 30
0.0
 11
84.49312811168296
 21
316.0919923166215
 31
0.0
  0
CIRCLE
  5
AD
330
192
100
AcDbEntity
  8
GAIKEI
 62
     1
100
AcDbCircle
 10
84.23034484374637
 20
329.3727005535377
 30
0.0
 40
0.3
  0
CIRCLE
  5
AE
330
192
100
AcDbEntity
  8
GAIKEI
 62
     1
100
AcDbCircle
 10
97.93307013642492
 20
316.5472898505763
 30
0.0
 40
0.3
  0
LINE
  5
AF
330
192
100
AcDbEntity
  8
GAIKEI
 62
     1
100
AcDbLine
 10
116.1931281116829
 20
330.5191186314042
 30
0.0
 11
116.1931281116829
 21
325.7919923166218
 31
0.0
  0
LINE
  5
B0
330
192
100
AcDbEntity
  8
GAIKEI
 62
     1
100
AcDbLine
 10
115.4931281116828
 20
325.7919923166218
 30
0.0
 11
116.1931281116829
 21
325.7919923166218
 31
0.0
  0
LINE
  5
B1
330
192
100
AcDbEntity
  8
GAIKEI
 62
     1
100
AcDbLine
 10
115.4931281116828
 20
326.2919923166218
 30
0.0
 11
116.1931281116829
 21
326.2919923166218
 31
0.0
  0
LINE
  5
B2
330
192
100
AcDbEntity
  8
GAIKEI
 62
     7
100
AcDbLine
 10
117.593128111683
 20
316.0919923166215
 30
0.0
 11
117.593128111683
 21
316.5919923166215
 31
0.0
  0
LINE
  5
B3
330
192
100
AcDbEntity
  8
GAIKEI
 62
     1
100
AcDbLine
 10
116.493128111683
 20
323.8910612990807
 30
0.0
 11
116.493128111683
 21
323.0910612990807
 31
0.0
  0
LINE
  5
B4
330
192
100
AcDbEntity
  8
GAIKEI
 62
     1
100
AcDbLine
 10
115.493128111683
 20
319.8910612990807
 30
0.0
 11
116.493128111683
 21
319.8910612990807
 31
0.0
  0
LINE
  5
B5
330
192
100
AcDbEntity
  8
GAIKEI
 62
     1
100
AcDbLine
 10
115.493128111683
 20
320.6910612990807
 30
0.0
 11
116.493128111683
 21
320.6910612990807
 31
0.0
  0
LINE
  5
B6
330
192
100
AcDbEntity
  8
GAIKEI
 62
     1
100
AcDbLine
 10
115.493128111683
 20
321.4910612990807
 30
0.0
 11
116.493128111683
 21
321.4910612990807
 31
0.0
  0
LINE
  5
B7
330
192
100
AcDbEntity
  8
GAIKEI
 62
     1
100
AcDbLine
 10
115.493128111683
 20
322.2910612990807
 30
0.0
 11
116.493128111683
 21
322.2910612990807
 31
0.0
  0
LINE
  5
B8
330
192
100
AcDbEntity
  8
GAIKEI
 62
     1
100
AcDbLine
 10
115.493128111683
 20
323.0910612990807
 30
0.0
 11
116.493128111683
 21
323.0910612990807
 31
0.0
  0
LINE
  5
B9
330
192
100
AcDbEntity
  8
GAIKEI
 62
     1
100
AcDbLine
 10
116.493128111683
 20
320.6910612990807
 30
0.0
 11
116.493128111683
 21
319.8910612990807
 31
0.0
  0
LINE
  5
BA
330
192
100
AcDbEntity
  8
GAIKEI
 62
     1
100
AcDbLine
 10
116.493128111683
 20
322.2910612990807
 30
0.0
 11
116.493128111683
 21
321.4910612990807
 31
0.0
  0
LINE
  5
BB
330
192
100
AcDbEntity
  8
GAIKEI
 62
     1
100
AcDbLine
 10
115.493128111683
 20
323.8910612990807
 30
0.0
 11
116.493128111683
 21
323.8910612990807
 31
0.0
  0
LINE
  5
BC
330
192
100
AcDbEntity
  8
GAIKEI
 62
     7
100
AcDbLine
 10
116.1931281116829
 20
317.5919923166215
 30
0.0
 11
116.1931281116829
 21
317.0919923166215
 31
0.0
  0
LINE
  5
BD
330
192
100
AcDbEntity
  8
GAIKEI
 62
     7
100
AcDbLine
 10
116.1931281116829
 20
317.0919923166215
 30
0.0
 11
116.1931281116829
 21
317.5919923166215
 31
0.0
  0
LINE
  5
BE
330
192
100
AcDbEntity
  8
GAIKEI
 62
     7
100
AcDbLine
 10
115.493128111683
 20
317.5919923166215
 30
0.0
 11
116.1931281116829
 21
317.5919923166215
 31
0.0
  0
LINE
  5
BF
330
192
100
AcDbEntity
  8
GAIKEI
 62
     7
100
AcDbLine
 10
111.843128111683
 20
315.2419923166215
 30
0.0
 11
113.5431281116829
 21
315.2419923166215
 31
0.0
  0
LINE
  5
C0
330
192
100
AcDbEntity
  8
GAIKEI
 62
     7
100
AcDbLine
 10
113.5431281116829
 20
315.2419923166215
 30
0.0
 11
111.843128111683
 21
315.2419923166215
 31
0.0
  0
LINE
  5
C1
330
192
100
AcDbEntity
  8
GAIKEI
 62
     7
100
AcDbLine
 10
111.843128111683
 20
315.2419923166215
 30
0.0
 11
111.6931281116829
 21
316.0919923166215
 31
0.0
  0
LINE
  5
C2
330
192
100
AcDbEntity
  8
GAIKEI
 62
     7
100
AcDbLine
 10
113.6931281116829
 20
316.0919923166215
 30
0.0
 11
113.5431281116829
 21
315.2419923166215
 31
0.0
  0
CIRCLE
  5
C3
330
192
100
AcDbEntity
  8
GAIKEI
 62
     1
100
AcDbCircle
 10
110.7898952465092
 20
316.5472898505763
 30
0.0
 40
0.3
  0
LINE
  5
C4
330
192
100
AcDbEntity
  8
GAIKEI
 62
     7
100
AcDbLine
 10
117.593128111683
 20
316.5919923166215
 30
0.0
 11
116.1931281116829
 21
317.0919923166215
 31
0.0
  0
LINE
  5
C5
330
192
100
AcDbEntity
  8
GAIKEI
 62
     1
100
AcDbLine
 10
115.4931281116828
 20
330.5191186314042
 30
0.0
 11
116.1931281116829
 21
330.5191186314042
 31
0.0
  0
LINE
  5
C6
330
192
100
AcDbEntity
  8
GAIKEI
 62
     1
100
AcDbLine
 10
115.4931281116828
 20
330.0191186314042
 30
0.0
 11
116.1931281116829
 21
330.0191186314042
 31
0.0
  0
DIMENSION
  5
C7
330
192
100
AcDbEntity
  8
SUNPO
100
AcDbDimension
  2
*D7
 10
117.593128111683
 20
350.5919923166215
 30
0.0
 11
99.04312811168297
 21
352.3419923166215
 31
0.0
 70
    33
  1
371
 71
     5
 42
37.10000000000005
  3
STANDARD
100
AcDbAlignedDimension
 13
80.49312811168295
 23
342.5919923166215
 33
0.0
 14
117.593128111683
 24
342.5919923166215
 34
0.0
1001
ACAD
1000
DSTYLE
1002
{
1070
    40
1040
1.0
1070
   140
1040
2.5
1070
   147
1040
0.5
1070
   172
1070
     1
1070
   279
1070
     0
1070
   343
1005
1A6
1070
   344
1005
1A6
1002
}
  0
LINE
  5
D4
330
192
100
AcDbEntity
  8
GAIKEI
 62
     7
100
AcDbLine
 10
80.49312811168295
 20
342.5919923166215
 30
0.0
 11
117.593128111683
 21
342.5919923166215
 31
0.0
  0
CIRCLE
  5
D5
330
192
100
AcDbEntity
  8
GAIKEI
 62
     1
100
AcDbCircle
 10
56.5083576449111
 20
337.4020543129546
 30
0.0
 40
0.3
  0
DIMENSION
  5
D6
330
192
100
AcDbEntity
  8
SUNPO
100
AcDbDimension
  2
*D6
 10
60.10835764491117
 20
350.5919923166216
 30
0.0
 11
36.10835764491115
 21
352.3419923166216
 31
0.0
 70
    33
  1
480
 71
     5
 42
48.00000000000006
  3
STANDARD
100
AcDbAlignedDimension
 13
12.10835764491111
 23
342.5919923166215
 33
0.0
 14
60.10835764491117
 24
342.5919923166216
 34
0.0
1001
ACAD
1000
DSTYLE
1002
{
1070
    40
1040
1.0
1070
   140
1040
2.5
1070
   147
1040
0.5
1070
   172
1070
     1
1070
   279
1070
     0
1070
   343
1005
1A6
1070
   344
1005
1A6
1002
}
  0
LINE
  5
E3
330
192
100
AcDbEntity
  8
GAIKEI
 62
     7
100
AcDbLine
 10
15.10835764491111
 20
342.5919923166215
 30
0.0
 11
57.10835764491111
 21
342.5919923166215
 31
0.0
  0
LINE
  5
E4
330
192
100
AcDbEntity
  8
GAIKEI
 62
     7
100
AcDbLine
 10
12.10835764491111
 20
342.5919923166215
 30
0.0
 11
15.10835764491111
 21
342.5919923166215
 31
0.0
  0
CIRCLE
  5
E5
330
192
100
AcDbEntity
  8
GAIKEI
 62
     1
100
AcDbCircle
 10
15.70835764491108
 20
337.4020543129546
 30
0.0
 40
0.3
  0
ARC
  5
E6
330
192
100
AcDbEntity
  8
GAIKEI
 62
     1
100
AcDbCircle
 10
13.20835764491108
 20
338.2919923166215
 30
0.0
 40
0.15
100
AcDbArc
 50
270.0
 51
0.0
  0
ARC
  5
E7
330
192
100
AcDbEntity
  8
GAIKEI
 62
     1
100
AcDbCircle
 10
12.50835764491109
 20
338.2919923166215
 30
0.0
 40
0.15
100
AcDbArc
 50
180.0
 51
270.0
  0
ARC
  5
E8
330
192
100
AcDbEntity
  8
GAIKEI
 62
     1
100
AcDbCircle
 10
13.20835764491108
 20
338.3919923166214
 30
0.0
 40
0.15
100
AcDbArc
 50
0.0
 51
90.0
  0
ARC
  5
E9
330
192
100
AcDbEntity
  8
GAIKEI
 62
     1
100
AcDbCircle
 10
12.50835764491109
 20
338.3919923166214
 30
0.0
 40
0.15
100
AcDbArc
 50
90.0
 51
180.0
  0
LINE
  5
EA
330
192
100
AcDbEntity
  8
GAIKEI
 62
     1
100
AcDbLine
 10
13.35835764491111
 20
338.2919923166215
 30
0.0
 11
13.35835764491111
 21
338.3919923166214
 31
0.0
  0
LINE
  5
EB
330
192
100
AcDbEntity
  8
GAIKEI
 62
     1
100
AcDbLine
 10
12.35835764491111
 20
338.2919923166215
 30
0.0
 11
12.35835764491111
 21
338.3919923166214
 31
0.0
  0
LINE
  5
EC
330
192
100
AcDbEntity
  8
GAIKEI
 62
     1
100
AcDbLine
 10
12.50835764491109
 20
338.1419923166214
 30
0.0
 11
13.20835764491108
 21
338.1419923166214
 31
0.0
  0
LINE
  5
ED
330
192
100
AcDbEntity
  8
GAIKEI
 62
     1
100
AcDbLine
 10
12.50835764491109
 20
338.5419923166215
 30
0.0
 11
13.20835764491108
 21
338.5419923166215
 31
0.0
  0
ARC
  5
EE
330
192
100
AcDbEntity
  8
GAIKEI
 62
     1
100
AcDbCircle
 10
14.40835764491112
 20
333.3419923166215
 30
0.0
 40
0.45
100
AcDbArc
 50
332.7339555492681
 51
207.2660444507319
  0
ARC
  5
EF
330
192
100
AcDbEntity
  8
GAIKEI
 62
     1
100
AcDbCircle
 10
14.40835764491112
 20
333.3419923166215
 30
0.0
 40
0.4
100
AcDbArc
 50
0.0
 51
180.0
  0
LINE
  5
F0
330
192
100
AcDbEntity
  8
GAIKEI
 62
     7
100
AcDbLine
 10
57.10835764491111
 20
342.5919923166215
 30
0.0
 11
60.10835764491117
 21
342.5919923166215
 31
0.0
  0
LINE
  5
F1
330
192
100
AcDbEntity
  8
GAIKEI
 62
     1
100
AcDbLine
 10
59.70835764491108
 20
338.5419923166215
 30
0.0
 11
59.0083576449111
 21
338.5419923166215
 31
0.0
  0
LINE
  5
F2
330
192
100
AcDbEntity
  8
GAIKEI
 62
     1
100
AcDbLine
 10
59.70835764491108
 20
338.1419923166214
 30
0.0
 11
59.0083576449111
 21
338.1419923166214
 31
0.0
  0
LINE
  5
F3
330
192
100
AcDbEntity
  8
GAIKEI
 62
     1
100
AcDbLine
 10
59.85835764491111
 20
338.2919923166215
 30
0.0
 11
59.85835764491111
 21
338.3919923166214
 31
0.0
  0
LINE
  5
F4
330
192
100
AcDbEntity
  8
GAIKEI
 62
     1
100
AcDbLine
 10
58.85835764491111
 20
338.2919923166215
 30
0.0
 11
58.85835764491111
 21
338.3919923166214
 31
0.0
  0
ARC
  5
F5
330
192
100
AcDbEntity
  8
GAIKEI
 62
     1
100
AcDbCircle
 10
59.70835764491108
 20
338.3919923166214
 30
0.0
 40
0.15
100
AcDbArc
 50
0.0
 51
90.0
  0
ARC
  5
F6
330
192
100
AcDbEntity
  8
GAIKEI
 62
     1
100
AcDbCircle
 10
59.0083576449111
 20
338.3919923166214
 30
0.0
 40
0.15
100
AcDbArc
 50
90.0
 51
180.0
  0
ARC
  5
F7
330
192
100
AcDbEntity
  8
GAIKEI
 62
     1
100
AcDbCircle
 10
59.70835764491108
 20
338.2919923166215
 30
0.0
 40
0.15
100
AcDbArc
 50
270.0
 51
0.0
  0
ARC
  5
F8
330
192
100
AcDbEntity
  8
GAIKEI
 62
     1
100
AcDbCircle
 10
59.0083576449111
 20
338.2919923166215
 30
0.0
 40
0.15
100
AcDbArc
 50
180.0
 51
270.0
  0
ARC
  5
F9
330
192
100
AcDbEntity
  8
GAIKEI
 62
     1
100
AcDbCircle
 10
57.8083576449111
 20
333.3419923166215
 30
0.0
 40
0.4
100
AcDbArc
 50
0.0
 51
180.0
  0
ARC
  5
FA
330
192
100
AcDbEntity
  8
GAIKEI
 62
     1
100
AcDbCircle
 10
57.8083576449111
 20
333.3419923166215
 30
0.0
 40
0.45
100
AcDbArc
 50
332.7339555492681
 51
207.2660444507319
  0
LINE
  5
FB
330
192
100
AcDbEntity
  8
GAIKEI
 62
     7
100
AcDbLine
 10
80.49312811168295
 20
333.7919923166211
 30
0.0
 11
80.42272017136635
 21
333.7919923166211
 31
0.0
  0
LINE
  5
FC
330
192
100
AcDbEntity
  8
GAIKEI
 62
     7
100
AcDbLine
 10
80.42272017136635
 20
333.7919923166211
 30
0.0
 11
80.42272017136635
 21
333.7419923166211
 31
0.0
  0
LINE
  5
FD
330
192
100
AcDbEntity
  8
GAIKEI
 62
     7
100
AcDbLine
 10
80.42272017136635
 20
333.7419923166211
 30
0.0
 11
77.74312811168295
 21
333.7419923166211
 31
0.0
  0
ARC
  5
FE
330
192
100
AcDbEntity
  8
GAIKEI
 62
     1
100
AcDbCircle
 10
80.61786501668462
 20
337.3419923166212
 30
0.0
 40
0.3248989003819625
100
AcDbArc
 50
112.5770372317689
 51
247.4229627682311
  0
LINE
  5
FF
330
192
100
AcDbEntity
  8
GAIKEI
 62
     7
100
AcDbLine
 10
80.49312811168295
 20
332.8919923166218
 30
0.0
 11
80.42272017136635
 21
332.8919923166218
 31
0.0
  0
LINE
  5
100
330
192
100
AcDbEntity
  8
GAIKEI
 62
     7
100
AcDbLine
 10
80.42272017136635
 20
332.9419923166219
 30
0.0
 11
78.34312811168297
 21
332.9419923166219
 31
0.0
  0
LINE
  5
101
330
192
100
AcDbEntity
  8
GAIKEI
 62
     7
100
AcDbLine
 10
80.42272017136635
 20
333.7419923166211
 30
0.0
 11
80.42272017136635
 21
332.8919923166218
 31
0.0
  0
ARC
  5
102
330
192
100
AcDbEntity
  8
GAIKEI
 62
     7
100
AcDbCircle
 10
77.74312811168295
 20
333.2419923166211
 30
0.0
 40
0.5
100
AcDbArc
 50
90.0
 51
180.0
  0
LINE
  5
103
330
192
100
AcDbEntity
  8
GAIKEI
  6
DASHDOT
 62
     1
100
AcDbLine
 10
94.03100945527036
 20
338.198399709317
 30
0.0
 11
100.6310094552703
 21
338.198399709317
 31
0.0
  0
LINE
  5
105
330
192
100
AcDbEntity
  8
GAIKEI
  6
DASHDOT
 62
     1
100
AcDbLine
 10
94.03100945527036
 20
333.7919923166211
 30
0.0
 11
100.6310094552703
 21
333.7919923166211
 31
0.0
  0
LINE
  5
106
330
192
100
AcDbEntity
  8
GAIKEI
  6
DASHDOT
 62
     1
100
AcDbLine
 10
94.03100945527036
 20
338.198399709317
 30
0.0
 11
94.03100945527036
 21
333.7919923166211
 31
0.0
  0
LINE
  5
107
330
192
100
AcDbEntity
  8
GAIKEI
  6
DASHDOT
 62
     1
100
AcDbLine
 10
91.63100945527027
 20
338.198399709317
 30
0.0
 11
91.63100945527027
 21
333.7919923166211
 31
0.0
  0
LINE
  5
108
330
192
100
AcDbEntity
  8
GAIKEI
  6
DASHDOT
 62
     1
100
AcDbLine
 10
85.03100945527023
 20
338.198399709317
 30
0.0
 11
85.03100945527023
 21
333.7919923166211
 31
0.0
  0
CIRCLE
  5
109
330
192
100
AcDbEntity
  8
GAIKEI
 62
     1
100
AcDbCircle
 10
84.23034484374637
 20
338.3720433577163
 30
0.0
 40
0.3
  0
LINE
  5
10A
330
192
100
AcDbEntity
  8
GAIKEI
  6
DASHDOT
 62
     1
100
AcDbLine
 10
85.03100945527023
 20
333.7919923166211
 30
0.0
 11
91.63100945527027
 21
333.7919923166211
 31
0.0
  0
LINE
  5
10B
330
192
100
AcDbEntity
  8
GAIKEI
  6
DASHDOT
 62
     1
100
AcDbLine
 10
85.03100945527023
 20
338.198399709317
 30
0.0
 11
91.63100945527027
 21
338.198399709317
 31
0.0
  0
LINE
  5
10C
330
192
100
AcDbEntity
  8
GAIKEI
  6
DASHDOT
 62
     1
100
AcDbLine
 10
109.6310094552703
 20
338.198399709317
 30
0.0
 11
109.6310094552703
 21
333.7919923166211
 31
0.0
  0
LINE
  5
10D
330
192
100
AcDbEntity
  8
GAIKEI
  6
DASHDOT
 62
     1
100
AcDbLine
 10
100.6310094552703
 20
338.198399709317
 30
0.0
 11
100.6310094552703
 21
333.7919923166211
 31
0.0
  0
LINE
  5
10E
330
192
100
AcDbEntity
  8
GAIKEI
  6
DASHDOT
 62
     1
100
AcDbLine
 10
103.0310094552704
 20
338.198399709317
 30
0.0
 11
103.0310094552702
 21
333.7919923166211
 31
0.0
  0
LINE
  5
10F
330
192
100
AcDbEntity
  8
GAIKEI
  6
DASHDOT
 62
     1
100
AcDbLine
 10
103.0310094552702
 20
333.7919923166211
 30
0.0
 11
109.6310094552703
 21
333.7919923166211
 31
0.0
  0
LINE
  5
110
330
192
100
AcDbEntity
  8
GAIKEI
  6
DASHDOT
 62
     1
100
AcDbLine
 10
103.0310094552702
 20
338.198399709317
 30
0.0
 11
109.6310094552703
 21
338.198399709317
 31
0.0
  0
LINE
  5
111
330
192
100
AcDbEntity
  8
GAIKEI
 62
     7
100
AcDbLine
 10
117.593128111683
 20
342.5919923166215
 30
0.0
 11
117.593128111683
 21
342.0919923166215
 31
0.0
  0
LINE
  5
112
330
192
100
AcDbEntity
  8
GAIKEI
 62
     7
100
AcDbLine
 10
117.593128111683
 20
342.0919923166215
 30
0.0
 11
116.1931281116829
 21
341.5919923166215
 31
0.0
  0
LINE
  5
113
330
192
100
AcDbEntity
  8
GAIKEI
 62
     1
100
AcDbLine
 10
116.1931281116829
 20
338.5191186314036
 30
0.0
 11
116.1931281116829
 21
333.7919923166211
 31
0.0
  0
LINE
  5
114
330
192
100
AcDbEntity
  8
GAIKEI
 62
     1
100
AcDbLine
 10
115.493128111683
 20
334.2919923166211
 30
0.0
 11
116.1931281116829
 21
334.2919923166211
 31
0.0
  0
LINE
  5
115
330
192
100
AcDbEntity
  8
GAIKEI
 62
     1
100
AcDbLine
 10
115.493128111683
 20
333.7919923166211
 30
0.0
 11
116.1931281116829
 21
333.7919923166211
 31
0.0
  0
LINE
  5
116
330
192
100
AcDbEntity
  8
GAIKEI
 62
     7
100
AcDbLine
 10
115.493128111683
 20
341.0919923166215
 30
0.0
 11
116.1931281116829
 21
341.0919923166215
 31
0.0
  0
LINE
  5
117
330
192
100
AcDbEntity
  8
GAIKEI
 62
     1
100
AcDbLine
 10
115.493128111683
 20
338.0191186314036
 30
0.0
 11
116.1931281116829
 21
338.0191186314036
 31
0.0
  0
LINE
  5
118
330
192
100
AcDbEntity
  8
GAIKEI
 62
     1
100
AcDbLine
 10
115.493128111683
 20
338.5191186314036
 30
0.0
 11
116.1931281116829
 21
338.5191186314036
 31
0.0
  0
LINE
  5
119
330
192
100
AcDbEntity
  8
GAIKEI
 62
     7
100
AcDbLine
 10
116.1931281116829
 20
341.5919923166215
 30
0.0
 11
116.1931281116829
 21
341.0919923166215
 31
0.0
  0
LINE
  5
11A
330
192
100
AcDbEntity
  8
WAKU
 62
     4
100
AcDbLine
 10
127.0
 20
302.4992141396417
 30
0.0
 11
2.0
 21
302.4992141396417
 31
0.0
  0
LINE
  5
11C
330
192
100
AcDbEntity
  8
WAKU
 62
     1
100
AcDbLine
 10
127.0
 20
297.4992141396417
 30
0.0
 11
1.999999999999943
 21
297.4992141396417
 31
0.0
  0
LINE
  5
11D
330
192
100
AcDbEntity
  8
WAKU
 62
     1
100
AcDbLine
 10
127.0
 20
292.4992141396417
 30
0.0
 11
1.999999999999943
 21
292.4992141396417
 31
0.0
  0
LINE
  5
11E
330
192
100
AcDbEntity
  8
WAKU
 62
     1
100
AcDbLine
 10
127.0
 20
287.4992141396417
 30
0.0
 11
1.999999999999943
 21
287.4992141396417
 31
0.0
  0
LINE
  5
11F
330
192
100
AcDbEntity
  8
WAKU
 62
     1
100
AcDbLine
 10
1.999999999999943
 20
277.4992141396417
 30
0.0
 11
127.0
 21
277.4992141396417
 31
0.0
  0
LINE
  5
120
330
192
100
AcDbEntity
  8
WAKU
 62
     1
100
AcDbLine
 10
1.999999999999943
 20
272.4992141396417
 30
0.0
 11
127.0
 21
272.4992141396417
 31
0.0
  0
LINE
  5
121
330
192
100
AcDbEntity
  8
WAKU
 62
     1
100
AcDbLine
 10
1.999999999999943
 20
267.4992141396417
 30
0.0
 11
127.0
 21
267.4992141396417
 31
0.0
  0
LINE
  5
122
330
192
100
AcDbEntity
  8
WAKU
 62
     1
100
AcDbLine
 10
1.999999999999943
 20
262.4992141396417
 30
0.0
 11
127.0
 21
262.4992141396417
 31
0.0
  0
LINE
  5
123
330
192
100
AcDbEntity
  8
WAKU
 62
     1
100
AcDbLine
 10
127.0
 20
282.4992141396417
 30
0.0
 11
1.999999999999943
 21
282.4992141396417
 31
0.0
  0
LINE
  5
124
330
192
100
AcDbEntity
  8
WAKU
 62
     4
100
AcDbLine
 10
1.999999999999943
 20
257.4992141396417
 30
0.0
 11
127.0
 21
257.4992141396417
 31
0.0
  0
LINE
  5
125
330
192
100
AcDbEntity
  8
WAKU
 62
     4
100
AcDbLine
 10
2.0
 20
302.4992141396418
 30
0.0
 11
1.999999999999943
 21
257.4992141396417
 31
0.0
  0
TEXT
  5
126
330
192
100
AcDbEntity
  8
MOJI1
100
AcDbText
 10
44.49999999999993
 20
288.4992141396417
 30
0.0
 40
3.0
  1
最大１枚（合計４出力、４出力／ボード）
100
AcDbText
  0
TEXT
  5
127
330
192
100
AcDbEntity
  8
MOJI1
100
AcDbText
 10
44.49999999999993
 20
293.4992141396417
 30
0.0
 40
3.0
  1
最大８枚（合計６４入力、８入力／ボード）
100
AcDbText
  0
TEXT
  5
128
330
192
100
AcDbEntity
  8
MOJI1
100
AcDbText
 10
44.49999999999993
 20
258.4992141396417
 30
0.0
 40
3.0
  1
ツアーシーケンス１６
100
AcDbText
  0
TEXT
  5
129
330
192
100
AcDbEntity
  8
MOJI1
100
AcDbText
 10
44.49999999999993
 20
268.4992141396417
 30
0.0
 40
3.0
  1
入力：センサーボード、起動：３種類
100
AcDbText
  0
TEXT
  5
12A
330
192
100
AcDbEntity
  8
MOJI1
100
AcDbText
 10
44.49999999999993
 20
263.4992141396417
 30
0.0
 40
3.0
  1
起動履歴呼出：最大９９９
100
AcDbText
  0
TEXT
  5
12B
330
192
100
AcDbEntity
  8
MOJI1
100
AcDbText
 10
44.49999999999993
 20
298.4992141396417
 30
0.0
 40
3.0
  1
ＡＣ１００Ｖ　５０／６０Ｈｚ
100
AcDbText
  0
TEXT
  5
12C
330
192
100
AcDbEntity
  8
MOJI1
100
AcDbText
 10
44.49999999999993
 20
273.4992141396417
 30
0.0
 40
3.0
  1
ステップ数：最大６４
100
AcDbText
  0
TEXT
  5
12D
330
192
100
AcDbEntity
  8
MOJI1
100
AcDbText
 10
44.49999999999993
 20
278.4992141396417
 30
0.0
 40
3.0
  1
システムインターフェイス数：２ポート
100
AcDbText
  0
TEXT
  5
12E
330
192
100
AcDbEntity
  8
MOJI1
100
AcDbText
 10
44.49999999999993
 20
283.4992141396417
 30
0.0
 40
3.0
  1
最大１枚
100
AcDbText
  0
TEXT
  5
12F
330
192
100
AcDbEntity
  8
MOJI1
100
AcDbText
 10
4.499999999999943
 20
268.4992141396417
 30
0.0
 40
3.0
  1
アラームプログラム
100
AcDbText
  0
TEXT
  5
130
330
192
100
AcDbEntity
  8
MOJI1
100
AcDbText
 10
4.499999999999943
 20
288.4992141396417
 30
0.0
 40
3.0
  1
ビデオ出力ボード数
100
AcDbText
  0
TEXT
  5
131
330
192
100
AcDbEntity
  8
MOJI1
100
AcDbText
 10
4.499999999999943
 20
283.4992141396417
 30
0.0
 40
3.0
  1
センサーボード数
100
AcDbText
  0
TEXT
  5
132
330
192
100
AcDbEntity
  8
MOJI1
100
AcDbText
 10
4.499999999999943
 20
293.4992141396417
 30
0.0
 40
3.0
  1
ビデオ入力ボード数
100
AcDbText
  0
TEXT
  5
133
330
192
100
AcDbEntity
  8
MOJI1
100
AcDbText
 10
4.499999999999943
 20
258.4992141396417
 30
0.0
 40
3.0
  1
シーケンス数
100
AcDbText
  0
TEXT
  5
134
330
192
100
AcDbEntity
  8
MOJI1
100
AcDbText
 10
4.499999999999943
 20
273.4992141396417
 30
0.0
 40
3.0
  1
プログラミング
100
AcDbText
  0
TEXT
  5
135
330
192
100
AcDbEntity
  8
MOJI1
100
AcDbText
 10
4.499999999999943
 20
278.4992141396417
 30
0.0
 40
3.0
  1
コントローラ
100
AcDbText
  0
TEXT
  5
136
330
192
100
AcDbEntity
  8
MOJI1
100
AcDbText
 10
4.499999999999943
 20
298.4992141396417
 30
0.0
 40
3.0
  1
電　源
100
AcDbText
  0
LINE
  5
137
330
192
100
AcDbEntity
  8
WAKU
 62
     4
100
AcDbLine
 10
41.99999999999993
 20
257.4992141396417
 30
0.0
 11
42.0
 21
302.4992141396418
 31
0.0
  0
LINE
  5
138
330
192
100
AcDbEntity
  8
WAKU
 62
     4
100
AcDbLine
 10
127.0
 20
257.4992141396417
 30
0.0
 11
127.0
 21
302.4992141396418
 31
0.0
  0
ENDSEC
  0
SECTION
  2
OBJECTS
  0
DICTIONARY
  5
17E
330
0
100
AcDbDictionary
281
     1
  3
ACAD_COLOR
350
18D
  3
ACAD_GROUP
350
17F
  3
ACAD_LAYOUT
350
18B
  3
ACAD_MATERIAL
350
18C
  3
ACAD_MLINESTYLE
350
188
  3
ACAD_PLOTSETTINGS
350
18A
  3
ACAD_PLOTSTYLENAME
350
180
  3
ACDBHEADERROUNDTRIPXREC
350
1D8
  3
AcDbVariableDictionary
350
1D3
  3
DWGPROPS
350
1D7
  0
DICTIONARY
  5
18D
102
{ACAD_REACTORS
330
17E
102
}
330
17E
100
AcDbDictionary
281
     1
  0
DICTIONARY
  5
17F
102
{ACAD_REACTORS
330
17E
102
}
330
17E
100
AcDbDictionary
281
     1
  0
DICTIONARY
  5
18B
102
{ACAD_REACTORS
330
17E
102
}
330
17E
100
AcDbDictionary
281
     1
  3
Model
350
195
  3
レイアウト1
350
191
  0
DICTIONARY
  5
18C
102
{ACAD_REACTORS
330
17E
102
}
330
17E
100
AcDbDictionary
281
     1
  0
DICTIONARY
  5
188
102
{ACAD_REACTORS
330
17E
102
}
330
17E
100
AcDbDictionary
281
     1
  3
Standard
350
189
  0
DICTIONARY
  5
18A
102
{ACAD_REACTORS
330
17E
102
}
330
17E
100
AcDbDictionary
281
     1
  0
ACDBDICTIONARYWDFLT
  5
180
102
{ACAD_REACTORS
330
17E
102
}
330
17E
100
AcDbDictionary
281
     1
  3
Normal
350
181
100
AcDbDictionaryWithDefault
340
181
  0
DICTIONARY
  5
1D8
102
{ACAD_REACTORS
330
17E
102
}
330
17E
100
AcDbDictionary
281
     1
  3
COLORDICT
350
1DA
  3
MATERIALDICT
350
1D9
  0
DICTIONARY
  5
1D3
102
{ACAD_REACTORS
330
17E
102
}
330
17E
100
AcDbDictionary
281
     1
  3
DIMASSOC
350
1D4
  3
PROJECTNAME
350
1D5
  0
XRECORD
  5
1D7
102
{ACAD_REACTORS
330
17E
102
}
330
17E
100
AcDbXrecord
280
     1
  1
DWGPROPS COOKIE
  2

  3

  4

  6

  7

  8

  9

300
=
301
=
302
=
303
=
304
=
305
=
306
=
307
=
308
=
309
=
 40
0.5914933333333333
 41
2451814.815532581
 42
2453731.692422778
  1

 90
        0
  0
LAYOUT
  5
195
102
{ACAD_XDICTIONARY
360
1DD
102
}
102
{ACAD_REACTORS
330
18B
102
}
330
18B
100
AcDbPlotSettings
  1

  2
\\Uranus\BFACN02M
  4

  6

 40
0.0
 41
0.0
 42
0.0
 43
0.0
 44
0.0
 45
0.0
 46
0.0
 47
0.0
 48
0.0
 49
0.0
140
0.0
141
0.0
142
1.0
143
1.0
 70
  1712
 72
     0
 73
     0
 74
     0
  7
SSC.ctb
 75
     0
147
1.0
148
0.0
149
0.0
100
AcDbLayout
  1
Model
 70
     1
 71
     0
 10
0.0
 20
0.0
 11
12.0
 21
9.0
 12
0.0
 22
0.0
 32
0.0
 14
0.0
 24
0.0
 34
0.0
 15
0.0
 25
0.0
 35
0.0
146
0.0
 13
0.0
 23
0.0
 33
0.0
 16
1.0
 26
0.0
 36
0.0
 17
0.0
 27
1.0
 37
0.0
 76
     0
330
192
  0
LAYOUT
  5
191
102
{ACAD_XDICTIONARY
360
1DB
102
}
102
{ACAD_REACTORS
330
18B
102
}
330
18B
100
AcDbPlotSettings
  1

  2
\\Uranus\BFACN02M
  4

  6

 40
0.0
 41
0.0
 42
0.0
 43
0.0
 44
0.0
 45
0.0
 46
0.0
 47
0.0
 48
0.0
 49
0.0
140
0.0
141
0.0
142
1.0
143
1.0
 70
   688
 72
     0
 73
     0
 74
     5
  7
SSC.ctb
 75
    16
147
1.0
148
0.0
149
0.0
100
AcDbLayout
  1
レイアウト1
 70
     1
 71
     1
 10
0.0
 20
0.0
 11
12.0
 21
9.0
 12
0.0
 22
0.0
 32
0.0
 14
1.000000000000000E+20
 24
1.000000000000000E+20
 34
1.000000000000000E+20
 15
-1.000000000000000E+20
 25
-1.000000000000000E+20
 35
-1.000000000000000E+20
146
0.0
 13
0.0
 23
0.0
 33
0.0
 16
1.0
 26
0.0
 36
0.0
 17
0.0
 27
1.0
 37
0.0
 76
     0
330
18E
  0
MLINESTYLE
  5
189
102
{ACAD_REACTORS
330
188
102
}
330
188
100
AcDbMlineStyle
  2
STANDARD
 70
     0
  3

 62
   256
 51
90.0
 52
90.0
 71
     2
 49
0.5
 62
   256
  6
BYLAYER
 49
-0.5
 62
   256
  6
BYLAYER
  0
ACDBPLACEHOLDER
  5
181
102
{ACAD_REACTORS
330
180
102
}
330
180
  0
XRECORD
  5
1DA
102
{ACAD_REACTORS
330
1D8
102
}
330
1D8
100
AcDbXrecord
280
     1
340
18D
  0
XRECORD
  5
1D9
102
{ACAD_REACTORS
330
1D8
102
}
330
1D8
100
AcDbXrecord
280
     1
340
18C
  0
DICTIONARYVAR
  5
1D4
102
{ACAD_REACTORS
330
1D3
102
}
330
1D3
100
DictionaryVariables
280
     0
  1
1
  0
DICTIONARYVAR
  5
1D5
102
{ACAD_REACTORS
330
1D3
102
}
330
1D3
100
DictionaryVariables
280
     0
  1

  0
DICTIONARY
  5
1DD
330
195
100
AcDbDictionary
280
     1
281
     1
  3
ACAD_XREC_ROUNDTRIP
360
1DE
  0
DICTIONARY
  5
1DB
330
191
100
AcDbDictionary
280
     1
281
     1
  3
ACAD_XREC_ROUNDTRIP
360
1DC
  0
XRECORD
  5
1DE
102
{ACAD_REACTORS
330
1DD
102
}
330
1DD
100
AcDbXrecord
280
     1
102
SHADEPLOT
 70
     0
102
SHADEPLOTRESLEVEL
 70
     2
102
SHADEPLOTCUSTOMDPI
 70
   300
  0
XRECORD
  5
1DC
102
{ACAD_REACTORS
330
1DB
102
}
330
1DB
100
AcDbXrecord
280
     1
102
SHADEPLOT
 70
     0
102
SHADEPLOTRESLEVEL
 70
     2
102
SHADEPLOTCUSTOMDPI
 70
   300
  0
ENDSEC
  0
EOF
