  0
SECTION
  2
HEADER
  9
$ACADVER
  1
AC1009
  9
$DWGCODEPAGE
  3
ansi_932
  9
$INSBASE
 10
0.0
 20
372.4992141396417
 30
0.0
  9
$EXTMIN
 10
-0.5
 20
-0.0016206966918162
 30
0.0
  9
$EXTMAX
 10
258.5
 20
394.2139117166876
 30
0.0
  9
$LIMMIN
 10
-1101.784450318844
 20
-1579.160531687244
  9
$LIMMAX
 10
-508.2420711400537
 20
-1161.440814074914
  9
$ORTHOMODE
 70
     1
  9
$REGENMODE
 70
     1
  9
$FILLMODE
 70
     1
  9
$QTEXTMODE
 70
     0
  9
$MIRRTEXT
 70
     1
  9
$DRAGMODE
 70
     2
  9
$LTSCALE
 40
1.0
  9
$OSMODE
 70
    37
  9
$ATTMODE
 70
     1
  9
$TEXTSIZE
 40
3.0
  9
$TRACEWID
 40
0.5
  9
$TEXTSTYLE
  7
STANDARD
  9
$CLAYER
  8
MOJI1
  9
$CELTYPE
  6
BYLAYER
  9
$CECOLOR
 62
   256
  9
$DIMSCALE
 40
1.0
  9
$DIMASZ
 40
2.0
  9
$DIMEXO
 40
2.0
  9
$DIMDLI
 40
8.0
  9
$DIMRND
 40
0.0
  9
$DIMDLE
 40
0.0
  9
$DIMEXE
 40
2.0
  9
$DIMTP
 40
0.0
  9
$DIMTM
 40
0.0
  9
$DIMTXT
 40
2.5
  9
$DIMCEN
 40
0.0
  9
$DIMTSZ
 40
0.0
  9
$DIMTOL
 70
     0
  9
$DIMLIM
 70
     0
  9
$DIMTIH
 70
     0
  9
$DIMTOH
 70
     0
  9
$DIMSE1
 70
     0
  9
$DIMSE2
 70
     0
  9
$DIMTAD
 70
     3
  9
$DIMZIN
 70
     0
  9
$DIMBLK
  1

  9
$DIMASO
 70
     1
  9
$DIMSHO
 70
     1
  9
$DIMPOST
  1

  9
$DIMAPOST
  1

  9
$DIMALT
 70
     0
  9
$DIMALTD
 70
     2
  9
$DIMALTF
 40
25.4
  9
$DIMLFAC
 40
1.0
  9
$DIMTOFL
 70
     1
  9
$DIMTVP
 40
0.0
  9
$DIMTIX
 70
     0
  9
$DIMSOXD
 70
     0
  9
$DIMSAH
 70
     1
  9
$DIMBLK1
  1
OPEN30
  9
$DIMBLK2
  1
OPEN30
  9
$DIMSTYLE
  2
STANDARD
  9
$DIMCLRD
 70
     0
  9
$DIMCLRE
 70
     0
  9
$DIMCLRT
 70
     0
  9
$DIMTFAC
 40
1.0
  9
$DIMGAP
 40
0.5
  9
$LUNITS
 70
     2
  9
$LUPREC
 70
     4
  9
$SKETCHINC
 40
0.1
  9
$FILLETRAD
 40
0.0
  9
$AUNITS
 70
     0
  9
$AUPREC
 70
     0
  9
$MENU
  1
ACAD
  9
$ELEVATION
 40
0.0
  9
$PELEVATION
 40
0.0
  9
$THICKNESS
 40
0.0
  9
$LIMCHECK
 70
     0
  9
$BLIPMODE
 70
     0
  9
$CHAMFERA
 40
0.0
  9
$CHAMFERB
 40
0.0
  9
$SKPOLY
 70
     0
  9
$TDCREATE
 40
2451815.565532581
  9
$TDUPDATE
 40
2452466.471060602
  9
$TDINDWG
 40
0.4277259954
  9
$TDUSRTIMER
 40
0.4277259954
  9
$USRTIMER
 70
     1
  9
$ANGBASE
 50
0.0
  9
$ANGDIR
 70
     0
  9
$PDMODE
 70
     0
  9
$PDSIZE
 40
0.0
  9
$PLINEWID
 40
0.0
  9
$COORDS
 70
     1
  9
$SPLFRAME
 70
     0
  9
$SPLINETYPE
 70
     6
  9
$SPLINESEGS
 70
     8
  9
$ATTDIA
 70
     0
  9
$ATTREQ
 70
     1
  9
$HANDLING
 70
     1
  9
$HANDSEED
  5
F1
  9
$SURFTAB1
 70
     6
  9
$SURFTAB2
 70
     6
  9
$SURFTYPE
 70
     6
  9
$SURFU
 70
     6
  9
$SURFV
 70
     6
  9
$UCSNAME
  2

  9
$UCSORG
 10
0.0
 20
0.0
 30
0.0
  9
$UCSXDIR
 10
1.0
 20
0.0
 30
0.0
  9
$UCSYDIR
 10
0.0
 20
1.0
 30
0.0
  9
$PUCSNAME
  2

  9
$PUCSORG
 10
0.0
 20
0.0
 30
0.0
  9
$PUCSXDIR
 10
1.0
 20
0.0
 30
0.0
  9
$PUCSYDIR
 10
0.0
 20
1.0
 30
0.0
  9
$USERI1
 70
     0
  9
$USERI2
 70
     0
  9
$USERI3
 70
     0
  9
$USERI4
 70
     0
  9
$USERI5
 70
     0
  9
$USERR1
 40
0.0
  9
$USERR2
 40
0.0
  9
$USERR3
 40
0.0
  9
$USERR4
 40
0.0
  9
$USERR5
 40
0.0
  9
$WORLDVIEW
 70
     1
  9
$SHADEDGE
 70
     3
  9
$SHADEDIF
 70
    70
  9
$TILEMODE
 70
     1
  9
$MAXACTVP
 70
    48
  9
$PLIMCHECK
 70
     0
  9
$PEXTMIN
 10
1.000000000000000E+20
 20
1.000000000000000E+20
 30
1.000000000000000E+20
  9
$PEXTMAX
 10
-1.000000000000000E+20
 20
-1.000000000000000E+20
 30
-1.000000000000000E+20
  9
$PLIMMIN
 10
0.0
 20
0.0
  9
$PLIMMAX
 10
12.0
 20
9.0
  9
$UNITMODE
 70
     0
  9
$VISRETAIN
 70
     1
  9
$PLINEGEN
 70
     0
  9
$PSLTSCALE
 70
     1
  0
ENDSEC
  0
SECTION
  2
TABLES
  0
TABLE
  2
VPORT
 70
     1
  0
VPORT
  2
*ACTIVE
 70
     0
 10
0.0
 20
0.0
 11
1.0
 21
1.0
 12
64.99952763037823
 22
315.5044983546937
 13
0.0
 23
0.0
 14
1.0
 24
1.0
 15
0.0
 25
0.0
 16
0.0
 26
0.0
 36
1.0
 17
0.0
 27
0.0
 37
0.0
 40
125.3354096905064
 41
1.465177398160315
 42
50.0
 43
0.0
 44
0.0
 50
0.0
 51
0.0
 71
     0
 72
   100
 73
     1
 74
     0
 75
     0
 76
     1
 77
     0
 78
     0
  0
ENDTAB
  0
TABLE
  2
LTYPE
 70
     2
  0
LTYPE
  2
CONTINUOUS
 70
     0
  3
Solid line
 72
    65
 73
     0
 40
0.0
  0
LTYPE
  2
HIDDEN2
 70
     0
  3
Hidden (.5x) _ _ _ _ _ _ _ _ _ _ _ _ _ _ _ _ _
 72
    65
 73
     2
 40
1.4
 49
0.7
 49
-0.7
  0
ENDTAB
  0
TABLE
  2
LAYER
 70
     6
  0
LAYER
  2
0
 70
     0
 62
     7
  6
CONTINUOUS
  0
LAYER
  2
DEFPOINTS
 70
     0
 62
     7
  6
CONTINUOUS
  0
LAYER
  2
WAKU
 70
     0
 62
     4
  6
CONTINUOUS
  0
LAYER
  2
MOJI1
 70
     0
 62
     2
  6
CONTINUOUS
  0
LAYER
  2
GAIKEI
 70
     0
 62
     7
  6
CONTINUOUS
  0
LAYER
  2
SUNPO
 70
     0
 62
     3
  6
CONTINUOUS
  0
ENDTAB
  0
TABLE
  2
STYLE
 70
     3
  0
STYLE
  2
STANDARD
 70
     0
 40
0.0
 41
1.0
 50
0.0
 71
     0
 42
3.0
  3
MONOTXT.shx
  4
BIGFONT.shx
  0
STYLE
  2
KANJI
 70
     0
 40
0.0
 41
1.0
 50
0.0
 71
     0
 42
3.5
  3
MONOTXT
  4
BIGFONT
  0
STYLE
  2
EXPLODED0
 70
     0
 40
0.2
 41
1.0
 50
0.0
 71
     0
 42
0.2
  3
MONOTXT.shx
  4
BIGFONT.shx
  0
ENDTAB
  0
TABLE
  2
VIEW
 70
     0
  0
ENDTAB
  0
TABLE
  2
UCS
 70
     0
  0
ENDTAB
  0
TABLE
  2
APPID
 70
     1
  0
APPID
  2
ACAD
 70
     0
  0
ENDTAB
  0
TABLE
  2
DIMSTYLE
 70
     1
  0
DIMSTYLE
  2
STANDARD
 70
     0
  3

  4

  5

  6
OPEN30
  7
OPEN30
 40
0.0
 41
2.0
 42
2.0
 43
8.0
 44
2.0
 45
0.0
 46
0.0
 47
0.0
 48
0.0
140
3.0
141
0.0
142
0.0
143
25.4
144
1.0
145
0.0
146
1.0
147
0.09
 71
     0
 72
     0
 73
     0
 74
     0
 75
     0
 76
     0
 77
     3
 78
     0
170
     0
171
     2
172
     0
173
     1
174
     0
175
     0
176
     0
177
     0
178
     0
  0
ENDTAB
  0
ENDSEC
  0
SECTION
  2
BLOCKS
  0
BLOCK
  8
0
  2
$MODEL_SPACE
 70
     0
 10
0.0
 20
0.0
 30
0.0
  3
$MODEL_SPACE
  1

  0
ENDBLK
  5
8
  8
0
 62
   256
  0
BLOCK
 67
     1
  8
0
  2
$PAPER_SPACE
 70
     0
 10
0.0
 20
0.0
 30
0.0
  3
$PAPER_SPACE
  1

  0
ENDBLK
  5
D
 67
     1
  8
0
 62
   256
  0
BLOCK
  8
0
  2
_OPEN30
 70
     0
 10
0.0
 20
0.0
 30
0.0
  3
_OPEN30
  1

  0
LINE
  5
49
  8
0
  6
BYBLOCK
 62
     0
 10
-1.0
 20
0.26794919
 30
0.0
 11
0.0
 21
0.0
 31
0.0
  0
LINE
  5
4A
  8
0
  6
BYBLOCK
 62
     0
 10
0.0
 20
0.0
 30
0.0
 11
-1.0
 21
-0.26794919
 31
0.0
  0
LINE
  5
4B
  8
0
  6
BYBLOCK
 62
     0
 10
0.0
 20
0.0
 30
0.0
 11
-1.0
 21
0.0
 31
0.0
  0
ENDBLK
  5
4D
  8
0
 62
   256
  0
BLOCK
  8
0
  2
*D1
 70
     1
 10
0.0
 20
0.0
 30
0.0
  3
*D1
  1

  0
LINE
  5
5A
  8
SUNPO
 62
     0
 10
89.97549714904481
 20
332.4886898601863
 30
0.0
 11
89.9754971490449
 21
348.9085064525822
 31
0.0
  0
LINE
  5
5B
  8
SUNPO
 62
     0
 10
79.47549714904481
 20
332.4886898601864
 30
0.0
 11
79.4754971490449
 21
348.9085064525823
 31
0.0
  0
LINE
  5
5C
  8
SUNPO
 62
     0
 10
87.97549714904488
 20
346.9085064525822
 30
0.0
 11
81.47549714904488
 21
346.9085064525822
 31
0.0
  0
INSERT
  5
5D
  8
SUNPO
 62
     0
  2
_OPEN30
 10
89.97549714904488
 20
346.9085064525822
 30
0.0
 41
2.0
 42
2.0
 43
2.0
 50
359.9999999999997
  0
INSERT
  5
5E
  8
SUNPO
 62
     0
  2
_OPEN30
 10
79.47549714904488
 20
346.9085064525823
 30
0.0
 41
2.0
 42
2.0
 43
2.0
 50
179.9999999999997
  0
TEXT
  5
5F
  8
SUNPO
 62
     0
 10
81.47549714903238
 20
347.4085064525822
 30
0.0
 40
2.5
  1
10.5
  7
EXPLODED0
  0
POINT
  5
60
  8
DEFPOINTS
 62
     0
 10
89.9754971490448
 20
330.4886898601863
 30
0.0
  0
POINT
  5
61
  8
DEFPOINTS
 62
     0
 10
79.4754971490448
 20
330.4886898601864
 30
0.0
  0
POINT
  5
62
  8
DEFPOINTS
 62
     0
 10
79.47549714904488
 20
346.9085064525823
 30
0.0
  0
ENDBLK
  5
64
  8
0
 62
   256
  0
BLOCK
  8
0
  2
*D2
 70
     1
 10
0.0
 20
0.0
 30
0.0
  3
*D2
  1

  0
LINE
  5
44
  8
SUNPO
 62
     0
 10
49.47549714904476
 20
330.4886898601862
 30
0.0
 11
49.47549714904486
 21
348.9085064525821
 31
0.0
  0
LINE
  5
45
  8
SUNPO
 62
     0
 10
37.47549714904476
 20
330.4886898601863
 30
0.0
 11
37.47549714904486
 21
348.9085064525822
 31
0.0
  0
LINE
  5
46
  8
SUNPO
 62
     0
 10
47.47549714904484
 20
346.9085064525822
 30
0.0
 11
39.47549714904484
 21
346.9085064525822
 31
0.0
  0
INSERT
  5
47
  8
SUNPO
 62
     0
  2
_OPEN30
 10
49.47549714904484
 20
346.9085064525821
 30
0.0
 41
2.0
 42
2.0
 43
2.0
 50
359.9999999999997
  0
INSERT
  5
4E
  8
SUNPO
 62
     0
  2
_OPEN30
 10
37.47549714904484
 20
346.9085064525822
 30
0.0
 41
2.0
 42
2.0
 43
2.0
 50
179.9999999999997
  0
TEXT
  5
4F
  8
SUNPO
 62
     0
 10
41.89216381570735
 20
347.4085064525822
 30
0.0
 40
2.5
  1
12
  7
EXPLODED0
  0
POINT
  5
50
  8
DEFPOINTS
 62
     0
 10
49.47549714904474
 20
328.4886898601862
 30
0.0
  0
POINT
  5
54
  8
DEFPOINTS
 62
     0
 10
37.47549714904474
 20
328.4886898601863
 30
0.0
  0
POINT
  5
55
  8
DEFPOINTS
 62
     0
 10
37.47549714904484
 20
346.9085064525822
 30
0.0
  0
ENDBLK
  5
57
  8
0
 62
   256
  0
BLOCK
  8
0
  2
*D3
 70
     1
 10
0.0
 20
0.0
 30
0.0
  3
*D3
  1

  0
LINE
  5
A6
  8
SUNPO
 62
     0
 10
87.4754971490448
 20
310.9886898601864
 30
0.0
 11
87.4754971490448
 21
302.9886898601864
 31
0.0
  0
LINE
  5
A7
  8
SUNPO
 62
     0
 10
79.47549714904477
 20
310.9886898601864
 30
0.0
 11
79.47549714904477
 21
302.9886898601864
 31
0.0
  0
LINE
  5
A8
  8
SUNPO
 62
     0
 10
85.4754971490448
 20
304.9886898601864
 30
0.0
 11
81.47549714904477
 21
304.9886898601864
 31
0.0
  0
INSERT
  5
A9
  8
SUNPO
 62
     0
  2
_OPEN30
 10
87.4754971490448
 20
304.9886898601864
 30
0.0
 41
2.0
 42
2.0
 43
2.0
  0
INSERT
  5
AA
  8
SUNPO
 62
     0
  2
_OPEN30
 10
79.47549714904477
 20
304.9886898601864
 30
0.0
 41
2.0
 42
2.0
 43
2.0
 50
180.0
  0
TEXT
  5
AB
  8
SUNPO
 62
     0
 10
82.72549714904478
 20
305.4886898601864
 30
0.0
 40
2.5
  1
8
  7
EXPLODED0
  0
POINT
  5
AC
  8
DEFPOINTS
 62
     0
 10
87.4754971490448
 20
312.9886898601864
 30
0.0
  0
POINT
  5
AD
  8
DEFPOINTS
 62
     0
 10
79.47549714904477
 20
312.9886898601864
 30
0.0
  0
POINT
  5
AE
  8
DEFPOINTS
 62
     0
 10
79.47549714904477
 20
304.9886898601864
 30
0.0
  0
ENDBLK
  5
B0
  8
0
 62
   256
  0
BLOCK
  8
0
  2
*D4
 70
     1
 10
0.0
 20
0.0
 30
0.0
  3
*D4
  1

  0
LINE
  5
6C
  8
SUNPO
 62
     0
 10
51.47549714904477
 20
312.9886898601863
 30
0.0
 11
59.47549714904477
 21
312.9886898601863
 31
0.0
  0
LINE
  5
6D
  8
SUNPO
 62
     0
 10
51.47549714904477
 20
330.4886898601862
 30
0.0
 11
59.47549714904477
 21
330.4886898601862
 31
0.0
  0
LINE
  5
6E
  8
SUNPO
 62
     0
 10
57.47549714904477
 20
314.9886898601863
 30
0.0
 11
57.47549714904477
 21
328.4886898601862
 31
0.0
  0
INSERT
  5
6F
  8
SUNPO
 62
     0
  2
_OPEN30
 10
57.47549714904477
 20
312.9886898601863
 30
0.0
 41
2.0
 42
2.0
 43
2.0
 50
270.0
  0
INSERT
  5
70
  8
SUNPO
 62
     0
  2
_OPEN30
 10
57.47549714904477
 20
330.4886898601862
 30
0.0
 41
2.0
 42
2.0
 43
2.0
 50
90.0
  0
TEXT
  5
71
  8
SUNPO
 62
     0
 10
56.97549714904471
 20
318.4886898601738
 30
0.0
 40
2.5
  1
17.5
 50
90.0
  7
EXPLODED0
  0
POINT
  5
72
  8
DEFPOINTS
 62
     0
 10
49.47549714904477
 20
312.9886898601863
 30
0.0
  0
POINT
  5
73
  8
DEFPOINTS
 62
     0
 10
49.47549714904477
 20
330.4886898601862
 30
0.0
  0
POINT
  5
74
  8
DEFPOINTS
 62
     0
 10
57.47549714904477
 20
330.4886898601862
 30
0.0
  0
ENDBLK
  5
76
  8
0
 62
   256
  0
ENDSEC
  0
SECTION
  2
ENTITIES
  0
TEXT
  5
29
  8
MOJI1
 62
   256
 10
28.99999999999977
 20
366.4992141396417
 30
0.0
 40
4.0
  1
チェストマイク
  7
KANJI
  0
LINE
  5
2B
  8
WAKU
 62
     4
 10
126.9999999999999
 20
257.4992141396417
 30
0.0
 11
1.999999999999886
 21
257.4992141396417
 31
0.0
  0
LINE
  5
2D
  8
WAKU
 62
     1
 10
1.999999999999886
 20
262.4992141396417
 30
0.0
 11
126.9999999999999
 21
262.4992141396417
 31
0.0
  0
LINE
  5
2E
  8
WAKU
 62
     1
 10
1.999999999999886
 20
267.4992141396417
 30
0.0
 11
126.9999999999999
 21
267.4992141396417
 31
0.0
  0
LINE
  5
2F
  8
WAKU
 62
     1
 10
1.999999999999886
 20
282.4992141396417
 30
0.0
 11
126.9999999999999
 21
282.4992141396417
 31
0.0
  0
LINE
  5
30
  8
WAKU
 62
     1
 10
1.999999999999886
 20
287.4992141396417
 30
0.0
 11
126.9999999999999
 21
287.4992141396417
 31
0.0
  0
LINE
  5
31
  8
WAKU
 62
     4
 10
1.999999999999886
 20
292.4992141396417
 30
0.0
 11
126.9999999999999
 21
292.4992141396417
 31
0.0
  0
LINE
  5
32
  8
WAKU
 62
     1
 10
1.999999999999886
 20
272.4992141396417
 30
0.0
 11
126.9999999999999
 21
272.4992141396417
 31
0.0
  0
LINE
  5
33
  8
WAKU
 62
     1
 10
1.999999999999886
 20
277.4992141396417
 30
0.0
 11
126.9999999999999
 21
277.4992141396417
 31
0.0
  0
LINE
  5
34
  8
WAKU
 62
     4
 10
1.999999999999886
 20
292.4992141396417
 30
0.0
 11
1.999999999999886
 21
257.4992141396417
 31
0.0
  0
LINE
  5
35
  8
GAIKEI
  6
HIDDEN2
 62
     1
 10
91.22549714904477
 20
333.4886898601864
 30
0.0
 11
89.97549714904477
 21
330.4886898601864
 31
0.0
  0
LINE
  5
38
  8
GAIKEI
  6
HIDDEN2
 62
   256
 10
89.47549714904477
 20
336.9886898601864
 30
0.0
 11
89.4754971490448
 21
330.4886898601864
 31
0.0
  0
LINE
  5
39
  8
GAIKEI
  6
HIDDEN2
 62
     1
 10
82.97549714904477
 20
330.4886898601864
 30
0.0
 11
81.72549714904477
 21
333.4886898601864
 31
0.0
  0
LINE
  5
3A
  8
GAIKEI
  6
HIDDEN2
 62
   256
 10
83.47549714904477
 20
336.9886898601864
 30
0.0
 11
83.47549714904477
 21
330.4886898601864
 31
0.0
  0
LINE
  5
3B
  8
SUNPO
 62
   256
 10
57.47549714904477
 20
332.4886898601862
 30
0.0
 11
57.47549714904477
 21
335.9886898601863
 31
0.0
  0
LINE
  5
3D
  8
GAIKEI
  6
HIDDEN2
 62
     1
 10
48.22549714904474
 20
333.4886898601862
 30
0.0
 11
46.97549714904474
 21
330.4886898601862
 31
0.0
  0
LINE
  5
3E
  8
GAIKEI
  6
HIDDEN2
 62
   256
 10
46.47549714904474
 20
336.9886898601863
 30
0.0
 11
46.47549714904474
 21
330.4886898601863
 31
0.0
  0
LINE
  5
3F
  8
GAIKEI
  6
HIDDEN2
 62
     1
 10
39.97549714904474
 20
330.4886898601862
 30
0.0
 11
38.72549714904474
 21
333.4886898601862
 31
0.0
  0
LINE
  5
40
  8
GAIKEI
  6
HIDDEN2
 62
   256
 10
40.47549714904474
 20
336.9886898601863
 30
0.0
 11
40.47549714904474
 21
330.4886898601862
 31
0.0
  0
TEXT
  5
41
  8
SUNPO
 62
   256
 10
56.97549714904466
 20
331.8220231935113
 30
0.0
 40
2.5
  1
7.5
 50
90.0
  7
EXPLODED0
  0
DIMENSION
  5
42
  8
SUNPO
 62
   256
  2
*D2
 10
37.47549714904484
 20
346.9085064525822
 30
0.0
 11
43.47549714904485
 21
348.6585064525822
 31
0.0
 70
     1
  1
12
  3
STANDARD
 13
49.47549714904474
 23
328.4886898601862
 33
0.0
 14
37.47549714904474
 24
328.4886898601863
 34
0.0
1001
ACAD
1000
DSTYLE
1002
{
1070
   287
1070
     3
1070
    40
1040
1.0
1070
   140
1040
2.5
1070
   147
1040
0.5
1070
   172
1070
     1
1070
   279
1070
     0
1070
   288
1070
     0
1002
}
  0
DIMENSION
  5
58
  8
SUNPO
 62
   256
  2
*D1
 10
79.47549714904488
 20
346.9085064525823
 30
0.0
 11
84.7254971490449
 21
348.6585064525822
 31
0.0
 70
     1
  1
10.5
  3
STANDARD
 13
89.9754971490448
 23
330.4886898601863
 33
0.0
 14
79.4754971490448
 24
330.4886898601864
 34
0.0
1001
ACAD
1000
DSTYLE
1002
{
1070
   287
1070
     3
1070
    40
1040
1.0
1070
   140
1040
2.5
1070
   147
1040
0.5
1070
   172
1070
     1
1070
   279
1070
     0
1070
   288
1070
     0
1002
}
  0
LINE
  5
65
  8
SUNPO
 62
   256
 10
51.47549714904474
 20
330.4886898601862
 30
0.0
 11
59.47549714904477
 21
330.4886898601862
 31
0.0
  0
TEXT
  5
66
  8
MOJI1
 62
   256
 10
44.49999999999989
 20
283.4992141396417
 30
0.0
 40
3.0
  1
－４０ｄＢＶ
  0
TEXT
  5
67
  8
MOJI1
 62
   256
 10
44.49999999999989
 20
278.4992141396417
 30
0.0
 40
3.0
  1
２０Ｈｚ～２０ｋＨｚ
  0
TEXT
  5
68
  8
MOJI1
 62
   256
 10
44.49999999999989
 20
273.4992141396417
 30
0.0
 40
3.0
  1
無指向性
  0
TEXT
  5
69
  8
MOJI1
 62
   256
 10
44.49999999999989
 20
288.4992141396417
 30
0.0
 40
3.0
  1
バックエレクトレットコンデンサー形
  0
DIMENSION
  5
6A
  8
SUNPO
 62
   256
  2
*D4
 10
57.47549714904477
 20
330.4886898601862
 30
0.0
 11
55.72549714904472
 21
321.7386898601862
 31
0.0
 70
     1
  1
17.5
  3
STANDARD
 13
49.47549714904477
 23
312.9886898601863
 33
0.0
 14
49.47549714904477
 24
330.4886898601862
 34
0.0
1001
ACAD
1000
DSTYLE
1002
{
1070
   287
1070
     3
1070
    40
1040
1.0
1070
   140
1040
2.5
1070
   147
1040
0.5
1070
   172
1070
     1
1070
   279
1070
     0
1070
   288
1070
     0
1002
}
  0
TEXT
  5
77
  8
MOJI1
 62
   256
 10
4.499999999999886
 20
278.4992141396417
 30
0.0
 40
3.0
  1
周波数特性
  0
TEXT
  5
78
  8
MOJI1
 62
   256
 10
4.499999999999886
 20
288.4992141396417
 30
0.0
 40
3.0
  1
形　式
  0
TEXT
  5
79
  8
MOJI1
 62
   256
 10
4.499999999999886
 20
283.4992141396417
 30
0.0
 40
3.0
  1
感　度
  0
TEXT
  5
7A
  8
MOJI1
 62
   256
 10
4.499999999999886
 20
273.4992141396417
 30
0.0
 40
3.0
  1
指向性
  0
LINE
  5
7B
  8
WAKU
 62
     4
 10
41.99999999999989
 20
292.4992141396417
 30
0.0
 11
41.99999999999989
 21
257.4992141396417
 31
0.0
  0
LINE
  5
7C
  8
GAIKEI
 62
   256
 10
46.97549714904474
 20
330.4886898601862
 30
0.0
 11
39.97549714904474
 21
330.4886898601862
 31
0.0
  0
LINE
  5
7D
  8
GAIKEI
 62
   256
 10
47.47549714904474
 20
330.4886898601862
 30
0.0
 11
39.47549714904474
 21
330.4886898601862
 31
0.0
  0
CIRCLE
  5
7E
  8
GAIKEI
 62
     1
 10
43.47549714904474
 20
321.9486247826567
 30
0.0
 40
1.0
  0
LINE
  5
7F
  8
GAIKEI
 62
     1
 10
38.47549714904474
 20
320.9486247826567
 30
0.0
 11
46.47549714904474
 21
320.9486247826567
 31
0.0
  0
LINE
  5
80
  8
GAIKEI
 62
     1
 10
46.47549714904474
 20
314.9486247826567
 30
0.0
 11
40.48828750227327
 21
314.9486247826567
 31
0.0
  0
LINE
  5
81
  8
GAIKEI
 62
   256
 10
47.22549714904474
 20
312.9886898601863
 30
0.0
 11
39.72549714904474
 21
312.9886898601863
 31
0.0
  0
LINE
  5
82
  8
GAIKEI
 62
   256
 10
39.47549714904474
 20
330.4886898601862
 30
0.0
 11
37.47549714904474
 21
328.4886898601863
 31
0.0
  0
LINE
  5
83
  8
GAIKEI
 62
     1
 10
39.97549714904474
 20
325.1886898601863
 30
0.0
 11
39.97549714904474
 21
322.7886898601863
 31
0.0
  0
CIRCLE
  5
84
  8
GAIKEI
 62
     1
 10
39.97549714904474
 20
323.9886898601862
 30
0.0
 40
1.5
  0
LINE
  5
85
  8
GAIKEI
 62
     1
 10
38.77549714904475
 20
323.9886898601862
 30
0.0
 11
41.17549714904473
 21
323.9886898601862
 31
0.0
  0
LINE
  5
86
  8
GAIKEI
 62
   256
 10
39.22549714904474
 20
316.9886898601863
 30
0.0
 11
37.47549714904474
 21
318.4886898601863
 31
0.0
  0
LINE
  5
87
  8
GAIKEI
 62
     1
 10
40.16982234466067
 20
317.4963460435573
 30
0.0
 11
38.47549714904474
 21
318.9486247826567
 31
0.0
  0
LINE
  5
88
  8
GAIKEI
 62
     1
 10
40.48828750227327
 20
314.9486247826567
 30
0.0
 11
40.16982234466067
 21
317.4963460435573
 31
0.0
  0
LINE
  5
89
  8
GAIKEI
 62
     1
 10
38.47549714904474
 20
318.9486247826567
 30
0.0
 11
38.47549714904474
 21
320.9486247826567
 31
0.0
  0
LINE
  5
8A
  8
GAIKEI
 62
   256
 10
39.72549714904474
 20
312.9886898601863
 30
0.0
 11
39.22549714904474
 21
316.9886898601863
 31
0.0
  0
LINE
  5
8B
  8
GAIKEI
 62
   256
 10
37.47549714904474
 20
328.4886898601863
 30
0.0
 11
37.47549714904474
 21
318.4886898601863
 31
0.0
  0
CIRCLE
  5
8C
  8
GAIKEI
 62
     1
 10
41.19844265731103
 20
327.2386898601862
 30
0.0
 40
0.75
  0
LINE
  5
8D
  8
GAIKEI
 62
   256
 10
47.47549714904474
 20
330.4886898601862
 30
0.0
 11
49.47549714904474
 21
328.4886898601862
 31
0.0
  0
LINE
  5
8E
  8
GAIKEI
 62
   256
 10
49.47549714904474
 20
321.9886898601863
 30
0.0
 11
49.97549714904474
 21
321.4886898601863
 31
0.0
  0
CIRCLE
  5
8F
  8
GAIKEI
 62
     1
 10
46.97549714904474
 20
323.9886898601862
 30
0.0
 40
1.5
  0
LINE
  5
90
  8
GAIKEI
 62
     1
 10
45.77549714904475
 20
323.9886898601862
 30
0.0
 11
48.17549714904473
 21
323.9886898601862
 31
0.0
  0
LINE
  5
91
  8
GAIKEI
 62
     1
 10
46.97549714904474
 20
325.1886898601863
 30
0.0
 11
46.97549714904474
 21
322.7886898601863
 31
0.0
  0
LINE
  5
92
  8
GAIKEI
 62
   256
 10
49.47549714904474
 20
317.9886898601863
 30
0.0
 11
49.97549714904474
 21
318.4886898601863
 31
0.0
  0
LINE
  5
93
  8
GAIKEI
 62
     1
 10
48.54280484135245
 20
317.9886898601863
 30
0.0
 11
48.54280484135245
 21
320.4227557942522
 31
0.0
  0
LINE
  5
94
  8
GAIKEI
 62
   256
 10
49.47549714904474
 20
317.9886898601863
 30
0.0
 11
47.61011253366016
 21
317.9886898601863
 31
0.0
  0
LINE
  5
95
  8
GAIKEI
 62
   256
 10
47.72549714904474
 20
319.4886898601862
 30
0.0
 11
49.47549714904474
 21
321.4886898601862
 31
0.0
  0
LINE
  5
96
  8
GAIKEI
 62
     1
 10
46.47549714904474
 20
320.9486247826567
 30
0.0
 11
46.47549714904474
 21
314.9486247826567
 31
0.0
  0
LINE
  5
97
  8
GAIKEI
 62
   256
 10
49.97549714904474
 20
321.4886898601863
 30
0.0
 11
49.97549714904474
 21
318.4886898601863
 31
0.0
  0
LINE
  5
98
  8
GAIKEI
 62
     1
 10
49.47549714904474
 20
317.9886898601863
 30
0.0
 11
49.47549714904474
 21
321.9886898601863
 31
0.0
  0
LINE
  5
99
  8
GAIKEI
 62
   256
 10
47.72549714904474
 20
319.4886898601862
 30
0.0
 11
47.22549714904474
 21
312.9886898601863
 31
0.0
  0
LINE
  5
9A
  8
GAIKEI
 62
   256
 10
49.47549714904474
 20
328.4886898601862
 30
0.0
 11
49.47549714904474
 21
321.4886898601862
 31
0.0
  0
CIRCLE
  5
9B
  8
GAIKEI
 62
     1
 10
45.72549714904474
 20
327.2386898601862
 30
0.0
 40
0.75
  0
LINE
  5
9C
  8
GAIKEI
 62
   256
 10
85.9754971490448
 20
330.4886898601864
 30
0.0
 11
79.4754971490448
 21
330.4886898601864
 31
0.0
  0
LINE
  5
9D
  8
GAIKEI
 62
     1
 10
79.47549714904477
 20
328.9886898601864
 30
0.0
 11
83.47549714904477
 21
328.9886898601864
 31
0.0
  0
ARC
  5
9E
  8
GAIKEI
 62
     1
 10
83.18527632885551
 20
323.9035163586091
 30
0.0
 40
2.0
 50
253.8011169585737
 51
0.0
  0
CIRCLE
  5
9F
  8
GAIKEI
 62
     1
 10
82.47549714904477
 20
319.9886898601864
 30
0.0
 40
2.0
  0
LINE
  5
A0
  8
GAIKEI
 62
     1
 10
83.47549714904477
 20
328.9886898601864
 30
0.0
 11
82.47549714904477
 21
321.9886898601864
 31
0.0
  0
LINE
  5
A1
  8
GAIKEI
 62
   256
 10
87.4754971490448
 20
312.9886898601864
 30
0.0
 11
79.47549714904477
 21
312.9886898601864
 31
0.0
  0
LINE
  5
A2
  8
GAIKEI
 62
     1
 10
86.97191001656421
 20
317.9886898601864
 30
0.0
 11
82.47549714904477
 21
317.9886898601864
 31
0.0
  0
LINE
  5
A3
  8
GAIKEI
 62
   256
 10
89.97549714904477
 20
330.4886898601864
 30
0.0
 11
82.97549714904477
 21
330.4886898601864
 31
0.0
  0
DIMENSION
  5
A4
  8
SUNPO
 62
   256
  2
*D3
 10
79.47549714904477
 20
304.9886898601864
 30
0.0
 11
83.47549714904478
 21
306.7386898601864
 31
0.0
 70
     1
  1
8
  3
STANDARD
 13
87.4754971490448
 23
312.9886898601864
 33
0.0
 14
79.47549714904477
 24
312.9886898601864
 34
0.0
1001
ACAD
1000
DSTYLE
1002
{
1070
   287
1070
     3
1070
    40
1040
1.0
1070
   140
1040
2.5
1070
   147
1040
0.5
1070
   172
1070
     1
1070
   279
1070
     0
1070
   288
1070
     0
1002
}
  0
INSERT
  5
B1
  8
SUNPO
 62
   256
  2
_OPEN30
 10
57.47549714904477
 20
330.4886898601862
 30
0.0
 41
2.0
 42
2.0
 43
2.0
 50
270.0
  0
LINE
  5
B2
  8
GAIKEI
 62
     1
 10
82.47549714904477
 20
321.9886898601864
 30
0.0
 11
80.47549714904477
 21
321.9886898601864
 31
0.0
  0
LINE
  5
B3
  8
GAIKEI
 62
     1
 10
80.47549714904477
 20
319.9886898601864
 30
0.0
 11
79.47549714904477
 21
319.9886898601864
 31
0.0
  0
LINE
  5
B4
  8
GAIKEI
 62
     1
 10
81.15262149351247
 20
318.4886898601864
 30
0.0
 11
79.47549714904477
 21
318.4886898601864
 31
0.0
  0
LINE
  5
B5
  8
GAIKEI
 62
     1
 10
80.47549714904477
 20
321.9886898601864
 30
0.0
 11
80.47549714904477
 21
319.9886898601864
 31
0.0
  0
LINE
  5
B6
  8
GAIKEI
 62
     1
 10
80.9754971490448
 20
318.6658142046541
 30
0.0
 11
80.97549714904477
 21
312.9886898601864
 31
0.0
  0
LINE
  5
B7
  8
GAIKEI
 62
   256
 10
79.4754971490448
 20
330.4886898601864
 30
0.0
 11
79.47549714904477
 21
312.9886898601864
 31
0.0
  0
LINE
  5
B8
  8
GAIKEI
 62
     1
 10
80.9754971490448
 20
330.4886898601864
 30
0.0
 11
80.9754971490448
 21
321.3115655157187
 31
0.0
  0
LINE
  5
B9
  8
GAIKEI
 62
   256
 10
88.9754971490448
 20
330.4886898601864
 30
0.0
 11
89.9754971490448
 21
330.4886898601864
 31
0.0
  0
LINE
  5
BA
  8
GAIKEI
 62
     1
 10
88.29446522161152
 20
329.0099832355807
 30
0.0
 11
88.9754971490448
 21
330.4886898601864
 31
0.0
  0
LINE
  5
BB
  8
GAIKEI
 62
     1
 10
88.29446522161152
 20
329.0099832355807
 30
0.0
 11
88.6780523540921
 21
328.0099832355807
 31
0.0
  0
LINE
  5
BC
  8
GAIKEI
 62
     1
 10
87.99446522161153
 20
326.5099832355807
 30
0.0
 11
88.43805235409209
 21
326.0099832355807
 31
0.0
  0
LINE
  5
BD
  8
GAIKEI
 62
     1
 10
88.43805235409209
 20
326.0099832355807
 30
0.0
 11
87.75446522161153
 21
324.5099832355807
 31
0.0
  0
LINE
  5
BE
  8
GAIKEI
 62
     1
 10
86.97191001656421
 20
317.9886898601864
 30
0.0
 11
87.41474114904477
 21
317.4823898601863
 31
0.0
  0
ARC
  5
BF
  8
GAIKEI
 62
   256
 10
80.15731533086296
 20
322.2614171329137
 30
0.0
 40
9.848543123370723
 50
327.6302160625775
 51
355.4998862915803
  0
LINE
  5
C0
  8
GAIKEI
 62
     1
 10
86.97191001656421
 20
317.9886898601864
 30
0.0
 11
87.75446522161153
 21
324.5099832355807
 31
0.0
  0
LINE
  5
C1
  8
GAIKEI
 62
   256
 10
88.4754971490448
 20
316.9886898601864
 30
0.0
 11
87.4754971490448
 21
312.9886898601864
 31
0.0
  0
LINE
  5
C2
  8
GAIKEI
 62
     1
 10
87.41474114904474
 20
317.4823898601864
 30
0.0
 11
88.9754971490448
 21
330.4886898601864
 31
0.0
  0
LINE
  5
C3
  8
GAIKEI
 62
   256
 10
89.9754971490448
 20
330.4886898601864
 30
0.0
 11
89.9754971490448
 21
321.4886898601864
 31
0.0
  0
LINE
  5
C4
  8
GAIKEI
 62
     1
 10
88.6780523540921
 20
328.0099832355807
 30
0.0
 11
87.99446522161153
 21
326.5099832355807
 31
0.0
  0
LINE
  5
C5
  8
GAIKEI
 62
     1
 10
83.47549714904477
 20
328.9886898601864
 30
0.0
 11
85.85549714904479
 21
329.4886898601864
 31
0.0
  0
LINE
  5
C6
  8
GAIKEI
 62
     1
 10
85.47364892448769
 20
317.9886898601864
 30
0.0
 11
85.91648005696825
 21
317.4823898601863
 31
0.0
  0
LINE
  5
C7
  8
GAIKEI
 62
     1
 10
85.12849399447063
 20
323.4303302387352
 30
0.0
 11
85.9754971490448
 21
330.4886898601864
 31
0.0
  0
LINE
  5
C8
  8
GAIKEI
 62
   256
 10
88.9754971490448
 20
330.4886898601864
 30
0.0
 11
85.9754971490448
 21
330.4886898601864
 31
0.0
  0
LINE
  5
C9
  8
GAIKEI
 62
     1
 10
88.29446522161149
 20
329.0099832355807
 30
0.0
 11
85.79805235409211
 21
329.0099832355807
 31
0.0
  0
LINE
  5
CA
  8
GAIKEI
 62
     1
 10
88.6780523540921
 20
328.0099832355807
 30
0.0
 11
85.6780523540921
 21
328.0099832355807
 31
0.0
  0
LINE
  5
CB
  8
GAIKEI
 62
     1
 10
87.99446522161156
 20
326.5099832355807
 30
0.0
 11
85.4980523540921
 21
326.5099832355807
 31
0.0
  0
LINE
  5
CC
  8
GAIKEI
 62
     1
 10
88.43805235409209
 20
326.0099832355807
 30
0.0
 11
85.43805235409209
 21
326.0099832355807
 31
0.0
  0
LINE
  5
CD
  8
GAIKEI
 62
     1
 10
88.25805235409209
 20
324.5099832355807
 30
0.0
 11
85.25805235409209
 21
324.5099832355807
 31
0.0
  0
LINE
  5
CE
  8
GAIKEI
 62
     1
 10
88.7686276570663
 20
317.4823898601863
 30
0.0
 11
84.4516463253716
 21
317.4823898601863
 31
0.0
  0
LINE
  5
CF
  8
WAKU
 62
     4
 10
126.9999999999999
 20
292.4992141396417
 30
0.0
 11
126.9999999999999
 21
257.4992141396417
 31
0.0
  0
LINE
  5
D0
  8
SUNPO
 62
   256
 10
51.47549714904477
 20
337.9886898601863
 30
0.0
 11
59.47549714904477
 21
337.9886898601863
 31
0.0
  0
LINE
  5
D1
  8
GAIKEI
  6
HIDDEN2
 62
   256
 10
45.97549714904474
 20
337.9886898601863
 30
0.0
 11
40.97549714904474
 21
337.9886898601863
 31
0.0
  0
LINE
  5
D2
  8
GAIKEI
  6
HIDDEN2
 62
   256
 10
40.47549714904474
 20
336.9886898601863
 30
0.0
 11
46.47549714904474
 21
336.9886898601863
 31
0.0
  0
LINE
  5
D3
  8
GAIKEI
  6
HIDDEN2
 62
     1
 10
48.22549714904474
 20
333.4886898601862
 30
0.0
 11
38.72549714904474
 21
333.4886898601862
 31
0.0
  0
ARC
  5
D4
  8
GAIKEI
  6
HIDDEN2
 62
     1
 10
43.47549714904474
 20
336.9886898601862
 30
0.0
 40
5.0
 50
0.0
 51
180.0
  0
LINE
  5
D5
  8
GAIKEI
  6
HIDDEN2
 62
   256
 10
40.97549714904474
 20
337.9886898601863
 30
0.0
 11
40.47549714904474
 21
336.9886898601863
 31
0.0
  0
ARC
  5
D6
  8
GAIKEI
  6
HIDDEN2
 62
     1
 10
48.91946266628625
 20
335.9757588257035
 30
0.0
 40
10.49297121915178
 50
174.4603686238507
 51
193.7108649360989
  0
LINE
  5
D7
  8
GAIKEI
  6
HIDDEN2
 62
   256
 10
46.47549714904474
 20
336.9886898601863
 30
0.0
 11
45.97549714904474
 21
337.9886898601863
 31
0.0
  0
ARC
  5
D8
  8
GAIKEI
  6
HIDDEN2
 62
     1
 10
38.03153163180326
 20
335.9757588257035
 30
0.0
 40
10.49297121915178
 50
346.2891350639011
 51
5.539631376149329
  0
LINE
  5
D9
  8
GAIKEI
  6
HIDDEN2
 62
     1
 10
91.22549714904477
 20
333.4886898601864
 30
0.0
 11
81.72549714904477
 21
333.4886898601864
 31
0.0
  0
ARC
  5
DA
  8
GAIKEI
  6
HIDDEN2
 62
     1
 10
86.47549714904477
 20
336.9886898601864
 30
0.0
 40
5.0
 50
0.0
 51
180.0
  0
INSERT
  5
DB
  8
SUNPO
 62
   256
  2
_OPEN30
 10
57.47549714904477
 20
337.9886898601863
 30
0.0
 41
2.0
 42
2.0
 43
2.0
 50
90.0
  0
ARC
  5
DC
  8
GAIKEI
  6
HIDDEN2
 62
     1
 10
91.91946266628625
 20
335.9757588257036
 30
0.0
 40
10.49297121915178
 50
174.4603686238507
 51
193.7108649360989
  0
LINE
  5
DD
  8
GAIKEI
  6
HIDDEN2
 62
   256
 10
89.47549714904477
 20
336.9886898601864
 30
0.0
 11
88.97549714904477
 21
337.9886898601864
 31
0.0
  0
ARC
  5
DE
  8
GAIKEI
  6
HIDDEN2
 62
     1
 10
81.03153163180329
 20
335.9757588257036
 30
0.0
 40
10.49297121915178
 50
346.2891350639011
 51
5.539631376149329
  0
LINE
  5
DF
  8
GAIKEI
  6
HIDDEN2
 62
   256
 10
83.9754971490448
 20
337.9886898601864
 30
0.0
 11
83.47549714904477
 21
336.9886898601864
 31
0.0
  0
LINE
  5
E0
  8
GAIKEI
  6
HIDDEN2
 62
   256
 10
88.97549714904477
 20
337.9886898601864
 30
0.0
 11
83.9754971490448
 21
337.9886898601864
 31
0.0
  0
LINE
  5
E1
  8
GAIKEI
  6
HIDDEN2
 62
   256
 10
83.47549714904477
 20
336.9886898601864
 30
0.0
 11
89.47549714904477
 21
336.9886898601864
 31
0.0
  0
ENDSEC
  0
EOF
