  0
SECTION
  2
HEADER
  9
$ACADVER
  1
AC1015
  9
$ACADMAINTVER
 70
    20
  9
$DWGCODEPAGE
  3
ANSI_932
  9
$INSBASE
 10
0.0
 20
372.499214
 30
0.0
  9
$EXTMIN
 10
-0.0077968558852604
 20
-0.0063188157508023
 30
-0.0000000698494069
  9
$EXTMAX
 10
125.0081485414507
 20
113.0064093915282
 30
0.0000000465733773
  9
$LIMMIN
 10
-17.0
 20
0.0
  9
$LIMMAX
 10
140.0
 20
110.0
  9
$ORTHOMODE
 70
     1
  9
$REGENMODE
 70
     1
  9
$FILLMODE
 70
     1
  9
$QTEXTMODE
 70
     0
  9
$MIRRTEXT
 70
     1
  9
$LTSCALE
 40
1.0
  9
$ATTMODE
 70
     1
  9
$TEXTSIZE
 40
2.5
  9
$TRACEWID
 40
0.5
  9
$TEXTSTYLE
  7
STANDARD
  9
$CLAYER
  8
0
  9
$CELTYPE
  6
ByLayer
  9
$CECOLOR
 62
   256
  9
$CELTSCALE
 40
1.0
  9
$DISPSILH
 70
     0
  9
$DIMSCALE
 40
1.0
  9
$DIMASZ
 40
2.0
  9
$DIMEXO
 40
2.0
  9
$DIMDLI
 40
8.0
  9
$DIMRND
 40
0.0
  9
$DIMDLE
 40
0.0
  9
$DIMEXE
 40
2.0
  9
$DIMTP
 40
0.0
  9
$DIMTM
 40
0.0
  9
$DIMTXT
 40
2.5
  9
$DIMCEN
 40
0.0
  9
$DIMTSZ
 40
0.0
  9
$DIMTOL
 70
     0
  9
$DIMLIM
 70
     0
  9
$DIMTIH
 70
     0
  9
$DIMTOH
 70
     0
  9
$DIMSE1
 70
     0
  9
$DIMSE2
 70
     0
  9
$DIMTAD
 70
     3
  9
$DIMZIN
 70
     0
  9
$DIMBLK
  1

  9
$DIMASO
 70
     1
  9
$DIMSHO
 70
     1
  9
$DIMPOST
  1

  9
$DIMAPOST
  1

  9
$DIMALT
 70
     0
  9
$DIMALTD
 70
     2
  9
$DIMALTF
 40
25.4
  9
$DIMLFAC
 40
1.0
  9
$DIMTOFL
 70
     1
  9
$DIMTVP
 40
0.0
  9
$DIMTIX
 70
     0
  9
$DIMSOXD
 70
     0
  9
$DIMSAH
 70
     1
  9
$DIMBLK1
  1
OPEN30
  9
$DIMBLK2
  1
OPEN30
  9
$DIMSTYLE
  2
STANDARD
  9
$DIMCLRD
 70
     0
  9
$DIMCLRE
 70
     0
  9
$DIMCLRT
 70
     0
  9
$DIMTFAC
 40
1.0
  9
$DIMGAP
 40
0.5
  9
$DIMJUST
 70
     0
  9
$DIMSD1
 70
     0
  9
$DIMSD2
 70
     0
  9
$DIMTOLJ
 70
     1
  9
$DIMTZIN
 70
     0
  9
$DIMALTZ
 70
     0
  9
$DIMALTTZ
 70
     0
  9
$DIMUPT
 70
     0
  9
$DIMDEC
 70
     4
  9
$DIMTDEC
 70
     4
  9
$DIMALTU
 70
     2
  9
$DIMALTTD
 70
     2
  9
$DIMTXSTY
  7
STANDARD
  9
$DIMAUNIT
 70
     0
  9
$DIMADEC
 70
     0
  9
$DIMALTRND
 40
0.0
  9
$DIMAZIN
 70
     0
  9
$DIMDSEP
 70
    46
  9
$DIMATFIT
 70
     3
  9
$DIMFRAC
 70
     0
  9
$DIMLDRBLK
  1

  9
$DIMLUNIT
 70
     2
  9
$DIMLWD
 70
    -2
  9
$DIMLWE
 70
    -2
  9
$DIMTMOVE
 70
     0
  9
$LUNITS
 70
     2
  9
$LUPREC
 70
     4
  9
$SKETCHINC
 40
0.1
  9
$FILLETRAD
 40
0.0
  9
$AUNITS
 70
     0
  9
$AUPREC
 70
     0
  9
$MENU
  1
ACAD
  9
$ELEVATION
 40
0.0
  9
$PELEVATION
 40
0.0
  9
$THICKNESS
 40
0.0
  9
$LIMCHECK
 70
     0
  9
$CHAMFERA
 40
0.0
  9
$CHAMFERB
 40
0.0
  9
$CHAMFERC
 40
0.0
  9
$CHAMFERD
 40
0.0
  9
$SKPOLY
 70
     0
  9
$TDCREATE
 40
2451815.190532581
  9
$TDUCREATE
 40
2451814.815532581
  9
$TDUPDATE
 40
2453731.677659144
  9
$TDUUPDATE
 40
2453731.302659144
  9
$TDINDWG
 40
0.6573604630
  9
$TDUSRTIMER
 40
0.6573604630
  9
$USRTIMER
 70
     1
  9
$ANGBASE
 50
0.0
  9
$ANGDIR
 70
     0
  9
$PDMODE
 70
     0
  9
$PDSIZE
 40
0.0
  9
$PLINEWID
 40
0.0
  9
$SPLFRAME
 70
     0
  9
$SPLINETYPE
 70
     6
  9
$SPLINESEGS
 70
     8
  9
$HANDSEED
  5
1839
  9
$SURFTAB1
 70
     6
  9
$SURFTAB2
 70
     6
  9
$SURFTYPE
 70
     6
  9
$SURFU
 70
     6
  9
$SURFV
 70
     6
  9
$UCSBASE
  2

  9
$UCSNAME
  2

  9
$UCSORG
 10
0.0
 20
0.0
 30
0.0
  9
$UCSXDIR
 10
1.0
 20
0.0
 30
0.0
  9
$UCSYDIR
 10
0.0
 20
1.0
 30
0.0
  9
$UCSORTHOREF
  2

  9
$UCSORTHOVIEW
 70
     0
  9
$UCSORGTOP
 10
0.0
 20
0.0
 30
0.0
  9
$UCSORGBOTTOM
 10
0.0
 20
0.0
 30
0.0
  9
$UCSORGLEFT
 10
0.0
 20
0.0
 30
0.0
  9
$UCSORGRIGHT
 10
0.0
 20
0.0
 30
0.0
  9
$UCSORGFRONT
 10
0.0
 20
0.0
 30
0.0
  9
$UCSORGBACK
 10
0.0
 20
0.0
 30
0.0
  9
$PUCSBASE
  2

  9
$PUCSNAME
  2

  9
$PUCSORG
 10
0.0
 20
0.0
 30
0.0
  9
$PUCSXDIR
 10
1.0
 20
0.0
 30
0.0
  9
$PUCSYDIR
 10
0.0
 20
1.0
 30
0.0
  9
$PUCSORTHOREF
  2

  9
$PUCSORTHOVIEW
 70
     0
  9
$PUCSORGTOP
 10
0.0
 20
0.0
 30
0.0
  9
$PUCSORGBOTTOM
 10
0.0
 20
0.0
 30
0.0
  9
$PUCSORGLEFT
 10
0.0
 20
0.0
 30
0.0
  9
$PUCSORGRIGHT
 10
0.0
 20
0.0
 30
0.0
  9
$PUCSORGFRONT
 10
0.0
 20
0.0
 30
0.0
  9
$PUCSORGBACK
 10
0.0
 20
0.0
 30
0.0
  9
$USERI1
 70
     0
  9
$USERI2
 70
     0
  9
$USERI3
 70
     0
  9
$USERI4
 70
     0
  9
$USERI5
 70
     0
  9
$USERR1
 40
0.0
  9
$USERR2
 40
0.0
  9
$USERR3
 40
0.0
  9
$USERR4
 40
0.0
  9
$USERR5
 40
0.0
  9
$WORLDVIEW
 70
     1
  9
$SHADEDGE
 70
     3
  9
$SHADEDIF
 70
    70
  9
$TILEMODE
 70
     1
  9
$MAXACTVP
 70
    48
  9
$PINSBASE
 10
0.0
 20
0.0
 30
0.0
  9
$PLIMCHECK
 70
     0
  9
$PEXTMIN
 10
1.000000000000000E+20
 20
1.000000000000000E+20
 30
1.000000000000000E+20
  9
$PEXTMAX
 10
-1.000000000000000E+20
 20
-1.000000000000000E+20
 30
-1.000000000000000E+20
  9
$PLIMMIN
 10
0.0
 20
0.0
  9
$PLIMMAX
 10
12.0
 20
9.0
  9
$UNITMODE
 70
     0
  9
$VISRETAIN
 70
     1
  9
$PLINEGEN
 70
     0
  9
$PSLTSCALE
 70
     1
  9
$TREEDEPTH
 70
  3020
  9
$CMLSTYLE
  2
Standard
  9
$CMLJUST
 70
     0
  9
$CMLSCALE
 40
1.0
  9
$PROXYGRAPHICS
 70
     1
  9
$MEASUREMENT
 70
     0
  9
$CELWEIGHT
370
    -1
  9
$ENDCAPS
280
     0
  9
$JOINSTYLE
280
     0
  9
$LWDISPLAY
290
     0
  9
$INSUNITS
 70
     0
  9
$HYPERLINKBASE
  1

  9
$STYLESHEET
  1

  9
$XEDIT
290
     1
  9
$CEPSNTYPE
380
     0
  9
$PSTYLEMODE
290
     1
  9
$FINGERPRINTGUID
  2
{3C6A1528-6796-4322-B62A-5FB27DA444E5}
  9
$VERSIONGUID
  2
{96C09054-0E3D-4FF4-84E3-AB53A4EF5BF5}
  9
$EXTNAMES
290
     1
  9
$PSVPSCALE
 40
0.0
  9
$OLESTARTUP
290
     0
  0
ENDSEC
  0
SECTION
  2
CLASSES
  0
CLASS
  1
ACDBDICTIONARYWDFLT
  2
AcDbDictionaryWithDefault
  3
ObjectDBX Classes
 90
        0
280
     0
281
     0
  0
CLASS
  1
DICTIONARYVAR
  2
AcDbDictionaryVar
  3
ObjectDBX Classes
 90
        0
280
     0
281
     0
  0
CLASS
  1
ACDBPLACEHOLDER
  2
AcDbPlaceHolder
  3
ObjectDBX Classes
 90
        0
280
     0
281
     0
  0
CLASS
  1
LAYOUT
  2
AcDbLayout
  3
ObjectDBX Classes
 90
        0
280
     0
281
     0
  0
ENDSEC
  0
SECTION
  2
TABLES
  0
TABLE
  2
VPORT
  5
17D4
330
0
100
AcDbSymbolTable
 70
     2
  0
VPORT
  5
1830
330
17D4
100
AcDbSymbolTableRecord
100
AcDbViewportTableRecord
  2
*Active
 70
     0
 10
0.0
 20
0.0
 11
1.0
 21
1.0
 12
62.50017584278271
 22
56.50004528788871
 13
0.0
 23
0.0
 14
1.0
 24
1.0
 15
0.0
 25
0.0
 16
0.0
 26
0.0
 36
1.0
 17
0.0
 27
0.0
 37
0.0
 40
113.98140873477
 41
1.589413447782546
 42
50.0
 43
0.0
 44
0.0
 50
0.0
 51
0.0
 71
     0
 72
  1000
 73
     1
 74
     0
 75
     0
 76
     0
 77
     0
 78
     0
281
     0
 65
     1
110
0.0
120
0.0
130
0.0
111
1.0
121
0.0
131
0.0
112
0.0
122
1.0
132
0.0
 79
     0
146
0.0
  0
ENDTAB
  0
TABLE
  2
LTYPE
  5
17D1
330
0
100
AcDbSymbolTable
 70
     2
  0
LTYPE
  5
17DF
330
17D1
100
AcDbSymbolTableRecord
100
AcDbLinetypeTableRecord
  2
ByBlock
 70
     0
  3

 72
    65
 73
     0
 40
0.0
  0
LTYPE
  5
17E0
330
17D1
100
AcDbSymbolTableRecord
100
AcDbLinetypeTableRecord
  2
ByLayer
 70
     0
  3

 72
    65
 73
     0
 40
0.0
  0
LTYPE
  5
17E1
330
17D1
100
AcDbSymbolTableRecord
100
AcDbLinetypeTableRecord
  2
CONTINUOUS
 70
     0
  3
Solid line
 72
    65
 73
     0
 40
0.0
  0
LTYPE
  5
17F1
330
17D1
100
AcDbSymbolTableRecord
100
AcDbLinetypeTableRecord
  2
S10
 70
     0
  3
- - - - - - - - - 1,-1,1,-1
 72
    65
 73
     4
 40
4.0
 49
1.0
 74
     0
 49
-1.0
 74
     0
 49
1.0
 74
     0
 49
-1.0
 74
     0
  0
ENDTAB
  0
TABLE
  2
LAYER
  5
17CE
330
0
100
AcDbSymbolTable
 70
     7
  0
LAYER
  5
17DC
330
17CE
100
AcDbSymbolTableRecord
100
AcDbLayerTableRecord
  2
0
 70
     0
 62
     7
  6
CONTINUOUS
370
    -3
390
17DB
  0
LAYER
  5
17F2
330
17CE
100
AcDbSymbolTableRecord
100
AcDbLayerTableRecord
  2
DEFPOINTS
 70
     0
 62
     7
  6
CONTINUOUS
290
     0
370
    -3
390
17DB
  0
LAYER
  5
17F3
330
17CE
100
AcDbSymbolTableRecord
100
AcDbLayerTableRecord
  2
WAKU
 70
     0
 62
     4
  6
CONTINUOUS
370
    -3
390
17DB
  0
LAYER
  5
17F4
330
17CE
100
AcDbSymbolTableRecord
100
AcDbLayerTableRecord
  2
MOJI1
 70
     0
 62
     2
  6
CONTINUOUS
370
    -3
390
17DB
  0
LAYER
  5
17F5
330
17CE
100
AcDbSymbolTableRecord
100
AcDbLayerTableRecord
  2
GAIKEI
 70
     0
 62
     7
  6
CONTINUOUS
370
    -3
390
17DB
  0
LAYER
  5
17F6
330
17CE
100
AcDbSymbolTableRecord
100
AcDbLayerTableRecord
  2
SUNPO
 70
     0
 62
     3
  6
CONTINUOUS
370
    -3
390
17DB
  0
LAYER
  5
17F7
330
17CE
100
AcDbSymbolTableRecord
100
AcDbLayerTableRecord
  2
TOUROKU
 70
     0
 62
     1
  6
CONTINUOUS
370
    -3
390
17DB
  0
ENDTAB
  0
TABLE
  2
STYLE
  5
17CF
330
0
100
AcDbSymbolTable
 70
     2
  0
STYLE
  5
17DD
330
17CF
100
AcDbSymbolTableRecord
100
AcDbTextStyleTableRecord
  2
STANDARD
 70
     0
 40
0.0
 41
1.0
 50
0.0
 71
     0
 42
2.5
  3
MONOTXT.shx
  4
BIGFONT.shx
  0
ENDTAB
  0
TABLE
  2
VIEW
  5
17D2
330
0
100
AcDbSymbolTable
 70
     0
  0
ENDTAB
  0
TABLE
  2
UCS
  5
17D3
330
0
100
AcDbSymbolTable
 70
     0
  0
ENDTAB
  0
TABLE
  2
APPID
  5
17D5
330
0
100
AcDbSymbolTable
 70
     1
  0
APPID
  5
17DE
330
17D5
100
AcDbSymbolTableRecord
100
AcDbRegAppTableRecord
  2
ACAD
 70
     0
  0
ENDTAB
  0
TABLE
  2
DIMSTYLE
  5
17D6
330
0
100
AcDbSymbolTable
 70
     1
100
AcDbDimStyleTable
 71
     1
340
17F9
  0
DIMSTYLE
105
17F9
102
{ACAD_REACTORS
330
475
330
466
330
36B
102
}
330
17D6
100
AcDbSymbolTableRecord
100
AcDbDimStyleTableRecord
  2
STANDARD
 70
     0
 40
0.0
 41
2.0
 42
2.0
 43
8.0
 44
2.0
 73
     0
 74
     0
 77
     3
140
3.0
141
0.0
173
     1
279
     2
340
17DD
  0
ENDTAB
  0
TABLE
  2
BLOCK_RECORD
  5
17CD
330
0
100
AcDbSymbolTable
 70
     9
  0
BLOCK_RECORD
  5
17EC
330
17CD
100
AcDbSymbolTableRecord
100
AcDbBlockTableRecord
  2
*Model_Space
340
17EF
  0
BLOCK_RECORD
  5
17E8
330
17CD
100
AcDbSymbolTableRecord
100
AcDbBlockTableRecord
  2
*Paper_Space
340
17EB
  0
BLOCK_RECORD
  5
1800
330
17CD
100
AcDbSymbolTableRecord
100
AcDbBlockTableRecord
  2
_OPEN30
340
0
102
{BLKREFS
331
47B
331
47C
331
46C
331
46D
331
372
331
373
331
180D
331
180E
331
1819
331
181A
331
1825
331
1826
102
}
  0
BLOCK_RECORD
  5
1809
330
17CD
100
AcDbSymbolTableRecord
100
AcDbBlockTableRecord
  2
*D6
340
0
  0
BLOCK_RECORD
  5
1815
330
17CD
100
AcDbSymbolTableRecord
100
AcDbBlockTableRecord
  2
*D7
340
0
  0
BLOCK_RECORD
  5
1821
330
17CD
100
AcDbSymbolTableRecord
100
AcDbBlockTableRecord
  2
*D8
340
0
  0
ENDTAB
  0
ENDSEC
  0
SECTION
  2
BLOCKS
  0
BLOCK
  5
17ED
330
17EC
100
AcDbEntity
  8
0
100
AcDbBlockBegin
  2
*Model_Space
 70
     0
 10
0.0
 20
0.0
 30
0.0
  3
*Model_Space
  1

  0
ENDBLK
  5
17EE
330
17EC
100
AcDbEntity
  8
0
100
AcDbBlockEnd
  0
BLOCK
  5
17E9
330
17E8
100
AcDbEntity
 67
     1
  8
0
100
AcDbBlockBegin
  2
*Paper_Space
 70
     0
 10
0.0
 20
0.0
 30
0.0
  3
*Paper_Space
  1

  0
ENDBLK
  5
17EA
330
17E8
100
AcDbEntity
 67
     1
  8
0
100
AcDbBlockEnd
  0
BLOCK
  5
1801
330
1800
100
AcDbEntity
  8
0
100
AcDbBlockBegin
  2
_OPEN30
 70
     0
 10
0.0
 20
0.0
 30
0.0
  3
_OPEN30
  1

  0
LINE
  5
2D
330
1800
100
AcDbEntity
  8
0
  6
ByBlock
 62
     0
100
AcDbLine
 10
-1.0
 20
0.267949
 30
0.0
 11
0.0
 21
0.0
 31
0.0
  0
LINE
  5
2E
330
1800
100
AcDbEntity
  8
0
  6
ByBlock
 62
     0
100
AcDbLine
 10
0.0
 20
0.0
 30
0.0
 11
-1.0
 21
-0.267949
 31
0.0
  0
LINE
  5
2F
330
1800
100
AcDbEntity
  8
0
  6
ByBlock
 62
     0
100
AcDbLine
 10
0.0
 20
0.0
 30
0.0
 11
-1.0
 21
0.0
 31
0.0
  0
ENDBLK
  5
30
330
1800
100
AcDbEntity
  8
0
100
AcDbBlockEnd
  0
BLOCK
  5
1813
330
1809
100
AcDbEntity
  8
0
100
AcDbBlockBegin
  2
*D6
 70
     1
 10
0.0
 20
0.0
 30
0.0
  3
*D6
  1

  0
LINE
  5
180A
330
1809
100
AcDbEntity
  8
SUNPO
 62
     0
370
    -2
100
AcDbLine
 10
91.78708465257814
 20
52.71841190979495
 30
0.0
 11
97.26140944725031
 21
51.25157100195687
 31
0.0
  0
LINE
  5
180B
330
1809
100
AcDbEntity
  8
SUNPO
 62
     0
370
    -2
100
AcDbLine
 10
100.2272686525781
 20
84.21668890979495
 30
0.0
 11
105.7013638189428
 21
82.74990953067643
 31
0.0
  0
LINE
  5
180C
330
1809
100
AcDbEntity
  8
SUNPO
 62
     0
370
    -2
100
AcDbLine
 10
95.84719588487722
 20
53.70106074474004
 30
0.0
 11
103.2518740761596
 21
81.33569596830332
 31
0.0
  0
INSERT
  5
180D
330
1809
100
AcDbEntity
  8
SUNPO
 62
     0
370
    -2
100
AcDbBlockReference
  2
_OPEN30
 10
95.32955779467219
 20
51.76920909216191
 30
0.0
 41
2.0
 42
2.0
 43
2.0
 50
255.0
  0
INSERT
  5
180E
330
1809
100
AcDbEntity
  8
SUNPO
 62
     0
370
    -2
100
AcDbBlockReference
  2
_OPEN30
 10
103.7695121663647
 20
83.26754762088146
 30
0.0
 41
2.0
 42
2.0
 43
2.0
 50
75.0
  0
MTEXT
  5
180F
330
1809
100
AcDbEntity
  8
SUNPO
 62
     0
100
AcDbMText
 10
97.85916478451257
 20
67.97131168545108
 30
0.0
 40
2.5
 41
0.0
 71
     5
 72
     1
  1
\A1;326
 11
0.2588190451025207
 21
0.9659258262890682
 31
0.0
 73
     1
 44
1.0
1001
ACAD
1000
MTEXTBEGIN
1070
    73
1070
     1
1070
    44
1040
1.0
1070
    74
1070
     0
1000
MTEXTEND
  0
POINT
  5
1810
330
1809
100
AcDbEntity
  8
DEFPOINTS
 62
     0
100
AcDbPoint
 10
89.855233
 20
53.23604999999999
 30
0.0
  0
POINT
  5
1811
330
1809
100
AcDbEntity
  8
DEFPOINTS
 62
     0
100
AcDbPoint
 10
98.295417
 20
84.73432700000001
 30
0.0
  0
POINT
  5
1812
330
1809
100
AcDbEntity
  8
DEFPOINTS
 62
     0
100
AcDbPoint
 10
103.7695121663647
 20
83.26754762088146
 30
0.0
  0
ENDBLK
  5
1814
330
1809
100
AcDbEntity
  8
0
100
AcDbBlockEnd
  0
BLOCK
  5
181F
330
1815
100
AcDbEntity
  8
0
100
AcDbBlockBegin
  2
*D7
 70
     1
 10
0.0
 20
0.0
 30
0.0
  3
*D7
  1

  0
LINE
  5
1816
330
1815
100
AcDbEntity
  8
SUNPO
 62
     0
370
    -2
100
AcDbLine
 10
84.21962086477639
 20
95.59562053597487
 30
0.0
 11
86.29010032413882
 21
103.3230466808328
 31
0.0
  0
LINE
  5
1817
330
1815
100
AcDbEntity
  8
SUNPO
 62
     0
370
    -2
100
AcDbLine
 10
99.6140828647764
 20
91.47084253597487
 30
0.0
 11
101.6845623241388
 21
99.19826868083283
 31
0.0
  0
LINE
  5
1818
330
1815
100
AcDbEntity
  8
SUNPO
 62
     0
370
    -2
100
AcDbLine
 10
87.70433699533729
 20
100.8735702800815
 30
0.0
 11
99.23508592338754
 21
97.78403200963433
 31
0.0
  0
INSERT
  5
1819
330
1815
100
AcDbEntity
  8
SUNPO
 62
     0
370
    -2
100
AcDbBlockReference
  2
_OPEN30
 10
85.77248045936242
 20
101.3911901448579
 30
0.0
 41
2.0
 42
2.0
 43
2.0
 50
165.000540537789
  0
INSERT
  5
181A
330
1815
100
AcDbEntity
  8
SUNPO
 62
     0
370
    -2
100
AcDbBlockReference
  2
_OPEN30
 10
101.1669424593624
 20
97.26641214485793
 30
0.0
 41
2.0
 42
2.0
 43
2.0
 50
345.000540537789
  0
MTEXT
  5
181B
330
1815
100
AcDbEntity
  8
SUNPO
 62
     0
100
AcDbMText
 10
93.92262884104175
 20
101.0191756138359
 30
0.0
 40
2.5
 41
0.0
 71
     5
 72
     1
  1
\A1;159
 11
0.9659282679874397
 21
-0.2588099323882004
 31
0.0
 73
     1
 44
1.0
1001
ACAD
1000
MTEXTBEGIN
1070
    73
1070
     1
1070
    44
1040
1.0
1070
    74
1070
     0
1000
MTEXTEND
  0
POINT
  5
181C
330
1815
100
AcDbEntity
  8
DEFPOINTS
 62
     0
100
AcDbPoint
 10
83.70200099999999
 20
93.663764
 30
0.0
  0
POINT
  5
181D
330
1815
100
AcDbEntity
  8
DEFPOINTS
 62
     0
100
AcDbPoint
 10
99.096463
 20
89.538986
 30
0.0
  0
POINT
  5
181E
330
1815
100
AcDbEntity
  8
DEFPOINTS
 62
     0
100
AcDbPoint
 10
101.1669424593624
 20
97.26641214485793
 30
0.0
  0
ENDBLK
  5
1820
330
1815
100
AcDbEntity
  8
0
100
AcDbBlockEnd
  0
BLOCK
  5
182B
330
1821
100
AcDbEntity
  8
0
100
AcDbBlockBegin
  2
*D8
 70
     1
 10
0.0
 20
0.0
 30
0.0
  3
*D8
  1

  0
LINE
  5
1822
330
1821
100
AcDbEntity
  8
SUNPO
 62
     0
370
    -2
100
AcDbLine
 10
18.169782
 20
88.130234
 30
0.0
 11
18.169782
 21
96.13023400000001
 31
0.0
  0
LINE
  5
1823
330
1821
100
AcDbEntity
  8
SUNPO
 62
     0
370
    -2
100
AcDbLine
 10
61.169782
 20
88.130234
 30
0.0
 11
61.169782
 21
96.13023400000001
 31
0.0
  0
LINE
  5
1824
330
1821
100
AcDbEntity
  8
SUNPO
 62
     0
370
    -2
100
AcDbLine
 10
20.169782
 20
94.130234
 30
0.0
 11
59.16978199999999
 21
94.130234
 31
0.0
  0
INSERT
  5
1825
330
1821
100
AcDbEntity
  8
SUNPO
 62
     0
370
    -2
100
AcDbBlockReference
  2
_OPEN30
 10
18.169782
 20
94.130234
 30
0.0
 41
2.0
 42
2.0
 43
2.0
 50
180.0
  0
INSERT
  5
1826
330
1821
100
AcDbEntity
  8
SUNPO
 62
     0
370
    -2
100
AcDbBlockReference
  2
_OPEN30
 10
61.169782
 20
94.130234
 30
0.0
 41
2.0
 42
2.0
 43
2.0
  0
MTEXT
  5
1827
330
1821
100
AcDbEntity
  8
SUNPO
 62
     0
100
AcDbMText
 10
39.669782
 20
95.880234
 30
0.0
 40
2.5
 41
0.0
 71
     5
 72
     1
  1
\A1;430
 73
     1
 44
1.0
1001
ACAD
1000
MTEXTBEGIN
1070
    73
1070
     1
1070
    44
1040
1.0
1070
    74
1070
     0
1000
MTEXTEND
  0
POINT
  5
1828
330
1821
100
AcDbEntity
  8
DEFPOINTS
 62
     0
100
AcDbPoint
 10
18.169782
 20
86.13023400000001
 30
0.0
  0
POINT
  5
1829
330
1821
100
AcDbEntity
  8
DEFPOINTS
 62
     0
100
AcDbPoint
 10
61.169782
 20
86.13023400000001
 30
0.0
  0
POINT
  5
182A
330
1821
100
AcDbEntity
  8
DEFPOINTS
 62
     0
100
AcDbPoint
 10
61.169782
 20
94.130234
 30
0.0
  0
ENDBLK
  5
182C
330
1821
100
AcDbEntity
  8
0
100
AcDbBlockEnd
  0
ENDSEC
  0
SECTION
  2
ENTITIES
  0
TEXT
  5
33
330
17EC
100
AcDbEntity
  8
MOJI1
100
AcDbText
 10
27.0
 20
109.0
 30
0.0
 40
4.0
  1
デジタルミキサー
100
AcDbText
  0
LINE
  5
35
330
17EC
100
AcDbEntity
  8
GAIKEI
 62
     1
100
AcDbLine
 10
56.949737
 20
57.74080099999999
 30
0.0
 11
56.949737
 21
57.940712
 31
0.0
  0
LINE
  5
37
330
17EC
100
AcDbEntity
  8
GAIKEI
 62
     1
100
AcDbLine
 10
57.449849
 20
57.74080099999999
 30
0.0
 11
56.949737
 21
57.74080099999999
 31
0.0
  0
LINE
  5
38
330
17EC
100
AcDbEntity
  8
GAIKEI
 62
     1
100
AcDbLine
 10
57.44965799999999
 20
57.940712
 30
0.0
 11
57.449849
 21
57.74080099999999
 31
0.0
  0
LINE
  5
39
330
17EC
100
AcDbEntity
  8
GAIKEI
 62
     1
100
AcDbLine
 10
56.949737
 20
57.940712
 30
0.0
 11
57.44965799999999
 21
57.940712
 31
0.0
  0
LINE
  5
3A
330
17EC
100
AcDbEntity
  8
GAIKEI
 62
     1
100
AcDbLine
 10
56.949737
 20
58.59059
 30
0.0
 11
56.949737
 21
58.790692
 31
0.0
  0
LINE
  5
3B
330
17EC
100
AcDbEntity
  8
GAIKEI
 62
     1
100
AcDbLine
 10
57.44965799999999
 20
58.59059
 30
0.0
 11
56.949737
 21
58.59059
 31
0.0
  0
LINE
  5
3C
330
17EC
100
AcDbEntity
  8
GAIKEI
 62
     1
100
AcDbLine
 10
57.44965799999999
 20
58.790692
 30
0.0
 11
57.44965799999999
 21
58.59059
 31
0.0
  0
LINE
  5
3D
330
17EC
100
AcDbEntity
  8
GAIKEI
 62
     1
100
AcDbLine
 10
56.949737
 20
58.790692
 30
0.0
 11
57.44965799999999
 21
58.790692
 31
0.0
  0
LINE
  5
3E
330
17EC
100
AcDbEntity
  8
GAIKEI
 62
     1
100
AcDbLine
 10
56.949737
 20
59.44085699999999
 30
0.0
 11
56.949737
 21
59.640768
 31
0.0
  0
LINE
  5
3F
330
17EC
100
AcDbEntity
  8
GAIKEI
 62
     1
100
AcDbLine
 10
57.449849
 20
59.44085699999999
 30
0.0
 11
56.949737
 21
59.44085699999999
 31
0.0
  0
LINE
  5
40
330
17EC
100
AcDbEntity
  8
GAIKEI
 62
     1
100
AcDbLine
 10
57.449849
 20
59.640768
 30
0.0
 11
57.449849
 21
59.44085699999999
 31
0.0
  0
LINE
  5
41
330
17EC
100
AcDbEntity
  8
GAIKEI
 62
     1
100
AcDbLine
 10
56.949737
 20
59.640768
 30
0.0
 11
57.449849
 21
59.640768
 31
0.0
  0
LINE
  5
42
330
17EC
100
AcDbEntity
  8
GAIKEI
 62
     1
100
AcDbLine
 10
56.949737
 20
60.290838
 30
0.0
 11
56.949737
 21
60.49094
 31
0.0
  0
LINE
  5
43
330
17EC
100
AcDbEntity
  8
GAIKEI
 62
     1
100
AcDbLine
 10
57.449849
 20
60.290838
 30
0.0
 11
56.949737
 21
60.290838
 31
0.0
  0
LINE
  5
44
330
17EC
100
AcDbEntity
  8
GAIKEI
 62
     1
100
AcDbLine
 10
57.44965799999999
 20
60.490557
 30
0.0
 11
57.449849
 21
60.290838
 31
0.0
  0
LINE
  5
45
330
17EC
100
AcDbEntity
  8
GAIKEI
 62
     1
100
AcDbLine
 10
56.949737
 20
60.49094
 30
0.0
 11
57.44965799999999
 21
60.490557
 31
0.0
  0
LINE
  5
46
330
17EC
100
AcDbEntity
  8
GAIKEI
 62
     1
100
AcDbLine
 10
56.949737
 20
61.140627
 30
0.0
 11
56.949737
 21
61.340729
 31
0.0
  0
LINE
  5
47
330
17EC
100
AcDbEntity
  8
GAIKEI
 62
     1
100
AcDbLine
 10
57.449849
 20
61.14081800000001
 30
0.0
 11
56.949737
 21
61.140627
 31
0.0
  0
LINE
  5
48
330
17EC
100
AcDbEntity
  8
GAIKEI
 62
     1
100
AcDbLine
 10
57.44965799999999
 20
61.340729
 30
0.0
 11
57.449849
 21
61.14081800000001
 31
0.0
  0
LINE
  5
49
330
17EC
100
AcDbEntity
  8
GAIKEI
 62
     1
100
AcDbLine
 10
56.949737
 20
61.340729
 30
0.0
 11
57.44965799999999
 21
61.340729
 31
0.0
  0
LINE
  5
4A
330
17EC
100
AcDbEntity
  8
GAIKEI
 62
     1
100
AcDbLine
 10
56.949737
 20
61.99060799999999
 30
0.0
 11
56.949737
 21
62.190901
 31
0.0
  0
LINE
  5
4B
330
17EC
100
AcDbEntity
  8
GAIKEI
 62
     1
100
AcDbLine
 10
57.44965799999999
 20
61.99060799999999
 30
0.0
 11
56.949737
 21
61.99060799999999
 31
0.0
  0
LINE
  5
4C
330
17EC
100
AcDbEntity
  8
GAIKEI
 62
     1
100
AcDbLine
 10
57.44965799999999
 20
62.190901
 30
0.0
 11
57.44965799999999
 21
61.99060799999999
 31
0.0
  0
LINE
  5
4D
330
17EC
100
AcDbEntity
  8
GAIKEI
 62
     1
100
AcDbLine
 10
56.949737
 20
62.190901
 30
0.0
 11
57.44965799999999
 21
62.190901
 31
0.0
  0
LINE
  5
4E
330
17EC
100
AcDbEntity
  8
GAIKEI
 62
     1
100
AcDbLine
 10
58.099823
 20
61.99060799999999
 30
0.0
 11
58.099823
 21
62.190901
 31
0.0
  0
LINE
  5
4F
330
17EC
100
AcDbEntity
  8
GAIKEI
 62
     1
100
AcDbLine
 10
58.59974399999999
 20
61.99060799999999
 30
0.0
 11
58.099823
 21
61.99060799999999
 31
0.0
  0
LINE
  5
50
330
17EC
100
AcDbEntity
  8
GAIKEI
 62
     1
100
AcDbLine
 10
58.59974399999999
 20
62.190901
 30
0.0
 11
58.59974399999999
 21
61.99060799999999
 31
0.0
  0
LINE
  5
51
330
17EC
100
AcDbEntity
  8
GAIKEI
 62
     1
100
AcDbLine
 10
58.099823
 20
62.190901
 30
0.0
 11
58.59974399999999
 21
62.190901
 31
0.0
  0
LINE
  5
52
330
17EC
100
AcDbEntity
  8
GAIKEI
 62
     1
100
AcDbLine
 10
58.099823
 20
62.840779
 30
0.0
 11
58.099823
 21
63.04088199999999
 31
0.0
  0
LINE
  5
53
330
17EC
100
AcDbEntity
  8
GAIKEI
 62
     1
100
AcDbLine
 10
58.59974399999999
 20
62.840779
 30
0.0
 11
58.099823
 21
62.840779
 31
0.0
  0
LINE
  5
54
330
17EC
100
AcDbEntity
  8
GAIKEI
 62
     1
100
AcDbLine
 10
58.59974399999999
 20
63.04088199999999
 30
0.0
 11
58.59974399999999
 21
62.840779
 31
0.0
  0
LINE
  5
55
330
17EC
100
AcDbEntity
  8
GAIKEI
 62
     1
100
AcDbLine
 10
58.099823
 20
63.04088199999999
 30
0.0
 11
58.59974399999999
 21
63.04088199999999
 31
0.0
  0
LINE
  5
56
330
17EC
100
AcDbEntity
  8
GAIKEI
 62
     1
100
AcDbLine
 10
56.949737
 20
62.840779
 30
0.0
 11
56.949737
 21
63.04088199999999
 31
0.0
  0
LINE
  5
57
330
17EC
100
AcDbEntity
  8
GAIKEI
 62
     1
100
AcDbLine
 10
57.44965799999999
 20
62.840779
 30
0.0
 11
56.949737
 21
62.840779
 31
0.0
  0
LINE
  5
58
330
17EC
100
AcDbEntity
  8
GAIKEI
 62
     1
100
AcDbLine
 10
57.44965799999999
 20
63.04088199999999
 30
0.0
 11
57.44965799999999
 21
62.840779
 31
0.0
  0
LINE
  5
59
330
17EC
100
AcDbEntity
  8
GAIKEI
 62
     1
100
AcDbLine
 10
56.949737
 20
63.04088199999999
 30
0.0
 11
57.44965799999999
 21
63.04088199999999
 31
0.0
  0
LINE
  5
5A
330
17EC
100
AcDbEntity
  8
GAIKEI
 62
     1
100
AcDbLine
 10
56.949737
 20
56.890629
 30
0.0
 11
56.949737
 21
57.09073100000001
 31
0.0
  0
LINE
  5
5B
330
17EC
100
AcDbEntity
  8
GAIKEI
 62
     1
100
AcDbLine
 10
57.44965799999999
 20
56.89081999999999
 30
0.0
 11
56.949737
 21
56.890629
 31
0.0
  0
LINE
  5
5C
330
17EC
100
AcDbEntity
  8
GAIKEI
 62
     1
100
AcDbLine
 10
57.449849
 20
57.09073100000001
 30
0.0
 11
57.44965799999999
 21
56.89081999999999
 31
0.0
  0
LINE
  5
5D
330
17EC
100
AcDbEntity
  8
GAIKEI
 62
     1
100
AcDbLine
 10
56.949737
 20
57.09073100000001
 30
0.0
 11
57.449849
 21
57.09073100000001
 31
0.0
  0
LINE
  5
5E
330
17EC
100
AcDbEntity
  8
GAIKEI
100
AcDbLine
 10
60.969584
 20
55.190859
 30
0.0
 11
18.369885
 21
55.190859
 31
0.0
  0
LINE
  5
5F
330
17EC
100
AcDbEntity
  8
GAIKEI
100
AcDbLine
 10
18.369885
 20
86.09083800000002
 30
0.0
 11
60.969775
 21
86.09083800000002
 31
0.0
  0
LWPOLYLINE
  5
60
330
17EC
100
AcDbEntity
  8
GAIKEI
100
AcDbPolyline
 90
        3
 70
     0
 43
0.0
 10
18.169782
 20
55.140618
 10
18.169782
 20
86.14079200000002
 10
18.369885
 20
86.14079200000002
  0
LWPOLYLINE
  5
61
330
17EC
100
AcDbEntity
  8
GAIKEI
 62
     1
100
AcDbPolyline
 90
       17
 70
     0
 43
0.0
 10
17.99982439677501
 20
57.54069825462943
 10
17.98108498547064
 20
57.49234226539717
 10
17.96484416233992
 20
57.44333219108757
 10
17.95110192738284
 20
57.39376083159799
 10
17.93985828059942
 20
57.34372098682585
 10
17.93111322198965
 20
57.29330545666847
 10
17.92486675155353
 20
57.24260704102325
 10
17.92111886929105
 20
57.19171853978758
 10
17.91986957520223
 20
57.14073275285881
 10
17.92111886928705
 20
57.08974248013433
 10
17.92486675154553
 20
57.03884052151149
 10
17.93111322197765
 20
56.98811967688769
 10
17.93985828058343
 20
56.93767274616028
 10
17.95110192736286
 20
56.88759252922666
 10
17.96484416231592
 20
56.83797182598418
 10
17.98108498544265
 20
56.78890343633022
 10
17.99982439674303
 20
56.74048016016217
  0
LWPOLYLINE
  5
62
330
17EC
100
AcDbEntity
  8
GAIKEI
 62
     1
100
AcDbPolyline
 90
       17
 70
     0
 43
0.0
 10
17.99982439677501
 20
71.04095743325013
 10
17.98108498547064
 20
70.99259614049906
 10
17.96484416233992
 20
70.943571370536
 10
17.95110192738284
 20
70.89397774561286
 10
17.93985828059942
 20
70.84390988798144
 10
17.93111322198965
 20
70.79346241989362
 10
17.92486675155353
 20
70.74272996360126
 10
17.92111886929105
 20
70.69180714135621
 10
17.91986957520223
 20
70.6407885754103
 10
17.92111886928705
 20
70.5897688880154
 10
17.92486675154553
 20
70.53884270142339
 10
17.93111322197765
 20
70.48810463788609
 10
17.93985828058343
 20
70.43764931965537
 10
17.95110192736286
 20
70.38757136898308
 10
17.96484416231592
 20
70.33796540812106
 10
17.98108498544265
 20
70.28892605932118
 10
17.99982439674303
 20
70.2405479448353
  0
LWPOLYLINE
  5
63
330
17EC
100
AcDbEntity
  8
GAIKEI
 62
     1
100
AcDbPolyline
 90
        6
 70
     1
 43
0.0
 10
19.294892
 20
71.813136
 10
19.294892
 20
71.66844199999999
 10
19.16972
 20
71.59638299999999
 10
19.044835
 20
71.66844199999999
 10
19.044835
 20
71.813136
 10
19.169911
 20
71.88500500000002
  0
LWPOLYLINE
  5
64
330
17EC
100
AcDbEntity
  8
GAIKEI
 62
     1
100
AcDbPolyline
 90
       17
 70
     0
 43
0.0
 10
17.99982439677501
 20
84.54092952094953
 10
17.98108503219768
 20
84.49253988824992
 10
17.96484453615622
 20
84.44350065626865
 10
17.95110318901287
 20
84.39390462490305
 10
17.93986127112985
 20
84.3438445940505
 10
17.93111906286939
 20
84.29341336360833
 10
17.92487684459373
 20
84.24270373347404
 10
17.92113489666507
 20
84.19180850354489
 10
17.91989349944566
 20
84.14082047371831
 10
17.92115293329773
 20
84.08983244389162
 10
17.92491347858349
 20
84.03893721396229
 10
17.93117541566518
 20
83.98822758382758
 10
17.93993902490503
 20
83.93779635338495
 10
17.95120458666525
 20
83.88773632253169
 10
17.96497238130809
 20
83.83814029116527
 10
17.98124268919577
 20
83.78910105918301
 10
18.00001579069051
 20
83.74071142648228
  0
CIRCLE
  5
65
330
17EC
100
AcDbEntity
  8
GAIKEI
 62
     1
100
AcDbCircle
 10
19.169863
 20
84.14072500000001
 30
0.0
 40
0.274985
  0
LWPOLYLINE
  5
66
330
17EC
100
AcDbEntity
  8
GAIKEI
 62
     1
100
AcDbPolyline
 90
        6
 70
     1
 43
0.0
 10
19.16972
 20
84.28494000000002
 10
19.294892
 20
84.21307199999999
 10
19.294892
 20
84.06837800000001
 10
19.169911
 20
83.99622200000001
 10
19.044835
 20
84.06856899999999
 10
19.044835
 20
84.21307199999999
  0
LWPOLYLINE
  5
67
330
17EC
100
AcDbEntity
  8
GAIKEI
100
AcDbPolyline
 90
        4
 70
     0
 43
0.0
 10
60.969775
 20
55.14081
 10
61.169782
 20
55.140618
 10
61.169782
 20
86.14060000000002
 10
60.969775
 20
86.14079200000002
  0
LWPOLYLINE
  5
68
330
17EC
100
AcDbEntity
  8
GAIKEI
 62
     1
100
AcDbPolyline
 90
       17
 70
     0
 43
0.0
 10
61.33973975001761
 20
56.74067155403282
 10
61.35851280478932
 20
56.78902959925475
 10
61.37478278559175
 20
56.83804509390077
 10
61.38854969242487
 20
56.88762411662454
 10
61.39981352528871
 20
56.93767274607985
 10
61.40857428418325
 20
56.98809706092035
 10
61.41483196910847
 20
57.03880313979978
 10
61.41858658006444
 20
57.08969706137187
 10
61.41983811705108
 20
57.14068490429031
 10
61.41858658006842
 20
57.19167274720883
 10
61.41483196911648
 20
57.24256666878114
 10
61.40857428419526
 20
57.29327274766096
 10
61.39981352530472
 20
57.34369706250199
 10
61.3885496924449
 20
57.39374569195796
 10
61.37478278561578
 20
57.44332471468258
 10
61.35851280481735
 20
57.49234020932957
 10
61.33973975004963
 20
57.54069825455265
  0
LINE
  5
69
330
17EC
100
AcDbEntity
  8
GAIKEI
 62
     1
100
AcDbLine
 10
61.169973
 20
57.555818
 30
0.0
 11
61.33974
 21
57.54069799999999
 31
0.0
  0
LINE
  5
6A
330
17EC
100
AcDbEntity
  8
GAIKEI
 62
     1
100
AcDbLine
 10
61.33974
 20
57.54069799999999
 30
0.0
 11
61.33974
 21
56.74067199999999
 31
0.0
  0
CIRCLE
  5
6B
330
17EC
100
AcDbEntity
  8
GAIKEI
 62
     1
100
AcDbCircle
 10
60.169749
 20
71.74078900000002
 30
0.0
 40
0.3498679999999999
  0
LINE
  5
6C
330
17EC
100
AcDbEntity
  8
GAIKEI
 62
     1
100
AcDbLine
 10
61.33974
 20
71.04095700000002
 30
0.0
 11
61.33974
 21
70.240548
 31
0.0
  0
LWPOLYLINE
  5
6D
330
17EC
100
AcDbEntity
  8
GAIKEI
 62
     1
100
AcDbPolyline
 90
        6
 70
     1
 43
0.0
 10
60.16994
 20
71.88500500000002
 10
60.29492
 20
71.813136
 10
60.294729
 20
71.66844199999999
 10
60.16994
 20
71.59638299999999
 10
60.044768
 20
71.668634
 10
60.044768
 20
71.813136
  0
CIRCLE
  5
6E
330
17EC
100
AcDbEntity
  8
GAIKEI
 62
     1
100
AcDbCircle
 10
60.169749
 20
71.74078900000002
 30
0.0
 40
0.240391
  0
LWPOLYLINE
  5
6F
330
17EC
100
AcDbEntity
  8
GAIKEI
 62
     1
100
AcDbPolyline
 90
       19
 70
     0
 43
0.0
 10
61.16978192462767
 20
84.55585824885543
 10
61.33973975001744
 20
84.54073812700192
 10
61.35851285151792
 20
84.49238008177511
 10
61.37478315941084
 20
84.44336458712411
 10
61.38855095405843
 20
84.39378556439521
 10
61.3998165158229
 20
84.34373693493476
 10
61.40858012506647
 20
84.29331262008904
 10
61.4148420621514
 20
84.24260654120441
 10
61.41860260743991
 20
84.19171261962715
 10
61.4198620412942
 20
84.14072477670357
 10
61.41862064407651
 20
84.08973693377999
 10
61.41487869614908
 20
84.03884301220271
 10
61.40863647787413
 20
83.98813693331806
 10
61.39989426961389
 20
83.93771261847236
 10
61.38865235173059
 20
83.88766398901191
 10
61.37491100458645
 20
83.83808496628303
 10
61.3586705085437
 20
83.78906947163201
 10
61.3399311439639
 20
83.74071142640605
 10
61.16978192462568
 20
83.72578269850045
  0
LINE
  5
70
330
17EC
100
AcDbEntity
  8
GAIKEI
 62
     1
100
AcDbLine
 10
61.33974
 20
84.54073800000001
 30
0.0
 11
61.33993100000001
 21
83.74071100000001
 31
0.0
  0
ARC
  5
71
330
17EC
100
AcDbEntity
  8
GAIKEI
 62
     1
100
AcDbCircle
 10
20.830828
 20
84.521025
 30
0.0
 40
0.300271
100
AcDbArc
 50
253.499669
 51
226.525097
  0
CIRCLE
  5
72
330
17EC
100
AcDbEntity
  8
GAIKEI
 62
     1
100
AcDbCircle
 10
20.830828
 20
84.521025
 30
0.0
 40
0.5999240000000001
  0
LINE
  5
73
330
17EC
100
AcDbEntity
  8
GAIKEI
 62
     1
100
AcDbLine
 10
20.745545
 20
84.23312000000001
 30
0.0
 11
20.63197
 21
84.03641500000002
 31
0.0
  0
LINE
  5
74
330
17EC
100
AcDbEntity
  8
GAIKEI
 62
     1
100
AcDbLine
 10
20.624231
 20
84.30312499999997
 30
0.0
 11
20.51081700000001
 21
84.106657
 31
0.0
  0
LINE
  5
75
330
17EC
100
AcDbEntity
  8
GAIKEI
 62
     1
100
AcDbLine
 10
20.51081700000001
 20
84.106657
 30
0.0
 11
20.526703
 21
84.03450100000002
 31
0.0
  0
LINE
  5
76
330
17EC
100
AcDbEntity
  8
GAIKEI
 62
     1
100
AcDbLine
 10
20.63197
 20
84.03641500000002
 30
0.0
 11
20.561397
 21
84.01426500000001
 31
0.0
  0
LINE
  5
77
330
17EC
100
AcDbEntity
  8
GAIKEI
 62
     1
100
AcDbLine
 10
20.528448
 20
84.03338599999997
 30
0.0
 11
20.561397
 21
84.01426500000001
 31
0.0
  0
ARC
  5
78
330
17EC
100
AcDbEntity
  8
GAIKEI
 62
     1
100
AcDbCircle
 10
22.780654
 20
84.52121600000001
 30
0.0
 40
0.300271
100
AcDbArc
 50
253.499669
 51
226.525097
  0
CIRCLE
  5
79
330
17EC
100
AcDbEntity
  8
GAIKEI
 62
     1
100
AcDbCircle
 10
22.780654
 20
84.52121600000001
 30
0.0
 40
0.5999240000000001
  0
LINE
  5
7A
330
17EC
100
AcDbEntity
  8
GAIKEI
 62
     1
100
AcDbLine
 10
22.695371
 20
84.233311
 30
0.0
 11
22.581796
 21
84.03660600000002
 31
0.0
  0
LINE
  5
7B
330
17EC
100
AcDbEntity
  8
GAIKEI
 62
     1
100
AcDbLine
 10
22.574057
 20
84.30331700000001
 30
0.0
 11
22.460643
 21
84.106848
 31
0.0
  0
LINE
  5
7C
330
17EC
100
AcDbEntity
  8
GAIKEI
 62
     1
100
AcDbLine
 10
22.478274
 20
84.03357800000001
 30
0.0
 11
22.511223
 21
84.01445699999998
 31
0.0
  0
LINE
  5
7D
330
17EC
100
AcDbEntity
  8
GAIKEI
 62
     1
100
AcDbLine
 10
22.581796
 20
84.03660600000002
 30
0.0
 11
22.511223
 21
84.01445699999998
 31
0.0
  0
LINE
  5
7E
330
17EC
100
AcDbEntity
  8
GAIKEI
 62
     1
100
AcDbLine
 10
22.460643
 20
84.106848
 30
0.0
 11
22.476529
 21
84.03469300000001
 31
0.0
  0
CIRCLE
  5
7F
330
17EC
100
AcDbEntity
  8
GAIKEI
 62
     1
100
AcDbCircle
 10
24.731245
 20
84.52111999999999
 30
0.0
 40
0.5999240000000001
  0
ARC
  5
80
330
17EC
100
AcDbEntity
  8
GAIKEI
 62
     1
100
AcDbCircle
 10
24.731245
 20
84.52111999999999
 30
0.0
 40
0.300271
100
AcDbArc
 50
253.499669
 51
226.525097
  0
LINE
  5
81
330
17EC
100
AcDbEntity
  8
GAIKEI
 62
     1
100
AcDbLine
 10
24.411235
 20
84.106752
 30
0.0
 11
24.42712
 21
84.03459700000002
 31
0.0
  0
LINE
  5
82
330
17EC
100
AcDbEntity
  8
GAIKEI
 62
     1
100
AcDbLine
 10
24.532387
 20
84.03651100000001
 30
0.0
 11
24.461814
 21
84.01436099999997
 31
0.0
  0
LINE
  5
83
330
17EC
100
AcDbEntity
  8
GAIKEI
 62
     1
100
AcDbLine
 10
24.428865
 20
84.03348200000001
 30
0.0
 11
24.461814
 21
84.01436099999997
 31
0.0
  0
LINE
  5
84
330
17EC
100
AcDbEntity
  8
GAIKEI
 62
     1
100
AcDbLine
 10
24.524648
 20
84.30322099999997
 30
0.0
 11
24.411235
 21
84.106752
 31
0.0
  0
LINE
  5
85
330
17EC
100
AcDbEntity
  8
GAIKEI
 62
     1
100
AcDbLine
 10
24.645962
 20
84.233215
 30
0.0
 11
24.532387
 21
84.03651100000001
 31
0.0
  0
ARC
  5
86
330
17EC
100
AcDbEntity
  8
GAIKEI
 62
     1
100
AcDbCircle
 10
26.68088
 20
84.521025
 30
0.0
 40
0.300271
100
AcDbArc
 50
253.499669
 51
226.525097
  0
CIRCLE
  5
87
330
17EC
100
AcDbEntity
  8
GAIKEI
 62
     1
100
AcDbCircle
 10
26.68088
 20
84.521025
 30
0.0
 40
0.5999240000000001
  0
LINE
  5
88
330
17EC
100
AcDbEntity
  8
GAIKEI
 62
     1
100
AcDbLine
 10
26.595597
 20
84.23312000000001
 30
0.0
 11
26.48202100000001
 21
84.03641500000002
 31
0.0
  0
LINE
  5
89
330
17EC
100
AcDbEntity
  8
GAIKEI
 62
     1
100
AcDbLine
 10
26.474282
 20
84.30312499999997
 30
0.0
 11
26.360869
 21
84.106657
 31
0.0
  0
LINE
  5
8A
330
17EC
100
AcDbEntity
  8
GAIKEI
 62
     1
100
AcDbLine
 10
26.3785
 20
84.03338599999997
 30
0.0
 11
26.411449
 21
84.01426500000001
 31
0.0
  0
LINE
  5
8B
330
17EC
100
AcDbEntity
  8
GAIKEI
 62
     1
100
AcDbLine
 10
26.48202100000001
 20
84.03641500000002
 30
0.0
 11
26.411449
 21
84.01426500000001
 31
0.0
  0
LINE
  5
8C
330
17EC
100
AcDbEntity
  8
GAIKEI
 62
     1
100
AcDbLine
 10
26.360869
 20
84.106657
 30
0.0
 11
26.376755
 21
84.03450100000002
 31
0.0
  0
CIRCLE
  5
8D
330
17EC
100
AcDbEntity
  8
GAIKEI
 62
     1
100
AcDbCircle
 10
28.631471
 20
84.521312
 30
0.0
 40
0.5999240000000001
  0
ARC
  5
8E
330
17EC
100
AcDbEntity
  8
GAIKEI
 62
     1
100
AcDbCircle
 10
28.631471
 20
84.521312
 30
0.0
 40
0.300271
100
AcDbArc
 50
253.499669
 51
226.525097
  0
LINE
  5
8F
330
17EC
100
AcDbEntity
  8
GAIKEI
 62
     1
100
AcDbLine
 10
28.31146
 20
84.106944
 30
0.0
 11
28.327346
 21
84.03478800000002
 31
0.0
  0
LINE
  5
90
330
17EC
100
AcDbEntity
  8
GAIKEI
 62
     1
100
AcDbLine
 10
28.432613
 20
84.03670200000002
 30
0.0
 11
28.36204
 21
84.01455199999999
 31
0.0
  0
LINE
  5
91
330
17EC
100
AcDbEntity
  8
GAIKEI
 62
     1
100
AcDbLine
 10
28.329091
 20
84.03367299999997
 30
0.0
 11
28.36204
 21
84.01455199999999
 31
0.0
  0
LINE
  5
92
330
17EC
100
AcDbEntity
  8
GAIKEI
 62
     1
100
AcDbLine
 10
28.424874
 20
84.30341300000002
 30
0.0
 11
28.31146
 21
84.106944
 31
0.0
  0
LINE
  5
93
330
17EC
100
AcDbEntity
  8
GAIKEI
 62
     1
100
AcDbLine
 10
28.546188
 20
84.233407
 30
0.0
 11
28.432613
 21
84.03670200000002
 31
0.0
  0
ARC
  5
94
330
17EC
100
AcDbEntity
  8
GAIKEI
 62
     1
100
AcDbCircle
 10
30.580914
 20
84.52111999999999
 30
0.0
 40
0.300271
100
AcDbArc
 50
253.499669
 51
226.525097
  0
CIRCLE
  5
95
330
17EC
100
AcDbEntity
  8
GAIKEI
 62
     1
100
AcDbCircle
 10
30.580914
 20
84.52111999999999
 30
0.0
 40
0.5999240000000001
  0
LINE
  5
96
330
17EC
100
AcDbEntity
  8
GAIKEI
 62
     1
100
AcDbLine
 10
30.495631
 20
84.233215
 30
0.0
 11
30.382056
 21
84.03651100000001
 31
0.0
  0
LINE
  5
97
330
17EC
100
AcDbEntity
  8
GAIKEI
 62
     1
100
AcDbLine
 10
30.374317
 20
84.30322099999997
 30
0.0
 11
30.260903
 21
84.106752
 31
0.0
  0
LINE
  5
98
330
17EC
100
AcDbEntity
  8
GAIKEI
 62
     1
100
AcDbLine
 10
30.27853400000001
 20
84.03348200000001
 30
0.0
 11
30.311483
 21
84.01436099999997
 31
0.0
  0
LINE
  5
99
330
17EC
100
AcDbEntity
  8
GAIKEI
 62
     1
100
AcDbLine
 10
30.382056
 20
84.03651100000001
 30
0.0
 11
30.311483
 21
84.01436099999997
 31
0.0
  0
LINE
  5
9A
330
17EC
100
AcDbEntity
  8
GAIKEI
 62
     1
100
AcDbLine
 10
30.260903
 20
84.106752
 30
0.0
 11
30.276789
 21
84.03459700000002
 31
0.0
  0
CIRCLE
  5
9B
330
17EC
100
AcDbEntity
  8
GAIKEI
 62
     1
100
AcDbCircle
 10
32.531601
 20
84.52111999999999
 30
0.0
 40
0.5999240000000001
  0
ARC
  5
9C
330
17EC
100
AcDbEntity
  8
GAIKEI
 62
     1
100
AcDbCircle
 10
32.531601
 20
84.52111999999999
 30
0.0
 40
0.300271
100
AcDbArc
 50
253.499669
 51
226.525097
  0
LINE
  5
9D
330
17EC
100
AcDbEntity
  8
GAIKEI
 62
     1
100
AcDbLine
 10
32.446318
 20
84.233215
 30
0.0
 11
32.332743
 21
84.03651100000001
 31
0.0
  0
LINE
  5
9E
330
17EC
100
AcDbEntity
  8
GAIKEI
 62
     1
100
AcDbLine
 10
32.211591
 20
84.106752
 30
0.0
 11
32.227476
 21
84.03459700000002
 31
0.0
  0
LINE
  5
9F
330
17EC
100
AcDbEntity
  8
GAIKEI
 62
     1
100
AcDbLine
 10
32.332743
 20
84.03651100000001
 30
0.0
 11
32.26217000000001
 21
84.01436099999997
 31
0.0
  0
LINE
  5
A0
330
17EC
100
AcDbEntity
  8
GAIKEI
 62
     1
100
AcDbLine
 10
32.229221
 20
84.03348200000001
 30
0.0
 11
32.26217000000001
 21
84.01436099999997
 31
0.0
  0
LINE
  5
A1
330
17EC
100
AcDbEntity
  8
GAIKEI
 62
     1
100
AcDbLine
 10
32.325004
 20
84.30322099999997
 30
0.0
 11
32.211591
 21
84.106752
 31
0.0
  0
ARC
  5
A2
330
17EC
100
AcDbEntity
  8
GAIKEI
 62
     1
100
AcDbCircle
 10
34.481188
 20
84.521312
 30
0.0
 40
0.300271
100
AcDbArc
 50
253.499669
 51
226.525097
  0
CIRCLE
  5
A3
330
17EC
100
AcDbEntity
  8
GAIKEI
 62
     1
100
AcDbCircle
 10
34.481188
 20
84.521312
 30
0.0
 40
0.5999240000000001
  0
LINE
  5
A4
330
17EC
100
AcDbEntity
  8
GAIKEI
 62
     1
100
AcDbLine
 10
34.274591
 20
84.30341300000002
 30
0.0
 11
34.161177
 21
84.106944
 31
0.0
  0
LINE
  5
A5
330
17EC
100
AcDbEntity
  8
GAIKEI
 62
     1
100
AcDbLine
 10
34.17880800000001
 20
84.03367299999997
 30
0.0
 11
34.211757
 21
84.01455199999999
 31
0.0
  0
LINE
  5
A6
330
17EC
100
AcDbEntity
  8
GAIKEI
 62
     1
100
AcDbLine
 10
34.28233
 20
84.03670200000002
 30
0.0
 11
34.211757
 21
84.01455199999999
 31
0.0
  0
LINE
  5
A7
330
17EC
100
AcDbEntity
  8
GAIKEI
 62
     1
100
AcDbLine
 10
34.161177
 20
84.106944
 30
0.0
 11
34.17706300000001
 21
84.03478800000002
 31
0.0
  0
LINE
  5
A8
330
17EC
100
AcDbEntity
  8
GAIKEI
 62
     1
100
AcDbLine
 10
34.395905
 20
84.233407
 30
0.0
 11
34.28233
 21
84.03670200000002
 31
0.0
  0
CIRCLE
  5
A9
330
17EC
100
AcDbEntity
  8
GAIKEI
 62
     1
100
AcDbCircle
 10
38.380792
 20
84.521312
 30
0.0
 40
0.5999240000000001
  0
ARC
  5
AA
330
17EC
100
AcDbEntity
  8
GAIKEI
 62
     1
100
AcDbCircle
 10
38.380792
 20
84.521312
 30
0.0
 40
0.300271
100
AcDbArc
 50
253.499669
 51
226.525097
  0
LINE
  5
AB
330
17EC
100
AcDbEntity
  8
GAIKEI
 62
     1
100
AcDbLine
 10
38.295509
 20
84.233407
 30
0.0
 11
38.181933
 21
84.03670200000002
 31
0.0
  0
LINE
  5
AC
330
17EC
100
AcDbEntity
  8
GAIKEI
 62
     1
100
AcDbLine
 10
38.060781
 20
84.106944
 30
0.0
 11
38.076667
 21
84.03478800000002
 31
0.0
  0
LINE
  5
AD
330
17EC
100
AcDbEntity
  8
GAIKEI
 62
     1
100
AcDbLine
 10
38.181933
 20
84.03670200000002
 30
0.0
 11
38.111361
 21
84.01455199999999
 31
0.0
  0
LINE
  5
AE
330
17EC
100
AcDbEntity
  8
GAIKEI
 62
     1
100
AcDbLine
 10
38.078412
 20
84.03367299999997
 30
0.0
 11
38.111361
 21
84.01455199999999
 31
0.0
  0
LINE
  5
AF
330
17EC
100
AcDbEntity
  8
GAIKEI
 62
     1
100
AcDbLine
 10
38.174194
 20
84.30341300000002
 30
0.0
 11
38.060781
 21
84.106944
 31
0.0
  0
CIRCLE
  5
B0
330
17EC
100
AcDbEntity
  8
GAIKEI
 62
     1
100
AcDbCircle
 10
46.179712
 20
75.990788
 30
0.0
 40
0.4000130000000001
  0
CIRCLE
  5
B1
330
17EC
100
AcDbEntity
  8
GAIKEI
 62
     1
100
AcDbCircle
 10
46.179904
 20
74.44078399999998
 30
0.0
 40
0.4000130000000001
  0
CIRCLE
  5
B2
330
17EC
100
AcDbEntity
  8
GAIKEI
 62
     1
100
AcDbCircle
 10
49.099905
 20
74.44068799999998
 30
0.0
 40
0.4000130000000001
  0
CIRCLE
  5
B3
330
17EC
100
AcDbEntity
  8
GAIKEI
 62
     1
100
AcDbCircle
 10
51.049779
 20
74.44078399999998
 30
0.0
 40
0.399966
  0
CIRCLE
  5
B4
330
17EC
100
AcDbEntity
  8
GAIKEI
 62
     1
100
AcDbCircle
 10
52.99984399999999
 20
74.44068799999998
 30
0.0
 40
0.4000130000000001
  0
CIRCLE
  5
B5
330
17EC
100
AcDbEntity
  8
GAIKEI
 62
     1
100
AcDbCircle
 10
58.449787
 20
74.44068799999998
 30
0.0
 40
0.400109
  0
CIRCLE
  5
B6
330
17EC
100
AcDbEntity
  8
GAIKEI
 62
     1
100
AcDbCircle
 10
46.179808
 20
78.44063
 30
0.0
 40
0.399918
  0
CIRCLE
  5
B7
330
17EC
100
AcDbEntity
  8
GAIKEI
 62
     1
100
AcDbCircle
 10
40.329852
 20
84.37078000000001
 30
0.0
 40
0.4000130000000001
  0
CIRCLE
  5
B8
330
17EC
100
AcDbEntity
  8
GAIKEI
 62
     1
100
AcDbCircle
 10
36.42977
 20
84.14072500000001
 30
0.0
 40
0.349916
  0
CIRCLE
  5
B9
330
17EC
100
AcDbEntity
  8
GAIKEI
 62
     1
100
AcDbCircle
 10
40.329852
 20
84.37078000000001
 30
0.0
 40
0.4000130000000001
  0
CIRCLE
  5
BA
330
17EC
100
AcDbEntity
  8
GAIKEI
 62
     1
100
AcDbCircle
 10
46.179712
 20
75.990788
 30
0.0
 40
0.4000130000000001
  0
CIRCLE
  5
BB
330
17EC
100
AcDbEntity
  8
GAIKEI
 62
     1
100
AcDbCircle
 10
46.179904
 20
74.44078399999998
 30
0.0
 40
0.4000130000000001
  0
CIRCLE
  5
BC
330
17EC
100
AcDbEntity
  8
GAIKEI
 62
     1
100
AcDbCircle
 10
49.099905
 20
74.44068799999998
 30
0.0
 40
0.4000130000000001
  0
CIRCLE
  5
BD
330
17EC
100
AcDbEntity
  8
GAIKEI
 62
     1
100
AcDbCircle
 10
51.049779
 20
74.44078399999998
 30
0.0
 40
0.399966
  0
CIRCLE
  5
BE
330
17EC
100
AcDbEntity
  8
GAIKEI
 62
     1
100
AcDbCircle
 10
52.99984399999999
 20
74.44068799999998
 30
0.0
 40
0.4000130000000001
  0
CIRCLE
  5
BF
330
17EC
100
AcDbEntity
  8
GAIKEI
 62
     1
100
AcDbCircle
 10
58.449787
 20
74.44068799999998
 30
0.0
 40
0.400109
  0
CIRCLE
  5
C0
330
17EC
100
AcDbEntity
  8
GAIKEI
 62
     1
100
AcDbCircle
 10
46.179808
 20
78.44063
 30
0.0
 40
0.399918
  0
CIRCLE
  5
C1
330
17EC
100
AcDbEntity
  8
GAIKEI
 62
     1
100
AcDbCircle
 10
19.169863
 20
71.74078900000002
 30
0.0
 40
0.284938
  0
CIRCLE
  5
C2
330
17EC
100
AcDbEntity
  8
GAIKEI
 62
     1
100
AcDbCircle
 10
60.169844
 20
84.14072500000001
 30
0.0
 40
0.28489
  0
LINE
  5
C3
330
17EC
100
AcDbEntity
  8
GAIKEI
 62
     1
100
AcDbLine
 10
36.554702
 20
84.21307199999999
 30
0.0
 11
36.554702
 21
84.06856899999999
 31
0.0
  0
LINE
  5
C4
330
17EC
100
AcDbEntity
  8
GAIKEI
 62
     1
100
AcDbLine
 10
36.554702
 20
84.06856899999999
 30
0.0
 11
36.429913
 21
83.996414
 31
0.0
  0
LINE
  5
C5
330
17EC
100
AcDbEntity
  8
GAIKEI
 62
     1
100
AcDbLine
 10
36.429913
 20
83.996414
 30
0.0
 11
36.304837
 21
84.06856899999999
 31
0.0
  0
LINE
  5
C6
330
17EC
100
AcDbEntity
  8
GAIKEI
 62
     1
100
AcDbLine
 10
36.304837
 20
84.06856899999999
 30
0.0
 11
36.304837
 21
84.21288
 31
0.0
  0
LINE
  5
C7
330
17EC
100
AcDbEntity
  8
GAIKEI
 62
     1
100
AcDbLine
 10
36.304837
 20
84.21288
 30
0.0
 11
36.429913
 21
84.28513199999999
 31
0.0
  0
LINE
  5
C8
330
17EC
100
AcDbEntity
  8
GAIKEI
 62
     1
100
AcDbLine
 10
36.429913
 20
84.28513199999999
 30
0.0
 11
36.554702
 21
84.21307199999999
 31
0.0
  0
ARC
  5
C9
330
17EC
100
AcDbEntity
  8
GAIKEI
 62
     1
100
AcDbCircle
 10
44.229886
 20
84.52322599999998
 30
0.0
 40
0.300271
100
AcDbArc
 50
253.499669
 51
226.525097
  0
CIRCLE
  5
CA
330
17EC
100
AcDbEntity
  8
GAIKEI
 62
     1
100
AcDbCircle
 10
44.229886
 20
84.52322599999998
 30
0.0
 40
0.5999240000000001
  0
LINE
  5
CB
330
17EC
100
AcDbEntity
  8
GAIKEI
 62
     1
100
AcDbLine
 10
44.02328899999999
 20
84.30532599999997
 30
0.0
 11
43.909876
 21
84.108858
 31
0.0
  0
LINE
  5
CC
330
17EC
100
AcDbEntity
  8
GAIKEI
 62
     1
100
AcDbLine
 10
43.927506
 20
84.03558700000003
 30
0.0
 11
43.96045599999999
 21
84.01646599999997
 31
0.0
  0
LINE
  5
CD
330
17EC
100
AcDbEntity
  8
GAIKEI
 62
     1
100
AcDbLine
 10
44.031028
 20
84.03861600000002
 30
0.0
 11
43.96045599999999
 21
84.01646599999997
 31
0.0
  0
LINE
  5
CE
330
17EC
100
AcDbEntity
  8
GAIKEI
 62
     1
100
AcDbLine
 10
43.909876
 20
84.108858
 30
0.0
 11
43.925761
 21
84.03670200000002
 31
0.0
  0
LINE
  5
CF
330
17EC
100
AcDbEntity
  8
GAIKEI
 62
     1
100
AcDbLine
 10
44.144603
 20
84.235321
 30
0.0
 11
44.031028
 21
84.03861600000002
 31
0.0
  0
CIRCLE
  5
D0
330
17EC
100
AcDbEntity
  8
GAIKEI
 62
     1
100
AcDbCircle
 10
44.229886
 20
81.64533
 30
0.0
 40
0.5999240000000001
  0
ARC
  5
D1
330
17EC
100
AcDbEntity
  8
GAIKEI
 62
     1
100
AcDbCircle
 10
44.229886
 20
81.64533
 30
0.0
 40
0.300271
100
AcDbArc
 50
253.499669
 51
226.525097
  0
LINE
  5
D2
330
17EC
100
AcDbEntity
  8
GAIKEI
 62
     1
100
AcDbLine
 10
44.144603
 20
81.357426
 30
0.0
 11
44.031028
 21
81.160721
 31
0.0
  0
LINE
  5
D3
330
17EC
100
AcDbEntity
  8
GAIKEI
 62
     1
100
AcDbLine
 10
43.909876
 20
81.230963
 30
0.0
 11
43.925761
 21
81.15880699999999
 31
0.0
  0
LINE
  5
D4
330
17EC
100
AcDbEntity
  8
GAIKEI
 62
     1
100
AcDbLine
 10
44.031028
 20
81.160721
 30
0.0
 11
43.96045599999999
 21
81.138571
 31
0.0
  0
LINE
  5
D5
330
17EC
100
AcDbEntity
  8
GAIKEI
 62
     1
100
AcDbLine
 10
43.927506
 20
81.157692
 30
0.0
 11
43.96045599999999
 21
81.138571
 31
0.0
  0
LINE
  5
D6
330
17EC
100
AcDbEntity
  8
GAIKEI
 62
     1
100
AcDbLine
 10
44.02328899999999
 20
81.427431
 30
0.0
 11
43.909876
 21
81.230963
 31
0.0
  0
CIRCLE
  5
D7
330
17EC
100
AcDbEntity
  8
GAIKEI
 62
     1
100
AcDbCircle
 10
46.17904199999999
 20
81.64523499999999
 30
0.0
 40
0.5999240000000001
  0
LINE
  5
D8
330
17EC
100
AcDbEntity
  8
GAIKEI
 62
     1
100
AcDbLine
 10
45.972445
 20
81.42733599999999
 30
0.0
 11
45.85903199999999
 21
81.23086699999999
 31
0.0
  0
LINE
  5
D9
330
17EC
100
AcDbEntity
  8
GAIKEI
 62
     1
100
AcDbLine
 10
45.876662
 20
81.15759699999999
 30
0.0
 11
45.909611
 21
81.138475
 31
0.0
  0
LINE
  5
DA
330
17EC
100
AcDbEntity
  8
GAIKEI
 62
     1
100
AcDbLine
 10
45.98018399999999
 20
81.16062499999999
 30
0.0
 11
45.909611
 21
81.138475
 31
0.0
  0
LINE
  5
DB
330
17EC
100
AcDbEntity
  8
GAIKEI
 62
     1
100
AcDbLine
 10
45.85903199999999
 20
81.23086699999999
 30
0.0
 11
45.874917
 21
81.15871099999999
 31
0.0
  0
LINE
  5
DC
330
17EC
100
AcDbEntity
  8
GAIKEI
 62
     1
100
AcDbLine
 10
46.093759
 20
81.35733000000001
 30
0.0
 11
45.98018399999999
 21
81.16062499999999
 31
0.0
  0
ARC
  5
DD
330
17EC
100
AcDbEntity
  8
GAIKEI
 62
     1
100
AcDbCircle
 10
46.17904199999999
 20
81.64523499999999
 30
0.0
 40
0.300271
100
AcDbArc
 50
253.499669
 51
226.525097
  0
CIRCLE
  5
DE
330
17EC
100
AcDbEntity
  8
GAIKEI
 62
     1
100
AcDbCircle
 10
46.17904199999999
 20
84.52313000000001
 30
0.0
 40
0.5999240000000001
  0
ARC
  5
DF
330
17EC
100
AcDbEntity
  8
GAIKEI
 62
     1
100
AcDbCircle
 10
46.17904199999999
 20
84.52313000000001
 30
0.0
 40
0.300271
100
AcDbArc
 50
253.499669
 51
226.525097
  0
LINE
  5
E0
330
17EC
100
AcDbEntity
  8
GAIKEI
 62
     1
100
AcDbLine
 10
46.093759
 20
84.235225
 30
0.0
 11
45.98018399999999
 21
84.03852000000002
 31
0.0
  0
LINE
  5
E1
330
17EC
100
AcDbEntity
  8
GAIKEI
 62
     1
100
AcDbLine
 10
45.85903199999999
 20
84.108762
 30
0.0
 11
45.874917
 21
84.03660600000002
 31
0.0
  0
LINE
  5
E2
330
17EC
100
AcDbEntity
  8
GAIKEI
 62
     1
100
AcDbLine
 10
45.98018399999999
 20
84.03852000000002
 30
0.0
 11
45.909611
 21
84.01637100000002
 31
0.0
  0
LINE
  5
E3
330
17EC
100
AcDbEntity
  8
GAIKEI
 62
     1
100
AcDbLine
 10
45.876662
 20
84.03549200000002
 30
0.0
 11
45.909611
 21
84.01637100000002
 31
0.0
  0
LINE
  5
E4
330
17EC
100
AcDbEntity
  8
GAIKEI
 62
     1
100
AcDbLine
 10
45.972445
 20
84.30523100000002
 30
0.0
 11
45.85903199999999
 21
84.108762
 31
0.0
  0
CIRCLE
  5
E5
330
17EC
100
AcDbEntity
  8
GAIKEI
 62
     1
100
AcDbCircle
 10
58.00154200000001
 20
76.74822900000001
 30
0.0
 40
0.700023
  0
CIRCLE
  5
E6
330
17EC
100
AcDbEntity
  8
GAIKEI
 62
     1
100
AcDbCircle
 10
58.001447
 20
76.74822900000001
 30
0.0
 40
0.300106
  0
CIRCLE
  5
E7
330
17EC
100
AcDbEntity
  8
GAIKEI
 62
     1
100
AcDbCircle
 10
58.00163799999999
 20
76.74822900000001
 30
0.0
 40
0.465087
  0
CIRCLE
  5
E8
330
17EC
100
AcDbEntity
  8
GAIKEI
 62
     1
100
AcDbCircle
 10
54.849906
 20
74.89075099999999
 30
0.0
 40
0.465087
  0
CIRCLE
  5
E9
330
17EC
100
AcDbEntity
  8
GAIKEI
 62
     1
100
AcDbCircle
 10
54.84981
 20
74.89075099999999
 30
0.0
 40
0.700023
  0
CIRCLE
  5
EA
330
17EC
100
AcDbEntity
  8
GAIKEI
 62
     1
100
AcDbCircle
 10
54.849715
 20
74.89075099999999
 30
0.0
 40
0.300106
  0
CIRCLE
  5
EB
330
17EC
100
AcDbEntity
  8
GAIKEI
 62
     1
100
AcDbCircle
 10
55.39987599999999
 20
77.941475
 30
0.0
 40
0.465087
  0
CIRCLE
  5
EC
330
17EC
100
AcDbEntity
  8
GAIKEI
 62
     1
100
AcDbCircle
 10
55.399781
 20
77.941475
 30
0.0
 40
0.700023
  0
CIRCLE
  5
ED
330
17EC
100
AcDbEntity
  8
GAIKEI
 62
     1
100
AcDbCircle
 10
55.399685
 20
77.941475
 30
0.0
 40
0.300106
  0
CIRCLE
  5
EE
330
17EC
100
AcDbEntity
  8
GAIKEI
 62
     1
100
AcDbCircle
 10
58.001447
 20
79.136921
 30
0.0
 40
0.700023
  0
CIRCLE
  5
EF
330
17EC
100
AcDbEntity
  8
GAIKEI
 62
     1
100
AcDbCircle
 10
58.001351
 20
79.136921
 30
0.0
 40
0.300106
  0
CIRCLE
  5
F0
330
17EC
100
AcDbEntity
  8
GAIKEI
 62
     1
100
AcDbCircle
 10
58.00154200000001
 20
79.136921
 30
0.0
 40
0.465087
  0
CIRCLE
  5
F1
330
17EC
100
AcDbEntity
  8
GAIKEI
 62
     1
100
AcDbCircle
 10
55.399781
 20
80.344809
 30
0.0
 40
0.700023
  0
CIRCLE
  5
F2
330
17EC
100
AcDbEntity
  8
GAIKEI
 62
     1
100
AcDbCircle
 10
55.39987599999999
 20
80.344809
 30
0.0
 40
0.465087
  0
CIRCLE
  5
F3
330
17EC
100
AcDbEntity
  8
GAIKEI
 62
     1
100
AcDbCircle
 10
55.399685
 20
80.344809
 30
0.0
 40
0.300106
  0
CIRCLE
  5
F4
330
17EC
100
AcDbEntity
  8
GAIKEI
 62
     1
100
AcDbCircle
 10
58.00154200000001
 20
81.54016
 30
0.0
 40
0.700023
  0
CIRCLE
  5
F5
330
17EC
100
AcDbEntity
  8
GAIKEI
 62
     1
100
AcDbCircle
 10
58.001447
 20
81.54016
 30
0.0
 40
0.300106
  0
CIRCLE
  5
F6
330
17EC
100
AcDbEntity
  8
GAIKEI
 62
     1
100
AcDbCircle
 10
58.00163799999999
 20
81.54016
 30
0.0
 40
0.465087
  0
CIRCLE
  5
F7
330
17EC
100
AcDbEntity
  8
GAIKEI
 62
     1
100
AcDbCircle
 10
55.399781
 20
82.740678
 30
0.0
 40
0.700023
  0
CIRCLE
  5
F8
330
17EC
100
AcDbEntity
  8
GAIKEI
 62
     1
100
AcDbCircle
 10
55.39987599999999
 20
82.740678
 30
0.0
 40
0.465087
  0
CIRCLE
  5
F9
330
17EC
100
AcDbEntity
  8
GAIKEI
 62
     1
100
AcDbCircle
 10
55.399685
 20
82.740678
 30
0.0
 40
0.300106
  0
LINE
  5
FA
330
17EC
100
AcDbEntity
  8
GAIKEI
 62
     1
100
AcDbLine
 10
60.294729
 20
84.21307199999999
 30
0.0
 11
60.294729
 21
84.06837800000001
 31
0.0
  0
LINE
  5
FB
330
17EC
100
AcDbEntity
  8
GAIKEI
 62
     1
100
AcDbLine
 10
60.294729
 20
84.06837800000001
 30
0.0
 11
60.16994
 21
83.99622200000001
 31
0.0
  0
LINE
  5
FC
330
17EC
100
AcDbEntity
  8
GAIKEI
 62
     1
100
AcDbLine
 10
60.16994
 20
83.99622200000001
 30
0.0
 11
60.044768
 21
84.06856899999999
 31
0.0
  0
LINE
  5
FD
330
17EC
100
AcDbEntity
  8
GAIKEI
 62
     1
100
AcDbLine
 10
60.044768
 20
84.06856899999999
 30
0.0
 11
60.044768
 21
84.21307199999999
 31
0.0
  0
LINE
  5
FE
330
17EC
100
AcDbEntity
  8
GAIKEI
 62
     1
100
AcDbLine
 10
60.044768
 20
84.21307199999999
 30
0.0
 11
60.16994
 21
84.28494000000002
 31
0.0
  0
LINE
  5
FF
330
17EC
100
AcDbEntity
  8
GAIKEI
 62
     1
100
AcDbLine
 10
60.16994
 20
84.28494000000002
 30
0.0
 11
60.294729
 21
84.21307199999999
 31
0.0
  0
LWPOLYLINE
  5
100
330
17EC
100
AcDbEntity
  8
GAIKEI
 62
     1
100
AcDbPolyline
 90
        8
 70
     1
 43
0.0
 10
33.322919531492
 20
61.31211599033672
 10
32.14307154205937
 20
61.31230738428414
 10
32.13600192812317
 20
61.31523810410523
 10
32.13302335981553
 20
61.3222598695545
 10
32.13302335981521
 20
62.50134228319943
 10
33.3330634107142
 20
62.50115088924395
 10
33.33306341070948
 20
61.32206847560601
 10
33.33003699391467
 20
61.31526202834823
  0
LWPOLYLINE
  5
101
330
17EC
100
AcDbEntity
  8
GAIKEI
 62
     1
100
AcDbPolyline
 90
        8
 70
     1
 43
0.0
 10
32.14307154205943
 20
63.77018845822255
 10
33.32311092543946
 20
63.77018845822243
 10
33.33006091815845
 20
63.7671500793056
 10
33.33306341071045
 20
63.75994888203104
 10
33.33306341070878
 20
62.58096216536081
 10
32.13302335981734
 20
62.58115355932204
 10
32.1330233598157
 20
63.75994888203192
 10
32.13600192812308
 20
63.76707830657712
  0
LINE
  5
102
330
17EC
100
AcDbEntity
  8
GAIKEI
 62
     1
100
AcDbLine
 10
30.221572
 20
62.501151
 30
0.0
 11
30.221572
 21
62.580962
 31
0.0
  0
LINE
  5
103
330
17EC
100
AcDbEntity
  8
GAIKEI
 62
     1
100
AcDbLine
 10
31.321704
 20
62.580962
 30
0.0
 11
31.321896
 21
62.501342
 31
0.0
  0
LWPOLYLINE
  5
104
330
17EC
100
AcDbEntity
  8
GAIKEI
 62
     1
100
AcDbPolyline
 90
        8
 70
     1
 43
0.0
 10
43.87992299999999
 20
59.840775
 10
43.87973099999999
 20
60.540703
 10
44.57984999999999
 20
60.54089399999999
 10
44.57984999999999
 20
59.840775
 10
43.87992299999999
 20
59.840775
 10
43.87973099999999
 20
60.540703
 10
44.57984999999999
 20
60.54089399999999
 10
44.57984999999999
 20
59.840775
  0
LWPOLYLINE
  5
105
330
17EC
100
AcDbEntity
  8
GAIKEI
 62
     1
100
AcDbPolyline
 90
        8
 70
     1
 43
0.0
 10
43.87992299999999
 20
62.240664
 10
44.57984999999999
 20
62.240664
 10
44.57984999999999
 20
61.54102299999999
 10
43.87973099999999
 20
61.54083199999999
 10
43.87992299999999
 20
62.240664
 10
44.57984999999999
 20
62.240664
 10
44.57984999999999
 20
61.54102299999999
 10
43.87973099999999
 20
61.54083199999999
  0
LWPOLYLINE
  5
106
330
17EC
100
AcDbEntity
  8
GAIKEI
 62
     1
100
AcDbPolyline
 90
        8
 70
     1
 43
0.0
 10
43.87973099999999
 20
63.24079300000001
 10
43.87973099999999
 20
63.94072
 10
44.57984999999999
 20
63.940912
 10
44.57984999999999
 20
63.24079300000001
 10
43.87973099999999
 20
63.24079300000001
 10
43.87973099999999
 20
63.94072
 10
44.57984999999999
 20
63.940912
 10
44.57984999999999
 20
63.24079300000001
  0
LWPOLYLINE
  5
107
330
17EC
100
AcDbEntity
  8
GAIKEI
 62
     1
100
AcDbPolyline
 90
        8
 70
     1
 43
0.0
 10
43.87973099999999
 20
65.640682
 10
44.57984999999999
 20
65.640682
 10
44.57984999999999
 20
64.94085
 10
43.87973099999999
 20
64.940658
 10
43.87973099999999
 20
65.640682
 10
44.57984999999999
 20
65.640682
 10
44.57984999999999
 20
64.94085
 10
43.87973099999999
 20
64.940658
  0
LWPOLYLINE
  5
108
330
17EC
100
AcDbEntity
  8
GAIKEI
 62
     1
100
AcDbPolyline
 90
        8
 70
     1
 43
0.0
 10
43.72987
 20
56.74067199999999
 10
43.72987
 20
57.340596
 10
44.72980699999999
 20
57.340596
 10
44.72980699999999
 20
56.74067199999999
 10
43.72987
 20
56.74067199999999
 10
43.72987
 20
57.340596
 10
44.72980699999999
 20
57.340596
 10
44.72980699999999
 20
56.74067199999999
  0
LWPOLYLINE
  5
109
330
17EC
100
AcDbEntity
  8
GAIKEI
 62
     1
100
AcDbPolyline
 90
        8
 70
     1
 43
0.0
 10
43.72987
 20
59.04084399999999
 10
44.72980699999999
 20
59.041035
 10
44.72980699999999
 20
58.440728
 10
43.729678
 20
58.440728
 10
43.72987
 20
59.04084399999999
 10
44.72980699999999
 20
59.041035
 10
44.72980699999999
 20
58.440728
 10
43.729678
 20
58.440728
  0
LWPOLYLINE
  5
10A
330
17EC
100
AcDbEntity
  8
GAIKEI
 62
     1
100
AcDbPolyline
 90
        8
 70
     1
 43
0.0
 10
43.729678
 20
73.44055899999998
 10
44.72980699999999
 20
73.44055899999998
 10
44.72980699999999
 20
72.84082600000002
 10
43.72987
 20
72.84082600000002
 10
43.729678
 20
73.44055899999998
 10
44.72980699999999
 20
73.44055899999998
 10
44.72980699999999
 20
72.84082600000002
 10
43.72987
 20
72.84082600000002
  0
LWPOLYLINE
  5
10B
330
17EC
100
AcDbEntity
  8
GAIKEI
 62
     1
100
AcDbPolyline
 90
        8
 70
     1
 43
0.0
 10
43.729678
 20
73.84057199999999
 10
43.72987
 20
74.44088000000002
 10
44.72980699999999
 20
74.44088000000002
 10
44.72980699999999
 20
73.84057199999999
 10
43.729678
 20
73.84057199999999
 10
43.72987
 20
74.44088000000002
 10
44.72980699999999
 20
74.44088000000002
 10
44.72980699999999
 20
73.84057199999999
  0
LWPOLYLINE
  5
10C
330
17EC
100
AcDbEntity
  8
GAIKEI
 62
     1
100
AcDbPolyline
 90
        8
 70
     1
 43
0.0
 10
43.72987
 20
75.440626
 10
44.72980699999999
 20
75.440626
 10
44.72980699999999
 20
74.840701
 10
43.729678
 20
74.84051
 10
43.72987
 20
75.440626
 10
44.72980699999999
 20
75.440626
 10
44.72980699999999
 20
74.840701
 10
43.729678
 20
74.84051
  0
LWPOLYLINE
  5
10D
330
17EC
100
AcDbEntity
  8
GAIKEI
 62
     1
100
AcDbPolyline
 90
        8
 70
     1
 43
0.0
 10
43.72987
 20
75.840639
 10
43.72987
 20
76.44056299999999
 10
44.72980699999999
 20
76.44075500000001
 10
44.72980699999999
 20
75.840639
 10
43.72987
 20
75.840639
 10
43.72987
 20
76.44056299999999
 10
44.72980699999999
 20
76.44075500000001
 10
44.72980699999999
 20
75.840639
  0
LWPOLYLINE
  5
10E
330
17EC
100
AcDbEntity
  8
GAIKEI
 62
     1
100
AcDbPolyline
 90
        8
 70
     1
 43
0.0
 10
43.729678
 20
77.44069300000001
 10
44.72980699999999
 20
77.44069300000001
 10
44.72980699999999
 20
76.840577
 10
43.72987
 20
76.840577
 10
43.729678
 20
77.44069300000001
 10
44.72980699999999
 20
77.44069300000001
 10
44.72980699999999
 20
76.840577
 10
43.72987
 20
76.840577
  0
LWPOLYLINE
  5
10F
330
17EC
100
AcDbEntity
  8
GAIKEI
 62
     1
100
AcDbPolyline
 90
        8
 70
     1
 43
0.0
 10
45.829653
 20
71.39073000000002
 10
45.82984399999999
 20
72.09065800000002
 10
46.52986699999999
 20
72.09084900000002
 10
46.529676
 20
71.39073000000002
 10
45.829653
 20
71.39073000000002
 10
45.82984399999999
 20
72.09065800000002
 10
46.52986699999999
 20
72.09084900000002
 10
46.529676
 20
71.39073000000002
  0
LWPOLYLINE
  5
110
330
17EC
100
AcDbEntity
  8
GAIKEI
 62
     1
100
AcDbPolyline
 90
        8
 70
     1
 43
0.0
 10
20.479811
 20
72.09084900000002
 10
21.179931
 20
72.09084900000002
 10
21.179739
 20
71.39073000000002
 10
20.479811
 20
71.39073000000002
 10
20.479811
 20
72.09084900000002
 10
21.179931
 20
72.09084900000002
 10
21.179739
 20
71.39073000000002
 10
20.479811
 20
71.39073000000002
  0
LWPOLYLINE
  5
111
330
17EC
100
AcDbEntity
  8
GAIKEI
 62
     1
100
AcDbPolyline
 90
        8
 70
     1
 43
0.0
 10
46.97007356482749
 20
61.31441271770689
 10
45.79003418144742
 20
61.31441271770679
 10
45.78308418872835
 20
61.31735539964974
 10
45.78008169617782
 20
61.32446089995187
 10
45.78008169617757
 20
62.50373470753607
 10
46.98012174707764
 20
62.50373470753766
 10
46.98012174707063
 20
61.32446089994886
 10
46.97710729239789
 20
61.31746305874189
  0
LWPOLYLINE
  5
112
330
17EC
100
AcDbEntity
  8
GAIKEI
 62
     1
100
AcDbPolyline
 90
        8
 70
     1
 43
0.0
 10
45.79003418144742
 20
63.77210239769766
 10
46.97007356482749
 20
63.77229379164513
 10
46.97717906512887
 20
63.7692912990935
 10
46.98012174707129
 20
63.76234130637364
 10
46.98012174707492
 20
62.58325889273435
 10
45.78008169618079
 20
62.58325889272964
 10
45.78008169617781
 20
63.76234130639903
 10
45.78301241599881
 20
63.76941092033753
  0
LWPOLYLINE
  5
113
330
17EC
100
AcDbEntity
  8
GAIKEI
 62
     1
100
AcDbPolyline
 90
        8
 70
     1
 43
0.0
 10
48.93013898128919
 20
63.7623413063746
 10
48.93013898128919
 20
62.58325889273185
 10
47.73009893039329
 20
62.58325889273305
 10
47.7300989303967
 20
63.76234130637723
 10
47.73314927143597
 20
63.76926737485364
 10
47.74014711263772
 20
63.7721023976901
 10
48.91999510207597
 20
63.77229379164096
 10
48.92704079176922
 20
63.76936307182017
  0
LWPOLYLINE
  5
114
330
17EC
100
AcDbEntity
  8
GAIKEI
 62
     1
100
AcDbPolyline
 90
        9
 70
     0
 43
0.0
 10
47.72990753644677
 20
61.32465229389874
 10
47.72990753644675
 20
62.50335191964621
 10
48.93013898129016
 20
62.50354331359313
 10
48.92994758733888
 20
61.32465229389989
 10
48.92716041297737
 20
61.31757071784246
 10
48.91999510206915
 20
61.31422132375883
 10
47.73995571868468
 20
61.31441271770336
 10
47.73288610474831
 20
61.31736736176693
 10
47.7299075364388
 20
61.3242695059974
  0
LWPOLYLINE
  5
115
330
17EC
100
AcDbEntity
  8
GAIKEI
 62
     1
100
AcDbPolyline
 90
        8
 70
     1
 43
0.0
 10
50.87029942720977
 20
61.31441271770689
 10
49.68978155896115
 20
61.31469980862815
 10
49.68302296018982
 20
61.31739128601502
 10
49.68021186158443
 20
61.32446089995164
 10
49.68021186158543
 20
62.50354331359294
 10
50.88006051853517
 20
62.50354331358721
 10
50.88006051852982
 20
61.32446089994886
 10
50.87715372295189
 20
61.31746305874189
  0
LWPOLYLINE
  5
116
330
17EC
100
AcDbEntity
  8
GAIKEI
 62
     1
100
AcDbPolyline
 90
        8
 70
     1
 43
0.0
 10
49.68997295290847
 20
63.77229379164514
 10
50.87029942720961
 20
63.77210239769763
 10
50.87722549568507
 20
63.76926737485007
 10
50.88006051853336
 20
63.76234130637364
 10
50.88006051853458
 20
62.58325889273353
 10
49.68002046764378
 20
62.58345028667463
 10
49.68002046763207
 20
63.76234130638971
 10
49.68302296018203
 20
63.76936307184063
  0
LWPOLYLINE
  5
117
330
17EC
100
AcDbEntity
  8
GAIKEI
 62
     1
100
AcDbPolyline
 90
        8
 70
     1
 43
0.0
 10
52.82988635880276
 20
63.7623413063746
 10
52.82988635880279
 20
62.58325889273198
 10
51.63013339882855
 20
62.58345028667895
 10
51.6301333988334
 20
63.76234130637723
 10
51.63306411865569
 20
63.76926737485364
 10
51.64008588409888
 20
63.7721023976901
 10
52.8201252674742
 20
63.77229379164096
 10
52.82705133594836
 20
63.76936307182017
  0
LWPOLYLINE
  5
118
330
17EC
100
AcDbEntity
  8
GAIKEI
 62
     1
100
AcDbPolyline
 90
        8
 70
     1
 43
0.0
 10
51.63013339882906
 20
61.32465229389874
 10
51.63013339882895
 20
62.50335191964621
 10
52.8301734497236
 20
62.50354331359382
 10
52.82988635880715
 20
61.32426950600441
 10
52.82713507081314
 20
61.31754679359843
 10
52.8199338735376
 20
61.31441271769654
 10
51.64008588409179
 20
61.31441271769697
 10
51.63299234591107
 20
61.31759464207222
  0
LWPOLYLINE
  5
119
330
17EC
100
AcDbEntity
  8
GAIKEI
 62
     1
100
AcDbPolyline
 90
        8
 70
     1
 43
0.0
 10
54.77004680472333
 20
61.31441271770689
 10
53.59019881529071
 20
61.31469980862815
 10
53.58302154225882
 20
61.31739128601502
 10
53.5801506330456
 20
61.32446089995164
 10
53.58015063304794
 20
62.50354331359065
 10
54.77999928998906
 20
62.50373470754129
 10
54.77999928999683
 20
61.3244608999524
 10
54.77706857017594
 20
61.31735539965037
  0
LWPOLYLINE
  5
11A
330
17EC
100
AcDbEntity
  8
GAIKEI
 62
     1
100
AcDbPolyline
 90
        8
 70
     1
 43
0.0
 10
53.59000742134338
 20
63.77229379164514
 10
54.77004680472346
 20
63.77229379164518
 10
54.77716426714665
 20
63.76936307182392
 10
54.78019068394247
 20
63.76234130637364
 10
54.77999928999333
 20
62.58325889273353
 10
53.58015063304264
 20
62.58345028667463
 10
53.58015063304281
 20
63.76234130638971
 10
53.58306939074048
 20
63.76936307184063
  0
LINE
  5
11B
330
17EC
100
AcDbEntity
  8
GAIKEI
 62
     1
100
AcDbLine
 10
41.931245
 20
62.501342
 30
0.0
 11
41.931437
 21
62.58115400000001
 31
0.0
  0
LINE
  5
11C
330
17EC
100
AcDbEntity
  8
GAIKEI
 62
     1
100
AcDbLine
 10
43.031378
 20
62.580962
 30
0.0
 11
43.031186
 21
62.501342
 31
0.0
  0
LINE
  5
11D
330
17EC
100
AcDbEntity
  8
GAIKEI
 62
     1
100
AcDbLine
 10
42.30618599999999
 20
67.91606800000001
 30
0.0
 11
42.306377
 21
63.770188
 31
0.0
  0
LINE
  5
11E
330
17EC
100
AcDbEntity
  8
GAIKEI
 62
     1
100
AcDbLine
 10
42.656245
 20
57.165949
 30
0.0
 11
42.656245
 21
61.31230699999999
 31
0.0
  0
LWPOLYLINE
  5
11F
330
17EC
100
AcDbEntity
  8
GAIKEI
 62
     1
100
AcDbPolyline
 90
        4
 70
     1
 43
0.0
 10
41.631235
 20
65.53110799999998
 10
42.30618599999999
 20
65.53110799999998
 10
42.306377
 20
65.431009
 10
41.631235
 20
65.431201
  0
LWPOLYLINE
  5
120
330
17EC
100
AcDbEntity
  8
GAIKEI
 62
     1
100
AcDbPolyline
 90
        4
 70
     1
 43
0.0
 10
42.656437
 20
65.431009
 10
42.656245
 20
65.53110799999998
 10
43.131285
 20
65.530917
 10
43.131285
 20
65.430818
  0
LWPOLYLINE
  5
121
330
17EC
100
AcDbEntity
  8
GAIKEI
 62
     1
100
AcDbPolyline
 90
        4
 70
     1
 43
0.0
 10
43.131285
 20
67.41107599999999
 10
42.656437
 20
67.41107599999999
 10
42.656245
 20
67.470982
 10
43.131285
 20
67.47117299999999
  0
LWPOLYLINE
  5
122
330
17EC
100
AcDbEntity
  8
GAIKEI
 62
     1
100
AcDbPolyline
 90
        4
 70
     1
 43
0.0
 10
42.656245
 20
59.571292
 10
42.656245
 20
59.631103
 10
43.131285
 20
59.631103
 10
43.131285
 20
59.571101
  0
LWPOLYLINE
  5
123
330
17EC
100
AcDbEntity
  8
GAIKEI
 62
     1
100
AcDbPolyline
 90
        4
 70
     1
 43
0.0
 10
42.656245
 20
58.650975
 10
43.131285
 20
58.650975
 10
43.131285
 20
58.590973
 10
42.656245
 20
58.590973
  0
LWPOLYLINE
  5
124
330
17EC
100
AcDbEntity
  8
GAIKEI
 62
     1
100
AcDbPolyline
 90
        4
 70
     1
 43
0.0
 10
42.656245
 20
57.611227
 10
42.656245
 20
57.67103800000001
 10
43.131094
 20
57.67103800000001
 10
43.131285
 20
57.611227
  0
LINE
  5
125
330
17EC
100
AcDbEntity
  8
GAIKEI
 62
     1
100
AcDbLine
 10
40.34612
 20
67.91625999999999
 30
0.0
 11
40.34631199999999
 21
63.76999699999999
 31
0.0
  0
LINE
  5
126
330
17EC
100
AcDbEntity
  8
GAIKEI
 62
     1
100
AcDbLine
 10
40.69618
 20
57.165949
 30
0.0
 11
40.696371
 21
61.31230699999999
 31
0.0
  0
LWPOLYLINE
  5
127
330
17EC
100
AcDbEntity
  8
GAIKEI
 62
     1
100
AcDbPolyline
 90
        4
 70
     1
 43
0.0
 10
39.671361
 20
65.530917
 10
40.34631199999999
 20
65.53110799999998
 10
40.34631199999999
 20
65.431201
 10
39.67117
 20
65.431201
  0
LWPOLYLINE
  5
128
330
17EC
100
AcDbEntity
  8
GAIKEI
 62
     1
100
AcDbPolyline
 90
        4
 70
     1
 43
0.0
 10
40.69618
 20
65.431201
 10
40.69618
 20
65.53110799999998
 10
41.17122
 20
65.53110799999998
 10
41.17122
 20
65.431009
  0
LWPOLYLINE
  5
129
330
17EC
100
AcDbEntity
  8
GAIKEI
 62
     1
100
AcDbPolyline
 90
        4
 70
     1
 43
0.0
 10
41.17122
 20
67.41107599999999
 10
40.69618
 20
67.41107599999999
 10
40.69618
 20
67.47117299999999
 10
41.17122
 20
67.470982
  0
LWPOLYLINE
  5
12A
330
17EC
100
AcDbEntity
  8
GAIKEI
 62
     1
100
AcDbPolyline
 90
        4
 70
     1
 43
0.0
 10
40.696371
 20
59.571292
 10
40.696371
 20
59.631103
 10
41.17122
 20
59.630912
 10
41.17122
 20
59.571101
  0
LWPOLYLINE
  5
12B
330
17EC
100
AcDbEntity
  8
GAIKEI
 62
     1
100
AcDbPolyline
 90
        4
 70
     1
 43
0.0
 10
41.17122
 20
58.591164
 10
40.696371
 20
58.591164
 10
40.696371
 20
58.650975
 10
41.171411
 20
58.651166
  0
LWPOLYLINE
  5
12C
330
17EC
100
AcDbEntity
  8
GAIKEI
 62
     1
100
AcDbPolyline
 90
        4
 70
     1
 43
0.0
 10
40.696371
 20
57.611227
 10
40.696371
 20
57.671229
 10
41.17122
 20
57.67103800000001
 10
41.171411
 20
57.611418
  0
LINE
  5
12D
330
17EC
100
AcDbEntity
  8
GAIKEI
 62
     1
100
AcDbLine
 10
38.401367
 20
67.91606800000001
 30
0.0
 11
38.401558
 21
63.770188
 31
0.0
  0
LINE
  5
12E
330
17EC
100
AcDbEntity
  8
GAIKEI
 62
     1
100
AcDbLine
 10
38.75133
 20
57.165949
 30
0.0
 11
38.751522
 21
61.31230699999999
 31
0.0
  0
LWPOLYLINE
  5
12F
330
17EC
100
AcDbEntity
  8
GAIKEI
 62
     1
100
AcDbPolyline
 90
        4
 70
     1
 43
0.0
 10
37.726511
 20
65.53110799999998
 10
38.401558
 20
65.53110799999998
 10
38.401367
 20
65.431009
 10
37.726511
 20
65.431009
  0
LWPOLYLINE
  5
130
330
17EC
100
AcDbEntity
  8
GAIKEI
 62
     1
100
AcDbPolyline
 90
        4
 70
     1
 43
0.0
 10
38.75133
 20
65.431201
 10
38.75133
 20
65.53110799999998
 10
39.226466
 20
65.53110799999998
 10
39.226466
 20
65.430818
  0
LWPOLYLINE
  5
131
330
17EC
100
AcDbEntity
  8
GAIKEI
 62
     1
100
AcDbPolyline
 90
        4
 70
     1
 43
0.0
 10
39.226466
 20
67.41107599999999
 10
38.75133
 20
67.41126700000001
 10
38.75133
 20
67.470982
 10
39.226466
 20
67.470982
  0
LWPOLYLINE
  5
132
330
17EC
100
AcDbEntity
  8
GAIKEI
 62
     1
100
AcDbPolyline
 90
        4
 70
     1
 43
0.0
 10
38.75133
 20
59.631103
 10
39.226274
 20
59.631103
 10
39.226274
 20
59.571101
 10
38.75133
 20
59.571101
  0
LWPOLYLINE
  5
133
330
17EC
100
AcDbEntity
  8
GAIKEI
 62
     1
100
AcDbPolyline
 90
        4
 70
     1
 43
0.0
 10
39.226466
 20
58.591164
 10
38.751522
 20
58.590973
 10
38.75133
 20
58.650975
 10
39.226274
 20
58.651166
  0
LWPOLYLINE
  5
134
330
17EC
100
AcDbEntity
  8
GAIKEI
 62
     1
100
AcDbPolyline
 90
        4
 70
     1
 43
0.0
 10
38.75133
 20
57.611227
 10
38.751522
 20
57.671229
 10
39.226466
 20
57.671229
 10
39.226466
 20
57.611227
  0
LINE
  5
135
330
17EC
100
AcDbEntity
  8
GAIKEI
 62
     1
100
AcDbLine
 10
36.458144
 20
67.91625999999999
 30
0.0
 11
36.458144
 21
63.76999699999999
 31
0.0
  0
LINE
  5
136
330
17EC
100
AcDbEntity
  8
GAIKEI
 62
     1
100
AcDbLine
 10
36.80810800000001
 20
57.165949
 30
0.0
 11
36.80810800000001
 21
61.312116
 31
0.0
  0
LWPOLYLINE
  5
137
330
17EC
100
AcDbEntity
  8
GAIKEI
 62
     1
100
AcDbPolyline
 90
        4
 70
     1
 43
0.0
 10
35.783097
 20
65.53110799999998
 10
36.458144
 20
65.530917
 10
36.458144
 20
65.431009
 10
35.783097
 20
65.431201
  0
LWPOLYLINE
  5
138
330
17EC
100
AcDbEntity
  8
GAIKEI
 62
     1
100
AcDbPolyline
 90
        4
 70
     1
 43
0.0
 10
36.80810800000001
 20
65.431201
 10
36.80810800000001
 20
65.53110799999998
 10
37.28305200000001
 20
65.53110799999998
 10
37.28305200000001
 20
65.430818
  0
LWPOLYLINE
  5
139
330
17EC
100
AcDbEntity
  8
GAIKEI
 62
     1
100
AcDbPolyline
 90
        4
 70
     1
 43
0.0
 10
37.28305200000001
 20
67.41107599999999
 10
36.80810800000001
 20
67.41126700000001
 10
36.80810800000001
 20
67.470982
 10
37.28305200000001
 20
67.47117299999999
  0
LWPOLYLINE
  5
13A
330
17EC
100
AcDbEntity
  8
GAIKEI
 62
     1
100
AcDbPolyline
 90
        4
 70
     1
 43
0.0
 10
36.80810800000001
 20
59.631103
 10
37.283243
 20
59.631103
 10
37.283243
 20
59.57091
 10
36.80810800000001
 20
59.57091
  0
LWPOLYLINE
  5
13B
330
17EC
100
AcDbEntity
  8
GAIKEI
 62
     1
100
AcDbPolyline
 90
        4
 70
     1
 43
0.0
 10
37.283243
 20
58.591164
 10
36.80810800000001
 20
58.590973
 10
36.80810800000001
 20
58.650975
 10
37.28305200000001
 20
58.651166
  0
LWPOLYLINE
  5
13C
330
17EC
100
AcDbEntity
  8
GAIKEI
 62
     1
100
AcDbPolyline
 90
        4
 70
     1
 43
0.0
 10
36.80810800000001
 20
57.611227
 10
36.80810800000001
 20
57.67103800000001
 10
37.28305200000001
 20
57.67103800000001
 10
37.28305200000001
 20
57.611227
  0
LINE
  5
13D
330
17EC
100
AcDbEntity
  8
GAIKEI
 62
     1
100
AcDbLine
 10
34.501619
 20
67.91606800000001
 30
0.0
 11
34.501332
 21
63.77038
 31
0.0
  0
LINE
  5
13E
330
17EC
100
AcDbEntity
  8
GAIKEI
 62
     1
100
AcDbLine
 10
34.85158300000001
 20
57.165949
 30
0.0
 11
34.851392
 21
61.312499
 31
0.0
  0
LWPOLYLINE
  5
13F
330
17EC
100
AcDbEntity
  8
GAIKEI
 62
     1
100
AcDbPolyline
 90
        4
 70
     1
 43
0.0
 10
33.826573
 20
65.53110799999998
 10
34.501332
 20
65.53110799999998
 10
34.501619
 20
65.431009
 10
33.826573
 20
65.430818
  0
LWPOLYLINE
  5
140
330
17EC
100
AcDbEntity
  8
GAIKEI
 62
     1
100
AcDbPolyline
 90
        4
 70
     1
 43
0.0
 10
34.85158300000001
 20
65.53110799999998
 10
35.326527
 20
65.53110799999998
 10
35.326527
 20
65.430818
 10
34.85158300000001
 20
65.430818
  0
LWPOLYLINE
  5
141
330
17EC
100
AcDbEntity
  8
GAIKEI
 62
     1
100
AcDbPolyline
 90
        4
 70
     1
 43
0.0
 10
34.85158300000001
 20
67.470982
 10
35.326527
 20
67.470982
 10
35.326527
 20
67.41107599999999
 10
34.85158300000001
 20
67.41107599999999
  0
LWPOLYLINE
  5
142
330
17EC
100
AcDbEntity
  8
GAIKEI
 62
     1
100
AcDbPolyline
 90
        4
 70
     1
 43
0.0
 10
34.851392
 20
59.571292
 10
34.851392
 20
59.631103
 10
35.326527
 20
59.631103
 10
35.326527
 20
59.571101
  0
LWPOLYLINE
  5
143
330
17EC
100
AcDbEntity
  8
GAIKEI
 62
     1
100
AcDbPolyline
 90
        4
 70
     1
 43
0.0
 10
35.326527
 20
58.590973
 10
34.85158300000001
 20
58.590973
 10
34.85158300000001
 20
58.651166
 10
35.326527
 20
58.650975
  0
LWPOLYLINE
  5
144
330
17EC
100
AcDbEntity
  8
GAIKEI
 62
     1
100
AcDbPolyline
 90
        4
 70
     1
 43
0.0
 10
34.851392
 20
57.611036
 10
34.851392
 20
57.671229
 10
35.326336
 20
57.671229
 10
35.326527
 20
57.611227
  0
LINE
  5
145
330
17EC
100
AcDbEntity
  8
GAIKEI
 62
     1
100
AcDbLine
 10
32.558014
 20
67.91606800000001
 30
0.0
 11
32.558205
 21
63.76999699999999
 31
0.0
  0
LINE
  5
146
330
17EC
100
AcDbEntity
  8
GAIKEI
 62
     1
100
AcDbLine
 10
32.90797700000001
 20
57.165949
 30
0.0
 11
32.90797700000001
 21
61.31230699999999
 31
0.0
  0
LWPOLYLINE
  5
147
330
17EC
100
AcDbEntity
  8
GAIKEI
 62
     1
100
AcDbPolyline
 90
        4
 70
     1
 43
0.0
 10
31.883159
 20
65.53110799999998
 10
32.558014
 20
65.530917
 10
32.558014
 20
65.430818
 10
31.883159
 20
65.431009
  0
LWPOLYLINE
  5
148
330
17EC
100
AcDbEntity
  8
GAIKEI
 62
     1
100
AcDbPolyline
 90
        4
 70
     1
 43
0.0
 10
32.90797700000001
 20
65.431009
 10
32.90797700000001
 20
65.53110799999998
 10
33.383113
 20
65.53110799999998
 10
33.383113
 20
65.430818
  0
LWPOLYLINE
  5
149
330
17EC
100
AcDbEntity
  8
GAIKEI
 62
     1
100
AcDbPolyline
 90
        4
 70
     1
 43
0.0
 10
32.90797700000001
 20
67.470982
 10
33.383113
 20
67.470982
 10
33.383113
 20
67.410788
 10
32.90797700000001
 20
67.410788
  0
LWPOLYLINE
  5
14A
330
17EC
100
AcDbEntity
  8
GAIKEI
 62
     1
100
AcDbPolyline
 90
        4
 70
     1
 43
0.0
 10
32.90797700000001
 20
59.571292
 10
32.90797700000001
 20
59.631103
 10
33.383113
 20
59.631103
 10
33.383113
 20
59.571101
  0
LWPOLYLINE
  5
14B
330
17EC
100
AcDbEntity
  8
GAIKEI
 62
     1
100
AcDbPolyline
 90
        4
 70
     1
 43
0.0
 10
33.383113
 20
58.591164
 10
32.90797700000001
 20
58.590973
 10
32.908169
 20
58.651166
 10
33.383113
 20
58.651166
  0
LWPOLYLINE
  5
14C
330
17EC
100
AcDbEntity
  8
GAIKEI
 62
     1
100
AcDbPolyline
 90
        4
 70
     1
 43
0.0
 10
32.90797700000001
 20
57.611227
 10
32.90797700000001
 20
57.671229
 10
33.383113
 20
57.671229
 10
33.383304
 20
57.611227
  0
LWPOLYLINE
  5
14D
330
17EC
100
AcDbEntity
  8
GAIKEI
 62
     1
100
AcDbPolyline
 90
        8
 70
     1
 43
0.0
 10
43.07109176310399
 20
61.31249877823177
 10
41.89124377367153
 20
61.31230738428423
 10
41.88422200822235
 20
61.31519025561858
 10
41.88129128840136
 20
61.32187708165953
 10
41.88129128840017
 20
62.50115088925455
 10
43.0813313392964
 20
62.50115088924758
 10
43.08113994535642
 20
61.32206847559036
 10
43.07826903614525
 20
61.31516633135743
  0
LWPOLYLINE
  5
14E
330
17EC
100
AcDbEntity
  8
GAIKEI
 62
     1
100
AcDbPolyline
 90
        8
 70
     1
 43
0.0
 10
41.89124377367142
 20
63.77018845822255
 10
43.07128315705147
 20
63.77018845822252
 10
43.07838865735289
 20
63.76722185203609
 10
43.08133133929483
 20
63.75994888203081
 10
43.08133133929715
 20
62.58096216536425
 10
41.88129128839228
 20
62.58096216536796
 10
41.88129128840341
 20
63.7599488820326
 10
41.88422200822438
 20
63.76715007930783
  0
LINE
  5
14F
330
17EC
100
AcDbEntity
  8
GAIKEI
 62
     1
100
AcDbLine
 10
39.97137100000001
 20
62.501342
 30
0.0
 11
39.97118
 21
62.580962
 31
0.0
  0
LINE
  5
150
330
17EC
100
AcDbEntity
  8
GAIKEI
 62
     1
100
AcDbLine
 10
41.071312
 20
62.580962
 30
0.0
 11
41.071312
 21
62.501342
 31
0.0
  0
LWPOLYLINE
  5
151
330
17EC
100
AcDbEntity
  8
GAIKEI
 62
     1
100
AcDbPolyline
 90
        8
 70
     1
 43
0.0
 10
39.16646383992878
 20
61.31230738428428
 10
37.98642445654865
 20
61.31211599033674
 10
37.97940269109914
 20
61.315262028349
 10
37.97647197127913
 20
61.32206847560792
 10
37.97647197127825
 20
62.5009594953018
 10
39.17651202217712
 20
62.50134228320167
 10
39.17651202216928
 20
61.32225986954981
 10
39.17346168113068
 20
61.31509455863881
  0
LWPOLYLINE
  5
152
330
17EC
100
AcDbEntity
  8
GAIKEI
 62
     1
100
AcDbPolyline
 90
        8
 70
     1
 43
0.0
 10
37.98642445654883
 20
63.76999706427501
 10
39.16646383992861
 20
63.77018845822243
 10
39.17360522659502
 20
63.7671500793056
 10
39.17651202217417
 20
63.75994888203104
 10
39.17651202217328
 20
62.58096216536081
 10
37.97647197128207
 20
62.58115355932204
 10
37.97647197126901
 20
63.75994888203766
 10
37.97940269108803
 20
63.76712615507019
  0
LINE
  5
153
330
17EC
100
AcDbEntity
  8
GAIKEI
 62
     1
100
AcDbLine
 10
36.08320300000001
 20
62.501151
 30
0.0
 11
36.08320300000001
 21
62.580962
 31
0.0
  0
LINE
  5
154
330
17EC
100
AcDbEntity
  8
GAIKEI
 62
     1
100
AcDbLine
 10
37.183048
 20
62.58115400000001
 30
0.0
 11
37.18324000000001
 21
62.501342
 31
0.0
  0
LWPOLYLINE
  5
155
330
17EC
100
AcDbEntity
  8
GAIKEI
 62
     1
100
AcDbPolyline
 90
        8
 70
     1
 43
0.0
 10
37.22304969690054
 20
61.31211599033672
 10
36.04301031352037
 20
61.3124987782317
 10
36.035988548071
 20
61.31528595259232
 10
36.03305782824896
 20
61.32187708165953
 10
36.0330578282506
 20
62.5009594953018
 10
37.23309787913696
 20
62.50134228319074
 10
37.23309787915243
 20
61.32206847560601
 10
37.23011931084594
 20
61.31526202834823
  0
LWPOLYLINE
  5
156
330
17EC
100
AcDbEntity
  8
GAIKEI
 62
     1
100
AcDbPolyline
 90
        8
 70
     1
 43
0.0
 10
36.04320170746808
 20
63.77018845822255
 10
37.22324109084815
 20
63.76999706427507
 10
37.23016715932383
 20
63.76712615506252
 10
37.2332892730924
 20
63.75994888203104
 10
37.23309787914418
 20
62.58096216536081
 10
36.03305782825464
 20
62.58115355932204
 10
36.03305782824591
 20
63.75994888202439
 10
36.03601247230916
 20
63.76715007929924
  0
LINE
  5
157
330
17EC
100
AcDbEntity
  8
GAIKEI
 62
     1
100
AcDbLine
 10
34.126487
 20
62.501151
 30
0.0
 11
34.126487
 21
62.58115400000001
 31
0.0
  0
LINE
  5
158
330
17EC
100
AcDbEntity
  8
GAIKEI
 62
     1
100
AcDbLine
 10
35.226524
 20
62.580962
 30
0.0
 11
35.22671500000001
 21
62.501342
 31
0.0
  0
LWPOLYLINE
  5
159
330
17EC
100
AcDbEntity
  8
GAIKEI
 62
     1
100
AcDbPolyline
 90
        8
 70
     1
 43
0.0
 10
35.26652506846772
 20
61.31249877823177
 10
34.08648568508765
 20
61.31211599033671
 10
34.07941607115143
 20
61.31507063440135
 10
34.07643750284365
 20
61.3222598695545
 10
34.07643750284404
 20
62.50134228319943
 10
35.27647755374618
 20
62.50115088924395
 10
35.27647755373318
 20
61.32225986954845
 10
35.27354683391123
 20
61.31511848288075
  0
LWPOLYLINE
  5
15A
330
17EC
100
AcDbEntity
  8
GAIKEI
 62
     1
100
AcDbPolyline
 90
        8
 70
     1
 43
0.0
 10
34.08648568508766
 20
63.77018845822255
 10
35.2665250684676
 20
63.76999706427483
 10
35.27354683391675
 20
63.76705438233171
 10
35.27647755373732
 20
63.75994888203104
 10
35.27647755373931
 20
62.58096216536057
 10
34.0764375028357
 20
62.58096216536251
 10
34.07643750284421
 20
63.75994888203192
 10
34.07941607115173
 20
63.76707830657712
  0
LINE
  5
15B
330
17EC
100
AcDbEntity
  8
GAIKEI
 62
     1
100
AcDbLine
 10
32.183073
 20
62.501151
 30
0.0
 11
32.183073
 21
62.580962
 31
0.0
  0
LINE
  5
15C
330
17EC
100
AcDbEntity
  8
GAIKEI
 62
     1
100
AcDbLine
 10
33.28311
 20
62.580962
 30
0.0
 11
33.28311
 21
62.501342
 31
0.0
  0
LWPOLYLINE
  5
15D
330
17EC
100
AcDbEntity
  8
GAIKEI
 62
     1
100
AcDbPolyline
 90
        8
 70
     1
 43
0.0
 10
41.11121774058966
 20
61.31230738428428
 10
39.93117835720958
 20
61.3124987782317
 10
39.92415659176012
 20
61.31523810410545
 10
39.92122587194012
 20
61.32206847560724
 10
39.92141726588804
 20
62.5011508892533
 10
41.12145731678629
 20
62.50095949529533
 10
41.12126592283325
 20
61.32206847559171
 10
41.11825146815896
 20
61.31514240711548
  0
LWPOLYLINE
  5
15E
330
17EC
100
AcDbEntity
  8
GAIKEI
 62
     1
100
AcDbPolyline
 90
        8
 70
     1
 43
0.0
 10
39.93136975115721
 20
63.77018845822255
 10
41.11102634664201
 20
63.77018845822246
 10
41.11822754391699
 20
63.76715007930565
 10
41.12126592283448
 20
63.75994888203081
 10
41.12126592283519
 20
62.58115355931037
 10
39.92122587194263
 20
62.58115355932204
 10
39.92122587194148
 20
63.75994888202782
 10
39.92432406146578
 20
63.76722185203302
  0
LINE
  5
15F
330
17EC
100
AcDbEntity
  8
GAIKEI
 62
     1
100
AcDbLine
 10
38.026617
 20
62.501151
 30
0.0
 11
38.026617
 21
62.580962
 31
0.0
  0
LINE
  5
160
330
17EC
100
AcDbEntity
  8
GAIKEI
 62
     1
100
AcDbLine
 10
39.126463
 20
62.58115400000001
 30
0.0
 11
39.126463
 21
62.50095899999999
 31
0.0
  0
LWPOLYLINE
  5
161
330
17EC
100
AcDbEntity
  8
GAIKEI
 62
     1
100
AcDbPolyline
 90
        8
 70
     1
 43
0.0
 10
30.22980200000001
 20
70.440842
 10
30.22980200000001
 20
69.740531
 10
30.929921
 20
69.740531
 10
30.92973
 20
70.440842
 10
30.22980200000001
 20
70.440842
 10
30.92973
 20
70.440842
 10
30.929921
 20
69.740531
 10
30.22980200000001
 20
69.740531
  0
LWPOLYLINE
  5
162
330
17EC
100
AcDbEntity
  8
GAIKEI
 62
     1
100
AcDbPolyline
 90
        8
 70
     1
 43
0.0
 10
28.279785
 20
69.740723
 10
28.979808
 20
69.740531
 10
28.979808
 20
70.440842
 10
28.279785
 20
70.440842
 10
28.279785
 20
69.740723
 10
28.279785
 20
70.440842
 10
28.979808
 20
70.440842
 10
28.979808
 20
69.740531
  0
LWPOLYLINE
  5
163
330
17EC
100
AcDbEntity
  8
GAIKEI
 62
     1
100
AcDbPolyline
 90
        8
 70
     1
 43
0.0
 10
26.329863
 20
70.440842
 10
26.329863
 20
69.740531
 10
27.029791
 20
69.740531
 10
27.029791
 20
70.440842
 10
26.329863
 20
70.440842
 10
27.029791
 20
70.440842
 10
27.029791
 20
69.740531
 10
26.329863
 20
69.740531
  0
LWPOLYLINE
  5
164
330
17EC
100
AcDbEntity
  8
GAIKEI
 62
     1
100
AcDbPolyline
 90
        8
 70
     1
 43
0.0
 10
24.379846
 20
69.740531
 10
25.079869
 20
69.740531
 10
25.079869
 20
70.440842
 10
24.379846
 20
70.440842
 10
24.379846
 20
69.740531
 10
24.379846
 20
70.440842
 10
25.079869
 20
70.440842
 10
25.079869
 20
69.740531
  0
LWPOLYLINE
  5
165
330
17EC
100
AcDbEntity
  8
GAIKEI
 62
     1
100
AcDbPolyline
 90
        8
 70
     1
 43
0.0
 10
22.429924
 20
70.440842
 10
22.429924
 20
69.740531
 10
23.129756
 20
69.740531
 10
23.129756
 20
70.440842
 10
22.429924
 20
70.440842
 10
23.129756
 20
70.440842
 10
23.129756
 20
69.740531
 10
22.429924
 20
69.740531
  0
LWPOLYLINE
  5
166
330
17EC
100
AcDbEntity
  8
GAIKEI
 62
     1
100
AcDbPolyline
 90
        4
 70
     1
 43
0.0
 10
30.329997
 20
73.24083899999997
 10
30.829726
 20
73.24083899999997
 10
30.829726
 20
73.04073699999998
 10
30.329805
 20
73.04054600000002
  0
LWPOLYLINE
  5
167
330
17EC
100
AcDbEntity
  8
GAIKEI
 62
     1
100
AcDbPolyline
 90
        4
 70
     1
 43
0.0
 10
28.379692
 20
73.24083899999997
 10
28.8799
 20
73.24083899999997
 10
28.8799
 20
73.04073699999998
 10
28.379692
 20
73.04073699999998
  0
LWPOLYLINE
  5
168
330
17EC
100
AcDbEntity
  8
GAIKEI
 62
     1
100
AcDbPolyline
 90
        4
 70
     1
 43
0.0
 10
26.429867
 20
73.24083899999997
 10
26.92978800000001
 20
73.24083899999997
 10
26.92978800000001
 20
73.04073699999998
 10
26.429867
 20
73.04073699999998
  0
LWPOLYLINE
  5
169
330
17EC
100
AcDbEntity
  8
GAIKEI
 62
     1
100
AcDbPolyline
 90
        4
 70
     1
 43
0.0
 10
24.479754
 20
73.04054600000002
 10
24.479945
 20
73.24083899999997
 10
24.979675
 20
73.24083899999997
 10
24.979675
 20
73.04073699999998
  0
LWPOLYLINE
  5
16A
330
17EC
100
AcDbEntity
  8
GAIKEI
 62
     1
100
AcDbPolyline
 90
        4
 70
     1
 43
0.0
 10
22.529641
 20
73.24083899999997
 10
23.029849
 20
73.24083899999997
 10
23.029849
 20
73.04054600000002
 10
22.529641
 20
73.04073699999998
  0
LWPOLYLINE
  5
16B
330
17EC
100
AcDbEntity
  8
GAIKEI
 62
     1
100
AcDbPolyline
 90
        8
 70
     1
 43
0.0
 10
45.82984399999999
 20
69.740531
 10
46.529676
 20
69.740723
 10
46.52986699999999
 20
70.440842
 10
45.829653
 20
70.440842
 10
45.82984399999999
 20
69.740531
 10
45.829653
 20
70.440842
 10
46.52986699999999
 20
70.440842
 10
46.529676
 20
69.740723
  0
LWPOLYLINE
  5
16C
330
17EC
100
AcDbEntity
  8
GAIKEI
 62
     1
100
AcDbPolyline
 90
        4
 70
     1
 43
0.0
 10
20.579815
 20
73.04054600000002
 10
20.579815
 20
73.24083899999997
 10
21.079736
 20
73.24083899999997
 10
21.079736
 20
73.04073699999998
  0
LWPOLYLINE
  5
16D
330
17EC
100
AcDbEntity
  8
GAIKEI
 62
     1
100
AcDbPolyline
 90
        4
 70
     1
 43
0.0
 10
51.779803
 20
73.04073699999998
 10
51.779803
 20
73.24083899999997
 10
52.27982
 20
73.24083899999997
 10
52.27982
 20
73.04054600000002
  0
LWPOLYLINE
  5
16E
330
17EC
100
AcDbEntity
  8
GAIKEI
 62
     1
100
AcDbPolyline
 90
        4
 70
     1
 43
0.0
 10
49.829786
 20
73.04054600000002
 10
49.829786
 20
73.24083899999997
 10
50.32970699999999
 20
73.24083899999997
 10
50.32970699999999
 20
73.04073699999998
  0
LWPOLYLINE
  5
16F
330
17EC
100
AcDbEntity
  8
GAIKEI
 62
     1
100
AcDbPolyline
 90
        8
 70
     1
 43
0.0
 10
43.87973099999999
 20
70.440842
 10
43.87973099999999
 20
69.740531
 10
44.57984999999999
 20
69.740531
 10
44.579659
 20
70.440842
 10
43.87973099999999
 20
70.440842
 10
44.579659
 20
70.440842
 10
44.57984999999999
 20
69.740531
 10
43.87973099999999
 20
69.740531
  0
LWPOLYLINE
  5
170
330
17EC
100
AcDbEntity
  8
GAIKEI
 62
     1
100
AcDbPolyline
 90
        8
 70
     1
 43
0.0
 10
20.479811
 20
69.740531
 10
21.179739
 20
69.740531
 10
21.179739
 20
70.440842
 10
20.479811
 20
70.440842
 10
20.479811
 20
69.740531
 10
20.479811
 20
70.440842
 10
21.179739
 20
70.440842
 10
21.179739
 20
69.740531
  0
LWPOLYLINE
  5
171
330
17EC
100
AcDbEntity
  8
GAIKEI
 62
     1
100
AcDbPolyline
 90
        8
 70
     1
 43
0.0
 10
26.329863
 20
71.39073000000002
 10
26.329863
 20
72.09084900000002
 10
27.029791
 20
72.09065800000002
 10
27.029791
 20
71.39073000000002
 10
26.329863
 20
71.39073000000002
 10
26.329863
 20
72.09084900000002
 10
27.029791
 20
72.09065800000002
 10
27.029791
 20
71.39073000000002
  0
LWPOLYLINE
  5
172
330
17EC
100
AcDbEntity
  8
GAIKEI
 62
     1
100
AcDbPolyline
 90
        8
 70
     1
 43
0.0
 10
28.279785
 20
72.09084900000002
 10
28.979808
 20
72.09084900000002
 10
28.979808
 20
71.39073000000002
 10
28.279785
 20
71.39073000000002
 10
28.279785
 20
72.09084900000002
 10
28.979808
 20
72.09084900000002
 10
28.979808
 20
71.39073000000002
 10
28.279785
 20
71.39073000000002
  0
LWPOLYLINE
  5
173
330
17EC
100
AcDbEntity
  8
GAIKEI
 62
     1
100
AcDbPolyline
 90
        8
 70
     1
 43
0.0
 10
30.22980200000001
 20
71.39073000000002
 10
30.22980200000001
 20
72.09084900000002
 10
30.929921
 20
72.09065800000002
 10
30.929921
 20
71.39073000000002
 10
30.22980200000001
 20
71.39073000000002
 10
30.22980200000001
 20
72.09084900000002
 10
30.929921
 20
72.09065800000002
 10
30.929921
 20
71.39073000000002
  0
LWPOLYLINE
  5
174
330
17EC
100
AcDbEntity
  8
GAIKEI
 62
     1
100
AcDbPolyline
 90
        4
 70
     1
 43
0.0
 10
55.949895
 20
70.390601
 10
56.44981600000001
 20
70.390601
 10
56.44981600000001
 20
70.19069
 10
55.949895
 20
70.19069
  0
LWPOLYLINE
  5
175
330
17EC
100
AcDbEntity
  8
GAIKEI
 62
     1
100
AcDbPolyline
 90
        8
 70
     1
 43
0.0
 10
32.179915
 20
72.09084900000002
 10
32.87974699999999
 20
72.09084900000002
 10
32.87993800000001
 20
71.39073000000002
 10
32.179723
 20
71.39073000000002
 10
32.179915
 20
72.09084900000002
 10
32.87974699999999
 20
72.09084900000002
 10
32.87993800000001
 20
71.39073000000002
 10
32.179723
 20
71.39073000000002
  0
LWPOLYLINE
  5
176
330
17EC
100
AcDbEntity
  8
GAIKEI
 62
     1
100
AcDbPolyline
 90
        4
 70
     1
 43
0.0
 10
32.279823
 20
82.04075000000001
 10
32.279631
 20
82.240566
 10
32.77983900000001
 20
82.240853
 10
32.77983900000001
 20
82.04075000000001
  0
LWPOLYLINE
  5
177
330
17EC
100
AcDbEntity
  8
GAIKEI
 62
     1
100
AcDbPolyline
 90
        4
 70
     1
 43
0.0
 10
32.279823
 20
80.04068399999999
 10
32.279823
 20
80.24078600000001
 10
32.77983900000001
 20
80.24078600000001
 10
32.77983900000001
 20
80.040875
  0
LWPOLYLINE
  5
178
330
17EC
100
AcDbEntity
  8
GAIKEI
 62
     1
100
AcDbPolyline
 90
        4
 70
     1
 43
0.0
 10
32.279631
 20
78.040617
 10
32.279823
 20
78.240911
 10
32.77983900000001
 20
78.240911
 10
32.77983900000001
 20
78.040808
  0
LWPOLYLINE
  5
179
330
17EC
100
AcDbEntity
  8
GAIKEI
 62
     1
100
AcDbPolyline
 90
        4
 70
     1
 43
0.0
 10
32.279631
 20
77.240782
 10
32.779648
 20
77.240782
 10
32.779648
 20
77.040679
 10
32.279631
 20
77.040679
  0
LWPOLYLINE
  5
17A
330
17EC
100
AcDbEntity
  8
GAIKEI
 62
     1
100
AcDbPolyline
 90
        4
 70
     1
 43
0.0
 10
32.279823
 20
75.240906
 10
32.77983900000001
 20
75.24071499999998
 10
32.77983900000001
 20
75.04061199999999
 10
32.279823
 20
75.04061199999999
  0
LWPOLYLINE
  5
17B
330
17EC
100
AcDbEntity
  8
GAIKEI
 62
     1
100
AcDbPolyline
 90
        4
 70
     1
 43
0.0
 10
32.279823
 20
74.04086599999998
 10
32.279823
 20
74.24077699999998
 10
32.77983900000001
 20
74.24077699999998
 10
32.77983900000001
 20
74.04067499999998
  0
LWPOLYLINE
  5
17C
330
17EC
100
AcDbEntity
  8
GAIKEI
 62
     1
100
AcDbPolyline
 90
        4
 70
     1
 43
0.0
 10
34.229935
 20
74.24058599999998
 10
34.729665
 20
74.24077699999998
 10
34.729665
 20
74.04086599999998
 10
34.229935
 20
74.04067499999998
  0
LWPOLYLINE
  5
17D
330
17EC
100
AcDbEntity
  8
GAIKEI
 62
     1
100
AcDbPolyline
 90
        4
 70
     1
 43
0.0
 10
34.229935
 20
75.04061199999999
 10
34.22974400000001
 20
75.24071499999998
 10
34.729665
 20
75.240906
 10
34.729665
 20
75.04061199999999
  0
LWPOLYLINE
  5
17E
330
17EC
100
AcDbEntity
  8
GAIKEI
 62
     1
100
AcDbPolyline
 90
        4
 70
     1
 43
0.0
 10
34.22974400000001
 20
77.240782
 10
34.729856
 20
77.240782
 10
34.729856
 20
77.040679
 10
34.22974400000001
 20
77.040679
  0
LWPOLYLINE
  5
17F
330
17EC
100
AcDbEntity
  8
GAIKEI
 62
     1
100
AcDbPolyline
 90
        4
 70
     1
 43
0.0
 10
34.229935
 20
78.240911
 10
34.729665
 20
78.240911
 10
34.729665
 20
78.040617
 10
34.22974400000001
 20
78.040808
  0
LWPOLYLINE
  5
180
330
17EC
100
AcDbEntity
  8
GAIKEI
 62
     1
100
AcDbPolyline
 90
        4
 70
     1
 43
0.0
 10
34.22974400000001
 20
80.24078600000001
 10
34.729665
 20
80.24078600000001
 10
34.729665
 20
80.040875
 10
34.229935
 20
80.040875
  0
LWPOLYLINE
  5
181
330
17EC
100
AcDbEntity
  8
GAIKEI
 62
     1
100
AcDbPolyline
 90
        4
 70
     1
 43
0.0
 10
34.22974400000001
 20
82.24104399999999
 10
34.729665
 20
82.240853
 10
34.729856
 20
82.04075000000001
 10
34.22974400000001
 20
82.04075000000001
  0
LWPOLYLINE
  5
182
330
17EC
100
AcDbEntity
  8
GAIKEI
 62
     1
100
AcDbPolyline
 90
        8
 70
     1
 43
0.0
 10
34.129836
 20
71.39073000000002
 10
34.129549
 20
72.09065800000002
 10
34.82986
 20
72.09065800000002
 10
34.82986
 20
71.39073000000002
 10
34.129836
 20
71.39073000000002
 10
34.129549
 20
72.09065800000002
 10
34.82986
 20
72.09065800000002
 10
34.82986
 20
71.39073000000002
  0
LWPOLYLINE
  5
183
330
17EC
100
AcDbEntity
  8
GAIKEI
 62
     1
100
AcDbPolyline
 90
        8
 70
     1
 43
0.0
 10
21.61908394421101
 20
61.31211599033672
 10
20.43904456083098
 20
61.31211599033679
 10
20.432094568112
 20
61.31514240713188
 10
20.42909207556045
 20
61.32225986955518
 10
20.42909207555977
 20
62.50134228319347
 10
21.62913212645753
 20
62.50134228319986
 10
21.62913212645474
 20
61.3218770816563
 10
21.62618944451211
 20
61.31523810410214
  0
LWPOLYLINE
  5
184
330
17EC
100
AcDbEntity
  8
GAIKEI
 62
     1
100
AcDbPolyline
 90
        8
 70
     1
 43
0.0
 10
20.43904456083095
 20
63.77018845822255
 10
21.61889255026343
 20
63.76999706427483
 10
21.6261655202688
 20
63.76712615506203
 10
21.62913212645577
 20
63.75994888203104
 10
21.6291321264552
 20
62.58096216536057
 10
20.42909207556068
 20
62.58096216536251
 10
20.42909207555931
 20
63.75994888201214
 10
20.43202279538024
 20
63.76715007928408
  0
LWPOLYLINE
  5
185
330
17EC
100
AcDbEntity
  8
GAIKEI
 62
     1
100
AcDbPolyline
 90
        4
 70
     1
 43
0.0
 10
22.529641
 20
78.240911
 10
23.029849
 20
78.240911
 10
23.029849
 20
78.040617
 10
22.529641
 20
78.040808
  0
LWPOLYLINE
  5
186
330
17EC
100
AcDbEntity
  8
GAIKEI
 62
     1
100
AcDbPolyline
 90
        4
 70
     1
 43
0.0
 10
22.529641
 20
79.240848
 10
23.029657
 20
79.240848
 10
23.029657
 20
79.040746
 10
22.529641
 20
79.040746
  0
LWPOLYLINE
  5
187
330
17EC
100
AcDbEntity
  8
GAIKEI
 62
     1
100
AcDbPolyline
 90
        4
 70
     1
 43
0.0
 10
22.529641
 20
80.24078600000001
 10
23.029849
 20
80.24078600000001
 10
23.029849
 20
80.040875
 10
22.529641
 20
80.04068399999999
  0
LWPOLYLINE
  5
188
330
17EC
100
AcDbEntity
  8
GAIKEI
 62
     1
100
AcDbPolyline
 90
        4
 70
     1
 43
0.0
 10
22.529832
 20
81.040813
 10
22.529641
 20
81.24072400000001
 10
23.029849
 20
81.240915
 10
23.029849
 20
81.040813
  0
LWPOLYLINE
  5
189
330
17EC
100
AcDbEntity
  8
GAIKEI
 62
     1
100
AcDbPolyline
 90
        4
 70
     1
 43
0.0
 10
22.529641
 20
82.240853
 10
23.029849
 20
82.240853
 10
23.029849
 20
82.04075000000001
 10
22.529832
 20
82.04075000000001
  0
LWPOLYLINE
  5
18A
330
17EC
100
AcDbEntity
  8
GAIKEI
 62
     1
100
AcDbPolyline
 90
        4
 70
     1
 43
0.0
 10
24.479945
 20
82.04075000000001
 10
24.479754
 20
82.240853
 10
24.979675
 20
82.240853
 10
24.979962
 20
82.04075000000001
  0
LWPOLYLINE
  5
18B
330
17EC
100
AcDbEntity
  8
GAIKEI
 62
     1
100
AcDbPolyline
 90
        4
 70
     1
 43
0.0
 10
24.479945
 20
81.240915
 10
24.979675
 20
81.24072400000001
 10
24.979962
 20
81.040813
 10
24.479945
 20
81.040813
  0
LWPOLYLINE
  5
18C
330
17EC
100
AcDbEntity
  8
GAIKEI
 62
     1
100
AcDbPolyline
 90
        4
 70
     1
 43
0.0
 10
24.479945
 20
80.24078600000001
 10
24.979962
 20
80.24078600000001
 10
24.979962
 20
80.04068399999999
 10
24.479945
 20
80.04068399999999
  0
LWPOLYLINE
  5
18D
330
17EC
100
AcDbEntity
  8
GAIKEI
 62
     1
100
AcDbPolyline
 90
        4
 70
     1
 43
0.0
 10
24.479945
 20
79.240848
 10
24.979675
 20
79.240848
 10
24.979675
 20
79.040937
 10
24.479945
 20
79.040746
  0
LWPOLYLINE
  5
18E
330
17EC
100
AcDbEntity
  8
GAIKEI
 62
     1
100
AcDbPolyline
 90
        4
 70
     1
 43
0.0
 10
24.479754
 20
78.040808
 10
24.479945
 20
78.240911
 10
24.979675
 20
78.240911
 10
24.979675
 20
78.040808
  0
LWPOLYLINE
  5
18F
330
17EC
100
AcDbEntity
  8
GAIKEI
 62
     1
100
AcDbPolyline
 90
        4
 70
     1
 43
0.0
 10
24.479945
 20
77.24059
 10
24.979675
 20
77.240782
 10
24.979675
 20
77.040679
 10
24.479945
 20
77.040679
  0
LWPOLYLINE
  5
190
330
17EC
100
AcDbEntity
  8
GAIKEI
 62
     1
100
AcDbPolyline
 90
        4
 70
     1
 43
0.0
 10
24.479945
 20
76.04054999999999
 10
24.479945
 20
76.240844
 10
24.979962
 20
76.240844
 10
24.979675
 20
76.04074200000001
  0
LWPOLYLINE
  5
191
330
17EC
100
AcDbEntity
  8
GAIKEI
 62
     1
100
AcDbPolyline
 90
        4
 70
     1
 43
0.0
 10
24.479945
 20
75.240906
 10
24.979962
 20
75.240906
 10
24.979962
 20
75.04080399999998
 10
24.479945
 20
75.04080399999998
  0
LWPOLYLINE
  5
192
330
17EC
100
AcDbEntity
  8
GAIKEI
 62
     1
100
AcDbPolyline
 90
        4
 70
     1
 43
0.0
 10
24.479945
 20
74.04086599999998
 10
24.479945
 20
74.24058599999998
 10
24.979675
 20
74.24077699999998
 10
24.979675
 20
74.04086599999998
  0
LWPOLYLINE
  5
193
330
17EC
100
AcDbEntity
  8
GAIKEI
 62
     1
100
AcDbPolyline
 90
        4
 70
     1
 43
0.0
 10
26.429867
 20
74.24077699999998
 10
26.92978800000001
 20
74.24077699999998
 10
26.92978800000001
 20
74.04067499999998
 10
26.429867
 20
74.04067499999998
  0
LWPOLYLINE
  5
194
330
17EC
100
AcDbEntity
  8
GAIKEI
 62
     1
100
AcDbPolyline
 90
        4
 70
     1
 43
0.0
 10
26.429867
 20
75.240906
 10
26.929596
 20
75.240906
 10
26.929596
 20
75.04080399999998
 10
26.429867
 20
75.04080399999998
  0
LWPOLYLINE
  5
195
330
17EC
100
AcDbEntity
  8
GAIKEI
 62
     1
100
AcDbPolyline
 90
        4
 70
     1
 43
0.0
 10
26.429867
 20
76.240844
 10
26.929979
 20
76.240844
 10
26.92978800000001
 20
76.04074200000001
 10
26.429867
 20
76.04093299999999
  0
LWPOLYLINE
  5
196
330
17EC
100
AcDbEntity
  8
GAIKEI
 62
     1
100
AcDbPolyline
 90
        4
 70
     1
 43
0.0
 10
26.429867
 20
77.040679
 10
26.429867
 20
77.240973
 10
26.92978800000001
 20
77.240782
 10
26.929979
 20
77.040679
  0
LWPOLYLINE
  5
197
330
17EC
100
AcDbEntity
  8
GAIKEI
 62
     1
100
AcDbPolyline
 90
        4
 70
     1
 43
0.0
 10
26.429867
 20
78.240911
 10
26.92978800000001
 20
78.240911
 10
26.92978800000001
 20
78.040808
 10
26.429867
 20
78.040808
  0
LWPOLYLINE
  5
198
330
17EC
100
AcDbEntity
  8
GAIKEI
 62
     1
100
AcDbPolyline
 90
        4
 70
     1
 43
0.0
 10
26.429867
 20
79.040937
 10
26.429867
 20
79.240848
 10
26.92978800000001
 20
79.240848
 10
26.92978800000001
 20
79.040746
  0
LWPOLYLINE
  5
199
330
17EC
100
AcDbEntity
  8
GAIKEI
 62
     1
100
AcDbPolyline
 90
        4
 70
     1
 43
0.0
 10
26.429867
 20
80.24078600000001
 10
26.92978800000001
 20
80.24078600000001
 10
26.92978800000001
 20
80.040875
 10
26.429867
 20
80.04068399999999
  0
LWPOLYLINE
  5
19A
330
17EC
100
AcDbEntity
  8
GAIKEI
 62
     1
100
AcDbPolyline
 90
        4
 70
     1
 43
0.0
 10
26.429867
 20
81.040813
 10
26.429867
 20
81.24072400000001
 10
26.929979
 20
81.240915
 10
26.929979
 20
81.040813
  0
LWPOLYLINE
  5
19B
330
17EC
100
AcDbEntity
  8
GAIKEI
 62
     1
100
AcDbPolyline
 90
        4
 70
     1
 43
0.0
 10
26.429867
 20
82.240853
 10
26.929979
 20
82.240853
 10
26.929979
 20
82.04075000000001
 10
26.429867
 20
82.04075000000001
  0
LWPOLYLINE
  5
19C
330
17EC
100
AcDbEntity
  8
GAIKEI
 62
     1
100
AcDbPolyline
 90
        4
 70
     1
 43
0.0
 10
28.379884
 20
82.04075000000001
 10
28.379692
 20
82.240566
 10
28.8799
 20
82.240853
 10
28.879709
 20
82.04075000000001
  0
LWPOLYLINE
  5
19D
330
17EC
100
AcDbEntity
  8
GAIKEI
 62
     1
100
AcDbPolyline
 90
        4
 70
     1
 43
0.0
 10
28.379884
 20
81.24072400000001
 10
28.879709
 20
81.240915
 10
28.8799
 20
81.040813
 10
28.379884
 20
81.040621
  0
LWPOLYLINE
  5
19E
330
17EC
100
AcDbEntity
  8
GAIKEI
 62
     1
100
AcDbPolyline
 90
        4
 70
     1
 43
0.0
 10
28.379884
 20
80.04068399999999
 10
28.379884
 20
80.24078600000001
 10
28.879709
 20
80.24078600000001
 10
28.879709
 20
80.040875
  0
LWPOLYLINE
  5
19F
330
17EC
100
AcDbEntity
  8
GAIKEI
 62
     1
100
AcDbPolyline
 90
        4
 70
     1
 43
0.0
 10
28.379692
 20
79.24065699999999
 10
28.8799
 20
79.240848
 10
28.8799
 20
79.040746
 10
28.379692
 20
79.040746
  0
LWPOLYLINE
  5
1A0
330
17EC
100
AcDbEntity
  8
GAIKEI
 62
     1
100
AcDbPolyline
 90
        4
 70
     1
 43
0.0
 10
28.379692
 20
78.040617
 10
28.379692
 20
78.240911
 10
28.8799
 20
78.240911
 10
28.8799
 20
78.040808
  0
LWPOLYLINE
  5
1A1
330
17EC
100
AcDbEntity
  8
GAIKEI
 62
     1
100
AcDbPolyline
 90
        4
 70
     1
 43
0.0
 10
28.379884
 20
77.24059
 10
28.8799
 20
77.240782
 10
28.879709
 20
77.040679
 10
28.379884
 20
77.040679
  0
LWPOLYLINE
  5
1A2
330
17EC
100
AcDbEntity
  8
GAIKEI
 62
     1
100
AcDbPolyline
 90
        4
 70
     1
 43
0.0
 10
28.379884
 20
76.04054999999999
 10
28.379884
 20
76.240844
 10
28.879709
 20
76.240844
 10
28.879709
 20
76.04074200000001
  0
LWPOLYLINE
  5
1A3
330
17EC
100
AcDbEntity
  8
GAIKEI
 62
     1
100
AcDbPolyline
 90
        4
 70
     1
 43
0.0
 10
28.379884
 20
75.240906
 10
28.879709
 20
75.24071499999998
 10
28.8799
 20
75.04061199999999
 10
28.379884
 20
75.04042099999999
  0
LWPOLYLINE
  5
1A4
330
17EC
100
AcDbEntity
  8
GAIKEI
 62
     1
100
AcDbPolyline
 90
        4
 70
     1
 43
0.0
 10
28.379692
 20
74.04086599999998
 10
28.379692
 20
74.24077699999998
 10
28.8799
 20
74.24077699999998
 10
28.8799
 20
74.04067499999998
  0
LWPOLYLINE
  5
1A5
330
17EC
100
AcDbEntity
  8
GAIKEI
 62
     1
100
AcDbPolyline
 90
        4
 70
     1
 43
0.0
 10
30.329805
 20
74.24058599999998
 10
30.829726
 20
74.24077699999998
 10
30.829726
 20
74.04086599999998
 10
30.329805
 20
74.04067499999998
  0
LWPOLYLINE
  5
1A6
330
17EC
100
AcDbEntity
  8
GAIKEI
 62
     1
100
AcDbPolyline
 90
        4
 70
     1
 43
0.0
 10
30.329805
 20
75.04061199999999
 10
30.329805
 20
75.24071499999998
 10
30.829726
 20
75.240906
 10
30.829726
 20
75.04061199999999
  0
LWPOLYLINE
  5
1A7
330
17EC
100
AcDbEntity
  8
GAIKEI
 62
     1
100
AcDbPolyline
 90
        4
 70
     1
 43
0.0
 10
30.329805
 20
76.240844
 10
30.829726
 20
76.240844
 10
30.829726
 20
76.04074200000001
 10
30.329805
 20
76.04074200000001
  0
LWPOLYLINE
  5
1A8
330
17EC
100
AcDbEntity
  8
GAIKEI
 62
     1
100
AcDbPolyline
 90
        4
 70
     1
 43
0.0
 10
30.329805
 20
77.240782
 10
30.829918
 20
77.240782
 10
30.829918
 20
77.040679
 10
30.329805
 20
77.040679
  0
LWPOLYLINE
  5
1A9
330
17EC
100
AcDbEntity
  8
GAIKEI
 62
     1
100
AcDbPolyline
 90
        4
 70
     1
 43
0.0
 10
30.329805
 20
78.240911
 10
30.829726
 20
78.240911
 10
30.829726
 20
78.040617
 10
30.329805
 20
78.040808
  0
LWPOLYLINE
  5
1AA
330
17EC
100
AcDbEntity
  8
GAIKEI
 62
     1
100
AcDbPolyline
 90
        4
 70
     1
 43
0.0
 10
30.329997
 20
79.040746
 10
30.329805
 20
79.240848
 10
30.829726
 20
79.24065699999999
 10
30.829726
 20
79.040746
  0
LWPOLYLINE
  5
1AB
330
17EC
100
AcDbEntity
  8
GAIKEI
 62
     1
100
AcDbPolyline
 90
        4
 70
     1
 43
0.0
 10
30.329805
 20
80.24078600000001
 10
30.829918
 20
80.24078600000001
 10
30.829918
 20
80.04068399999999
 10
30.329805
 20
80.04068399999999
  0
LWPOLYLINE
  5
1AC
330
17EC
100
AcDbEntity
  8
GAIKEI
 62
     1
100
AcDbPolyline
 90
        4
 70
     1
 43
0.0
 10
30.329805
 20
81.040813
 10
30.329805
 20
81.240915
 10
30.829726
 20
81.24072400000001
 10
30.829726
 20
81.040621
  0
LWPOLYLINE
  5
1AD
330
17EC
100
AcDbEntity
  8
GAIKEI
 62
     1
100
AcDbPolyline
 90
        4
 70
     1
 43
0.0
 10
30.329805
 20
82.240853
 10
30.829726
 20
82.240566
 10
30.829726
 20
82.04075000000001
 10
30.329805
 20
82.04075000000001
  0
LWPOLYLINE
  5
1AE
330
17EC
100
AcDbEntity
  8
GAIKEI
 62
     1
100
AcDbPolyline
 90
        8
 70
     1
 43
0.0
 10
22.429924
 20
71.39073000000002
 10
22.429924
 20
72.09065800000002
 10
23.129756
 20
72.09084900000002
 10
23.129756
 20
71.39073000000002
 10
22.429924
 20
71.39073000000002
 10
22.429924
 20
72.09065800000002
 10
23.129756
 20
72.09084900000002
 10
23.129756
 20
71.39073000000002
  0
LWPOLYLINE
  5
1AF
330
17EC
100
AcDbEntity
  8
GAIKEI
 62
     1
100
AcDbPolyline
 90
        8
 70
     1
 43
0.0
 10
24.379846
 20
72.09084900000002
 10
25.079869
 20
72.09084900000002
 10
25.079869
 20
71.39073000000002
 10
24.379846
 20
71.39073000000002
 10
24.379846
 20
72.09084900000002
 10
25.079869
 20
72.09084900000002
 10
25.079869
 20
71.39073000000002
 10
24.379846
 20
71.39073000000002
  0
LINE
  5
1B0
330
17EC
100
AcDbEntity
  8
GAIKEI
 62
     1
100
AcDbLine
 10
30.596704
 20
67.915877
 30
0.0
 11
30.596704
 21
63.770188
 31
0.0
  0
LINE
  5
1B1
330
17EC
100
AcDbEntity
  8
GAIKEI
 62
     1
100
AcDbLine
 10
30.946572
 20
57.165949
 30
0.0
 11
30.946764
 21
61.312499
 31
0.0
  0
LWPOLYLINE
  5
1B2
330
17EC
100
AcDbEntity
  8
GAIKEI
 62
     1
100
AcDbPolyline
 90
        4
 70
     1
 43
0.0
 10
29.921753
 20
65.53110799999998
 10
30.596704
 20
65.53110799999998
 10
30.596704
 20
65.430818
 10
29.921562
 20
65.430818
  0
LWPOLYLINE
  5
1B3
330
17EC
100
AcDbEntity
  8
GAIKEI
 62
     1
100
AcDbPolyline
 90
        4
 70
     1
 43
0.0
 10
30.946764
 20
65.431009
 10
30.946572
 20
65.53110799999998
 10
31.421612
 20
65.53110799999998
 10
31.421612
 20
65.431201
  0
LWPOLYLINE
  5
1B4
330
17EC
100
AcDbEntity
  8
GAIKEI
 62
     1
100
AcDbPolyline
 90
        4
 70
     1
 43
0.0
 10
31.421612
 20
67.41126700000001
 10
30.946764
 20
67.41126700000001
 10
30.946572
 20
67.470982
 10
31.421612
 20
67.470982
  0
LWPOLYLINE
  5
1B5
330
17EC
100
AcDbEntity
  8
GAIKEI
 62
     1
100
AcDbPolyline
 90
        4
 70
     1
 43
0.0
 10
30.946764
 20
59.57157900000001
 10
30.946572
 20
59.631103
 10
31.42180300000001
 20
59.631103
 10
31.421612
 20
59.571101
  0
LWPOLYLINE
  5
1B6
330
17EC
100
AcDbEntity
  8
GAIKEI
 62
     1
100
AcDbPolyline
 90
        4
 70
     1
 43
0.0
 10
31.421612
 20
58.590973
 10
30.946764
 20
58.590973
 10
30.946572
 20
58.651166
 10
31.421612
 20
58.650975
  0
LWPOLYLINE
  5
1B7
330
17EC
100
AcDbEntity
  8
GAIKEI
 62
     1
100
AcDbPolyline
 90
        4
 70
     1
 43
0.0
 10
30.946572
 20
57.611227
 10
30.946764
 20
57.671229
 10
31.42180300000001
 20
57.671229
 10
31.421612
 20
57.611227
  0
LWPOLYLINE
  5
1B8
330
17EC
100
AcDbEntity
  8
GAIKEI
 62
     1
100
AcDbPolyline
 90
        4
 70
     1
 43
0.0
 10
29.921562
 20
57.67103800000001
 10
30.596513
 20
57.67103800000001
 10
30.596513
 20
57.611036
 10
29.921562
 20
57.611036
  0
LWPOLYLINE
  5
1B9
330
17EC
100
AcDbEntity
  8
GAIKEI
 62
     1
100
AcDbPolyline
 90
        4
 70
     1
 43
0.0
 10
29.921753
 20
58.591164
 10
29.921562
 20
58.651166
 10
30.596704
 20
58.651166
 10
30.596513
 20
58.591164
  0
LWPOLYLINE
  5
1BA
330
17EC
100
AcDbEntity
  8
GAIKEI
 62
     1
100
AcDbPolyline
 90
        4
 70
     1
 43
0.0
 10
29.921753
 20
59.631103
 10
30.596704
 20
59.631103
 10
30.596704
 20
59.57091
 10
29.921753
 20
59.57091
  0
LWPOLYLINE
  5
1BB
330
17EC
100
AcDbEntity
  8
GAIKEI
 62
     1
100
AcDbPolyline
 90
        4
 70
     1
 43
0.0
 10
29.921753
 20
67.41126700000001
 10
29.921562
 20
67.470982
 10
30.596704
 20
67.470982
 10
30.596704
 20
67.41107599999999
  0
LWPOLYLINE
  5
1BC
330
17EC
100
AcDbEntity
  8
GAIKEI
 62
     1
100
AcDbPolyline
 90
       18
 70
     0
 43
0.0
 10
30.59670414314308
 20
61.31230738428428
 10
30.59670414314304
 20
57.16594890540246
 10
30.61045759258994
 20
57.09804442619678
 10
30.64794987258909
 20
57.04258354410975
 10
30.70352888062805
 20
57.00511967414964
 10
30.77154251419472
 20
56.99120623132468
 10
30.83966679738698
 20
57.00495818550645
 10
30.89530262550419
 20
57.04243999864921
 10
30.93281583921646
 20
57.0979905966492
 10
30.94657227919336
 20
57.16594890540371
 10
30.93281583921597
 20
57.09799059665033
 10
30.89530262550375
 20
57.04243999865044
 10
30.83966679738659
 20
57.00495818550777
 10
30.77154251419506
 20
56.99120623133239
 10
30.70352888063503
 20
57.00511967415557
 10
30.64794987259932
 20
57.04258354410983
 10
30.61045759259869
 20
57.09804442618857
 10
30.59670414314385
 20
57.16594890538521
  0
LWPOLYLINE
  5
1BD
330
17EC
100
AcDbEntity
  8
GAIKEI
 62
     1
100
AcDbPolyline
 90
       18
 70
     0
 43
0.0
 10
30.9465722791935
 20
63.77018845822255
 10
30.94676367314102
 20
67.91587705828789
 10
30.93300424263322
 20
67.98411199110603
 10
30.89547009520803
 20
68.03980463930132
 10
30.83977744701273
 20
68.0773387867265
 10
30.77154251419483
 20
68.09109821723473
 10
30.70336739198529
 20
68.07733878672699
 10
30.64780632712897
 20
68.03980463930185
 10
30.61040376304278
 20
67.9841119911066
 10
30.59670414314328
 20
67.91587705828637
 10
30.61040376304249
 20
67.98411199110423
 10
30.64780632712877
 20
68.03980463929923
 10
30.7033673919852
 20
68.0773387867241
 10
30.77154251419506
 20
68.09109821723723
 10
30.83977744700721
 20
68.07733878673184
 10
30.8954700951996
 20
68.03980463931321
 10
30.93300424262665
 20
67.98411199112691
 10
30.94676367314279
 20
67.91587705831853
  0
LINE
  5
1BE
330
17EC
100
AcDbEntity
  8
GAIKEI
 62
     1
100
AcDbLine
 10
28.66152
 20
67.915877
 30
0.0
 11
28.66152
 21
63.770188
 31
0.0
  0
LINE
  5
1BF
330
17EC
100
AcDbEntity
  8
GAIKEI
 62
     1
100
AcDbLine
 10
29.011771
 20
57.165949
 30
0.0
 11
29.011771
 21
61.31230699999999
 31
0.0
  0
LWPOLYLINE
  5
1C0
330
17EC
100
AcDbEntity
  8
GAIKEI
 62
     1
100
AcDbPolyline
 90
        4
 70
     1
 43
0.0
 10
27.986761
 20
65.53110799999998
 10
28.66152
 20
65.53110799999998
 10
28.66152
 20
65.431009
 10
27.986569
 20
65.430818
  0
LWPOLYLINE
  5
1C1
330
17EC
100
AcDbEntity
  8
GAIKEI
 62
     1
100
AcDbPolyline
 90
        4
 70
     1
 43
0.0
 10
29.011771
 20
65.430818
 10
29.011771
 20
65.53110799999998
 10
29.486428
 20
65.53110799999998
 10
29.486619
 20
65.431201
  0
LWPOLYLINE
  5
1C2
330
17EC
100
AcDbEntity
  8
GAIKEI
 62
     1
100
AcDbPolyline
 90
        4
 70
     1
 43
0.0
 10
29.486428
 20
67.41107599999999
 10
29.011579
 20
67.41107599999999
 10
29.011579
 20
67.47117299999999
 10
29.486428
 20
67.470982
  0
LWPOLYLINE
  5
1C3
330
17EC
100
AcDbEntity
  8
GAIKEI
 62
     1
100
AcDbPolyline
 90
        4
 70
     1
 43
0.0
 10
29.011579
 20
59.571101
 10
29.011771
 20
59.631103
 10
29.486619
 20
59.631103
 10
29.486619
 20
59.571292
  0
LWPOLYLINE
  5
1C4
330
17EC
100
AcDbEntity
  8
GAIKEI
 62
     1
100
AcDbPolyline
 90
        4
 70
     1
 43
0.0
 10
29.011771
 20
58.651166
 10
29.486619
 20
58.651166
 10
29.486619
 20
58.590973
 10
29.011771
 20
58.590973
  0
LWPOLYLINE
  5
1C5
330
17EC
100
AcDbEntity
  8
GAIKEI
 62
     1
100
AcDbPolyline
 90
        4
 70
     1
 43
0.0
 10
29.011579
 20
57.611227
 10
29.011771
 20
57.67103800000001
 10
29.486428
 20
57.67103800000001
 10
29.486428
 20
57.611227
  0
LWPOLYLINE
  5
1C6
330
17EC
100
AcDbEntity
  8
GAIKEI
 62
     1
100
AcDbPolyline
 90
        4
 70
     1
 43
0.0
 10
27.986761
 20
57.671229
 10
28.66152
 20
57.67103800000001
 10
28.66152
 20
57.611227
 10
27.986569
 20
57.611036
  0
LWPOLYLINE
  5
1C7
330
17EC
100
AcDbEntity
  8
GAIKEI
 62
     1
100
AcDbPolyline
 90
        4
 70
     1
 43
0.0
 10
27.986761
 20
58.591164
 10
27.986569
 20
58.651166
 10
28.66152
 20
58.651166
 10
28.66152
 20
58.591164
  0
LWPOLYLINE
  5
1C8
330
17EC
100
AcDbEntity
  8
GAIKEI
 62
     1
100
AcDbPolyline
 90
        4
 70
     1
 43
0.0
 10
27.986761
 20
59.631103
 10
28.66152
 20
59.631103
 10
28.66152
 20
59.571101
 10
27.986761
 20
59.571292
  0
LWPOLYLINE
  5
1C9
330
17EC
100
AcDbEntity
  8
GAIKEI
 62
     1
100
AcDbPolyline
 90
        4
 70
     1
 43
0.0
 10
27.986761
 20
67.41126700000001
 10
27.986761
 20
67.470982
 10
28.66152
 20
67.470982
 10
28.66152
 20
67.41126700000001
  0
LWPOLYLINE
  5
1CA
330
17EC
100
AcDbEntity
  8
GAIKEI
 62
     1
100
AcDbPolyline
 90
       18
 70
     0
 43
0.0
 10
28.66171133380527
 20
61.31249877823177
 10
28.66151993985779
 20
57.16594890540257
 10
28.67527637983515
 20
57.09799358717959
 10
28.71278959354733
 20
57.0424639228927
 10
28.76842542166448
 20
57.00503892982817
 10
28.83654970485686
 20
56.99139762527125
 10
28.90467697857956
 20
57.00501201505308
 10
28.96033374040979
 20
57.04239215016102
 10
28.99790377420023
 20
57.0979128428565
 10
29.01177086380334
 20
57.16594890540447
 10
28.99790377420011
 20
57.09791284286006
 10
28.96033374040979
 20
57.04239215016461
 10
28.9046769785797
 20
57.0050120150567
 10
28.83654970485669
 20
56.99139762527011
 10
28.76842542167054
 20
57.00503892982335
 10
28.71278959355643
 20
57.0424639228811
 10
28.67527637984252
 20
57.09799358715878
 10
28.66151993985697
 20
57.16594890537177
  0
LWPOLYLINE
  5
1CB
330
17EC
100
AcDbEntity
  8
GAIKEI
 62
     1
100
AcDbPolyline
 90
       18
 70
     0
 43
0.0
 10
29.01177086380318
 20
63.77018845822255
 10
29.01177086380322
 20
67.91625984618292
 10
28.99793068897385
 20
67.98427347974925
 10
28.96040551313998
 20
68.03985248778821
 10
28.90475772290114
 20
68.07734476778737
 10
28.83654970485674
 20
68.09109821723473
 10
28.76842542166454
 20
68.07733878672699
 10
28.71278959354745
 20
68.03980463930185
 10
28.67527637983533
 20
67.9841119911066
 10
28.66151993985742
 20
67.91587705828637
 10
28.67527637983465
 20
67.98411199110423
 10
28.71278959354668
 20
68.03980463929923
 10
28.76842542166368
 20
68.0773387867241
 10
28.83654970485577
 20
68.09109821723723
 10
28.90475772289367
 20
68.07734476779271
 10
28.96040551312917
 20
68.03985248780008
 10
28.99793068896446
 20
67.9842734797701
 10
29.01177086380167
 20
67.91625984621345
  0
LINE
  5
1CC
330
17EC
100
AcDbEntity
  8
GAIKEI
 62
     1
100
AcDbLine
 10
24.758806
 20
67.91606800000001
 30
0.0
 11
24.758997
 21
63.76999699999999
 31
0.0
  0
LINE
  5
1CD
330
17EC
100
AcDbEntity
  8
GAIKEI
 62
     1
100
AcDbLine
 10
25.108865
 20
57.165949
 30
0.0
 11
25.109057
 21
61.31230699999999
 31
0.0
  0
LWPOLYLINE
  5
1CE
330
17EC
100
AcDbEntity
  8
GAIKEI
 62
     1
100
AcDbPolyline
 90
        4
 70
     1
 43
0.0
 10
24.083855
 20
65.53110799999998
 10
24.758806
 20
65.53110799999998
 10
24.758997
 20
65.431009
 10
24.084047
 20
65.430818
  0
LWPOLYLINE
  5
1CF
330
17EC
100
AcDbEntity
  8
GAIKEI
 62
     1
100
AcDbPolyline
 90
        4
 70
     1
 43
0.0
 10
25.109057
 20
65.430818
 10
25.108865
 20
65.53110799999998
 10
25.583714
 20
65.53110799999998
 10
25.583905
 20
65.430818
  0
LWPOLYLINE
  5
1D0
330
17EC
100
AcDbEntity
  8
GAIKEI
 62
     1
100
AcDbPolyline
 90
        4
 70
     1
 43
0.0
 10
25.583905
 20
67.41107599999999
 10
25.109057
 20
67.41107599999999
 10
25.109057
 20
67.47117299999999
 10
25.583905
 20
67.470982
  0
LWPOLYLINE
  5
1D1
330
17EC
100
AcDbEntity
  8
GAIKEI
 62
     1
100
AcDbPolyline
 90
        4
 70
     1
 43
0.0
 10
25.109057
 20
59.571101
 10
25.109057
 20
59.631103
 10
25.583905
 20
59.631103
 10
25.583714
 20
59.571292
  0
LWPOLYLINE
  5
1D2
330
17EC
100
AcDbEntity
  8
GAIKEI
 62
     1
100
AcDbPolyline
 90
        4
 70
     1
 43
0.0
 10
25.109057
 20
58.651166
 10
25.583905
 20
58.651166
 10
25.583905
 20
58.590973
 10
25.109057
 20
58.590973
  0
LWPOLYLINE
  5
1D3
330
17EC
100
AcDbEntity
  8
GAIKEI
 62
     1
100
AcDbPolyline
 90
        4
 70
     1
 43
0.0
 10
25.108865
 20
57.611227
 10
25.109057
 20
57.671229
 10
25.583714
 20
57.671229
 10
25.583905
 20
57.611227
  0
LWPOLYLINE
  5
1D4
330
17EC
100
AcDbEntity
  8
GAIKEI
 62
     1
100
AcDbPolyline
 90
        4
 70
     1
 43
0.0
 10
24.083855
 20
57.671229
 10
24.758806
 20
57.67103800000001
 10
24.758806
 20
57.611227
 10
24.084047
 20
57.611036
  0
LWPOLYLINE
  5
1D5
330
17EC
100
AcDbEntity
  8
GAIKEI
 62
     1
100
AcDbPolyline
 90
        4
 70
     1
 43
0.0
 10
24.084047
 20
58.59078100000001
 10
24.084047
 20
58.651166
 10
24.758806
 20
58.650975
 10
24.758997
 20
58.591164
  0
LWPOLYLINE
  5
1D6
330
17EC
100
AcDbEntity
  8
GAIKEI
 62
     1
100
AcDbPolyline
 90
        4
 70
     1
 43
0.0
 10
24.084047
 20
59.631103
 10
24.758806
 20
59.630912
 10
24.758806
 20
59.571101
 10
24.083855
 20
59.571101
  0
LWPOLYLINE
  5
1D7
330
17EC
100
AcDbEntity
  8
GAIKEI
 62
     1
100
AcDbPolyline
 90
        4
 70
     1
 43
0.0
 10
24.084047
 20
67.41107599999999
 10
24.083855
 20
67.470982
 10
24.758806
 20
67.470982
 10
24.758806
 20
67.41126700000001
  0
LWPOLYLINE
  5
1D8
330
17EC
100
AcDbEntity
  8
GAIKEI
 62
     1
100
AcDbPolyline
 90
       18
 70
     0
 43
0.0
 10
24.75880595615774
 20
61.31211599033672
 10
24.7588059561577
 20
57.1659489054025
 10
24.77257585352198
 20
57.09802050195339
 10
24.81011149621238
 20
57.04253569562292
 10
24.86575181012514
 20
57.00511967414968
 10
24.93383572115681
 20
56.99139762527125
 10
25.00198691912295
 20
57.00503892982696
 10
25.05766760519656
 20
57.04246392289133
 10
25.09518979050004
 20
57.09799358717808
 10
25.10886548615569
 20
57.16594890540447
 10
25.09518979049997
 20
57.09799358718165
 10
25.05766760519651
 20
57.04246392289492
 10
25.00198691912293
 20
57.00503892983056
 10
24.93383572116181
 20
56.99139762527739
 10
24.86575181013709
 20
57.00511967415287
 10
24.81011149622798
 20
57.04253569561999
 10
24.77257585353651
 20
57.09802050194191
 10
24.75880595616474
 20
57.16594890538171
  0
LWPOLYLINE
  5
1D9
330
17EC
100
AcDbEntity
  8
GAIKEI
 62
     1
100
AcDbPolyline
 90
       18
 70
     0
 43
0.0
 10
25.10905688010319
 20
63.77018845822255
 10
25.10886548615562
 20
67.91625984618292
 10
25.09519278103029
 20
67.98427347974925
 10
25.05769152943982
 20
68.03985248778821
 10
25.00206766344437
 20
68.07734476778737
 10
24.93402711510407
 20
68.09109821723518
 10
24.86583255444668
 20
68.07731486248406
 10
24.81013542045565
 20
68.03975679081554
 10
24.77257884405217
 20
67.98411199110723
 10
24.75880595615755
 20
67.91606845223312
 10
24.77257884405228
 20
67.98411199110361
 10
24.81013542045572
 20
68.03975679081192
 10
24.8658325544467
 20
68.07731486248044
 10
24.93402711510225
 20
68.09109821723723
 10
25.00206766343609
 20
68.07734476779271
 10
25.05769152942819
 20
68.03985248780008
 10
25.0951927810201
 20
67.9842734797701
 10
25.10886548615335
 20
67.91625984621345
  0
LINE
  5
1DA
330
17EC
100
AcDbEntity
  8
GAIKEI
 62
     1
100
AcDbLine
 10
22.805822
 20
67.91606800000001
 30
0.0
 11
22.805822
 21
63.76999699999999
 31
0.0
  0
LINE
  5
1DB
330
17EC
100
AcDbEntity
  8
GAIKEI
 62
     1
100
AcDbLine
 10
23.155882
 20
57.165949
 30
0.0
 11
23.155882
 21
61.31230699999999
 31
0.0
  0
LWPOLYLINE
  5
1DC
330
17EC
100
AcDbEntity
  8
GAIKEI
 62
     1
100
AcDbPolyline
 90
        4
 70
     1
 43
0.0
 10
22.13068
 20
65.53110799999998
 10
22.805822
 20
65.53110799999998
 10
22.805822
 20
65.431009
 10
22.13068
 20
65.431201
  0
LWPOLYLINE
  5
1DD
330
17EC
100
AcDbEntity
  8
GAIKEI
 62
     1
100
AcDbPolyline
 90
        4
 70
     1
 43
0.0
 10
23.155882
 20
65.430818
 10
23.155882
 20
65.53110799999998
 10
23.63073
 20
65.53110799999998
 10
23.63073
 20
65.431201
  0
LWPOLYLINE
  5
1DE
330
17EC
100
AcDbEntity
  8
GAIKEI
 62
     1
100
AcDbPolyline
 90
        4
 70
     1
 43
0.0
 10
23.63073
 20
67.41107599999999
 10
23.15569
 20
67.41107599999999
 10
23.155882
 20
67.47117299999999
 10
23.63073
 20
67.470982
  0
LWPOLYLINE
  5
1DF
330
17EC
100
AcDbEntity
  8
GAIKEI
 62
     1
100
AcDbPolyline
 90
        4
 70
     1
 43
0.0
 10
23.155882
 20
59.631103
 10
23.63073
 20
59.631103
 10
23.63073
 20
59.571101
 10
23.155882
 20
59.571101
  0
LWPOLYLINE
  5
1E0
330
17EC
100
AcDbEntity
  8
GAIKEI
 62
     1
100
AcDbPolyline
 90
        4
 70
     1
 43
0.0
 10
23.155882
 20
58.651166
 10
23.63073
 20
58.651166
 10
23.63073
 20
58.590973
 10
23.155882
 20
58.590973
  0
LWPOLYLINE
  5
1E1
330
17EC
100
AcDbEntity
  8
GAIKEI
 62
     1
100
AcDbPolyline
 90
        4
 70
     1
 43
0.0
 10
23.155882
 20
57.611036
 10
23.155882
 20
57.671229
 10
23.63073
 20
57.671229
 10
23.630921
 20
57.611227
  0
LWPOLYLINE
  5
1E2
330
17EC
100
AcDbEntity
  8
GAIKEI
 62
     1
100
AcDbPolyline
 90
        4
 70
     1
 43
0.0
 10
22.130871
 20
57.671229
 10
22.805822
 20
57.671229
 10
22.805822
 20
57.611227
 10
22.13068
 20
57.611036
  0
LWPOLYLINE
  5
1E3
330
17EC
100
AcDbEntity
  8
GAIKEI
 62
     1
100
AcDbPolyline
 90
        4
 70
     1
 43
0.0
 10
22.13068
 20
58.650975
 10
22.805822
 20
58.650975
 10
22.805822
 20
58.59078100000001
 10
22.13068
 20
58.59078100000001
  0
LWPOLYLINE
  5
1E4
330
17EC
100
AcDbEntity
  8
GAIKEI
 62
     1
100
AcDbPolyline
 90
        4
 70
     1
 43
0.0
 10
22.130871
 20
59.631103
 10
22.805822
 20
59.631103
 10
22.805822
 20
59.57091
 10
22.130871
 20
59.57091
  0
LWPOLYLINE
  5
1E5
330
17EC
100
AcDbEntity
  8
GAIKEI
 62
     1
100
AcDbPolyline
 90
        4
 70
     1
 43
0.0
 10
22.13068
 20
67.41126700000001
 10
22.13068
 20
67.470982
 10
22.805822
 20
67.47117299999999
 10
22.805822
 20
67.41126700000001
  0
LWPOLYLINE
  5
1E6
330
17EC
100
AcDbEntity
  8
GAIKEI
 62
     1
100
AcDbPolyline
 90
       18
 70
     0
 43
0.0
 10
22.80582211575392
 20
61.31249877823177
 10
22.80582211575388
 20
57.16594890540257
 10
22.81957855573121
 20
57.09799059664915
 10
22.85709176944337
 20
57.04243999864925
 10
22.91272759756048
 20
57.00495818550657
 10
22.98085188075345
 20
56.99120623132557
 10
23.0489761639458
 20
57.00503892982908
 10
23.10461199206305
 20
57.04251177138067
 10
23.14212520577534
 20
57.09801751142435
 10
23.15588164575212
 20
57.16594890540275
 10
23.14212520577475
 20
57.09801751142322
 10
23.10461199206256
 20
57.04251177137979
 10
23.04897616394539
 20
57.00503892982842
 10
22.98085188075493
 20
56.9912062313233
 10
22.91272759756918
 20
57.0049581855026
 10
22.85709176945552
 20
57.04243999863874
 10
22.81957855574206
 20
57.09799059662966
 10
22.80582211575701
 20
57.16594890537336
  0
LWPOLYLINE
  5
1E7
330
17EC
100
AcDbEntity
  8
GAIKEI
 62
     1
100
AcDbPolyline
 90
       18
 70
     0
 43
0.0
 10
23.15588164575183
 20
63.77018845822255
 10
23.15588164575179
 20
67.91625984618292
 10
23.14209829100053
 20
67.98427347974925
 10
23.10454021933187
 20
68.03985248778821
 10
23.0488954196234
 20
68.07734476778737
 10
22.98085188075356
 20
68.09109821723473
 10
22.91272759756139
 20
68.07734177725743
 10
22.85709176944436
 20
68.03982856354529
 10
22.81957855573229
 20
67.98419273542818
 10
22.80582211575366
 20
67.91606845223386
 10
22.81957855573099
 20
67.98419273542582
 10
22.85709176944312
 20
68.03982856354267
 10
22.91272759756022
 20
68.07734177725452
 10
22.98085188075584
 20
68.09109821723723
 10
23.0488954196204
 20
68.07734476779271
 10
23.10454021932582
 20
68.03985248780008
 10
23.1420982909962
 20
67.9842734797701
 10
23.15588164575564
 20
67.91625984621345
  0
LINE
  5
1E8
330
17EC
100
AcDbEntity
  8
GAIKEI
 62
     1
100
AcDbLine
 10
20.854178
 20
67.91606800000001
 30
0.0
 11
20.854178
 21
63.770188
 31
0.0
  0
LINE
  5
1E9
330
17EC
100
AcDbEntity
  8
GAIKEI
 62
     1
100
AcDbLine
 10
21.204238
 20
57.165949
 30
0.0
 11
21.204238
 21
61.31230699999999
 31
0.0
  0
LWPOLYLINE
  5
1EA
330
17EC
100
AcDbEntity
  8
GAIKEI
 62
     1
100
AcDbPolyline
 90
        4
 70
     1
 43
0.0
 10
20.179227
 20
65.53110799999998
 10
20.854178
 20
65.53110799999998
 10
20.854178
 20
65.431009
 10
20.179036
 20
65.431009
  0
LWPOLYLINE
  5
1EB
330
17EC
100
AcDbEntity
  8
GAIKEI
 62
     1
100
AcDbPolyline
 90
        4
 70
     1
 43
0.0
 10
21.204238
 20
65.431009
 10
21.204238
 20
65.53110799999998
 10
21.679086
 20
65.53110799999998
 10
21.679086
 20
65.431201
  0
LWPOLYLINE
  5
1EC
330
17EC
100
AcDbEntity
  8
GAIKEI
 62
     1
100
AcDbPolyline
 90
        4
 70
     1
 43
0.0
 10
21.679086
 20
67.41126700000001
 10
21.204046
 20
67.41126700000001
 10
21.204238
 20
67.470982
 10
21.679086
 20
67.470982
  0
LWPOLYLINE
  5
1ED
330
17EC
100
AcDbEntity
  8
GAIKEI
 62
     1
100
AcDbPolyline
 90
        4
 70
     1
 43
0.0
 10
21.204238
 20
59.571101
 10
21.204046
 20
59.630912
 10
21.679086
 20
59.631103
 10
21.679277
 20
59.571292
  0
LWPOLYLINE
  5
1EE
330
17EC
100
AcDbEntity
  8
GAIKEI
 62
     1
100
AcDbPolyline
 90
        4
 70
     1
 43
0.0
 10
21.679086
 20
58.590973
 10
21.204238
 20
58.591164
 10
21.204238
 20
58.651166
 10
21.679086
 20
58.650975
  0
LWPOLYLINE
  5
1EF
330
17EC
100
AcDbEntity
  8
GAIKEI
 62
     1
100
AcDbPolyline
 90
        4
 70
     1
 43
0.0
 10
21.204238
 20
57.671229
 10
21.679086
 20
57.671229
 10
21.679086
 20
57.611036
 10
21.204238
 20
57.611036
  0
LWPOLYLINE
  5
1F0
330
17EC
100
AcDbEntity
  8
GAIKEI
 62
     1
100
AcDbPolyline
 90
        4
 70
     1
 43
0.0
 10
20.179227
 20
57.67103800000001
 10
20.854178
 20
57.67103800000001
 10
20.854178
 20
57.611036
 10
20.179227
 20
57.611036
  0
LWPOLYLINE
  5
1F1
330
17EC
100
AcDbEntity
  8
GAIKEI
 62
     1
100
AcDbPolyline
 90
        4
 70
     1
 43
0.0
 10
20.179036
 20
58.591164
 10
20.179227
 20
58.650975
 10
20.854178
 20
58.651166
 10
20.854178
 20
58.591164
  0
LWPOLYLINE
  5
1F2
330
17EC
100
AcDbEntity
  8
GAIKEI
 62
     1
100
AcDbPolyline
 90
        4
 70
     1
 43
0.0
 10
20.179036
 20
59.630912
 10
20.854178
 20
59.631103
 10
20.854178
 20
59.571101
 10
20.179227
 20
59.571101
  0
LWPOLYLINE
  5
1F3
330
17EC
100
AcDbEntity
  8
GAIKEI
 62
     1
100
AcDbPolyline
 90
        4
 70
     1
 43
0.0
 10
20.179036
 20
67.41107599999999
 10
20.179227
 20
67.470982
 10
20.854178
 20
67.470982
 10
20.854178
 20
67.41126700000001
  0
LWPOLYLINE
  5
1F4
330
17EC
100
AcDbEntity
  8
GAIKEI
 62
     1
100
AcDbPolyline
 90
       18
 70
     0
 43
0.0
 10
20.85417803298264
 20
61.31230738428428
 10
20.85417803298264
 20
57.1659489054025
 10
20.86790755818612
 20
57.09801751142294
 10
20.90537591394185
 20
57.04251177137948
 10
20.96100277046769
 20
57.00503892982806
 10
21.02920779798211
 20
56.99120623132468
 10
21.09733208117444
 20
57.00495818550645
 10
21.15296790929167
 20
57.04243999864921
 10
21.19048112300394
 20
57.0979905966492
 10
21.20423756298018
 20
57.16594890540371
 10
21.19048112300271
 20
57.09799059665033
 10
21.1529679092904
 20
57.04243999865044
 10
21.09733208117311
 20
57.00495818550777
 10
21.02920779798251
 20
56.99120623133057
 10
20.9610027704751
 20
57.00503892983213
 10
20.90537591395263
 20
57.04251177137763
 10
20.86790755819555
 20
57.09801751141279
 10
20.8541780329843
 20
57.16594890538331
  0
LWPOLYLINE
  5
1F5
330
17EC
100
AcDbEntity
  8
GAIKEI
 62
     1
100
AcDbPolyline
 90
       18
 70
     0
 43
0.0
 10
21.20423756298055
 20
63.77037985217004
 10
21.20423756298057
 20
67.91625984618292
 10
21.19047813247277
 20
67.98427347974925
 10
21.15294398504756
 20
68.03985248778821
 10
21.09725133685224
 20
68.07734476778737
 10
21.02901640403479
 20
68.09109821723428
 10
20.96092202614695
 20
68.07739560680461
 10
20.90535198969938
 20
68.03982856354463
 10
20.86790456765678
 20
67.98413890587966
 10
20.85417803298212
 20
67.91606845223431
 10
20.86790456765509
 20
67.98413890587868
 10
20.9053519896977
 20
68.03982856354338
 10
20.96092202614527
 20
68.07739560680308
 10
21.02901640403661
 20
68.09109821723723
 10
21.0972513368487
 20
68.07734476779271
 10
21.15294398504102
 20
68.03985248780008
 10
21.190478132468
 20
67.9842734797701
 10
21.20423756298403
 20
67.91625984621345
  0
LINE
  5
1F6
330
17EC
100
AcDbEntity
  8
GAIKEI
 62
     1
100
AcDbLine
 10
26.70222
 20
67.91606800000001
 30
0.0
 11
26.702411
 21
63.76999699999999
 31
0.0
  0
LINE
  5
1F7
330
17EC
100
AcDbEntity
  8
GAIKEI
 62
     1
100
AcDbLine
 10
27.05228
 20
57.165949
 30
0.0
 11
27.05228
 21
61.31230699999999
 31
0.0
  0
LWPOLYLINE
  5
1F8
330
17EC
100
AcDbEntity
  8
GAIKEI
 62
     1
100
AcDbPolyline
 90
        4
 70
     1
 43
0.0
 10
26.027269
 20
65.53110799999998
 10
26.702411
 20
65.53110799999998
 10
26.702411
 20
65.431009
 10
26.027461
 20
65.430818
  0
LWPOLYLINE
  5
1F9
330
17EC
100
AcDbEntity
  8
GAIKEI
 62
     1
100
AcDbPolyline
 90
        4
 70
     1
 43
0.0
 10
27.05228
 20
65.430818
 10
27.05228
 20
65.53110799999998
 10
27.527319
 20
65.53110799999998
 10
27.527319
 20
65.431201
  0
LWPOLYLINE
  5
1FA
330
17EC
100
AcDbEntity
  8
GAIKEI
 62
     1
100
AcDbPolyline
 90
        4
 70
     1
 43
0.0
 10
27.527319
 20
67.41107599999999
 10
27.05228
 20
67.41107599999999
 10
27.05228
 20
67.47117299999999
 10
27.527128
 20
67.470982
  0
LWPOLYLINE
  5
1FB
330
17EC
100
AcDbEntity
  8
GAIKEI
 62
     1
100
AcDbPolyline
 90
        4
 70
     1
 43
0.0
 10
27.05228
 20
59.57091
 10
27.05228
 20
59.631103
 10
27.527128
 20
59.631103
 10
27.527319
 20
59.571292
  0
LWPOLYLINE
  5
1FC
330
17EC
100
AcDbEntity
  8
GAIKEI
 62
     1
100
AcDbPolyline
 90
        4
 70
     1
 43
0.0
 10
27.05228
 20
58.651166
 10
27.527128
 20
58.651166
 10
27.527128
 20
58.590973
 10
27.05228
 20
58.590973
  0
LWPOLYLINE
  5
1FD
330
17EC
100
AcDbEntity
  8
GAIKEI
 62
     1
100
AcDbPolyline
 90
        4
 70
     1
 43
0.0
 10
27.05228
 20
57.67103800000001
 10
27.527319
 20
57.67103800000001
 10
27.527319
 20
57.611036
 10
27.05228
 20
57.611036
  0
LWPOLYLINE
  5
1FE
330
17EC
100
AcDbEntity
  8
GAIKEI
 62
     1
100
AcDbPolyline
 90
        4
 70
     1
 43
0.0
 10
26.027461
 20
57.671229
 10
26.702411
 20
57.671229
 10
26.70222
 20
57.611227
 10
26.027269
 20
57.611036
  0
LWPOLYLINE
  5
1FF
330
17EC
100
AcDbEntity
  8
GAIKEI
 62
     1
100
AcDbPolyline
 90
        4
 70
     1
 43
0.0
 10
26.027269
 20
58.591164
 10
26.027269
 20
58.651166
 10
26.70222
 20
58.651166
 10
26.702411
 20
58.590973
  0
LWPOLYLINE
  5
200
330
17EC
100
AcDbEntity
  8
GAIKEI
 62
     1
100
AcDbPolyline
 90
        4
 70
     1
 43
0.0
 10
26.027269
 20
59.631103
 10
26.702411
 20
59.631103
 10
26.702411
 20
59.571101
 10
26.027461
 20
59.571292
  0
LWPOLYLINE
  5
201
330
17EC
100
AcDbEntity
  8
GAIKEI
 62
     1
100
AcDbPolyline
 90
        4
 70
     1
 43
0.0
 10
26.027461
 20
67.41126700000001
 10
26.027269
 20
67.470982
 10
26.70222
 20
67.470982
 10
26.70222
 20
67.41126700000001
  0
LWPOLYLINE
  5
202
330
17EC
100
AcDbEntity
  8
GAIKEI
 62
     1
100
AcDbPolyline
 90
       18
 70
     0
 43
0.0
 10
26.70241149313352
 20
61.31249877823177
 10
26.70241149313348
 20
57.1659489054025
 10
26.71604382609799
 20
57.09801751142294
 10
26.75347779075376
 20
57.04251177137948
 10
26.80908819936223
 20
57.00503892982806
 10
26.87724986418516
 20
56.99120623132468
 10
26.94537414737744
 20
57.00493127073258
 10
27.00100997549462
 20
57.04236822591889
 10
27.03852318920683
 20
57.09790985232761
 10
27.05227962918276
 20
57.16594890540371
 10
27.0385231892053
 20
57.09790985232872
 10
27.00100997549301
 20
57.04236822592014
 10
26.94537414737574
 20
57.00493127073391
 10
26.87724986418834
 20
56.99120623133057
 10
26.80908819937242
 20
57.00503892983213
 10
26.75347779076758
 20
57.04251177137763
 10
26.7160438261107
 20
57.09801751141279
 10
26.70241149313867
 20
57.16594890538331
  0
LWPOLYLINE
  5
203
330
17EC
100
AcDbEntity
  8
GAIKEI
 62
     1
100
AcDbPolyline
 90
       18
 70
     0
 43
0.0
 10
27.05227962918394
 20
63.77018845822255
 10
27.05227962918393
 20
67.91625984618292
 10
27.03852318920656
 20
67.98427347974925
 10
27.00100997549436
 20
68.03985248778821
 10
26.94537414737719
 20
68.07734476778737
 10
26.87724986418527
 20
68.09109821723473
 10
26.80916595315387
 20
68.07734177725743
 10
26.75352563924113
 20
68.03982856354529
 10
26.71598999655079
 20
67.98419273542818
 10
26.70222009918584
 20
67.91606845223386
 10
26.71598999655012
 20
67.98419273542582
 10
26.7535256392405
 20
68.03982856354267
 10
26.80916595315327
 20
68.07734177725452
 10
26.87724986418198
 20
68.09109821723723
 10
26.94537414736771
 20
68.07734476779271
 10
27.0010099754814
 20
68.03985248780008
 10
27.03852318919486
 20
67.9842734797701
 10
27.05227962917994
 20
67.91625984621345
  0
LWPOLYLINE
  5
204
330
17EC
100
AcDbEntity
  8
GAIKEI
 62
     1
100
AcDbPolyline
 90
        8
 70
     1
 43
0.0
 10
23.57072802698229
 20
61.31211599033679
 10
22.39068864360222
 20
61.31230738428423
 10
22.3837386508832
 20
61.31511848288827
 10
22.38073615833139
 20
61.32187708165953
 10
22.38092755227851
 20
62.5011508892533
 10
23.58096760317676
 20
62.50095949529533
 10
23.58077620922198
 20
61.3220684755956
 10
23.57783352727879
 20
61.31519025560645
  0
LWPOLYLINE
  5
205
330
17EC
100
AcDbEntity
  8
GAIKEI
 62
     1
100
AcDbPolyline
 90
        8
 70
     1
 43
0.0
 10
22.39068864360223
 20
63.76999706427507
 10
23.57072802698227
 20
63.769997064275
 10
23.57790530001386
 20
63.76705438233195
 10
23.58077620922654
 20
63.75994888203081
 10
23.58077620922694
 20
62.58096216536425
 10
22.38092755228126
 20
62.58096216536796
 10
22.38092755228024
 20
63.75994888201706
 10
22.38376257512761
 20
63.76712615504565
  0
LINE
  5
206
330
17EC
100
AcDbEntity
  8
GAIKEI
 62
     1
100
AcDbLine
 10
20.479046
 20
62.501151
 30
0.0
 11
20.479046
 21
62.580962
 31
0.0
  0
LINE
  5
207
330
17EC
100
AcDbEntity
  8
GAIKEI
 62
     1
100
AcDbLine
 10
21.579178
 20
62.58115400000001
 30
0.0
 11
21.579178
 21
62.501342
 31
0.0
  0
LWPOLYLINE
  5
208
330
17EC
100
AcDbEntity
  8
GAIKEI
 62
     1
100
AcDbPolyline
 90
        8
 70
     1
 43
0.0
 10
29.42652154805982
 20
61.31211599033672
 10
28.24667355862728
 20
61.31211599033665
 10
28.23956805832599
 20
61.3151424071316
 10
28.23662537638325
 20
61.3222598695545
 10
28.23662537638302
 20
62.50134228319943
 10
29.43666542727942
 20
62.50115088925303
 10
29.43666542728134
 20
61.32187708164835
 10
29.43371078321736
 20
61.31516633136332
  0
LWPOLYLINE
  5
209
330
17EC
100
AcDbEntity
  8
GAIKEI
 62
     1
100
AcDbPolyline
 90
        8
 70
     1
 43
0.0
 10
28.24667355862726
 20
63.77018845822255
 10
29.42671294200729
 20
63.76999706427483
 10
29.43375863170002
 20
63.76712615506203
 10
29.43685682122583
 20
63.75994888203104
 10
29.43666542727709
 20
62.58134495325408
 10
28.23662537637665
 20
62.58115355932204
 10
28.23662537638569
 20
63.75994888203192
 10
28.23956805832868
 20
63.76707830657712
  0
LINE
  5
20A
330
17EC
100
AcDbEntity
  8
GAIKEI
 62
     1
100
AcDbLine
 10
26.327375
 20
62.501342
 30
0.0
 11
26.327375
 21
62.580962
 31
0.0
  0
LINE
  5
20B
330
17EC
100
AcDbEntity
  8
GAIKEI
 62
     1
100
AcDbLine
 10
27.427412
 20
62.580962
 30
0.0
 11
27.427412
 21
62.501342
 31
0.0
  0
LWPOLYLINE
  5
20C
330
17EC
100
AcDbEntity
  8
GAIKEI
 62
     1
100
AcDbPolyline
 90
        8
 70
     1
 43
0.0
 10
27.46741310133558
 20
61.31211599033679
 10
26.28718232400813
 20
61.31211599033674
 10
26.28017252068045
 20
61.31514240713171
 10
26.27732553571116
 20
61.3222598695545
 10
26.27732553571185
 20
62.5013422832
 10
27.47717419266064
 20
62.50115088925849
 10
27.47736558660037
 20
61.32187708164764
 10
27.47436309404801
 20
61.31516633136275
  0
LWPOLYLINE
  5
20D
330
17EC
100
AcDbEntity
  8
GAIKEI
 62
     1
100
AcDbPolyline
 90
        8
 70
     1
 43
0.0
 10
26.28737371795563
 20
63.76999706427507
 10
27.46722170738806
 20
63.769997064275
 10
27.4742673970808
 20
63.76705438233195
 10
27.4773655866062
 20
63.75994888203081
 10
27.47736558660743
 20
62.58096216536425
 10
26.2773255357115
 20
62.58096216536796
 10
26.27732553571126
 20
63.75994888202183
 10
26.28026821765369
 20
63.76705438232047
  0
LINE
  5
20E
330
17EC
100
AcDbEntity
  8
GAIKEI
 62
     1
100
AcDbLine
 10
24.383961
 20
62.501151
 30
0.0
 11
24.383961
 21
62.58115400000001
 31
0.0
  0
LINE
  5
20F
330
17EC
100
AcDbEntity
  8
GAIKEI
 62
     1
100
AcDbLine
 10
25.483998
 20
62.580962
 30
0.0
 11
25.483998
 21
62.501342
 31
0.0
  0
LWPOLYLINE
  5
210
330
17EC
100
AcDbEntity
  8
GAIKEI
 62
     1
100
AcDbPolyline
 90
        8
 70
     1
 43
0.0
 10
25.52380756435985
 20
61.31249877823177
 10
24.3439595749273
 20
61.31230738428423
 10
24.33685407462597
 20
61.31523810410545
 10
24.33391139268304
 20
61.3222598695545
 10
24.3339113926835
 20
62.50134228320068
 10
25.53395144357637
 20
62.50134228319074
 10
25.5339514435807
 20
61.32187708165833
 10
25.53099679951679
 20
61.31528595259137
  0
LWPOLYLINE
  5
211
330
17EC
100
AcDbEntity
  8
GAIKEI
 62
     1
100
AcDbPolyline
 90
        8
 70
     1
 43
0.0
 10
24.34395957492728
 20
63.76999706427507
 10
25.52399895830733
 20
63.77018845822246
 10
25.53102072375664
 20
63.76722185203596
 10
25.53395144357785
 20
63.75994888203081
 10
25.53395144357789
 20
62.58096216536425
 10
24.33391139268497
 20
62.58096216536796
 10
24.3339113926834
 20
63.75994888202183
 10
24.33685407462587
 20
63.76705438232047
  0
LINE
  5
212
330
17EC
100
AcDbEntity
  8
GAIKEI
 62
     1
100
AcDbLine
 10
22.430881
 20
62.501342
 30
0.0
 11
22.43069
 21
62.580962
 31
0.0
  0
LINE
  5
213
330
17EC
100
AcDbEntity
  8
GAIKEI
 62
     1
100
AcDbLine
 10
23.530822
 20
62.580962
 30
0.0
 11
23.530822
 21
62.501342
 31
0.0
  0
LWPOLYLINE
  5
214
330
17EC
100
AcDbEntity
  8
GAIKEI
 62
     1
100
AcDbPolyline
 90
        8
 70
     1
 43
0.0
 10
31.36151435739765
 20
61.31230738428428
 10
30.18137927704382
 20
61.31211599033679
 10
30.17452498129857
 20
61.31519025561875
 10
30.1716181857206
 20
61.32206847560724
 10
30.17161818572028
 20
62.50134228319943
 10
31.37165823661054
 20
62.50115088925486
 10
31.3716582366232
 20
61.32225986954981
 10
31.36870359256056
 20
61.31509455863881
  0
LWPOLYLINE
  5
215
330
17EC
100
AcDbEntity
  8
GAIKEI
 62
     1
100
AcDbPolyline
 90
        8
 70
     1
 43
0.0
 10
30.18166636796507
 20
63.77018845822255
 10
31.36170575134516
 20
63.76999706427483
 10
31.3687275167945
 20
63.76712615506203
 10
31.37165823661599
 20
63.75994888203081
 10
31.37165823661582
 20
62.58115355931014
 10
30.17161818572095
 20
62.58096216536251
 10
30.17161818571092
 20
63.75994888202439
 10
30.1745608676518
 20
63.76715007929924
  0
LINE
  5
216
330
17EC
100
AcDbEntity
  8
GAIKEI
 62
     1
100
AcDbLine
 10
28.28657899999999
 20
62.501342
 30
0.0
 11
28.28657899999999
 21
62.580962
 31
0.0
  0
LINE
  5
217
330
17EC
100
AcDbEntity
  8
GAIKEI
 62
     1
100
AcDbLine
 10
29.386712
 20
62.580962
 30
0.0
 11
29.386712
 21
62.501342
 31
0.0
  0
LINE
  5
218
330
17EC
100
AcDbEntity
  8
GAIKEI
 62
     1
100
AcDbLine
 10
20.579815
 20
77.24059
 30
0.0
 11
21.079736
 21
77.240782
 31
0.0
  0
LINE
  5
219
330
17EC
100
AcDbEntity
  8
GAIKEI
 62
     1
100
AcDbLine
 10
21.079736
 20
77.240782
 30
0.0
 11
21.079736
 21
77.040679
 31
0.0
  0
LINE
  5
21A
330
17EC
100
AcDbEntity
  8
GAIKEI
 62
     1
100
AcDbLine
 10
21.079736
 20
77.040679
 30
0.0
 11
20.579815
 21
77.040679
 31
0.0
  0
LINE
  5
21B
330
17EC
100
AcDbEntity
  8
GAIKEI
 62
     1
100
AcDbLine
 10
20.579815
 20
77.040679
 30
0.0
 11
20.579815
 21
77.24059
 31
0.0
  0
LINE
  5
21C
330
17EC
100
AcDbEntity
  8
GAIKEI
 62
     1
100
AcDbLine
 10
20.579815
 20
74.04086599999998
 30
0.0
 11
20.579815
 21
74.24058599999998
 31
0.0
  0
LINE
  5
21D
330
17EC
100
AcDbEntity
  8
GAIKEI
 62
     1
100
AcDbLine
 10
20.579815
 20
74.24058599999998
 30
0.0
 11
21.079736
 21
74.24077699999998
 31
0.0
  0
LINE
  5
21E
330
17EC
100
AcDbEntity
  8
GAIKEI
 62
     1
100
AcDbLine
 10
21.079736
 20
74.24077699999998
 30
0.0
 11
21.079736
 21
74.04086599999998
 31
0.0
  0
LINE
  5
21F
330
17EC
100
AcDbEntity
  8
GAIKEI
 62
     1
100
AcDbLine
 10
21.079736
 20
74.04086599999998
 30
0.0
 11
20.579815
 21
74.04086599999998
 31
0.0
  0
LINE
  5
220
330
17EC
100
AcDbEntity
  8
GAIKEI
 62
     1
100
AcDbLine
 10
20.579815
 20
75.240906
 30
0.0
 11
21.079736
 21
75.240906
 31
0.0
  0
LINE
  5
221
330
17EC
100
AcDbEntity
  8
GAIKEI
 62
     1
100
AcDbLine
 10
21.079736
 20
75.240906
 30
0.0
 11
21.079736
 21
75.04080399999998
 31
0.0
  0
LINE
  5
222
330
17EC
100
AcDbEntity
  8
GAIKEI
 62
     1
100
AcDbLine
 10
21.079736
 20
75.04080399999998
 30
0.0
 11
20.579815
 21
75.04080399999998
 31
0.0
  0
LINE
  5
223
330
17EC
100
AcDbEntity
  8
GAIKEI
 62
     1
100
AcDbLine
 10
20.579815
 20
75.04080399999998
 30
0.0
 11
20.579815
 21
75.240906
 31
0.0
  0
LINE
  5
224
330
17EC
100
AcDbEntity
  8
GAIKEI
 62
     1
100
AcDbLine
 10
20.579815
 20
76.04054999999999
 30
0.0
 11
20.579815
 21
76.240844
 31
0.0
  0
LINE
  5
225
330
17EC
100
AcDbEntity
  8
GAIKEI
 62
     1
100
AcDbLine
 10
20.579815
 20
76.240844
 30
0.0
 11
21.079736
 21
76.240844
 31
0.0
  0
LINE
  5
226
330
17EC
100
AcDbEntity
  8
GAIKEI
 62
     1
100
AcDbLine
 10
21.079736
 20
76.240844
 30
0.0
 11
21.079736
 21
76.04074200000001
 31
0.0
  0
LINE
  5
227
330
17EC
100
AcDbEntity
  8
GAIKEI
 62
     1
100
AcDbLine
 10
21.079736
 20
76.04074200000001
 30
0.0
 11
20.579815
 21
76.04054999999999
 31
0.0
  0
LINE
  5
228
330
17EC
100
AcDbEntity
  8
GAIKEI
 62
     1
100
AcDbLine
 10
20.579815
 20
78.240911
 30
0.0
 11
21.079736
 21
78.240911
 31
0.0
  0
LINE
  5
229
330
17EC
100
AcDbEntity
  8
GAIKEI
 62
     1
100
AcDbLine
 10
21.079736
 20
78.240911
 30
0.0
 11
21.079736
 21
78.040808
 31
0.0
  0
LINE
  5
22A
330
17EC
100
AcDbEntity
  8
GAIKEI
 62
     1
100
AcDbLine
 10
21.079736
 20
78.040808
 30
0.0
 11
20.579815
 21
78.040808
 31
0.0
  0
LINE
  5
22B
330
17EC
100
AcDbEntity
  8
GAIKEI
 62
     1
100
AcDbLine
 10
20.579815
 20
78.040808
 30
0.0
 11
20.579815
 21
78.240911
 31
0.0
  0
LINE
  5
22C
330
17EC
100
AcDbEntity
  8
GAIKEI
 62
     1
100
AcDbLine
 10
20.579815
 20
79.240848
 30
0.0
 11
21.079736
 21
79.240848
 31
0.0
  0
LINE
  5
22D
330
17EC
100
AcDbEntity
  8
GAIKEI
 62
     1
100
AcDbLine
 10
21.079736
 20
79.240848
 30
0.0
 11
21.079736
 21
79.040937
 31
0.0
  0
LINE
  5
22E
330
17EC
100
AcDbEntity
  8
GAIKEI
 62
     1
100
AcDbLine
 10
21.079736
 20
79.040937
 30
0.0
 11
20.579815
 21
79.040746
 31
0.0
  0
LINE
  5
22F
330
17EC
100
AcDbEntity
  8
GAIKEI
 62
     1
100
AcDbLine
 10
20.579815
 20
79.040746
 30
0.0
 11
20.579815
 21
79.240848
 31
0.0
  0
LINE
  5
230
330
17EC
100
AcDbEntity
  8
GAIKEI
 62
     1
100
AcDbLine
 10
20.579815
 20
80.040875
 30
0.0
 11
20.579815
 21
80.24078600000001
 31
0.0
  0
LINE
  5
231
330
17EC
100
AcDbEntity
  8
GAIKEI
 62
     1
100
AcDbLine
 10
20.579815
 20
80.24078600000001
 30
0.0
 11
21.079736
 21
80.24078600000001
 31
0.0
  0
LINE
  5
232
330
17EC
100
AcDbEntity
  8
GAIKEI
 62
     1
100
AcDbLine
 10
21.079736
 20
80.24078600000001
 30
0.0
 11
21.079736
 21
80.04068399999999
 31
0.0
  0
LINE
  5
233
330
17EC
100
AcDbEntity
  8
GAIKEI
 62
     1
100
AcDbLine
 10
21.079736
 20
80.04068399999999
 30
0.0
 11
20.579815
 21
80.040875
 31
0.0
  0
LINE
  5
234
330
17EC
100
AcDbEntity
  8
GAIKEI
 62
     1
100
AcDbLine
 10
22.529641
 20
77.040679
 30
0.0
 11
22.529832
 21
77.240782
 31
0.0
  0
LINE
  5
235
330
17EC
100
AcDbEntity
  8
GAIKEI
 62
     1
100
AcDbLine
 10
22.529832
 20
77.240782
 30
0.0
 11
23.029849
 21
77.24059
 31
0.0
  0
LINE
  5
236
330
17EC
100
AcDbEntity
  8
GAIKEI
 62
     1
100
AcDbLine
 10
23.029849
 20
77.24059
 30
0.0
 11
23.029849
 21
77.040679
 31
0.0
  0
LINE
  5
237
330
17EC
100
AcDbEntity
  8
GAIKEI
 62
     1
100
AcDbLine
 10
23.029849
 20
77.040679
 30
0.0
 11
22.529641
 21
77.040679
 31
0.0
  0
LINE
  5
238
330
17EC
100
AcDbEntity
  8
GAIKEI
 62
     1
100
AcDbLine
 10
22.529641
 20
75.240906
 30
0.0
 11
23.029657
 21
75.240906
 31
0.0
  0
LINE
  5
239
330
17EC
100
AcDbEntity
  8
GAIKEI
 62
     1
100
AcDbLine
 10
23.029657
 20
75.240906
 30
0.0
 11
23.029657
 21
75.04080399999998
 31
0.0
  0
LINE
  5
23A
330
17EC
100
AcDbEntity
  8
GAIKEI
 62
     1
100
AcDbLine
 10
23.029657
 20
75.04080399999998
 30
0.0
 11
22.529641
 21
75.04080399999998
 31
0.0
  0
LINE
  5
23B
330
17EC
100
AcDbEntity
  8
GAIKEI
 62
     1
100
AcDbLine
 10
22.529641
 20
75.04080399999998
 30
0.0
 11
22.529641
 21
75.240906
 31
0.0
  0
LINE
  5
23C
330
17EC
100
AcDbEntity
  8
GAIKEI
 62
     1
100
AcDbLine
 10
22.529641
 20
74.24077699999998
 30
0.0
 11
23.029849
 21
74.24058599999998
 31
0.0
  0
LINE
  5
23D
330
17EC
100
AcDbEntity
  8
GAIKEI
 62
     1
100
AcDbLine
 10
23.029849
 20
74.24058599999998
 30
0.0
 11
23.029849
 21
74.04086599999998
 31
0.0
  0
LINE
  5
23E
330
17EC
100
AcDbEntity
  8
GAIKEI
 62
     1
100
AcDbLine
 10
23.029849
 20
74.04086599999998
 30
0.0
 11
22.529641
 21
74.04086599999998
 31
0.0
  0
LINE
  5
23F
330
17EC
100
AcDbEntity
  8
GAIKEI
 62
     1
100
AcDbLine
 10
22.529641
 20
74.04086599999998
 30
0.0
 11
22.529641
 21
74.24077699999998
 31
0.0
  0
LINE
  5
240
330
17EC
100
AcDbEntity
  8
GAIKEI
 62
     1
100
AcDbLine
 10
22.529832
 20
76.240844
 30
0.0
 11
23.029849
 21
76.240844
 31
0.0
  0
LINE
  5
241
330
17EC
100
AcDbEntity
  8
GAIKEI
 62
     1
100
AcDbLine
 10
23.029849
 20
76.240844
 30
0.0
 11
23.029849
 21
76.04054999999999
 31
0.0
  0
LINE
  5
242
330
17EC
100
AcDbEntity
  8
GAIKEI
 62
     1
100
AcDbLine
 10
23.029849
 20
76.04054999999999
 30
0.0
 11
22.529641
 21
76.04093299999999
 31
0.0
  0
LINE
  5
243
330
17EC
100
AcDbEntity
  8
GAIKEI
 62
     1
100
AcDbLine
 10
22.529641
 20
76.04093299999999
 30
0.0
 11
22.529832
 21
76.240844
 31
0.0
  0
LINE
  5
244
330
17EC
100
AcDbEntity
  8
GAIKEI
 62
     1
100
AcDbLine
 10
20.579815
 20
81.240915
 30
0.0
 11
21.079736
 21
81.24072400000001
 31
0.0
  0
LINE
  5
245
330
17EC
100
AcDbEntity
  8
GAIKEI
 62
     1
100
AcDbLine
 10
21.079736
 20
81.24072400000001
 30
0.0
 11
21.079736
 21
81.040813
 31
0.0
  0
LINE
  5
246
330
17EC
100
AcDbEntity
  8
GAIKEI
 62
     1
100
AcDbLine
 10
21.079736
 20
81.040813
 30
0.0
 11
20.579815
 21
81.040813
 31
0.0
  0
LINE
  5
247
330
17EC
100
AcDbEntity
  8
GAIKEI
 62
     1
100
AcDbLine
 10
20.579815
 20
81.040813
 30
0.0
 11
20.579815
 21
81.240915
 31
0.0
  0
LWPOLYLINE
  5
248
330
17EC
100
AcDbEntity
  8
GAIKEI
 62
     1
100
AcDbPolyline
 90
        4
 70
     1
 43
0.0
 10
36.179857
 20
82.04075000000001
 10
36.179857
 20
82.240566
 10
36.67977800000001
 20
82.240853
 10
36.67977800000001
 20
82.04075000000001
  0
LWPOLYLINE
  5
249
330
17EC
100
AcDbEntity
  8
GAIKEI
 62
     1
100
AcDbPolyline
 90
        4
 70
     1
 43
0.0
 10
36.179857
 20
80.24078600000001
 10
36.67977800000001
 20
80.24078600000001
 10
36.67977800000001
 20
80.040875
 10
36.179857
 20
80.040875
  0
LWPOLYLINE
  5
24A
330
17EC
100
AcDbEntity
  8
GAIKEI
 62
     1
100
AcDbPolyline
 90
        4
 70
     1
 43
0.0
 10
36.179857
 20
78.040617
 10
36.179857
 20
78.240911
 10
36.679969
 20
78.240911
 10
36.67977800000001
 20
78.040808
  0
LWPOLYLINE
  5
24B
330
17EC
100
AcDbEntity
  8
GAIKEI
 62
     1
100
AcDbPolyline
 90
        4
 70
     1
 43
0.0
 10
36.179857
 20
77.240782
 10
36.67977800000001
 20
77.240782
 10
36.67977800000001
 20
77.040679
 10
36.179857
 20
77.040679
  0
LWPOLYLINE
  5
24C
330
17EC
100
AcDbEntity
  8
GAIKEI
 62
     1
100
AcDbPolyline
 90
        4
 70
     1
 43
0.0
 10
36.179857
 20
75.240906
 10
36.67977800000001
 20
75.240906
 10
36.679969
 20
75.04061199999999
 10
36.179857
 20
75.04061199999999
  0
LWPOLYLINE
  5
24D
330
17EC
100
AcDbEntity
  8
GAIKEI
 62
     1
100
AcDbPolyline
 90
        4
 70
     1
 43
0.0
 10
36.179857
 20
74.04086599999998
 10
36.179857
 20
74.24077699999998
 10
36.67977800000001
 20
74.24077699999998
 10
36.679969
 20
74.04067499999998
  0
LWPOLYLINE
  5
24E
330
17EC
100
AcDbEntity
  8
GAIKEI
 62
     1
100
AcDbPolyline
 90
        4
 70
     1
 43
0.0
 10
38.129874
 20
74.24077699999998
 10
38.6297
 20
74.24077699999998
 10
38.6297
 20
74.04086599999998
 10
38.129874
 20
74.04067499999998
  0
LWPOLYLINE
  5
24F
330
17EC
100
AcDbEntity
  8
GAIKEI
 62
     1
100
AcDbPolyline
 90
        4
 70
     1
 43
0.0
 10
38.129874
 20
75.04061199999999
 10
38.129683
 20
75.24071499999998
 10
38.629891
 20
75.240906
 10
38.629891
 20
75.04061199999999
  0
LWPOLYLINE
  5
250
330
17EC
100
AcDbEntity
  8
GAIKEI
 62
     1
100
AcDbPolyline
 90
        4
 70
     1
 43
0.0
 10
38.129683
 20
77.040679
 10
38.129874
 20
77.240782
 10
38.629891
 20
77.240782
 10
38.629891
 20
77.040679
  0
LWPOLYLINE
  5
251
330
17EC
100
AcDbEntity
  8
GAIKEI
 62
     1
100
AcDbPolyline
 90
        4
 70
     1
 43
0.0
 10
38.129874
 20
78.240911
 10
38.6297
 20
78.240911
 10
38.6297
 20
78.040617
 10
38.129874
 20
78.040808
  0
LWPOLYLINE
  5
252
330
17EC
100
AcDbEntity
  8
GAIKEI
 62
     1
100
AcDbPolyline
 90
        4
 70
     1
 43
0.0
 10
38.129683
 20
80.24078600000001
 10
38.629891
 20
80.24078600000001
 10
38.629891
 20
80.040875
 10
38.129874
 20
80.040875
  0
LWPOLYLINE
  5
253
330
17EC
100
AcDbEntity
  8
GAIKEI
 62
     1
100
AcDbPolyline
 90
        4
 70
     1
 43
0.0
 10
38.129874
 20
82.24104399999999
 10
38.6297
 20
82.240853
 10
38.629891
 20
82.040942
 10
38.129683
 20
82.04075000000001
  0
LWPOLYLINE
  5
254
330
17EC
100
AcDbEntity
  8
GAIKEI
 62
     1
100
AcDbPolyline
 90
        8
 70
     1
 43
0.0
 10
38.029775
 20
71.39073000000002
 10
38.029775
 20
72.09065800000002
 10
38.729799
 20
72.09084900000002
 10
38.729799
 20
71.39073000000002
 10
38.029775
 20
71.39073000000002
 10
38.029775
 20
72.09065800000002
 10
38.729799
 20
72.09084900000002
 10
38.729799
 20
71.39073000000002
  0
LWPOLYLINE
  5
255
330
17EC
100
AcDbEntity
  8
GAIKEI
 62
     1
100
AcDbPolyline
 90
        8
 70
     1
 43
0.0
 10
39.97979199999999
 20
72.09104000000002
 10
40.67991099999999
 20
72.09065800000002
 10
40.67991099999999
 20
71.39073000000002
 10
39.97979199999999
 20
71.39073000000002
 10
39.97979199999999
 20
72.09104000000002
 10
40.67991099999999
 20
72.09065800000002
 10
40.67991099999999
 20
71.39073000000002
 10
39.97979199999999
 20
71.39073000000002
  0
LWPOLYLINE
  5
256
330
17EC
100
AcDbEntity
  8
GAIKEI
 62
     1
100
AcDbPolyline
 90
        4
 70
     1
 43
0.0
 10
40.079796
 20
82.240853
 10
40.57971699999999
 20
82.240853
 10
40.57971699999999
 20
82.04075000000001
 10
40.079796
 20
82.04075000000001
  0
LWPOLYLINE
  5
257
330
17EC
100
AcDbEntity
  8
GAIKEI
 62
     1
100
AcDbPolyline
 90
        4
 70
     1
 43
0.0
 10
40.079796
 20
80.040875
 10
40.079796
 20
80.24078600000001
 10
40.57971699999999
 20
80.24078600000001
 10
40.579908
 20
80.040875
  0
LWPOLYLINE
  5
258
330
17EC
100
AcDbEntity
  8
GAIKEI
 62
     1
100
AcDbPolyline
 90
        4
 70
     1
 43
0.0
 10
40.079796
 20
78.240911
 10
40.57971699999999
 20
78.240911
 10
40.57971699999999
 20
78.040808
 10
40.079796
 20
78.040808
  0
LWPOLYLINE
  5
259
330
17EC
100
AcDbEntity
  8
GAIKEI
 62
     1
100
AcDbPolyline
 90
        4
 70
     1
 43
0.0
 10
40.079796
 20
77.240782
 10
40.57971699999999
 20
77.24059
 10
40.57971699999999
 20
77.040679
 10
40.079796
 20
77.040679
  0
LWPOLYLINE
  5
25A
330
17EC
100
AcDbEntity
  8
GAIKEI
 62
     1
100
AcDbPolyline
 90
        4
 70
     1
 43
0.0
 10
40.079796
 20
75.240906
 10
40.57971699999999
 20
75.240906
 10
40.57971699999999
 20
75.04080399999998
 10
40.079796
 20
75.04080399999998
  0
LWPOLYLINE
  5
25B
330
17EC
100
AcDbEntity
  8
GAIKEI
 62
     1
100
AcDbPolyline
 90
        4
 70
     1
 43
0.0
 10
40.079796
 20
74.04086599999998
 10
40.079796
 20
74.24077699999998
 10
40.57971699999999
 20
74.24058599999998
 10
40.57971699999999
 20
74.04086599999998
  0
LWPOLYLINE
  5
25C
330
17EC
100
AcDbEntity
  8
GAIKEI
 62
     1
100
AcDbPolyline
 90
        4
 70
     1
 43
0.0
 10
42.029813
 20
74.24077699999998
 10
42.52982999999999
 20
74.24077699999998
 10
42.52982999999999
 20
74.04067499999998
 10
42.029813
 20
74.04086599999998
  0
LWPOLYLINE
  5
25D
330
17EC
100
AcDbEntity
  8
GAIKEI
 62
     1
100
AcDbPolyline
 90
        4
 70
     1
 43
0.0
 10
42.029813
 20
75.240906
 10
42.530021
 20
75.240906
 10
42.530021
 20
75.04080399999998
 10
42.029813
 20
75.04080399999998
  0
LWPOLYLINE
  5
25E
330
17EC
100
AcDbEntity
  8
GAIKEI
 62
     1
100
AcDbPolyline
 90
        4
 70
     1
 43
0.0
 10
42.029813
 20
77.240782
 10
42.52982999999999
 20
77.240782
 10
42.52982999999999
 20
77.040679
 10
42.029813
 20
77.040679
  0
LWPOLYLINE
  5
25F
330
17EC
100
AcDbEntity
  8
GAIKEI
 62
     1
100
AcDbPolyline
 90
        4
 70
     1
 43
0.0
 10
42.029813
 20
78.240911
 10
42.52982999999999
 20
78.240911
 10
42.52982999999999
 20
78.040617
 10
42.029813
 20
78.040808
  0
LWPOLYLINE
  5
260
330
17EC
100
AcDbEntity
  8
GAIKEI
 62
     1
100
AcDbPolyline
 90
        4
 70
     1
 43
0.0
 10
42.029813
 20
80.24078600000001
 10
42.52982999999999
 20
80.24078600000001
 10
42.52982999999999
 20
80.04068399999999
 10
42.029813
 20
80.040875
  0
LWPOLYLINE
  5
261
330
17EC
100
AcDbEntity
  8
GAIKEI
 62
     1
100
AcDbPolyline
 90
        4
 70
     1
 43
0.0
 10
42.029813
 20
82.24104399999999
 10
42.52982999999999
 20
82.240853
 10
42.52982999999999
 20
82.04075000000001
 10
42.029813
 20
82.04075000000001
  0
LWPOLYLINE
  5
262
330
17EC
100
AcDbEntity
  8
GAIKEI
 62
     1
100
AcDbPolyline
 90
        8
 70
     1
 43
0.0
 10
41.929714
 20
71.39073000000002
 10
41.92990499999999
 20
72.09065800000002
 10
42.62973699999999
 20
72.09084900000002
 10
42.62973699999999
 20
71.39073000000002
 10
41.929714
 20
71.39073000000002
 10
41.92990499999999
 20
72.09065800000002
 10
42.62973699999999
 20
72.09084900000002
 10
42.62973699999999
 20
71.39073000000002
  0
LINE
  5
263
330
17EC
100
AcDbEntity
  8
GAIKEI
 62
     1
100
AcDbLine
 10
48.47978900000001
 20
71.71064499999999
 30
0.0
 11
48.47978900000001
 21
71.770934
 31
0.0
  0
LINE
  5
264
330
17EC
100
AcDbEntity
  8
GAIKEI
 62
     1
100
AcDbLine
 10
47.77967
 20
71.71064499999999
 30
0.0
 11
47.77967
 21
71.770934
 31
0.0
  0
LWPOLYLINE
  5
265
330
17EC
100
AcDbEntity
  8
GAIKEI
 62
     1
100
AcDbPolyline
 90
        8
 70
     1
 43
0.0
 10
47.77967
 20
72.09084900000002
 10
48.47978900000001
 20
72.09065800000002
 10
48.47978900000001
 20
71.39073000000002
 10
47.77967
 20
71.39073000000002
 10
47.77967
 20
72.09084900000002
 10
48.47978900000001
 20
72.09065800000002
 10
48.47978900000001
 20
71.39073000000002
 10
47.77967
 20
71.39073000000002
  0
LINE
  5
266
330
17EC
100
AcDbEntity
  8
GAIKEI
 62
     1
100
AcDbLine
 10
49.72978300000001
 20
71.710836
 30
0.0
 11
49.72978300000001
 21
71.770934
 31
0.0
  0
LINE
  5
267
330
17EC
100
AcDbEntity
  8
GAIKEI
 62
     1
100
AcDbLine
 10
50.42971099999999
 20
71.710836
 30
0.0
 11
50.42971099999999
 21
71.77074300000001
 31
0.0
  0
LWPOLYLINE
  5
268
330
17EC
100
AcDbEntity
  8
GAIKEI
 62
     1
100
AcDbPolyline
 90
        8
 70
     1
 43
0.0
 10
49.72978300000001
 20
71.39073000000002
 10
49.72978300000001
 20
72.09084900000002
 10
50.429902
 20
72.09084900000002
 10
50.42971099999999
 20
71.39073000000002
 10
49.72978300000001
 20
71.39073000000002
 10
49.72978300000001
 20
72.09084900000002
 10
50.429902
 20
72.09084900000002
 10
50.42971099999999
 20
71.39073000000002
  0
LINE
  5
269
330
17EC
100
AcDbEntity
  8
GAIKEI
 62
     1
100
AcDbLine
 10
52.379919
 20
71.71064499999999
 30
0.0
 11
52.379728
 21
71.770934
 31
0.0
  0
LINE
  5
26A
330
17EC
100
AcDbEntity
  8
GAIKEI
 62
     1
100
AcDbLine
 10
51.679704
 20
71.71064499999999
 30
0.0
 11
51.679704
 21
71.770934
 31
0.0
  0
LWPOLYLINE
  5
26B
330
17EC
100
AcDbEntity
  8
GAIKEI
 62
     1
100
AcDbPolyline
 90
        8
 70
     1
 43
0.0
 10
51.679704
 20
72.09084900000002
 10
52.379728
 20
72.09065800000002
 10
52.379919
 20
71.39073000000002
 10
51.679704
 20
71.39073000000002
 10
51.679704
 20
72.09084900000002
 10
52.379728
 20
72.09065800000002
 10
52.379919
 20
71.39073000000002
 10
51.679704
 20
71.39073000000002
  0
LINE
  5
26C
330
17EC
100
AcDbEntity
  8
GAIKEI
 62
     1
100
AcDbLine
 10
53.62972199999999
 20
71.710836
 30
0.0
 11
53.62972199999999
 21
71.770934
 31
0.0
  0
LINE
  5
26D
330
17EC
100
AcDbEntity
  8
GAIKEI
 62
     1
100
AcDbLine
 10
54.32964899999999
 20
71.710836
 30
0.0
 11
54.329841
 21
71.77074300000001
 31
0.0
  0
LWPOLYLINE
  5
26E
330
17EC
100
AcDbEntity
  8
GAIKEI
 62
     1
100
AcDbPolyline
 90
        8
 70
     1
 43
0.0
 10
53.62972199999999
 20
71.39073000000002
 10
53.62972199999999
 20
72.09084900000002
 10
54.329841
 20
72.09084900000002
 10
54.32964899999999
 20
71.39073000000002
 10
53.62972199999999
 20
71.39073000000002
 10
53.62972199999999
 20
72.09084900000002
 10
54.329841
 20
72.09084900000002
 10
54.32964899999999
 20
71.39073000000002
  0
LWPOLYLINE
  5
26F
330
17EC
100
AcDbEntity
  8
GAIKEI
 62
     1
100
AcDbPolyline
 90
        6
 70
     0
 43
0.0
 10
48.17968331309799
 20
84.2706812670638
 10
53.91977919290504
 20
84.27087266101114
 10
53.95873982334169
 20
84.26299859439074
 10
53.99052318074835
 20
84.24154153856028
 10
54.01193537862697
 20
84.20974920956561
 10
54.0197825304794
 20
84.17086932345261
  0
LWPOLYLINE
  5
270
330
17EC
100
AcDbEntity
  8
GAIKEI
 62
     1
100
AcDbPolyline
 90
        4
 70
     0
 43
0.0
 10
54.0197825304806
 20
84.17086932343726
 10
54.01978253047732
 20
76.41080172159178
 10
53.99052318075685
 20
76.34005773374733
 10
53.91977919291912
 20
76.31079838401501
  0
LWPOLYLINE
  5
271
330
17EC
100
AcDbEntity
  8
GAIKEI
 62
     1
100
AcDbPolyline
 90
        6
 70
     0
 43
0.0
 10
53.91977919291093
 20
76.31079838401636
 10
48.17968331309999
 20
76.31060699007396
 10
48.14077800747637
 20
76.31856479154656
 10
48.10902306010885
 20
76.34003380949891
 10
48.08762132908679
 20
76.37183810061543
 10
48.07977567249963
 20
76.41080172158059
  0
LWPOLYLINE
  5
272
330
17EC
100
AcDbEntity
  8
GAIKEI
 62
     1
100
AcDbPolyline
 90
        4
 70
     0
 43
0.0
 10
48.07977567250009
 20
76.4108017216231
 10
48.07977567249389
 20
84.17067792945271
 10
48.10902306009207
 20
84.24149369002385
 10
48.17968331307728
 20
84.2706812670222
  0
LINE
  5
273
330
17EC
100
AcDbEntity
  8
GAIKEI
 62
     1
100
AcDbLine
 10
50.104915
 20
67.918652
 30
0.0
 11
50.10510599999999
 21
63.772102
 31
0.0
  0
LINE
  5
274
330
17EC
100
AcDbEntity
  8
GAIKEI
 62
     1
100
AcDbLine
 10
50.45497499999999
 20
57.168341
 30
0.0
 11
50.455166
 21
61.3147
 31
0.0
  0
LINE
  5
275
330
17EC
100
AcDbEntity
  8
GAIKEI
 62
     1
100
AcDbLine
 10
52.404992
 20
57.168341
 30
0.0
 11
52.404992
 21
61.31422099999999
 31
0.0
  0
LINE
  5
276
330
17EC
100
AcDbEntity
  8
GAIKEI
 62
     1
100
AcDbLine
 10
52.055028
 20
67.91846099999999
 30
0.0
 11
52.055028
 21
63.772294
 31
0.0
  0
LINE
  5
277
330
17EC
100
AcDbEntity
  8
GAIKEI
 62
     1
100
AcDbLine
 10
52.404992
 20
63.772102
 30
0.0
 11
52.404992
 21
67.918652
 31
0.0
  0
LINE
  5
278
330
17EC
100
AcDbEntity
  8
GAIKEI
 62
     1
100
AcDbLine
 10
52.055028
 20
61.3147
 30
0.0
 11
52.055028
 21
57.168341
 31
0.0
  0
LWPOLYLINE
  5
279
330
17EC
100
AcDbEntity
  8
GAIKEI
 62
     1
100
AcDbPolyline
 90
        4
 70
     1
 43
0.0
 10
55.199822
 20
73.09078700000002
 10
56.19985500000001
 20
73.09078700000002
 10
56.19985500000001
 20
72.49047899999998
 10
55.199822
 20
72.49047899999998
  0
LWPOLYLINE
  5
27A
330
17EC
100
AcDbEntity
  8
GAIKEI
 62
     1
100
AcDbPolyline
 90
        4
 70
     1
 43
0.0
 10
56.299763
 20
71.49073300000002
 10
56.299763
 20
72.09084900000002
 10
57.299796
 20
72.09084900000002
 10
57.299605
 20
71.49073300000002
  0
LWPOLYLINE
  5
27B
330
17EC
100
AcDbEntity
  8
GAIKEI
 62
     1
100
AcDbPolyline
 90
        4
 70
     1
 43
0.0
 10
56.299763
 20
74.09081999999997
 10
57.299605
 20
74.09062900000002
 10
57.299796
 20
73.49060900000002
 10
56.29995400000001
 20
73.49079999999998
  0
LINE
  5
27C
330
17EC
100
AcDbEntity
  8
GAIKEI
 62
     1
100
AcDbLine
 10
45.82984399999999
 20
71.710836
 30
0.0
 11
45.82984399999999
 21
71.770934
 31
0.0
  0
LINE
  5
27D
330
17EC
100
AcDbEntity
  8
GAIKEI
 62
     1
100
AcDbLine
 10
46.529676
 20
71.710836
 30
0.0
 11
46.529676
 21
71.770934
 31
0.0
  0
LWPOLYLINE
  5
27E
330
17EC
100
AcDbEntity
  8
GAIKEI
 62
     1
100
AcDbPolyline
 90
        4
 70
     1
 43
0.0
 10
57.94996199999999
 20
66.34070499999999
 10
57.94996199999999
 20
66.540903
 10
58.44988299999999
 20
66.540903
 10
58.449691
 20
66.34070499999999
  0
LWPOLYLINE
  5
27F
330
17EC
100
AcDbEntity
  8
GAIKEI
 62
     1
100
AcDbPolyline
 90
        4
 70
     1
 43
0.0
 10
57.94996199999999
 20
66.890675
 10
58.44988299999999
 20
66.890675
 10
58.44988299999999
 20
66.690573
 10
57.94996199999999
 20
66.690573
  0
LWPOLYLINE
  5
280
330
17EC
100
AcDbEntity
  8
GAIKEI
 62
     1
100
AcDbPolyline
 90
        4
 70
     1
 43
0.0
 10
57.94996199999999
 20
67.040824
 10
57.94996199999999
 20
67.240735
 10
58.44988299999999
 20
67.240735
 10
58.449691
 20
67.040824
  0
LWPOLYLINE
  5
281
330
17EC
100
AcDbEntity
  8
GAIKEI
 62
     1
100
AcDbPolyline
 90
        4
 70
     1
 43
0.0
 10
57.94996199999999
 20
67.390883
 10
57.94996199999999
 20
67.590986
 10
58.44988299999999
 20
67.59079399999999
 10
58.44988299999999
 20
67.390883
  0
LWPOLYLINE
  5
282
330
17EC
100
AcDbEntity
  8
GAIKEI
 62
     1
100
AcDbPolyline
 90
        4
 70
     1
 43
0.0
 10
57.94996199999999
 20
67.940758
 10
58.44988299999999
 20
67.940758
 10
58.44988299999999
 20
67.740847
 10
57.94996199999999
 20
67.740847
  0
LWPOLYLINE
  5
283
330
17EC
100
AcDbEntity
  8
GAIKEI
 62
     1
100
AcDbPolyline
 90
        4
 70
     1
 43
0.0
 10
57.94996199999999
 20
68.290626
 10
58.44988299999999
 20
68.290626
 10
58.44988299999999
 20
68.090715
 10
57.94996199999999
 20
68.090715
  0
LWPOLYLINE
  5
284
330
17EC
100
AcDbEntity
  8
GAIKEI
 62
     1
100
AcDbPolyline
 90
        4
 70
     1
 43
0.0
 10
57.94996199999999
 20
68.440775
 10
57.94996199999999
 20
68.640686
 10
58.44988299999999
 20
68.640495
 10
58.449691
 20
68.440775
  0
LWPOLYLINE
  5
285
330
17EC
100
AcDbEntity
  8
GAIKEI
 62
     1
100
AcDbPolyline
 90
        4
 70
     1
 43
0.0
 10
57.94996199999999
 20
68.79093000000001
 10
57.94996199999999
 20
68.99074499999999
 10
58.44988299999999
 20
68.99074499999999
 10
58.449691
 20
68.790739
  0
LWPOLYLINE
  5
286
330
17EC
100
AcDbEntity
  8
GAIKEI
 62
     1
100
AcDbPolyline
 90
        4
 70
     1
 43
0.0
 10
57.94996199999999
 20
69.140798
 10
57.94996199999999
 20
69.34070899999999
 10
58.44988299999999
 20
69.340518
 10
58.44988299999999
 20
69.140798
  0
LWPOLYLINE
  5
287
330
17EC
100
AcDbEntity
  8
GAIKEI
 62
     1
100
AcDbPolyline
 90
        4
 70
     1
 43
0.0
 10
57.94996199999999
 20
69.69096
 10
58.44988299999999
 20
69.69096
 10
58.44988299999999
 20
69.490858
 10
57.94996199999999
 20
69.490858
  0
LWPOLYLINE
  5
288
330
17EC
100
AcDbEntity
  8
GAIKEI
 62
     1
100
AcDbPolyline
 90
        4
 70
     1
 43
0.0
 10
57.94996199999999
 20
69.84072600000001
 10
57.94996199999999
 20
70.040828
 10
58.449691
 20
70.040828
 10
58.44988299999999
 20
69.84072600000001
  0
LWPOLYLINE
  5
289
330
17EC
100
AcDbEntity
  8
GAIKEI
 62
     1
100
AcDbPolyline
 90
        4
 70
     1
 43
0.0
 10
57.94996199999999
 20
70.39079200000002
 10
58.44988299999999
 20
70.39079200000002
 10
58.44988299999999
 20
70.19069
 10
57.94996199999999
 20
70.19069
  0
LWPOLYLINE
  5
28A
330
17EC
100
AcDbEntity
  8
GAIKEI
 62
     1
100
AcDbPolyline
 90
        4
 70
     1
 43
0.0
 10
55.949895
 20
70.040828
 10
56.44981600000001
 20
70.040828
 10
56.44981600000001
 20
69.840917
 10
55.949895
 20
69.840917
  0
LWPOLYLINE
  5
28B
330
17EC
100
AcDbEntity
  8
GAIKEI
 62
     1
100
AcDbPolyline
 90
        4
 70
     1
 43
0.0
 10
55.949895
 20
69.69096
 10
56.44981600000001
 20
69.69076899999999
 10
56.44981600000001
 20
69.490666
 10
55.949895
 20
69.490666
  0
LWPOLYLINE
  5
28C
330
17EC
100
AcDbEntity
  8
GAIKEI
 62
     1
100
AcDbPolyline
 90
        4
 70
     1
 43
0.0
 10
55.949895
 20
69.34070899999999
 10
56.44981600000001
 20
69.340518
 10
56.44981600000001
 20
69.140798
 10
55.949895
 20
69.140798
  0
LWPOLYLINE
  5
28D
330
17EC
100
AcDbEntity
  8
GAIKEI
 62
     1
100
AcDbPolyline
 90
        4
 70
     1
 43
0.0
 10
55.949895
 20
68.99074499999999
 10
56.44981600000001
 20
68.99074499999999
 10
56.44981600000001
 20
68.790739
 10
55.94970299999999
 20
68.79093000000001
  0
LWPOLYLINE
  5
28E
330
17EC
100
AcDbEntity
  8
GAIKEI
 62
     1
100
AcDbPolyline
 90
        4
 70
     1
 43
0.0
 10
55.949895
 20
68.640686
 10
56.44981600000001
 20
68.640686
 10
56.44981600000001
 20
68.440584
 10
55.949895
 20
68.440584
  0
LWPOLYLINE
  5
28F
330
17EC
100
AcDbEntity
  8
GAIKEI
 62
     1
100
AcDbPolyline
 90
        4
 70
     1
 43
0.0
 10
55.949895
 20
68.290626
 10
56.44981600000001
 20
68.290626
 10
56.44981600000001
 20
68.090524
 10
55.949895
 20
68.090715
  0
LWPOLYLINE
  5
290
330
17EC
100
AcDbEntity
  8
GAIKEI
 62
     1
100
AcDbPolyline
 90
        8
 70
     1
 43
0.0
 10
53.62972199999999
 20
69.740531
 10
54.32964899999999
 20
69.740531
 10
54.329841
 20
70.440842
 10
53.62972199999999
 20
70.440842
 10
53.62972199999999
 20
69.740531
 10
53.62972199999999
 20
70.440842
 10
54.329841
 20
70.440842
 10
54.32964899999999
 20
69.740531
  0
LWPOLYLINE
  5
291
330
17EC
100
AcDbEntity
  8
GAIKEI
 62
     1
100
AcDbPolyline
 90
        8
 70
     1
 43
0.0
 10
51.679896
 20
70.440842
 10
51.679704
 20
69.740531
 10
52.379919
 20
69.740531
 10
52.379728
 20
70.440842
 10
51.679896
 20
70.440842
 10
52.379728
 20
70.440842
 10
52.379919
 20
69.740531
 10
51.679704
 20
69.740531
  0
LWPOLYLINE
  5
292
330
17EC
100
AcDbEntity
  8
GAIKEI
 62
     1
100
AcDbPolyline
 90
        8
 70
     1
 43
0.0
 10
49.72978300000001
 20
69.740531
 10
50.42971099999999
 20
69.740531
 10
50.42971099999999
 20
70.440842
 10
49.72978300000001
 20
70.440842
 10
49.72978300000001
 20
69.740531
 10
49.72978300000001
 20
70.440842
 10
50.42971099999999
 20
70.440842
 10
50.42971099999999
 20
69.740531
  0
LWPOLYLINE
  5
293
330
17EC
100
AcDbEntity
  8
GAIKEI
 62
     1
100
AcDbPolyline
 90
        8
 70
     1
 43
0.0
 10
47.77967
 20
70.440842
 10
47.77967
 20
69.740531
 10
48.47978900000001
 20
69.740531
 10
48.47978900000001
 20
70.440842
 10
47.77967
 20
70.440842
 10
48.47978900000001
 20
70.440842
 10
48.47978900000001
 20
69.740531
 10
47.77967
 20
69.740531
  0
LWPOLYLINE
  5
294
330
17EC
100
AcDbEntity
  8
GAIKEI
 62
     1
100
AcDbPolyline
 90
        8
 70
     1
 43
0.0
 10
41.92990499999999
 20
70.440842
 10
41.92990499999999
 20
69.740531
 10
42.62973699999999
 20
69.740723
 10
42.62973699999999
 20
70.440842
 10
41.92990499999999
 20
70.440842
 10
42.62973699999999
 20
70.440842
 10
42.62973699999999
 20
69.740723
 10
41.92990499999999
 20
69.740531
  0
LWPOLYLINE
  5
295
330
17EC
100
AcDbEntity
  8
GAIKEI
 62
     1
100
AcDbPolyline
 90
        4
 70
     1
 43
0.0
 10
42.029813
 20
73.24083899999997
 10
42.52982999999999
 20
73.24083899999997
 10
42.52982999999999
 20
73.04073699999998
 10
42.029813
 20
73.04073699999998
  0
LWPOLYLINE
  5
296
330
17EC
100
AcDbEntity
  8
GAIKEI
 62
     1
100
AcDbPolyline
 90
        4
 70
     1
 43
0.0
 10
40.079796
 20
73.04073699999998
 10
40.079796
 20
73.24083899999997
 10
40.57971699999999
 20
73.24083899999997
 10
40.57971699999999
 20
73.04054600000002
  0
LWPOLYLINE
  5
297
330
17EC
100
AcDbEntity
  8
GAIKEI
 62
     1
100
AcDbPolyline
 90
        8
 70
     1
 43
0.0
 10
39.97979199999999
 20
69.740531
 10
40.67972
 20
69.740531
 10
40.67972
 20
70.440842
 10
39.97979199999999
 20
70.440842
 10
39.97979199999999
 20
69.740531
 10
39.97979199999999
 20
70.440842
 10
40.67972
 20
70.440842
 10
40.67972
 20
69.740531
  0
LWPOLYLINE
  5
298
330
17EC
100
AcDbEntity
  8
GAIKEI
 62
     1
100
AcDbPolyline
 90
        8
 70
     1
 43
0.0
 10
38.029775
 20
70.440842
 10
38.029775
 20
69.740531
 10
38.729799
 20
69.740531
 10
38.729799
 20
70.440842
 10
38.029775
 20
70.440842
 10
38.729799
 20
70.440842
 10
38.729799
 20
69.740531
 10
38.029775
 20
69.740531
  0
LWPOLYLINE
  5
299
330
17EC
100
AcDbEntity
  8
GAIKEI
 62
     1
100
AcDbPolyline
 90
        4
 70
     1
 43
0.0
 10
38.129874
 20
73.24083899999997
 10
38.6297
 20
73.24083899999997
 10
38.6297
 20
73.04073699999998
 10
38.129874
 20
73.04054600000002
  0
LWPOLYLINE
  5
29A
330
17EC
100
AcDbEntity
  8
GAIKEI
 62
     1
100
AcDbPolyline
 90
        4
 70
     1
 43
0.0
 10
36.179857
 20
73.04073699999998
 10
36.179857
 20
73.24083899999997
 10
36.679969
 20
73.24083899999997
 10
36.67977800000001
 20
73.04073699999998
  0
LWPOLYLINE
  5
29B
330
17EC
100
AcDbEntity
  8
GAIKEI
 62
     1
100
AcDbPolyline
 90
        8
 70
     1
 43
0.0
 10
36.079854
 20
69.740531
 10
36.779686
 20
69.740531
 10
36.779686
 20
70.440842
 10
36.079854
 20
70.440842
 10
36.079854
 20
69.740531
 10
36.079854
 20
70.440842
 10
36.779686
 20
70.440842
 10
36.779686
 20
69.740531
  0
LWPOLYLINE
  5
29C
330
17EC
100
AcDbEntity
  8
GAIKEI
 62
     1
100
AcDbPolyline
 90
        8
 70
     1
 43
0.0
 10
34.129836
 20
70.440842
 10
34.129836
 20
69.740531
 10
34.82986
 20
69.740531
 10
34.82986
 20
70.440842
 10
34.129836
 20
70.440842
 10
34.82986
 20
70.440842
 10
34.82986
 20
69.740531
 10
34.129836
 20
69.740531
  0
LWPOLYLINE
  5
29D
330
17EC
100
AcDbEntity
  8
GAIKEI
 62
     1
100
AcDbPolyline
 90
        4
 70
     1
 43
0.0
 10
34.229935
 20
73.24083899999997
 10
34.729665
 20
73.24083899999997
 10
34.729665
 20
73.04073699999998
 10
34.22974400000001
 20
73.04073699999998
  0
LWPOLYLINE
  5
29E
330
17EC
100
AcDbEntity
  8
GAIKEI
 62
     1
100
AcDbPolyline
 90
        4
 70
     1
 43
0.0
 10
32.279631
 20
73.04073699999998
 10
32.279823
 20
73.24083899999997
 10
32.77983900000001
 20
73.24083899999997
 10
32.77983900000001
 20
73.04073699999998
  0
LWPOLYLINE
  5
29F
330
17EC
100
AcDbEntity
  8
GAIKEI
 62
     1
100
AcDbPolyline
 90
        8
 70
     1
 43
0.0
 10
32.179915
 20
69.740723
 10
32.87993800000001
 20
69.740531
 10
32.87993800000001
 20
70.440842
 10
32.179915
 20
70.440842
 10
32.179915
 20
69.740723
 10
32.179915
 20
70.440842
 10
32.87993800000001
 20
70.440842
 10
32.87993800000001
 20
69.740531
  0
LWPOLYLINE
  5
2A0
330
17EC
100
AcDbEntity
  8
GAIKEI
 62
     1
100
AcDbPolyline
 90
        4
 70
     1
 43
0.0
 10
53.33009399999999
 20
57.67343
 10
54.005237
 20
57.67362099999999
 10
54.005237
 20
57.61342800000001
 10
53.330286
 20
57.61342800000001
  0
LWPOLYLINE
  5
2A1
330
17EC
100
AcDbEntity
  8
GAIKEI
 62
     1
100
AcDbPolyline
 90
        4
 70
     1
 43
0.0
 10
53.329903
 20
58.59336500000001
 10
53.330286
 20
58.65355799999999
 10
54.005237
 20
58.653367
 10
54.005045
 20
58.59336500000001
  0
LWPOLYLINE
  5
2A2
330
17EC
100
AcDbEntity
  8
GAIKEI
 62
     1
100
AcDbPolyline
 90
        4
 70
     1
 43
0.0
 10
53.33009399999999
 20
59.63349499999999
 10
54.005045
 20
59.63349499999999
 10
54.005237
 20
59.573493
 10
53.33009399999999
 20
59.57330200000001
  0
LWPOLYLINE
  5
2A3
330
17EC
100
AcDbEntity
  8
GAIKEI
 62
     1
100
AcDbPolyline
 90
        4
 70
     1
 43
0.0
 10
53.33009399999999
 20
67.41318099999999
 10
53.33009399999999
 20
67.47337400000001
 10
54.005237
 20
67.47337400000001
 10
54.005045
 20
67.41318099999999
  0
LWPOLYLINE
  5
2A4
330
17EC
100
AcDbEntity
  8
GAIKEI
 62
     1
100
AcDbPolyline
 90
        4
 70
     1
 43
0.0
 10
51.379982
 20
67.47337400000001
 10
52.055028
 20
67.47337400000001
 10
52.055028
 20
67.41318099999999
 10
51.379982
 20
67.41356399999999
  0
LWPOLYLINE
  5
2A5
330
17EC
100
AcDbEntity
  8
GAIKEI
 62
     1
100
AcDbPolyline
 90
        4
 70
     1
 43
0.0
 10
51.379982
 20
59.573493
 10
51.379982
 20
59.63349499999999
 10
52.055028
 20
59.63349499999999
 10
52.055028
 20
59.57330200000001
  0
LWPOLYLINE
  5
2A6
330
17EC
100
AcDbEntity
  8
GAIKEI
 62
     1
100
AcDbPolyline
 90
        4
 70
     1
 43
0.0
 10
51.379982
 20
58.653367
 10
52.055028
 20
58.65355799999999
 10
52.055028
 20
58.59336500000001
 10
51.379982
 20
58.59336500000001
  0
LWPOLYLINE
  5
2A7
330
17EC
100
AcDbEntity
  8
GAIKEI
 62
     1
100
AcDbPolyline
 90
        4
 70
     1
 43
0.0
 10
51.379982
 20
57.67362099999999
 10
52.055028
 20
57.67362099999999
 10
52.055028
 20
57.61342800000001
 10
51.379982
 20
57.61342800000001
  0
LWPOLYLINE
  5
2A8
330
17EC
100
AcDbEntity
  8
GAIKEI
 62
     1
100
AcDbPolyline
 90
        4
 70
     1
 43
0.0
 10
52.880127
 20
57.61342800000001
 10
52.404992
 20
57.61342800000001
 10
52.405183
 20
57.67362099999999
 10
52.880127
 20
57.67343
  0
LWPOLYLINE
  5
2A9
330
17EC
100
AcDbEntity
  8
GAIKEI
 62
     1
100
AcDbPolyline
 90
        4
 70
     1
 43
0.0
 10
52.404992
 20
58.59336500000001
 10
52.404992
 20
58.653367
 10
52.880127
 20
58.65355799999999
 10
52.880127
 20
58.59336500000001
  0
LWPOLYLINE
  5
2AA
330
17EC
100
AcDbEntity
  8
GAIKEI
 62
     1
100
AcDbPolyline
 90
        4
 70
     1
 43
0.0
 10
52.880127
 20
59.57330200000001
 10
52.405183
 20
59.57330200000001
 10
52.404992
 20
59.63349499999999
 10
52.880127
 20
59.63349499999999
  0
LWPOLYLINE
  5
2AB
330
17EC
100
AcDbEntity
  8
GAIKEI
 62
     1
100
AcDbPolyline
 90
        4
 70
     1
 43
0.0
 10
52.404992
 20
67.41318099999999
 10
52.405183
 20
67.473566
 10
52.880127
 20
67.47337400000001
 10
52.880127
 20
67.413372
  0
LWPOLYLINE
  5
2AC
330
17EC
100
AcDbEntity
  8
GAIKEI
 62
     1
100
AcDbPolyline
 90
        4
 70
     1
 43
0.0
 10
52.880127
 20
65.433498
 10
52.404992
 20
65.433306
 10
52.404992
 20
65.53331
 10
52.880127
 20
65.533501
  0
LWPOLYLINE
  5
2AD
330
17EC
100
AcDbEntity
  8
GAIKEI
 62
     1
100
AcDbPolyline
 90
        4
 70
     1
 43
0.0
 10
51.379982
 20
65.433306
 10
51.379982
 20
65.533501
 10
52.055028
 20
65.533501
 10
52.055028
 20
65.433498
  0
LWPOLYLINE
  5
2AE
330
17EC
100
AcDbEntity
  8
GAIKEI
 62
     1
100
AcDbPolyline
 90
        4
 70
     1
 43
0.0
 10
49.43015599999999
 20
65.533501
 10
50.10510599999999
 20
65.53331
 10
50.104915
 20
65.433498
 10
49.43015599999999
 20
65.433498
  0
LWPOLYLINE
  5
2AF
330
17EC
100
AcDbEntity
  8
GAIKEI
 62
     1
100
AcDbPolyline
 90
        4
 70
     1
 43
0.0
 10
50.45497499999999
 20
65.433498
 10
50.45497499999999
 20
65.533501
 10
50.930206
 20
65.533501
 10
50.930206
 20
65.433306
  0
LWPOLYLINE
  5
2B0
330
17EC
100
AcDbEntity
  8
GAIKEI
 62
     1
100
AcDbPolyline
 90
        4
 70
     1
 43
0.0
 10
50.930206
 20
67.41356399999999
 10
50.45497499999999
 20
67.41318099999999
 10
50.455166
 20
67.473566
 10
50.930014
 20
67.473566
  0
LWPOLYLINE
  5
2B1
330
17EC
100
AcDbEntity
  8
GAIKEI
 62
     1
100
AcDbPolyline
 90
        4
 70
     1
 43
0.0
 10
50.455166
 20
59.57330200000001
 10
50.45497499999999
 20
59.63349499999999
 10
50.930206
 20
59.63349499999999
 10
50.930014
 20
59.57330200000001
  0
LWPOLYLINE
  5
2B2
330
17EC
100
AcDbEntity
  8
GAIKEI
 62
     1
100
AcDbPolyline
 90
        4
 70
     1
 43
0.0
 10
50.930206
 20
58.59336500000001
 10
50.45497499999999
 20
58.59336500000001
 10
50.455166
 20
58.653176
 10
50.930206
 20
58.65355799999999
  0
LWPOLYLINE
  5
2B3
330
17EC
100
AcDbEntity
  8
GAIKEI
 62
     1
100
AcDbPolyline
 90
        4
 70
     1
 43
0.0
 10
50.45497499999999
 20
57.61342800000001
 10
50.45497499999999
 20
57.67343
 10
50.930206
 20
57.67362099999999
 10
50.930206
 20
57.61342800000001
  0
LWPOLYLINE
  5
2B4
330
17EC
100
AcDbEntity
  8
GAIKEI
 62
     1
100
AcDbPolyline
 90
        4
 70
     1
 43
0.0
 10
49.43015599999999
 20
57.67343
 10
50.10510599999999
 20
57.67362099999999
 10
50.10510599999999
 20
57.61342800000001
 10
49.43015599999999
 20
57.61342800000001
  0
LWPOLYLINE
  5
2B5
330
17EC
100
AcDbEntity
  8
GAIKEI
 62
     1
100
AcDbPolyline
 90
        4
 70
     1
 43
0.0
 10
49.43015599999999
 20
58.59336500000001
 10
49.43015599999999
 20
58.65355799999999
 10
50.10510599999999
 20
58.653367
 10
50.104915
 20
58.59336500000001
  0
LWPOLYLINE
  5
2B6
330
17EC
100
AcDbEntity
  8
GAIKEI
 62
     1
100
AcDbPolyline
 90
       18
 70
     0
 43
0.0
 10
46.20516765359917
 20
61.31441271770689
 10
46.20516765359915
 20
57.16834132974647
 10
46.21881643448101
 20
57.10032769618019
 10
46.25629376182797
 20
57.04474868814126
 10
46.31196547631021
 20
57.00725640814215
 10
46.38019741859738
 20
56.99350295869567
 10
46.44827833909829
 20
57.0072564081427
 10
46.50389771929793
 20
57.04474868814196
 10
46.54137654191001
 20
57.10032769618104
 10
46.55503578965173
 20
57.16834132974391
 10
46.54137654191361
 20
57.1003276961773
 10
46.50389771930165
 20
57.04474868813806
 10
46.44827833910218
 20
57.00725640813859
 10
46.38019741860171
 20
56.9935029586959
 10
46.31196547632057
 20
57.00725640814031
 10
46.25629376184179
 20
57.04474868813279
 10
46.21881643449355
 20
57.10032769616258
 10
46.205167653604
 20
57.16834132971893
  0
LWPOLYLINE
  5
2B7
330
17EC
100
AcDbEntity
  8
GAIKEI
 62
     1
100
AcDbPolyline
 90
       18
 70
     0
 43
0.0
 10
46.55503578964959
 20
63.77229379164514
 10
46.55522718359693
 20
67.91865227052682
 10
46.5414303714587
 20
67.98651787283685
 10
46.50384987081177
 20
68.04206548030631
 10
46.44820058530761
 20
68.07961607564884
 10
46.3801974185983
 20
68.093490641578
 10
46.31204622063215
 20
68.07972373474413
 10
46.25636553455853
 20
68.04220902576675
 10
46.21884334925504
 20
67.98662553193214
 10
46.20516765360134
 20
67.91865227052962
 10
46.21884334925738
 20
67.98662553193539
 10
46.25636553456115
 20
68.04220902577028
 10
46.31204622063504
 20
68.07972373474793
 10
46.38019741860171
 20
68.09349064158414
 10
46.44820058530546
 20
68.07961607565822
 10
46.50384987080653
 20
68.04206548032333
 10
46.54143037145514
 20
67.98651787286401
 10
46.55522718360155
 20
67.91865227056494
  0
LWPOLYLINE
  5
2B8
330
17EC
100
AcDbEntity
  8
GAIKEI
 62
     1
100
AcDbPolyline
 90
       64
 70
     1
 43
0.0
 10
48.33002325886804
 20
68.0932992476308
 10
48.34794859171871
 20
68.0924281388255
 10
48.36534964720339
 20
68.08980238301751
 10
48.38213951303147
 20
68.08551099521418
 10
48.39823127691232
 20
68.07964299042282
 10
48.41353802655535
 20
68.07228738365075
 10
48.42797284966991
 20
68.06353318990531
 10
48.44144883396539
 20
68.0534694241938
 10
48.45387906715118
 20
68.04218510152359
 10
48.46517663693668
 20
68.02976923690197
 10
48.47525463103123
 20
68.01631084533628
 10
48.48402613714424
 20
68.00189894183382
 10
48.4914042429851
 20
67.986622541402
 10
48.49730203626315
 20
67.97057065904803
 10
48.50163260468782
 20
67.9538323097793
 10
48.50430903596847
 20
67.93649650860314
 10
48.50524441781447
 20
67.91865227052672
 10
48.50430903596847
 20
67.93649650860297
 10
48.50163260468784
 20
67.9538323097791
 10
48.49730203626317
 20
67.97057065904778
 10
48.49140424298511
 20
67.98662254140173
 10
48.48402613714426
 20
68.00189894183356
 10
48.47525463103128
 20
68.01631084533598
 10
48.46517663693671
 20
68.02976923690164
 10
48.45387906715122
 20
68.04218510152324
 10
48.44144883396544
 20
68.05346942419345
 10
48.42797284966997
 20
68.06353318990492
 10
48.41353802655542
 20
68.07228738365033
 10
48.3982312769124
 20
68.07964299042236
 10
48.38213951303155
 20
68.08551099521372
 10
48.36534964720347
 20
68.089802383017
 10
48.34794859171882
 20
68.09242813882495
 10
48.33002325886901
 20
68.09329924763005
 10
48.31214528387135
 20
68.09242813882476
 10
48.294779670845
 20
68.08980238301676
 10
48.27801487407281
 20
68.0855109952134
 10
48.2619393478377
 20
68.07964299042203
 10
48.24664154642249
 20
68.07228738364995
 10
48.23220992411006
 20
68.06353318990449
 10
48.21873293518329
 20
68.05346942419297
 10
48.20629903392506
 20
68.04218510152274
 10
48.19499667461824
 20
68.02976923690112
 10
48.18491431154567
 20
68.01631084533541
 10
48.17614039899026
 20
68.00189894183297
 10
48.16876339123485
 20
67.9866225414011
 10
48.16287174256232
 20
67.97057065904714
 10
48.15855390725554
 20
67.95383230977842
 10
48.1558983395974
 20
67.93649650860226
 10
48.15499349386673
 20
67.91865227052962
 10
48.15589833959315
 20
67.93649650860418
 10
48.15855390725072
 20
67.95383230977876
 10
48.16287174255661
 20
67.97057065904602
 10
48.16876339122796
 20
67.98662254139869
 10
48.17614039898191
 20
68.00189894182946
 10
48.18491431153564
 20
68.01631084533103
 10
48.19499667460632
 20
68.02976923689607
 10
48.20629903391104
 20
68.04218510151732
 10
48.21873293516705
 20
68.05346942418751
 10
48.23220992409144
 20
68.06353318989929
 10
48.24664154640135
 20
68.07228738364533
 10
48.261939347814
 20
68.07964299041839
 10
48.27801487404653
 20
68.08551099521117
 10
48.29477967081607
 20
68.08980238301633
 10
48.31214528383977
 20
68.09242813882661
  0
LWPOLYLINE
  5
2B9
330
17EC
100
AcDbEntity
  8
GAIKEI
 62
     1
100
AcDbPolyline
 90
       64
 70
     1
 43
0.0
 10
48.33002325886804
 20
56.99350295869503
 10
48.31214528387034
 20
56.99440670633635
 10
48.29477967084395
 20
56.99705907319245
 10
48.27801487407175
 20
57.00137174516157
 10
48.26193934783658
 20
57.00725640814196
 10
48.24664154642132
 20
57.01462474803189
 10
48.23220992410886
 20
57.02338845072956
 10
48.21873293518207
 20
57.03345920213322
 10
48.20629903392378
 20
57.04474868814113
 10
48.1949966746169
 20
57.05716859465153
 10
48.1849143115443
 20
57.07063060756268
 10
48.17614039898883
 20
57.08504641277279
 10
48.16876339123338
 20
57.1003276961801
 10
48.16287174256079
 20
57.1163861436829
 10
48.15855390725398
 20
57.13313344117938
 10
48.15589833959578
 20
57.15048127456782
 10
48.15499349386906
 20
57.16834132974647
 10
48.15589833959574
 20
57.15048127456787
 10
48.15855390725393
 20
57.13313344117944
 10
48.16287174256075
 20
57.11638614368297
 10
48.16876339123331
 20
57.10032769618019
 10
48.17614039898876
 20
57.08504641277286
 10
48.18491431154421
 20
57.07063060756278
 10
48.1949966746168
 20
57.05716859465166
 10
48.20629903392365
 20
57.04474868814126
 10
48.21873293518193
 20
57.03345920213336
 10
48.23220992410871
 20
57.02338845072971
 10
48.24664154642114
 20
57.01462474803205
 10
48.26193934783638
 20
57.00725640814215
 10
48.27801487407153
 20
57.00137174516176
 10
48.29477967084372
 20
56.99705907319264
 10
48.31214528387008
 20
56.99440670633658
 10
48.33002325886855
 20
56.99350295869567
 10
48.34791700424158
 20
56.99440460362032
 10
48.36529432239103
 20
56.99705122305078
 10
48.38206717957731
 20
57.00135534397199
 10
48.39814754206095
 20
57.00722949336888
 10
48.41344737610239
 20
57.01458619822638
 10
48.42787864796211
 20
57.02333798552942
 10
48.4413533239006
 20
57.0333973822629
 10
48.45378337017827
 20
57.04467691541178
 10
48.46508075305565
 20
57.05708911196095
 10
48.47515743879319
 20
57.07054649889538
 10
48.48392539365136
 20
57.08496160319995
 10
48.49129658389063
 20
57.10024695185961
 10
48.49718297577148
 20
57.11631507185932
 10
48.50149653555438
 20
57.13307849018396
 10
48.50414922949979
 20
57.15044973381846
 10
48.50505302386678
 20
57.16834132975043
 10
48.50414922949861
 20
57.15044973382303
 10
48.50149653555376
 20
57.13307849019031
 10
48.49718297577174
 20
57.11631507186732
 10
48.49129658389205
 20
57.1002469518691
 10
48.48392539365423
 20
57.08496160321072
 10
48.47515743879772
 20
57.07054649890721
 10
48.46508075306204
 20
57.05708911197362
 10
48.45378337018672
 20
57.04467691542499
 10
48.44135332391127
 20
57.03339738227638
 10
48.42787864797514
 20
57.02333798554282
 10
48.41344737611787
 20
57.01458619823939
 10
48.39814754207895
 20
57.00722949338109
 10
48.38206717959788
 20
57.00135534398302
 10
48.36529432241418
 20
56.99705122306017
 10
48.34791700426735
 20
56.99440460362764
  0
LWPOLYLINE
  5
2BA
330
17EC
100
AcDbEntity
  8
GAIKEI
 62
     1
100
AcDbPolyline
 90
       18
 70
     0
 43
0.0
 10
50.10510642506023
 20
61.31469980862817
 10
50.10491503111274
 20
57.16834132974647
 10
50.11878212071601
 20
57.10032769618019
 10
50.15635215450638
 20
57.04474868814126
 10
50.21200891633657
 20
57.00725640814215
 10
50.28013619005969
 20
56.99350295869567
 10
50.34810945146536
 20
57.0072564081427
 10
50.4036929453001
 20
57.04474868814196
 10
50.44120765427762
 20
57.10032769618104
 10
50.45497456110999
 20
57.16834132974391
 10
50.44120765427595
 20
57.1003276961773
 10
50.40369294529835
 20
57.04474868813806
 10
50.34810945146348
 20
57.00725640813859
 10
50.28013619006014
 20
56.9935029586959
 10
50.21200891634383
 20
57.00725640814031
 10
50.15635215451699
 20
57.04474868813279
 10
50.11878212072521
 20
57.10032769616258
 10
50.10491503111411
 20
57.16834132971893
  0
LWPOLYLINE
  5
2BB
330
17EC
100
AcDbEntity
  8
GAIKEI
 62
     1
100
AcDbPolyline
 90
       18
 70
     0
 43
0.0
 10
50.45497456111064
 20
63.77229379164514
 10
50.45516595505813
 20
67.91846087657916
 10
50.44140652455031
 20
67.98654478761054
 10
50.40387237712508
 20
68.04218510152324
 10
50.3481797289297
 20
68.07972074421354
 10
50.27994479611175
 20
68.093490641578
 10
50.21192817201503
 20
68.07972373474413
 10
50.15632823026315
 20
68.04220902576675
 10
50.11877913018594
 20
67.98662553193214
 10
50.10491503111318
 20
67.91865227052962
 10
50.11877913018608
 20
67.98662553193539
 10
50.15632823026348
 20
68.04220902577028
 10
50.21192817201554
 20
68.07972373474793
 10
50.27994479611153
 20
68.09349064158414
 10
50.34817972892351
 20
68.07972074422322
 10
50.40387237711571
 20
68.04218510154043
 10
50.44140652454258
 20
67.98654478763783
 10
50.4551659550585
 20
67.91846087661738
  0
LWPOLYLINE
  5
2BC
330
17EC
100
AcDbEntity
  8
GAIKEI
 62
     1
100
AcDbPolyline
 90
       64
 70
     1
 43
0.0
 10
52.22996203032909
 20
68.0934906415783
 10
52.24788731645272
 20
68.09258584257861
 10
52.26528804484813
 20
68.08993060200968
 10
52.2820770228625
 20
68.08561365451659
 10
52.29816705784295
 20
68.07972373474441
 10
52.31347095713665
 20
68.07234957733827
 10
52.32790152809076
 20
68.06357991694326
 10
52.34137157805243
 20
68.05350348820448
 10
52.3537939143688
 20
68.04220902576702
 10
52.36508134438704
 20
68.02978526427598
 10
52.37514667545433
 20
68.01632093837646
 10
52.38390271491775
 20
68.00190478271358
 10
52.39126227012454
 20
67.9866255319324
 10
52.39713814842179
 20
67.97057192067804
 10
52.40144315715671
 20
67.95383268359561
 10
52.40409010367639
 20
67.93649655533018
 10
52.40499179532802
 20
67.91865227052672
 10
52.40409010367637
 20
67.93649655533001
 10
52.40144315715665
 20
67.9538326835954
 10
52.39713814842176
 20
67.97057192067782
 10
52.39126227012447
 20
67.98662553193214
 10
52.38390271491769
 20
68.00190478271331
 10
52.37514667545422
 20
68.01632093837618
 10
52.36508134438695
 20
68.02978526427565
 10
52.35379391436868
 20
68.04220902576668
 10
52.34137157805228
 20
68.05350348820415
 10
52.32790152809061
 20
68.06357991694288
 10
52.31347095713648
 20
68.07234957733786
 10
52.29816705784275
 20
68.07972373474396
 10
52.28207702286228
 20
68.08561365451611
 10
52.26528804484789
 20
68.08993060200918
 10
52.24788731645246
 20
68.09258584257808
 10
52.22996203032902
 20
68.093490641578
 10
52.21208723276992
 20
68.09258579585129
 10
52.19473040442667
 20
68.08993022819311
 10
52.17797887813324
 20
68.08561239288628
 10
52.1619199867236
 20
68.0797207442137
 10
52.14664106303168
 20
68.07234373645825
 10
52.13222943989145
 20
68.0635698239028
 10
52.1187724501369
 20
68.05348746083018
 10
52.10635742660196
 20
68.04218510152328
 10
52.09507170212059
 20
68.02975120026504
 10
52.08500260952678
 20
68.01627421133824
 10
52.07623748165443
 20
68.00184258902579
 10
52.06886365133756
 20
67.98654478761052
 10
52.06296845141011
 20
67.97046926137537
 10
52.05863921470602
 20
67.95370446460317
 10
52.05596327405928
 20
67.93633885157679
 10
52.05502796230389
 20
67.91846087658206
 10
52.05596327405915
 20
67.93633885157802
 10
52.0586392147054
 20
67.95370446460285
 10
52.06296845140864
 20
67.97046926137359
 10
52.06886365133499
 20
67.9865447876075
 10
52.07623748165049
 20
68.00184258902165
 10
52.08500260952122
 20
68.01627421133324
 10
52.09507170211323
 20
68.02975120025941
 10
52.1063574265926
 20
68.04218510151732
 10
52.11877245012537
 20
68.05348746082414
 10
52.13222943987766
 20
68.06356982389702
 10
52.14664106301548
 20
68.07234373645309
 10
52.16191998670494
 20
68.07972074420954
 10
52.1779788781121
 20
68.0856123928835
 10
52.19473040440298
 20
68.08993022819215
 10
52.21208723274369
 20
68.09258579585263
  0
LWPOLYLINE
  5
2BD
330
17EC
100
AcDbEntity
  8
GAIKEI
 62
     1
100
AcDbPolyline
 90
       64
 70
     1
 43
0.0
 10
52.22996203032909
 20
56.99350295869503
 10
52.21208723276998
 20
56.99440670633635
 10
52.19473040442673
 20
56.99705907319245
 10
52.17797887813329
 20
57.00137174516157
 10
52.16191998672365
 20
57.00725640814196
 10
52.14664106303173
 20
57.01462474803189
 10
52.13222943989151
 20
57.02338845072956
 10
52.11877245013695
 20
57.03345920213322
 10
52.10635742660201
 20
57.04474868814113
 10
52.09507170212066
 20
57.05716859465153
 10
52.08500260952682
 20
57.07063060756268
 10
52.0762374816545
 20
57.08504641277279
 10
52.06886365133762
 20
57.1003276961801
 10
52.06296845141015
 20
57.1163861436829
 10
52.05863921470608
 20
57.13313344117938
 10
52.05596327405935
 20
57.15048127456782
 10
52.05502796230389
 20
57.16834132974647
 10
52.05596327405935
 20
57.15048127456787
 10
52.05863921470609
 20
57.13313344117944
 10
52.06296845141018
 20
57.11638614368297
 10
52.06886365133765
 20
57.10032769618019
 10
52.07623748165453
 20
57.08504641277286
 10
52.08500260952686
 20
57.07063060756278
 10
52.09507170212068
 20
57.05716859465166
 10
52.10635742660206
 20
57.04474868814126
 10
52.118772450137
 20
57.03345920213336
 10
52.13222943989157
 20
57.02338845072971
 10
52.14664106303178
 20
57.01462474803205
 10
52.16191998672371
 20
57.00725640814215
 10
52.17797887813338
 20
57.00137174516176
 10
52.19473040442682
 20
56.99705907319264
 10
52.21208723277007
 20
56.99440670633658
 10
52.22996203032949
 20
56.99350295869567
 10
52.2478557757025
 20
56.99440460362032
 10
52.26523309385192
 20
56.99705122305078
 10
52.28200595103821
 20
57.00135534397199
 10
52.29808631352182
 20
57.00722949336888
 10
52.31338614756324
 20
57.01458619822638
 10
52.32781741942294
 20
57.02333798552942
 10
52.34129209536138
 20
57.0333973822629
 10
52.35372214163906
 20
57.04467691541178
 10
52.36501952451639
 20
57.05708911196095
 10
52.37509621025392
 20
57.07054649889538
 10
52.38386416511207
 20
57.08496160319995
 10
52.39123535535132
 20
57.10024695185961
 10
52.39712174723215
 20
57.11631507185932
 10
52.40143530701502
 20
57.13307849018396
 10
52.40408800096041
 20
57.15044973381846
 10
52.40499179532911
 20
57.16834132975043
 10
52.40408800096094
 20
57.15044973382303
 10
52.40143530701611
 20
57.13307849019031
 10
52.39712174723409
 20
57.11631507186732
 10
52.39123535535443
 20
57.1002469518691
 10
52.38386416511658
 20
57.08496160321072
 10
52.37509621026007
 20
57.07054649890721
 10
52.36501952452442
 20
57.05708911197362
 10
52.35372214164909
 20
57.04467691542499
 10
52.34129209537363
 20
57.03339738227638
 10
52.3278174194375
 20
57.02333798554282
 10
52.31338614758023
 20
57.01458619823939
 10
52.2980863135413
 20
57.00722949338109
 10
52.28200595106023
 20
57.00135534398302
 10
52.2652330938765
 20
56.99705122306017
 10
52.24785577572966
 20
56.99440460362764
  0
LWPOLYLINE
  5
2BE
330
17EC
100
AcDbEntity
  8
GAIKEI
 62
     1
100
AcDbPolyline
 90
       18
 70
     0
 43
0.0
 10
54.00504519652128
 20
61.31469980862817
 10
54.0050451965213
 20
57.16834132974647
 10
54.01880163649867
 20
57.10032769618019
 10
54.05631485021086
 20
57.04474868814126
 10
54.111950678328
 20
57.00725640814215
 10
54.18007496152039
 20
56.99350295869567
 10
54.24811550986058
 20
57.0072564081427
 10
54.30373937585594
 20
57.04474868814196
 10
54.34124062744632
 20
57.10032769618104
 10
54.35491333257382
 20
57.16834132974391
 10
54.34124062744889
 20
57.1003276961773
 10
54.30373937585881
 20
57.04474868813806
 10
54.24811550986382
 20
57.00725640813859
 10
54.18007496152132
 20
56.9935029586959
 10
54.1119506783355
 20
57.00725640814031
 10
54.0563148502217
 20
57.04474868813279
 10
54.01880163650812
 20
57.10032769616258
 10
54.00504519652295
 20
57.16834132971893
  0
LWPOLYLINE
  5
2BF
330
17EC
100
AcDbEntity
  8
GAIKEI
 62
     1
100
AcDbPolyline
 90
       18
 70
     0
 43
0.0
 10
54.35510472651919
 20
63.77210239769766
 10
54.35491333257156
 20
67.91846087657916
 10
54.34118679789842
 20
67.98654478761054
 10
54.30373937585564
 20
68.04218510152324
 10
54.24816933940786
 20
68.07972074421354
 10
54.1800749615195
 20
68.093490641578
 10
54.11198058363151
 20
68.07971775368327
 10
54.05641054718375
 20
68.04216117727986
 10
54.01896312514093
 20
67.98646404328893
 10
54.00523659046697
 20
67.91826948263457
 10
54.0189631251397
 20
67.98646404329217
 10
54.05641054718203
 20
68.04216117728339
 10
54.11198058362931
 20
68.07971775368709
 10
54.18007496152132
 20
68.09349064158414
 10
54.2481693394028
 20
68.07972074422322
 10
54.30373937584707
 20
68.04218510154043
 10
54.34118679789108
 20
67.98654478763783
 10
54.35491333257183
 20
67.91846087661738
  0
LINE
  5
2C0
330
17EC
100
AcDbEntity
  8
GAIKEI
 62
     1
100
AcDbLine
 10
46.20516799999999
 20
67.918652
 30
0.0
 11
46.20516799999999
 21
63.772102
 31
0.0
  0
LINE
  5
2C1
330
17EC
100
AcDbEntity
  8
GAIKEI
 62
     1
100
AcDbLine
 10
46.555036
 20
57.168341
 30
0.0
 11
46.555227
 21
61.3147
 31
0.0
  0
LINE
  5
2C2
330
17EC
100
AcDbEntity
  8
GAIKEI
 62
     1
100
AcDbLine
 10
48.505053
 20
57.168341
 30
0.0
 11
48.505244
 21
61.314413
 31
0.0
  0
LINE
  5
2C3
330
17EC
100
AcDbEntity
  8
GAIKEI
 62
     1
100
AcDbLine
 10
48.15499299999999
 20
67.918652
 30
0.0
 11
48.15499299999999
 21
63.772102
 31
0.0
  0
LINE
  5
2C4
330
17EC
100
AcDbEntity
  8
GAIKEI
 62
     1
100
AcDbLine
 10
48.505053
 20
63.772294
 30
0.0
 11
48.505244
 21
67.918652
 31
0.0
  0
LINE
  5
2C5
330
17EC
100
AcDbEntity
  8
GAIKEI
 62
     1
100
AcDbLine
 10
48.15499299999999
 20
61.3147
 30
0.0
 11
48.15499299999999
 21
57.168341
 31
0.0
  0
LWPOLYLINE
  5
2C6
330
17EC
100
AcDbEntity
  8
GAIKEI
 62
     1
100
AcDbPolyline
 90
        4
 70
     1
 43
0.0
 10
49.43015599999999
 20
59.63349499999999
 10
50.10510599999999
 20
59.63349499999999
 10
50.10510599999999
 20
59.573493
 10
49.43015599999999
 20
59.57330200000001
  0
LWPOLYLINE
  5
2C7
330
17EC
100
AcDbEntity
  8
GAIKEI
 62
     1
100
AcDbPolyline
 90
        4
 70
     1
 43
0.0
 10
49.43015599999999
 20
67.41318099999999
 10
49.429964
 20
67.47337400000001
 10
50.10510599999999
 20
67.47337400000001
 10
50.10510599999999
 20
67.413372
  0
LWPOLYLINE
  5
2C8
330
17EC
100
AcDbEntity
  8
GAIKEI
 62
     1
100
AcDbPolyline
 90
        4
 70
     1
 43
0.0
 10
47.480234
 20
67.47337400000001
 10
48.15518499999999
 20
67.47337400000001
 10
48.15518499999999
 20
67.413372
 10
47.480234
 20
67.413372
  0
LWPOLYLINE
  5
2C9
330
17EC
100
AcDbEntity
  8
GAIKEI
 62
     1
100
AcDbPolyline
 90
        4
 70
     1
 43
0.0
 10
47.480234
 20
59.573493
 10
47.480043
 20
59.63349499999999
 10
48.15499299999999
 20
59.633687
 10
48.154802
 20
59.573493
  0
LWPOLYLINE
  5
2CA
330
17EC
100
AcDbEntity
  8
GAIKEI
 62
     1
100
AcDbPolyline
 90
        4
 70
     1
 43
0.0
 10
47.480234
 20
58.65355799999999
 10
48.15499299999999
 20
58.65355799999999
 10
48.15499299999999
 20
58.59336500000001
 10
47.480043
 20
58.59336500000001
  0
LWPOLYLINE
  5
2CB
330
17EC
100
AcDbEntity
  8
GAIKEI
 62
     1
100
AcDbPolyline
 90
        4
 70
     1
 43
0.0
 10
47.480043
 20
57.61342800000001
 10
47.480234
 20
57.67362099999999
 10
48.15518499999999
 20
57.67362099999999
 10
48.15499299999999
 20
57.61342800000001
  0
LWPOLYLINE
  5
2CC
330
17EC
100
AcDbEntity
  8
GAIKEI
 62
     1
100
AcDbPolyline
 90
        4
 70
     1
 43
0.0
 10
48.979901
 20
57.61342800000001
 10
48.505053
 20
57.61342800000001
 10
48.505244
 20
57.67362099999999
 10
48.980093
 20
57.67362099999999
  0
LWPOLYLINE
  5
2CD
330
17EC
100
AcDbEntity
  8
GAIKEI
 62
     1
100
AcDbPolyline
 90
        4
 70
     1
 43
0.0
 10
48.505053
 20
58.59336500000001
 10
48.505053
 20
58.653367
 10
48.980093
 20
58.653176
 10
48.979901
 20
58.59336500000001
  0
LWPOLYLINE
  5
2CE
330
17EC
100
AcDbEntity
  8
GAIKEI
 62
     1
100
AcDbPolyline
 90
        4
 70
     1
 43
0.0
 10
48.980093
 20
59.57330200000001
 10
48.505053
 20
59.573493
 10
48.505053
 20
59.63349499999999
 10
48.979901
 20
59.63349499999999
  0
LWPOLYLINE
  5
2CF
330
17EC
100
AcDbEntity
  8
GAIKEI
 62
     1
100
AcDbPolyline
 90
        4
 70
     1
 43
0.0
 10
48.505244
 20
67.41318099999999
 10
48.505053
 20
67.473566
 10
48.980093
 20
67.47337400000001
 10
48.980093
 20
67.41318099999999
  0
LWPOLYLINE
  5
2D0
330
17EC
100
AcDbEntity
  8
GAIKEI
 62
     1
100
AcDbPolyline
 90
        4
 70
     1
 43
0.0
 10
48.979901
 20
65.433498
 10
48.505053
 20
65.433115
 10
48.505244
 20
65.533501
 10
48.979901
 20
65.533501
  0
LWPOLYLINE
  5
2D1
330
17EC
100
AcDbEntity
  8
GAIKEI
 62
     1
100
AcDbPolyline
 90
        4
 70
     1
 43
0.0
 10
47.480043
 20
65.433306
 10
47.480043
 20
65.533501
 10
48.15499299999999
 20
65.53331
 10
48.15499299999999
 20
65.433306
  0
LWPOLYLINE
  5
2D2
330
17EC
100
AcDbEntity
  8
GAIKEI
 62
     1
100
AcDbPolyline
 90
        4
 70
     1
 43
0.0
 10
45.530026
 20
65.53331
 10
46.204976
 20
65.533501
 10
46.20516799999999
 20
65.433498
 10
45.530026
 20
65.433498
  0
LWPOLYLINE
  5
2D3
330
17EC
100
AcDbEntity
  8
GAIKEI
 62
     1
100
AcDbPolyline
 90
        4
 70
     1
 43
0.0
 10
46.555227
 20
65.433498
 10
46.555036
 20
65.533692
 10
47.030076
 20
65.533501
 10
47.030076
 20
65.433306
  0
LWPOLYLINE
  5
2D4
330
17EC
100
AcDbEntity
  8
GAIKEI
 62
     1
100
AcDbPolyline
 90
        4
 70
     1
 43
0.0
 10
47.030076
 20
67.41356399999999
 10
46.555036
 20
67.413372
 10
46.555227
 20
67.47337400000001
 10
47.030076
 20
67.473566
  0
LWPOLYLINE
  5
2D5
330
17EC
100
AcDbEntity
  8
GAIKEI
 62
     1
100
AcDbPolyline
 90
        4
 70
     1
 43
0.0
 10
46.555036
 20
59.57330200000001
 10
46.555227
 20
59.63349499999999
 10
47.030076
 20
59.63349499999999
 10
47.030076
 20
59.573493
  0
LWPOLYLINE
  5
2D6
330
17EC
100
AcDbEntity
  8
GAIKEI
 62
     1
100
AcDbPolyline
 90
        4
 70
     1
 43
0.0
 10
47.029884
 20
58.59336500000001
 10
46.555036
 20
58.59336500000001
 10
46.555227
 20
58.65355799999999
 10
47.030076
 20
58.653367
  0
LWPOLYLINE
  5
2D7
330
17EC
100
AcDbEntity
  8
GAIKEI
 62
     1
100
AcDbPolyline
 90
        4
 70
     1
 43
0.0
 10
46.555227
 20
57.67362099999999
 10
47.030076
 20
57.67362099999999
 10
47.030076
 20
57.61342800000001
 10
46.555227
 20
57.61342800000001
  0
LWPOLYLINE
  5
2D8
330
17EC
100
AcDbEntity
  8
GAIKEI
 62
     1
100
AcDbPolyline
 90
        4
 70
     1
 43
0.0
 10
45.530026
 20
57.67343
 10
46.20516799999999
 20
57.67362099999999
 10
46.20516799999999
 20
57.61342800000001
 10
45.530217
 20
57.61342800000001
  0
LWPOLYLINE
  5
2D9
330
17EC
100
AcDbEntity
  8
GAIKEI
 62
     1
100
AcDbPolyline
 90
        4
 70
     1
 43
0.0
 10
45.530026
 20
58.59336500000001
 10
45.530217
 20
58.65355799999999
 10
46.20516799999999
 20
58.653176
 10
46.204976
 20
58.59336500000001
  0
LWPOLYLINE
  5
2DA
330
17EC
100
AcDbEntity
  8
GAIKEI
 62
     1
100
AcDbPolyline
 90
        4
 70
     1
 43
0.0
 10
45.530026
 20
59.63349499999999
 10
46.20516799999999
 20
59.63349499999999
 10
46.20516799999999
 20
59.573493
 10
45.530026
 20
59.57330200000001
  0
LWPOLYLINE
  5
2DB
330
17EC
100
AcDbEntity
  8
GAIKEI
 62
     1
100
AcDbPolyline
 90
        4
 70
     1
 43
0.0
 10
45.530026
 20
67.41356399999999
 10
45.530026
 20
67.47337400000001
 10
46.20516799999999
 20
67.47337400000001
 10
46.204976
 20
67.413372
  0
LWPOLYLINE
  5
2DC
330
17EC
100
AcDbEntity
  8
GAIKEI
 62
     1
100
AcDbPolyline
 90
        4
 70
     1
 43
0.0
 10
41.631235
 20
57.671229
 10
42.30618599999999
 20
57.67103800000001
 10
42.306377
 20
57.611227
 10
41.631235
 20
57.611227
  0
LWPOLYLINE
  5
2DD
330
17EC
100
AcDbEntity
  8
GAIKEI
 62
     1
100
AcDbPolyline
 90
        4
 70
     1
 43
0.0
 10
41.63142599999999
 20
58.590973
 10
41.631235
 20
58.651166
 10
42.306377
 20
58.651166
 10
42.30618599999999
 20
58.590973
  0
LWPOLYLINE
  5
2DE
330
17EC
100
AcDbEntity
  8
GAIKEI
 62
     1
100
AcDbPolyline
 90
        4
 70
     1
 43
0.0
 10
41.63142599999999
 20
59.631103
 10
42.306377
 20
59.631103
 10
42.30618599999999
 20
59.571101
 10
41.631235
 20
59.571101
  0
LWPOLYLINE
  5
2DF
330
17EC
100
AcDbEntity
  8
GAIKEI
 62
     1
100
AcDbPolyline
 90
        4
 70
     1
 43
0.0
 10
41.63142599999999
 20
67.41126700000001
 10
41.631235
 20
67.47117299999999
 10
42.306377
 20
67.470982
 10
42.30618599999999
 20
67.41145799999999
  0
LWPOLYLINE
  5
2E0
330
17EC
100
AcDbEntity
  8
GAIKEI
 62
     1
100
AcDbPolyline
 90
       18
 70
     0
 43
0.0
 10
42.30618585187568
 20
61.31211599033679
 10
42.30618585187554
 20
57.16594890540257
 10
42.31994528238328
 20
57.09799059664915
 10
42.3574794298084
 20
57.04243999864925
 10
42.41317207800365
 20
57.00495818550657
 10
42.48140701082207
 20
56.99120623132468
 10
42.54942064438836
 20
57.00495818550645
 10
42.60499965242731
 20
57.04243999864921
 10
42.64249193242645
 20
57.0979905966492
 10
42.65624538187775
 20
57.16594890540371
 10
42.6424919324313
 20
57.09799059665033
 10
42.60499965243261
 20
57.04243999865044
 10
42.54942064439418
 20
57.00495818550777
 10
42.48140701082229
 20
56.9912062313233
 10
42.41317207801022
 20
57.0049581855026
 10
42.35747942981791
 20
57.04243999863874
 10
42.31994528239095
 20
57.09799059662966
 10
42.30618585187491
 20
57.16594890537336
  0
LWPOLYLINE
  5
2E1
330
17EC
100
AcDbEntity
  8
GAIKEI
 62
     1
100
AcDbPolyline
 90
       18
 70
     0
 43
0.0
 10
42.65624538187359
 20
63.76999706427507
 10
42.65624538187341
 20
67.91606845223544
 10
42.64257267674799
 20
67.98419273542764
 10
42.60507142515742
 20
68.03982856354477
 10
42.54944755916191
 20
68.07734177725693
 10
42.48140701082207
 20
68.09109821723473
 10
42.41317207800385
 20
68.07731486248354
 10
42.35747942980848
 20
68.03975679081499
 10
42.3199452823832
 20
67.9841119911066
 10
42.30618585187836
 20
67.91606845223596
 10
42.31994528238656
 20
67.98411199110666
 10
42.35747942981219
 20
68.03975679081514
 10
42.41317207800796
 20
68.07731486248385
 10
42.48140701082411
 20
68.09109821723723
 10
42.54944755915832
 20
68.07734177726228
 10
42.60507142515085
 20
68.03982856355664
 10
42.64257267674324
 20
67.9841927354485
 10
42.65624538187699
 20
67.91606845226603
  0
LWPOLYLINE
  5
2E2
330
17EC
100
AcDbEntity
  8
GAIKEI
 62
     1
100
AcDbPolyline
 90
        4
 70
     1
 43
0.0
 10
39.67117
 20
57.67103800000001
 10
40.34631199999999
 20
57.671229
 10
40.34631199999999
 20
57.611036
 10
39.671361
 20
57.611227
  0
LWPOLYLINE
  5
2E3
330
17EC
100
AcDbEntity
  8
GAIKEI
 62
     1
100
AcDbPolyline
 90
        4
 70
     1
 43
0.0
 10
39.671361
 20
58.591164
 10
39.671361
 20
58.650975
 10
40.34631199999999
 20
58.650975
 10
40.34631199999999
 20
58.590973
  0
LWPOLYLINE
  5
2E4
330
17EC
100
AcDbEntity
  8
GAIKEI
 62
     1
100
AcDbPolyline
 90
        4
 70
     1
 43
0.0
 10
39.67117
 20
59.631103
 10
40.34631199999999
 20
59.631103
 10
40.34631199999999
 20
59.571292
 10
39.671361
 20
59.571292
  0
LWPOLYLINE
  5
2E5
330
17EC
100
AcDbEntity
  8
GAIKEI
 62
     1
100
AcDbPolyline
 90
        4
 70
     1
 43
0.0
 10
39.67117
 20
67.41145799999999
 10
39.67117
 20
67.470982
 10
40.34612
 20
67.470982
 10
40.34612
 20
67.41126700000001
  0
LWPOLYLINE
  5
2E6
330
17EC
100
AcDbEntity
  8
GAIKEI
 62
     1
100
AcDbPolyline
 90
       18
 70
     0
 43
0.0
 10
40.34631182936135
 20
61.31230738428428
 10
40.34631182936121
 20
57.16594890540257
 10
40.36004135456464
 20
57.09790985232757
 10
40.39750971032028
 20
57.04236822591894
 10
40.45313656684606
 20
57.0049312707327
 10
40.52134159436081
 20
56.99120623132468
 10
40.58943597224893
 20
57.00493127073258
 10
40.6450060086968
 20
57.04236822591889
 10
40.68245343073971
 20
57.09790985232761
 10
40.69617996541154
 20
57.16594890540371
 10
40.68245343073847
 20
57.09790985232872
 10
40.64500600869576
 20
57.04236822592014
 10
40.58943597224807
 20
57.00493127073391
 10
40.52134159436446
 20
56.99120623131967
 10
40.45313656685718
 20
57.00493127072465
 10
40.39750971033485
 20
57.04236822590383
 10
40.3600413545779
 20
57.09790985230293
 10
40.3463118293668
 20
57.16594890536764
  0
LWPOLYLINE
  5
2E7
330
17EC
100
AcDbEntity
  8
GAIKEI
 62
     1
100
AcDbPolyline
 90
       18
 70
     0
 43
0.0
 10
40.69617996541177
 20
63.76999706427507
 10
40.69637135935926
 20
67.91606845223544
 10
40.68261192885149
 20
67.98419273542764
 10
40.64507778142632
 20
68.03982856354477
 10
40.58938513323104
 20
68.07734177725693
 10
40.52115020041332
 20
68.09109821723473
 10
40.45305283199507
 20
68.07734476778787
 10
40.39746186183449
 20
68.03985248778875
 10
40.35995761971374
 20
67.98427347974982
 10
40.34612043541571
 20
67.9162598461814
 10
40.35995761971475
 20
67.98427347974744
 10
40.39746186183571
 20
68.0398524877861
 10
40.45305283199649
 20
68.07734476778496
 10
40.52115020041038
 20
68.09109821723723
 10
40.5893851332221
 20
68.07734177726228
 10
40.64507778141403
 20
68.03982856355664
 10
40.68261192884061
 20
67.9841927354485
 10
40.69637135935625
 20
67.91606845226603
  0
LWPOLYLINE
  5
2E8
330
17EC
100
AcDbEntity
  8
GAIKEI
 62
     1
100
AcDbPolyline
 90
        4
 70
     1
 43
0.0
 10
37.726511
 20
57.671229
 10
38.401367
 20
57.67103800000001
 10
38.401558
 20
57.611227
 10
37.726511
 20
57.611227
  0
LWPOLYLINE
  5
2E9
330
17EC
100
AcDbEntity
  8
GAIKEI
 62
     1
100
AcDbPolyline
 90
        4
 70
     1
 43
0.0
 10
37.726511
 20
58.590973
 10
37.726511
 20
58.651166
 10
38.401558
 20
58.651166
 10
38.401367
 20
58.591164
  0
LWPOLYLINE
  5
2EA
330
17EC
100
AcDbEntity
  8
GAIKEI
 62
     1
100
AcDbPolyline
 90
        4
 70
     1
 43
0.0
 10
37.726511
 20
59.631103
 10
38.401367
 20
59.631103
 10
38.401558
 20
59.571292
 10
37.72632
 20
59.571101
  0
LWPOLYLINE
  5
2EB
330
17EC
100
AcDbEntity
  8
GAIKEI
 62
     1
100
AcDbPolyline
 90
        4
 70
     1
 43
0.0
 10
37.726511
 20
67.41126700000001
 10
37.72632
 20
67.470982
 10
38.401558
 20
67.47117299999999
 10
38.401367
 20
67.41107599999999
  0
LWPOLYLINE
  5
2EC
330
17EC
100
AcDbEntity
  8
GAIKEI
 62
     1
100
AcDbPolyline
 90
       18
 70
     0
 43
0.0
 10
38.40136653475298
 20
61.31230738428428
 10
38.40136653475298
 20
57.16575751145507
 10
38.41512147946511
 20
57.09791284285799
 10
38.45262422632077
 20
57.04243999864927
 10
38.50823164439881
 20
57.00503593929775
 10
38.57630060277802
 20
56.99139762527125
 10
38.6445056302919
 20
57.00503892982696
 10
38.70013248681779
 20
57.04246392289133
 10
38.73760084257357
 20
57.09799358717808
 10
38.75133036777611
 20
57.16594890540447
 10
38.73760084257254
 20
57.09799358718165
 10
38.70013248681672
 20
57.04246392289492
 10
38.64450563029079
 20
57.00503892983056
 10
38.57630060278097
 20
56.99139762527011
 10
38.50823164440799
 20
57.00503593929291
 10
38.45262422633319
 20
57.04243999863767
 10
38.41512147947599
 20
57.09791284283721
 10
38.40136653475588
 20
57.16575751142433
  0
LWPOLYLINE
  5
2ED
330
17EC
100
AcDbEntity
  8
GAIKEI
 62
     1
100
AcDbPolyline
 90
       18
 70
     0
 43
0.0
 10
38.75133036777715
 20
63.77018845822255
 10
38.75133036777715
 20
67.91587705828789
 10
38.73760084257367
 20
67.98411199110603
 10
38.70013248681797
 20
68.03980463930132
 10
38.64450563029214
 20
68.0773387867265
 10
38.57630060277847
 20
68.09109821723473
 10
38.50823164439915
 20
68.07734177725743
 10
38.45262422632107
 20
68.03982856354529
 10
38.41512147946535
 20
67.98419273542818
 10
38.40136653475354
 20
67.91606845223386
 10
38.41512147946568
 20
67.98419273542582
 10
38.45262422632136
 20
68.03982856354267
 10
38.5082316443994
 20
68.07734177725452
 10
38.57630060277371
 20
68.09109821723723
 10
38.64450563028113
 20
68.07733878673184
 10
38.70013248680364
 20
68.03980463931321
 10
38.73760084256078
 20
67.98411199112691
 10
38.75133036777208
 20
67.91587705831853
  0
LWPOLYLINE
  5
2EE
330
17EC
100
AcDbEntity
  8
GAIKEI
 62
     1
100
AcDbPolyline
 90
        4
 70
     1
 43
0.0
 10
35.783097
 20
57.67103800000001
 10
36.458144
 20
57.671229
 10
36.458144
 20
57.61084399999999
 10
35.782906
 20
57.611036
  0
LWPOLYLINE
  5
2EF
330
17EC
100
AcDbEntity
  8
GAIKEI
 62
     1
100
AcDbPolyline
 90
        4
 70
     1
 43
0.0
 10
35.782906
 20
58.591164
 10
35.783097
 20
58.651166
 10
36.458144
 20
58.650975
 10
36.457952
 20
58.59078100000001
  0
LWPOLYLINE
  5
2F0
330
17EC
100
AcDbEntity
  8
GAIKEI
 62
     1
100
AcDbPolyline
 90
        4
 70
     1
 43
0.0
 10
35.782906
 20
59.631103
 10
36.458144
 20
59.63129399999999
 10
36.458144
 20
59.571101
 10
35.783097
 20
59.571292
  0
LWPOLYLINE
  5
2F1
330
17EC
100
AcDbEntity
  8
GAIKEI
 62
     1
100
AcDbPolyline
 90
        4
 70
     1
 43
0.0
 10
35.783097
 20
67.41126700000001
 10
35.783097
 20
67.470982
 10
36.458144
 20
67.47117299999999
 10
36.458144
 20
67.41107599999999
  0
LWPOLYLINE
  5
2F2
330
17EC
100
AcDbEntity
  8
GAIKEI
 62
     1
100
AcDbPolyline
 90
       18
 70
     0
 43
0.0
 10
36.45814378567223
 20
61.31249877823177
 10
36.45814378567207
 20
57.1659489054025
 10
36.47181948132775
 20
57.09801751142294
 10
36.50934166663115
 20
57.04251177137948
 10
36.56502235270462
 20
57.00503892982806
 10
36.63317355067113
 20
56.99120623132468
 10
36.70124250905046
 20
57.00495818550645
 10
36.75684992712853
 20
57.04243999864921
 10
36.79435267398421
 20
57.0979905966492
 10
36.80810761869889
 20
57.16594890540371
 10
36.794352673987
 20
57.09799059665033
 10
36.7568499271316
 20
57.04243999865044
 10
36.7012425090538
 20
57.00495818550777
 10
36.63317355067285
 20
56.99120623133057
 10
36.56502235271311
 20
57.00503892983213
 10
36.50934166664286
 20
57.04251177137763
 10
36.47181948133797
 20
57.09801751141279
 10
36.45814378567429
 20
57.16594890538331
  0
LWPOLYLINE
  5
2F3
330
17EC
100
AcDbEntity
  8
GAIKEI
 62
     1
100
AcDbPolyline
 90
       18
 70
     0
 43
0.0
 10
36.80810761869639
 20
63.76999706427507
 10
36.80810761869623
 20
67.91625984618304
 10
36.794352673984
 20
67.98427347974939
 10
36.75684992712824
 20
68.03985248778841
 10
36.70124250905006
 20
68.07734476778761
 10
36.63317355067136
 20
68.09109821723518
 10
36.56504926747913
 20
68.07734476778836
 10
36.50941343936203
 20
68.03985248778928
 10
36.47190022564988
 20
67.98427347975042
 10
36.45814378567335
 20
67.91625984617855
 10
36.47190022565077
 20
67.98427347974421
 10
36.50941343936301
 20
68.03985248778246
 10
36.56504926748021
 20
68.0773447677809
 10
36.63317355067285
 20
68.09109821722813
 10
36.70124250904608
 20
68.07734476778293
 10
36.75684992712115
 20
68.03985248778959
 10
36.79435267397861
 20
67.9842734797589
 10
36.80810761869898
 20
67.91625984620157
  0
LWPOLYLINE
  5
2F4
330
17EC
100
AcDbEntity
  8
GAIKEI
 62
     1
100
AcDbPolyline
 90
        4
 70
     1
 43
0.0
 10
33.826381
 20
57.67103800000001
 10
34.501332
 20
57.67103800000001
 10
34.501332
 20
57.611036
 10
33.826381
 20
57.611036
  0
LWPOLYLINE
  5
2F5
330
17EC
100
AcDbEntity
  8
GAIKEI
 62
     1
100
AcDbPolyline
 90
        4
 70
     1
 43
0.0
 10
33.826573
 20
58.651166
 10
34.501619
 20
58.651166
 10
34.501619
 20
58.590973
 10
33.826573
 20
58.590973
  0
LWPOLYLINE
  5
2F6
330
17EC
100
AcDbEntity
  8
GAIKEI
 62
     1
100
AcDbPolyline
 90
        4
 70
     1
 43
0.0
 10
33.826573
 20
59.631103
 10
34.501332
 20
59.631103
 10
34.501332
 20
59.571292
 10
33.826381
 20
59.571292
  0
LWPOLYLINE
  5
2F7
330
17EC
100
AcDbEntity
  8
GAIKEI
 62
     1
100
AcDbPolyline
 90
        4
 70
     1
 43
0.0
 10
33.826381
 20
67.41107599999999
 10
33.826573
 20
67.470982
 10
34.501619
 20
67.470982
 10
34.501619
 20
67.41126700000001
  0
LWPOLYLINE
  5
2F8
330
17EC
100
AcDbEntity
  8
GAIKEI
 62
     1
100
AcDbPolyline
 90
       18
 70
     0
 43
0.0
 10
34.50133206631818
 20
61.31249877823177
 10
34.50133206631804
 20
57.16594890540257
 10
34.51510196368227
 20
57.09799059664915
 10
34.55263760637259
 20
57.04243999864925
 10
34.60827792028529
 20
57.00495818550657
 10
34.67636183131731
 20
56.99120623132468
 10
34.74451601981386
 20
57.00495818550645
 10
34.80021763960045
 20
57.04243999864921
 10
34.83779664498205
 20
57.0979905966492
 10
34.85158299026603
 20
57.16594890540371
 10
34.83779664498474
 20
57.09799059665033
 10
34.80021763960348
 20
57.04243999865044
 10
34.74451601981729
 20
57.00495818550777
 10
34.67636183132345
 20
56.9912062313233
 10
34.60827792029893
 20
57.0049581855026
 10
34.55263760639008
 20
57.04243999863874
 10
34.51510196369888
 20
57.09799059662966
 10
34.50133206632739
 20
57.16594890537336
  0
LWPOLYLINE
  5
2F9
330
17EC
100
AcDbEntity
  8
GAIKEI
 62
     1
100
AcDbPolyline
 90
       18
 70
     0
 43
0.0
 10
34.85139159631609
 20
63.77018845822255
 10
34.85158299026358
 20
67.91587705828789
 10
34.83782355975578
 20
67.98411199110603
 10
34.80028941233057
 20
68.03980463930132
 10
34.74459676413522
 20
68.0773387867265
 10
34.67636183131685
 20
68.09109821723473
 10
34.608282406081
 20
68.07731486248354
 10
34.55267349273768
 20
68.03975679081499
 10
34.51522308016448
 20
67.9841119911066
 10
34.5016191572418
 20
67.91606845223596
 10
34.51522308016755
 20
67.98411199110666
 10
34.55267349274102
 20
68.03975679081514
 10
34.60828240608459
 20
68.07731486248385
 10
34.67636183131981
 20
68.09109821723723
 10
34.74459676413175
 20
68.07733878673184
 10
34.8002894123239
 20
68.03980463931321
 10
34.83782355975068
 20
67.98411199112691
 10
34.85158299026649
 20
67.91587705831853
  0
LWPOLYLINE
  5
2FA
330
17EC
100
AcDbEntity
  8
GAIKEI
 62
     1
100
AcDbPolyline
 90
        4
 70
     1
 43
0.0
 10
31.883159
 20
57.671229
 10
32.558014
 20
57.671229
 10
32.558205
 20
57.611227
 10
31.883159
 20
57.611036
  0
LWPOLYLINE
  5
2FB
330
17EC
100
AcDbEntity
  8
GAIKEI
 62
     1
100
AcDbPolyline
 90
        4
 70
     1
 43
0.0
 10
31.882967
 20
58.590973
 10
31.883159
 20
58.651166
 10
32.558205
 20
58.650975
 10
32.558014
 20
58.591164
  0
LWPOLYLINE
  5
2FC
330
17EC
100
AcDbEntity
  8
GAIKEI
 62
     1
100
AcDbPolyline
 90
        4
 70
     1
 43
0.0
 10
31.883159
 20
59.631103
 10
32.558205
 20
59.631103
 10
32.558205
 20
59.57091
 10
31.883159
 20
59.57091
  0
LWPOLYLINE
  5
2FD
330
17EC
100
AcDbEntity
  8
GAIKEI
 62
     1
100
AcDbPolyline
 90
        4
 70
     1
 43
0.0
 10
31.883159
 20
67.41126700000001
 10
31.883159
 20
67.470982
 10
32.558014
 20
67.470982
 10
32.558014
 20
67.41107599999999
  0
LWPOLYLINE
  5
2FE
330
17EC
100
AcDbEntity
  8
GAIKEI
 62
     1
100
AcDbPolyline
 90
       18
 70
     0
 43
0.0
 10
32.55820501421118
 20
61.31249877823177
 10
32.55801362026355
 20
57.16594890540259
 10
32.57185229982778
 20
57.09802050195346
 10
32.60936700880522
 20
57.04253569562302
 10
32.66498638900499
 20
57.00511967414979
 10
32.73313908223622
 20
56.99139762527125
 10
32.80123346012405
 20
57.00501201505304
 10
32.85680349657166
 20
57.04239215016098
 10
32.8942509186143
 20
57.09791284285646
 10
32.9079774532874
 20
57.16594890540273
 10
32.89425091861438
 20
57.09791284285797
 10
32.8568034965717
 20
57.04239215016215
 10
32.80123346012407
 20
57.00501201505389
 10
32.73313908223918
 20
56.9913976252792
 10
32.66498638901422
 20
57.00511967415481
 10
32.60936700881777
 20
57.04253569562212
 10
32.57185229983892
 20
57.09802050194419
 10
32.55801362026686
 20
57.1659489053842
  0
LWPOLYLINE
  5
2FF
330
17EC
100
AcDbEntity
  8
GAIKEI
 62
     1
100
AcDbPolyline
 90
       18
 70
     0
 43
0.0
 10
32.90797745328774
 20
63.77018845822255
 10
32.90797745328772
 20
67.91625984618304
 10
32.89432867240584
 20
67.98427347974939
 10
32.85685134505879
 20
68.03985248778841
 10
32.80117963057644
 20
68.07734476778761
 10
32.73294768828896
 20
68.09109821723518
 10
32.66498638900517
 20
68.07734177725793
 10
32.60941485729228
 20
68.03982856354585
 10
32.57187622407141
 20
67.98419273542883
 10
32.55801362026378
 20
67.91606845223106
 10
32.57187622407153
 20
67.98419273542261
 10
32.6094148572925
 20
68.03982856353903
 10
32.66498638900549
 20
68.07734177725045
 10
32.73294768828964
 20
68.09109821722813
 10
32.80117963057118
 20
68.07734476778293
 10
32.85685134505038
 20
68.03985248778959
 10
32.89432867239906
 20
67.9842734797589
 10
32.90797745328902
 20
67.91625984620157
  0
LINE
  5
300
330
17EC
100
AcDbEntity
  8
GAIKEI
 62
     1
100
AcDbLine
 10
36.079854
 20
72.09084900000002
 30
0.0
 11
36.779686
 21
72.09084900000002
 31
0.0
  0
LINE
  5
301
330
17EC
100
AcDbEntity
  8
GAIKEI
 62
     1
100
AcDbLine
 10
36.779686
 20
72.09084900000002
 30
0.0
 11
36.779686
 21
71.39073000000002
 31
0.0
  0
LINE
  5
302
330
17EC
100
AcDbEntity
  8
GAIKEI
 62
     1
100
AcDbLine
 10
36.779686
 20
71.39073000000002
 30
0.0
 11
36.079854
 21
71.39073000000002
 31
0.0
  0
LINE
  5
303
330
17EC
100
AcDbEntity
  8
GAIKEI
 62
     1
100
AcDbLine
 10
36.079854
 20
71.39073000000002
 30
0.0
 11
36.079854
 21
72.09084900000002
 31
0.0
  0
LINE
  5
304
330
17EC
100
AcDbEntity
  8
GAIKEI
 62
     1
100
AcDbLine
 10
36.079854
 20
72.09084900000002
 30
0.0
 11
36.779686
 21
72.09084900000002
 31
0.0
  0
LINE
  5
305
330
17EC
100
AcDbEntity
  8
GAIKEI
 62
     1
100
AcDbLine
 10
36.779686
 20
72.09084900000002
 30
0.0
 11
36.779686
 21
71.39073000000002
 31
0.0
  0
LINE
  5
306
330
17EC
100
AcDbEntity
  8
GAIKEI
 62
     1
100
AcDbLine
 10
36.779686
 20
71.39073000000002
 30
0.0
 11
36.079854
 21
71.39073000000002
 31
0.0
  0
LINE
  5
307
330
17EC
100
AcDbEntity
  8
GAIKEI
 62
     1
100
AcDbLine
 10
36.079854
 20
71.39073000000002
 30
0.0
 11
36.079854
 21
72.09084900000002
 31
0.0
  0
LINE
  5
308
330
17EC
100
AcDbEntity
  8
GAIKEI
 62
     1
100
AcDbLine
 10
43.87973099999999
 20
67.340643
 30
0.0
 11
43.87973099999999
 21
68.040953
 31
0.0
  0
LINE
  5
309
330
17EC
100
AcDbEntity
  8
GAIKEI
 62
     1
100
AcDbLine
 10
43.87973099999999
 20
68.040953
 30
0.0
 11
44.57984999999999
 21
68.040953
 31
0.0
  0
LINE
  5
30A
330
17EC
100
AcDbEntity
  8
GAIKEI
 62
     1
100
AcDbLine
 10
44.57984999999999
 20
68.040953
 30
0.0
 11
44.57984999999999
 21
67.340643
 31
0.0
  0
LINE
  5
30B
330
17EC
100
AcDbEntity
  8
GAIKEI
 62
     1
100
AcDbLine
 10
44.57984999999999
 20
67.340643
 30
0.0
 11
43.87973099999999
 21
67.340643
 31
0.0
  0
LINE
  5
30C
330
17EC
100
AcDbEntity
  8
GAIKEI
 62
     1
100
AcDbLine
 10
43.87973099999999
 20
67.340643
 30
0.0
 11
43.87973099999999
 21
68.040953
 31
0.0
  0
LINE
  5
30D
330
17EC
100
AcDbEntity
  8
GAIKEI
 62
     1
100
AcDbLine
 10
43.87973099999999
 20
68.040953
 30
0.0
 11
44.57984999999999
 21
68.040953
 31
0.0
  0
LINE
  5
30E
330
17EC
100
AcDbEntity
  8
GAIKEI
 62
     1
100
AcDbLine
 10
44.57984999999999
 20
68.040953
 30
0.0
 11
44.57984999999999
 21
67.340643
 31
0.0
  0
LINE
  5
30F
330
17EC
100
AcDbEntity
  8
GAIKEI
 62
     1
100
AcDbLine
 10
44.57984999999999
 20
67.340643
 30
0.0
 11
43.87973099999999
 21
67.340643
 31
0.0
  0
LINE
  5
310
330
17EC
100
AcDbEntity
  8
GAIKEI
 62
     1
100
AcDbLine
 10
43.72987
 20
72.04079900000002
 30
0.0
 11
43.72987
 21
71.44077900000002
 31
0.0
  0
LINE
  5
311
330
17EC
100
AcDbEntity
  8
GAIKEI
 62
     1
100
AcDbLine
 10
43.72987
 20
71.44077900000002
 30
0.0
 11
44.72980699999999
 21
71.44077900000002
 31
0.0
  0
LINE
  5
312
330
17EC
100
AcDbEntity
  8
GAIKEI
 62
     1
100
AcDbLine
 10
44.72980699999999
 20
71.44077900000002
 30
0.0
 11
44.72980699999999
 21
72.04079900000002
 31
0.0
  0
LINE
  5
313
330
17EC
100
AcDbEntity
  8
GAIKEI
 62
     1
100
AcDbLine
 10
44.72980699999999
 20
72.04079900000002
 30
0.0
 11
43.72987
 21
72.04079900000002
 31
0.0
  0
LINE
  5
314
330
17EC
100
AcDbEntity
  8
GAIKEI
 62
     1
100
AcDbLine
 10
43.72987
 20
72.04079900000002
 30
0.0
 11
44.72980699999999
 21
72.04079900000002
 31
0.0
  0
LINE
  5
315
330
17EC
100
AcDbEntity
  8
GAIKEI
 62
     1
100
AcDbLine
 10
44.72980699999999
 20
72.04079900000002
 30
0.0
 11
44.72980699999999
 21
71.44077900000002
 31
0.0
  0
LINE
  5
316
330
17EC
100
AcDbEntity
  8
GAIKEI
 62
     1
100
AcDbLine
 10
44.72980699999999
 20
71.44077900000002
 30
0.0
 11
43.72987
 21
71.44077900000002
 31
0.0
  0
LINE
  5
317
330
17EC
100
AcDbEntity
  8
GAIKEI
 62
     1
100
AcDbLine
 10
43.72987
 20
71.44077900000002
 30
0.0
 11
43.72987
 21
72.04079900000002
 31
0.0
  0
LINE
  5
318
330
17EC
100
AcDbEntity
  8
GAIKEI
 62
     1
100
AcDbLine
 10
43.72987
 20
77.840897
 30
0.0
 11
43.729678
 21
78.44063
 31
0.0
  0
LINE
  5
319
330
17EC
100
AcDbEntity
  8
GAIKEI
 62
     1
100
AcDbLine
 10
43.729678
 20
78.44063
 30
0.0
 11
44.72980699999999
 21
78.44063
 31
0.0
  0
LINE
  5
31A
330
17EC
100
AcDbEntity
  8
GAIKEI
 62
     1
100
AcDbLine
 10
44.72980699999999
 20
78.44063
 30
0.0
 11
44.72980699999999
 21
77.840897
 31
0.0
  0
LINE
  5
31B
330
17EC
100
AcDbEntity
  8
GAIKEI
 62
     1
100
AcDbLine
 10
44.72980699999999
 20
77.840897
 30
0.0
 11
43.72987
 21
77.840897
 31
0.0
  0
LINE
  5
31C
330
17EC
100
AcDbEntity
  8
GAIKEI
 62
     1
100
AcDbLine
 10
43.72987
 20
77.840897
 30
0.0
 11
43.729678
 21
78.44063
 31
0.0
  0
LINE
  5
31D
330
17EC
100
AcDbEntity
  8
GAIKEI
 62
     1
100
AcDbLine
 10
43.729678
 20
78.44063
 30
0.0
 11
44.72980699999999
 21
78.44063
 31
0.0
  0
LINE
  5
31E
330
17EC
100
AcDbEntity
  8
GAIKEI
 62
     1
100
AcDbLine
 10
44.72980699999999
 20
78.44063
 30
0.0
 11
44.72980699999999
 21
77.840897
 31
0.0
  0
LINE
  5
31F
330
17EC
100
AcDbEntity
  8
GAIKEI
 62
     1
100
AcDbLine
 10
44.72980699999999
 20
77.840897
 30
0.0
 11
43.72987
 21
77.840897
 31
0.0
  0
LINE
  5
320
330
17EC
100
AcDbEntity
  8
GAIKEI
 62
     1
100
AcDbLine
 10
54.005237
 20
67.918269
 30
0.0
 11
54.005045
 21
63.772102
 31
0.0
  0
LINE
  5
321
330
17EC
100
AcDbEntity
  8
GAIKEI
 62
     1
100
AcDbLine
 10
54.354913
 20
57.168341
 30
0.0
 11
54.355105
 21
61.314413
 31
0.0
  0
LWPOLYLINE
  5
322
330
17EC
100
AcDbEntity
  8
GAIKEI
 62
     1
100
AcDbPolyline
 90
        4
 70
     1
 43
0.0
 10
53.33009399999999
 20
65.533501
 10
54.005045
 20
65.53331
 10
54.005045
 20
65.433498
 10
53.33009399999999
 20
65.433498
  0
LWPOLYLINE
  5
323
330
17EC
100
AcDbEntity
  8
GAIKEI
 62
     1
100
AcDbPolyline
 90
        4
 70
     1
 43
0.0
 10
54.354913
 20
65.433498
 10
54.354913
 20
65.533501
 10
54.83014499999999
 20
65.533501
 10
54.83014499999999
 20
65.433306
  0
LWPOLYLINE
  5
324
330
17EC
100
AcDbEntity
  8
GAIKEI
 62
     1
100
AcDbPolyline
 90
        4
 70
     1
 43
0.0
 10
54.355105
 20
67.473566
 10
54.829953
 20
67.473566
 10
54.829953
 20
67.41318099999999
 10
54.355105
 20
67.41318099999999
  0
LWPOLYLINE
  5
325
330
17EC
100
AcDbEntity
  8
GAIKEI
 62
     1
100
AcDbPolyline
 90
        4
 70
     1
 43
0.0
 10
54.355105
 20
59.57330200000001
 10
54.355105
 20
59.63349499999999
 10
54.83014499999999
 20
59.633304
 10
54.83014499999999
 20
59.57330200000001
  0
LWPOLYLINE
  5
326
330
17EC
100
AcDbEntity
  8
GAIKEI
 62
     1
100
AcDbPolyline
 90
        4
 70
     1
 43
0.0
 10
54.83014499999999
 20
58.59336500000001
 10
54.355105
 20
58.59336500000001
 10
54.355105
 20
58.653176
 10
54.83014499999999
 20
58.653367
  0
LWPOLYLINE
  5
327
330
17EC
100
AcDbEntity
  8
GAIKEI
 62
     1
100
AcDbPolyline
 90
        4
 70
     1
 43
0.0
 10
54.354913
 20
57.61342800000001
 10
54.355105
 20
57.67343
 10
54.83014499999999
 20
57.67362099999999
 10
54.83014499999999
 20
57.61342800000001
  0
LINE
  5
328
330
17EC
100
AcDbEntity
  8
GAIKEI
 62
     1
100
AcDbLine
 10
55.908936
 20
72.49086200000002
 30
0.0
 11
55.845776
 21
72.49086200000002
 31
0.0
  0
LINE
  5
329
330
17EC
100
AcDbEntity
  8
GAIKEI
 62
     1
100
AcDbLine
 10
55.845776
 20
72.49086200000002
 30
0.0
 11
55.199822
 21
72.49067100000002
 31
0.0
  0
LINE
  5
32A
330
17EC
100
AcDbEntity
  8
GAIKEI
 62
     1
100
AcDbLine
 10
55.199822
 20
72.49067100000002
 30
0.0
 11
55.199822
 21
73.09078700000002
 31
0.0
  0
LINE
  5
32B
330
17EC
100
AcDbEntity
  8
GAIKEI
 62
     1
100
AcDbLine
 10
55.199822
 20
73.09078700000002
 30
0.0
 11
56.199664
 21
73.09078700000002
 31
0.0
  0
LINE
  5
32C
330
17EC
100
AcDbEntity
  8
GAIKEI
 62
     1
100
AcDbLine
 10
56.199664
 20
73.09078700000002
 30
0.0
 11
56.199664
 21
72.49067100000002
 31
0.0
  0
LINE
  5
32D
330
17EC
100
AcDbEntity
  8
GAIKEI
 62
     1
100
AcDbLine
 10
56.199664
 20
72.49067100000002
 30
0.0
 11
55.908936
 21
72.49086200000002
 31
0.0
  0
LINE
  5
32E
330
17EC
100
AcDbEntity
  8
GAIKEI
 62
     1
100
AcDbLine
 10
57.299796
 20
71.92481499999999
 30
0.0
 11
57.299796
 21
72.09084900000002
 31
0.0
  0
LINE
  5
32F
330
17EC
100
AcDbEntity
  8
GAIKEI
 62
     1
100
AcDbLine
 10
57.299796
 20
72.09084900000002
 30
0.0
 11
56.299763
 21
72.09084900000002
 31
0.0
  0
LINE
  5
330
330
17EC
100
AcDbEntity
  8
GAIKEI
 62
     1
100
AcDbLine
 10
56.299763
 20
72.09084900000002
 30
0.0
 11
56.299763
 21
71.49073300000002
 31
0.0
  0
LINE
  5
331
330
17EC
100
AcDbEntity
  8
GAIKEI
 62
     1
100
AcDbLine
 10
56.299763
 20
71.49073300000002
 30
0.0
 11
57.299605
 21
71.49073300000002
 31
0.0
  0
LINE
  5
332
330
17EC
100
AcDbEntity
  8
GAIKEI
 62
     1
100
AcDbLine
 10
57.299605
 20
71.49073300000002
 30
0.0
 11
57.299796
 21
71.92481499999999
 31
0.0
  0
LINE
  5
333
330
17EC
100
AcDbEntity
  8
GAIKEI
 62
     1
100
AcDbLine
 10
57.75378299999999
 20
73.09078700000002
 30
0.0
 11
58.399737
 21
73.09078700000002
 31
0.0
  0
LINE
  5
334
330
17EC
100
AcDbEntity
  8
GAIKEI
 62
     1
100
AcDbLine
 10
58.399737
 20
73.09078700000002
 30
0.0
 11
58.399737
 21
72.49086200000002
 31
0.0
  0
LINE
  5
335
330
17EC
100
AcDbEntity
  8
GAIKEI
 62
     1
100
AcDbLine
 10
58.399737
 20
72.49086200000002
 30
0.0
 11
57.75378299999999
 21
72.49086200000002
 31
0.0
  0
LINE
  5
336
330
17EC
100
AcDbEntity
  8
GAIKEI
 62
     1
100
AcDbLine
 10
57.75378299999999
 20
72.49086200000002
 30
0.0
 11
57.69062299999999
 21
72.49067100000002
 31
0.0
  0
LINE
  5
337
330
17EC
100
AcDbEntity
  8
GAIKEI
 62
     1
100
AcDbLine
 10
57.69062299999999
 20
72.49067100000002
 30
0.0
 11
57.399704
 21
72.49086200000002
 31
0.0
  0
LINE
  5
338
330
17EC
100
AcDbEntity
  8
GAIKEI
 62
     1
100
AcDbLine
 10
57.399704
 20
72.49086200000002
 30
0.0
 11
57.399704
 21
73.09078700000002
 31
0.0
  0
LINE
  5
339
330
17EC
100
AcDbEntity
  8
GAIKEI
 62
     1
100
AcDbLine
 10
57.399704
 20
73.09078700000002
 30
0.0
 11
57.75378299999999
 21
73.09078700000002
 31
0.0
  0
LINE
  5
33A
330
17EC
100
AcDbEntity
  8
GAIKEI
 62
     1
100
AcDbLine
 10
57.399704
 20
73.09078700000002
 30
0.0
 11
58.399737
 21
73.09078700000002
 31
0.0
  0
LINE
  5
33B
330
17EC
100
AcDbEntity
  8
GAIKEI
 62
     1
100
AcDbLine
 10
58.399737
 20
73.09078700000002
 30
0.0
 11
58.399737
 21
72.49067100000002
 31
0.0
  0
LINE
  5
33C
330
17EC
100
AcDbEntity
  8
GAIKEI
 62
     1
100
AcDbLine
 10
58.399737
 20
72.49067100000002
 30
0.0
 11
57.399704
 21
72.49067100000002
 31
0.0
  0
LINE
  5
33D
330
17EC
100
AcDbEntity
  8
GAIKEI
 62
     1
100
AcDbLine
 10
57.399704
 20
72.49067100000002
 30
0.0
 11
57.399704
 21
73.09078700000002
 31
0.0
  0
LINE
  5
33E
330
17EC
100
AcDbEntity
  8
GAIKEI
 62
     1
100
AcDbLine
 10
57.299605
 20
73.58678399999998
 30
0.0
 11
57.299796
 21
73.656739
 31
0.0
  0
LINE
  5
33F
330
17EC
100
AcDbEntity
  8
GAIKEI
 62
     1
100
AcDbLine
 10
57.299796
 20
73.656739
 30
0.0
 11
57.299605
 21
74.09062900000002
 31
0.0
  0
LINE
  5
340
330
17EC
100
AcDbEntity
  8
GAIKEI
 62
     1
100
AcDbLine
 10
57.299605
 20
74.09062900000002
 30
0.0
 11
56.299763
 21
74.09081999999997
 31
0.0
  0
LINE
  5
341
330
17EC
100
AcDbEntity
  8
GAIKEI
 62
     1
100
AcDbLine
 10
56.299763
 20
74.09081999999997
 30
0.0
 11
56.29995400000001
 21
73.49079999999998
 31
0.0
  0
LINE
  5
342
330
17EC
100
AcDbEntity
  8
GAIKEI
 62
     1
100
AcDbLine
 10
56.29995400000001
 20
73.49079999999998
 30
0.0
 11
57.299796
 21
73.49060900000002
 31
0.0
  0
LINE
  5
343
330
17EC
100
AcDbEntity
  8
GAIKEI
 62
     1
100
AcDbLine
 10
57.299796
 20
73.49060900000002
 30
0.0
 11
57.299605
 21
73.58678399999998
 31
0.0
  0
LWPOLYLINE
  5
344
330
17EC
100
AcDbEntity
  8
GAIKEI
 62
     1
100
AcDbPolyline
 90
        4
 70
     1
 43
0.0
 10
55.949895
 20
67.940758
 10
56.44981600000001
 20
67.940758
 10
56.44981600000001
 20
67.740847
 10
55.949895
 20
67.740656
  0
LWPOLYLINE
  5
345
330
17EC
100
AcDbEntity
  8
GAIKEI
 62
     1
100
AcDbPolyline
 90
        4
 70
     1
 43
0.0
 10
55.949895
 20
67.590986
 10
56.44981600000001
 20
67.59079399999999
 10
56.44981600000001
 20
67.390692
 10
55.949895
 20
67.390692
  0
LWPOLYLINE
  5
346
330
17EC
100
AcDbEntity
  8
GAIKEI
 62
     1
100
AcDbPolyline
 90
        4
 70
     1
 43
0.0
 10
55.949895
 20
67.240735
 10
56.44981600000001
 20
67.240735
 10
56.44981600000001
 20
67.040824
 10
55.94970299999999
 20
67.040824
  0
LWPOLYLINE
  5
347
330
17EC
100
AcDbEntity
  8
GAIKEI
 62
     1
100
AcDbPolyline
 90
        4
 70
     1
 43
0.0
 10
55.949895
 20
66.890675
 10
56.44981600000001
 20
66.890675
 10
56.44981600000001
 20
66.690764
 10
55.94970299999999
 20
66.690764
  0
LWPOLYLINE
  5
348
330
17EC
100
AcDbEntity
  8
GAIKEI
 62
     1
100
AcDbPolyline
 90
        4
 70
     1
 43
0.0
 10
55.949895
 20
66.540903
 10
56.44981600000001
 20
66.540903
 10
56.44981600000001
 20
66.340513
 10
55.949895
 20
66.340513
  0
LWPOLYLINE
  5
349
330
17EC
100
AcDbEntity
  8
GAIKEI
 62
     1
100
AcDbPolyline
 90
        4
 70
     1
 43
0.0
 10
56.949737
 20
65.44077099999999
 10
56.949737
 20
65.640682
 10
57.44965799999999
 20
65.640682
 10
57.44965799999999
 20
65.44077099999999
  0
LWPOLYLINE
  5
34A
330
17EC
100
AcDbEntity
  8
GAIKEI
 62
     1
100
AcDbPolyline
 90
        4
 70
     1
 43
0.0
 10
20.579815
 20
82.240853
 10
21.079736
 20
82.240853
 10
21.079736
 20
82.04075000000001
 10
20.579815
 20
82.04075000000001
  0
LWPOLYLINE
  5
34B
330
17EC
100
AcDbEntity
  8
GAIKEI
 62
     1
100
AcDbPolyline
 90
        4
 70
     1
 43
0.0
 10
42.029813
 20
84.620741
 10
42.52982999999999
 20
84.620741
 10
42.52982999999999
 20
84.42073399999999
 10
42.029813
 20
84.42073399999999
  0
LWPOLYLINE
  5
34C
330
17EC
100
AcDbEntity
  8
GAIKEI
 62
     1
100
AcDbPolyline
 90
        4
 70
     1
 43
0.0
 10
45.929752
 20
73.24083899999997
 10
46.429768
 20
73.24083899999997
 10
46.429768
 20
73.04073699999998
 10
45.929752
 20
73.04054600000002
  0
LWPOLYLINE
  5
34D
330
17EC
100
AcDbEntity
  8
GAIKEI
 62
     1
100
AcDbPolyline
 90
        4
 70
     1
 43
0.0
 10
47.879865
 20
73.24083899999997
 10
48.379881
 20
73.24083899999997
 10
48.379881
 20
73.04054600000002
 10
47.879865
 20
73.04073699999998
  0
LWPOLYLINE
  5
34E
330
17EC
100
AcDbEntity
  8
GAIKEI
 62
     1
100
AcDbPolyline
 90
        8
 70
     1
 43
0.0
 10
55.849604
 20
64.640744
 10
56.549723
 20
64.640744
 10
56.549723
 20
63.94072
 10
55.849604
 20
63.94072
 10
55.849604
 20
64.640744
 10
56.549723
 20
64.640744
 10
56.549723
 20
63.94072
 10
55.849604
 20
63.94072
  0
LWPOLYLINE
  5
34F
330
17EC
100
AcDbEntity
  8
GAIKEI
 62
     1
100
AcDbPolyline
 90
        4
 70
     0
 43
0.0
 10
60.15960500000001
 20
86.09083800000002
 10
60.10984200000001
 20
86.60071100000001
 10
58.009868
 20
86.60071100000001
 10
57.95991400000001
 20
86.09083800000002
  0
LWPOLYLINE
  5
350
330
17EC
100
AcDbEntity
  8
GAIKEI
 62
     1
100
AcDbPolyline
 90
        4
 70
     0
 43
0.0
 10
32.97975
 20
86.09083800000002
 10
32.97975
 20
86.62071199999999
 10
32.07972
 20
86.62071199999999
 10
32.079912
 20
86.09083800000002
  0
LWPOLYLINE
  5
351
330
17EC
100
AcDbEntity
  8
GAIKEI
 62
     1
100
AcDbPolyline
 90
        4
 70
     0
 43
0.0
 10
34.929767
 20
86.09083800000002
 10
34.929767
 20
86.62071199999999
 10
34.02983300000001
 20
86.62071199999999
 10
34.02983300000001
 20
86.09083800000002
  0
LWPOLYLINE
  5
352
330
17EC
100
AcDbEntity
  8
GAIKEI
 62
     1
100
AcDbPolyline
 90
        4
 70
     0
 43
0.0
 10
36.89969
 20
86.09064600000001
 10
36.899881
 20
86.62052
 10
35.99966
 20
86.62071199999999
 10
35.99966
 20
86.09083800000002
  0
LWPOLYLINE
  5
353
330
17EC
100
AcDbEntity
  8
GAIKEI
 62
     1
100
AcDbPolyline
 90
        4
 70
     0
 43
0.0
 10
38.39974
 20
86.09083800000002
 10
38.39974
 20
86.62071199999999
 10
37.499805
 20
86.62052
 10
37.499805
 20
86.09083800000002
  0
LWPOLYLINE
  5
354
330
17EC
100
AcDbEntity
  8
GAIKEI
 62
     1
100
AcDbPolyline
 90
        4
 70
     0
 43
0.0
 10
40.199895
 20
86.09083800000002
 10
40.199895
 20
86.62071199999999
 10
39.29977
 20
86.62071199999999
 10
39.299961
 20
86.09083800000002
  0
LWPOLYLINE
  5
355
330
17EC
100
AcDbEntity
  8
GAIKEI
 62
     1
100
AcDbPolyline
 90
        4
 70
     0
 43
0.0
 10
41.69984999999999
 20
86.09083800000002
 10
41.69956299999999
 20
86.62052
 10
40.79982
 20
86.62071199999999
 10
40.79982
 20
86.09064600000001
  0
LWPOLYLINE
  5
356
330
17EC
100
AcDbEntity
  8
GAIKEI
 62
     1
100
AcDbPolyline
 90
        4
 70
     0
 43
0.0
 10
43.599722
 20
86.09083800000002
 10
43.599722
 20
86.62052
 10
42.699692
 20
86.62052
 10
42.699692
 20
86.09064600000001
  0
LWPOLYLINE
  5
357
330
17EC
100
AcDbEntity
  8
GAIKEI
 62
     1
100
AcDbPolyline
 90
        4
 70
     0
 43
0.0
 10
45.09977199999999
 20
86.09083800000002
 10
45.09977199999999
 20
86.62071199999999
 10
44.199646
 20
86.62071199999999
 10
44.19983799999999
 20
86.09083800000002
  0
LWPOLYLINE
  5
358
330
17EC
100
AcDbEntity
  8
GAIKEI
 62
     1
100
AcDbPolyline
 90
        4
 70
     0
 43
0.0
 10
46.99974
 20
86.09083800000002
 10
46.99974
 20
86.62071199999999
 10
46.09970999999999
 20
86.62071199999999
 10
46.09970999999999
 20
86.09083800000002
  0
LWPOLYLINE
  5
359
330
17EC
100
AcDbEntity
  8
GAIKEI
 62
     1
100
AcDbPolyline
 90
        4
 70
     0
 43
0.0
 10
48.49979000000001
 20
86.09083800000002
 10
48.49979000000001
 20
86.62052
 10
47.59975999999999
 20
86.62071199999999
 10
47.59975999999999
 20
86.09064600000001
  0
LINE
  5
35A
330
17EC
100
AcDbEntity
  8
GAIKEI
 62
     1
100
AcDbLine
 10
61.33974
 20
56.74067199999999
 30
0.0
 11
61.169973
 21
56.725839
 31
0.0
  0
LWPOLYLINE
  5
35B
330
17EC
100
AcDbEntity
  8
GAIKEI
 62
     1
100
AcDbPolyline
 90
       18
 70
     0
 43
0.0
 10
61.16997331857515
 20
71.05559907023473
 10
61.3397397500177
 20
71.04095743325007
 10
61.3584791613221
 20
70.99256459974836
 10
61.37471998445283
 20
70.94351641953929
 10
61.38846221940992
 20
70.89390667378805
 10
61.39970586619335
 20
70.84382914365976
 10
61.40845092480313
 20
70.79337761031964
 10
61.41469739523928
 20
70.74264585493283
 10
61.41844527750175
 20
70.69172765866453
 10
61.4196945715906
 20
70.64071680267989
 10
61.41844527750578
 20
70.58970706814408
 10
61.41469739524732
 20
70.53879223622226
 10
61.4084509248152
 20
70.48806608807964
 10
61.39970586620946
 20
70.43762240488137
 10
61.38846221943005
 20
70.38755496779263
 10
61.374719984477
 20
70.33795755797857
 10
61.35847916135027
 20
70.28892395660434
 10
61.33973975004992
 20
70.24054794483518
  0
LINE
  5
35C
330
17EC
100
AcDbEntity
  8
GAIKEI
 62
     1
100
AcDbLine
 10
61.33973975001641
 20
70.24054794475819
 30
0.0
 11
61.16978192462568
 21
70.22581061079961
 31
0.0
  0
LINE
  5
35D
330
17EC
100
AcDbEntity
  8
GAIKEI
 62
     1
100
AcDbLine
 10
18.169782
 20
84.55585799999999
 30
0.0
 11
17.999824
 21
84.54093
 31
0.0
  0
LINE
  5
35E
330
17EC
100
AcDbEntity
  8
GAIKEI
 62
     1
100
AcDbLine
 10
18.000016
 20
83.74071100000001
 30
0.0
 11
17.999824
 21
84.54093
 31
0.0
  0
LINE
  5
35F
330
17EC
100
AcDbEntity
  8
GAIKEI
 62
     1
100
AcDbLine
 10
18.169974
 20
83.72578300000002
 30
0.0
 11
18.000016
 21
83.74071100000001
 31
0.0
  0
LINE
  5
360
330
17EC
100
AcDbEntity
  8
GAIKEI
 62
     1
100
AcDbLine
 10
18.169782
 20
70.22600199999999
 30
0.0
 11
17.999824
 21
70.240548
 31
0.0
  0
LINE
  5
361
330
17EC
100
AcDbEntity
  8
GAIKEI
 62
     1
100
AcDbLine
 10
17.999824
 20
70.240548
 30
0.0
 11
17.999824
 21
71.04095700000002
 31
0.0
  0
LINE
  5
362
330
17EC
100
AcDbEntity
  8
GAIKEI
 62
     1
100
AcDbLine
 10
18.169974
 20
71.055599
 30
0.0
 11
17.999824
 21
71.04095700000002
 31
0.0
  0
LINE
  5
363
330
17EC
100
AcDbEntity
  8
GAIKEI
 62
     1
100
AcDbLine
 10
18.169974
 20
57.555818
 30
0.0
 11
17.999824
 21
57.54069799999999
 31
0.0
  0
LINE
  5
364
330
17EC
100
AcDbEntity
  8
GAIKEI
 62
     1
100
AcDbLine
 10
17.999824
 20
56.74048
 30
0.0
 11
17.999824
 21
57.54069799999999
 31
0.0
  0
LINE
  5
365
330
17EC
100
AcDbEntity
  8
GAIKEI
 62
     1
100
AcDbLine
 10
18.169974
 20
56.725839
 30
0.0
 11
17.999824
 21
56.74048
 31
0.0
  0
LINE
  5
366
330
17EC
100
AcDbEntity
  8
GAIKEI
 62
     1
100
AcDbLine
 10
18.369885
 20
55.14081
 30
0.0
 11
18.369885
 21
86.14079200000002
 31
0.0
  0
LINE
  5
367
330
17EC
100
AcDbEntity
  8
GAIKEI
100
AcDbLine
 10
18.169782
 20
55.140618
 30
0.0
 11
18.369885
 21
55.14081
 31
0.0
  0
LINE
  5
368
330
17EC
100
AcDbEntity
  8
GAIKEI
 62
     1
100
AcDbLine
 10
60.969775
 20
86.09083800000002
 30
0.0
 11
60.969584
 21
55.190859
 31
0.0
  0
LINE
  5
369
330
17EC
100
AcDbEntity
  8
GAIKEI
100
AcDbLine
 10
18.369885
 20
85.44086400000002
 30
0.0
 11
60.969775
 21
85.44086400000002
 31
0.0
  0
LINE
  5
36A
330
17EC
100
AcDbEntity
  8
GAIKEI
 62
     1
100
AcDbLine
 10
60.969775
 20
55.74092499999999
 30
0.0
 11
18.369885
 21
55.74092499999999
 31
0.0
  0
DIMENSION
  5
36B
330
17EC
100
AcDbEntity
  8
SUNPO
100
AcDbDimension
  2
*D8
 10
61.169782
 20
94.130234
 30
0.0
 11
39.669782
 21
95.880234
 31
0.0
 70
    33
  1
430
 71
     5
 42
43.0
  3
STANDARD
100
AcDbAlignedDimension
 13
18.169782
 23
86.13023400000001
 33
0.0
 14
61.169782
 24
86.13023400000001
 34
0.0
1001
ACAD
1000
DSTYLE
1002
{
1070
    40
1040
1.0
1070
   140
1040
2.5
1070
   147
1040
0.5
1070
   172
1070
     1
1070
   279
1070
     0
1070
   343
1005
1800
1070
   344
1005
1800
1002
}
  0
LINE
  5
37A
330
17EC
100
AcDbEntity
  8
GAIKEI
 62
     1
100
AcDbLine
 10
83.13317299999999
 20
86.09083800000002
 30
0.0
 11
84.16000099999997
 21
86.09083800000002
 31
0.0
  0
LINE
  5
37B
330
17EC
100
AcDbEntity
  8
GAIKEI
 62
     1
100
AcDbLine
 10
84.633318
 20
55.190859
 30
0.0
 11
86.160068
 21
55.190859
 31
0.0
  0
LINE
  5
37C
330
17EC
100
AcDbEntity
  8
GAIKEI
 62
     1
100
AcDbLine
 10
86.29366082051822
 20
86.57391603139876
 30
0.0
 11
86.26169803128163
 21
86.25323547233895
 31
0.0
  0
LWPOLYLINE
  5
37D
330
17EC
100
AcDbEntity
  8
GAIKEI
 62
     1
100
AcDbPolyline
 90
       30
 70
     0
 43
0.0
 10
86.32390106422235
 20
86.60071118406785
 10
86.32243838527559
 20
86.6006772310339
 10
86.32099403500948
 20
86.60057637656338
 10
86.31956952037098
 20
86.60041012760322
 10
86.31816634830705
 20
86.6001799911004
 10
86.31678602576469
 20
86.59988747400191
 10
86.3154300596909
 20
86.59953408325474
 10
86.31409995703258
 20
86.59912132580581
 10
86.31279722473673
 20
86.59865070860217
 10
86.31152336975036
 20
86.59812373859072
 10
86.31027989902042
 20
86.59754192271845
 10
86.30906831949387
 20
86.59690676793241
 10
86.30789013811769
 20
86.59621978117947
 10
86.30674686183889
 20
86.59548246940666
 10
86.3056399976044
 20
86.59469633956096
 10
86.3035415330563
 20
86.59298365343868
 10
86.30160680004918
 20
86.59109377838847
 10
86.29984785415885
 20
86.58903876998609
 10
86.29903806874994
 20
86.58795310814531
 10
86.29827675096111
 20
86.58683068380735
 10
86.29756540773938
 20
86.58567300391931
 10
86.2969055460317
 20
86.58448157542807
 10
86.29629867278508
 20
86.58325790528065
 10
86.2957462949465
 20
86.58200350042402
 10
86.29524991946288
 20
86.58071986780511
 10
86.29481105328121
 20
86.57940851437095
 10
86.29443120334853
 20
86.57807094706848
 10
86.29411187661169
 20
86.57670867284471
 10
86.29385458001777
 20
86.57532319864655
 10
86.29366082051371
 20
86.57391603142105
  0
LINE
  5
37E
330
17EC
100
AcDbEntity
  8
GAIKEI
 62
     1
100
AcDbLine
 10
88.66943389097652
 20
86.60071118406497
 30
0.0
 11
86.32390106422736
 21
86.60071118406582
 31
0.0
  0
LWPOLYLINE
  5
37F
330
17EC
100
AcDbEntity
  8
GAIKEI
 62
     1
100
AcDbPolyline
 90
       31
 70
     0
 43
0.0
 10
88.69948274073591
 20
86.57391603141286
 10
88.69930528312746
 20
86.57532319863845
 10
88.69906116939942
 20
86.57670867283664
 10
88.69875215181561
 20
86.57807094706051
 10
88.69837998264001
 20
86.57940851436304
 10
88.69794641413653
 20
86.58071986779729
 10
88.69745319856912
 20
86.58200350041626
 10
88.69690208820165
 20
86.58325790527298
 10
88.69629483529811
 20
86.58448157542052
 10
88.69563319212236
 20
86.58567300391183
 10
88.69491891093835
 20
86.58683068380002
 10
88.69415374400999
 20
86.58795310813806
 10
88.69333944360127
 20
86.58903876997895
 10
88.69247776197598
 20
86.59008616237576
 10
88.69157045139818
 20
86.59109377838156
 10
88.68962595244054
 20
86.59298365343206
 10
88.6875199648397
 20
86.59469633955463
 10
88.6864107934579
 20
86.59548246940047
 10
88.68526650670705
 20
86.59621978117346
 10
88.68408885685111
 20
86.59690676792655
 10
88.682879596154
 20
86.59754192271277
 10
88.68164047687963
 20
86.59812373858519
 10
88.68037325129192
 20
86.59865070859682
 10
88.67907967165477
 20
86.59912132580066
 10
88.67776149023216
 20
86.59953408324973
 10
88.67642045928796
 20
86.59988747399712
 10
88.67505833108616
 20
86.60017999109578
 10
88.67367685789059
 20
86.60041012759881
 10
88.67227779196527
 20
86.60057637655917
 10
88.67086288557405
 20
86.60067723102995
 10
88.66943389098087
 20
86.6007111840641
  0
LINE
  5
380
330
17EC
100
AcDbEntity
  8
GAIKEI
 62
     1
100
AcDbLine
 10
88.74254637892605
 20
86.14060013424781
 30
0.0
 11
88.69948274073603
 21
86.57391603141304
 31
0.0
  0
LWPOLYLINE
  5
381
330
17EC
100
AcDbEntity
  8
GAIKEI
 62
     1
100
AcDbPolyline
 90
       33
 70
     0
 43
0.0
 10
96.2071017258818
 20
84.35987084663038
 10
96.20716068372209
 20
84.36217158668506
 10
96.20733564143412
 20
84.36444257329837
 10
96.20762372530505
 20
84.36668096780264
 10
96.20802206162201
 20
84.36888393153044
 10
96.20852777667224
 20
84.37104862581412
 10
96.20913799674283
 20
84.37317221198615
 10
96.209849848121
 20
84.37525185137904
 10
96.21066045709387
 20
84.37728470532512
 10
96.21156694994866
 20
84.37926793515696
 10
96.2125664529725
 20
84.38119870220688
 10
96.21365609245257
 20
84.38307416780739
 10
96.21483299467602
 20
84.38489149329091
 10
96.21609428593004
 20
84.38664783998993
 10
96.21743709250177
 20
84.38834036923685
 10
96.21885854067837
 20
84.38996624236414
 10
96.22035575674701
 20
84.39152262070425
 10
96.22192586699489
 20
84.39300666558958
 10
96.2235659977092
 20
84.39441553835262
 10
96.22527327517701
 20
84.39574640032581
 10
96.22704482568552
 20
84.39699641284155
 10
96.22887777552195
 20
84.39816273723232
 10
96.23076925097342
 20
84.39924253483058
 10
96.23271637832708
 20
84.40023296696873
 10
96.23471628387013
 20
84.40113119497928
 10
96.23676609388972
 20
84.40193438019461
 10
96.23886293467302
 20
84.40263968394717
 10
96.24100393250728
 20
84.40324426756946
 10
96.24318621367947
 20
84.40374529239381
 10
96.24540690447693
 20
84.40413991975281
 10
96.24766313118671
 20
84.40442531097881
 10
96.24995202009607
 20
84.40459862740434
 10
96.25227069749215
 20
84.40465703036169
  0
LINE
  5
382
330
17EC
100
AcDbEntity
  8
GAIKEI
 62
     1
100
AcDbLine
 10
96.20691033249386
 20
84.23967544742344
 30
0.0
 11
96.20710172652209
 21
84.35987084642045
 31
0.0
  0
LINE
  5
383
330
17EC
100
AcDbEntity
  8
GAIKEI
 62
     1
100
AcDbLine
 10
96.11695517643239
 20
84.23967544778331
 30
0.0
 11
96.20691033176253
 21
84.23967544780238
 31
0.0
  0
LINE
  5
384
330
17EC
100
AcDbEntity
  8
GAIKEI
 62
     1
100
AcDbLine
 10
96.11714657049379
 20
84.3598708466534
 30
0.0
 11
96.11695517657226
 21
84.23967544762048
 31
0.0
  0
LWPOLYLINE
  5
385
330
17EC
100
AcDbEntity
  8
GAIKEI
 62
     1
100
AcDbPolyline
 90
       33
 70
     0
 43
0.0
 10
96.07236038693315
 20
84.40465703021123
 10
96.07466058378642
 20
84.40459862725431
 10
96.07693001088527
 20
84.40442531082926
 10
96.07916593469788
 20
84.40413991960367
 10
96.08136562169256
 20
84.40374529224511
 10
96.08352633833758
 20
84.40324426742108
 10
96.08564535110122
 20
84.4026396837992
 10
96.08771992645179
 20
84.40193438004701
 10
96.08974733085752
 20
84.40113119483205
 10
96.09172483078671
 20
84.40023296682188
 10
96.09364969270766
 20
84.39924253468408
 10
96.09551918308865
 20
84.3981627370862
 10
96.09733056839793
 20
84.39699641269569
 10
96.0990811151038
 20
84.39574640018028
 10
96.10076808967452
 20
84.39441553820744
 10
96.10238875857836
 20
84.39300666544468
 10
96.10394038828365
 20
84.39152262055962
 10
96.10542024525869
 20
84.38996624221983
 10
96.10682559597165
 20
84.3883403690928
 10
96.1081537068909
 20
84.38664783984611
 10
96.1094018444847
 20
84.38489149314735
 10
96.11056727522129
 20
84.38307416766406
 10
96.111647265569
 20
84.38119870206373
 10
96.11263908199612
 20
84.37926793501402
 10
96.11353999097083
 20
84.37728470518246
 10
96.11434725896156
 20
84.37525185123652
 10
96.11505815243651
 20
84.37317221184381
 10
96.11566993786393
 20
84.37104862567194
 10
96.11617988171213
 20
84.36888393138843
 10
96.11658525044941
 20
84.36668096766082
 10
96.11688331054397
 20
84.36444257315661
 10
96.11707132846422
 20
84.36217158654349
 10
96.11714657067837
 20
84.35987084648889
  0
LINE
  5
386
330
17EC
100
AcDbEntity
  8
GAIKEI
 62
     1
100
AcDbLine
 10
95.95216498777835
 20
84.40465703044173
 30
0.0
 11
96.0723603868187
 21
84.40465703045266
 31
0.0
  0
LINE
  5
387
330
17EC
100
AcDbEntity
  8
GAIKEI
 62
     1
100
AcDbLine
 10
95.95216498770936
 20
84.49489927647411
 30
0.0
 11
95.95216498769548
 21
84.40465703021397
 31
0.0
  0
LINE
  5
388
330
17EC
100
AcDbEntity
  8
GAIKEI
 62
     1
100
AcDbLine
 10
96.07236038669363
 20
84.49489927664398
 30
0.0
 11
95.95216498764644
 21
84.49489927665638
 31
0.0
  0
LWPOLYLINE
  5
389
330
17EC
100
AcDbEntity
  8
GAIKEI
 62
     1
100
AcDbPolyline
 90
       33
 70
     0
 43
0.0
 10
96.11695517651709
 20
84.53978115721788
 10
96.11689677940132
 20
84.53746330338576
 10
96.11672350386273
 20
84.53517681507785
 10
96.11643822361415
 20
84.53292446087116
 10
96.11604381236844
 20
84.53070900934271
 10
96.11554314383841
 20
84.5285332290695
 10
96.11493909173688
 20
84.52639988862848
 10
96.11423452977673
 20
84.52431175659668
 10
96.11343233167074
 20
84.52227160155112
 10
96.1125353711318
 20
84.52028219206878
 10
96.1115465218727
 20
84.51834629672665
 10
96.11046865760627
 20
84.51646668410173
 10
96.10930465204537
 20
84.51464612277106
 10
96.10805737890286
 20
84.51288738131156
 10
96.10672971189153
 20
84.51119322830029
 10
96.10532452472419
 20
84.50956643231423
 10
96.10384469111377
 20
84.50800976193042
 10
96.10229308477299
 20
84.50652598572572
 10
96.10067257941476
 20
84.5051178722773
 10
96.09898604875187
 20
84.50378819016211
 10
96.09723636649722
 20
84.50253970795705
 10
96.0954264063635
 20
84.50137519423925
 10
96.09355904206378
 20
84.50029741758561
 10
96.09163714731067
 20
84.49930914657324
 10
96.08966359581714
 20
84.498413149779
 10
96.08764126129592
 20
84.49761219577998
 10
96.08557301745996
 20
84.49690905315319
 10
96.08346173802198
 20
84.49630649047556
 10
96.08131029669491
 20
84.49580727632413
 10
96.07912156719152
 20
84.49541417927587
 10
96.07689842322464
 20
84.49512996790783
 10
96.07464373850719
 20
84.49495741079696
 10
96.07236038675193
 20
84.49489927652029
  0
LINE
  5
38A
330
17EC
100
AcDbEntity
  8
GAIKEI
 62
     1
100
AcDbLine
 10
96.11714657046059
 20
84.65968946537486
 30
0.0
 11
96.11695517650828
 21
84.53978115725805
 31
0.0
  0
LINE
  5
38B
330
17EC
100
AcDbEntity
  8
GAIKEI
 62
     1
100
AcDbLine
 10
96.20710172582302
 20
84.65968946539033
 30
0.0
 11
96.11714657049457
 21
84.65968946539216
 31
0.0
  0
LINE
  5
38C
330
17EC
100
AcDbEntity
  8
GAIKEI
 62
     1
100
AcDbLine
 10
96.20710172580949
 20
84.53978115724749
 30
0.0
 11
96.20710172580949
 21
84.65968946535724
 31
0.0
  0
LWPOLYLINE
  5
38D
330
17EC
100
AcDbEntity
  8
GAIKEI
 62
     1
100
AcDbPolyline
 90
       33
 70
     0
 43
0.0
 10
96.252270697428
 20
84.49470788262777
 10
96.24995147683028
 20
84.49478340520292
 10
96.24766102840613
 20
84.49497226420858
 10
96.24540233100432
 20
84.49527172611309
 10
96.24317836347344
 20
84.49567905738474
 10
96.24099210466223
 20
84.49619152449178
 10
96.2388465334193
 20
84.49680639390253
 10
96.23674462859332
 20
84.49752093208521
 10
96.234689369033
 20
84.49833240550818
 10
96.23268373358699
 20
84.49923808063964
 10
96.23073070110395
 20
84.50023522394792
 10
96.22883325043257
 20
84.50132110190127
 10
96.2269943604215
 20
84.502492980968
 10
96.22521700991942
 20
84.50374812761635
 10
96.22350417777495
 20
84.50508380831463
 10
96.22185884283688
 20
84.50649728953115
 10
96.22028398395377
 20
84.5079858377341
 10
96.2187825799743
 20
84.50954671939184
 10
96.2173576097472
 20
84.51117720097263
 10
96.21601205212114
 20
84.51287454894471
 10
96.2147488859447
 20
84.51463602977639
 10
96.21357109006659
 20
84.51645890993598
 10
96.21248164333549
 20
84.51834045589174
 10
96.21148352460009
 20
84.52027793411192
 10
96.21057971270905
 20
84.52226861106481
 10
96.20977318651101
 20
84.52430975321872
 10
96.20906692485469
 20
84.52639862704193
 10
96.20846390658874
 20
84.52853249900268
 10
96.20796711056177
 20
84.53070863556927
 10
96.20757951562248
 20
84.53292430320997
 10
96.20730410061961
 20
84.53517676839306
 10
96.20714384440177
 20
84.53746329758685
 10
96.20710172581759
 20
84.53978115725956
  0
LINE
  5
38E
330
17EC
100
AcDbEntity
  8
GAIKEI
 62
     1
100
AcDbLine
 10
96.37227470251264
 20
84.49489927657259
 30
0.0
 11
96.25227069742486
 21
84.49470788262505
 31
0.0
  0
LINE
  5
38F
330
17EC
100
AcDbEntity
  8
GAIKEI
 62
     1
100
AcDbLine
 10
96.37227470251094
 20
84.40465703032156
 30
0.0
 11
96.3722747025114
 21
84.49489927657312
 31
0.0
  0
LINE
  5
390
330
17EC
100
AcDbEntity
  8
GAIKEI
 62
     1
100
AcDbLine
 10
96.2522706974213
 20
84.40465703032163
 30
0.0
 11
96.37227470251072
 21
84.40465703032163
 31
0.0
  0
LWPOLYLINE
  5
391
330
17EC
100
AcDbEntity
  8
GAIKEI
 62
     1
100
AcDbPolyline
 90
       33
 70
     0
 43
0.0
 10
83.83635392847738
 20
84.185798051365
 10
83.83405373746537
 20
84.18585673468365
 10
83.83178435125319
 20
84.18603089219487
 10
83.82954853841775
 20
84.18631768523109
 10
83.82734906753608
 20
84.18671427512476
 10
83.82518870718522
 20
84.1872178232083
 10
83.8230702259421
 20
84.18782549081411
 10
83.82099639238369
 20
84.18853443927478
 10
83.81896997508706
 20
84.18934182992259
 10
83.81699374262927
 20
84.19024482409016
 10
83.81507046358716
 20
84.19124058310977
 10
83.81320290653786
 20
84.19232626831393
 10
83.81139384005832
 20
84.1934990410351
 10
83.80964603272547
 20
84.19475606260569
 10
83.80796225311643
 20
84.19609449435819
 10
83.80634526980811
 20
84.19751149762495
 10
83.80479785137756
 20
84.19900423373858
 10
83.80332276640178
 20
84.20056986403137
 10
83.80192278345774
 20
84.20220554983584
 10
83.80060067112244
 20
84.20390845248441
 10
83.79935919797288
 20
84.20567573330952
 10
83.79820113258613
 20
84.20750455364363
 10
83.79712924353901
 20
84.20939207481918
 10
83.79614629940872
 20
84.21133545816863
 10
83.79525506877209
 20
84.21333186502437
 10
83.79445832020627
 20
84.2153784567189
 10
83.79375882228817
 20
84.21747239458467
 10
83.7931593435948
 20
84.21961083995405
 10
83.7926626527032
 20
84.22179095415959
 10
83.79227151819032
 20
84.22400989853363
 10
83.79198870863318
 20
84.22626483440868
 10
83.79181699260872
 20
84.22855292311719
 10
83.79175913869403
 20
84.23087132599155
  0
LINE
  5
392
330
17EC
100
AcDbEntity
  8
GAIKEI
 62
     1
100
AcDbLine
 10
83.95654932731725
 20
84.18579805115587
 30
0.0
 11
83.83635392827285
 21
84.18579805114131
 31
0.0
  0
LINE
  5
393
330
17EC
100
AcDbEntity
  8
GAIKEI
 62
     1
100
AcDbLine
 10
83.95654932728211
 20
84.09584289624763
 30
0.0
 11
83.95654932726756
 21
84.18579805159231
 31
0.0
  0
LINE
  5
394
330
17EC
100
AcDbEntity
  8
GAIKEI
 62
     1
100
AcDbLine
 10
83.83635392826182
 20
84.09584289602936
 30
0.0
 11
83.95654932725779
 21
84.09584289603662
 31
0.0
  0
LWPOLYLINE
  5
395
330
17EC
100
AcDbEntity
  8
GAIKEI
 62
     1
100
AcDbPolyline
 90
       33
 70
     0
 43
0.0
 10
83.79156774458575
 20
84.05076962129575
 10
83.79164298679825
 20
84.05308802416985
 10
83.79183100471687
 20
84.05537611287806
 10
83.7921290648099
 20
84.05763104875287
 10
83.79253443354555
 20
84.0598499931267
 10
83.7930443773922
 20
84.06203010733195
 10
83.79365616281805
 20
84.06416855270112
 10
83.79436705629142
 20
84.06626249056664
 10
83.79517432428059
 20
84.06830908226096
 10
83.79607523325379
 20
84.07030548911649
 10
83.79706704967937
 20
84.07224887246572
 10
83.79814704002559
 20
84.07413639364106
 10
83.79931247076068
 20
84.07596521397497
 10
83.80056060835299
 20
84.07773249479987
 10
83.80188871927074
 20
84.07943539744826
 10
83.80329406998226
 20
84.08107108325253
 10
83.8047739269558
 20
84.08263671354514
 10
83.80632555665966
 20
84.08412944965856
 10
83.80794622556207
 20
84.0855464529252
 10
83.80963320013135
 20
84.08688488467751
 10
83.81138374683581
 20
84.08814190624797
 10
83.8131951321437
 20
84.08931467896897
 10
83.81506462252326
 20
84.09040036417298
 10
83.81698948444283
 20
84.09139612319247
 10
83.81896698437065
 20
84.09229911735984
 10
83.82099438877503
 20
84.09310650800755
 10
83.82306896412423
 20
84.09381545646809
 10
83.82518797688652
 20
84.09442312407382
 10
83.82734869353024
 20
84.09492667215722
 10
83.82954838052356
 20
84.09532326205079
 10
83.83178430433488
 20
84.09561005508688
 10
83.8340537314324
 20
84.09578421259801
 10
83.83635392828443
 20
84.09584289591657
  0
LINE
  5
396
330
17EC
100
AcDbEntity
  8
GAIKEI
 62
     1
100
AcDbLine
 10
83.79175913867765
 20
83.93076561646408
 30
0.0
 11
83.79156774472996
 21
84.05076962157812
 31
0.0
  0
LINE
  5
397
330
17EC
100
AcDbEntity
  8
GAIKEI
 62
     1
100
AcDbLine
 10
83.70180398318918
 20
83.9307656163297
 30
0.0
 11
83.79175913850479
 21
83.9307656163295
 31
0.0
  0
LINE
  5
398
330
17EC
100
AcDbEntity
  8
GAIKEI
 62
     1
100
AcDbLine
 10
83.70180398332012
 20
84.05076962136082
 30
0.0
 11
83.70180398332012
 21
83.93076561626807
 31
0.0
  0
LWPOLYLINE
  5
399
330
17EC
100
AcDbEntity
  8
GAIKEI
 62
     1
100
AcDbPolyline
 90
       33
 70
     0
 43
0.0
 10
83.65644361774235
 20
84.09584289600543
 10
83.65876284418101
 20
84.09578421268648
 10
83.6610533334913
 20
84.09561005517497
 10
83.6633121418699
 20
84.09532326213845
 10
83.66553632551333
 20
84.09492667224453
 10
83.66772294061826
 20
84.09442312416066
 10
83.66986904338132
 20
84.09381545655453
 10
83.67197168999902
 20
84.09310650809358
 10
83.67402793666808
 20
84.09229911744541
 10
83.67603483958504
 20
84.09139612327757
 10
83.67798945494651
 20
84.09040036425766
 10
83.67988883894916
 20
84.08931467905317
 10
83.68173004778954
 20
84.08814190633167
 10
83.68351013766426
 20
84.08688488476075
 10
83.68522616476999
 20
84.08554645300794
 10
83.68687518530325
 20
84.08412944974079
 10
83.68845425546069
 20
84.08263671362687
 10
83.68996043143894
 20
84.08107108333373
 10
83.6913907694346
 20
84.07943539752894
 10
83.69274232564428
 20
84.07773249488005
 10
83.69401215626455
 20
84.07596521405459
 10
83.69519731749205
 20
84.07413639372014
 10
83.69629486552343
 20
84.07224887254423
 10
83.69730185655519
 20
84.07030548919445
 10
83.69821534678406
 20
84.06830908233834
 10
83.6990323924066
 20
84.06626249064345
 10
83.69975004961935
 20
84.06416855277736
 10
83.70036537461905
 20
84.06203010740759
 10
83.7008754236022
 20
84.05984999320173
 10
83.70127725276546
 20
84.05763104882732
 10
83.70156791830543
 20
84.05537611295189
 10
83.70174447641874
 20
84.05308802424301
 10
83.70180398330193
 20
84.05076962136829
  0
LINE
  5
39A
330
17EC
100
AcDbEntity
  8
GAIKEI
 62
     1
100
AcDbLine
 10
83.53682240053547
 20
84.09584289602207
 30
0.0
 11
83.65644361771408
 21
84.0958428960239
 31
0.0
  0
LINE
  5
39B
330
17EC
100
AcDbEntity
  8
GAIKEI
 62
     1
100
AcDbLine
 10
83.53682240056155
 20
84.18579805131754
 30
0.0
 11
83.53682240056023
 21
84.09584289598116
 31
0.0
  0
LINE
  5
39C
330
17EC
100
AcDbEntity
  8
GAIKEI
 62
     1
100
AcDbLine
 10
83.65644361776867
 20
84.1857980513523
 30
0.0
 11
83.53682240057665
 21
84.18579805135529
 31
0.0
  0
LWPOLYLINE
  5
39D
330
17EC
100
AcDbEntity
  8
GAIKEI
 62
     1
100
AcDbPolyline
 90
       33
 70
     0
 43
0.0
 10
83.7018039833233
 20
84.23087132598295
 10
83.70174447644041
 20
84.22855292310831
 10
83.70156791832744
 20
84.22626483439957
 10
83.70127725278777
 20
84.22400989852425
 10
83.70087542362481
 20
84.22179095414993
 10
83.70036537464194
 20
84.21961083994414
 10
83.69975004964254
 20
84.21747239457443
 10
83.69903239243003
 20
84.2153784567084
 10
83.69821534680777
 20
84.21333186501355
 10
83.69730185657916
 20
84.21133545815747
 10
83.69629486554758
 20
84.20939207480772
 10
83.69519731751648
 20
84.20750455363187
 10
83.69401215628919
 20
84.20567573329741
 10
83.6927423256691
 20
84.20390845247196
 10
83.69139076945963
 20
84.20220554982302
 10
83.68996043146413
 20
84.20056986401823
 10
83.68845425548606
 20
84.19900423372506
 10
83.68687518532874
 20
84.19751149761109
 10
83.68522616479562
 20
84.19609449434391
 10
83.68351013769006
 20
84.19475606259105
 10
83.68173004781544
 20
84.19349904102004
 10
83.67988883897517
 20
84.19232626829845
 10
83.67798945497266
 20
84.19124058309389
 10
83.67603483961124
 20
84.19024482407385
 10
83.67402793669436
 20
84.18934182990591
 10
83.67197169002537
 20
84.1885344392576
 10
83.6698690434077
 20
84.18782549079654
 10
83.66772294064471
 20
84.18721782319023
 10
83.66553632553983
 20
84.18671427510622
 10
83.66331214189637
 20
84.18631768521214
 10
83.66105333351782
 20
84.18603089217546
 10
83.65876284420751
 20
84.18585673466376
 10
83.65644361776885
 20
84.18579805134461
  0
LINE
  5
39E
330
17EC
100
AcDbEntity
  8
GAIKEI
 62
     1
100
AcDbLine
 10
83.7018039833247
 20
84.35077963409776
 30
0.0
 11
83.7018039833247
 21
84.23087132598269
 31
0.0
  0
LINE
  5
39F
330
17EC
100
AcDbEntity
  8
GAIKEI
 62
     1
100
AcDbLine
 10
83.79175913865493
 20
84.35077963409742
 30
0.0
 11
83.7018039833247
 21
84.35077963409787
 31
0.0
  0
LINE
  5
3A0
330
17EC
100
AcDbEntity
  8
GAIKEI
 62
     1
100
AcDbLine
 10
83.79175913865493
 20
84.23087132598146
 30
0.0
 11
83.79175913865493
 21
84.35077963409717
 31
0.0
  0
LWPOLYLINE
  5
3A1
330
17EC
100
AcDbEntity
  8
GAIKEI
 62
     1
100
AcDbPolyline
 90
       33
 70
     0
 43
0.0
 10
83.79175913896441
 20
70.55079753359338
 10
83.79181699287972
 20
70.55309882269034
 10
83.79198870890474
 20
70.55537140970426
 10
83.79227151846254
 20
70.55761238587698
 10
83.79266265297612
 20
70.55981884245044
 10
83.79315934386843
 20
70.56198787066645
 10
83.79375882256244
 20
70.56411656176698
 10
83.79445832048125
 20
70.56620200699388
 10
83.79525506904776
 20
70.56824129758901
 10
83.79614629968509
 20
70.57023152479438
 10
83.79712924381619
 20
70.57216977985169
 10
83.79820113286399
 20
70.57405315400297
 10
83.79935919825157
 20
70.57587873849003
 10
83.8006006714019
 20
70.57764362455478
 10
83.80192278373801
 20
70.57934490343916
 10
83.80332276668287
 20
70.58097966638498
 10
83.80479785165951
 20
70.58254500463417
 10
83.80634527009092
 20
70.58403800942858
 10
83.80796225340008
 20
70.58545577201018
 10
83.80964603300999
 20
70.58679538362077
 10
83.81139384034369
 20
70.58805393550226
 10
83.81320290682417
 20
70.58922851889654
 10
83.81507046387444
 20
70.59031622504557
 10
83.81699374291743
 20
70.59131414519109
 10
83.81896997537621
 20
70.59221937057509
 10
83.82099639267382
 20
70.59302899243945
 10
83.82307022623313
 20
70.59374010202606
 10
83.82518870747729
 20
70.5943497905768
 10
83.82734906782919
 20
70.59485514933351
 10
83.82954853871188
 20
70.59525326953812
 10
83.83178435154835
 20
70.59554124243255
 10
83.83405373776161
 20
70.59571615925865
 10
83.83635392877465
 20
70.59577511125825
  0
LINE
  5
3A2
330
17EC
100
AcDbEntity
  8
GAIKEI
 62
     1
100
AcDbLine
 10
83.79175913848667
 20
70.4307935280326
 30
0.0
 11
83.79175913846029
 21
70.55079753303926
 31
0.0
  0
LINE
  5
3A3
330
17EC
100
AcDbEntity
  8
GAIKEI
 62
     1
100
AcDbLine
 10
83.7018039831155
 20
70.43079352877036
 30
0.0
 11
83.79175913841379
 21
70.43079352876986
 31
0.0
  0
LINE
  5
3A4
330
17EC
100
AcDbEntity
  8
GAIKEI
 62
     1
100
AcDbLine
 10
83.70180398332012
 20
70.55060613982731
 30
0.0
 11
83.70180398332832
 21
70.43079352869881
 31
0.0
  0
LWPOLYLINE
  5
3A5
330
17EC
100
AcDbEntity
  8
GAIKEI
 62
     1
100
AcDbPolyline
 90
       33
 70
     0
 43
0.0
 10
83.65644361786218
 20
70.5957751114841
 10
83.65876284430138
 20
70.59571615364468
 10
83.66105333361224
 20
70.59554119593355
 10
83.66331214199139
 20
70.59525311206352
 10
83.6655363256354
 20
70.59485477574745
 10
83.66772294074088
 20
70.59434906069812
 10
83.66986904350445
 20
70.59373884062842
 10
83.67197169012277
 20
70.59302698925115
 10
83.67402793679238
 20
70.59221638027917
 10
83.6760348397099
 20
70.59130988742528
 10
83.67798945507196
 20
70.59031038440235
 10
83.67988883907516
 20
70.58922074492319
 10
83.68173004791612
 20
70.58804384270065
 10
83.68351013779143
 20
70.58678255144757
 10
83.68522616489768
 20
70.58543974487675
 10
83.68687518543152
 20
70.58401829670104
 10
83.68845425558957
 20
70.58252108063332
 10
83.68996043156839
 20
70.58095097038634
 10
83.69139076956463
 20
70.57931083967298
 10
83.69274232577486
 20
70.57760356220609
 10
83.69401215639573
 20
70.57583201169848
 10
83.69519731762382
 20
70.57399906186297
 10
83.69629486565576
 20
70.57210758641244
 10
83.69730185668814
 20
70.57016045905971
 10
83.69821534691757
 20
70.56816055351756
 10
83.69903239254067
 20
70.56611074349891
 10
83.69975004975405
 20
70.56401390271651
 10
83.70036537475431
 20
70.56187290488324
 10
83.70087542373806
 20
70.55969062371194
 10
83.70127725290194
 20
70.55746993291544
 10
83.7015679184425
 20
70.55521370620656
 10
83.70174447655637
 20
70.55292481729812
 10
83.70180398344018
 20
70.55060613990298
  0
LINE
  5
3A6
330
17EC
100
AcDbEntity
  8
GAIKEI
 62
     1
100
AcDbLine
 10
83.53682240072032
 20
70.59577511125826
 30
0.0
 11
83.65644361791977
 21
70.59577511125098
 31
0.0
  0
LINE
  5
3A7
330
17EC
100
AcDbEntity
  8
GAIKEI
 62
     1
100
AcDbLine
 10
83.53682240055524
 20
70.68582596358067
 30
0.0
 11
83.53682240055276
 21
70.59577511126743
 31
0.0
  0
LINE
  5
3A8
330
17EC
100
AcDbEntity
  8
GAIKEI
 62
     1
100
AcDbLine
 10
83.65644361780141
 20
70.68582596365011
 30
0.0
 11
83.53682240062381
 21
70.68582596365377
 31
0.0
  0
LWPOLYLINE
  5
3A9
330
17EC
100
AcDbEntity
  8
GAIKEI
 62
     1
100
AcDbPolyline
 90
       33
 70
     0
 43
0.0
 10
83.70180398332745
 20
70.7307078443414
 10
83.70174447644457
 20
70.72840682976577
 10
83.70156791833158
 20
70.72613504295238
 10
83.70127725279191
 20
70.72389535761406
 10
83.70087542362892
 20
70.72169064746366
 10
83.70036537464605
 20
70.71952378621398
 10
83.69975004964663
 20
70.71739764757791
 10
83.69903239243409
 20
70.71531510526823
 10
83.69821534681181
 20
70.7132790329978
 10
83.69730185658321
 20
70.71129230447946
 10
83.69629486555165
 20
70.70935779342605
 10
83.69519731752047
 20
70.70747837355035
 10
83.69401215629316
 20
70.70565691856526
 10
83.69274232567306
 20
70.70389630218357
 10
83.69139076946359
 20
70.70219939811815
 10
83.68996043146809
 20
70.70056908008182
 10
83.68845425548999
 20
70.69900822178738
 10
83.68687518533269
 20
70.69751969694769
 10
83.68522616479953
 20
70.69610637927564
 10
83.68351013769395
 20
70.69477114248394
 10
83.6817300478193
 20
70.69351686028555
 10
83.67988883897901
 20
70.6923464063932
 10
83.67798945497646
 20
70.69126265451981
 10
83.67603483961506
 20
70.69026847837818
 10
83.67402793669816
 20
70.68936675168114
 10
83.67197169002915
 20
70.68856034814152
 10
83.66986904341146
 20
70.68785214147216
 10
83.66772294064844
 20
70.68724500538589
 10
83.66553632554353
 20
70.68674181359553
 10
83.6633121419001
 20
70.68634543981396
 10
83.66105333352152
 20
70.68605875775396
 10
83.65876284421121
 20
70.68588464112844
 10
83.65644361777251
 20
70.68582596365011
  0
LINE
  5
3AA
330
17EC
100
AcDbEntity
  8
GAIKEI
 62
     1
100
AcDbLine
 10
83.70180398329102
 20
70.85061615244751
 30
0.0
 11
83.7018039832874
 21
70.7307078443351
 31
0.0
  0
LINE
  5
3AB
330
17EC
100
AcDbEntity
  8
GAIKEI
 62
     1
100
AcDbLine
 10
83.79175913864584
 20
70.85061615246309
 30
0.0
 11
83.70180398331468
 21
70.8506161524665
 31
0.0
  0
LINE
  5
3AC
330
17EC
100
AcDbEntity
  8
GAIKEI
 62
     1
100
AcDbLine
 10
83.79175913865401
 20
70.73070784434094
 30
0.0
 11
83.79175913865401
 21
70.85061615245848
 31
0.0
  0
LWPOLYLINE
  5
3AD
330
17EC
100
AcDbEntity
  8
GAIKEI
 62
     1
100
AcDbPolyline
 90
       33
 70
     0
 43
0.0
 10
83.83635392842007
 20
70.68582596364219
 10
83.83403689815207
 20
70.6858840979183
 10
83.83175281044584
 20
70.68605665502857
 10
83.82950432874253
 20
70.68634086639609
 10
83.8272941164833
 20
70.68673396344379
 10
83.82512483710934
 20
70.68723317759469
 10
83.82299915406177
 20
70.68783574027178
 10
83.82091973078178
 20
70.68853888289808
 10
83.81888923071054
 20
70.68933983689664
 10
83.81691031728919
 20
70.6902358336903
 10
83.8149856539589
 20
70.69122410470225
 10
83.81311790416086
 20
70.69230188135539
 10
83.81130973133618
 20
70.69346639507275
 10
83.80956379892609
 20
70.69471487727732
 10
83.8078827703717
 20
70.69604455939209
 10
83.8062693091142
 20
70.69745267284009
 10
83.80472607859472
 20
70.69893644904431
 10
83.8032557422545
 20
70.70049311942773
 10
83.8018609635346
 20
70.70211991541338
 10
83.80054440587626
 20
70.70381406842425
 10
83.79930873272062
 20
70.70557280988335
 10
83.79815660750884
 20
70.70739337121366
 10
83.79709069368207
 20
70.7092729838382
 10
83.79611365468148
 20
70.71120887917995
 10
83.79522815394826
 20
70.71319828866196
 10
83.79443685492359
 20
70.7152384437072
 10
83.79374242104855
 20
70.7173265757386
 10
83.79314751576435
 20
70.71945991617929
 10
83.79265480251216
 20
70.72163569645221
 10
83.79226694473315
 20
70.72385114798035
 10
83.79198660586846
 20
70.72610350218671
 10
83.79181644935925
 20
70.72838999049435
 10
83.79175913864674
 20
70.7307078443262
  0
LINE
  5
3AE
330
17EC
100
AcDbEntity
  8
GAIKEI
 62
     1
100
AcDbLine
 10
83.9565493274631
 20
70.68582596364513
 30
0.0
 11
83.83635392842712
 21
70.68582596364672
 31
0.0
  0
LINE
  5
3AF
330
17EC
100
AcDbEntity
  8
GAIKEI
 62
     1
100
AcDbLine
 10
83.95654932746197
 20
70.5957751113393
 30
0.0
 11
83.95654932746197
 21
70.68582596364365
 31
0.0
  0
LINE
  5
3B0
330
17EC
100
AcDbEntity
  8
GAIKEI
 62
     1
100
AcDbLine
 10
83.83635392842506
 20
70.59577511133916
 30
0.0
 11
83.95654932746195
 21
70.59577511133916
 31
0.0
  0
LWPOLYLINE
  5
3B1
330
17EC
100
AcDbEntity
  8
GAIKEI
 62
     1
100
AcDbPolyline
 90
       33
 70
     0
 43
0.0
 10
91.86686117777686
 20
68.1612440986666
 10
91.86691903753086
 20
68.16354510740078
 10
91.86709079443984
 20
68.16581685332742
 10
91.86737371497214
 20
68.16805642768847
 10
91.86776506559608
 20
68.17026092172577
 10
91.86826211277985
 20
68.17242742668121
 10
91.86886212299169
 20
68.17455303379664
 10
91.86956236270004
 20
68.17663483431402
 10
91.87036009837305
 20
68.1786699194752
 10
91.87125259647899
 20
68.18065538052207
 10
91.87223712348629
 20
68.18258830869652
 10
91.8733109458631
 20
68.18446579524044
 10
91.87447133007772
 20
68.18628493139569
 10
91.87571554259839
 20
68.18804280840422
 10
91.87704084989352
 20
68.18973651750787
 10
91.87844451843124
 20
68.19136314994853
 10
91.87992381467994
 20
68.1929197969681
 10
91.88147600510786
 20
68.19440354980844
 10
91.88309835618328
 20
68.19581149971148
 10
91.88478813437443
 20
68.19714073791907
 10
91.88654260614969
 20
68.19838835567313
 10
91.88835903797723
 20
68.19955144421553
 10
91.8902346963255
 20
68.20062709478816
 10
91.89216684766256
 20
68.20161239863292
 10
91.8941527584568
 20
68.20250444699166
 10
91.89618969517656
 20
68.2033003311063
 10
91.89827492429001
 20
68.20399714221872
 10
91.9004057122655
 20
68.20459197157082
 10
91.90257932557129
 20
68.20508191040445
 10
91.9047930306756
 20
68.20546404996154
 10
91.90704409404684
 20
68.20573548148397
 10
91.90932978215315
 20
68.2058932962136
 10
91.91164736146294
 20
68.20593458539232
  0
LINE
  5
3B2
330
17EC
100
AcDbEntity
  8
GAIKEI
 62
     1
100
AcDbLine
 10
91.86705257208769
 20
68.04114439673231
 30
0.0
 11
91.866861178139
 21
68.16124409876488
 31
0.0
  0
LINE
  5
3B3
330
17EC
100
AcDbEntity
  8
GAIKEI
 62
     1
100
AcDbLine
 10
91.77690602239151
 20
68.04133579118752
 30
0.0
 11
91.8670525716168
 21
68.04114439728254
 31
0.0
  0
LINE
  5
3B4
330
17EC
100
AcDbEntity
  8
GAIKEI
 62
     1
100
AcDbLine
 10
91.77690602265377
 20
68.16105270477057
 30
0.0
 11
91.77690602263572
 21
68.04133579056736
 31
0.0
  0
LWPOLYLINE
  5
3B5
330
17EC
100
AcDbEntity
  8
GAIKEI
 62
     1
100
AcDbPolyline
 90
       33
 70
     0
 43
0.0
 10
91.73173705125783
 20
68.20612597982814
 10
91.73405572865419
 20
68.20606729650961
 10
91.73634461756385
 20
68.20589313899851
 10
91.73860084427401
 20
68.2056063459624
 10
91.74082153507177
 20
68.20520975606888
 10
91.74300381624433
 20
68.20470620798545
 10
91.74514481407888
 20
68.20409854037972
 10
91.74724165486257
 20
68.20338959191919
 10
91.74929146488251
 20
68.20258220127143
 10
91.75129137042594
 20
68.20167920710403
 10
91.75323849778001
 20
68.20068344808453
 10
91.75512997323187
 20
68.19959776288047
 10
91.75696292306872
 20
68.1984249901594
 10
91.75873447357764
 20
68.1971679685889
 10
91.76044175104591
 20
68.19582953683651
 10
91.76208188176063
 20
68.19441253356979
 10
91.76365199200896
 20
68.19291979745631
 10
91.76514920807809
 20
68.1913541671636
 10
91.76657065625521
 20
68.18971848135925
 10
91.7679134628274
 20
68.18801557871075
 10
91.76917475408192
 20
68.18624829788572
 10
91.77035165630584
 20
68.1844194775517
 10
91.77144129578646
 20
68.18253195637621
 10
91.77244079881081
 20
68.18058857302688
 10
91.77334729166615
 20
68.17859216617121
 10
91.77415790063955
 20
68.17654557447673
 10
91.77486975201828
 20
68.17445163661107
 10
91.77547997208948
 20
68.17231319124172
 10
91.77598568714028
 20
68.17013307703629
 10
91.77638402345785
 20
68.16791413266229
 10
91.77667210732938
 20
68.16565919678732
 10
91.776847065042
 20
68.16337110807888
 10
91.77690602288294
 20
68.16105270520458
  0
LINE
  5
3B6
330
17EC
100
AcDbEntity
  8
GAIKEI
 62
     1
100
AcDbLine
 10
91.61192443997059
 20
68.20593458577332
 30
0.0
 11
91.73173705109844
 21
68.20612597972945
 31
0.0
  0
LINE
  5
3B7
330
17EC
100
AcDbEntity
  8
GAIKEI
 62
     1
100
AcDbLine
 10
91.61192444008749
 20
68.29588974113358
 30
0.0
 11
91.61192444009977
 21
68.20593458580702
 31
0.0
  0
LINE
  5
3B8
330
17EC
100
AcDbEntity
  8
GAIKEI
 62
     1
100
AcDbLine
 10
91.73173705115912
 20
68.29608113504946
 30
0.0
 11
91.611924440025
 21
68.29588974110582
 31
0.0
  0
LWPOLYLINE
  5
3B9
330
17EC
100
AcDbEntity
  8
GAIKEI
 62
     1
100
AcDbPolyline
 90
       33
 70
     0
 43
0.0
 10
91.77690602277641
 20
68.34115440967554
 10
91.77683022567986
 20
68.33883600680096
 10
91.77664056647357
 20
68.33654791809225
 10
91.7763398137345
 20
68.33429298221698
 10
91.7759307360397
 20
68.33207403784268
 10
91.77541610196612
 20
68.32989392363694
 10
91.77479868009084
 20
68.32775547826729
 10
91.77408123899075
 20
68.32566154040129
 10
91.77326654724295
 20
68.3236149487065
 10
91.7723573734244
 20
68.32161854185047
 10
91.7713564861121
 20
68.31967515850076
 10
91.77026665388304
 20
68.31778763732494
 10
91.7690906453142
 20
68.31595881699053
 10
91.76783122898264
 20
68.31419153616512
 10
91.76649117346528
 20
68.31248863351624
 10
91.76507324733917
 20
68.31085294771146
 10
91.76358021918129
 20
68.30928731741832
 10
91.76201485756866
 20
68.30779458130442
 10
91.76037993107826
 20
68.30637757803725
 10
91.75867820828708
 20
68.30503914628444
 10
91.75691245777215
 20
68.30378212471348
 10
91.75508544811044
 20
68.30260935199195
 10
91.75319994787901
 20
68.30152366678742
 10
91.75125872565473
 20
68.30052790776742
 10
91.74926455001473
 20
68.29962491359953
 10
91.74722018953593
 20
68.29881752295128
 10
91.74512841279536
 20
68.29810857449024
 10
91.74299198837003
 20
68.29750090688397
 10
91.74081368483689
 20
68.29699735880002
 10
91.73859627077298
 20
68.29660076890596
 10
91.73634251475531
 20
68.29631397586933
 10
91.73405518536084
 20
68.29613981835766
 10
91.73173705116658
 20
68.29608113503853
  0
LINE
  5
3BA
330
17EC
100
AcDbEntity
  8
GAIKEI
 62
     1
100
AcDbLine
 10
91.77690602274891
 20
68.46115841475614
 30
0.0
 11
91.77690602274642
 21
68.34115440967486
 31
0.0
  0
LINE
  5
3BB
330
17EC
100
AcDbEntity
  8
GAIKEI
 62
     1
100
AcDbLine
 10
91.86705257205078
 20
68.46134980869647
 30
0.0
 11
91.77690602277346
 21
68.46115841474966
 31
0.0
  0
LINE
  5
3BC
330
17EC
100
AcDbEntity
  8
GAIKEI
 62
     1
100
AcDbLine
 10
91.86705257205359
 20
68.34115440965978
 30
0.0
 11
91.86705257205741
 21
68.4613498086955
 31
0.0
  0
LWPOLYLINE
  5
3BD
330
17EC
100
AcDbEntity
  8
GAIKEI
 62
     1
100
AcDbPolyline
 90
       33
 70
     0
 43
0.0
 10
91.9116473618129
 20
68.29588974107664
 10
91.90933033154498
 20
68.2959489734382
 10
91.90704624383881
 20
68.29612473135066
 10
91.90479776213555
 20
68.29641410605593
 10
91.9025875498764
 20
68.29681418879586
 10
91.90041827050249
 20
68.2973220708124
 10
91.89829258745495
 20
68.29793484334735
 10
91.89621316417506
 20
68.29864959764266
 10
91.89418266410385
 20
68.2994634249402
 10
91.89220375068257
 20
68.30037341648189
 10
91.89027908735235
 20
68.30137666350954
 10
91.88841133755436
 20
68.30247025726511
 10
91.88660316472976
 20
68.30365128899045
 10
91.88485723231972
 20
68.30491684992743
 10
91.88317620376542
 20
68.30626403131802
 10
91.88156274250799
 20
68.30768992440404
 10
91.88001951198858
 20
68.30919162042738
 10
91.87854917564839
 20
68.31076621062994
 10
91.8771543969286
 20
68.3124107862536
 10
91.8758378392703
 20
68.31412243854028
 10
91.87460216611473
 20
68.3158982587318
 10
91.87345004090301
 20
68.31773533807011
 10
91.87238412707632
 20
68.31963076779707
 10
91.87140708807584
 20
68.3215816391546
 10
91.87052158734267
 20
68.3235850433845
 10
91.86973028831804
 20
68.32563807172879
 10
91.8690358544431
 20
68.32773781542923
 10
91.86844094915899
 20
68.32988136572779
 10
91.86794823590686
 20
68.33206581386632
 10
91.86756037812797
 20
68.33428825108673
 10
91.86728003926331
 20
68.33654576863088
 10
91.8671098827542
 20
68.33883545774068
 10
91.86705257204176
 20
68.34115440965802
  0
LINE
  5
3BE
330
17EC
100
AcDbEntity
  8
GAIKEI
 62
     1
100
AcDbLine
 10
92.0318427608522
 20
68.2960811350199
 30
0.0
 11
91.91164736181505
 21
68.29588974107287
 31
0.0
  0
LINE
  5
3BF
330
17EC
100
AcDbEntity
  8
GAIKEI
 62
     1
100
AcDbLine
 10
92.03184276085313
 20
68.20612597968874
 30
0.0
 11
92.03184276085393
 21
68.29608113501911
 31
0.0
  0
LINE
  5
3C0
330
17EC
100
AcDbEntity
  8
GAIKEI
 62
     1
100
AcDbLine
 10
91.91164736181574
 20
68.20593458574115
 30
0.0
 11
92.03184276085279
 21
68.20612597968865
 31
0.0
  0
LWPOLYLINE
  5
3C1
330
17EC
100
AcDbEntity
  8
GAIKEI
 62
     1
100
AcDbPolyline
 90
       33
 70
     0
 43
0.0
 10
89.23729973324466
 20
58.34742374360196
 10
89.23735813036017
 20
58.3497421464775
 10
89.23753140589857
 20
58.35203023518718
 10
89.23781668614694
 20
58.3542851710634
 10
89.23821109739245
 20
58.35650411543865
 10
89.23871176592225
 20
58.35868422964538
 10
89.23931581802353
 20
58.360822675016
 10
89.24002037998352
 20
58.36291661288297
 10
89.24082257808924
 20
58.36496320457874
 10
89.24171953862799
 20
58.36695961143575
 10
89.24270838788686
 20
58.36890299478643
 10
89.24378625215309
 20
58.37079051596324
 10
89.24495025771374
 20
58.37261933629862
 10
89.24619753085607
 20
58.37438661712503
 10
89.2475251978672
 20
58.37608951977486
 10
89.24893038503425
 20
58.37772520558064
 10
89.25041021864451
 20
58.37929083587475
 10
89.25196182498504
 20
58.38078357198968
 10
89.25358233034307
 20
58.38220057525782
 10
89.2552688610057
 20
58.38353900701164
 10
89.25701854326016
 20
58.3847960285836
 10
89.25882850339359
 20
58.3859688013061
 10
89.26069586769315
 20
58.38705448651166
 10
89.26261776244604
 20
58.38805024553265
 10
89.26459131393935
 20
58.38895323970156
 10
89.26661364846035
 20
58.38976063035085
 10
89.26868189229608
 20
58.39046957881286
 10
89.27079317173385
 20
58.39107724642012
 10
89.27294461306066
 20
58.39158079450512
 10
89.27513334256387
 20
58.3919773844002
 10
89.27735648653046
 20
58.39226417743786
 10
89.27961117124771
 20
58.39243833495053
 10
89.28189452300278
 20
58.39249701827068
  0
LINE
  5
3C2
330
17EC
100
AcDbEntity
  8
GAIKEI
 62
     1
100
AcDbLine
 10
89.23729973352237
 20
58.22722834434717
 30
0.0
 11
89.23729973355603
 21
58.34742374338737
 31
0.0
  0
LINE
  5
3C3
330
17EC
100
AcDbEntity
  8
GAIKEI
 62
     1
100
AcDbLine
 10
89.14734457831945
 20
58.22722834407887
 30
0.0
 11
89.23729973367869
 21
58.2272283440434
 31
0.0
  0
LINE
  5
3C4
330
17EC
100
AcDbEntity
  8
GAIKEI
 62
     1
100
AcDbLine
 10
89.14734457789018
 20
58.34761513736157
 30
0.0
 11
89.14734457789426
 21
58.22722834438479
 31
0.0
  0
LWPOLYLINE
  5
3C5
330
17EC
100
AcDbEntity
  8
GAIKEI
 62
     1
100
AcDbPolyline
 90
       33
 70
     0
 43
0.0
 10
89.10198421235419
 20
58.39249701797718
 10
89.10430343879239
 20
58.39243834049902
 10
89.10659392810222
 20
58.3922642238736
 10
89.10885273648034
 20
58.39197754181374
 10
89.11107692012334
 20
58.39158116803227
 10
89.11326353522779
 20
58.39107797624205
 10
89.11540963799039
 20
58.39047084015586
 10
89.11751228460762
 20
58.38976263348658
 10
89.11956853127618
 20
58.38895622994701
 10
89.12157543419269
 20
58.38805450325002
 10
89.12353004955368
 20
58.38706032710843
 10
89.1254294335558
 20
58.38597657523508
 10
89.1272706423957
 20
58.38480612134278
 10
89.12905073226992
 20
58.3835518391444
 10
89.13076675937514
 20
58.38221660235273
 10
89.13241577990792
 20
58.38080328468064
 10
89.13399485006484
 20
58.37931475984096
 10
89.1355010260426
 20
58.3777539015465
 10
89.13693136403773
 20
58.37612358351011
 10
89.13828292024687
 20
58.37442667944465
 10
89.13955275086662
 20
58.37266606306291
 10
89.14073791209359
 20
58.37084460807775
 10
89.14183546012443
 20
58.368965188202
 10
89.1428424511557
 20
58.36703067714849
 10
89.14375594138402
 20
58.36504394863005
 10
89.14457298700597
 20
58.3630078763595
 10
89.14529064421822
 20
58.36092533404972
 10
89.14590596921733
 20
58.3587991954135
 10
89.14641601819997
 20
58.35663233416371
 10
89.14681784736266
 20
58.35442762401317
 10
89.14710851290207
 20
58.35218793867468
 10
89.14728507101481
 20
58.3499161518611
 10
89.14734457789746
 20
58.3476151372853
  0
LINE
  5
3C6
330
17EC
100
AcDbEntity
  8
GAIKEI
 62
     1
100
AcDbLine
 10
88.9823629951752
 20
58.39249701805346
 30
0.0
 11
89.10198421235776
 21
58.39249701805588
 31
0.0
  0
LINE
  5
3C7
330
17EC
100
AcDbEntity
  8
GAIKEI
 62
     1
100
AcDbLine
 10
88.98217160120019
 20
58.48245217330836
 30
0.0
 11
88.9823629951479
 21
58.39249701797279
 31
0.0
  0
LINE
  5
3C8
330
17EC
100
AcDbEntity
  8
GAIKEI
 62
     1
100
AcDbLine
 10
89.10198421232053
 20
58.48245217335352
 30
0.0
 11
88.98217160117068
 21
58.48245217335352
 31
0.0
  0
LWPOLYLINE
  5
3C9
330
17EC
100
AcDbEntity
  8
GAIKEI
 62
     1
100
AcDbPolyline
 90
       33
 70
     0
 43
0.0
 10
89.14734457788519
 20
58.52752544801607
 10
89.14728507100198
 20
58.5252070451415
 10
89.14710851288873
 20
58.52291895643278
 10
89.14681784734877
 20
58.5206640205575
 10
89.14641601818551
 20
58.5184450761832
 10
89.14590596920234
 20
58.51626496197746
 10
89.14529064420264
 20
58.5141265166078
 10
89.1445729869898
 20
58.51203257874179
 10
89.14375594136725
 20
58.509985987047
 10
89.14284245113835
 20
58.50798958019097
 10
89.14183546010649
 20
58.50604619684126
 10
89.14073791207504
 20
58.50415867566542
 10
89.13955275084743
 20
58.50232985533102
 10
89.13828292022706
 20
58.5005625745056
 10
89.13693136401725
 20
58.49885967185672
 10
89.13550102602149
 20
58.49722398605194
 10
89.13399485004307
 20
58.49565835575881
 10
89.13241577988548
 20
58.49416561964489
 10
89.13076675935204
 20
58.49274861637774
 10
89.12905073224612
 20
58.4914101846249
 10
89.1272706423712
 20
58.49015316305395
 10
89.12542943353061
 20
58.48898039033242
 10
89.12353004952775
 20
58.48789470512787
 10
89.12157543416602
 20
58.48689894610786
 10
89.11956853124882
 20
58.48599595193998
 10
89.11751228457951
 20
58.48518856129174
 10
89.11540963796154
 20
58.48447961283069
 10
89.11326353519823
 20
58.48387194522443
 10
89.11107692009299
 20
58.48336839714047
 10
89.10885273644923
 20
58.4829718072464
 10
89.10659392807033
 20
58.48268501420975
 10
89.10430343875972
 20
58.48251085669811
 10
89.10198421232072
 20
58.48245217337897
  0
LINE
  5
3CA
330
17EC
100
AcDbEntity
  8
GAIKEI
 62
     1
100
AcDbLine
 10
89.14734457790199
 20
58.64743375611311
 30
0.0
 11
89.14734457789496
 21
58.52752544799797
 31
0.0
  0
LINE
  5
3CB
330
17EC
100
AcDbEntity
  8
GAIKEI
 62
     1
100
AcDbLine
 10
89.23729973324133
 20
58.64743375610657
 30
0.0
 11
89.14734457791018
 21
58.64743375610442
 31
0.0
  0
LINE
  5
3CC
330
17EC
100
AcDbEntity
  8
GAIKEI
 62
     1
100
AcDbLine
 10
89.23729973326045
 20
58.52752544799841
 30
0.0
 11
89.23729973326635
 21
58.64743375611451
 31
0.0
  0
LWPOLYLINE
  5
3CD
330
17EC
100
AcDbEntity
  8
GAIKEI
 62
     1
100
AcDbPolyline
 90
       33
 70
     0
 43
0.0
 10
89.28189452301218
 20
58.48245217335691
 10
89.27961117125686
 20
58.48251031347387
 10
89.27735648653936
 20
58.4826829114703
 10
89.27513334257247
 20
58.48296723381451
 10
89.27294461306905
 20
58.48336054697474
 10
89.2707931717419
 20
58.48386011741929
 10
89.26868189230388
 20
58.48446321161644
 10
89.26661364846781
 20
58.48516709603445
 10
89.26459131394656
 20
58.48596903714163
 10
89.26261776245288
 20
58.48686630140623
 10
89.26069586769969
 20
58.48785615529656
 10
89.25882850339979
 20
58.48893586528088
 10
89.25701854326604
 20
58.49010269782747
 10
89.25526886101122
 20
58.49135391940462
 10
89.25358233034822
 20
58.49268679648058
 10
89.25196182498984
 20
58.49409859552368
 10
89.2504102186489
 20
58.49558658300217
 10
89.2489303850383
 20
58.49714802538432
 10
89.24752519787078
 20
58.49878018913845
 10
89.24619753085925
 20
58.50048034073279
 10
89.24495025771653
 20
58.50224574663563
 10
89.24378625215545
 20
58.50407367331529
 10
89.24270838788883
 20
58.50596138724
 10
89.2417195386295
 20
58.50790615487809
 10
89.24082257809031
 20
58.50990524269779
 10
89.24002037998409
 20
58.5119559171674
 10
89.23931581802369
 20
58.5140554447552
 10
89.23871176592189
 20
58.51620109192946
 10
89.23821109739158
 20
58.5183901251585
 10
89.23781668614561
 20
58.52061981091057
 10
89.23753140589676
 20
58.52288741565392
 10
89.23735813035788
 20
58.52519020585688
 10
89.23729973324181
 20
58.52752544798771
  0
LINE
  5
3CE
330
17EC
100
AcDbEntity
  8
GAIKEI
 62
     1
100
AcDbLine
 10
89.4024727099463
 20
58.48245217335807
 30
0.0
 11
89.28189452301557
 21
58.48245217335807
 31
0.0
  0
LINE
  5
3CF
330
17EC
100
AcDbEntity
  8
GAIKEI
 62
     1
100
AcDbLine
 10
89.40247270994449
 20
58.39249701802774
 30
0.0
 11
89.40247270994449
 21
58.48245217335766
 31
0.0
  0
LINE
  5
3D0
330
17EC
100
AcDbEntity
  8
GAIKEI
 62
     1
100
AcDbLine
 10
89.28189452301237
 20
58.39249701802781
 30
0.0
 11
89.40247270994447
 21
58.39249701802781
 31
0.0
  0
LWPOLYLINE
  5
3D1
330
17EC
100
AcDbEntity
  8
GAIKEI
 62
     1
100
AcDbPolyline
 90
       33
 70
     0
 43
0.0
 10
83.79175913864663
 20
57.05072974904011
 10
83.79181753576277
 20
57.05304815191521
 10
83.79199081130179
 20
57.05533624062443
 10
83.79227609155071
 20
57.0575911765002
 10
83.79267050279688
 20
57.05981012087503
 10
83.79317117132732
 20
57.06199023508129
 10
83.7937752234292
 20
57.06412868045143
 10
83.7944797853898
 20
57.066222618318
 10
83.79528198349616
 20
57.06826921001328
 10
83.79617894403553
 20
57.07026561686983
 10
83.79716779329505
 20
57.07220900022008
 10
83.79824565756189
 20
57.07409652139641
 10
83.79940966312318
 20
57.07592534173137
 10
83.80065693626614
 20
57.07769262255729
 10
83.80198460327795
 20
57.0793955252067
 10
83.80338979044564
 20
57.08103121101201
 10
83.80486962405655
 20
57.08259684130567
 10
83.80642123039768
 20
57.08408957742015
 10
83.8080417357564
 20
57.08550658068785
 10
83.80972826641968
 20
57.08684501244121
 10
83.81147794867478
 20
57.0881020340127
 10
83.81328790880889
 20
57.08927480673477
 10
83.81515527310913
 20
57.09036049193986
 10
83.81707716786264
 20
57.09135625096042
 10
83.81905071935662
 20
57.09225924512885
 10
83.8210730538783
 20
57.09306663577765
 10
83.8231412977147
 20
57.09377558423922
 10
83.82525257715313
 20
57.09438325184607
 10
83.82740401848066
 20
57.09488679993058
 10
83.82959274798452
 20
57.09528338982522
 10
83.83181589195178
 20
57.09557018286243
 10
83.83407057666971
 20
57.09574434037463
 10
83.83635392842545
 20
57.09580302369432
  0
LINE
  5
3D2
330
17EC
100
AcDbEntity
  8
GAIKEI
 62
     1
100
AcDbLine
 10
83.7915677445053
 20
56.93082144091864
 30
0.0
 11
83.79175913843983
 21
57.05072974903111
 31
0.0
  0
LINE
  5
3D3
330
17EC
100
AcDbEntity
  8
GAIKEI
 62
     1
100
AcDbLine
 10
83.70180398281036
 20
56.93063004692554
 30
0.0
 11
83.79156774413798
 21
56.93082144087504
 31
0.0
  0
LINE
  5
3D4
330
17EC
100
AcDbEntity
  8
GAIKEI
 62
     1
100
AcDbLine
 10
83.70180398332012
 20
57.05072974904761
 30
0.0
 11
83.70180398332832
 21
56.93063004699559
 31
0.0
  0
LWPOLYLINE
  5
3D5
330
17EC
100
AcDbEntity
  8
GAIKEI
 62
     1
100
AcDbPolyline
 90
       33
 70
     0
 43
0.0
 10
83.65644361786218
 20
57.09561162968804
 10
83.65876284430138
 20
57.09557033466825
 10
83.66105333361224
 20
57.09541247905228
 10
83.66331214199139
 20
57.09514093655293
 10
83.6655363256354
 20
57.0947585808831
 10
83.66772294074088
 20
57.09426828575556
 10
83.66986904350445
 20
57.09367292488319
 10
83.67197169012277
 20
57.09297537197878
 10
83.67402793679238
 20
57.09217850075521
 10
83.6760348397099
 20
57.0912851849253
 10
83.67798945507196
 20
57.09029829820188
 10
83.67988883907516
 20
57.08922071429777
 10
83.68173004791612
 20
57.08805530692583
 10
83.68351013779143
 20
57.08680494979885
 10
83.68522616489768
 20
57.08547251662971
 10
83.68687518543152
 20
57.08406088113123
 10
83.68845425558957
 20
57.08257291701627
 10
83.68996043156839
 20
57.08101149799759
 10
83.69139076956463
 20
57.0793794977881
 10
83.69274232577486
 20
57.07767979010061
 10
83.69401215639573
 20
57.07591524864793
 10
83.69519731762382
 20
57.07408874714293
 10
83.69629486565576
 20
57.07220315929841
 10
83.69730185668814
 20
57.07026135882724
 10
83.69821534691757
 20
57.06826621944221
 10
83.69903239254067
 20
57.06622061485621
 10
83.69975004975405
 20
57.06412741878203
 10
83.70036537475431
 20
57.0619895049325
 10
83.70087542373806
 20
57.0598097470205
 10
83.70127725290194
 20
57.05759101875881
 10
83.7015679184425
 20
57.05533619386031
 10
83.70174447655637
 20
57.05304814603779
 10
83.70180398344018
 20
57.05072974900414
  0
LINE
  5
3D6
330
17EC
100
AcDbEntity
  8
GAIKEI
 62
     1
100
AcDbLine
 10
83.53663100669757
 20
57.09580302368953
 30
0.0
 11
83.65644361783399
 21
57.09561162974786
 31
0.0
  0
LINE
  5
3D7
330
17EC
100
AcDbEntity
  8
GAIKEI
 62
     1
100
AcDbLine
 10
83.536631006682
 20
57.18556678493528
 30
0.0
 11
83.53663100668928
 21
57.09580302354003
 31
0.0
  0
LINE
  5
3D8
330
17EC
100
AcDbEntity
  8
GAIKEI
 62
     1
100
AcDbLine
 10
83.65644361780141
 20
57.1857581789809
 30
0.0
 11
83.53663100667141
 21
57.18556678503728
 31
0.0
  0
LWPOLYLINE
  5
3D9
330
17EC
100
AcDbEntity
  8
GAIKEI
 62
     1
100
AcDbPolyline
 90
       33
 70
     0
 43
0.0
 10
83.70180398332745
 20
57.23064005965017
 10
83.70174447644457
 20
57.22832220581814
 10
83.70156791833158
 20
57.2260357175103
 10
83.70127725279191
 20
57.22378336330372
 10
83.70087542362892
 20
57.22156791177536
 10
83.70036537464605
 20
57.21939213150225
 10
83.69975004964663
 20
57.21725879106132
 10
83.69903239243409
 20
57.21517065902961
 10
83.69821534681181
 20
57.21313050398414
 10
83.69730185658321
 20
57.21114109450188
 10
83.69629486555165
 20
57.20920519915986
 10
83.69519731752047
 20
57.20732558653504
 10
83.69401215629316
 20
57.20550502520444
 10
83.69274232567306
 20
57.20374628374504
 10
83.69139076946359
 20
57.20205213073386
 10
83.68996043146809
 20
57.20042533474789
 10
83.68845425548999
 20
57.19886866436413
 10
83.68687518533269
 20
57.19738488815958
 10
83.68522616479953
 20
57.19597677471124
 10
83.68351013769395
 20
57.19464709259611
 10
83.6817300478193
 20
57.19339861039116
 10
83.67988883897901
 20
57.19223409667343
 10
83.67798945497646
 20
57.1911563200199
 10
83.67603483961506
 20
57.1901680490076
 10
83.67402793669816
 20
57.18927205221344
 10
83.67197169002915
 20
57.18847109821452
 10
83.66986904341146
 20
57.18776795558778
 10
83.66772294064844
 20
57.18716539291026
 10
83.66553632554353
 20
57.18666617875889
 10
83.6633121419001
 20
57.18627308171075
 10
83.66105333352152
 20
57.18598887034279
 10
83.65876284421121
 20
57.18581631323202
 10
83.65644361777251
 20
57.18575817895543
  0
LINE
  5
3DA
330
17EC
100
AcDbEntity
  8
GAIKEI
 62
     1
100
AcDbLine
 10
83.70180398329102
 20
57.3508354586632
 30
0.0
 11
83.7018039832874
 21
57.23064005961764
 31
0.0
  0
LINE
  5
3DB
330
17EC
100
AcDbEntity
  8
GAIKEI
 62
     1
100
AcDbLine
 10
83.79175913864584
 20
57.35102685264841
 30
0.0
 11
83.70180398331468
 21
57.35083545870253
 31
0.0
  0
LINE
  5
3DC
330
17EC
100
AcDbEntity
  8
GAIKEI
 62
     1
100
AcDbLine
 10
83.79156774469629
 20
57.23064005965534
 30
0.0
 11
83.79175913863992
 21
57.35102685263617
 31
0.0
  0
LWPOLYLINE
  5
3DD
330
17EC
100
AcDbEntity
  8
GAIKEI
 62
     1
100
AcDbPolyline
 90
       33
 70
     0
 43
0.0
 10
83.83635392841879
 20
57.18556678502203
 10
83.83407057082257
 20
57.18564285079892
 10
83.83181584521882
 20
57.18583326931947
 10
83.82959259027513
 20
57.18613520191611
 10
83.82740364465906
 20
57.18654580992128
 10
83.82525184703819
 20
57.1870622546674
 10
83.82314003608001
 20
57.18768169748697
 10
83.82107105045212
 20
57.18840129971239
 10
83.8190477288221
 20
57.1892182226761
 10
83.81707290985746
 20
57.19012962771059
 10
83.81514943222576
 20
57.19113267614826
 10
83.81328013459459
 20
57.19222452932159
 10
83.81146785563146
 20
57.19340234856297
 10
83.80971543400397
 20
57.1946632952049
 10
83.80802570837966
 20
57.19600453057982
 10
83.80640151742607
 20
57.19742321602013
 10
83.80484569981076
 20
57.19891651285832
 10
83.80336109420129
 20
57.20048158242679
 10
83.80195053926522
 20
57.20211558605804
 10
83.8006168736701
 20
57.20381568508448
 10
83.7993629360835
 20
57.20557904083857
 10
83.79819156517298
 20
57.20740281465273
 10
83.79710559960606
 20
57.20928416785942
 10
83.79610787805029
 20
57.21122026179108
 10
83.79520123917329
 20
57.21320825778015
 10
83.79438852164254
 20
57.2152453171591
 10
83.79367256412567
 20
57.21732860126035
 10
83.7930562052902
 20
57.21945527141635
 10
83.79254228380366
 20
57.22162248895955
 10
83.79213363833363
 20
57.22382741522238
 10
83.79183310754767
 20
57.22606721153729
 10
83.79164353011335
 20
57.22833903923675
 10
83.79156774469818
 20
57.23064005965317
  0
LINE
  5
3DE
330
17EC
100
AcDbEntity
  8
GAIKEI
 62
     1
100
AcDbLine
 10
83.9565493274631
 20
57.18575817896999
 30
0.0
 11
83.83635392842712
 21
57.18556678502249
 31
0.0
  0
LINE
  5
3DF
330
17EC
100
AcDbEntity
  8
GAIKEI
 62
     1
100
AcDbLine
 10
83.95674072140947
 20
57.09580302363966
 30
0.0
 11
83.95654932746152
 21
57.18575817896959
 31
0.0
  0
LINE
  5
3E0
330
17EC
100
AcDbEntity
  8
GAIKEI
 62
     1
100
AcDbLine
 10
83.83635392842506
 20
57.09580302363974
 30
0.0
 11
83.95674072140955
 21
57.09580302363972
 31
0.0
  0
LWPOLYLINE
  5
3E1
330
17EC
100
AcDbEntity
  8
GAIKEI
100
AcDbPolyline
 90
       33
 70
     0
 43
0.0
 10
83.04666250012814
 20
86.14079152562773
 10
83.05181619452957
 20
86.14066108709556
 10
83.05690193613605
 20
86.14027397694366
 10
83.0619134518427
 20
86.13963650332243
 10
83.0668444685449
 20
86.13875497438181
 10
83.07168871313724
 20
86.13763569827257
 10
83.07643991251513
 20
86.1362849831441
 10
83.08109179357433
 20
86.13470913714648
 10
83.08563808320945
 20
86.13291446843039
 10
83.09007250831536
 20
86.13090728514539
 10
83.09438879578772
 20
86.12869389544226
 10
83.09858067252163
 20
86.12628060747058
 10
83.10264186541218
 20
86.12367372938019
 10
83.10656610135442
 20
86.12087956932203
 10
83.11034710724369
 20
86.11790443544567
 10
83.11397860997477
 20
86.11475463590176
 10
83.11745433644331
 20
86.11143647883972
 10
83.12076801354391
 20
86.10795627241037
 10
83.12391336817228
 20
86.10432032476323
 10
83.1268841272233
 20
86.10053494404859
 10
83.12967401759205
 20
86.09660643841689
 10
83.13227676617373
 20
86.09254111601785
 10
83.13468609986387
 20
86.08834528500198
 10
83.13689574555692
 20
86.08402525351912
 10
83.13889943014883
 20
86.07958732971953
 10
83.1406908805342
 20
86.07503782175331
 10
83.14226382360834
 20
86.07038303777017
 10
83.14361198626659
 20
86.06562928592074
 10
83.14472909540359
 20
86.06078287435536
 10
83.14560887791481
 20
86.05585011122343
 10
83.14624506069561
 20
86.05083730467571
 10
83.14663137064099
 20
86.04575076286197
 10
83.14676153464587
 20
86.04059679393243
  0
LINE
  5
3E2
330
17EC
100
AcDbEntity
  8
GAIKEI
100
AcDbLine
 10
82.74674818584847
 20
86.14079152807597
 30
0.0
 11
83.04666250164336
 21
86.14079152807972
 31
0.0
  0
LWPOLYLINE
  5
3E3
330
17EC
100
AcDbEntity
  8
GAIKEI
100
AcDbPolyline
 90
       33
 70
     0
 43
0.0
 10
82.54655011610111
 20
85.94088055041368
 10
82.54681044410949
 20
85.95116185676966
 10
82.54758306399935
 20
85.96130888714084
 10
82.54885542955946
 20
85.97130904275024
 10
82.55061499458077
 20
85.98114972481916
 10
82.55284921285408
 20
85.99081833457182
 10
82.55554553816887
 20
86.0003022732293
 10
82.55869142431583
 20
86.00958894201427
 10
82.56227432508536
 20
86.01866574214907
 10
82.56628169426766
 20
86.02752007485594
 10
82.57070098565305
 20
86.0361393413574
 10
82.57551965303264
 20
86.04451094287663
 10
82.58072515019511
 20
86.05262228063486
 10
82.58630493093166
 20
86.06046075585515
 10
82.59224644903305
 20
86.06801376975965
 10
82.59853715828866
 20
86.07526872357073
 10
82.60516451248918
 20
86.08221301851063
 10
82.61211596542535
 20
86.08883405580229
 10
82.61937897088728
 20
86.0951192366681
 10
82.62694098266456
 20
86.1010559623296
 10
82.63478945454833
 20
86.10663163400976
 10
82.64291184032856
 20
86.11183365293074
 10
82.65129559379579
 20
86.11664942031518
 10
82.6599281687403
 20
86.12106633738587
 10
82.66879701895165
 20
86.12507180536445
 10
82.67788959822121
 20
86.12865322547349
 10
82.68719336033894
 20
86.13179799893602
 10
82.6966957590946
 20
86.13449352697319
 10
82.70638424827929
 20
86.13672721080865
 10
82.71624628168344
 20
86.13848645166388
 10
82.7262693130957
 20
86.13975865076156
 10
82.73644079630868
 20
86.14053120932466
 10
82.74674818511119
 20
86.14079152857469
  0
LINE
  5
3E4
330
17EC
100
AcDbEntity
  8
GAIKEI
100
AcDbLine
 10
82.54655011577233
 20
55.34091191936751
 30
0.0
 11
82.54655011570866
 21
85.94088055065368
 31
0.0
  0
LWPOLYLINE
  5
3E5
330
17EC
100
AcDbEntity
  8
GAIKEI
100
AcDbPolyline
 90
       33
 70
     0
 43
0.0
 10
82.74674818582935
 20
55.14061815300374
 10
82.73644079702616
 20
55.14087848393467
 10
82.72626931381285
 20
55.14165112426849
 10
82.71624628239909
 20
55.1429235453187
 10
82.7063842489948
 20
55.14468321839809
 10
82.69669575980925
 20
55.14691761481959
 10
82.68719336105254
 20
55.14961420589646
 10
82.67788959893414
 20
55.15276046294104
 10
82.66879701966354
 20
55.15634385726674
 10
82.65992816945095
 20
55.16035186018609
 10
82.65129559450565
 20
55.1647719430124
 10
82.64291184103763
 20
55.1695915770589
 10
82.6347894552564
 20
55.17479823363793
 10
82.62694098337171
 20
55.18037938406258
 10
82.61937897159294
 20
55.18632249964604
 10
82.61211596612985
 20
55.19261505170118
 10
82.6051645131929
 20
55.19924451154066
 10
82.59853715899089
 20
55.20619835047807
 10
82.59224644973404
 20
55.21346403982523
 10
82.58630493163138
 20
55.2210290508965
 10
82.58072515089338
 20
55.22888085500392
 10
82.5755196537292
 20
55.23700692346063
 10
82.57070098634905
 20
55.24539472757954
 10
82.56628169496218
 20
55.25403173867358
 10
82.56227432577816
 20
55.26290542805611
 10
82.55869142500717
 20
55.27200326703951
 10
82.55554553885861
 20
55.28131272693713
 10
82.55284921354222
 20
55.29082127906145
 10
82.55061499526766
 20
55.30051639472572
 10
82.54885543024442
 20
55.31038554524322
 10
82.54758306468261
 20
55.32041620192661
 10
82.54681044479173
 20
55.33059583608871
 10
82.54655011678144
 20
55.34091191904224
  0
LINE
  5
3E6
330
17EC
100
AcDbEntity
  8
GAIKEI
100
AcDbLine
 10
84.54642547496405
 20
55.14061815274182
 30
0.0
 11
82.74674818659695
 21
55.14061815274182
 31
0.0
  0
LWPOLYLINE
  5
3E7
330
17EC
100
AcDbEntity
  8
GAIKEI
100
AcDbPolyline
 90
       33
 70
     0
 43
0.0
 10
84.64690729634787
 20
55.24081288456727
 10
84.64674235574538
 20
55.23565891564416
 10
84.64632344200962
 20
55.23057237383665
 10
84.64565675815537
 20
55.22555956729521
 10
84.64474850719659
 20
55.22062680416979
 10
84.64360489214763
 20
55.2157803926104
 10
84.64223211602263
 20
55.21102664076739
 10
84.64063638183608
 20
55.20637185679078
 10
84.63882389260223
 20
55.20182234883046
 10
84.63680085133523
 20
55.19738442503705
 10
84.63457346104965
 20
55.19306439356038
 10
84.6321479247595
 20
55.1888685625504
 10
84.62953044547914
 20
55.18480324015753
 10
84.62672722622306
 20
55.18087473453189
 10
84.62374447000522
 20
55.17708935382322
 10
84.62058837984015
 20
55.17345340618226
 10
84.61726515874195
 20
55.1699731997586
 10
84.61378100972508
 20
55.16665504270264
 10
84.61014213580384
 20
55.16350524316439
 10
84.6063547399923
 20
55.16053010929404
 10
84.60242502530496
 20
55.15773594924164
 10
84.59835919475612
 20
55.15512907115749
 10
84.5941634513599
 20
55.15271578319158
 10
84.58984399813067
 20
55.15050239349387
 10
84.58540703808276
 20
55.14849521021472
 10
84.58085877423044
 20
55.14670054150423
 10
84.57620540958789
 20
55.14512469551232
 10
84.57145314716957
 20
55.14377398038956
 10
84.56660818998967
 20
55.14265470428566
 10
84.56167674106234
 20
55.14177317535089
 10
84.55666500340218
 20
55.14113570173515
 10
84.5515791800234
 20
55.14074859158899
 10
84.54642547393994
 20
55.14061815306217
  0
LINE
  5
3E8
330
17EC
100
AcDbEntity
  8
GAIKEI
100
AcDbLine
 10
84.64652450794416
 20
55.30081488782673
 30
0.0
 11
84.6469072958116
 21
55.24081288537195
 31
0.0
  0
LINE
  5
3E9
330
17EC
100
AcDbEntity
  8
GAIKEI
100
AcDbLine
 10
86.14647887530736
 20
55.30100628081709
 30
0.0
 11
84.64652450869289
 21
55.30081488685447
 31
0.0
  0
LINE
  5
3EA
330
17EC
100
AcDbEntity
  8
GAIKEI
100
AcDbLine
 10
86.14667026859075
 20
55.24081288431637
 30
0.0
 11
86.14647887460888
 21
55.30100628078799
 31
0.0
  0
LWPOLYLINE
  5
3EB
330
17EC
100
AcDbEntity
  8
GAIKEI
100
AcDbPolyline
 90
       33
 70
     0
 43
0.0
 10
86.24676930338148
 20
55.14061815246038
 10
86.24163190503367
 20
55.14074859098569
 10
86.23655930540564
 20
55.14113570113038
 10
86.23155798787406
 20
55.14177317474461
 10
86.22663443581545
 20
55.14265470367798
 10
86.22179513260617
 20
55.14377397978046
 10
86.21704656162291
 20
55.14512469490205
 10
86.21239520624213
 20
55.14670054089243
 10
86.20784754984034
 20
55.14849520960156
 10
86.20341007579396
 20
55.15050239287939
 10
86.19908926747973
 20
55.15271578257568
 10
86.19489160827395
 20
55.15512907054034
 10
86.19082358155319
 20
55.1577359486233
 10
86.18689167069405
 20
55.1605301086744
 10
86.18310235907289
 20
55.16350524254352
 10
86.17946213006643
 20
55.16665504208051
 10
86.17597746705106
 20
55.16997319913528
 10
86.17265485340325
 20
55.17345340555774
 10
86.16950077249962
 20
55.1770893531976
 10
86.16652170771663
 20
55.18087473390496
 10
86.16372414243093
 20
55.18480323952957
 10
86.16111456001879
 20
55.18886856192128
 10
86.15869944385693
 20
55.19306439293013
 10
86.15648527732174
 20
55.19738442440577
 10
86.15447854378981
 20
55.20182234819822
 10
86.15268572663758
 20
55.20637185615729
 10
86.15111330924165
 20
55.211026640133
 10
86.14976777497856
 20
55.21578039197505
 10
86.14865560722471
 20
55.22062680353339
 10
86.1477832893567
 20
55.22555956665788
 10
86.14715730475102
 20
55.23057237319846
 10
86.14678413678413
 20
55.23565891500489
 10
86.14667026883271
 20
55.24081288392713
  0
LINE
  5
3EC
330
17EC
100
AcDbEntity
  8
GAIKEI
100
AcDbLine
 10
87.74442694263417
 20
55.14061815288005
 30
0.0
 11
86.24676930336136
 21
55.14061815288733
 31
0.0
  0
LWPOLYLINE
  5
3ED
330
17EC
100
AcDbEntity
  8
GAIKEI
100
AcDbPolyline
 90
       17
 70
     0
 43
0.0
 10
87.93754343565252
 20
55.28904415928992
 10
87.93252126033936
 20
55.27296314263031
 10
87.9262545570973
 20
55.25755387386838
 10
87.91880865032529
 20
55.24286681820512
 10
87.91024886442249
 20
55.22895244084153
 10
87.9006405237879
 20
55.21586120697855
 10
87.89004895282054
 20
55.20364358181723
 10
87.87853947591955
 20
55.19235003055852
 10
87.86617741748388
 20
55.18203101840338
 10
87.85302810191272
 20
55.17273701055286
 10
87.83915685360495
 20
55.16451847220792
 10
87.82462899695985
 20
55.15742586856952
 10
87.80950985637627
 20
55.15150966483872
 10
87.79386475625347
 20
55.14682032621644
 10
87.77775902099035
 20
55.14340831790373
 10
87.76125797498602
 20
55.14132410510154
 10
87.74442694263948
 20
55.14061815301082
  0
LINE
  5
3EE
330
17EC
100
AcDbEntity
  8
GAIKEI
100
AcDbLine
 10
88.15056489888936
 20
56.08371182921111
 30
0.0
 11
87.93754343524392
 21
55.28904415913666
 31
0.0
  0
LWPOLYLINE
  5
3EF
330
17EC
100
AcDbEntity
  8
GAIKEI
100
AcDbPolyline
 90
       23
 70
     0
 43
0.0
 10
88.39535775811089
 20
56.22524765342359
 10
88.3853732998655
 20
56.22766166857939
 10
88.37538316428508
 20
56.22954469519847
 10
88.36540298156368
 20
56.23090572239477
 10
88.35544838189553
 20
56.2317537392822
 10
88.34553499547494
 20
56.23209773497473
 10
88.33567845249596
 20
56.23194669858626
 10
88.31619841763981
 20
56.230195486022
 10
88.29713331888056
 20
56.22657201450078
 10
88.278608197772
 20
56.22114819693411
 10
88.26074809586755
 20
56.21399594623339
 10
88.24367805472078
 20
56.20518717530991
 10
88.22752311588528
 20
56.19479379707524
 10
88.21240832091454
 20
56.18288772444066
 10
88.19845871136227
 20
56.16954087031763
 10
88.18579932878192
 20
56.1548251476176
 10
88.17455521472698
 20
56.13881246925192
 10
88.16950295888204
 20
56.13034224447927
 10
88.16485141075112
 20
56.12157474813201
 10
88.16061620052838
 20
56.11251896932404
 10
88.15681295840796
 20
56.10318389716932
 10
88.15345731458405
 20
56.09357852078172
 10
88.1505648992509
 20
56.08371182927521
  0
LINE
  5
3F0
330
17EC
100
AcDbEntity
  8
GAIKEI
100
AcDbLine
 10
90.03770922184548
 20
55.78504157416273
 30
0.0
 11
88.39535775826107
 21
56.22524765344429
 31
0.0
  0
LWPOLYLINE
  5
3F1
330
17EC
100
AcDbEntity
  8
GAIKEI
100
AcDbPolyline
 90
       23
 70
     0
 43
0.0
 10
90.28250208061944
 20
55.9265773982479
 10
90.27955969072079
 20
55.91672917560185
 10
90.27616150193038
 20
55.90714317925196
 10
90.27232272389907
 20
55.89782818804043
 10
90.26805856627778
 20
55.88879298080957
 10
90.26338423871719
 20
55.8800463364016
 10
90.25831495086828
 20
55.87159703365877
 10
90.24705233290893
 20
55.85562556853765
 10
90.23439238960635
 20
55.84094881618418
 10
90.22045679816752
 20
55.82763700733643
 10
90.20536723579922
 20
55.81576037273247
 10
90.18924537970837
 20
55.80538914311033
 10
90.17221290710162
 20
55.79659354920803
 10
90.15439149518595
 20
55.78944382176365
 10
90.13590282116807
 20
55.78401019151518
 10
90.11686856225493
 20
55.78036288920072
 10
90.09741039565328
 20
55.77857214555829
 10
90.08756037109636
 20
55.77839493034471
 10
90.07764999856993
 20
55.7787081913259
 10
90.06769448772478
 20
55.77952070734417
 10
90.05770904821174
 20
55.78084125724167
 10
90.04770888968172
 20
55.78267861986073
 10
90.03770922178555
 20
55.7850415740436
  0
LINE
  5
3F2
330
17EC
100
AcDbEntity
  8
GAIKEI
100
AcDbLine
 10
97.96945719450379
 20
84.61480758468679
 30
0.0
 11
90.28250208061129
 21
55.92657739831338
 31
0.0
  0
LWPOLYLINE
  5
3F3
330
17EC
100
AcDbEntity
  8
GAIKEI
100
AcDbPolyline
 90
       23
 70
     0
 43
0.0
 10
97.82801706730836
 20
84.85960044354532
 10
97.83788375589551
 20
84.85669960858556
 10
97.84748911184117
 20
84.85333661401607
 10
97.85682412850873
 20
84.84952703746301
 10
97.8658797992616
 20
84.84528645655272
 10
97.87464711746327
 20
84.84063044891144
 10
97.88311707647707
 20
84.83557459216548
 10
97.89912889039516
 20
84.82432564186465
 10
97.91384318792326
 20
84.8116642266604
 10
97.92718791596888
 20
84.79771496756294
 10
97.93909102143944
 20
84.78260248558251
 10
97.94948045124252
 20
84.76645140172928
 10
97.95828415228552
 20
84.74938633701357
 10
97.96543007147596
 20
84.73153191244549
 10
97.9708461557213
 20
84.71301274903533
 10
97.97446035192896
 20
84.69395346779327
 10
97.9762006070065
 20
84.67447868972957
 10
97.97634549003007
 20
84.66462443345532
 10
97.97599486786136
 20
84.65471303585445
 10
97.97513973386394
 20
84.64476007455328
 10
97.97377108140103
 20
84.63478112717806
 10
97.97187990383628
 20
84.62479177135511
 10
97.96945719453301
 20
84.61480758471068
  0
LINE
  5
3F4
330
17EC
100
AcDbEntity
  8
GAIKEI
100
AcDbLine
 10
93.04642207663164
 20
86.14079152819824
 30
0.0
 11
97.82801706730971
 21
84.8596004435608
 31
0.0
  0
LINE
  5
3F5
330
17EC
100
AcDbEntity
  8
GAIKEI
100
AcDbLine
 10
84.24651115795132
 20
86.14079152820705
 30
0.0
 11
93.046422076623
 21
86.1407915282121
 31
0.0
  0
LWPOLYLINE
  5
3F6
330
17EC
100
AcDbEntity
  8
GAIKEI
100
AcDbPolyline
 90
       33
 70
     0
 43
0.0
 10
84.1464121233975
 20
86.04059679667507
 10
84.14655966986078
 20
86.0457676048551
 10
84.14696224081549
 20
86.05086884815735
 10
84.1476135631567
 20
86.05589432356754
 10
84.14850736377969
 20
86.06083782807145
 10
84.14963736957954
 20
86.06569315865469
 10
84.15099730745145
 20
86.07045411230306
 10
84.1525809042905
 20
86.07511448600218
 10
84.15438188699191
 20
86.07966807673784
 10
84.15639398245081
 20
86.08410868149572
 10
84.15861091756239
 20
86.08843009726154
 10
84.16102641922174
 20
86.09262612102103
 10
84.16363421432407
 20
86.09669054975988
 10
84.16642802976451
 20
86.10061718046377
 10
84.16940159243821
 20
86.10439981011845
 10
84.17254862924034
 20
86.10803223570965
 10
84.17586286706606
 20
86.11150825422305
 10
84.17933803281052
 20
86.11482166264435
 10
84.18296785336885
 20
86.1179662579593
 10
84.18674605563621
 20
86.12093583715358
 10
84.1906663665078
 20
86.12372419721292
 10
84.19472251287876
 20
86.12632513512304
 10
84.19890822164418
 20
86.12873244786962
 10
84.20321721969928
 20
86.13093993243841
 10
84.20764323393923
 20
86.13294138581506
 10
84.21217999125913
 20
86.13473060498536
 10
84.21682121855416
 20
86.13630138693499
 10
84.22156064271948
 20
86.13764752864964
 10
84.2263919906502
 20
86.13876282711506
 10
84.23130898924156
 20
86.13964107931694
 10
84.23630536538865
 20
86.14027608224096
 10
84.24137484598665
 20
86.14066163287287
 10
84.2465111579307
 20
86.14079152819842
  0
LINE
  5
3F7
330
17EC
100
AcDbEntity
  8
GAIKEI
100
AcDbLine
 10
84.14660351734074
 20
85.97083370280598
 30
0.0
 11
84.14641212339283
 21
86.0405967966737
 31
0.0
  0
LINE
  5
3F8
330
17EC
100
AcDbEntity
  8
GAIKEI
100
AcDbLine
 10
83.14657014159463
 20
85.97064230885768
 30
0.0
 11
84.14660351734029
 21
85.97083370280492
 31
0.0
  0
LINE
  5
3F9
330
17EC
100
AcDbEntity
  8
GAIKEI
100
AcDbLine
 10
83.14676153554239
 20
86.09064631394739
 30
0.0
 11
83.14657014159481
 21
85.97064230885786
 31
0.0
  0
LWPOLYLINE
  5
3FA
330
17EC
100
AcDbEntity
  8
GAIKEI
 62
     1
100
AcDbPolyline
 90
       45
 70
     0
 43
0.0
 10
82.49659629584698
 20
62.57560313483168
 10
81.84585687430899
 20
62.59091465063271
 10
81.83360766167016
 20
62.73302465665985
 10
81.87820245143461
 20
62.7753227190615
 10
81.82288960061123
 20
62.80202217474289
 10
81.78575917477621
 20
62.95523302973204
 10
81.82327238851712
 20
63.00422988029578
 10
81.76470584055357
 20
63.0219338204419
 10
81.70384256528631
 20
63.16768031152606
 10
81.7331258391909
 20
63.22184479856979
 10
81.67207116996952
 20
63.23026613234333
 10
81.62625624378415
 20
63.30933575691137
 10
81.57541722634073
 20
63.38567801750587
 10
81.65080139596547
 20
63.4611595662781
 10
81.73192065532203
 20
63.52959280864343
 10
81.81826586660479
 20
63.59070298961864
 10
81.90932789200802
 20
63.64421535422046
 10
82.00459759372604
 20
63.68985514746565
 10
82.10356583395315
 20
63.72734761437099
 10
82.20572347488369
 20
63.75641799995321
 10
82.31056137880752
 20
63.77679154946053
 10
82.49640490130962
 20
63.59085232940834
 10
82.49659629596374
 20
62.54076943621294
 10
82.49640490189632
 20
61.49087793752414
 10
82.31056137918494
 20
61.30465162661858
 10
82.2057313255013
 20
61.32505321212059
 10
82.10359274920458
 20
61.35414041943982
 10
82.00464805940695
 20
61.39164522228651
 10
81.90939966522062
 20
61.43729959437086
 10
81.81834997575785
 20
61.49083550940307
 10
81.73200140013086
 20
61.55198494109336
 10
81.6508563474518
 20
61.62047986315206
 10
81.57541722622021
 20
61.6960522492689
 10
81.6261844708044
 20
61.77221507826136
 10
81.67207116972486
 20
61.85146413423485
 10
81.73312583961342
 20
61.85969407414871
 10
81.7038425645369
 20
61.91376286436707
 10
81.76470583935497
 20
62.05960505194207
 10
81.82327238835069
 20
62.0772132961324
 10
81.78575917540189
 20
62.12601875169156
 10
81.82288960128792
 20
62.27951669869071
 10
81.87820245215538
 20
62.3061204569808
 10
81.83379905470017
 20
62.34870561017282
 10
81.84585687419895
 20
62.49062422307328
 10
82.49659629573944
 20
62.50584004198742
  0
CIRCLE
  5
3FB
330
17EC
100
AcDbEntity
  8
GAIKEI
 62
     1
100
AcDbCircle
 10
83.746494
 20
57.14068499999999
 30
0.0
 40
0.414846
  0
LINE
  5
3FC
330
17EC
100
AcDbEntity
  8
GAIKEI
 62
     1
100
AcDbLine
 10
81.87648000000001
 20
62.49139
 30
0.0
 11
81.87648000000001
 21
62.589958
 31
0.0
  0
CIRCLE
  5
3FD
330
17EC
100
AcDbEntity
  8
GAIKEI
 62
     1
100
AcDbCircle
 10
89.192131
 20
58.437379
 30
0.0
 40
0.415133
  0
LWPOLYLINE
  5
3FE
330
17EC
100
AcDbEntity
  8
GAIKEI
 62
     1
100
AcDbPolyline
 90
        6
 70
     0
 43
0.0
 10
82.54654999999999
 20
72.01572699999999
 10
82.26634900000002
 20
72.01572699999999
 10
82.246827
 20
71.98108499999998
 10
82.24663599999999
 20
71.500303
 10
82.26654100000001
 20
71.465661
 10
82.54654999999999
 20
71.465661
  0
CIRCLE
  5
3FF
330
17EC
100
AcDbEntity
  8
GAIKEI
 62
     1
100
AcDbCircle
 10
83.746494
 20
70.64056100000001
 30
0.0
 40
0.414846
  0
LWPOLYLINE
  5
400
330
17EC
100
AcDbEntity
  8
GAIKEI
100
AcDbPolyline
 90
        4
 70
     0
 43
0.0
 10
90.995062
 20
58.585135
 10
91.70207099999998
 20
58.531066
 10
92.21960000000001
 20
60.463092
 10
91.580153
 20
60.76961
  0
CIRCLE
  5
401
330
17EC
100
AcDbEntity
  8
GAIKEI
 62
     1
100
AcDbCircle
 10
91.82188399999999
 20
68.251199
 30
0.0
 40
0.414942
  0
CIRCLE
  5
402
330
17EC
100
AcDbEntity
  8
GAIKEI
 62
     1
100
AcDbCircle
 10
83.74658999999999
 20
84.14072500000001
 30
0.0
 40
0.414942
  0
LWPOLYLINE
  5
403
330
17EC
100
AcDbEntity
  8
GAIKEI
 62
     1
100
AcDbPolyline
 90
       23
 70
     0
 43
0.0
 10
95.56038157716841
 20
88.77284109436875
 10
95.5614975473343
 20
88.77734705565043
 10
95.56237205553156
 20
88.78185289427358
 10
95.56300923710304
 20
88.78635175888637
 10
95.56341322739159
 20
88.79083679813678
 10
95.56358816174006
 20
88.79530116067293
 10
95.56353817549132
 20
88.7997379951428
 10
95.56277998257369
 20
88.80850167447617
 10
95.56117173138149
 20
88.81707302532129
 10
95.55874650465765
 20
88.82539723686269
 10
95.555537385145
 20
88.83341949828484
 10
95.55157745558643
 20
88.84108499877227
 10
95.54689979872481
 20
88.84833892750934
 10
95.54153749730305
 20
88.85512647368065
 10
95.53552363406394
 20
88.86139282647063
 10
95.52889129175035
 20
88.86708317506377
 10
95.52167355310526
 20
88.87214270864456
 10
95.51785549851551
 20
88.87441879142546
 10
95.51390350087144
 20
88.87651661639749
 10
95.50982169551593
 20
88.87842933220861
 10
95.50561421779184
 20
88.88015008750697
 10
95.50128520304197
 20
88.88167203094061
 10
95.49683878660923
 20
88.8829883111576
  0
LWPOLYLINE
  5
404
330
17EC
100
AcDbEntity
  8
GAIKEI
 62
     1
100
AcDbPolyline
 90
       23
 70
     0
 43
0.0
 10
95.45033005734955
 20
88.7092026068213
 10
95.45481971965626
 20
88.7081124416621
 10
95.45931239585696
 20
88.7072615656643
 10
95.46380100680536
 20
88.70664591357556
 10
95.46827847335519
 20
88.7062614201436
 10
95.47273771636023
 20
88.70610402011612
 10
95.47717165667419
 20
88.70616964824083
 10
95.48593531264401
 20
88.7069537279375
 10
95.49451280809464
 20
88.7085811372153
 10
95.50284750985605
 20
88.71101935405569
 10
95.51088278475823
 20
88.71423585644034
 10
95.51856199963129
 20
88.71819812235083
 10
95.52582852130509
 20
88.72287362976869
 10
95.53262571660972
 20
88.72822985667557
 10
95.53889695237518
 20
88.73423428105301
 10
95.54458559543144
 20
88.74085438088263
 10
95.5496350126085
 20
88.74805763414597
 10
95.55190231362672
 20
88.75186778018456
 10
95.5539885707364
 20
88.75581151882467
 10
95.55588670479126
 20
88.75988478481401
 10
95.55758963664507
 20
88.76408351290026
 10
95.55909028715161
 20
88.76840363783115
 10
95.56038157716459
 20
88.77284109435436
  0
LINE
  5
405
330
17EC
100
AcDbEntity
  8
GAIKEI
 62
     1
100
AcDbLine
 10
94.724947
 20
86.38769000000001
 30
0.0
 11
96.251122
 21
85.978872
 31
0.0
  0
LWPOLYLINE
  5
406
330
17EC
100
AcDbEntity
  8
GAIKEI
 62
     1
100
AcDbPolyline
 90
        4
 70
     0
 43
0.0
 10
94.20282400000001
 20
85.83092499999997
 10
94.307134
 20
86.220124
 10
96.529026
 20
85.624698
 10
96.424525
 20
85.23569000000001
  0
LINE
  5
407
330
17EC
100
AcDbEntity
  8
GAIKEI
 62
     1
100
AcDbLine
 10
94.255458
 20
86.026912
 30
0.0
 11
96.476967
 21
85.43186799999999
 31
0.0
  0
CIRCLE
  5
408
330
17EC
100
AcDbEntity
  8
GAIKEI
 62
     1
100
AcDbCircle
 10
96.16222
 20
84.44982600000001
 30
0.0
 40
0.4150380000000001
  0
LWPOLYLINE
  5
409
330
17EC
100
AcDbEntity
  8
GAIKEI
100
AcDbPolyline
 90
        4
 70
     0
 43
0.0
 10
96.895737
 20
80.60826199999999
 10
97.60293799999999
 20
80.55419399999999
 10
98.120658
 20
82.48602800000002
 10
97.48102000000001
 20
82.79254599999999
  0
LWPOLYLINE
  5
40A
330
17EC
100
AcDbEntity
  8
GAIKEI
 62
     1
100
AcDbPolyline
 90
       22
 70
     0
 43
0.0
 10
96.71965471724355
 20
88.46220871755821
 10
96.71855613537665
 20
88.45770220139298
 10
96.71769792907475
 20
88.45319472148256
 10
96.71707599804028
 20
88.44869316422421
 10
96.7166862419757
 20
88.44420441601512
 10
96.71652456058337
 20
88.43973536325258
 10
96.71658685356572
 20
88.43529289233369
 10
96.71736696146419
 20
88.42651524161601
 10
96.71899376329045
 20
88.41792655503981
 10
96.72143445666387
 20
88.4095819237828
 10
96.72465623920381
 20
88.40153643902279
 10
96.72862630852964
 20
88.39384519193748
 10
96.7333118622607
 20
88.38656327370467
 10
96.7386800980163
 20
88.379745775502
 10
96.74469821341588
 20
88.37344778850734
 10
96.75133340607871
 20
88.36772440389834
 10
96.75855287362423
 20
88.36263071285282
 10
96.76632381367177
 20
88.35822180654849
 10
96.77040583513985
 20
88.35629136366728
 10
96.77461342384072
 20
88.35455277616306
 10
96.77894247947673
 20
88.35301293043301
 10
96.78338890175032
 20
88.35167871287433
  0
LWPOLYLINE
  5
40B
330
17EC
100
AcDbEntity
  8
GAIKEI
 62
     1
100
AcDbPolyline
 90
       23
 70
     0
 43
0.0
 10
96.82989763100989
 20
88.5257515081318
 10
96.82540850606415
 20
88.52684167621143
 10
96.82091734849215
 20
88.52769257265229
 10
96.8164310972592
 20
88.52830828022938
 10
96.81195669133035
 20
88.52869288171758
 10
96.80750106967078
 20
88.52885045989193
 10
96.80307117124559
 20
88.52878509752725
 10
96.79431629995892
 20
88.52800188228078
 10
96.78574758919143
 20
88.52637589817765
 10
96.77742055066428
 20
88.52393980741744
 10
96.76939069609845
 20
88.52072627219973
 10
96.76171353721509
 20
88.51676795472394
 10
96.75444458573529
 20
88.51209751718972
 10
96.74763935338015
 20
88.5067476217965
 10
96.74135335187068
 20
88.50075093074384
 10
96.73564209292806
 20
88.49414010623126
 10
96.73056108827331
 20
88.48694781045834
 10
96.72827427871677
 20
88.48314381778658
 10
96.7261658496276
 20
88.47920670562457
 10
96.72424273997092
 20
88.4751405567472
 10
96.72251188871195
 20
88.47094945392946
 10
96.72098023481572
 20
88.46663747994627
 10
96.71965471724742
 20
88.46220871757255
  0
LWPOLYLINE
  5
40C
330
17EC
100
AcDbEntity
  8
GAIKEI
  6
S10
 62
     1
100
AcDbPolyline
 90
       46
 70
     0
 43
0.0
 10
99.53544247302763
 20
92.65622428937007
 10
99.55955811041413
 20
92.61402192394371
 10
99.58042005069366
 20
92.57268083128293
 10
99.58958303593119
 20
92.55348162592353
 10
99.59573156649463
 20
92.53306228414423
 10
99.59991830909698
 20
92.5147841621562
 10
99.60281314255915
 20
92.49621894926532
 10
99.60312415772472
 20
92.4795796379556
 10
99.59898526358069
 20
92.46329919026839
 10
99.59146707007864
 20
92.44884894723112
 10
99.58219044468384
 20
92.43561884060929
 10
99.57126304649168
 20
92.42378830222868
 10
99.55879253458988
 20
92.41353676396238
 10
99.52520289679686
 20
92.39180158880241
 10
99.48989071350631
 20
92.37315264104269
 10
99.411801982802
 20
92.33573512423028
 10
99.37560460247077
 20
92.31734934314413
 10
99.34156040407117
 20
92.29573378910556
 10
99.32827945842902
 20
92.28579326595188
 10
99.31641602421064
 20
92.27427374273112
 10
99.30616747642435
 20
92.26128287853878
 10
99.29773119011542
 20
92.24692833266455
 10
99.29222861411645
 20
92.22879375613828
 10
99.29103240216681
 20
92.21008499751428
 10
99.29306596287132
 20
92.18917520873517
 10
99.29811397798131
 20
92.16855251090599
 10
99.30572188738814
 20
92.14584840387415
 10
99.31533943322413
 20
92.12386202431549
 10
99.33945507034833
 20
92.07668341633008
 10
99.36720719324249
 20
92.02826074699853
 10
99.40931386197917
 20
92.04998395987784
 10
99.44854962151403
 20
92.07295123483367
 10
99.46627748590653
 20
92.08435113685196
 10
99.48300053075493
 20
92.09697117419045
 10
99.4971397585958
 20
92.10950747772804
 10
99.5099870787655
 20
92.12347923619468
 10
99.51953285190519
 20
92.13769023679741
 10
99.52663835161002
 20
92.15304960369394
 10
99.53049015479381
 20
92.17087316515348
 10
99.53104041233427
 20
92.18912736004762
 10
99.52862406374556
 20
92.20900840633248
 10
99.52434162628414
 20
92.22874590681568
 10
99.51718827757177
 20
92.25015810468667
 10
99.50845592805528
 20
92.27085257322727
 10
99.48682840861149
 20
92.31496887883984
 10
99.46252137723153
 20
92.35985075930072
  0
LINE
  5
40E
330
17EC
100
AcDbEntity
  8
GAIKEI
 62
     1
100
AcDbLine
 10
95.258745
 20
88.41876199999999
 30
0.0
 11
96.031402
 21
88.21177
 31
0.0
  0
LINE
  5
40F
330
17EC
100
AcDbEntity
  8
GAIKEI
 62
     1
100
AcDbLine
 10
96.031402
 20
88.21177
 30
0.0
 11
96.804059
 21
88.004586
 31
0.0
  0
LINE
  5
410
330
17EC
100
AcDbEntity
  8
GAIKEI
 62
     1
100
AcDbLine
 10
82.49717
 20
77.182598
 30
0.0
 11
82.548273
 21
77.178291
 31
0.0
  0
LINE
  5
411
330
17EC
100
AcDbEntity
  8
GAIKEI
 62
     1
100
AcDbLine
 10
82.49717
 20
76.29433899999998
 30
0.0
 11
82.53851199999999
 21
76.29902800000002
 31
0.0
  0
LINE
  5
412
330
17EC
100
AcDbEntity
  8
GAIKEI
 62
     1
100
AcDbLine
 10
82.19744799999999
 20
76.273572
 30
0.0
 11
82.19744799999999
 21
77.20374700000002
 31
0.0
  0
LINE
  5
413
330
17EC
100
AcDbEntity
  8
GAIKEI
 62
     1
100
AcDbLine
 10
81.09750699999997
 20
77.03866999999999
 30
0.0
 11
81.22727199999999
 21
77.168626
 31
0.0
  0
LINE
  5
414
330
17EC
100
AcDbEntity
  8
GAIKEI
 62
     1
100
AcDbLine
 10
81.22727199999999
 20
77.168626
 30
0.0
 11
82.19744799999999
 21
77.20374700000002
 31
0.0
  0
LINE
  5
415
330
17EC
100
AcDbEntity
  8
GAIKEI
 62
     1
100
AcDbLine
 10
82.19744799999999
 20
77.20374700000002
 30
0.0
 11
82.46750400000001
 21
77.43868299999999
 31
0.0
  0
LINE
  5
416
330
17EC
100
AcDbEntity
  8
GAIKEI
 62
     1
100
AcDbLine
 10
82.46750400000001
 20
77.43868299999999
 30
0.0
 11
82.49717
 21
77.43868299999999
 31
0.0
  0
LINE
  5
417
330
17EC
100
AcDbEntity
  8
GAIKEI
 62
     1
100
AcDbLine
 10
82.49717
 20
77.43868299999999
 30
0.0
 11
82.49717
 21
76.038636
 31
0.0
  0
LINE
  5
418
330
17EC
100
AcDbEntity
  8
GAIKEI
 62
     1
100
AcDbLine
 10
82.49717
 20
76.038636
 30
0.0
 11
82.46750400000001
 21
76.038445
 31
0.0
  0
LINE
  5
419
330
17EC
100
AcDbEntity
  8
GAIKEI
 62
     1
100
AcDbLine
 10
82.46750400000001
 20
76.038445
 30
0.0
 11
82.19744799999999
 21
76.273572
 31
0.0
  0
LINE
  5
41A
330
17EC
100
AcDbEntity
  8
GAIKEI
 62
     1
100
AcDbLine
 10
82.19744799999999
 20
76.273572
 30
0.0
 11
81.22727199999999
 21
76.30850200000001
 31
0.0
  0
LINE
  5
41B
330
17EC
100
AcDbEntity
  8
GAIKEI
 62
     1
100
AcDbLine
 10
81.22727199999999
 20
76.30850200000001
 30
0.0
 11
81.097315
 21
76.438458
 31
0.0
  0
LINE
  5
41C
330
17EC
100
AcDbEntity
  8
GAIKEI
 62
     1
100
AcDbLine
 10
81.097315
 20
76.438458
 30
0.0
 11
81.09750699999997
 21
77.03866999999999
 31
0.0
  0
LINE
  5
41D
330
17EC
100
AcDbEntity
  8
GAIKEI
 62
     1
100
AcDbLine
 10
82.54654999999999
 20
83.86569200000002
 30
0.0
 11
82.26654100000001
 21
83.86549999999999
 31
0.0
  0
LINE
  5
41E
330
17EC
100
AcDbEntity
  8
GAIKEI
 62
     1
100
AcDbLine
 10
82.26654100000001
 20
83.86549999999999
 30
0.0
 11
82.246827
 21
83.90043
 31
0.0
  0
LINE
  5
41F
330
17EC
100
AcDbEntity
  8
GAIKEI
 62
     1
100
AcDbLine
 10
82.246827
 20
83.90043
 30
0.0
 11
82.246444
 21
84.38121099999998
 31
0.0
  0
LINE
  5
420
330
17EC
100
AcDbEntity
  8
GAIKEI
 62
     1
100
AcDbLine
 10
82.246444
 20
84.38121099999998
 30
0.0
 11
82.26654100000001
 21
84.415662
 31
0.0
  0
LINE
  5
421
330
17EC
100
AcDbEntity
  8
GAIKEI
 62
     1
100
AcDbLine
 10
82.26654100000001
 20
84.415662
 30
0.0
 11
82.54654999999999
 21
84.415662
 31
0.0
  0
LINE
  5
422
330
17EC
100
AcDbEntity
  8
GAIKEI
 62
     1
100
AcDbLine
 10
82.49717
 20
79.84560500000002
 30
0.0
 11
82.49717
 21
78.445559
 31
0.0
  0
LINE
  5
423
330
17EC
100
AcDbEntity
  8
GAIKEI
 62
     1
100
AcDbLine
 10
81.09750699999997
 20
79.44559200000002
 30
0.0
 11
81.22727199999999
 21
79.575548
 31
0.0
  0
LINE
  5
424
330
17EC
100
AcDbEntity
  8
GAIKEI
 62
     1
100
AcDbLine
 10
82.19744799999999
 20
78.68049499999997
 30
0.0
 11
82.19744799999999
 21
79.610669
 31
0.0
  0
LINE
  5
425
330
17EC
100
AcDbEntity
  8
GAIKEI
 62
     1
100
AcDbLine
 10
82.46750400000001
 20
78.44536700000002
 30
0.0
 11
82.19744799999999
 21
78.68049499999997
 31
0.0
  0
LINE
  5
426
330
17EC
100
AcDbEntity
  8
GAIKEI
 62
     1
100
AcDbLine
 10
82.19744799999999
 20
78.68049499999997
 30
0.0
 11
81.22727199999999
 21
78.715424
 31
0.0
  0
LINE
  5
427
330
17EC
100
AcDbEntity
  8
GAIKEI
 62
     1
100
AcDbLine
 10
81.097315
 20
78.845381
 30
0.0
 11
81.09750699999997
 21
79.44559200000002
 31
0.0
  0
LINE
  5
428
330
17EC
100
AcDbEntity
  8
GAIKEI
 62
     1
100
AcDbLine
 10
81.22727199999999
 20
78.715424
 30
0.0
 11
81.097315
 21
78.845381
 31
0.0
  0
LINE
  5
429
330
17EC
100
AcDbEntity
  8
GAIKEI
 62
     1
100
AcDbLine
 10
82.49717
 20
78.445559
 30
0.0
 11
82.46750400000001
 21
78.44536700000002
 31
0.0
  0
LINE
  5
42A
330
17EC
100
AcDbEntity
  8
GAIKEI
 62
     1
100
AcDbLine
 10
82.49717
 20
78.701261
 30
0.0
 11
82.53851199999999
 21
78.70595
 31
0.0
  0
LINE
  5
42B
330
17EC
100
AcDbEntity
  8
GAIKEI
 62
     1
100
AcDbLine
 10
82.19744799999999
 20
79.610669
 30
0.0
 11
82.46750400000001
 21
79.84560500000002
 31
0.0
  0
LINE
  5
42C
330
17EC
100
AcDbEntity
  8
GAIKEI
 62
     1
100
AcDbLine
 10
81.22727199999999
 20
79.575548
 30
0.0
 11
82.19744799999999
 21
79.610669
 31
0.0
  0
LINE
  5
42D
330
17EC
100
AcDbEntity
  8
GAIKEI
 62
     1
100
AcDbLine
 10
82.46750400000001
 20
79.84560500000002
 30
0.0
 11
82.49717
 21
79.84560500000002
 31
0.0
  0
LINE
  5
42E
330
17EC
100
AcDbEntity
  8
GAIKEI
 62
     1
100
AcDbLine
 10
82.49717
 20
79.58951999999998
 30
0.0
 11
82.548273
 21
79.58521399999998
 31
0.0
  0
LINE
  5
42F
330
17EC
100
AcDbEntity
  8
GAIKEI
 62
     1
100
AcDbLine
 10
82.19744799999999
 20
82.010654
 30
0.0
 11
82.46750400000001
 21
82.24559000000002
 31
0.0
  0
LINE
  5
430
330
17EC
100
AcDbEntity
  8
GAIKEI
 62
     1
100
AcDbLine
 10
82.46750400000001
 20
80.84535200000003
 30
0.0
 11
82.19744799999999
 21
81.080479
 31
0.0
  0
LINE
  5
431
330
17EC
100
AcDbEntity
  8
GAIKEI
 62
     1
100
AcDbLine
 10
81.097315
 20
81.24536500000003
 30
0.0
 11
81.09750699999997
 21
81.84557599999997
 31
0.0
  0
LINE
  5
432
330
17EC
100
AcDbEntity
  8
GAIKEI
 62
     1
100
AcDbLine
 10
82.19744799999999
 20
81.080479
 30
0.0
 11
82.19744799999999
 21
82.010654
 31
0.0
  0
LINE
  5
433
330
17EC
100
AcDbEntity
  8
GAIKEI
 62
     1
100
AcDbLine
 10
82.19744799999999
 20
81.080479
 30
0.0
 11
81.22727199999999
 21
81.115408
 31
0.0
  0
LINE
  5
434
330
17EC
100
AcDbEntity
  8
GAIKEI
 62
     1
100
AcDbLine
 10
81.22727199999999
 20
81.115408
 30
0.0
 11
81.097315
 21
81.24536500000003
 31
0.0
  0
LINE
  5
435
330
17EC
100
AcDbEntity
  8
GAIKEI
 62
     1
100
AcDbLine
 10
81.22727199999999
 20
81.975533
 30
0.0
 11
82.19744799999999
 21
82.010654
 31
0.0
  0
LINE
  5
436
330
17EC
100
AcDbEntity
  8
GAIKEI
 62
     1
100
AcDbLine
 10
81.09750699999997
 20
81.84557599999997
 30
0.0
 11
81.22727199999999
 21
81.975533
 31
0.0
  0
LINE
  5
437
330
17EC
100
AcDbEntity
  8
GAIKEI
 62
     1
100
AcDbLine
 10
82.49717
 20
82.24559000000002
 30
0.0
 11
82.49717
 21
80.84554300000002
 31
0.0
  0
LINE
  5
438
330
17EC
100
AcDbEntity
  8
GAIKEI
 62
     1
100
AcDbLine
 10
82.49717
 20
81.10124500000003
 30
0.0
 11
82.53851199999999
 21
81.10593400000002
 31
0.0
  0
LINE
  5
439
330
17EC
100
AcDbEntity
  8
GAIKEI
 62
     1
100
AcDbLine
 10
82.49717
 20
80.84554300000002
 30
0.0
 11
82.46750400000001
 21
80.84535200000003
 31
0.0
  0
LINE
  5
43A
330
17EC
100
AcDbEntity
  8
GAIKEI
 62
     1
100
AcDbLine
 10
82.49717
 20
81.98950499999998
 30
0.0
 11
82.548273
 21
81.98519799999999
 31
0.0
  0
LINE
  5
43B
330
17EC
100
AcDbEntity
  8
GAIKEI
 62
     1
100
AcDbLine
 10
82.46750400000001
 20
82.24559000000002
 30
0.0
 11
82.49717
 21
82.24559000000002
 31
0.0
  0
LINE
  5
43C
330
17EC
100
AcDbEntity
  8
GAIKEI
 62
     1
100
AcDbLine
 10
82.51219500000003
 20
85.175496
 30
0.0
 11
82.51219500000003
 21
84.415662
 31
0.0
  0
LINE
  5
43D
330
17EC
100
AcDbEntity
  8
GAIKEI
 62
     1
100
AcDbLine
 10
82.482529
 20
83.77525799999999
 30
0.0
 11
82.37879300000001
 21
83.865577
 31
0.0
  0
LINE
  5
43E
330
17EC
100
AcDbEntity
  8
GAIKEI
 62
     1
100
AcDbLine
 10
82.51219500000003
 20
83.775449
 30
0.0
 11
82.482529
 21
83.77525799999999
 31
0.0
  0
LINE
  5
43F
330
17EC
100
AcDbEntity
  8
GAIKEI
 62
     1
100
AcDbLine
 10
82.21247200000002
 20
84.94056000000002
 30
0.0
 11
82.482529
 21
85.175496
 31
0.0
  0
LINE
  5
440
330
17EC
100
AcDbEntity
  8
GAIKEI
 62
     1
100
AcDbLine
 10
81.24229599999999
 20
84.905439
 30
0.0
 11
82.21247200000002
 21
84.94056000000002
 31
0.0
  0
LINE
  5
441
330
17EC
100
AcDbEntity
  8
GAIKEI
 62
     1
100
AcDbLine
 10
82.21247200000002
 20
84.010385
 30
0.0
 11
81.24229599999999
 21
84.045315
 31
0.0
  0
LINE
  5
442
330
17EC
100
AcDbEntity
  8
GAIKEI
 62
     1
100
AcDbLine
 10
81.112531
 20
84.77548299999998
 30
0.0
 11
81.24229599999999
 21
84.905439
 31
0.0
  0
LINE
  5
443
330
17EC
100
AcDbEntity
  8
GAIKEI
 62
     1
100
AcDbLine
 10
81.24229599999999
 20
84.045315
 30
0.0
 11
81.11234000000001
 21
84.17527099999999
 31
0.0
  0
LINE
  5
444
330
17EC
100
AcDbEntity
  8
GAIKEI
 62
     1
100
AcDbLine
 10
81.11234000000001
 20
84.17527099999999
 30
0.0
 11
81.112531
 21
84.77548299999998
 31
0.0
  0
LINE
  5
445
330
17EC
100
AcDbEntity
  8
GAIKEI
 62
     1
100
AcDbLine
 10
82.21247200000002
 20
84.010385
 30
0.0
 11
82.21247200000002
 21
84.94056000000002
 31
0.0
  0
LINE
  5
446
330
17EC
100
AcDbEntity
  8
GAIKEI
 62
     1
100
AcDbLine
 10
82.482529
 20
85.175496
 30
0.0
 11
82.51219500000003
 21
85.175496
 31
0.0
  0
LINE
  5
447
330
17EC
100
AcDbEntity
  8
GAIKEI
 62
     1
100
AcDbLine
 10
82.51219500000003
 20
84.919411
 30
0.0
 11
82.56329700000001
 21
84.91510500000002
 31
0.0
  0
LINE
  5
448
330
17EC
100
AcDbEntity
  8
GAIKEI
 62
     1
100
AcDbLine
 10
82.246763
 20
83.98052900000001
 30
0.0
 11
82.21247200000002
 21
84.010385
 31
0.0
  0
LINE
  5
449
330
17EC
100
AcDbEntity
  8
GAIKEI
 62
     1
100
AcDbLine
 10
82.51219500000003
 20
83.865668
 30
0.0
 11
82.51219500000003
 21
83.775449
 31
0.0
  0
LINE
  5
44A
330
17EC
100
AcDbEntity
  8
GAIKEI
  6
S10
 62
     1
100
AcDbLine
 10
94.23306455117858
 20
84.55270024872151
 30
0.0
 11
95.75904849468498
 21
84.14340429196887
 31
0.0
  0
LWPOLYLINE
  5
44B
330
17EC
100
AcDbEntity
  8
GAIKEI
  6
S10
 62
     1
100
AcDbPolyline
 90
       12
 70
     0
 43
0.0
 10
95.75904849468516
 20
84.14340429196892
 10
96.28959251718651
 20
86.12375746686756
 10
96.34081133185901
 20
86.3345285562992
 10
96.38167693018329
 20
86.54744385604905
 10
96.4122431417072
 20
86.76213553087428
 10
96.43256379597305
 20
86.97823574553041
 10
96.46270834270529
 20
87.27331736410539
 10
96.51237507211044
 20
87.5658151644111
 10
96.55211024992842
 20
87.69533503731761
 10
96.61536894010323
 20
87.81376602339276
 10
96.70005179027382
 20
87.91791423613846
 10
96.80405944807896
 20
88.00458578905653
  0
LINE
  5
44C
330
17EC
100
AcDbEntity
  8
GAIKEI
  6
S10
 62
     1
100
AcDbLine
 10
96.80405944809551
 20
88.00458578905578
 30
0.0
 11
96.84272102549083
 21
88.14966240126899
 31
0.0
  0
LINE
  5
44D
330
17EC
100
AcDbEntity
  8
GAIKEI
  6
S10
 62
     1
100
AcDbLine
 10
96.84272102551496
 20
88.14966240127112
 30
0.0
 11
96.64022622905052
 21
88.35914307682115
 31
0.0
  0
LINE
  5
44E
330
17EC
100
AcDbEntity
  8
GAIKEI
  6
S10
 62
     1
100
AcDbLine
 10
96.64022622905328
 20
88.35914307680694
 30
0.0
 11
97.20981461685006
 21
90.48428577299185
 31
0.0
  0
LINE
  5
44F
330
17EC
100
AcDbEntity
  8
GAIKEI
  6
S10
 62
     1
100
AcDbLine
 10
97.20981461672636
 20
90.48428577305458
 30
0.0
 11
96.14719542012995
 21
90.76879287604048
 31
0.0
  0
LINE
  5
450
330
17EC
100
AcDbEntity
  8
GAIKEI
  6
S10
 62
     1
100
AcDbLine
 10
96.14719542043951
 20
90.76879287604194
 30
0.0
 11
95.57760703267446
 21
88.64393727077914
 31
0.0
  0
LINE
  5
451
330
17EC
100
AcDbEntity
  8
GAIKEI
  6
S10
 62
     1
100
AcDbLine
 10
95.57760703267694
 20
88.64393727070318
 30
0.0
 11
95.29759768750272
 21
88.56355181274395
 31
0.0
  0
LWPOLYLINE
  5
452
330
17EC
100
AcDbEntity
  8
GAIKEI
  6
S10
 62
     1
100
AcDbPolyline
 90
       18
 70
     0
 43
0.0
 10
95.2975976870573
 20
88.56355181269396
 10
95.25874471597125
 20
88.4187622915415
 10
95.28529614039495
 20
88.35610731469001
 10
95.30550464977693
 20
88.29161989031764
 10
95.3193433293433
 20
88.22577326986488
 10
95.32678526432022
 20
88.15904070477227
 10
95.32780353993379
 20
88.09189544648035
 10
95.32237124141017
 20
88.02481074642964
 10
95.31046145397549
 20
87.95825985606066
 10
95.2920472628225
 20
87.89271602721839
 10
95.24264669065685
 20
87.7528369569045
 10
95.18867060693359
 20
87.61464454575325
 10
95.1302087275657
 20
87.47828233922529
 10
95.06735076813411
 20
87.34389388176444
 10
94.97685432680412
 20
87.14675961110019
 10
94.89602926088243
 20
86.94561503913012
 10
94.82492939991677
 20
86.74082800109699
 10
94.76360857345488
 20
86.53276633224352
  0
LINE
  5
453
330
17EC
100
AcDbEntity
  8
GAIKEI
  6
S10
 62
     1
100
AcDbLine
 10
94.76360857382088
 20
86.53276633259521
 30
0.0
 11
94.23306455131477
 21
84.55270024860146
 31
0.0
  0
LINE
  5
454
330
17EC
100
AcDbEntity
  8
GAIKEI
 62
     1
100
AcDbLine
 10
95.29759799999999
 20
88.56355200000001
 30
0.0
 11
96.070255
 21
88.35655899999999
 31
0.0
  0
LINE
  5
455
330
17EC
100
AcDbEntity
  8
GAIKEI
 62
     1
100
AcDbLine
 10
96.070255
 20
88.35655899999999
 30
0.0
 11
96.84272100000001
 21
88.14966200000002
 31
0.0
  0
LWPOLYLINE
  5
456
330
17EC
100
AcDbEntity
  8
GAIKEI
 62
     1
100
AcDbPolyline
 90
        6
 70
     0
 43
0.0
 10
94.04817799788281
 20
85.87226581983721
 10
94.83863500110391
 20
88.82126376308901
 10
94.84742417003621
 20
88.8391516208536
 10
94.86186544148001
 20
88.8517552113498
 10
94.88000300853471
 20
88.85798897203191
 10
94.89988106429988
 20
88.85676734035419
  0
LWPOLYLINE
  5
457
330
17EC
100
AcDbEntity
  8
GAIKEI
 62
     1
100
AcDbPolyline
 90
        6
 70
     0
 43
0.0
 10
94.89988106430701
 20
88.8567673403527
 10
97.33383789480775
 20
88.20449676723626
 10
97.35169734253322
 20
88.19562236818667
 10
97.36431738094672
 20
88.18115866776459
 10
97.3705496463635
 20
88.16298072854896
 10
97.36924577509888
 20
88.14296361311873
  0
LINE
  5
458
330
17EC
100
AcDbEntity
  8
GAIKEI
 62
     1
100
AcDbLine
 10
97.36924577510579
 20
88.14296361309606
 30
0.0
 11
96.57917155978381
 21
85.19434845773526
 31
0.0
  0
LWPOLYLINE
  5
459
330
17EC
100
AcDbEntity
  8
GAIKEI
 62
     1
100
AcDbPolyline
 90
       10
 70
     0
 43
0.0
 10
93.87439229354265
 20
85.91887024605609
 10
94.67748129729931
 20
88.91619516105448
 10
94.69044076091551
 20
88.9502780494522
 10
94.70934838955558
 20
88.98019699804356
 10
94.73331599568217
 20
89.00543950467623
 10
94.7614553917578
 20
89.02549306719798
 10
94.79287839024513
 20
89.03984518345655
 10
94.82669680360672
 20
89.04798335129969
 10
94.8620224443052
 20
89.04939506857511
 10
94.89796712480311
 20
89.04356783313055
  0
LWPOLYLINE
  5
45A
330
17EC
100
AcDbEntity
  8
GAIKEI
 62
     1
100
AcDbPolyline
 90
       10
 70
     0
 43
0.0
 10
94.89796712483169
 20
89.04356783312321
 10
97.42876929276963
 20
88.3654590770905
 10
97.46289124497096
 20
88.35247606304731
 10
97.49285037881479
 20
88.33356507006062
 10
97.51812634200655
 20
88.30960755697439
 10
97.53819878225151
 20
88.28148498263251
 10
97.55254734725506
 20
88.25007880587898
 10
97.56065168472261
 20
88.21627048555773
 10
97.56199144235942
 20
88.18094148051264
 10
97.55604626787098
 20
88.1449732495877
  0
LINE
  5
45B
330
17EC
100
AcDbEntity
  8
GAIKEI
 62
     1
100
AcDbLine
 10
97.55604626786592
 20
88.14497324954754
 30
0.0
 11
96.75276587016272
 21
85.1476483345449
 31
0.0
  0
LWPOLYLINE
  5
45C
330
17EC
100
AcDbEntity
  8
GAIKEI
  6
S10
 62
     1
100
AcDbPolyline
 90
       18
 70
     0
 43
0.0
 10
99.53544247302763
 20
92.65622428937007
 10
98.99532875315117
 20
92.80101381066208
 10
98.79511984340172
 20
92.84397502318158
 10
98.5954469862316
 20
92.86610420073081
 10
98.39754153254492
 20
92.86811234191915
 10
98.2026348332458
 20
92.85071044535619
 10
98.01195823923839
 20
92.81460950965136
 10
97.82674310142679
 20
92.76052053341411
 10
97.64822077071519
 20
92.68915451525405
 10
97.47762259800765
 20
92.60122245378052
 10
97.31617993420833
 20
92.49743534760307
 10
97.1651241302213
 20
92.37850419533122
 10
97.02568653695076
 20
92.24513999557443
 10
96.89909850530078
 20
92.09805374694216
 10
96.78659138617552
 20
91.93795644804392
 10
96.68939653047914
 20
91.7655590974892
 10
96.6087452891157
 20
91.58157269388748
 10
96.54586901298932
 20
91.38670823584822
  0
LINE
  5
45D
330
17EC
100
AcDbEntity
  8
GAIKEI
  6
S10
 62
     1
100
AcDbLine
 10
96.54586901290397
 20
91.38670823552955
 30
0.0
 11
96.36481033855899
 21
90.71080050989474
 31
0.0
  0
LWPOLYLINE
  5
45E
330
17EC
100
AcDbEntity
  8
GAIKEI
  6
S10
 62
     1
100
AcDbPolyline
 90
       18
 70
     0
 43
0.0
 10
96.99219969849933
 20
90.54246953305682
 10
97.17364116074005
 20
91.21856865264
 10
97.21606132088536
 20
91.35008059262712
 10
97.27049135778065
 20
91.47425152804304
 10
97.33609831524729
 20
91.59060147875392
 10
97.41204923710675
 20
91.69865046462593
 10
97.49751116718057
 20
91.7979185055252
 10
97.59165114929013
 20
91.88792562131787
 10
97.69363622725688
 20
91.96819183187011
 10
97.80263344490231
 20
92.03823715704809
 10
97.91780984604791
 20
92.09758161671793
 10
98.03833247451507
 20
92.14574523074579
 10
98.16336837412528
 20
92.18224801899784
 10
98.29208458870001
 20
92.20661000134018
 10
98.42364816206069
 20
92.218351197639
 10
98.5572261380288
 20
92.21699162776044
 10
98.69198556042578
 20
92.20205131157069
 10
98.82709347307308
 20
92.17305026893585
  0
LINE
  5
45F
330
17EC
100
AcDbEntity
  8
GAIKEI
  6
S10
 62
     1
100
AcDbLine
 10
98.82709347328821
 20
92.1730502688788
 30
0.0
 11
99.36720719316351
 21
92.02826074758684
 31
0.0
  0
LINE
  5
460
330
17EC
100
AcDbEntity
  8
GAIKEI
 62
     1
100
AcDbLine
 10
97.16866500000001
 20
85.12697799999997
 30
0.0
 11
97.75433000000001
 21
84.96993899999999
 31
0.0
  0
LINE
  5
461
330
17EC
100
AcDbEntity
  8
GAIKEI
 62
     1
100
AcDbLine
 10
85.74321199999999
 20
86.225196
 30
0.0
 11
86.349931
 21
86.225196
 31
0.0
  0
LINE
  5
462
330
17EC
100
AcDbEntity
  8
GAIKEI
 62
     1
100
AcDbLine
 10
93.250065
 20
86.17677399999999
 30
0.0
 11
93.83611399999999
 21
86.01983100000001
 31
0.0
  0
LWPOLYLINE
  5
463
330
17EC
100
AcDbEntity
  8
GAIKEI
 62
     1
100
AcDbPolyline
 90
       19
 70
     0
 43
0.0
 10
97.73901888168794
 20
84.88333329304698
 10
97.75433039748874
 20
84.96993905429604
 10
97.72209154491406
 20
84.99205276519488
 10
97.68900375551355
 20
85.0125933636335
 10
97.65512422318181
 20
85.03154655113835
 10
97.62051014181317
 20
85.04889802923576
 10
97.58521870530218
 20
85.06463349945214
 10
97.54930710754331
 20
85.07873866331385
 10
97.51283254243105
 20
85.09119922234733
 10
97.4758522038598
 20
85.10200087807886
 10
97.43842328572409
 20
85.11112933203495
 10
97.40060298191835
 20
85.11857028574187
 10
97.36244848633708
 20
85.12430944072608
 10
97.32401699287478
 20
85.12833249851391
 10
97.28536569542583
 20
85.13062516063177
 10
97.24655178788479
 20
85.131173128606
 10
97.20763246414611
 20
85.12996210396307
 10
97.16866491810332
 20
85.12697778822849
 10
97.13823328044798
 20
85.04439129987716
  0
LWPOLYLINE
  5
464
330
17EC
100
AcDbEntity
  8
GAIKEI
 62
     1
100
AcDbPolyline
 90
       19
 70
     0
 43
0.0
 10
85.73593885747323
 20
86.14079152819526
 10
85.74321182747871
 20
86.22519625904756
 10
85.78011333753689
 20
86.2381826374392
 10
85.81742669970767
 20
86.24943749871203
 10
85.85509275756104
 20
86.25896084286589
 10
85.89305235466694
 20
86.26675266990091
 10
85.93124633459524
 20
86.27281297981701
 10
85.96961554091596
 20
86.27714177261422
 10
86.00810081719892
 20
86.27973904829252
 10
86.04664300701418
 20
86.28060480685196
 10
86.08518295393158
 20
86.27973904829252
 10
86.12366150152109
 20
86.27714177261415
 10
86.16201949335268
 20
86.27281297981692
 10
86.20019777299622
 20
86.26675266990078
 10
86.23813718402169
 20
86.25896084286578
 10
86.275778569999
 20
86.24943749871183
 10
86.31306277449811
 20
86.23818263743903
 10
86.34993064109085
 20
86.22519625904761
 10
86.35720361109752
 20
86.14079152819533
  0
LWPOLYLINE
  5
465
330
17EC
100
AcDbEntity
  8
GAIKEI
 62
     1
100
AcDbPolyline
 90
       19
 70
     0
 43
0.0
 10
93.22020778094952
 20
86.09428279895011
 10
93.25006523676107
 20
86.17677359032741
 10
93.28903497897366
 20
86.17975687806637
 10
93.32796070431653
 20
86.18096519254116
 10
93.36678493853293
 20
86.18041339294979
 10
93.40545020736616
 20
86.17811633849036
 10
93.44389903655953
 20
86.174088888361
 10
93.48207395185637
 20
86.16834590175967
 10
93.51991747899988
 20
86.16090223788456
 10
93.55737214373348
 20
86.15177275593369
 10
93.59438047180045
 20
86.14097231510513
 10
93.63088498894398
 20
86.12851577459693
 10
93.66682822090751
 20
86.11441799360719
 10
93.70215269343431
 20
86.09869383133403
 10
93.73680093226765
 20
86.08135814697545
 10
93.77071546315079
 20
86.06242579972954
 10
93.80383881182712
 20
86.0419116487944
 10
93.83611350404136
 20
86.01983055336722
 10
93.82080198824116
 20
85.93322479211733
  0
DIMENSION
  5
466
330
17EC
100
AcDbEntity
  8
SUNPO
100
AcDbDimension
  2
*D7
 10
101.1669424593624
 20
97.26641214485793
 30
0.0
 11
93.92262884104175
 21
101.0191756138359
 31
0.0
 70
    33
  1
159
 71
     5
 42
15.9374795315548
  3
STANDARD
100
AcDbAlignedDimension
 13
83.70200099999999
 23
93.663764
 33
0.0
 14
99.096463
 24
89.53898599999998
 34
0.0
1001
ACAD
1000
DSTYLE
1002
{
1070
    40
1040
1.0
1070
   140
1040
2.5
1070
   147
1040
0.5
1070
   172
1070
     1
1070
   279
1070
     0
1070
   343
1005
1800
1070
   344
1005
1800
1002
}
  0
TEXT
  5
473
330
17EC
100
AcDbEntity
  8
TOUROKU
100
AcDbText
 10
114.3332833333333
 20
103.0
 30
0.0
 40
2.0
  1
ＷＲＤ０１
 72
     2
 11
124.99995
 21
103.0
 31
0.0
100
AcDbText
  0
DIMENSION
  5
475
330
17EC
100
AcDbEntity
  8
SUNPO
100
AcDbDimension
  2
*D6
 10
103.7695121663647
 20
83.26754762088146
 30
0.0
 11
97.85916478451257
 21
67.97131168545108
 31
0.0
 70
    32
  1
326
 71
     5
 42
32.60947960127654
  3
STANDARD
100
AcDbAlignedDimension
 13
89.855233
 23
53.23605
 33
0.0
 14
98.295417
 24
84.73432699999998
 34
0.0
 50
75.0
100
AcDbRotatedDimension
1001
ACAD
1000
DSTYLE
1002
{
1070
    40
1040
1.0
1070
   140
1040
2.5
1070
   147
1040
0.5
1070
   172
1070
     1
1070
   279
1070
     0
1070
   343
1005
1800
1070
   344
1005
1800
1002
}
  0
TEXT
  5
482
330
17EC
100
AcDbEntity
  8
MOJI1
100
AcDbText
 10
42.5
 20
11.0
 30
0.0
 40
3.0
  1
ＯＵＴＰＵＴプロセッサー×８、デジタルリバーブ内蔵
 41
0.9
100
AcDbText
  0
TEXT
  5
483
330
17EC
100
AcDbEntity
  8
MOJI1
100
AcDbText
 10
42.5
 20
26.0
 30
0.0
 40
3.0
  1
ＭＯＮＩＴＯＲ（Ｌ・Ｒ）×１、グループ×４
100
AcDbText
  0
LINE
  5
484
330
17EC
100
AcDbEntity
  8
WAKU
 62
     1
100
AcDbLine
 10
0.0
 20
25.0
 30
0.0
 11
125.0
 21
25.0
 31
0.0
  0
TEXT
  5
486
330
17EC
100
AcDbEntity
  8
MOJI1
100
AcDbText
 10
42.5
 20
21.0
 30
0.0
 40
3.0
  1
ＡＵＸ ×２
100
AcDbText
  0
LINE
  5
487
330
17EC
100
AcDbEntity
  8
WAKU
 62
     4
100
AcDbLine
 10
125.0
 20
45.0
 30
0.0
 11
0.0
 21
45.0
 31
0.0
  0
TEXT
  5
488
330
17EC
100
AcDbEntity
  8
MOJI1
100
AcDbText
 10
2.5
 20
41.0
 30
0.0
 40
3.0
  1
電　源
100
AcDbText
  0
TEXT
  5
489
330
17EC
100
AcDbEntity
  8
MOJI1
100
AcDbText
 10
42.5
 20
41.0
 30
0.0
 40
3.0
  1
ＡＣ１００Ｖ　５０／６０Ｈｚ
100
AcDbText
  0
LINE
  5
48A
330
17EC
100
AcDbEntity
  8
WAKU
 62
     1
100
AcDbLine
 10
125.0
 20
40.0
 30
0.0
 11
0.0
 21
40.0
 31
0.0
  0
LINE
  5
48B
330
17EC
100
AcDbEntity
  8
WAKU
 62
     1
100
AcDbLine
 10
0.0
 20
35.0
 30
0.0
 11
125.0
 21
35.0
 31
0.0
  0
LINE
  5
48C
330
17EC
100
AcDbEntity
  8
WAKU
 62
     1
100
AcDbLine
 10
0.0
 20
30.0
 30
0.0
 11
125.0
 21
30.0
 31
0.0
  0
LINE
  5
48D
330
17EC
100
AcDbEntity
  8
WAKU
 62
     1
100
AcDbLine
 10
0.0
 20
15.0
 30
0.0
 11
125.0
 21
15.0
 31
0.0
  0
LINE
  5
48E
330
17EC
100
AcDbEntity
  8
WAKU
 62
     1
100
AcDbLine
 10
0.0
 20
10.0
 30
0.0
 11
125.0
 21
10.0
 31
0.0
  0
LINE
  5
48F
330
17EC
100
AcDbEntity
  8
WAKU
 62
     1
100
AcDbLine
 10
0.0
 20
5.0
 30
0.0
 11
125.0
 21
5.0
 31
0.0
  0
LINE
  5
490
330
17EC
100
AcDbEntity
  8
WAKU
 62
     4
100
AcDbLine
 10
0.0
 20
0.0
 30
0.0
 11
125.0
 21
0.0
 31
0.0
  0
LINE
  5
491
330
17EC
100
AcDbEntity
  8
WAKU
 62
     4
100
AcDbLine
 10
0.0
 20
45.0
 30
0.0
 11
0.0
 21
0.0
 31
0.0
  0
LINE
  5
492
330
17EC
100
AcDbEntity
  8
WAKU
 62
     1
100
AcDbLine
 10
0.0
 20
20.0
 30
0.0
 11
125.0
 21
20.0
 31
0.0
  0
TEXT
  5
493
330
17EC
100
AcDbEntity
  8
MOJI1
100
AcDbText
 10
42.5
 20
36.0
 30
0.0
 40
3.0
  1
モノ×６、ステレオ×６、ＡＵＸ（Ｌ・Ｒ）×２
100
AcDbText
  0
TEXT
  5
494
330
17EC
100
AcDbEntity
  8
MOJI1
100
AcDbText
 10
2.5
 20
36.0
 30
0.0
 40
3.0
  1
アナログ入力
100
AcDbText
  0
LINE
  5
495
330
17EC
100
AcDbEntity
  8
WAKU
 62
     4
100
AcDbLine
 10
40.0
 20
0.0
 30
0.0
 11
40.0
 21
45.0
 31
0.0
  0
LINE
  5
496
330
17EC
100
AcDbEntity
  8
WAKU
 62
     4
100
AcDbLine
 10
125.0
 20
0.0
 30
0.0
 11
125.0
 21
45.0
 31
0.0
  0
TEXT
  5
497
330
17EC
100
AcDbEntity
  8
MOJI1
100
AcDbText
 10
42.5
 20
31.0
 30
0.0
 40
3.0
  1
メイン（Ｌ・Ｒ）×１、ＲＥＣ（Ｌ・Ｒ）×１
100
AcDbText
  0
TEXT
  5
498
330
17EC
100
AcDbEntity
  8
MOJI1
100
AcDbText
 10
2.5
 20
31.0
 30
0.0
 40
3.0
  1
アナログ出力
100
AcDbText
  0
TEXT
  5
499
330
17EC
100
AcDbEntity
  8
MOJI1
100
AcDbText
 10
42.5
 20
6.0
 30
0.0
 40
3.0
  1
ハウリングサプレッサー×４
100
AcDbText
  0
TEXT
  5
49A
330
17EC
100
AcDbEntity
  8
MOJI1
100
AcDbText
 10
42.5
 20
1.0
 30
0.0
 40
3.0
  1
スロットにオプション追加でデジタル入出力各８ｃｈ可能
 41
0.8699999999999999
100
AcDbText
  0
TEXT
  5
49B
330
17EC
100
AcDbEntity
  8
MOJI1
100
AcDbText
 10
2.5
 20
16.0
 30
0.0
 40
3.0
  1
その他
100
AcDbText
  0
TEXT
  5
49C
330
17EC
100
AcDbEntity
  8
MOJI1
100
AcDbText
 10
42.5
 20
16.0
 30
0.0
 40
3.0
  1
ＲＳ４２２、パターン制御×８、ＶＣＡ制御×４
100
AcDbText
  0
ENDSEC
  0
SECTION
  2
OBJECTS
  0
DICTIONARY
  5
17D8
330
0
100
AcDbDictionary
281
     1
  3
ACAD_COLOR
350
17E7
  3
ACAD_GROUP
350
17D9
  3
ACAD_LAYOUT
350
17E5
  3
ACAD_MATERIAL
350
17E6
  3
ACAD_MLINESTYLE
350
17E2
  3
ACAD_PLOTSETTINGS
350
17E4
  3
ACAD_PLOTSTYLENAME
350
17DA
  3
ACDBHEADERROUNDTRIPXREC
350
1832
  3
AcDbVariableDictionary
350
182D
  3
DWGPROPS
350
1831
  0
DICTIONARY
  5
17E7
102
{ACAD_REACTORS
330
17D8
102
}
330
17D8
100
AcDbDictionary
281
     1
  0
DICTIONARY
  5
17D9
102
{ACAD_REACTORS
330
17D8
102
}
330
17D8
100
AcDbDictionary
281
     1
  0
DICTIONARY
  5
17E5
102
{ACAD_REACTORS
330
17D8
102
}
330
17D8
100
AcDbDictionary
281
     1
  3
Model
350
17EF
  3
レイアウト1
350
17EB
  0
DICTIONARY
  5
17E6
102
{ACAD_REACTORS
330
17D8
102
}
330
17D8
100
AcDbDictionary
281
     1
  0
DICTIONARY
  5
17E2
102
{ACAD_REACTORS
330
17D8
102
}
330
17D8
100
AcDbDictionary
281
     1
  3
Standard
350
17E3
  0
DICTIONARY
  5
17E4
102
{ACAD_REACTORS
330
17D8
102
}
330
17D8
100
AcDbDictionary
281
     1
  0
ACDBDICTIONARYWDFLT
  5
17DA
102
{ACAD_REACTORS
330
17D8
102
}
330
17D8
100
AcDbDictionary
281
     1
  3
Normal
350
17DB
100
AcDbDictionaryWithDefault
340
17DB
  0
DICTIONARY
  5
1832
102
{ACAD_REACTORS
330
17D8
102
}
330
17D8
100
AcDbDictionary
281
     1
  3
COLORDICT
350
1834
  3
MATERIALDICT
350
1833
  0
DICTIONARY
  5
182D
102
{ACAD_REACTORS
330
17D8
102
}
330
17D8
100
AcDbDictionary
281
     1
  3
DIMASSOC
350
182E
  3
PROJECTNAME
350
182F
  0
XRECORD
  5
1831
102
{ACAD_REACTORS
330
17D8
102
}
330
17D8
100
AcDbXrecord
280
     1
  1
DWGPROPS COOKIE
  2

  3

  4

  6

  7

  8

  9

300
=
301
=
302
=
303
=
304
=
305
=
306
=
307
=
308
=
309
=
 40
0.6573602893518519
 41
2451815.190532581
 42
2453731.677659144
  1

 90
        0
  0
LAYOUT
  5
17EF
102
{ACAD_XDICTIONARY
360
1837
102
}
102
{ACAD_REACTORS
330
17E5
102
}
330
17E5
100
AcDbPlotSettings
  1

  2
\\Uranus\BFACN02M
  4

  6

 40
0.0
 41
0.0
 42
0.0
 43
0.0
 44
0.0
 45
0.0
 46
0.0
 47
0.0
 48
0.0
 49
0.0
140
0.0
141
0.0
142
1.0
143
1.0
 70
  1712
 72
     0
 73
     0
 74
     0
  7
SSC.ctb
 75
     0
147
1.0
148
0.0
149
0.0
100
AcDbLayout
  1
Model
 70
     1
 71
     0
 10
0.0
 20
0.0
 11
12.0
 21
9.0
 12
0.0
 22
0.0
 32
0.0
 14
0.0
 24
0.0
 34
0.0
 15
0.0
 25
0.0
 35
0.0
146
0.0
 13
0.0
 23
0.0
 33
0.0
 16
1.0
 26
0.0
 36
0.0
 17
0.0
 27
1.0
 37
0.0
 76
     0
330
17EC
  0
LAYOUT
  5
17EB
102
{ACAD_XDICTIONARY
360
1835
102
}
102
{ACAD_REACTORS
330
17E5
102
}
330
17E5
100
AcDbPlotSettings
  1

  2
\\Uranus\BFACN02M
  4

  6

 40
0.0
 41
0.0
 42
0.0
 43
0.0
 44
0.0
 45
0.0
 46
0.0
 47
0.0
 48
0.0
 49
0.0
140
0.0
141
0.0
142
1.0
143
1.0
 70
   688
 72
     0
 73
     0
 74
     5
  7
SSC.ctb
 75
    16
147
1.0
148
0.0
149
0.0
100
AcDbLayout
  1
レイアウト1
 70
     1
 71
     1
 10
0.0
 20
0.0
 11
12.0
 21
9.0
 12
0.0
 22
0.0
 32
0.0
 14
1.000000000000000E+20
 24
1.000000000000000E+20
 34
1.000000000000000E+20
 15
-1.000000000000000E+20
 25
-1.000000000000000E+20
 35
-1.000000000000000E+20
146
0.0
 13
0.0
 23
0.0
 33
0.0
 16
1.0
 26
0.0
 36
0.0
 17
0.0
 27
1.0
 37
0.0
 76
     0
330
17E8
  0
MLINESTYLE
  5
17E3
102
{ACAD_REACTORS
330
17E2
102
}
330
17E2
100
AcDbMlineStyle
  2
STANDARD
 70
     0
  3

 62
   256
 51
90.0
 52
90.0
 71
     2
 49
0.5
 62
   256
  6
BYLAYER
 49
-0.5
 62
   256
  6
BYLAYER
  0
ACDBPLACEHOLDER
  5
17DB
102
{ACAD_REACTORS
330
17DA
102
}
330
17DA
  0
XRECORD
  5
1834
102
{ACAD_REACTORS
330
1832
102
}
330
1832
100
AcDbXrecord
280
     1
340
17E7
  0
XRECORD
  5
1833
102
{ACAD_REACTORS
330
1832
102
}
330
1832
100
AcDbXrecord
280
     1
340
17E6
  0
DICTIONARYVAR
  5
182E
102
{ACAD_REACTORS
330
182D
102
}
330
182D
100
DictionaryVariables
280
     0
  1
1
  0
DICTIONARYVAR
  5
182F
102
{ACAD_REACTORS
330
182D
102
}
330
182D
100
DictionaryVariables
280
     0
  1

  0
DICTIONARY
  5
1837
330
17EF
100
AcDbDictionary
280
     1
281
     1
  3
ACAD_XREC_ROUNDTRIP
360
1838
  0
DICTIONARY
  5
1835
330
17EB
100
AcDbDictionary
280
     1
281
     1
  3
ACAD_XREC_ROUNDTRIP
360
1836
  0
XRECORD
  5
1838
102
{ACAD_REACTORS
330
1837
102
}
330
1837
100
AcDbXrecord
280
     1
102
SHADEPLOT
 70
     0
102
SHADEPLOTRESLEVEL
 70
     2
102
SHADEPLOTCUSTOMDPI
 70
   300
  0
XRECORD
  5
1836
102
{ACAD_REACTORS
330
1835
102
}
330
1835
100
AcDbXrecord
280
     1
102
SHADEPLOT
 70
     0
102
SHADEPLOTRESLEVEL
 70
     2
102
SHADEPLOTCUSTOMDPI
 70
   300
  0
ENDSEC
  0
EOF
