  0
SECTION
  2
HEADER
  9
$ACADVER
  1
AC1015
  9
$ACADMAINTVER
 70
    20
  9
$DWGCODEPAGE
  3
ANSI_932
  9
$INSBASE
 10
0.4999999440410648
 20
372.5008351249344
 30
0.0
  9
$EXTMIN
 10
-58.8766470398715
 20
-55.50169309869136
 30
-0.0015258207003583
  9
$EXTMAX
 10
66.15692195267991
 20
57.52290385510185
 30
0.0000000349246037
  9
$LIMMIN
 10
0.0
 20
0.0
  9
$LIMMAX
 10
420.0
 20
297.0
  9
$ORTHOMODE
 70
     1
  9
$REGENMODE
 70
     0
  9
$FILLMODE
 70
     1
  9
$QTEXTMODE
 70
     0
  9
$MIRRTEXT
 70
     0
  9
$LTSCALE
 40
1.0
  9
$ATTMODE
 70
     1
  9
$TEXTSIZE
 40
2.5
  9
$TRACEWID
 40
1.0
  9
$TEXTSTYLE
  7
Standard
  9
$CLAYER
  8
SUNPO
  9
$CELTYPE
  6
ByLayer
  9
$CECOLOR
 62
   256
  9
$CELTSCALE
 40
1.0
  9
$DISPSILH
 70
     0
  9
$DIMSCALE
 40
1.0
  9
$DIMASZ
 40
2.0
  9
$DIMEXO
 40
2.0
  9
$DIMDLI
 40
8.0
  9
$DIMRND
 40
0.0
  9
$DIMDLE
 40
0.0
  9
$DIMEXE
 40
2.0
  9
$DIMTP
 40
0.0
  9
$DIMTM
 40
0.0
  9
$DIMTXT
 40
2.5
  9
$DIMCEN
 40
0.0
  9
$DIMTSZ
 40
0.0
  9
$DIMTOL
 70
     0
  9
$DIMLIM
 70
     0
  9
$DIMTIH
 70
     0
  9
$DIMTOH
 70
     0
  9
$DIMSE1
 70
     0
  9
$DIMSE2
 70
     0
  9
$DIMTAD
 70
     3
  9
$DIMZIN
 70
     0
  9
$DIMBLK
  1

  9
$DIMASO
 70
     1
  9
$DIMSHO
 70
     1
  9
$DIMPOST
  1

  9
$DIMAPOST
  1

  9
$DIMALT
 70
     0
  9
$DIMALTD
 70
     2
  9
$DIMALTF
 40
25.4
  9
$DIMLFAC
 40
1.0
  9
$DIMTOFL
 70
     1
  9
$DIMTVP
 40
0.0
  9
$DIMTIX
 70
     0
  9
$DIMSOXD
 70
     0
  9
$DIMSAH
 70
     1
  9
$DIMBLK1
  1
OPEN30
  9
$DIMBLK2
  1
OPEN30
  9
$DIMSTYLE
  2
STANDARD
  9
$DIMCLRD
 70
     0
  9
$DIMCLRE
 70
     0
  9
$DIMCLRT
 70
     0
  9
$DIMTFAC
 40
1.0
  9
$DIMGAP
 40
0.5
  9
$DIMJUST
 70
     0
  9
$DIMSD1
 70
     0
  9
$DIMSD2
 70
     0
  9
$DIMTOLJ
 70
     1
  9
$DIMTZIN
 70
     0
  9
$DIMALTZ
 70
     0
  9
$DIMALTTZ
 70
     0
  9
$DIMUPT
 70
     0
  9
$DIMDEC
 70
     4
  9
$DIMTDEC
 70
     4
  9
$DIMALTU
 70
     2
  9
$DIMALTTD
 70
     2
  9
$DIMTXSTY
  7
Standard
  9
$DIMAUNIT
 70
     0
  9
$DIMADEC
 70
     0
  9
$DIMALTRND
 40
0.0
  9
$DIMAZIN
 70
     0
  9
$DIMDSEP
 70
    46
  9
$DIMATFIT
 70
     3
  9
$DIMFRAC
 70
     0
  9
$DIMLDRBLK
  1
OPEN30
  9
$DIMLUNIT
 70
     2
  9
$DIMLWD
 70
    -2
  9
$DIMLWE
 70
    -2
  9
$DIMTMOVE
 70
     0
  9
$LUNITS
 70
     2
  9
$LUPREC
 70
     4
  9
$SKETCHINC
 40
1.0
  9
$FILLETRAD
 40
0.0
  9
$AUNITS
 70
     0
  9
$AUPREC
 70
     0
  9
$MENU
  1
.
  9
$ELEVATION
 40
0.0
  9
$PELEVATION
 40
0.0
  9
$THICKNESS
 40
0.0
  9
$LIMCHECK
 70
     0
  9
$CHAMFERA
 40
0.0
  9
$CHAMFERB
 40
0.0
  9
$CHAMFERC
 40
0.0
  9
$CHAMFERD
 40
0.0
  9
$SKPOLY
 70
     0
  9
$TDCREATE
 40
2454349.434269746
  9
$TDUCREATE
 40
2454349.059269746
  9
$TDUPDATE
 40
2455456.592731840
  9
$TDUUPDATE
 40
2455456.217731840
  9
$TDINDWG
 40
0.2067529398
  9
$TDUSRTIMER
 40
0.2067529398
  9
$USRTIMER
 70
     1
  9
$ANGBASE
 50
0.0
  9
$ANGDIR
 70
     0
  9
$PDMODE
 70
     0
  9
$PDSIZE
 40
0.0
  9
$PLINEWID
 40
0.0
  9
$SPLFRAME
 70
     0
  9
$SPLINETYPE
 70
     6
  9
$SPLINESEGS
 70
     8
  9
$HANDSEED
  5
29D
  9
$SURFTAB1
 70
     6
  9
$SURFTAB2
 70
     6
  9
$SURFTYPE
 70
     6
  9
$SURFU
 70
     6
  9
$SURFV
 70
     6
  9
$UCSBASE
  2

  9
$UCSNAME
  2

  9
$UCSORG
 10
0.0
 20
0.0
 30
0.0
  9
$UCSXDIR
 10
1.0
 20
0.0
 30
0.0
  9
$UCSYDIR
 10
0.0
 20
1.0
 30
0.0
  9
$UCSORTHOREF
  2

  9
$UCSORTHOVIEW
 70
     0
  9
$UCSORGTOP
 10
0.0
 20
0.0
 30
0.0
  9
$UCSORGBOTTOM
 10
0.0
 20
0.0
 30
0.0
  9
$UCSORGLEFT
 10
0.0
 20
0.0
 30
0.0
  9
$UCSORGRIGHT
 10
0.0
 20
0.0
 30
0.0
  9
$UCSORGFRONT
 10
0.0
 20
0.0
 30
0.0
  9
$UCSORGBACK
 10
0.0
 20
0.0
 30
0.0
  9
$PUCSBASE
  2

  9
$PUCSNAME
  2

  9
$PUCSORG
 10
0.0
 20
0.0
 30
0.0
  9
$PUCSXDIR
 10
1.0
 20
0.0
 30
0.0
  9
$PUCSYDIR
 10
0.0
 20
1.0
 30
0.0
  9
$PUCSORTHOREF
  2

  9
$PUCSORTHOVIEW
 70
     0
  9
$PUCSORGTOP
 10
0.0
 20
0.0
 30
0.0
  9
$PUCSORGBOTTOM
 10
0.0
 20
0.0
 30
0.0
  9
$PUCSORGLEFT
 10
0.0
 20
0.0
 30
0.0
  9
$PUCSORGRIGHT
 10
0.0
 20
0.0
 30
0.0
  9
$PUCSORGFRONT
 10
0.0
 20
0.0
 30
0.0
  9
$PUCSORGBACK
 10
0.0
 20
0.0
 30
0.0
  9
$USERI1
 70
     0
  9
$USERI2
 70
     0
  9
$USERI3
 70
     0
  9
$USERI4
 70
     0
  9
$USERI5
 70
     0
  9
$USERR1
 40
0.0
  9
$USERR2
 40
0.0
  9
$USERR3
 40
0.0
  9
$USERR4
 40
0.0
  9
$USERR5
 40
0.0
  9
$WORLDVIEW
 70
     1
  9
$SHADEDGE
 70
     3
  9
$SHADEDIF
 70
    70
  9
$TILEMODE
 70
     1
  9
$MAXACTVP
 70
    64
  9
$PINSBASE
 10
0.0
 20
0.0
 30
0.0
  9
$PLIMCHECK
 70
     0
  9
$PEXTMIN
 10
0.0
 20
0.0
 30
0.0
  9
$PEXTMAX
 10
0.0
 20
0.0
 30
0.0
  9
$PLIMMIN
 10
0.0
 20
0.0
  9
$PLIMMAX
 10
12.0
 20
9.0
  9
$UNITMODE
 70
     0
  9
$VISRETAIN
 70
     1
  9
$PLINEGEN
 70
     0
  9
$PSLTSCALE
 70
     1
  9
$TREEDEPTH
 70
  3020
  9
$CMLSTYLE
  2
Standard
  9
$CMLJUST
 70
     0
  9
$CMLSCALE
 40
20.0
  9
$PROXYGRAPHICS
 70
     1
  9
$MEASUREMENT
 70
     1
  9
$CELWEIGHT
370
    -1
  9
$ENDCAPS
280
     0
  9
$JOINSTYLE
280
     0
  9
$LWDISPLAY
290
     0
  9
$INSUNITS
 70
     4
  9
$HYPERLINKBASE
  1

  9
$STYLESHEET
  1

  9
$XEDIT
290
     1
  9
$CEPSNTYPE
380
     0
  9
$PSTYLEMODE
290
     1
  9
$FINGERPRINTGUID
  2
{FDEAD578-A652-11D2-9A35-0060089B3A3F}
  9
$VERSIONGUID
  2
{81BCC21F-644D-44C2-ADAB-950233995A38}
  9
$EXTNAMES
290
     1
  9
$PSVPSCALE
 40
0.0
  9
$OLESTARTUP
290
     0
  0
ENDSEC
  0
SECTION
  2
CLASSES
  0
CLASS
  1
ACDBDICTIONARYWDFLT
  2
AcDbDictionaryWithDefault
  3
ObjectDBX Classes
 90
        0
280
     0
281
     0
  0
CLASS
  1
ACDBPLACEHOLDER
  2
AcDbPlaceHolder
  3
ObjectDBX Classes
 90
        0
280
     0
281
     0
  0
CLASS
  1
LAYOUT
  2
AcDbLayout
  3
ObjectDBX Classes
 90
        0
280
     0
281
     0
  0
CLASS
  1
DICTIONARYVAR
  2
AcDbDictionaryVar
  3
ObjectDBX Classes
 90
        0
280
     0
281
     0
  0
CLASS
  1
DIMASSOC
  2
AcDbDimAssoc
  3
"AcDbDimAssoc|Product Desc:     AcDim ARX App For Dimension|Company:          Autodesk, Inc.|WEB Address:      www.autodesk.com"
 90
    32768
280
     0
281
     0
  0
ENDSEC
  0
SECTION
  2
TABLES
  0
TABLE
  2
VPORT
  5
19
330
0
100
AcDbSymbolTable
 70
     2
  0
VPORT
  5
295
330
19
100
AcDbSymbolTableRecord
100
AcDbViewportTableRecord
  2
*Active
 70
     0
 10
0.0
 20
0.0
 11
1.0
 21
1.0
 12
3.6401374564042
 22
1.010605378205241
 13
0.0
 23
0.0
 14
10.0
 24
10.0
 15
10.0
 25
10.0
 16
0.0
 26
0.0
 36
1.0
 17
0.0
 27
0.0
 37
0.0
 40
113.9216175645376
 41
1.451655629139072
 42
50.0
 43
0.0
 44
0.0
 50
0.0
 51
0.0
 71
     0
 72
  1000
 73
     1
 74
     2
 75
     0
 76
     0
 77
     0
 78
     0
281
     0
 65
     1
110
0.0
120
0.0
130
0.0
111
1.0
121
0.0
131
0.0
112
0.0
122
1.0
132
0.0
 79
     0
146
0.0
  0
ENDTAB
  0
TABLE
  2
LTYPE
  5
14
330
0
100
AcDbSymbolTable
 70
     1
  0
LTYPE
  5
15
330
14
100
AcDbSymbolTableRecord
100
AcDbLinetypeTableRecord
  2
ByBlock
 70
     0
  3

 72
    65
 73
     0
 40
0.0
  0
LTYPE
  5
16
330
14
100
AcDbSymbolTableRecord
100
AcDbLinetypeTableRecord
  2
ByLayer
 70
     0
  3

 72
    65
 73
     0
 40
0.0
  0
LTYPE
  5
8
330
14
100
AcDbSymbolTableRecord
100
AcDbLinetypeTableRecord
  2
Continuous
 70
     0
  3
Solid line
 72
    65
 73
     0
 40
0.0
  0
ENDTAB
  0
TABLE
  2
LAYER
  5
10
330
0
100
AcDbSymbolTable
 70
     7
  0
LAYER
  5
4
330
10
100
AcDbSymbolTableRecord
100
AcDbLayerTableRecord
  2
0
 70
     0
 62
     7
  6
Continuous
370
    -3
390
5
  0
LAYER
  5
24F
330
10
100
AcDbSymbolTableRecord
100
AcDbLayerTableRecord
  2
WAKU
 70
     0
 62
     4
  6
Continuous
370
    -3
390
5
  0
LAYER
  5
24B
330
10
100
AcDbSymbolTableRecord
100
AcDbLayerTableRecord
  2
MOJI1
 70
     0
 62
     2
  6
Continuous
370
    -3
390
5
  0
LAYER
  5
249
330
10
100
AcDbSymbolTableRecord
100
AcDbLayerTableRecord
  2
TOUROKU
 70
     0
 62
     1
  6
Continuous
370
    -3
390
5
  0
LAYER
  5
56
330
10
100
AcDbSymbolTableRecord
100
AcDbLayerTableRecord
  2
GAIKEI
 70
     0
 62
     7
  6
Continuous
370
    -3
390
5
  0
LAYER
  5
2B
330
10
100
AcDbSymbolTableRecord
100
AcDbLayerTableRecord
  2
SUNPO
 70
     0
 62
     3
  6
Continuous
370
    -3
390
5
  0
LAYER
  5
37
330
10
100
AcDbSymbolTableRecord
100
AcDbLayerTableRecord
  2
DEFPOINTS
 70
     0
 62
     7
  6
Continuous
290
     0
370
    -3
390
5
  0
ENDTAB
  0
TABLE
  2
STYLE
  5
11
330
0
100
AcDbSymbolTable
 70
     1
  0
STYLE
  5
12
330
11
100
AcDbSymbolTableRecord
100
AcDbTextStyleTableRecord
  2
Standard
 70
     0
 40
0.0
 41
1.0
 50
0.0
 71
     0
 42
2.5
  3
MONOTXT.shx
  4
BIGFONT.shx
  0
ENDTAB
  0
TABLE
  2
VIEW
  5
17
330
0
100
AcDbSymbolTable
 70
     0
  0
ENDTAB
  0
TABLE
  2
UCS
  5
18
330
0
100
AcDbSymbolTable
 70
     0
  0
ENDTAB
  0
TABLE
  2
APPID
  5
1B
330
0
100
AcDbSymbolTable
 70
     1
  0
APPID
  5
1C
330
1B
100
AcDbSymbolTableRecord
100
AcDbRegAppTableRecord
  2
ACAD
 70
     0
  0
ENDTAB
  0
TABLE
  2
DIMSTYLE
  5
1D
330
0
100
AcDbSymbolTable
 70
     1
100
AcDbDimStyleTable
 71
     1
340
1E
  0
DIMSTYLE
105
1E
102
{ACAD_REACTORS
330
48
330
3B
330
2D
102
}
330
1D
100
AcDbSymbolTableRecord
100
AcDbDimStyleTableRecord
  2
STANDARD
 70
     0
 40
0.0
 41
2.0
 42
2.0
 43
8.0
 44
2.0
 73
     0
 74
     0
 77
     3
140
3.0
141
0.0
173
     1
279
     2
288
     1
340
12
341
1F
343
1F
344
1F
  0
ENDTAB
  0
TABLE
  2
BLOCK_RECORD
  5
1
330
0
100
AcDbSymbolTable
 70
     7
  0
BLOCK_RECORD
  5
2
330
1
100
AcDbSymbolTableRecord
100
AcDbBlockTableRecord
  2
*Model_Space
340
A
  0
BLOCK_RECORD
  5
C
330
1
100
AcDbSymbolTableRecord
100
AcDbBlockTableRecord
  2
*Paper_Space
340
F
  0
BLOCK_RECORD
  5
1F
330
1
100
AcDbSymbolTableRecord
100
AcDbBlockTableRecord
  2
_OPEN30
340
0
102
{BLKREFS
331
33
331
34
331
4E
331
4F
331
41
331
42
331
271
331
272
331
27D
331
27E
331
289
331
28A
102
}
  0
BLOCK_RECORD
  5
49
330
1
100
AcDbSymbolTableRecord
100
AcDbBlockTableRecord
  2
*D1
340
0
  0
BLOCK_RECORD
  5
3C
330
1
100
AcDbSymbolTableRecord
100
AcDbBlockTableRecord
  2
*D2
340
0
  0
BLOCK_RECORD
  5
2E
330
1
100
AcDbSymbolTableRecord
100
AcDbBlockTableRecord
  2
*D3
340
0
  0
BLOCK_RECORD
  5
26D
330
1
100
AcDbSymbolTableRecord
100
AcDbBlockTableRecord
  2
*D4
340
0
  0
BLOCK_RECORD
  5
279
330
1
100
AcDbSymbolTableRecord
100
AcDbBlockTableRecord
  2
*D5
340
0
  0
BLOCK_RECORD
  5
285
330
1
100
AcDbSymbolTableRecord
100
AcDbBlockTableRecord
  2
*D6
340
0
  0
ENDTAB
  0
ENDSEC
  0
SECTION
  2
BLOCKS
  0
BLOCK
  5
3
330
2
100
AcDbEntity
  8
0
100
AcDbBlockBegin
  2
*Model_Space
 70
     0
 10
0.0
 20
0.0
 30
0.0
  3
*Model_Space
  1

  0
ENDBLK
  5
9
330
2
100
AcDbEntity
  8
0
100
AcDbBlockEnd
  0
BLOCK
  5
D
330
C
100
AcDbEntity
 67
     1
  8
0
100
AcDbBlockBegin
  2
*Paper_Space
 70
     0
 10
0.0
 20
0.0
 30
0.0
  3
*Paper_Space
  1

  0
ENDBLK
  5
E
330
C
100
AcDbEntity
 67
     1
  8
0
100
AcDbBlockEnd
  0
BLOCK
  5
20
330
1F
100
AcDbEntity
  8
0
100
AcDbBlockBegin
  2
_OPEN30
 70
     0
 10
0.0
 20
0.0
 30
0.0
  3
_OPEN30
  1

  0
LINE
  5
21
330
1F
100
AcDbEntity
  8
0
  6
ByBlock
 62
     0
100
AcDbLine
 10
-1.0
 20
0.26794919
 30
0.0
 11
0.0
 21
0.0
 31
0.0
  0
LINE
  5
22
330
1F
100
AcDbEntity
  8
0
  6
ByBlock
 62
     0
100
AcDbLine
 10
0.0
 20
0.0
 30
0.0
 11
-1.0
 21
-0.26794919
 31
0.0
  0
LINE
  5
23
330
1F
100
AcDbEntity
  8
0
  6
ByBlock
 62
     0
100
AcDbLine
 10
0.0
 20
0.0
 30
0.0
 11
-1.0
 21
0.0
 31
0.0
  0
ENDBLK
  5
24
330
1F
100
AcDbEntity
  8
0
100
AcDbBlockEnd
  0
BLOCK
  5
4A
330
49
100
AcDbEntity
  8
0
100
AcDbBlockBegin
  2
*D1
 70
     1
 10
0.0
 20
0.0
 30
0.0
  3
*D1
  1

  0
LINE
  5
4B
330
49
100
AcDbEntity
  8
SUNPO
 62
     0
370
    -2
100
AcDbLine
 10
32.00493458058395
 20
333.6429035748905
 30
0.0
 11
32.00493458058395
 21
350.7961477830507
 31
0.0
  0
LINE
  5
4C
330
49
100
AcDbEntity
  8
SUNPO
 62
     0
370
    -2
100
AcDbLine
 10
47.30493458058396
 20
333.6429035748905
 30
0.0
 11
47.30493458058396
 21
350.7961477830507
 31
0.0
  0
LINE
  5
4D
330
49
100
AcDbEntity
  8
SUNPO
 62
     0
370
    -2
100
AcDbLine
 10
34.00493458058395
 20
348.7961477830507
 30
0.0
 11
45.30493458058396
 21
348.7961477830507
 31
0.0
  0
INSERT
  5
4E
330
49
100
AcDbEntity
  8
SUNPO
 62
     0
370
    -2
100
AcDbBlockReference
  2
_OPEN30
 10
32.00493458058395
 20
348.7961477830507
 30
0.0
 41
2.0
 42
2.0
 43
2.0
 50
180.0
  0
INSERT
  5
4F
330
49
100
AcDbEntity
  8
SUNPO
 62
     0
370
    -2
100
AcDbBlockReference
  2
_OPEN30
 10
47.30493458058396
 20
348.7961477830507
 30
0.0
 41
2.0
 42
2.0
 43
2.0
  0
MTEXT
  5
50
330
49
100
AcDbEntity
  8
SUNPO
 62
     0
100
AcDbMText
 10
39.65493458058396
 20
350.5461477830507
 30
0.0
 40
2.5
 41
0.0
 71
     5
 72
     1
  1
\A1;153
 73
     1
 44
1.0
1001
ACAD
1000
MTEXTBEGIN
1070
    73
1070
     1
1070
    44
1040
1.0
1070
    74
1070
     0
1000
MTEXTEND
  0
POINT
  5
51
330
49
100
AcDbEntity
  8
DEFPOINTS
 62
     0
100
AcDbPoint
 10
32.00493458058395
 20
331.6429035748905
 30
0.0
  0
POINT
  5
52
330
49
100
AcDbEntity
  8
DEFPOINTS
 62
     0
100
AcDbPoint
 10
47.30493458058396
 20
331.6429035748905
 30
0.0
  0
POINT
  5
53
330
49
100
AcDbEntity
  8
DEFPOINTS
 62
     0
100
AcDbPoint
 10
47.30493458058396
 20
348.7961477830507
 30
0.0
  0
ENDBLK
  5
54
330
49
100
AcDbEntity
  8
0
100
AcDbBlockEnd
  0
BLOCK
  5
3D
330
3C
100
AcDbEntity
  8
0
100
AcDbBlockBegin
  2
*D2
 70
     1
 10
0.0
 20
0.0
 30
0.0
  3
*D2
  1

  0
LINE
  5
3E
330
3C
100
AcDbEntity
  8
SUNPO
 62
     0
370
    -2
100
AcDbLine
 10
86.3179899545455
 20
342.7961477830507
 30
0.0
 11
86.3179899545455
 21
350.7961477830507
 31
0.0
  0
LINE
  5
3F
330
3C
100
AcDbEntity
  8
SUNPO
 62
     0
370
    -2
100
AcDbLine
 10
100.3179899545454
 20
342.7961477830507
 30
0.0
 11
100.3179899545454
 21
350.7961477830507
 31
0.0
  0
LINE
  5
40
330
3C
100
AcDbEntity
  8
SUNPO
 62
     0
370
    -2
100
AcDbLine
 10
88.31798995454551
 20
348.7961477830507
 30
0.0
 11
98.31798995454546
 21
348.7961477830507
 31
0.0
  0
INSERT
  5
41
330
3C
100
AcDbEntity
  8
SUNPO
 62
     0
370
    -2
100
AcDbBlockReference
  2
_OPEN30
 10
86.3179899545455
 20
348.7961477830507
 30
0.0
 41
2.0
 42
2.0
 43
2.0
 50
180.0
  0
INSERT
  5
42
330
3C
100
AcDbEntity
  8
SUNPO
 62
     0
370
    -2
100
AcDbBlockReference
  2
_OPEN30
 10
100.3179899545454
 20
348.7961477830507
 30
0.0
 41
2.0
 42
2.0
 43
2.0
  0
MTEXT
  5
43
330
3C
100
AcDbEntity
  8
SUNPO
 62
     0
100
AcDbMText
 10
93.31798995454548
 20
350.5461477830507
 30
0.0
 40
2.5
 41
0.0
 71
     5
 72
     1
  1
\A1;φ140
 73
     1
 44
1.0
1001
ACAD
1000
MTEXTBEGIN
1070
    73
1070
     1
1070
    44
1040
1.0
1070
    74
1070
     0
1000
MTEXTEND
  0
POINT
  5
44
330
3C
100
AcDbEntity
  8
DEFPOINTS
 62
     0
100
AcDbPoint
 10
86.3179899545455
 20
340.7961477830507
 30
0.0
  0
POINT
  5
45
330
3C
100
AcDbEntity
  8
DEFPOINTS
 62
     0
100
AcDbPoint
 10
100.3179899545454
 20
340.7961477830507
 30
0.0
  0
POINT
  5
46
330
3C
100
AcDbEntity
  8
DEFPOINTS
 62
     0
100
AcDbPoint
 10
100.3179899545454
 20
348.7961477830507
 30
0.0
  0
ENDBLK
  5
47
330
3C
100
AcDbEntity
  8
0
100
AcDbBlockEnd
  0
BLOCK
  5
2F
330
2E
100
AcDbEntity
  8
0
100
AcDbBlockBegin
  2
*D3
 70
     1
 10
0.0
 20
0.0
 30
0.0
  3
*D3
  1

  0
LINE
  5
30
330
2E
100
AcDbEntity
  8
SUNPO
 62
     0
370
    -2
100
AcDbLine
 10
68.50593701899632
 20
329.8708397239766
 30
0.0
 11
64.50593701899629
 21
333.8708397240359
 31
0.0
  0
LINE
  5
31
330
2E
100
AcDbEntity
  8
SUNPO
 62
     0
370
    -2
100
AcDbLine
 10
79.96106687430461
 20
341.325969579115
 30
0.0
 11
75.96106687430458
 21
345.3259695791743
 31
0.0
  0
LINE
  5
32
330
2E
100
AcDbEntity
  8
SUNPO
 62
     0
370
    -2
100
AcDbLine
 10
67.33436414374248
 20
333.8708397240149
 30
0.0
 11
75.96106687428363
 21
342.4975424544282
 31
0.0
  0
INSERT
  5
33
330
2E
100
AcDbEntity
  8
SUNPO
 62
     0
370
    -2
100
AcDbBlockReference
  2
_OPEN30
 10
65.92015058135891
 20
332.4566261616523
 30
0.0
 41
2.0
 42
2.0
 43
2.0
 50
224.9999999995753
  0
INSERT
  5
34
330
2E
100
AcDbEntity
  8
SUNPO
 62
     0
370
    -2
100
AcDbBlockReference
  2
_OPEN30
 10
77.3752804366672
 20
343.9117560167907
 30
0.0
 41
2.0
 42
2.0
 43
2.0
 50
44.99999999957529
  0
MTEXT
  5
35
330
2E
100
AcDbEntity
  8
SUNPO
 62
     0
100
AcDbMText
 10
70.41027864194584
 20
339.4216279563071
 30
0.0
 40
2.5
 41
0.0
 71
     5
 72
     1
  1
\A1;162
 11
0.707106781191789
 21
0.7071067811813061
 31
0.0
 73
     1
 44
1.0
1001
ACAD
1000
MTEXTBEGIN
1070
    73
1070
     1
1070
    44
1040
1.0
1070
    74
1070
     0
1000
MTEXTEND
  0
POINT
  5
36
330
2E
100
AcDbEntity
  8
DEFPOINTS
 62
     0
100
AcDbPoint
 10
69.92015058135891
 20
328.456626161593
 30
0.0
  0
POINT
  5
38
330
2E
100
AcDbEntity
  8
DEFPOINTS
 62
     0
100
AcDbPoint
 10
81.37528043666719
 20
339.9117560167314
 30
0.0
  0
POINT
  5
39
330
2E
100
AcDbEntity
  8
DEFPOINTS
 62
     0
100
AcDbPoint
 10
77.3752804366672
 20
343.9117560167907
 30
0.0
  0
ENDBLK
  5
3A
330
2E
100
AcDbEntity
  8
0
100
AcDbBlockEnd
  0
BLOCK
  5
277
330
26D
100
AcDbEntity
  8
0
100
AcDbBlockBegin
  2
*D4
 70
     1
 10
0.0
 20
0.0
 30
0.0
  3
*D4
  1

  0
LINE
  5
26E
330
26D
100
AcDbEntity
  8
SUNPO
 62
     0
370
    -2
100
AcDbLine
 10
-29.35084862583176
 20
20.65685229067344
 30
0.0
 11
-29.35084862583176
 21
37.81009649883368
 31
0.0
  0
LINE
  5
26F
330
26D
100
AcDbEntity
  8
SUNPO
 62
     0
370
    -2
100
AcDbLine
 10
-14.05084862583175
 20
20.65685229067344
 30
0.0
 11
-14.05084862583174
 21
37.81009649883368
 31
0.0
  0
LINE
  5
270
330
26D
100
AcDbEntity
  8
SUNPO
 62
     0
370
    -2
100
AcDbLine
 10
-27.35084862583176
 20
35.81009649883367
 30
0.0
 11
-16.05084862583175
 21
35.81009649883367
 31
0.0
  0
INSERT
  5
271
330
26D
100
AcDbEntity
  8
SUNPO
 62
     0
370
    -2
100
AcDbBlockReference
  2
_OPEN30
 10
-29.35084862583176
 20
35.81009649883367
 30
0.0
 41
2.0
 42
2.0
 43
2.0
 50
180.0
  0
INSERT
  5
272
330
26D
100
AcDbEntity
  8
SUNPO
 62
     0
370
    -2
100
AcDbBlockReference
  2
_OPEN30
 10
-14.05084862583174
 20
35.81009649883367
 30
0.0
 41
2.0
 42
2.0
 43
2.0
  0
MTEXT
  5
273
330
26D
100
AcDbEntity
  8
SUNPO
 62
     0
100
AcDbMText
 10
-21.70084862583175
 20
37.56009649883367
 30
0.0
 40
2.5
 41
0.0
 71
     5
 72
     1
  1
\A1;153
 73
     1
 44
1.0
1001
ACAD
1000
MTEXTBEGIN
1070
    73
1070
     1
1070
    44
1040
1.0
1070
    74
1070
     0
1000
MTEXTEND
  0
POINT
  5
274
330
26D
100
AcDbEntity
  8
DEFPOINTS
 62
     0
100
AcDbPoint
 10
-29.35084862583176
 20
18.65685229067344
 30
0.0
  0
POINT
  5
275
330
26D
100
AcDbEntity
  8
DEFPOINTS
 62
     0
100
AcDbPoint
 10
-14.05084862583175
 20
18.65685229067344
 30
0.0
  0
POINT
  5
276
330
26D
100
AcDbEntity
  8
DEFPOINTS
 62
     0
100
AcDbPoint
 10
-14.05084862583174
 20
35.81009649883367
 30
0.0
  0
ENDBLK
  5
278
330
26D
100
AcDbEntity
  8
0
100
AcDbBlockEnd
  0
BLOCK
  5
283
330
279
100
AcDbEntity
  8
0
100
AcDbBlockBegin
  2
*D5
 70
     1
 10
0.0
 20
0.0
 30
0.0
  3
*D5
  1

  0
LINE
  5
27A
330
279
100
AcDbEntity
  8
SUNPO
 62
     0
370
    -2
100
AcDbLine
 10
24.9622067481298
 20
29.81009649883367
 30
0.0
 11
24.9622067481298
 21
37.81009649883368
 31
0.0
  0
LINE
  5
27B
330
279
100
AcDbEntity
  8
SUNPO
 62
     0
370
    -2
100
AcDbLine
 10
38.96220674812975
 20
29.81009649883367
 30
0.0
 11
38.96220674812975
 21
37.81009649883368
 31
0.0
  0
LINE
  5
27C
330
279
100
AcDbEntity
  8
SUNPO
 62
     0
370
    -2
100
AcDbLine
 10
26.9622067481298
 20
35.81009649883367
 30
0.0
 11
36.96220674812975
 21
35.81009649883367
 31
0.0
  0
INSERT
  5
27D
330
279
100
AcDbEntity
  8
SUNPO
 62
     0
370
    -2
100
AcDbBlockReference
  2
_OPEN30
 10
24.9622067481298
 20
35.81009649883367
 30
0.0
 41
2.0
 42
2.0
 43
2.0
 50
180.0
  0
INSERT
  5
27E
330
279
100
AcDbEntity
  8
SUNPO
 62
     0
370
    -2
100
AcDbBlockReference
  2
_OPEN30
 10
38.96220674812975
 20
35.81009649883367
 30
0.0
 41
2.0
 42
2.0
 43
2.0
  0
MTEXT
  5
27F
330
279
100
AcDbEntity
  8
SUNPO
 62
     0
100
AcDbMText
 10
31.96220674812977
 20
37.56009649883367
 30
0.0
 40
2.5
 41
0.0
 71
     5
 72
     1
  1
\A1;φ140
 73
     1
 44
1.0
1001
ACAD
1000
MTEXTBEGIN
1070
    73
1070
     1
1070
    44
1040
1.0
1070
    74
1070
     0
1000
MTEXTEND
  0
POINT
  5
280
330
279
100
AcDbEntity
  8
DEFPOINTS
 62
     0
100
AcDbPoint
 10
24.9622067481298
 20
27.81009649883368
 30
0.0
  0
POINT
  5
281
330
279
100
AcDbEntity
  8
DEFPOINTS
 62
     0
100
AcDbPoint
 10
38.96220674812975
 20
27.81009649883368
 30
0.0
  0
POINT
  5
282
330
279
100
AcDbEntity
  8
DEFPOINTS
 62
     0
100
AcDbPoint
 10
38.96220674812975
 20
35.81009649883367
 30
0.0
  0
ENDBLK
  5
284
330
279
100
AcDbEntity
  8
0
100
AcDbBlockEnd
  0
BLOCK
  5
28F
330
285
100
AcDbEntity
  8
0
100
AcDbBlockBegin
  2
*D6
 70
     1
 10
0.0
 20
0.0
 30
0.0
  3
*D6
  1

  0
LINE
  5
286
330
285
100
AcDbEntity
  8
SUNPO
 62
     0
370
    -2
100
AcDbLine
 10
7.150153812580618
 20
16.88478843975953
 30
0.0
 11
3.150153812580638
 21
20.88478843981881
 31
0.0
  0
LINE
  5
287
330
285
100
AcDbEntity
  8
SUNPO
 62
     0
370
    -2
100
AcDbLine
 10
18.6052836678889
 20
28.33991829489799
 30
0.0
 11
14.60528366788892
 21
32.33991829495727
 31
0.0
  0
LINE
  5
288
330
285
100
AcDbEntity
  8
SUNPO
 62
     0
370
    -2
100
AcDbLine
 10
5.978580937326827
 20
20.88478843979785
 30
0.0
 11
14.60528366786796
 21
29.51149117021108
 31
0.0
  0
INSERT
  5
289
330
285
100
AcDbEntity
  8
SUNPO
 62
     0
370
    -2
100
AcDbBlockReference
  2
_OPEN30
 10
4.564367374943251
 20
19.47057487743523
 30
0.0
 41
2.0
 42
2.0
 43
2.0
 50
224.9999999995753
  0
INSERT
  5
28A
330
285
100
AcDbEntity
  8
SUNPO
 62
     0
370
    -2
100
AcDbBlockReference
  2
_OPEN30
 10
16.01949723025153
 20
30.9257047325737
 30
0.0
 41
2.0
 42
2.0
 43
2.0
 50
44.99999999957529
  0
MTEXT
  5
28B
330
285
100
AcDbEntity
  8
SUNPO
 62
     0
100
AcDbMText
 10
9.05449543553011
 20
26.43557667209009
 30
0.0
 40
2.5
 41
0.0
 71
     5
 72
     1
  1
\A1;162
 11
0.707106781191789
 21
0.7071067811813061
 31
0.0
 73
     1
 44
1.0
1001
ACAD
1000
MTEXTBEGIN
1070
    73
1070
     1
1070
    44
1040
1.0
1070
    74
1070
     0
1000
MTEXTEND
  0
POINT
  5
28C
330
285
100
AcDbEntity
  8
DEFPOINTS
 62
     0
100
AcDbPoint
 10
8.56436737494323
 20
15.47057487737595
 30
0.0
  0
POINT
  5
28D
330
285
100
AcDbEntity
  8
DEFPOINTS
 62
     0
100
AcDbPoint
 10
20.01949723025152
 20
26.92570473251441
 30
0.0
  0
POINT
  5
28E
330
285
100
AcDbEntity
  8
DEFPOINTS
 62
     0
100
AcDbPoint
 10
16.01949723025153
 20
30.9257047325737
 30
0.0
  0
ENDBLK
  5
290
330
285
100
AcDbEntity
  8
0
100
AcDbBlockEnd
  0
ENDSEC
  0
SECTION
  2
ENTITIES
  0
DIMENSION
  5
2D
330
2
100
AcDbEntity
  8
SUNPO
100
AcDbDimension
  2
*D6
 10
16.01949723025153
 20
30.9257047325737
 30
0.0
 11
9.05449543553011
 21
26.43557667209009
 31
0.0
 70
    33
  1
162
 71
     5
 42
16.20000000000185
  3
STANDARD
100
AcDbAlignedDimension
 13
8.56436737494323
 23
15.47057487737595
 33
0.0
 14
20.01949723025152
 24
26.92570473251442
 34
0.0
1001
ACAD
1000
DSTYLE
1002
{
1070
    40
1040
1.0
1070
   140
1040
2.5
1070
   147
1040
0.5
1070
   172
1070
     1
1070
   279
1070
     0
1070
   288
1070
     0
1002
}
  0
DIMENSION
  5
3B
330
2
100
AcDbEntity
  8
SUNPO
100
AcDbDimension
  2
*D5
 10
38.96220674812975
 20
35.81009649883367
 30
0.0
 11
31.96220674812977
 21
37.56009649883367
 31
0.0
 70
    33
  1
φ140
 71
     5
 42
13.99999999999994
  3
STANDARD
100
AcDbAlignedDimension
 13
24.9622067481298
 23
27.81009649883368
 33
0.0
 14
38.96220674812975
 24
27.81009649883368
 34
0.0
1001
ACAD
1000
DSTYLE
1002
{
1070
    40
1040
1.0
1070
   140
1040
2.5
1070
   147
1040
0.5
1070
   172
1070
     1
1070
   279
1070
     0
1070
   288
1070
     0
1002
}
  0
DIMENSION
  5
48
330
2
100
AcDbEntity
  8
SUNPO
100
AcDbDimension
  2
*D4
 10
-14.05084862583174
 20
35.81009649883367
 30
0.0
 11
-21.70084862583175
 21
37.56009649883367
 31
0.0
 70
    33
  1
153
 71
     5
 42
15.30000000000001
  3
STANDARD
100
AcDbAlignedDimension
 13
-29.35084862583176
 23
18.65685229067344
 33
0.0
 14
-14.05084862583175
 24
18.65685229067344
 34
0.0
1001
ACAD
1000
DSTYLE
1002
{
1070
    40
1040
1.0
1070
   140
1040
2.5
1070
   147
1040
0.5
1070
   172
1070
     1
1070
   279
1070
     0
1070
   288
1070
     0
1002
}
  0
LINE
  5
55
330
2
100
AcDbEntity
  8
GAIKEI
  6
Continuous
100
AcDbLine
 10
26.83521417182982
 20
-2.800271919503416
 30
0.0
 11
26.58610890854982
 21
-2.551166656243424
 31
0.0
  0
LINE
  5
57
330
2
100
AcDbEntity
  8
GAIKEI
  6
Continuous
 62
     1
100
AcDbLine
 10
26.58589594316982
 20
-2.481973966463442
 30
0.0
 11
27.16880149626979
 21
-1.867719679703441
 31
0.0
  0
LINE
  5
58
330
2
100
AcDbEntity
  8
GAIKEI
  6
Continuous
100
AcDbLine
 10
26.97283790430987
 20
-2.803875713463412
 30
0.0
 11
27.12361802370981
 21
-2.668112684163418
 31
0.0
  0
ARC
  5
59
330
2
100
AcDbEntity
  8
GAIKEI
  6
Continuous
100
AcDbCircle
 10
26.62211655554978
 20
-2.516442388583413
 30
0.0
 40
0.0499999999999069
100
AcDbArc
 50
136.5000000000556
 51
224.9999982613171
  0
SPLINE
  5
5A
330
2
100
AcDbEntity
  8
GAIKEI
  6
Continuous
100
AcDbSpline
210
0.0
220
0.0
230
1.0
 70
     8
 71
     3
 72
     9
 73
     5
 74
     3
 42
0.0000000001
 43
0.0000000001
 44
0.00000001
 40
0.0
 40
0.0
 40
0.0
 40
0.0
 40
0.0323158683240878
 40
0.0646317366570175
 40
0.0646317366570175
 40
0.0646317366570175
 40
0.0646317366570175
 10
27.12361816606983
 20
-2.668112555983441
 30
0.0
 10
27.13162034762401
 20
-2.660901444501234
 30
0.0
 10
27.14762472412291
 20
-2.646479236392565
 30
0.0
 10
27.16362980121071
 20
-2.632057805767715
 30
0.0
 10
27.17163234644977
 20
-2.624847097883389
 30
0.0
 11
27.12361816606983
 21
-2.668112555983441
 31
0.0
 11
27.14762489257379
 21
-2.646479423336643
 31
0.0
 11
27.17163234644977
 21
-2.624847097883389
 31
0.0
  0
SPLINE
  5
5B
330
2
100
AcDbEntity
  8
GAIKEI
  6
Continuous
100
AcDbSpline
210
0.0
220
0.0
230
1.0
 70
     8
 71
     3
 72
    15
 73
    11
 74
     9
 42
0.0000000001
 43
0.0000000001
 44
0.00000001
 40
0.0
 40
0.0
 40
0.0
 40
0.0
 40
0.0864483614561346
 40
0.1728967229260756
 40
0.2282389183343188
 40
0.2835811137451198
 40
0.3410689432795135
 40
0.3985567728138175
 40
0.5012458757310883
 40
0.6039349786356345
 40
0.6039349786356345
 40
0.6039349786356345
 40
0.6039349786356345
 10
27.17163234644977
 20
-2.624847097883389
 30
0.0
 10
27.19304065944327
 20
-2.605558424116452
 30
0.0
 10
27.23585729528724
 20
-2.566981087515955
 30
0.0
 10
27.29238483791553
 20
-2.516062048959838
 30
0.0
 10
27.34121132989664
 20
-2.472085937799761
 30
0.0
 10
27.38286699407613
 20
-2.434572760102412
 30
0.0
 10
27.42505632485154
 20
-2.396583412307677
 30
0.0
 10
27.478976906773
 20
-2.348036657935949
 30
0.0
 10
27.54409932311195
 20
-2.289413387069203
 30
0.0
 10
27.59498592086378
 20
-2.243617711597948
 30
0.0
 10
27.62042922466981
 20
-2.220719879343391
 30
0.0
 11
27.17163234644977
 21
-2.624847097883389
 31
0.0
 11
27.23585838856059
 21
-2.566982301043367
 31
0.0
 11
27.30008963366976
 21
-2.509123279683421
 31
0.0
 11
27.34121168725216
 21
-2.472086334590244
 31
0.0
 11
27.38233587212972
 21
-2.43505175600336
 31
0.0
 11
27.42505671140509
 21
-2.396583841629819
 31
0.0
 11
27.46777985032981
 21
-2.358118481303336
 31
0.0
 11
27.54410086966624
 21
-2.289415105362934
 31
0.0
 11
27.62042922466981
 21
-2.220719879343391
 31
0.0
  0
SPLINE
  5
5C
330
2
100
AcDbEntity
  8
GAIKEI
  6
Continuous
100
AcDbSpline
210
0.0
220
0.0
230
1.0
 70
     8
 71
     3
 72
     9
 73
     5
 74
     3
 42
0.0000000001
 43
0.0000000001
 44
0.00000001
 40
0.0
 40
0.0
 40
0.0
 40
0.0
 40
0.0073104540374791
 40
0.0146209080326664
 40
0.0146209080326664
 40
0.0146209080326664
 40
0.0146209080326664
 10
27.13447961666981
 20
-2.658324816583444
 30
0.0
 10
27.13266936559155
 20
-2.659956096160897
 30
0.0
 10
27.1290488727519
 20
-2.663218665633621
 30
0.0
 10
27.12542839852489
 20
-2.666481255760913
 30
0.0
 10
27.12361816606983
 20
-2.668112555983441
 30
0.0
 11
27.13447961666981
 21
-2.658324816583444
 31
0.0
 11
27.12904887274141
 21
-2.663218665643057
 31
0.0
 11
27.12361816606983
 21
-2.668112555983441
 31
0.0
  0
SPLINE
  5
5D
330
2
100
AcDbEntity
  8
GAIKEI
  6
Continuous
 62
     1
100
AcDbSpline
210
0.0
220
0.0
230
1.0
 70
    24
 71
     3
 72
     9
 73
     5
 74
     3
 42
0.0000000001
 43
0.0000000001
 44
0.00000001
 40
0.0
 40
0.0
 40
0.0
 40
0.0
 40
0.2115641430773756
 40
0.4231282861547513
 40
0.4231282861547513
 40
0.4231282861547513
 40
0.4231282861547513
 10
27.69003463750977
 20
-2.124057890843403
 30
0.0
 10
27.63884321571976
 20
-2.172562566050032
 30
0.0
 10
27.5364603721398
 20
-2.269571916463405
 30
0.0
 10
27.43407752855983
 20
-2.366581266876778
 30
0.0
 10
27.38288610676983
 20
-2.415085942083408
 30
0.0
 11
27.69003463750977
 21
-2.124057890843403
 31
0.0
 11
27.5364603721398
 21
-2.269571916463405
 31
0.0
 11
27.38288610676983
 21
-2.415085942083408
 31
0.0
  0
SPLINE
  5
5E
330
2
100
AcDbEntity
  8
GAIKEI
  6
Continuous
 62
     1
100
AcDbSpline
210
0.0
220
0.0
230
1.0
 70
     8
 71
     3
 72
     9
 73
     5
 74
     3
 42
0.0000000001
 43
0.0000000001
 44
0.00000001
 40
0.0
 40
0.0
 40
0.0
 40
0.0
 40
0.1811181102891959
 40
0.3622362212042035
 40
0.3622362212042035
 40
0.3622362212042035
 40
0.3622362212042035
 10
27.38288610676983
 20
-2.415085942083408
 30
0.0
 10
27.33906757826125
 20
-2.456616652452623
 30
0.0
 10
27.25143053485189
 20
-2.539678087849665
 30
0.0
 10
27.16381193072753
 20
-2.622758973972963
 30
0.0
 10
27.1200026354698
 20
-2.664299424363434
 30
0.0
 11
27.38288610676983
 21
-2.415085942083408
 31
0.0
 11
27.25143513794467
 21
-2.539682943130458
 31
0.0
 11
27.1200026354698
 21
-2.664299424363434
 31
0.0
  0
SPLINE
  5
5F
330
2
100
AcDbEntity
  8
GAIKEI
  6
Continuous
 62
     1
100
AcDbSpline
210
0.0
220
0.0
230
1.0
 70
    24
 71
     3
 72
     9
 73
     5
 74
     3
 42
0.0000000001
 43
0.0000000001
 44
0.00000001
 40
0.0
 40
0.0
 40
0.0
 40
0.0
 40
0.0461361779725561
 40
0.0922723559449926
 40
0.0922723559449926
 40
0.0922723559449926
 40
0.0922723559449926
 10
27.1200026354698
 20
-2.664299424363434
 30
0.0
 10
27.10884410546645
 20
-2.674882071540082
 30
0.0
 10
27.08652704545983
 20
-2.696047365893491
 30
0.0
 10
27.06420998545312
 20
-2.717212660246786
 30
0.0
 10
27.05305145544981
 20
-2.727795307423434
 30
0.0
 11
27.1200026354698
 21
-2.664299424363434
 31
0.0
 11
27.08652704545978
 21
-2.696047365893434
 31
0.0
 11
27.05305145544981
 21
-2.727795307423434
 31
0.0
  0
SPLINE
  5
60
330
2
100
AcDbEntity
  8
GAIKEI
  6
Continuous
 62
     1
100
AcDbSpline
210
0.0
220
0.0
230
1.0
 70
    24
 71
     3
 72
     9
 73
     5
 74
     3
 42
0.0000000001
 43
0.0000000001
 44
0.00000001
 40
0.0
 40
0.0
 40
0.0
 40
0.0
 40
0.0552775767542642
 40
0.1105551535193486
 40
0.1105551535193486
 40
0.1105551535193486
 40
0.1105551535193486
 10
27.05305145544981
 20
-2.727795307423434
 30
0.0
 10
27.03968253026289
 20
-2.740475375097389
 30
0.0
 10
27.0129446798847
 20
-2.765835510445924
 30
0.0
 10
26.98620682950295
 20
-2.791195645790764
 30
0.0
 10
26.97283790430987
 20
-2.803875713463412
 30
0.0
 11
27.05305145544981
 21
-2.727795307423434
 31
0.0
 11
27.01294467988731
 21
-2.765835510443423
 31
0.0
 11
26.97283790430987
 21
-2.803875713463412
 31
0.0
  0
LWPOLYLINE
  5
61
330
2
100
AcDbEntity
  8
GAIKEI
  6
Continuous
100
AcDbPolyline
 90
        5
 70
     0
 43
0.0
 10
26.83521416542982
 20
-2.800271908863408
 10
26.86019036074976
 20
-2.818490174763383
 10
26.90269244448984
 20
-2.829508975083399
 10
26.94374215170984
 20
-2.822134721583438
 10
26.97283790426979
 20
-2.803875713223419
  0
LINE
  5
62
330
2
100
AcDbEntity
  8
GAIKEI
  6
Continuous
100
AcDbLine
 10
10.5642294434898
 20
16.01629722109658
 30
0.0
 11
10.0934385073898
 21
15.49343091559655
 31
0.0
  0
LINE
  5
63
330
2
100
AcDbEntity
  8
GAIKEI
  6
Continuous
100
AcDbLine
 10
9.557406012449803
 20
14.89810651837655
 30
0.0
 11
9.421639575949768
 21
14.74732261489657
 31
0.0
  0
LINE
  5
64
330
2
100
AcDbEntity
  8
GAIKEI
  6
Continuous
 62
     1
100
AcDbLine
 10
10.85250012680978
 20
16.29177217023658
 30
0.0
 11
10.96962067160973
 21
16.42177483527655
 31
0.0
  0
LINE
  5
65
330
2
100
AcDbEntity
  8
GAIKEI
  6
Continuous
 62
     1
100
AcDbLine
 10
9.878292634409831
 20
14.41120805911657
 30
0.0
 11
10.38880063876979
 21
14.92171606347659
 31
0.0
  0
LINE
  5
66
330
2
100
AcDbEntity
  8
GAIKEI
  6
Continuous
 62
     1
100
AcDbLine
 10
10.48232977742981
 20
14.80311316777658
 30
0.0
 11
10.48963534098976
 21
14.81041873135655
 31
0.0
  0
LINE
  5
67
330
2
100
AcDbEntity
  8
GAIKEI
  6
Continuous
 62
     1
100
AcDbLine
 10
10.36356850276979
 20
14.94876447781655
 30
0.0
 11
9.743541322969747
 21
14.36038065377658
 31
0.0
  0
LINE
  5
68
330
2
100
AcDbEntity
  8
GAIKEI
  6
Continuous
 62
   251
100
AcDbLine
 10
24.67239093311133
 20
-0.7788700370319362
 30
0.0
 11
23.31535185349128
 21
0.5781690425680495
 31
0.0
  0
LINE
  5
69
330
2
100
AcDbEntity
  8
GAIKEI
  6
Continuous
 62
   251
100
AcDbLine
 10
24.77845695029134
 20
-0.6728040198719328
 30
0.0
 11
23.42141787067129
 21
0.6842350597480618
 31
0.0
  0
LINE
  5
6A
330
2
100
AcDbEntity
  8
GAIKEI
  6
Continuous
100
AcDbLine
 10
26.52358626354982
 20
-2.347222655003406
 30
0.0
 11
24.17245621609135
 21
0.0039073924480704
 31
0.0
  0
LINE
  5
6B
330
2
100
AcDbEntity
  8
GAIKEI
  6
Continuous
100
AcDbLine
 10
24.08053233455127
 20
0.0958312739880398
 30
0.0
 11
9.878292634409831
 21
14.29807097413658
 31
0.0
  0
LINE
  5
6C
330
2
100
AcDbEntity
  8
GAIKEI
  6
Continuous
 62
     1
100
AcDbLine
 10
10.38788710996977
 20
14.92208014041654
 30
0.0
 11
10.39733782954982
 21
14.91317293301654
 31
0.0
  0
LINE
  5
6D
330
2
100
AcDbEntity
  8
GAIKEI
  6
Continuous
 62
     1
100
AcDbLine
 10
10.12538155066977
 20
14.72273350001654
 30
0.0
 11
10.15759981298981
 21
14.69051523769656
 31
0.0
  0
LINE
  5
6E
330
2
100
AcDbEntity
  8
GAIKEI
  6
Continuous
 62
     1
100
AcDbLine
 10
26.94871169548981
 20
-2.10059664482344
 30
0.0
 11
26.9160305271098
 21
-2.067915476423422
 31
0.0
  0
LINE
  5
6F
330
2
100
AcDbEntity
  8
GAIKEI
  6
Continuous
 62
     1
100
AcDbLine
 10
10.30678730664976
 20
14.89488113463653
 30
0.0
 11
10.33437650828983
 21
14.86729193299658
 31
0.0
  0
LINE
  5
70
330
2
100
AcDbEntity
  8
GAIKEI
  6
Continuous
 62
     1
100
AcDbLine
 10
27.1199335179698
 20
-1.918265076703448
 30
0.0
 11
27.09280722240982
 21
-1.891138781123459
 31
0.0
  0
LINE
  5
71
330
2
100
AcDbEntity
  8
GAIKEI
  6
Continuous
 62
     1
100
AcDbLine
 10
27.06907536596981
 20
-1.801733552563405
 30
0.0
 11
27.05493323034978
 21
-1.787591416943428
 31
0.0
  0
LINE
  5
72
330
2
100
AcDbEntity
  8
GAIKEI
  6
Continuous
 62
     1
100
AcDbLine
 10
10.43792387246975
 20
14.82941794093659
 30
0.0
 11
10.42378173684983
 21
14.84356007655657
 31
0.0
  0
LINE
  5
73
330
2
100
AcDbEntity
  8
GAIKEI
  6
Continuous
 62
     1
100
AcDbLine
 10
27.13869119780975
 20
-1.828174495583425
 30
0.0
 11
10.39734079954979
 21
14.91317590269659
 31
0.0
  0
LINE
  5
74
330
2
100
AcDbEntity
  8
GAIKEI
  6
Continuous
 62
     1
100
AcDbLine
 10
27.55521785454977
 20
-2.117650925583461
 30
0.0
 11
10.10786436384978
 21
15.32970256515659
 31
0.0
  0
LINE
  5
75
330
2
100
AcDbEntity
  8
GAIKEI
  6
Continuous
 62
     1
100
AcDbLine
 10
28.43132475078983
 20
-1.31775458650344
 30
0.0
 11
10.90776070300978
 21
16.20580946147657
 31
0.0
  0
LINE
  5
76
330
2
100
AcDbEntity
  8
GAIKEI
  6
Continuous
 62
     1
100
AcDbLine
 10
28.58801170206982
 20
-1.174950855263432
 30
0.0
 11
11.0505644341498
 21
16.36249641265658
 31
0.0
  0
LINE
  5
77
330
2
100
AcDbEntity
  8
GAIKEI
  6
Continuous
 62
     1
100
AcDbLine
 10
28.61317240620986
 20
-1.075292007203415
 30
0.0
 11
11.15022328220976
 21
16.38765711679656
 31
0.0
  0
LINE
  5
78
330
2
100
AcDbEntity
  8
GAIKEI
  6
Continuous
 62
     1
100
AcDbLine
 10
27.15036793562979
 20
-1.841152137463438
 30
0.0
 11
27.15715508676976
 21
-1.849818194203407
 31
0.0
  0
LINE
  5
79
330
2
100
AcDbEntity
  8
GAIKEI
  6
Continuous
100
AcDbLine
 10
33.3500747137698
 20
26.06558539539657
 30
0.0
 11
33.46433878248985
 21
26.17984946411656
 31
0.0
  0
LINE
  5
7A
330
2
100
AcDbEntity
  8
GAIKEI
  6
Continuous
100
AcDbLine
 10
24.9622067481298
 20
27.26771742975655
 30
0.0
 11
24.9622067481298
 21
27.49771742975656
 31
0.0
  0
LINE
  5
7B
330
2
100
AcDbEntity
  8
GAIKEI
  6
Continuous
 62
     1
100
AcDbLine
 10
31.59658405106973
 20
24.75778975211659
 30
0.0
 11
31.36564394338973
 21
24.35778975211656
 31
0.0
  0
LINE
  5
7C
330
2
100
AcDbEntity
  8
GAIKEI
  6
Continuous
 62
     1
100
AcDbLine
 10
32.05846426642978
 20
23.95778975211658
 30
0.0
 11
32.28940437410978
 21
24.35778975211656
 31
0.0
  0
LINE
  5
7D
330
2
100
AcDbEntity
  8
GAIKEI
  6
Continuous
 62
     1
100
AcDbLine
 10
30.93126664044973
 20
21.62771742975656
 30
0.0
 11
30.70032653278975
 21
21.22771742975658
 31
0.0
  0
LINE
  5
7E
330
2
100
AcDbEntity
  8
GAIKEI
  6
Continuous
 62
     1
100
AcDbLine
 10
31.78112324066979
 20
17.88683594765655
 30
0.0
 11
31.56041164074975
 21
17.66612434773657
 31
0.0
  0
LINE
  5
7F
330
2
100
AcDbEntity
  8
GAIKEI
  6
Continuous
 62
     1
100
AcDbLine
 10
30.84400869658975
 20
16.52545733487653
 30
0.0
 11
31.69253683402974
 21
17.37398547229657
 31
0.0
  0
LINE
  5
80
330
2
100
AcDbEntity
  8
GAIKEI
  6
Continuous
100
AcDbLine
 10
29.30951089312975
 20
21.16899054713656
 30
0.0
 11
28.69146592606978
 21
18.26131758607658
 31
0.0
  0
LINE
  5
81
330
2
100
AcDbEntity
  8
GAIKEI
  6
Continuous
 62
     1
100
AcDbLine
 10
31.39314685580979
 20
20.82771742975655
 30
0.0
 11
31.62408696348979
 21
21.22771742975658
 31
0.0
  0
LINE
  5
82
330
2
100
AcDbEntity
  8
GAIKEI
  6
Continuous
 62
     1
100
AcDbLine
 10
30.1322359777098
 20
18.25481808349656
 30
0.0
 11
29.90129587004981
 21
17.85481808349658
 31
0.0
  0
LINE
  5
83
330
2
100
AcDbEntity
  8
GAIKEI
  6
Continuous
100
AcDbLine
 10
36.25502707116976
 20
27.26771742975655
 30
0.0
 11
35.76139259100984
 21
26.41271742975658
 31
0.0
  0
LINE
  5
84
330
2
100
AcDbEntity
  8
GAIKEI
  6
Continuous
 62
     1
100
AcDbLine
 10
30.59411619306974
 20
17.45481808349655
 30
0.0
 11
30.82505630074985
 21
17.85481808349658
 31
0.0
  0
LINE
  5
85
330
2
100
AcDbEntity
  8
GAIKEI
  6
Continuous
 62
     1
100
AcDbLine
 10
31.85517139368978
 20
16.92850820015656
 30
0.0
 11
31.28948596874983
 21
16.36282277519655
 31
0.0
  0
LINE
  5
86
330
2
100
AcDbEntity
  8
GAIKEI
  6
Continuous
 62
     1
100
AcDbLine
 10
31.07735393438981
 20
16.57495480955657
 30
0.0
 11
30.84400869658975
 21
16.52545733487653
 31
0.0
  0
LINE
  5
87
330
2
100
AcDbEntity
  8
GAIKEI
  6
Continuous
100
AcDbLine
 10
30.0222067481298
 20
25.92771742975657
 30
0.0
 11
30.0222067481298
 21
25.26224564407659
 31
0.0
  0
LINE
  5
88
330
2
100
AcDbEntity
  8
GAIKEI
  6
Continuous
 62
     1
100
AcDbLine
 10
30.0222067481298
 20
24.50624128869657
 30
0.0
 11
30.0222067481298
 21
23.91535330085657
 31
0.0
  0
LINE
  5
89
330
2
100
AcDbEntity
  8
GAIKEI
  6
Continuous
 62
     1
100
AcDbLine
 10
30.16317608538975
 20
17.90481808349659
 30
0.0
 11
30.16317608538975
 21
17.80481808349657
 31
0.0
  0
LINE
  5
8A
330
2
100
AcDbEntity
  8
GAIKEI
  6
Continuous
 62
     1
100
AcDbLine
 10
30.25220674812982
 20
24.57424737335657
 30
0.0
 11
30.25220674812982
 21
24.00711399643654
 31
0.0
  0
LINE
  5
8B
330
2
100
AcDbEntity
  8
GAIKEI
  6
Continuous
 62
     1
100
AcDbLine
 10
30.31317608538973
 20
18.25481808349656
 30
0.0
 11
30.31317608538973
 21
17.90481808349659
 31
0.0
  0
LINE
  5
8C
330
2
100
AcDbEntity
  8
GAIKEI
  6
Continuous
 62
     1
100
AcDbLine
 10
30.31317608538973
 20
17.80481808349657
 30
0.0
 11
30.31317608538973
 21
17.45481808349655
 31
0.0
  0
LINE
  5
8D
330
2
100
AcDbEntity
  8
GAIKEI
  6
Continuous
100
AcDbLine
 10
30.37220674812983
 20
26.29771742975658
 30
0.0
 11
30.37220674812983
 21
25.92771742975657
 31
0.0
  0
LINE
  5
8E
330
2
100
AcDbEntity
  8
GAIKEI
  6
Continuous
 62
     1
100
AcDbLine
 10
30.37220674812983
 20
24.0384782316566
 30
0.0
 11
30.37220674812983
 21
24.60472349093658
 31
0.0
  0
LINE
  5
8F
330
2
100
AcDbEntity
  8
GAIKEI
  6
Continuous
 62
     1
100
AcDbLine
 10
30.41317608538975
 20
18.25481808349656
 30
0.0
 11
30.41317608538975
 21
17.90481808349659
 31
0.0
  0
LINE
  5
90
330
2
100
AcDbEntity
  8
GAIKEI
  6
Continuous
 62
     1
100
AcDbLine
 10
30.41317608538975
 20
17.80481808349657
 30
0.0
 11
30.41317608538975
 21
17.45481808349655
 31
0.0
  0
LINE
  5
91
330
2
100
AcDbEntity
  8
GAIKEI
  6
Continuous
 62
     1
100
AcDbLine
 10
30.56317608538973
 20
17.80481808349657
 30
0.0
 11
30.56317608538973
 21
17.90481808349659
 31
0.0
  0
LINE
  5
92
330
2
100
AcDbEntity
  8
GAIKEI
  6
Continuous
 62
     1
100
AcDbLine
 10
31.64303935932975
 20
17.14064023449657
 30
0.0
 11
31.69253683402974
 21
17.37398547229657
 31
0.0
  0
LINE
  5
93
330
2
100
AcDbEntity
  8
GAIKEI
  6
Continuous
100
AcDbLine
 10
33.11139821036977
 20
25.10723449293659
 30
0.0
 11
33.26220674812976
 21
25.81673288045659
 31
0.0
  0
LINE
  5
94
330
2
100
AcDbEntity
  8
GAIKEI
  6
Continuous
 62
     1
100
AcDbLine
 10
31.64377846450981
 20
18.05833441693659
 30
0.0
 11
31.53419718864979
 21
17.54279504711655
 31
0.0
  0
LINE
  5
95
330
2
100
AcDbEntity
  8
GAIKEI
  6
Continuous
 62
     1
100
AcDbLine
 10
31.81006355662976
 20
18.02298942949653
 30
0.0
 11
31.78112324066979
 21
17.88683594765655
 31
0.0
  0
LINE
  5
96
330
2
100
AcDbEntity
  8
GAIKEI
  6
Continuous
 62
     1
100
AcDbLine
 10
30.1322359777098
 20
17.45481808349655
 30
0.0
 11
30.59411619306974
 21
17.45481808349655
 31
0.0
  0
LINE
  5
97
330
2
100
AcDbEntity
  8
GAIKEI
  6
Continuous
 62
     1
100
AcDbLine
 10
30.16317608538975
 20
17.80481808349657
 30
0.0
 11
30.31317608538973
 21
17.80481808349657
 31
0.0
  0
LINE
  5
98
330
2
100
AcDbEntity
  8
GAIKEI
  6
Continuous
 62
     1
100
AcDbLine
 10
30.41317608538975
 20
17.80481808349657
 30
0.0
 11
30.56317608538973
 21
17.80481808349657
 31
0.0
  0
LINE
  5
99
330
2
100
AcDbEntity
  8
GAIKEI
  6
Continuous
 62
     1
100
AcDbLine
 10
30.56317608538973
 20
17.90481808349659
 30
0.0
 11
30.41317608538975
 21
17.90481808349659
 31
0.0
  0
LINE
  5
9A
330
2
100
AcDbEntity
  8
GAIKEI
  6
Continuous
 62
     1
100
AcDbLine
 10
30.31317608538973
 20
17.90481808349659
 30
0.0
 11
30.16317608538975
 21
17.90481808349659
 31
0.0
  0
LINE
  5
9B
330
2
100
AcDbEntity
  8
GAIKEI
  6
Continuous
 62
     1
100
AcDbLine
 10
30.1322359777098
 20
18.25481808349656
 30
0.0
 11
30.59411619306974
 21
18.25481808349656
 31
0.0
  0
LINE
  5
9C
330
2
100
AcDbEntity
  8
GAIKEI
  6
Continuous
 62
     1
100
AcDbLine
 10
31.6275241587498
 20
24.40778975211657
 30
0.0
 11
31.6275241587498
 21
24.30778975211655
 31
0.0
  0
LINE
  5
9D
330
2
100
AcDbEntity
  8
GAIKEI
  6
Continuous
 62
     1
100
AcDbLine
 10
31.77752415874977
 20
24.75778975211659
 30
0.0
 11
31.77752415874977
 21
24.40778975211657
 31
0.0
  0
LINE
  5
9E
330
2
100
AcDbEntity
  8
GAIKEI
  6
Continuous
 62
     1
100
AcDbLine
 10
31.77752415874977
 20
24.30778975211655
 30
0.0
 11
31.77752415874977
 21
23.95778975211658
 31
0.0
  0
LINE
  5
9F
330
2
100
AcDbEntity
  8
GAIKEI
  6
Continuous
 62
     1
100
AcDbLine
 10
31.87752415874979
 20
24.75778975211659
 30
0.0
 11
31.87752415874979
 21
24.40778975211657
 31
0.0
  0
LINE
  5
A0
330
2
100
AcDbEntity
  8
GAIKEI
  6
Continuous
 62
     1
100
AcDbLine
 10
31.87752415874979
 20
24.30778975211655
 30
0.0
 11
31.87752415874979
 21
23.95778975211658
 31
0.0
  0
LINE
  5
A1
330
2
100
AcDbEntity
  8
GAIKEI
  6
Continuous
 62
     1
100
AcDbLine
 10
32.02752415874977
 20
24.30778975211655
 30
0.0
 11
32.02752415874977
 21
24.40778975211657
 31
0.0
  0
LINE
  5
A2
330
2
100
AcDbEntity
  8
GAIKEI
  6
Continuous
100
AcDbLine
 10
32.00609718884982
 20
17.83901625877655
 30
0.0
 11
33.53200167868982
 21
25.01783246589656
 31
0.0
  0
LINE
  5
A3
330
2
100
AcDbEntity
  8
GAIKEI
  6
Continuous
 62
     1
100
AcDbLine
 10
32.0350375048098
 20
17.97516974061659
 30
0.0
 11
31.64377846450981
 21
18.05833441693659
 31
0.0
  0
LINE
  5
A4
330
2
100
AcDbEntity
  8
GAIKEI
  6
Continuous
 62
     1
100
AcDbLine
 10
30.79451122190977
 20
16.57495480955657
 30
0.0
 11
30.84400869658975
 21
16.52545733487653
 31
0.0
  0
LINE
  5
A5
330
2
100
AcDbEntity
  8
GAIKEI
  6
Continuous
 62
     1
100
AcDbLine
 10
31.04891258644978
 20
16.60339615747659
 30
0.0
 11
31.28948596874983
 21
16.36282277519655
 31
0.0
  0
LINE
  5
A6
330
2
100
AcDbEntity
  8
GAIKEI
  6
Continuous
 62
     1
100
AcDbLine
 10
29.90129587004981
 20
17.85481808349658
 30
0.0
 11
30.1322359777098
 21
17.45481808349655
 31
0.0
  0
LINE
  5
A7
330
2
100
AcDbEntity
  8
GAIKEI
  6
Continuous
100
AcDbLine
 10
33.26220674812976
 20
25.81673288045659
 30
0.0
 11
33.26220674812976
 21
25.85345336105655
 31
0.0
  0
LINE
  5
A8
330
2
100
AcDbEntity
  8
GAIKEI
  6
Continuous
 62
   251
100
AcDbLine
 10
23.31535185349128
 20
0.5781690425680495
 30
0.0
 11
23.42141787067129
 21
0.6842350597480618
 31
0.0
  0
LINE
  5
A9
330
2
100
AcDbEntity
  8
GAIKEI
  6
Continuous
 62
   251
100
AcDbLine
 10
24.04517699549132
 20
0.0604759349480446
 30
0.0
 11
24.08053233455127
 21
0.0958312739880398
 31
0.0
  0
LINE
  5
AA
330
2
100
AcDbEntity
  8
GAIKEI
  6
Continuous
 62
   251
100
AcDbLine
 10
24.13710087703129
 20
-0.0314479466119337
 30
0.0
 11
24.17245621609135
 21
0.0039073924480704
 31
0.0
  0
LINE
  5
AB
330
2
100
AcDbEntity
  8
GAIKEI
  6
Continuous
 62
     1
100
AcDbLine
 10
30.93126664044973
 20
20.82771742975655
 30
0.0
 11
31.39314685580979
 21
20.82771742975655
 31
0.0
  0
LINE
  5
AC
330
2
100
AcDbEntity
  8
GAIKEI
  6
Continuous
 62
     1
100
AcDbLine
 10
31.39314685580979
 20
21.62771742975656
 30
0.0
 11
30.93126664044973
 21
21.62771742975656
 31
0.0
  0
LINE
  5
AD
330
2
100
AcDbEntity
  8
GAIKEI
  6
Continuous
 62
     1
100
AcDbLine
 10
31.33175529892981
 20
16.88623886995657
 30
0.0
 11
31.55946039018983
 21
16.65853377871656
 31
0.0
  0
LINE
  5
AE
330
2
100
AcDbEntity
  8
GAIKEI
  6
Continuous
 62
     1
100
AcDbLine
 10
31.85517139368978
 20
16.92850820015656
 30
0.0
 11
31.61459801140984
 21
17.16908158243654
 31
0.0
  0
LINE
  5
AF
330
2
100
AcDbEntity
  8
GAIKEI
  6
Continuous
 62
     1
100
AcDbLine
 10
31.64303935932975
 20
17.42348294697655
 30
0.0
 11
31.69253683402974
 21
17.37398547229657
 31
0.0
  0
LINE
  5
B0
330
2
100
AcDbEntity
  8
GAIKEI
  6
Continuous
 62
     1
100
AcDbLine
 10
30.82505630074985
 20
17.85481808349658
 30
0.0
 11
30.59411619306974
 21
18.25481808349656
 31
0.0
  0
LINE
  5
B1
330
2
100
AcDbEntity
  8
GAIKEI
  6
Continuous
 62
   251
100
AcDbLine
 10
24.67239093311133
 20
-0.7788700370319362
 30
0.0
 11
24.77845695029134
 21
-0.6728040198719328
 31
0.0
  0
LINE
  5
B2
330
2
100
AcDbEntity
  8
GAIKEI
  6
Continuous
100
AcDbLine
 10
28.58069126812984
 20
23.3668242121766
 30
0.0
 11
29.03055682754979
 21
22.67409199879654
 31
0.0
  0
LINE
  5
B3
330
2
100
AcDbEntity
  8
GAIKEI
  6
Continuous
 62
     1
100
AcDbLine
 10
30.70032653278975
 20
21.22771742975658
 30
0.0
 11
30.93126664044973
 21
20.82771742975655
 31
0.0
  0
LINE
  5
B4
330
2
100
AcDbEntity
  8
GAIKEI
  6
Continuous
100
AcDbLine
 10
27.66938642510979
 20
27.26771742975655
 30
0.0
 11
28.16302090526978
 21
26.41271742975658
 31
0.0
  0
LINE
  5
B5
330
2
100
AcDbEntity
  8
GAIKEI
  6
Continuous
 62
     1
100
AcDbLine
 10
31.62408696348979
 20
21.22771742975658
 30
0.0
 11
31.39314685580979
 21
21.62771742975656
 31
0.0
  0
LINE
  5
B6
330
2
100
AcDbEntity
  8
GAIKEI
  6
Continuous
100
AcDbLine
 10
36.30538580082975
 20
27.26771742975655
 30
0.0
 11
36.30538580082975
 21
27.26121742975659
 31
0.0
  0
LINE
  5
B7
330
2
100
AcDbEntity
  8
GAIKEI
  6
Continuous
 62
     1
100
AcDbLine
 10
27.02862845718982
 20
-1.743185511983426
 30
0.0
 11
27.03593402076979
 21
-1.735879948423416
 31
0.0
  0
LINE
  5
B8
330
2
100
AcDbEntity
  8
GAIKEI
  6
Continuous
 62
     1
100
AcDbLine
 10
27.13869119780975
 20
-1.828174495583425
 30
0.0
 11
27.13996782640982
 21
-1.826897883743413
 31
0.0
  0
LINE
  5
B9
330
2
100
AcDbEntity
  8
GAIKEI
  6
Continuous
 62
     1
100
AcDbLine
 10
27.14723135300983
 20
-1.836714650523447
 30
0.0
 11
26.63672426988978
 21
-2.347221733643436
 31
0.0
  0
LINE
  5
BA
330
2
100
AcDbEntity
  8
GAIKEI
  6
Continuous
 62
     1
100
AcDbLine
 10
28.64729012468979
 20
-1.255894617823457
 30
0.0
 11
28.51728745964988
 21
-1.373015162603451
 31
0.0
  0
LINE
  5
BB
330
2
100
AcDbEntity
  8
GAIKEI
  6
Continuous
100
AcDbLine
 10
27.71895005156978
 20
-2.13207331856347
 30
0.0
 11
28.24181251050976
 21
-1.66128584592343
 31
0.0
  0
LINE
  5
BC
330
2
100
AcDbEntity
  8
GAIKEI
  6
Continuous
 62
     1
100
AcDbLine
 10
31.59658405106973
 20
23.95778975211658
 30
0.0
 11
32.05846426642978
 21
23.95778975211658
 31
0.0
  0
LINE
  5
BD
330
2
100
AcDbEntity
  8
GAIKEI
  6
Continuous
 62
     1
100
AcDbLine
 10
31.6275241587498
 20
24.30778975211655
 30
0.0
 11
31.77752415874977
 21
24.30778975211655
 31
0.0
  0
LINE
  5
BE
330
2
100
AcDbEntity
  8
GAIKEI
  6
Continuous
 62
     1
100
AcDbLine
 10
31.87752415874979
 20
24.30778975211655
 30
0.0
 11
32.02752415874977
 21
24.30778975211655
 31
0.0
  0
LINE
  5
BF
330
2
100
AcDbEntity
  8
GAIKEI
  6
Continuous
 62
     1
100
AcDbLine
 10
32.02752415874977
 20
24.40778975211657
 30
0.0
 11
31.87752415874979
 21
24.40778975211657
 31
0.0
  0
LINE
  5
C0
330
2
100
AcDbEntity
  8
GAIKEI
  6
Continuous
 62
     1
100
AcDbLine
 10
31.77752415874977
 20
24.40778975211657
 30
0.0
 11
31.6275241587498
 21
24.40778975211657
 31
0.0
  0
LINE
  5
C1
330
2
100
AcDbEntity
  8
GAIKEI
  6
Continuous
 62
     1
100
AcDbLine
 10
31.59658405106973
 20
24.75778975211659
 30
0.0
 11
32.05846426642978
 21
24.75778975211659
 31
0.0
  0
LINE
  5
C2
330
2
100
AcDbEntity
  8
GAIKEI
  6
Continuous
 62
     1
100
AcDbLine
 10
31.36564394338973
 20
24.35778975211656
 30
0.0
 11
31.59658405106973
 21
23.95778975211658
 31
0.0
  0
LINE
  5
C3
330
2
100
AcDbEntity
  8
GAIKEI
  6
Continuous
100
AcDbLine
 10
37.22462461636979
 20
27.26771742975655
 30
0.0
 11
37.22462461636979
 21
27.26121742975659
 31
0.0
  0
LINE
  5
C4
330
2
100
AcDbEntity
  8
GAIKEI
  6
Continuous
100
AcDbLine
 10
37.25391393824975
 20
27.26771742975655
 30
0.0
 11
37.25391393824975
 21
27.26121742975659
 31
0.0
  0
LINE
  5
C5
330
2
100
AcDbEntity
  8
GAIKEI
  6
Continuous
100
AcDbLine
 10
30.0222067481298
 20
25.92771742975657
 30
0.0
 11
30.37220674812983
 21
25.92771742975657
 31
0.0
  0
LINE
  5
C6
330
2
100
AcDbEntity
  8
GAIKEI
  6
Continuous
100
AcDbLine
 10
35.56220674812977
 20
26.29771742975658
 30
0.0
 11
28.36220674812978
 21
26.29771742975658
 31
0.0
  0
LINE
  5
C7
330
2
100
AcDbEntity
  8
GAIKEI
  6
Continuous
100
AcDbLine
 10
32.03543584956981
 20
25.33593735283654
 30
0.0
 11
33.53200167868982
 21
25.01783246589656
 31
0.0
  0
LINE
  5
C8
330
2
100
AcDbEntity
  8
GAIKEI
  6
Continuous
 62
     1
100
AcDbLine
 10
32.28940437410978
 20
24.35778975211656
 30
0.0
 11
32.05846426642978
 21
24.75778975211659
 31
0.0
  0
LINE
  5
C9
330
2
100
AcDbEntity
  8
GAIKEI
  6
Continuous
100
AcDbLine
 10
38.96220674812975
 20
27.26771742975655
 30
0.0
 11
38.96220674812975
 21
27.49771742975656
 31
0.0
  0
LINE
  5
CA
330
2
100
AcDbEntity
  8
GAIKEI
  6
Continuous
100
AcDbLine
 10
37.25391393824975
 20
27.26121742975659
 30
0.0
 11
36.25127429440983
 21
27.26121742975659
 31
0.0
  0
LINE
  5
CB
330
2
100
AcDbEntity
  8
GAIKEI
  6
Continuous
100
AcDbLine
 10
24.9622067481298
 20
27.26771742975655
 30
0.0
 11
38.96220674812975
 21
27.26771742975655
 31
0.0
  0
LINE
  5
CC
330
2
100
AcDbEntity
  8
GAIKEI
  6
Continuous
 62
     1
100
AcDbLine
 10
32.36220674812978
 20
26.09771742975659
 30
0.0
 11
32.56220674812977
 21
26.22771742975658
 31
0.0
  0
LINE
  5
CD
330
2
100
AcDbEntity
  8
GAIKEI
  6
Continuous
 62
     1
100
AcDbLine
 10
31.36220674812978
 20
26.29771742975658
 30
0.0
 11
31.36220674812978
 21
26.22771742975658
 31
0.0
  0
LINE
  5
CE
330
2
100
AcDbEntity
  8
GAIKEI
  6
Continuous
 62
     1
100
AcDbLine
 10
31.56220674812977
 20
26.13793956973655
 30
0.0
 11
31.56220674812977
 21
25.79771742975657
 31
0.0
  0
LINE
  5
CF
330
2
100
AcDbEntity
  8
GAIKEI
  6
Continuous
 62
     1
100
AcDbLine
 10
31.9622067481298
 20
26.13793956973655
 30
0.0
 11
31.9622067481298
 21
25.81591594147653
 31
0.0
  0
LINE
  5
D0
330
2
100
AcDbEntity
  8
GAIKEI
  6
Continuous
 62
     1
100
AcDbLine
 10
32.36220674812978
 20
25.79771742975657
 30
0.0
 11
32.36220674812978
 21
26.13793956973655
 31
0.0
  0
LINE
  5
D1
330
2
100
AcDbEntity
  8
GAIKEI
  6
Continuous
 62
     1
100
AcDbLine
 10
32.56220674812977
 20
26.29771742975658
 30
0.0
 11
32.56220674812977
 21
26.22771742975658
 31
0.0
  0
LINE
  5
D2
330
2
100
AcDbEntity
  8
GAIKEI
  6
Continuous
 62
     1
100
AcDbLine
 10
32.36220674812978
 20
25.79771742975657
 30
0.0
 11
31.56220674812977
 21
25.79771742975657
 31
0.0
  0
LINE
  5
D3
330
2
100
AcDbEntity
  8
GAIKEI
  6
Continuous
 62
     1
100
AcDbLine
 10
31.56220674812977
 20
26.09771742975659
 30
0.0
 11
31.36220674812978
 21
26.22771742975658
 31
0.0
  0
LINE
  5
D4
330
2
100
AcDbEntity
  8
GAIKEI
  6
Continuous
 62
     1
100
AcDbLine
 10
31.36220674812978
 20
26.22771742975658
 30
0.0
 11
32.56220674812977
 21
26.22771742975658
 31
0.0
  0
LINE
  5
D5
330
2
100
AcDbEntity
  8
GAIKEI
  6
Continuous
100
AcDbLine
 10
24.9622067481298
 20
27.49771742975656
 30
0.0
 11
38.96220674812975
 21
27.49771742975656
 31
0.0
  0
LINE
  5
D6
330
2
100
AcDbEntity
  8
GAIKEI
  6
Continuous
100
AcDbLine
 10
37.82942649630979
 20
9.115775466436559
 30
0.0
 11
21.3412907558498
 21
25.60391120689656
 31
0.0
  0
LINE
  5
D7
330
2
100
AcDbEntity
  8
GAIKEI
  6
Continuous
100
AcDbLine
 10
30.58237918754975
 20
16.36282277519655
 30
0.0
 11
31.94375780034983
 21
17.72420138797656
 31
0.0
  0
LINE
  5
D8
330
2
100
AcDbEntity
  8
GAIKEI
  6
Continuous
 62
     1
100
AcDbLine
 10
11.1228516917298
 20
16.43331589951657
 30
0.0
 11
28.65883118892981
 21
-1.10266359770344
 31
0.0
  0
LINE
  5
D9
330
2
100
AcDbEntity
  8
GAIKEI
  6
Continuous
100
AcDbLine
 10
9.674348633269801
 20
14.36059361903653
 30
0.0
 11
9.425243369909821
 21
14.60969888239657
 31
0.0
  0
ARC
  5
DA
330
2
100
AcDbEntity
  8
GAIKEI
  6
Continuous
 62
     1
100
AcDbCircle
 10
31.16220674812979
 20
21.22771742975658
 30
0.0
 40
0.4118802153599587
100
AcDbArc
 50
163.7947482709951
 51
196.205251729004
  0
ARC
  5
DB
330
2
100
AcDbEntity
  8
GAIKEI
  6
Continuous
 62
     1
100
AcDbCircle
 10
31.16220674812979
 20
21.22771742975658
 30
0.0
 40
0.4118802153600552
100
AcDbArc
 50
283.7947482709968
 51
316.2052517290026
  0
ARC
  5
DC
330
2
100
AcDbEntity
  8
GAIKEI
  6
Continuous
 62
     1
100
AcDbCircle
 10
31.16220674812979
 20
21.22771742975658
 30
0.0
 40
0.4118802153600417
100
AcDbArc
 50
103.7947482709833
 51
136.2052517289911
  0
ARC
  5
DD
330
2
100
AcDbEntity
  8
GAIKEI
  6
Continuous
 62
     1
100
AcDbCircle
 10
31.16220674812979
 20
21.22771742975658
 30
0.0
 40
0.4118802153600436
100
AcDbArc
 50
343.7947482709991
 51
16.20525172900087
  0
ARC
  5
DE
330
2
100
AcDbEntity
  8
GAIKEI
  6
Continuous
 62
     1
100
AcDbCircle
 10
31.16220674812979
 20
21.22771742975658
 30
0.0
 40
0.4118802153600728
100
AcDbArc
 50
43.79474827099743
 51
76.20525172900324
  0
ARC
  5
DF
330
2
100
AcDbEntity
  8
GAIKEI
  6
Continuous
 62
     1
100
AcDbCircle
 10
31.16220674812979
 20
21.22771742975658
 30
0.0
 40
0.4118802153599928
100
AcDbArc
 50
223.7947482710066
 51
256.2052517290167
  0
ARC
  5
E0
330
2
100
AcDbEntity
  8
GAIKEI
  6
Continuous
 62
     1
100
AcDbCircle
 10
31.82752415874978
 20
24.35778975211656
 30
0.0
 40
0.4118802153600635
100
AcDbArc
 50
283.7947482709968
 51
316.2052517290026
  0
ARC
  5
E1
330
2
100
AcDbEntity
  8
GAIKEI
  6
Continuous
 62
     1
100
AcDbCircle
 10
31.82752415874978
 20
24.35778975211656
 30
0.0
 40
0.4118802153599564
100
AcDbArc
 50
163.794748270996
 51
196.2052517290049
  0
ARC
  5
E2
330
2
100
AcDbEntity
  8
GAIKEI
  6
Continuous
 62
     1
100
AcDbCircle
 10
31.82752415874978
 20
24.35778975211656
 30
0.0
 40
0.4118802153600648
100
AcDbArc
 50
43.79474827099743
 51
76.20525172900324
  0
ARC
  5
E3
330
2
100
AcDbEntity
  8
GAIKEI
  6
Continuous
 62
     1
100
AcDbCircle
 10
31.82752415874978
 20
24.35778975211656
 30
0.0
 40
0.4118802153600018
100
AcDbArc
 50
223.7947482710089
 51
256.2052517290167
  0
ARC
  5
E4
330
2
100
AcDbEntity
  8
GAIKEI
  6
Continuous
 62
     1
100
AcDbCircle
 10
31.82752415874978
 20
24.35778975211656
 30
0.0
 40
0.4118802153600437
100
AcDbArc
 50
343.794748270996
 51
16.20525172900087
  0
ARC
  5
E5
330
2
100
AcDbEntity
  8
GAIKEI
  6
Continuous
 62
     1
100
AcDbCircle
 10
31.82752415874978
 20
24.35778975211656
 30
0.0
 40
0.4118802153600322
100
AcDbArc
 50
103.7947482709833
 51
136.2052517289934
  0
ARC
  5
E6
330
2
100
AcDbEntity
  8
GAIKEI
  6
Continuous
 62
     1
100
AcDbCircle
 10
30.36317608538974
 20
17.85481808349658
 30
0.0
 40
0.4118802153600649
100
AcDbArc
 50
283.7947482709968
 51
316.2052517290003
  0
ARC
  5
E7
330
2
100
AcDbEntity
  8
GAIKEI
  6
Continuous
 62
     1
100
AcDbCircle
 10
30.36317608538974
 20
17.85481808349658
 30
0.0
 40
0.4118802153599454
100
AcDbArc
 50
163.794748270996
 51
196.2052517290049
  0
ARC
  5
E8
330
2
100
AcDbEntity
  8
GAIKEI
  6
Continuous
 62
     1
100
AcDbCircle
 10
30.36317608538974
 20
17.85481808349658
 30
0.0
 40
0.4118802153600648
100
AcDbArc
 50
43.79474827099743
 51
76.20525172900324
  0
ARC
  5
E9
330
2
100
AcDbEntity
  8
GAIKEI
  6
Continuous
 62
     1
100
AcDbCircle
 10
30.36317608538974
 20
17.85481808349658
 30
0.0
 40
0.4118802153600027
100
AcDbArc
 50
223.7947482710089
 51
256.2052517290167
  0
ARC
  5
EA
330
2
100
AcDbEntity
  8
GAIKEI
  6
Continuous
 62
     1
100
AcDbCircle
 10
30.36317608538974
 20
17.85481808349658
 30
0.0
 40
0.4118802153600441
100
AcDbArc
 50
343.794748270996
 51
16.20525172900087
  0
ARC
  5
EB
330
2
100
AcDbEntity
  8
GAIKEI
  6
Continuous
 62
     1
100
AcDbCircle
 10
30.36317608538974
 20
17.85481808349658
 30
0.0
 40
0.4118802153600315
100
AcDbArc
 50
103.7947482709833
 51
136.2052517289934
  0
ARC
  5
EC
330
2
100
AcDbEntity
  8
GAIKEI
  6
Continuous
100
AcDbCircle
 10
35.56220674812977
 20
26.52771742975654
 30
0.0
 40
0.2299999999999898
100
AcDbArc
 50
270.0
 51
330.0000000012033
  0
ARC
  5
ED
330
2
100
AcDbEntity
  8
GAIKEI
  6
Continuous
100
AcDbCircle
 10
28.36220674812978
 20
26.52771742975654
 30
0.0
 40
0.2299999999909444
100
AcDbArc
 50
210.0000000012977
 51
270.0
  0
ARC
  5
EE
330
2
100
AcDbEntity
  8
GAIKEI
  6
Continuous
100
AcDbCircle
 10
33.56220674812977
 20
25.85345336105655
 30
0.0
 40
0.2999999999915576
100
AcDbArc
 50
135.0000000027036
 51
180.0
  0
ARC
  5
EF
330
2
100
AcDbEntity
  8
GAIKEI
  6
Continuous
100
AcDbCircle
 10
33.25220674812982
 20
26.39198149847658
 30
0.0
 40
0.3000000000057221
100
AcDbArc
 50
315.0
 51
341.678582000587
  0
ARC
  5
F0
330
2
100
AcDbEntity
  8
GAIKEI
  6
Continuous
100
AcDbCircle
 10
27.35321569166979
 20
21.58481392877655
 30
0.0
 40
1.999999999993435
100
AcDbArc
 50
347.9999999998303
 51
32.9999999999279
  0
ARC
  5
F1
330
2
100
AcDbEntity
  8
GAIKEI
  6
Continuous
100
AcDbCircle
 10
31.16220674812979
 20
21.22771742975658
 30
0.0
 40
2.924999999999995
100
AcDbArc
 50
87.87045126919663
 51
122.9999999999983
  0
ARC
  5
F2
330
2
100
AcDbEntity
  8
GAIKEI
  6
Continuous
100
AcDbCircle
 10
31.16220674812979
 20
21.22771742975658
 30
0.0
 40
3.475000000000054
100
AcDbArc
 50
87.17223564190113
 51
122.9999999999983
  0
ARC
  5
F3
330
2
100
AcDbEntity
  8
GAIKEI
  6
Continuous
100
AcDbCircle
 10
29.41936183608982
 20
23.91146324717658
 30
0.0
 40
0.9999999999999626
100
AcDbArc
 50
122.9999999999983
 51
212.999999998824
  0
ARC
  5
F4
330
2
100
AcDbEntity
  8
GAIKEI
  6
Continuous
100
AcDbCircle
 10
31.16220674812979
 20
21.22771742975658
 30
0.0
 40
4.199999999999199
100
AcDbArc
 50
77.99999999992356
 51
122.9999999999469
  0
ARC
  5
F5
330
2
100
AcDbEntity
  8
GAIKEI
  6
Continuous
 62
     1
100
AcDbCircle
 10
30.5560495879098
 20
17.75070673793658
 30
0.0
 40
1.000000000000061
100
AcDbArc
 50
315.0
 51
347.9999999999472
  0
ARC
  5
F6
330
2
100
AcDbEntity
  8
GAIKEI
  6
Continuous
100
AcDbCircle
 10
31.78112324066979
 20
17.88683594765655
 30
0.0
 40
0.2300000000100396
100
AcDbArc
 50
315.0
 51
348.0000000025508
  0
ARC
  5
F7
330
2
100
AcDbEntity
  8
GAIKEI
  6
Continuous
100
AcDbCircle
 10
29.41936183608982
 20
23.91146324717658
 30
0.0
 40
0.2750000000089274
100
AcDbArc
 50
123.0000000007987
 51
302.9999999991935
  0
ARC
  5
F8
330
2
100
AcDbEntity
  8
GAIKEI
  6
Continuous
 62
     1
100
AcDbCircle
 10
26.04982472014979
 20
20.47111317389658
 30
0.0
 40
0.8499999999999962
100
AcDbArc
 50
335.6905794155997
 51
114.3094205844003
  0
ARC
  5
F9
330
2
100
AcDbEntity
  8
GAIKEI
  6
Continuous
 62
     1
100
AcDbCircle
 10
26.04982472014979
 20
20.47111317389658
 30
0.0
 40
0.4999999999999388
100
AcDbArc
 50
351.8971576941064
 51
98.10284230589358
  0
ARC
  5
FA
330
2
100
AcDbEntity
  8
GAIKEI
  6
Continuous
 62
     7
100
AcDbCircle
 10
9.934861176909805
 20
14.35463951662655
 30
0.0
 40
0.0800000000001099
100
AcDbArc
 50
135.0000000050711
 51
224.9999999949289
  0
ARC
  5
FB
330
2
100
AcDbEntity
  8
GAIKEI
  6
Continuous
100
AcDbCircle
 10
26.58015480604985
 20
-2.290654112503432
 30
0.0
 40
0.0800000000071786
100
AcDbArc
 50
224.9999999999908
 51
315.0000000000046
  0
ARC
  5
FC
330
2
100
AcDbEntity
  8
GAIKEI
  6
Continuous
100
AcDbCircle
 10
9.709072900829767
 20
14.39660126613654
 30
0.0
 40
0.0499999999999632
100
AcDbArc
 50
225.0000017387083
 51
313.4999999999398
  0
CIRCLE
  5
FD
330
2
100
AcDbEntity
  8
GAIKEI
  6
Continuous
 62
     1
100
AcDbCircle
 10
31.82752415874978
 20
24.35778975211656
 30
0.0
 40
0.6000000000000001
  0
CIRCLE
  5
FE
330
2
100
AcDbEntity
  8
GAIKEI
  6
Continuous
 62
     1
100
AcDbCircle
 10
30.36317608538974
 20
17.85481808349658
 30
0.0
 40
0.6000000000000001
  0
SPLINE
  5
FF
330
2
100
AcDbEntity
  8
GAIKEI
  6
Continuous
 62
     1
100
AcDbSpline
210
0.0
220
0.0
230
1.0
 70
     8
 71
     3
 72
     9
 73
     5
 74
     3
 42
0.0000000001
 43
0.0000000001
 44
0.00000001
 40
0.0
 40
0.0
 40
0.0
 40
0.0
 40
0.0582090978148958
 40
0.1164207786375626
 40
0.1164207786375626
 40
0.1164207786375626
 40
0.1164207786375626
 10
31.37076589230981
 20
16.44410269875658
 30
0.0
 10
31.35553398038754
 20
16.4320691872191
 30
0.0
 10
31.32506946866705
 20
16.40800164617144
 30
0.0
 10
31.29276851742464
 20
16.3864614134095
 30
0.0
 10
31.27661767770979
 20
16.37569106623658
 30
0.0
 11
31.37076589230981
 21
16.44410269875658
 31
0.0
 11
31.32461106094797
 21
16.40863397109933
 31
0.0
 11
31.27661767770979
 21
16.37569106623658
 31
0.0
  0
SPLINE
  5
100
330
2
100
AcDbEntity
  8
GAIKEI
  6
Continuous
 62
     1
100
AcDbSpline
210
0.0
220
0.0
230
1.0
 70
     8
 71
     3
 72
    11
 73
     7
 74
     5
 42
0.0000000001
 43
0.0000000001
 44
0.00000001
 40
0.0
 40
0.0
 40
0.0
 40
0.0
 40
0.1024281171992756
 40
0.2048509629343861
 40
0.3072736936095646
 40
0.409701694699689
 40
0.409701694699689
 40
0.409701694699689
 40
0.409701694699689
 10
31.04891258644978
 20
16.60339615747659
 30
0.0
 10
31.07958277476236
 20
16.61857092098529
 30
0.0
 10
31.14092156570533
 20
16.64891967999779
 30
0.0
 10
31.22137458505728
 20
16.71377698283743
 30
0.0
 10
31.28623182932002
 20
16.79422999481528
 30
0.0
 10
31.31658055311013
 20
16.85556871645343
 30
0.0
 10
31.33175529892981
 20
16.88623886995663
 30
0.0
 11
31.04891258644978
 21
16.60339615747659
 31
0.0
 11
31.1389973096409
 21
16.652143076122
 31
0.0
 11
31.21877537264982
 21
16.71637624781652
 31
0.0
 11
31.28300844245564
 21
16.79615424514162
 31
0.0
 11
31.33175529892981
 21
16.88623886995663
 31
0.0
  0
SPLINE
  5
101
330
2
100
AcDbEntity
  8
GAIKEI
  6
Continuous
 62
     1
100
AcDbSpline
210
0.0
220
0.0
230
1.0
 70
     8
 71
     3
 72
     9
 73
     5
 74
     3
 42
0.0000000001
 43
0.0000000001
 44
0.00000001
 40
0.0
 40
0.0
 40
0.0
 40
0.0
 40
0.0582116986995321
 40
0.1164207786262527
 40
0.1164207786262527
 40
0.1164207786262527
 40
0.1164207786262527
 10
31.84230310264974
 20
16.94137649119659
 30
0.0
 10
31.83153275189328
 20
16.92522564670895
 30
0.0
 10
31.80999251858108
 20
16.89292469584382
 30
0.0
 10
31.78592497782481
 20
16.86246018392069
 30
0.0
 10
31.7738914701298
 20
16.84722827657663
 30
0.0
 11
31.84230310264974
 21
16.94137649119659
 31
0.0
 11
31.80936018685816
 21
16.893383093777
 31
0.0
 11
31.7738914701298
 21
16.84722827657663
 31
0.0
  0
SPLINE
  5
102
330
2
100
AcDbEntity
  8
GAIKEI
  6
Continuous
 62
     1
100
AcDbSpline
210
0.0
220
0.0
230
1.0
 70
     8
 71
     3
 72
     9
 73
     5
 74
     3
 42
0.0000000001
 43
0.0000000001
 44
0.00000001
 40
0.0
 40
0.0
 40
0.0
 40
0.0
 40
0.0582090978149076
 40
0.11642077863811
 40
0.11642077863811
 40
0.11642077863811
 40
0.11642077863811
 10
31.65360860478978
 20
16.72694541123656
 30
0.0
 10
31.63837669287101
 20
16.71491189969441
 30
0.0
 10
31.60791218115746
 20
16.69084435863743
 30
0.0
 10
31.57561122990812
 20
16.66930412588476
 30
0.0
 10
31.55946039018983
 20
16.65853377871662
 30
0.0
 11
31.65360860478978
 21
16.72694541123656
 31
0.0
 11
31.60745377343506
 21
16.69147668357004
 31
0.0
 11
31.55946039018983
 21
16.65853377871662
 31
0.0
  0
SPLINE
  5
103
330
2
100
AcDbEntity
  8
GAIKEI
  6
Continuous
 62
     1
100
AcDbSpline
210
0.0
220
0.0
230
1.0
 70
     8
 71
     3
 72
    11
 73
     7
 74
     5
 42
0.0000000001
 43
0.0000000001
 44
0.00000001
 40
0.0
 40
0.0
 40
0.0
 40
0.0
 40
0.1024281171927196
 40
0.2048509629216073
 40
0.3072736936045946
 40
0.4097016947023949
 40
0.4097016947023949
 40
0.4097016947023949
 40
0.4097016947023949
 10
31.33175529892981
 20
16.88623886995663
 30
0.0
 10
31.3624254872389
 20
16.90141363346606
 30
0.0
 10
31.42376427817503
 20
16.93176239248038
 30
0.0
 10
31.50421729754786
 20
16.99661969529325
 30
0.0
 10
31.5690745417908
 20
17.07707270729304
 30
0.0
 10
31.59942326558709
 20
17.13841142893272
 30
0.0
 10
31.61459801140984
 20
17.1690815824366
 30
0.0
 11
31.33175529892981
 21
16.88623886995663
 31
0.0
 11
31.42184002211508
 21
16.93498578859908
 31
0.0
 11
31.50161808512974
 21
16.99921896027655
 31
0.0
 11
31.56585115493078
 21
17.07899695761551
 31
0.0
 11
31.61459801140984
 21
17.1690815824366
 31
0.0
  0
SPLINE
  5
104
330
2
100
AcDbEntity
  8
GAIKEI
  6
Continuous
 62
     1
100
AcDbSpline
210
0.0
220
0.0
230
1.0
 70
     8
 71
     3
 72
     9
 73
     5
 74
     3
 42
0.0000000001
 43
0.0000000001
 44
0.00000001
 40
0.0
 40
0.0
 40
0.0
 40
0.0
 40
0.0582116986974999
 40
0.116420778621775
 40
0.116420778621775
 40
0.116420778621775
 40
0.116420778621775
 10
31.55946039018983
 20
16.65853377871662
 30
0.0
 10
31.54869003942887
 20
16.64238293423278
 30
0.0
 10
31.52714980610773
 20
16.61008198337538
 30
0.0
 10
31.50308226534705
 20
16.57961747145805
 30
0.0
 10
31.49104875764982
 20
16.5643855641166
 30
0.0
 11
31.55946039018983
 21
16.65853377871662
 31
0.0
 11
31.52651747438586
 21
16.610540381308
 31
0.0
 11
31.49104875764982
 21
16.5643855641166
 31
0.0
  0
SPLINE
  5
105
330
2
100
AcDbEntity
  8
GAIKEI
  6
Continuous
 62
     1
100
AcDbSpline
210
0.0
220
0.0
230
1.0
 70
     8
 71
     3
 72
     9
 73
     5
 74
     3
 42
0.0000000001
 43
0.0000000001
 44
0.00000001
 40
0.0
 40
0.0
 40
0.0
 40
0.0
 40
0.0150513956046465
 40
0.0301051199557076
 40
0.0301051199557076
 40
0.0301051199557076
 40
0.0301051199557076
 10
10.40143577814979
 20
14.9089610288766
 30
0.0
 10
10.40107554861276
 20
14.90392958682508
 30
0.0
 10
10.40035505364748
 20
14.8938659246819
 30
0.0
 10
10.40243524414592
 20
14.88399326448257
 30
0.0
 10
10.40347542970977
 20
14.8790565536766
 30
0.0
 11
10.40143577814979
 21
14.9089610288766
 31
0.0
 11
10.40105516245194
 21
14.89391444556315
 31
0.0
 11
10.40347542970977
 21
14.8790565536766
 31
0.0
  0
SPLINE
  5
106
330
2
100
AcDbEntity
  8
GAIKEI
  6
Continuous
 62
     1
100
AcDbSpline
210
0.0
220
0.0
230
1.0
 70
    24
 71
     3
 72
     9
 73
     5
 74
     3
 42
0.0000000001
 43
0.0000000001
 44
0.00000001
 40
0.0
 40
0.0
 40
0.0
 40
0.0
 40
0.0069221401139704
 40
0.0138442802279313
 40
0.0138442802279313
 40
0.0138442802279313
 40
0.0138442802279313
 10
10.40347542970977
 20
14.8790565536766
 30
0.0
 10
10.40425295215311
 20
14.87688412151664
 30
0.0
 10
10.4058079970398
 20
14.87253925719659
 30
0.0
 10
10.40736304192644
 20
14.86819439287654
 30
0.0
 10
10.40814056436977
 20
14.86602196071658
 30
0.0
 11
10.40347542970977
 21
14.8790565536766
 31
0.0
 11
10.4058079970398
 21
14.87253925719659
 31
0.0
 11
10.40814056436977
 21
14.86602196071658
 31
0.0
  0
SPLINE
  5
107
330
2
100
AcDbEntity
  8
GAIKEI
  6
Continuous
 62
     1
100
AcDbSpline
210
0.0
220
0.0
230
1.0
 70
     8
 71
     3
 72
     9
 73
     5
 74
     3
 42
0.0000000001
 43
0.0000000001
 44
0.00000001
 40
0.0
 40
0.0
 40
0.0
 40
0.0
 40
0.0137399449680555
 40
0.0274785950967729
 40
0.0274785950967729
 40
0.0274785950967729
 40
0.0274785950967729
 10
10.40814056436977
 20
14.86602196071658
 30
0.0
 10
10.41024959340471
 20
14.86193138619603
 30
0.0
 10
10.41446746950912
 20
14.85375063326472
 30
0.0
 10
10.42067707334497
 20
14.84695681805999
 30
0.0
 10
10.42378173684983
 20
14.84356007655662
 30
0.0
 11
10.40814056436977
 21
14.86602196071658
 31
0.0
 11
10.41496563891723
 21
14.8540970091687
 31
0.0
 11
10.42378173684983
 21
14.84356007655662
 31
0.0
  0
SPLINE
  5
108
330
2
100
AcDbEntity
  8
GAIKEI
  6
Continuous
 62
     1
100
AcDbSpline
210
0.0
220
0.0
230
1.0
 70
     8
 71
     3
 72
     9
 73
     5
 74
     3
 42
0.0000000001
 43
0.0000000001
 44
0.00000001
 40
0.0
 40
0.0
 40
0.0
 40
0.0
 40
0.0137374343638168
 40
0.0274761233433617
 40
0.0274761233433617
 40
0.0274761233433617
 40
0.0274761233433617
 10
27.06907536596981
 20
-1.801733552563405
 30
0.0
 10
27.07247179145078
 20
-1.804837952368814
 30
0.0
 10
27.07926496466439
 20
-1.811047019717364
 30
0.0
 10
27.08744485789151
 20
-1.815264739014253
 30
0.0
 10
27.09153499656975
 20
-1.817373686563428
 30
0.0
 11
27.06907536596981
 21
-1.801733552563405
 31
0.0
 11
27.0796112971035
 21
-1.810548952855583
 31
0.0
 11
27.09153499656975
 21
-1.817373686563428
 31
0.0
  0
SPLINE
  5
109
330
2
100
AcDbEntity
  8
GAIKEI
  6
Continuous
 62
     1
100
AcDbSpline
210
0.0
220
0.0
230
1.0
 70
     8
 71
     3
 72
    11
 73
     7
 74
     5
 42
0.0000000001
 43
0.0000000001
 44
0.00000001
 40
0.0
 40
0.0
 40
0.0
 40
0.0
 40
0.0139341900075862
 40
0.0278689026035147
 40
0.0359235135457058
 40
0.0439711169395846
 40
0.0439711169395846
 40
0.0439711169395846
 40
0.0439711169395846
 10
27.09153499656975
 20
-1.817373686563428
 30
0.0
 10
27.09585867855904
 20
-1.819104683912087
 30
0.0
 10
27.10450620958184
 20
-1.822566728928677
 30
0.0
 10
27.1164302671094
 20
-1.824427226327884
 30
0.0
 10
27.12645021173746
 20
-1.824799630352401
 30
0.0
 10
27.13180173406462
 20
-1.824319485337241
 30
0.0
 10
27.13447633028983
 20
-1.8240795100034
 30
0.0
 11
27.09153499656975
 21
-1.817373686563428
 31
0.0
 11
27.10465678055272
 21
-1.822062017446171
 31
0.0
 11
27.11839668758978
 21
-1.824383916843373
 31
0.0
 11
27.12644755085341
 21
-1.824629633382073
 31
0.0
 11
27.13447633028983
 21
-1.8240795100034
 31
0.0
  0
SPLINE
  5
10A
330
2
100
AcDbEntity
  8
GAIKEI
  6
Continuous
 62
     1
100
AcDbSpline
210
0.0
220
0.0
230
1.0
 70
     8
 71
     3
 72
    19
 73
    15
 74
    13
 42
0.0000000001
 43
0.0000000001
 44
0.00000001
 40
0.0
 40
0.0
 40
0.0
 40
0.0
 40
0.0032222630500144
 40
0.0064916182340475
 40
0.0090870642504879
 40
0.011659508033132
 40
0.0149613294107023
 40
0.0182719531094678
 40
0.0221644033661057
 40
0.0260538398372638
 40
0.0304000663836978
 40
0.0347472702032251
 40
0.0442113369381092
 40
0.053675476965309
 40
0.053675476965309
 40
0.053675476965309
 40
0.053675476965309
 10
10.48232977742981
 20
14.80311316777658
 30
0.0
 10
10.4813459717125
 20
14.80260558386334
 30
0.0
 10
10.47936398676164
 20
14.8015829889012
 30
0.0
 10
10.47625732120225
 20
14.80226682799514
 30
0.0
 10
10.47359063135735
 20
14.80306862743589
 30
0.0
 10
10.47097470974157
 20
14.80416113718053
 30
0.0
 10
10.4682321807214
 20
14.80551977488471
 30
0.0
 10
10.46518832407379
 20
14.80725544163385
 30
0.0
 10
10.4620598990773
 20
14.8092280016973
 30
0.0
 10
10.45872914600531
 20
14.81152080017705
 30
0.0
 10
10.45535584261912
 20
14.81401479451517
 30
0.0
 10
10.45060586534423
 20
14.81776655474005
 30
0.0
 10
10.44470877485567
 20
14.82281742001373
 30
0.0
 10
10.44018551439842
 20
14.82721776367322
 30
0.0
 10
10.43792387246975
 20
14.82941794093659
 30
0.0
 11
10.48232977742981
 21
14.80311316777658
 31
0.0
 11
10.47931987539721
 21
14.80196273058072
 31
0.0
 11
10.47607397352976
 21
14.8023535954166
 31
0.0
 11
10.47359275103952
 21
14.80311508883335
 31
0.0
 11
10.47121154336969
 21
14.80408839019662
 31
0.0
 11
10.46824937399276
 21
14.80554701127459
 31
0.0
 11
10.46536866530977
 21
14.80717849701659
 31
0.0
 11
10.46207345428706
 21
14.80925039286126
 31
0.0
 11
10.45886661290978
 21
14.81145127537655
 31
0.0
 11
10.45537020140637
 21
14.81403290110285
 31
0.0
 11
10.45195569960981
 21
14.81672350669657
 31
0.0
 11
10.4447768951257
 21
14.82289062349281
 31
0.0
 11
10.43792387246975
 21
14.82941794093659
 31
0.0
  0
SPLINE
  5
10B
330
2
100
AcDbEntity
  8
GAIKEI
  6
Continuous
 62
     1
100
AcDbSpline
210
0.0
220
0.0
230
1.0
 70
     8
 71
     3
 72
    19
 73
    15
 74
    13
 42
0.0000000001
 43
0.0000000001
 44
0.00000001
 40
0.0
 40
0.0
 40
0.0
 40
0.0
 40
0.0095225774835052
 40
0.0190449887419548
 40
0.0233685956506786
 40
0.0276912638781759
 40
0.0315954985434455
 40
0.0355027218208126
 40
0.038785270791561
 40
0.0420591387311433
 40
0.044622087817113
 40
0.0472078971276093
 40
0.0504654679940521
 40
0.0536760212773354
 40
0.0536760212773354
 40
0.0536760212773354
 40
0.0536760212773354
 10
27.05493323034978
 20
-1.787591416943428
 30
0.0
 10
27.0527196814386
 20
-1.78531559516
 30
0.0
 10
27.04829261608619
 20
-1.780763997201404
 30
0.0
 10
27.04322432061841
 20
-1.774840781903151
 30
0.0
 10
27.03947365377309
 20
-1.770085195874742
 30
0.0
 10
27.0369881919769
 20
-1.766719009321491
 30
0.0
 10
27.03469649736161
 20
-1.763385048316706
 30
0.0
 10
27.03272692080722
 20
-1.760254120993351
 30
0.0
 10
27.03100198578156
 20
-1.757220000898144
 30
0.0
 10
27.0296561398107
 20
-1.754495510194431
 30
0.0
 10
27.02857242489289
 20
-1.751892992054365
 30
0.0
 10
27.02777682630837
 20
-1.749235020110859
 30
0.0
 10
27.02710067667792
 20
-1.746138723138358
 30
0.0
 10
27.02812167392436
 20
-1.74416513508828
 30
0.0
 10
27.02862845718982
 20
-1.743185511983426
 30
0.0
 11
27.05493323034978
 21
-1.787591416943428
 31
0.0
 11
27.0483667122935
 21
-1.780695028930381
 31
0.0
 11
27.04216521870979
 21
-1.77346884060347
 31
0.0
 11
27.03949162895094
 21
-1.770070974445218
 31
0.0
 11
27.03692617122977
 21
-1.766591910363445
 31
0.0
 11
27.03471917756781
 21
-1.763371316211646
 31
0.0
 11
27.03264296322982
 21
-1.760061372583379
 31
0.0
 11
27.03102894565944
 21
-1.75720303845236
 31
0.0
 11
27.02958596330979
 21
-1.754264329263435
 31
0.0
 11
27.02861878355373
 21
-1.751890878224457
 31
0.0
 11
27.02786325574976
 21
-1.74941790738336
 31
0.0
 11
27.02747866694949
 21
-1.746183122916875
 31
0.0
 11
27.02862845718982
 21
-1.743185511983426
 31
0.0
  0
SPLINE
  5
10C
330
2
100
AcDbEntity
  8
GAIKEI
  6
Continuous
 62
     1
100
AcDbSpline
210
0.0
220
0.0
230
1.0
 70
     8
 71
     3
 72
    11
 73
     7
 74
     5
 42
0.0000000001
 43
0.0000000001
 44
0.00000001
 40
0.0
 40
0.0
 40
0.0
 40
0.0
 40
0.0155344411146568
 40
0.0315353208492116
 40
0.0666685753732818
 40
0.1018673977385297
 40
0.1018673977385297
 40
0.1018673977385297
 40
0.1018673977385297
 10
10.96962067160973
 20
16.4217748352766
 30
0.0
 10
10.97485792878508
 20
16.42101898604073
 30
0.0
 10
10.98548969044871
 20
16.41948457333126
 30
0.0
 10
11.0026989171982
 20
16.40447280333609
 30
0.0
 10
11.02549538692786
 20
16.38734195410364
 30
0.0
 10
11.04220289139544
 20
16.37078340427109
 30
0.0
 10
11.0505644341498
 20
16.36249641265658
 30
0.0
 11
10.96962067160973
 21
16.4217748352766
 31
0.0
 11
10.98472785159549
 21
16.41815653959162
 31
0.0
 11
10.99778990546974
 21
16.40891473177663
 31
0.0
 11
11.02501296723199
 21
16.38670548818533
 31
0.0
 11
11.0505644341498
 21
16.36249641265658
 31
0.0
  0
SPLINE
  5
10D
330
2
100
AcDbEntity
  8
GAIKEI
  6
Continuous
 62
     1
100
AcDbSpline
210
0.0
220
0.0
230
1.0
 70
    24
 71
     3
 72
     9
 73
     5
 74
     3
 42
0.0000000001
 43
0.0000000001
 44
0.00000001
 40
0.0
 40
0.0
 40
0.0
 40
0.0
 40
0.086503952413299
 40
0.1730079048264371
 40
0.1730079048264371
 40
0.1730079048264371
 40
0.1730079048264371
 10
28.64729012468979
 20
-1.2558946178234
 30
0.0
 10
28.62690048359978
 20
-1.276283330956744
 30
0.0
 10
28.58612120141984
 20
-1.31706075722343
 30
0.0
 10
28.5453419192398
 20
-1.357838183490173
 30
0.0
 10
28.52495227814984
 20
-1.378226896623402
 30
0.0
 11
28.64729012468979
 21
-1.2558946178234
 31
0.0
 11
28.58612120141982
 21
-1.31706075722343
 31
0.0
 11
28.52495227814984
 21
-1.378226896623402
 31
0.0
  0
SPLINE
  5
10E
330
2
100
AcDbEntity
  8
GAIKEI
  6
Continuous
 62
     1
100
AcDbSpline
210
0.0
220
0.0
230
1.0
 70
    24
 71
     3
 72
     9
 73
     5
 74
     3
 42
0.0000000001
 43
0.0000000001
 44
0.00000001
 40
0.0
 40
0.0
 40
0.0
 40
0.0
 40
0.0008676674971502
 40
0.0017353349941999
 40
0.0017353349941999
 40
0.0017353349941999
 40
0.0017353349941999
 10
28.52495227814984
 20
-1.378226896623402
 30
0.0
 10
28.52474775530314
 20
-1.378431396156713
 30
0.0
 10
28.52433870960982
 20
-1.378840395223448
 30
0.0
 10
28.52392966391645
 20
-1.379249394290127
 30
0.0
 10
28.5237251410698
 20
-1.379453893823438
 30
0.0
 11
28.52495227814984
 21
-1.378226896623402
 31
0.0
 11
28.52433870960977
 21
-1.378840395223392
 31
0.0
 11
28.5237251410698
 21
-1.379453893823438
 31
0.0
  0
SPLINE
  5
10F
330
2
100
AcDbEntity
  8
GAIKEI
  6
Continuous
 62
     1
100
AcDbSpline
210
0.0
220
0.0
230
1.0
 70
    24
 71
     3
 72
     9
 73
     5
 74
     3
 42
0.0000000001
 43
0.0000000001
 44
0.00000001
 40
0.0
 40
0.0
 40
0.0
 40
0.0
 40
0.0108570510491474
 40
0.0217141020982746
 40
0.0217141020982746
 40
0.0217141020982746
 40
0.0217141020982746
 10
28.5237251410698
 20
-1.379453893823438
 30
0.0
 10
28.52116594686979
 20
-1.382012762560123
 30
0.0
 10
28.51604755846978
 20
-1.387130500033435
 30
0.0
 10
28.51092917006976
 20
-1.392248237506748
 30
0.0
 10
28.50836997586976
 20
-1.394807106243433
 30
0.0
 11
28.5237251410698
 21
-1.379453893823438
 31
0.0
 11
28.51604755846978
 21
-1.387130500033435
 31
0.0
 11
28.50836997586976
 21
-1.394807106243433
 31
0.0
  0
SPLINE
  5
110
330
2
100
AcDbEntity
  8
GAIKEI
  6
Continuous
100
AcDbSpline
210
0.0
220
0.0
230
1.0
 70
    24
 71
     3
 72
     9
 73
     5
 74
     3
 42
0.0000000001
 43
0.0000000001
 44
0.00000001
 40
0.0
 40
0.0
 40
0.0
 40
0.0
 40
0.1166821605386424
 40
0.2333643210772446
 40
0.2333643210772446
 40
0.2333643210772446
 40
0.2333643210772446
 10
28.50836997586976
 20
-1.394807106243433
 30
0.0
 10
28.48086423431976
 20
-1.422305862223481
 30
0.0
 10
28.42585275121982
 20
-1.477303374183463
 30
0.0
 10
28.3708412681198
 20
-1.532300886143389
 30
0.0
 10
28.34333552656983
 20
-1.559799642123437
 30
0.0
 11
28.50836997586976
 21
-1.394807106243433
 31
0.0
 11
28.4258527512198
 21
-1.477303374183406
 31
0.0
 11
28.34333552656983
 21
-1.559799642123437
 31
0.0
  0
SPLINE
  5
111
330
2
100
AcDbEntity
  8
GAIKEI
  6
Continuous
100
AcDbSpline
210
0.0
220
0.0
230
1.0
 70
    24
 71
     3
 72
     9
 73
     5
 74
     3
 42
0.0000000001
 43
0.0000000001
 44
0.00000001
 40
0.0
 40
0.0
 40
0.0
 40
0.0
 40
0.0717745991831638
 40
0.1435491983665084
 40
0.1435491983665084
 40
0.1435491983665084
 40
0.1435491983665084
 10
28.34333552656983
 20
-1.559799642123437
 30
0.0
 10
28.32641502389319
 20
-1.576714009423369
 30
0.0
 10
28.29257401853977
 20
-1.610542744023405
 30
0.0
 10
28.25873301318646
 20
-1.644371478623384
 30
0.0
 10
28.24181251050976
 20
-1.66128584592343
 30
0.0
 11
28.34333552656983
 21
-1.559799642123437
 31
0.0
 11
28.29257401853983
 21
-1.610542744023405
 31
0.0
 11
28.24181251050976
 21
-1.66128584592343
 31
0.0
  0
SPLINE
  5
112
330
2
100
AcDbEntity
  8
GAIKEI
  6
Continuous
 62
     1
100
AcDbSpline
210
0.0
220
0.0
230
1.0
 70
     8
 71
     3
 72
     9
 73
     5
 74
     3
 42
0.0000000001
 43
0.0000000001
 44
0.00000001
 40
0.0
 40
0.0
 40
0.0
 40
0.0
 40
0.0351681811304734
 40
0.0703296612356889
 40
0.0703296612356889
 40
0.0703296612356889
 40
0.0703296612356889
 10
28.58801170206982
 20
-1.174950855263432
 30
0.0
 10
28.59622561012324
 20
-1.183328090770942
 30
0.0
 10
28.61265184637364
 20
-1.200080979030929
 30
0.0
 10
28.62717109579509
 20
-1.218511163343407
 30
0.0
 10
28.63443002118976
 20
-1.227725383943436
 30
0.0
 11
28.58801170206982
 21
-1.174950855263432
 31
0.0
 11
28.61217658141715
 21
-1.200501972568815
 31
0.0
 11
28.63443002118976
 21
-1.227725383943436
 31
0.0
  0
SPLINE
  5
113
330
2
100
AcDbEntity
  8
GAIKEI
  6
Continuous
 62
     1
100
AcDbSpline
210
0.0
220
0.0
230
1.0
 70
     8
 71
     3
 72
     9
 73
     5
 74
     3
 42
0.0000000001
 43
0.0000000001
 44
0.00000001
 40
0.0
 40
0.0
 40
0.0
 40
0.0
 40
0.0161420319589476
 40
0.0316998441813395
 40
0.0316998441813395
 40
0.0316998441813395
 40
0.0316998441813395
 10
28.63443002118976
 20
-1.227725383943436
 30
0.0
 10
28.63817709637074
 20
-1.231800282528183
 30
0.0
 10
28.64553561432354
 20
-1.23980260881234
 30
0.0
 10
28.64671252393094
 20
-1.25059692502441
 30
0.0
 10
28.64729012468979
 20
-1.2558946178234
 30
0.0
 11
28.63443002118976
 21
-1.227725383943436
 31
0.0
 11
28.64406834928218
 21
-1.240674047829202
 31
0.0
 11
28.64729012468979
 21
-1.2558946178234
 31
0.0
  0
SPLINE
  5
114
330
2
100
AcDbEntity
  8
GAIKEI
  6
Continuous
100
AcDbSpline
210
0.0
220
0.0
230
1.0
 70
     8
 71
     3
 72
     9
 73
     5
 74
     3
 42
0.0000000001
 43
0.0000000001
 44
0.00000001
 40
0.0
 40
0.0
 40
0.0
 40
0.0
 40
0.0326169855821593
 40
0.0652339711735437
 40
0.0652339711735437
 40
0.0652339711735437
 40
0.0652339711735437
 10
10.09344184146977
 20
15.49343461849662
 30
0.0
 10
10.08617013090088
 20
15.48535193620347
 30
0.0
 10
10.07162669489284
 20
15.46918658499163
 30
0.0
 10
10.05708246530079
 20
15.45302194777667
 30
0.0
 10
10.04981034306974
 20
15.4449396358566
 30
0.0
 11
10.09344184146977
 21
15.49343461849662
 31
0.0
 11
10.07162650393292
 21
15.46918675680467
 31
0.0
 11
10.04981034306974
 21
15.4449396358566
 31
0.0
  0
SPLINE
  5
115
330
2
100
AcDbEntity
  8
GAIKEI
  6
Continuous
100
AcDbSpline
210
0.0
220
0.0
230
1.0
 70
     8
 71
     3
 72
    17
 73
    13
 74
    11
 42
0.0000000001
 43
0.0000000001
 44
0.00000001
 40
0.0
 40
0.0
 40
0.0
 40
0.0
 40
0.087135895427924
 40
0.1742717908700058
 40
0.2299466943460493
 40
0.285621597824534
 40
0.3433663925633076
 40
0.4011111873018416
 40
0.4560976561083722
 40
0.5110841249120921
 40
0.5952338017648728
 40
0.6793834786038932
 40
0.6793834786038932
 40
0.6793834786038932
 40
0.6793834786038932
 10
10.04981034306974
 20
15.4449396358566
 30
0.0
 10
10.03038220900311
 20
15.42334850408059
 30
0.0
 10
9.991525929924705
 20
15.3801662503713
 30
0.0
 10
9.9402496211233
 20
15.32319438219156
 30
0.0
 10
9.895985531556206
 20
15.27402032912937
 30
0.0
 10
9.85827343919675
 20
15.23213003965856
 30
0.0
 10
9.820097227836782
 20
15.18972920678061
 30
0.0
 10
9.782072019590628
 20
15.14750120353545
 30
0.0
 10
9.744659645037913
 20
15.10595863386663
 30
0.0
 10
9.701354387133676
 20
15.05787828305443
 30
0.0
 10
9.651539684813073
 20
15.00257807446934
 30
0.0
 10
9.613987748947536
 20
14.96090028728292
 30
0.0
 10
9.595211775549785
 20
14.94006139861659
 30
0.0
 11
10.04981034306974
 21
15.4449396358566
 31
0.0
 11
9.991524696600265
 21
15.38016736024627
 31
0.0
 11
9.933233180829745
 21
15.31540036661658
 31
0.0
 11
9.895985130465078
 21
15.27402069019013
 31
0.0
 11
9.858734684629723
 21
15.23264317017663
 31
0.0
 11
9.820096804394268
 21
15.18972958805625
 31
0.0
 11
9.781456347269795
 21
15.14681832621653
 31
0.0
 11
9.744659254149723
 21
15.10595898591612
 31
0.0
 11
9.707859824849833
 21
15.06510174965655
 31
0.0
 11
9.651538536007365
 21
15.00257910945561
 31
0.0
 11
9.595211775549785
 21
14.94006139861659
 31
0.0
  0
SPLINE
  5
116
330
2
100
AcDbEntity
  8
GAIKEI
  6
Continuous
100
AcDbSpline
210
0.0
220
0.0
230
1.0
 70
     8
 71
     3
 72
     9
 73
     5
 74
     3
 42
0.0000000001
 43
0.0000000001
 44
0.00000001
 40
0.0
 40
0.0
 40
0.0
 40
0.0
 40
0.0282402250086896
 40
0.0564804500108893
 40
0.0564804500108893
 40
0.0564804500108893
 40
0.0564804500108893
 10
9.595211775549785
 20
14.94006139861659
 30
0.0
 10
9.588910422524776
 20
14.93306817285293
 30
0.0
 10
9.576307701618404
 20
14.91908173471518
 30
0.0
 10
9.563704394444712
 20
14.90509582486612
 30
0.0
 10
9.557402733429796
 20
14.89810287663658
 30
0.0
 11
9.595211775549785
 21
14.94006139861659
 31
0.0
 11
9.576307562478973
 21
14.91908186009158
 31
0.0
 11
9.557402733429796
 21
14.89810287663658
 31
0.0
  0
SPLINE
  5
117
330
2
100
AcDbEntity
  8
GAIKEI
  6
Continuous
100
AcDbSpline
210
0.0
220
0.0
230
1.0
 70
    24
 71
     3
 72
     9
 73
     5
 74
     3
 42
0.0000000001
 43
0.0000000001
 44
0.00000001
 40
0.0
 40
0.0
 40
0.0
 40
0.0
 40
0.0069839693149906
 40
0.0139679386300424
 40
0.0139679386300424
 40
0.0139679386300424
 40
0.0139679386300424
 10
9.557402733429796
 20
14.89810287663658
 30
0.0
 10
9.558961170519765
 20
14.89983227254657
 30
0.0
 10
9.562078044699831
 20
14.9032910643665
 30
0.0
 10
9.565194918879782
 20
14.90674985618659
 30
0.0
 10
9.566753355969808
 20
14.90847925209658
 30
0.0
 11
9.557402733429796
 21
14.89810287663658
 31
0.0
 11
9.562078044699774
 21
14.90329106436661
 31
0.0
 11
9.566753355969808
 21
14.90847925209658
 31
0.0
  0
SPLINE
  5
118
330
2
100
AcDbEntity
  8
GAIKEI
  6
Continuous
100
AcDbSpline
210
0.0
220
0.0
230
1.0
 70
     8
 71
     3
 72
     9
 73
     5
 74
     3
 42
0.0000000001
 43
0.0000000001
 44
0.00000001
 40
0.0
 40
0.0
 40
0.0
 40
0.0
 40
0.0212562556943311
 40
0.0425125113932494
 40
0.0425125113932494
 40
0.0425125113932494
 40
0.0425125113932494
 10
9.566753355969808
 20
14.90847925209658
 30
0.0
 10
9.571496513420001
 20
14.91374286432091
 30
0.0
 10
9.58098281346372
 20
14.9242701021592
 30
0.0
 10
9.59046879384671
 20
14.93479762804094
 30
0.0
 10
9.595211776609801
 20
14.94006139767657
 30
0.0
 11
9.566753355969808
 21
14.90847925209658
 31
0.0
 11
9.580982740976423
 21
14.92427016747479
 31
0.0
 11
9.595211776609801
 21
14.94006139767657
 31
0.0
  0
SPLINE
  5
119
330
2
100
AcDbEntity
  8
GAIKEI
  6
Continuous
100
AcDbSpline
210
0.0
220
0.0
230
1.0
 70
    24
 71
     3
 72
     9
 73
     5
 74
     3
 42
0.0000000001
 43
0.0000000001
 44
0.00000001
 40
0.0
 40
0.0
 40
0.0
 40
0.0
 40
0.0367807597613533
 40
0.0735615195226856
 40
0.0735615195226856
 40
0.0735615195226856
 40
0.0735615195226856
 10
27.62042922466981
 20
-2.220719879343391
 30
0.0
 10
27.62954296809314
 20
-2.212519056783435
 30
0.0
 10
27.64777045493983
 20
-2.196117411663408
 30
0.0
 10
27.66599794178649
 20
-2.179715766543381
 30
0.0
 10
27.6751116852098
 20
-2.171514943983424
 30
0.0
 11
27.62042922466981
 21
-2.220719879343391
 31
0.0
 11
27.64777045493981
 21
-2.196117411663408
 31
0.0
 11
27.6751116852098
 21
-2.171514943983424
 31
0.0
  0
SPLINE
  5
11A
330
2
100
AcDbEntity
  8
GAIKEI
  6
Continuous
100
AcDbSpline
210
0.0
220
0.0
230
1.0
 70
     8
 71
     3
 72
     9
 73
     5
 74
     3
 42
0.0000000001
 43
0.0000000001
 44
0.00000001
 40
0.0
 40
0.0
 40
0.0
 40
0.0
 40
0.0294848324817736
 40
0.0589696649563367
 40
0.0589696649563367
 40
0.0589696649563367
 40
0.0589696649563367
 10
27.6751116852098
 20
-2.171514943983424
 30
0.0
 10
27.68241790444019
 20
-2.164941193221238
 30
0.0
 10
27.69703035627614
 20
-2.151793706566422
 30
0.0
 10
27.71164338625361
 20
-2.138646862501104
 30
0.0
 10
27.71894990792981
 20
-2.132073447903394
 30
0.0
 11
27.6751116852098
 21
-2.171514943983424
 31
0.0
 11
27.69703049412488
 21
-2.151793859778138
 31
0.0
 11
27.71894990792981
 21
-2.132073447903394
 31
0.0
  0
SPLINE
  5
11B
330
2
100
AcDbEntity
  8
GAIKEI
  6
Continuous
100
AcDbSpline
210
0.0
220
0.0
230
1.0
 70
    24
 71
     3
 72
     9
 73
     5
 74
     3
 42
0.0000000001
 43
0.0000000001
 44
0.00000001
 40
0.0
 40
0.0
 40
0.0
 40
0.0
 40
0.0073084193739133
 40
0.014616838716575
 40
0.014616838716575
 40
0.014616838716575
 40
0.014616838716575
 10
27.71894990792981
 20
-2.132073447903394
 30
0.0
 10
27.71713883695465
 20
-2.133702803299172
 30
0.0
 10
27.71351669501003
 20
-2.136961514081463
 30
0.0
 10
27.70989455306128
 20
-2.140220224859149
 30
0.0
 10
27.70808348208976
 20
-2.141849580243388
 30
0.0
 11
27.71894990792981
 21
-2.132073447903394
 31
0.0
 11
27.71351669500229
 21
-2.136961514088397
 31
0.0
 11
27.70808348208976
 21
-2.141849580243388
 31
0.0
  0
SPLINE
  5
11C
330
2
100
AcDbEntity
  8
GAIKEI
  6
Continuous
100
AcDbSpline
210
0.0
220
0.0
230
1.0
 70
     8
 71
     3
 72
     9
 73
     5
 74
     3
 42
0.0000000001
 43
0.0000000001
 44
0.00000001
 40
0.0
 40
0.0
 40
0.0
 40
0.0
 40
0.0221764131167116
 40
0.0443528262388559
 40
0.0443528262388559
 40
0.0443528262388559
 40
0.0443528262388559
 10
27.70808348208976
 20
-2.141849580243388
 30
0.0
 10
27.70258809756461
 20
-2.146793713007411
 30
0.0
 10
27.69159734188989
 20
-2.156681993404617
 30
0.0
 10
27.68060690157791
 20
-2.16657062431409
 30
0.0
 10
27.67511168810978
 20
-2.171514947203434
 30
0.0
 11
27.70808348208976
 21
-2.141849580243388
 31
0.0
 11
27.69159741404343
 21
-2.156682073597494
 31
0.0
 11
27.67511168810978
 21
-2.171514947203434
 31
0.0
  0
SPLINE
  5
11D
330
2
100
AcDbEntity
  8
GAIKEI
  6
Continuous
 62
     1
100
AcDbSpline
210
0.0
220
0.0
230
1.0
 70
     8
 71
     3
 72
     9
 73
     5
 74
     3
 42
0.0000000001
 43
0.0000000001
 44
0.00000001
 40
0.0
 40
0.0
 40
0.0
 40
0.0
 40
0.0256591878954987
 40
0.0509476196559202
 40
0.0509476196559202
 40
0.0509476196559202
 40
0.0509476196559202
 10
28.61317240620986
 20
-1.075292007203415
 30
0.0
 10
28.61935533409937
 20
-1.081296483638482
 30
0.0
 10
28.63163183590855
 20
-1.093218688880881
 30
0.0
 10
28.63937145121611
 20
-1.108478861640151
 30
0.0
 10
28.64321308926981
 20
-1.116053427703434
 30
0.0
 11
28.61317240620986
 21
-1.075292007203415
 31
0.0
 11
28.63057039293898
 21
-1.094152124858567
 31
0.0
 11
28.64321308926981
 21
-1.116053427703434
 31
0.0
  0
SPLINE
  5
11E
330
2
100
AcDbEntity
  8
GAIKEI
  6
Continuous
 62
     1
100
AcDbSpline
210
0.0
220
0.0
230
1.0
 70
     8
 71
     3
 72
     9
 73
     5
 74
     3
 42
0.0000000001
 43
0.0000000001
 44
0.00000001
 40
0.0
 40
0.0
 40
0.0
 40
0.0
 40
0.0252880388905988
 40
0.0509504840634785
 40
0.0509504840634785
 40
0.0509504840634785
 40
0.0509504840634785
 10
11.10946186170974
 20
16.41769779985657
 30
0.0
 10
11.11703970241704
 20
16.41386165473221
 30
0.0
 10
11.13230756801265
 20
16.40613255122036
 30
0.0
 10
11.14422219707956
 20
16.39384569644568
 30
0.0
 10
11.15022328220976
 20
16.38765711679662
 30
0.0
 11
11.10946186170974
 21
16.41769779985657
 31
0.0
 11
11.13136934515091
 21
16.40506660290714
 31
0.0
 11
11.15022328220976
 21
16.38765711679662
 31
0.0
  0
SPLINE
  5
11F
330
2
100
AcDbEntity
  8
GAIKEI
  6
Continuous
 62
     1
100
AcDbSpline
210
0.0
220
0.0
230
1.0
 70
     8
 71
     3
 72
     9
 73
     5
 74
     3
 42
0.0000000001
 43
0.0000000001
 44
0.00000001
 40
0.0
 40
0.0
 40
0.0
 40
0.0
 40
0.0320097429365542
 40
0.0640194858730505
 40
0.0640194858730505
 40
0.0640194858730505
 40
0.0640194858730505
 10
28.64321308926981
 20
-1.116053427703434
 30
0.0
 10
28.63580292599018
 20
-1.123730442201178
 30
0.0
 10
28.62098259993054
 20
-1.139084471678927
 30
0.0
 10
28.60616227487019
 20
-1.154438502121138
 30
0.0
 10
28.59875211258981
 20
-1.162115517583401
 30
0.0
 11
28.64321308926981
 21
-1.116053427703434
 31
0.0
 11
28.62098259993053
 21
-1.139084471678927
 31
0.0
 11
28.59875211258981
 21
-1.162115517583401
 31
0.0
  0
SPLINE
  5
120
330
2
100
AcDbEntity
  8
GAIKEI
  6
Continuous
 62
     1
100
AcDbSpline
210
0.0
220
0.0
230
1.0
 70
    24
 71
     3
 72
     9
 73
     5
 74
     3
 42
0.0000000001
 43
0.0000000001
 44
0.00000001
 40
0.0
 40
0.0
 40
0.0
 40
0.0
 40
0.0083470806504464
 40
0.0166941613008716
 40
0.0166941613008716
 40
0.0166941613008716
 40
0.0166941613008716
 10
28.59875211258981
 20
-1.162115517583401
 30
0.0
 10
28.59681978781316
 20
-1.164117429003454
 30
0.0
 10
28.59295513825978
 20
-1.168121251843444
 30
0.0
 10
28.58909048870643
 20
-1.172125074683435
 30
0.0
 10
28.58715816392976
 20
-1.174126986103431
 30
0.0
 11
28.59875211258981
 21
-1.162115517583401
 31
0.0
 11
28.59295513825981
 21
-1.168121251843444
 31
0.0
 11
28.58715816392976
 21
-1.174126986103431
 31
0.0
  0
SPLINE
  5
121
330
2
100
AcDbEntity
  8
GAIKEI
  6
Continuous
 62
     1
100
AcDbSpline
210
0.0
220
0.0
230
1.0
 70
     8
 71
     3
 72
     9
 73
     5
 74
     3
 42
0.0000000001
 43
0.0000000001
 44
0.00000001
 40
0.0
 40
0.0
 40
0.0
 40
0.0
 40
0.040356823586768
 40
0.0807136471738022
 40
0.0807136471738022
 40
0.0807136471738022
 40
0.0807136471738022
 10
11.10946186170974
 20
16.41769779985657
 30
0.0
 10
11.09978293607494
 20
16.4083553115073
 30
0.0
 10
11.08042508403994
 20
16.38967033560141
 30
0.0
 10
11.06106723047497
 20
16.37098536128064
 30
0.0
 10
11.05138830330981
 20
16.36164287451663
 30
0.0
 11
11.10946186170974
 21
16.41769779985657
 31
0.0
 11
11.08042508404008
 21
16.38967033560124
 31
0.0
 11
11.05138830330981
 21
16.36164287451663
 31
0.0
  0
SPLINE
  5
122
330
2
100
AcDbEntity
  8
GAIKEI
  6
Continuous
100
AcDbSpline
210
0.0
220
0.0
230
1.0
 70
     8
 71
     3
 72
     9
 73
     5
 74
     3
 42
0.0000000001
 43
0.0000000001
 44
0.00000001
 40
0.0
 40
0.0
 40
0.0
 40
0.0
 40
0.0717757902590321
 40
0.1435515805069353
 40
0.1435515805069353
 40
0.1435515805069353
 40
0.1435515805069353
 10
10.66571733144985
 20
16.11782192183659
 30
0.0
 10
10.64880236869337
 20
16.10090145302627
 30
0.0
 10
10.61497245732769
 20
16.06706050126894
 30
0.0
 10
10.58114377671997
 20
16.03321831919959
 30
0.0
 10
10.5642294434898
 20
16.01629722109658
 30
0.0
 11
10.66571733144985
 21
16.11782192183659
 31
0.0
 11
10.61497275794221
 21
16.06706020075808
 31
0.0
 11
10.5642294434898
 21
16.01629722109658
 31
0.0
  0
SPLINE
  5
123
330
2
100
AcDbEntity
  8
GAIKEI
  6
Continuous
100
AcDbSpline
210
0.0
220
0.0
230
1.0
 70
    24
 71
     3
 72
     9
 73
     5
 74
     3
 42
0.0000000001
 43
0.0000000001
 44
0.00000001
 40
0.0
 40
0.0
 40
0.0
 40
0.0
 40
0.0896228237502227
 40
0.1792456475003448
 40
0.1792456475003448
 40
0.1792456475003448
 40
0.1792456475003448
 10
10.79244725606975
 20
16.24458362091661
 30
0.0
 10
10.77132560196642
 20
16.22345667106992
 30
0.0
 10
10.72908229375983
 20
16.18120277137655
 30
0.0
 10
10.68683898555313
 20
16.13894887168322
 30
0.0
 10
10.66571733144985
 20
16.11782192183659
 30
0.0
 11
10.79244725606975
 21
16.24458362091661
 31
0.0
 11
10.7290822937598
 21
16.1812027713766
 31
0.0
 11
10.66571733144985
 21
16.11782192183659
 31
0.0
  0
SPLINE
  5
124
330
2
100
AcDbEntity
  8
GAIKEI
  6
Continuous
100
AcDbSpline
210
0.0
220
0.0
230
1.0
 70
    24
 71
     3
 72
     9
 73
     5
 74
     3
 42
0.0000000001
 43
0.0000000001
 44
0.00000001
 40
0.0
 40
0.0
 40
0.0
 40
0.0
 40
0.0270598518534977
 40
0.0541197037070557
 40
0.0541197037070557
 40
0.0541197037070557
 40
0.0541197037070557
 10
10.8307123106498
 20
16.2828553850166
 30
0.0
 10
10.82433480155316
 20
16.27647675766661
 30
0.0
 10
10.81157978335984
 20
16.26371950296652
 30
0.0
 10
10.79882476516646
 20
16.25096224826654
 30
0.0
 10
10.79244725606975
 20
16.24458362091661
 30
0.0
 11
10.8307123106498
 21
16.2828553850166
 31
0.0
 11
10.81157978335983
 21
16.26371950296658
 31
0.0
 11
10.79244725606975
 21
16.24458362091661
 31
0.0
  0
SPLINE
  5
125
330
2
100
AcDbEntity
  8
GAIKEI
  6
Continuous
100
AcDbSpline
210
0.0
220
0.0
230
1.0
 70
    24
 71
     3
 72
     9
 73
     5
 74
     3
 42
0.0000000001
 43
0.0000000001
 44
0.00000001
 40
0.0
 40
0.0
 40
0.0
 40
0.0
 40
0.0108554873175124
 40
0.021710974635065
 40
0.021710974635065
 40
0.021710974635065
 40
0.021710974635065
 10
10.8460631708898
 20
16.29820847947655
 30
0.0
 10
10.84350469418314
 20
16.29564963039991
 30
0.0
 10
10.83838774076977
 20
16.29053193224661
 30
0.0
 10
10.83327078735647
 20
16.28541423409325
 30
0.0
 10
10.8307123106498
 20
16.2828553850166
 30
0.0
 11
10.8460631708898
 21
16.29820847947655
 31
0.0
 11
10.8383877407698
 21
16.29053193224661
 31
0.0
 11
10.8307123106498
 21
16.2828553850166
 31
0.0
  0
SPLINE
  5
126
330
2
100
AcDbEntity
  8
GAIKEI
  6
Continuous
100
AcDbSpline
210
0.0
220
0.0
230
1.0
 70
    24
 71
     3
 72
     9
 73
     5
 74
     3
 42
0.0000000001
 43
0.0000000001
 44
0.00000001
 40
0.0
 40
0.0
 40
0.0
 40
0.0
 40
0.0008692316673868
 40
0.0017384633347335
 40
0.0017384633347335
 40
0.0017384633347335
 40
0.0017384633347335
 10
10.84729236632972
 20
16.2994378424566
 30
0.0
 10
10.84708750042306
 20
16.29923294862658
 30
0.0
 10
10.84667776860979
 20
16.29882316096655
 30
0.0
 10
10.84626803679643
 20
16.29841337330651
 30
0.0
 10
10.8460631708898
 20
16.29820847947655
 30
0.0
 11
10.84729236632972
 21
16.2994378424566
 31
0.0
 11
10.84667776860976
 21
16.2988231609666
 31
0.0
 11
10.8460631708898
 21
16.29820847947655
 31
0.0
  0
SPLINE
  5
127
330
2
100
AcDbEntity
  8
GAIKEI
  6
Continuous
100
AcDbSpline
210
0.0
220
0.0
230
1.0
 70
    24
 71
     3
 72
     9
 73
     5
 74
     3
 42
0.0000000001
 43
0.0000000001
 44
0.00000001
 40
0.0
 40
0.0
 40
0.0
 40
0.0
 40
0.0865022457582562
 40
0.1730044915166129
 40
0.1730044915166129
 40
0.1730044915166129
 40
0.1730044915166129
 10
10.96962067160973
 20
16.4217748352766
 30
0.0
 10
10.94923262072974
 20
16.40138533647331
 30
0.0
 10
10.90845651896967
 20
16.36060633886666
 30
0.0
 10
10.86768041720975
 20
16.31982734125995
 30
0.0
 10
10.84729236632972
 20
16.2994378424566
 30
0.0
 11
10.96962067160973
 21
16.4217748352766
 31
0.0
 11
10.90845651896973
 21
16.3606063388666
 31
0.0
 11
10.84729236632972
 21
16.2994378424566
 31
0.0
  0
SPLINE
  5
128
330
2
100
AcDbEntity
  8
GAIKEI
  6
Continuous
 62
     1
100
AcDbSpline
210
0.0
220
0.0
230
1.0
 70
    24
 71
     3
 72
     9
 73
     5
 74
     3
 42
0.0000000001
 43
0.0000000001
 44
0.00000001
 40
0.0
 40
0.0
 40
0.0
 40
0.0
 40
0.0126394149251634
 40
0.0252788298503688
 40
0.0252788298503688
 40
0.0252788298503688
 40
0.0252788298503688
 10
27.1569701707898
 20
-1.845604554363433
 30
0.0
 10
27.15413644665313
 20
-1.8424867760001
 30
0.0
 10
27.14846899837981
 20
-1.836251219273378
 30
0.0
 10
27.14280155010646
 20
-1.830015662546713
 30
0.0
 10
27.13996782596979
 20
-1.826897884183381
 30
0.0
 11
27.1569701707898
 21
-1.845604554363433
 31
0.0
 11
27.14846899837977
 21
-1.836251219273435
 31
0.0
 11
27.13996782596979
 21
-1.826897884183381
 31
0.0
  0
SPLINE
  5
129
330
2
100
AcDbEntity
  8
GAIKEI
  6
Continuous
 62
     1
100
AcDbSpline
210
0.0
220
0.0
230
1.0
 70
     8
 71
     3
 72
     9
 73
     5
 74
     3
 42
0.0000000001
 43
0.0000000001
 44
0.00000001
 40
0.0
 40
0.0
 40
0.0
 40
0.0
 40
0.3583007331058118
 40
0.7166014829005804
 40
0.7166014829005804
 40
0.7166014829005804
 40
0.7166014829005804
 10
10.10145739856977
 20
15.46451934809659
 30
0.0
 10
10.18189422178263
 20
15.55280471408275
 30
0.0
 10
10.3427678571614
 20
15.72937546362652
 30
0.0
 10
10.50326706149538
 20
15.9062866321903
 30
0.0
 10
10.58351665812978
 20
15.99474222525657
 30
0.0
 11
10.10145739856977
 21
15.46451934809659
 31
0.0
 11
10.34267425305711
 21
15.72946055753834
 31
0.0
 11
10.58351665812978
 21
15.99474222525657
 31
0.0
  0
SPLINE
  5
12A
330
2
100
AcDbEntity
  8
GAIKEI
  6
Continuous
 62
     1
100
AcDbSpline
210
0.0
220
0.0
230
1.0
 70
    24
 71
     3
 72
     9
 73
     5
 74
     3
 42
0.0000000001
 43
0.0000000001
 44
0.00000001
 40
0.0
 40
0.0
 40
0.0
 40
0.0
 40
0.0514571851202015
 40
0.1029143702403569
 40
0.1029143702403569
 40
0.1029143702403569
 40
0.1029143702403569
 10
10.58351665812978
 20
15.99474222525657
 30
0.0
 10
10.59503610903313
 20
16.00745076201326
 30
0.0
 10
10.61807501083974
 20
16.03286783552664
 30
0.0
 10
10.6411139126465
 20
16.05828490903997
 30
0.0
 10
10.65263336354985
 20
16.0709934457966
 30
0.0
 11
10.58351665812978
 21
15.99474222525657
 31
0.0
 11
10.61807501083979
 21
16.03286783552659
 31
0.0
 11
10.65263336354985
 21
16.0709934457966
 31
0.0
  0
SPLINE
  5
12B
330
2
100
AcDbEntity
  8
GAIKEI
  6
Continuous
 62
     1
100
AcDbSpline
210
0.0
220
0.0
230
1.0
 70
    24
 71
     3
 72
     9
 73
     5
 74
     3
 42
0.0000000001
 43
0.0000000001
 44
0.00000001
 40
0.0
 40
0.0
 40
0.0
 40
0.0
 40
0.1489043050261926
 40
0.2978086100524084
 40
0.2978086100524084
 40
0.2978086100524084
 40
0.2978086100524084
 10
10.65263336354985
 20
16.0709934457966
 30
0.0
 10
10.68594449075985
 20
16.10778989986988
 30
0.0
 10
10.75256674517986
 20
16.18138280801662
 30
0.0
 10
10.81918899959982
 20
16.25497571616324
 30
0.0
 10
10.85250012680978
 20
16.29177217023658
 30
0.0
 11
10.65263336354985
 21
16.0709934457966
 31
0.0
 11
10.75256674517982
 21
16.18138280801656
 31
0.0
 11
10.85250012680978
 21
16.29177217023658
 31
0.0
  0
SPLINE
  5
12C
330
2
100
AcDbEntity
  8
GAIKEI
  6
Continuous
 62
     1
100
AcDbSpline
210
0.0
220
0.0
230
1.0
 70
    24
 71
     3
 72
     9
 73
     5
 74
     3
 42
0.0000000001
 43
0.0000000001
 44
0.00000001
 40
0.0
 40
0.0
 40
0.0
 40
0.0
 40
0.0042324475992572
 40
0.0084648951984129
 40
0.0084648951984129
 40
0.0084648951984129
 40
0.0084648951984129
 10
28.61317240620986
 20
-1.075292007203415
 30
0.0
 10
28.61219260679317
 20
-1.076307090703437
 30
0.0
 10
28.61023300795988
 20
-1.078337257703424
 30
0.0
 10
28.60827340912646
 20
-1.080367424703467
 30
0.0
 10
28.60729360970982
 20
-1.081382508203432
 30
0.0
 11
28.61317240620986
 21
-1.075292007203415
 31
0.0
 11
28.61023300795983
 21
-1.078337257703424
 31
0.0
 11
28.60729360970982
 21
-1.081382508203432
 31
0.0
  0
SPLINE
  5
12D
330
2
100
AcDbEntity
  8
GAIKEI
  6
Continuous
 62
     1
100
AcDbSpline
210
0.0
220
0.0
230
1.0
 70
     8
 71
     3
 72
    10
 73
     6
 74
     0
 42
0.0000000001
 43
0.0000000001
 40
1.132813565511657
 40
1.132813565511657
 40
1.132813565511657
 40
1.132813565511657
 40
1.452785936061183
 40
2.409859778676703
 40
3.154113839899423
 40
3.154113839899423
 40
3.154113839899423
 40
3.154113839899423
 10
9.421645290954472
 20
14.74732896205222
 30
0.0
 10
9.426284929104411
 20
14.75222042891676
 30
0.0
 10
9.463345125880607
 20
14.79129267594317
 30
0.0
 10
9.503925251108853
 20
14.83407743412044
 30
0.0
 10
9.54378084439412
 20
14.87610304206731
 30
0.0
 10
9.561215865049803
 20
14.89448734605656
 30
0.0
  0
SPLINE
  5
12E
330
2
100
AcDbEntity
  8
GAIKEI
  6
Continuous
 62
     1
100
AcDbSpline
210
0.0
220
0.0
230
1.0
 70
     8
 71
     3
 72
    23
 73
    19
 74
    17
 42
0.0000000001
 43
0.0000000001
 44
0.00000001
 40
0.0
 40
0.0
 40
0.0
 40
0.0
 40
0.1605740443961647
 40
0.284749994008689
 40
0.383459826000629
 40
0.4676355069881057
 40
0.5482090037705476
 40
0.6361122844370039
 40
0.7422773183319197
 40
0.8776360750166013
 40
0.9291042317879856
 40
0.9707422350538349
 40
0.9881920068536169
 40
1.007895150464553
 40
1.056166983859176
 40
1.114869996386872
 40
1.165866677409501
 40
1.191019506383164
 40
1.191019506383164
 40
1.191019506383164
 40
1.191019506383164
 10
10.10145739856977
 20
15.46451934809659
 30
0.0
 10
10.0646389986197
 20
15.4256695156381
 30
0.0
 10
9.999348003394771
 20
15.35677613003065
 30
0.0
 10
9.911432031697813
 20
15.26399460780288
 30
0.0
 10
9.841032656385095
 20
15.18969178375613
 30
0.0
 10
9.780638863799893
 20
15.12594901217557
 30
0.0
 10
9.722686074976067
 20
15.06479335771769
 30
0.0
 10
9.659810931775609
 20
14.99846327931078
 30
0.0
 10
9.583728766460566
 20
14.91822398134985
 30
0.0
 10
9.518530902392399
 20
14.8494775992653
 30
0.0
 10
9.462700261954509
 20
14.79061329468243
 30
0.0
 10
9.443471003952026
 20
14.77033938797751
 30
0.0
 10
9.414686658206846
 20
14.73999211456976
 30
0.0
 10
9.44736941428917
 20
14.77445003851028
 30
0.0
 10
9.468317452943921
 20
14.79653591334545
 30
0.0
 10
9.507678074763191
 20
14.8380356962956
 30
0.0
 10
9.537916465520297
 20
14.86991640704951
 30
0.0
 10
9.555430748752783
 20
14.88838651330826
 30
0.0
 10
9.561215865049803
 20
14.89448734605656
 30
0.0
 11
10.10145739856977
 21
15.46451934809659
 31
0.0
 11
9.991004196918936
 21
15.34796845463222
 31
0.0
 11
9.905593574039528
 21
15.25783138145186
 31
0.0
 11
9.837702253904922
 21
15.18617665667909
 31
0.0
 11
9.779806960488429
 21
15.12507280843761
 31
0.0
 11
9.724384417763303
 21
15.06658836485098
 31
0.0
 11
9.663911349702971
 21
15.00279185404287
 31
0.0
 11
9.590864480280686
 21
14.92575180413689
 31
0.0
 11
9.497720533469816
 21
14.82753674325659
 31
0.0
 11
9.462302141170312
 21
14.79019359519583
 31
0.0
 11
9.433648116103029
 21
14.75998316382834
 31
0.0
 11
9.421639575949825
 21
14.74732261489657
 31
0.0
 11
9.435198668638065
 21
14.76161823917903
 31
0.0
 11
9.468417828329165
 21
14.79664190730068
 31
0.0
 11
9.508815070586194
 21
14.83923423639703
 31
0.0
 11
9.543908410972107
 21
14.87623584360381
 31
0.0
 11
9.561215865049803
 21
14.89448734605656
 31
0.0
  0
SPLINE
  5
12F
330
2
100
AcDbEntity
  8
GAIKEI
  6
Continuous
 62
     1
100
AcDbSpline
210
0.0
220
0.0
230
1.0
 70
    24
 71
     3
 72
     9
 73
     5
 74
     3
 42
0.0000000001
 43
0.0000000001
 44
0.00000001
 40
0.0
 40
0.0
 40
0.0
 40
0.0
 40
0.1489043050262568
 40
0.2978086100525308
 40
0.2978086100525308
 40
0.2978086100525308
 40
0.2978086100525308
 10
28.51728745964988
 20
-1.373015162603394
 30
0.0
 10
28.48049100557654
 20
-1.406326289813364
 30
0.0
 10
28.40689809742982
 20
-1.472948544233247
 30
0.0
 10
28.33330518928315
 20
-1.539570798653357
 30
0.0
 10
28.29650873520979
 20
-1.572881925863384
 30
0.0
 11
28.51728745964988
 21
-1.373015162603394
 31
0.0
 11
28.4068980974298
 21
-1.472948544233418
 31
0.0
 11
28.29650873520979
 21
-1.572881925863384
 31
0.0
  0
SPLINE
  5
130
330
2
100
AcDbEntity
  8
GAIKEI
  6
Continuous
 62
     1
100
AcDbSpline
210
0.0
220
0.0
230
1.0
 70
    24
 71
     3
 72
     9
 73
     5
 74
     3
 42
0.0000000001
 43
0.0000000001
 44
0.00000001
 40
0.0
 40
0.0
 40
0.0
 40
0.0
 40
0.0499417527835317
 40
0.0998835055670042
 40
0.0998835055670042
 40
0.0998835055670042
 40
0.0998835055670042
 10
28.29650873520979
 20
-1.572881925863384
 30
0.0
 10
28.28417441394312
 20
-1.584062063713474
 30
0.0
 10
28.25950577140981
 20
-1.60642233941337
 30
0.0
 10
28.23483712887649
 20
-1.628782615113379
 30
0.0
 10
28.22250280760983
 20
-1.639962752963413
 30
0.0
 11
28.29650873520979
 21
-1.572881925863384
 31
0.0
 11
28.25950577140981
 21
-1.606422339413427
 31
0.0
 11
28.22250280760983
 21
-1.639962752963413
 31
0.0
  0
SPLINE
  5
131
330
2
100
AcDbEntity
  8
GAIKEI
  6
Continuous
 62
     1
100
AcDbSpline
210
0.0
220
0.0
230
1.0
 70
     8
 71
     3
 72
     9
 73
     5
 74
     3
 42
0.0000000001
 43
0.0000000001
 44
0.00000001
 40
0.0
 40
0.0
 40
0.0
 40
0.0
 40
0.359816182686989
 40
0.7196323470366421
 40
0.7196323470366421
 40
0.7196323470366421
 40
0.7196323470366421
 10
28.22250280760983
 20
-1.639962752963413
 30
0.0
 10
28.13367231938845
 20
-1.72055091442337
 30
0.0
 10
27.95601136092151
 20
-1.881727248039339
 30
0.0
 10
27.77869353932117
 20
-2.043281006349786
 30
0.0
 10
27.69003463750977
 20
-2.124057890843403
 30
0.0
 11
28.22250280760983
 21
-1.639962752963413
 31
0.0
 11
27.95609713388848
 21
-1.881821600925604
 31
0.0
 11
27.69003463750977
 21
-2.124057890843403
 31
0.0
  0
SPLINE
  5
132
330
2
100
AcDbEntity
  8
GAIKEI
  6
Continuous
 62
     1
100
AcDbSpline
210
0.0
220
0.0
230
1.0
 70
     8
 71
     3
 72
     9
 73
     5
 74
     3
 42
0.0000000001
 43
0.0000000001
 44
0.00000001
 40
0.0
 40
0.0
 40
0.0
 40
0.0
 40
0.0511653670755768
 40
0.1040998945296179
 40
0.1040998945296179
 40
0.1040998945296179
 40
0.1040998945296179
 10
10.85250012680978
 20
16.29177217023658
 30
0.0
 10
10.85742006394859
 20
16.27505048127693
 30
0.0
 10
10.86743007367583
 20
16.24102892120169
 30
0.0
 10
10.89416736431873
 20
16.21768336775108
 30
0.0
 10
10.90776321530973
 20
16.2058122201766
 30
0.0
 11
10.85250012680978
 21
16.29177217023658
 31
0.0
 11
10.87130083616057
 21
16.24418616062292
 31
0.0
 11
10.90776321530973
 21
16.2058122201766
 31
0.0
  0
SPLINE
  5
133
330
2
100
AcDbEntity
  8
GAIKEI
  6
Continuous
 62
     1
100
AcDbSpline
210
0.0
220
0.0
230
1.0
 70
     8
 71
     3
 72
     9
 73
     5
 74
     3
 42
0.0000000001
 43
0.0000000001
 44
0.00000001
 40
0.0
 40
0.0
 40
0.0
 40
0.0
 40
0.0724492803545841
 40
0.1451877960118848
 40
0.1451877960118848
 40
0.1451877960118848
 40
0.1451877960118848
 10
10.10145739856977
 20
15.46451934809659
 30
0.0
 10
10.08917889661927
 20
15.44147105233247
 30
0.0
 10
10.06457289135279
 20
15.39528244372371
 30
0.0
 10
10.09341477474277
 20
15.35159159871995
 30
0.0
 10
10.10786445362981
 20
15.32970265905658
 30
0.0
 11
10.10145739856977
 21
15.46451934809659
 31
0.0
 11
10.07793068731269
 21
15.39599641313816
 31
0.0
 11
10.10786445362981
 21
15.32970265905658
 31
0.0
  0
SPLINE
  5
134
330
2
100
AcDbEntity
  8
GAIKEI
  6
Continuous
 62
     1
100
AcDbSpline
210
0.0
220
0.0
230
1.0
 70
     8
 71
     3
 72
     9
 73
     5
 74
     3
 42
0.0000000001
 43
0.0000000001
 44
0.00000001
 40
0.0
 40
0.0
 40
0.0
 40
0.0
 40
0.0724492796970999
 40
0.1451877958750168
 40
0.1451877958750168
 40
0.1451877958750168
 40
0.1451877958750168
 10
27.69003463750977
 20
-2.124057890843403
 30
0.0
 10
27.6669863419786
 20
-2.136336392639691
 30
0.0
 10
27.62079773346096
 20
-2.160942397797498
 30
0.0
 10
27.57710688835949
 20
-2.132100514660749
 30
0.0
 10
27.55521794846982
 20
-2.117650835783422
 30
0.0
 11
27.69003463750977
 21
-2.124057890843403
 31
0.0
 11
27.62151170319299
 21
-2.147584601944686
 31
0.0
 11
27.55521794846982
 21
-2.117650835783422
 31
0.0
  0
SPLINE
  5
135
330
2
100
AcDbEntity
  8
GAIKEI
  6
Continuous
 62
     1
100
AcDbSpline
210
0.0
220
0.0
230
1.0
 70
     8
 71
     3
 72
     9
 73
     5
 74
     3
 42
0.0000000001
 43
0.0000000001
 44
0.00000001
 40
0.0
 40
0.0
 40
0.0
 40
0.0
 40
0.051165363778857
 40
0.1040998810844673
 40
0.1040998810844673
 40
0.1040998810844673
 40
0.1040998810844673
 10
28.51728745964988
 20
-1.373015162603394
 30
0.0
 10
28.5005657788534
 20
-1.368095210440571
 30
0.0
 10
28.46654423758875
 20
-1.358085170793458
 30
0.0
 10
28.4431986662286
 20
-1.331347908969462
 30
0.0
 10
28.4313275102898
 20
-1.317752073483404
 30
0.0
 11
28.51728745964988
 21
-1.373015162603394
 31
0.0
 11
28.46970146598892
 21
-1.354214421847018
 31
0.0
 11
28.4313275102898
 21
-1.317752073483404
 31
0.0
  0
SPLINE
  5
136
330
2
100
AcDbEntity
  8
GAIKEI
  6
Continuous
100
AcDbSpline
210
0.0
220
0.0
230
1.0
 70
     8
 71
     3
 72
     9
 73
     5
 74
     3
 42
0.0000000001
 43
0.0000000001
 44
0.00000001
 40
0.0
 40
0.0
 40
0.0
 40
0.0
 40
2.721412639736347
 40
5.442825271813524
 40
5.442825271813524
 40
5.442825271813524
 40
5.442825271813524
 10
15.09170750484981
 20
20.12904019545658
 30
0.0
 10
14.41645966306916
 20
19.52328536394009
 30
0.0
 10
13.06596399476638
 20
18.3117756877271
 30
0.0
 10
11.71614201593519
 20
17.09951545529895
 30
0.0
 10
11.04123103414974
 20
16.49338533249659
 30
0.0
 11
15.09170750484981
 21
20.12904019545658
 31
0.0
 11
13.06613240855461
 21
18.31158805440981
 31
0.0
 11
11.04123103414974
 21
16.49338533249659
 31
0.0
  0
SPLINE
  5
137
330
2
100
AcDbEntity
  8
GAIKEI
  6
Continuous
100
AcDbSpline
210
0.0
220
0.0
230
1.0
 70
     8
 71
     3
 72
    11
 73
     7
 74
     5
 42
0.0000000001
 43
0.0000000001
 44
0.00000001
 40
0.0
 40
0.0
 40
0.0
 40
0.0
 40
1.964385234152446
 40
3.928770470434379
 40
6.068338715395833
 40
8.207906961556407
 40
8.207906961556407
 40
8.207906961556407
 40
8.207906961556407
 10
21.20366723674977
 20
25.60751476737659
 30
0.0
 10
20.71616188955291
 20
25.17037046431994
 30
0.0
 10
19.74115117989319
 20
24.29608187417353
 30
0.0
 10
18.23458176074059
 20
22.94630934476402
 30
0.0
 10
16.6846081314376
 20
21.55747289200247
 30
0.0
 10
15.62267437784806
 20
20.60518443066053
 30
0.0
 10
15.09170750484981
 20
20.12904019545658
 30
0.0
 11
21.20366723674977
 21
25.60751476737659
 31
0.0
 11
19.74105766033494
 21
24.29618621390881
 31
0.0
 11
18.27808719824975
 21
22.98526028785659
 31
0.0
 11
16.68470191242659
 21
21.55736827311057
 31
0.0
 11
15.09170750484981
 21
20.12904019545658
 31
0.0
  0
SPLINE
  5
138
330
2
100
AcDbEntity
  8
GAIKEI
  6
Continuous
100
AcDbSpline
210
0.0
220
0.0
230
1.0
 70
     8
 71
     3
 72
     9
 73
     5
 74
     3
 42
0.0000000001
 43
0.0000000001
 44
0.00000001
 40
0.0
 40
0.0
 40
0.0
 40
0.0
 40
2.7214126320772
 40
5.442825271813516
 40
5.442825271813516
 40
5.442825271813516
 40
5.442825271813516
 10
28.71890062190977
 20
-1.184284255283387
 30
0.0
 10
29.32503074470761
 20
-0.5093732734937931
 30
0.0
 10
30.53729097712656
 20
0.8404487053454658
 30
0.0
 10
31.7488006533488
 20
2.190944373640093
 30
0.0
 10
32.35455548486982
 20
2.866192215416617
 30
0.0
 11
28.71890062190977
 21
-1.184284255283387
 31
0.0
 11
30.5371033438139
 21
0.8406171191296607
 31
0.0
 11
32.35455548486982
 21
2.866192215416617
 31
0.0
  0
SPLINE
  5
139
330
2
100
AcDbEntity
  8
GAIKEI
  6
Continuous
100
AcDbSpline
210
0.0
220
0.0
230
1.0
 70
     8
 71
     3
 72
    11
 73
     7
 74
     5
 42
0.0000000001
 43
0.0000000001
 44
0.00000001
 40
0.0
 40
0.0
 40
0.0
 40
0.0
 40
2.139568246104091
 40
4.279136491009043
 40
6.243521727361567
 40
8.207906961584663
 40
8.207906961584663
 40
8.207906961584663
 40
8.207906961584663
 10
32.35455548486982
 20
2.866192215416617
 30
0.0
 10
32.83069972005791
 20
3.397159088403839
 30
0.0
 10
33.78298818136811
 20
4.459092841971255
 30
0.0
 10
35.17182463412979
 20
6.009066471255096
 30
0.0
 10
36.52159716354252
 20
7.515635890442865
 30
0.0
 10
37.39588575373171
 20
8.490646600127377
 30
0.0
 10
37.83303005680983
 20
8.978151947336584
 30
0.0
 11
32.35455548486982
 21
2.866192215416617
 31
0.0
 11
33.78288356247947
 21
4.459186622957304
 31
0.0
 11
35.21077557718974
 21
6.052571908736581
 31
0.0
 11
36.52170150328311
 21
7.5155423708797
 31
0.0
 11
37.83303005680983
 21
8.978151947336584
 31
0.0
  0
SPLINE
  5
13A
330
2
100
AcDbEntity
  8
GAIKEI
  6
Continuous
100
AcDbSpline
210
0.0
220
0.0
230
1.0
 70
    24
 71
     3
 72
     9
 73
     5
 74
     3
 42
0.0000000001
 43
0.0000000001
 44
0.00000001
 40
0.0
 40
0.0
 40
0.0
 40
0.0
 40
0.0051327246060584
 40
0.0102654492122204
 40
0.0102654492122204
 40
0.0102654492122204
 40
0.0102654492122204
 10
37.82942649630979
 20
9.115775466436616
 30
0.0
 10
37.83057059484978
 20
9.114503363686594
 30
0.0
 10
37.83285879192985
 20
9.111959158186721
 30
0.0
 10
37.83514698900979
 20
9.109414952686677
 30
0.0
 10
37.8362910875498
 20
9.108142849936598
 30
0.0
 11
37.82942649630979
 21
9.115775466436616
 31
0.0
 11
37.83285879192977
 21
9.111959158186607
 31
0.0
 11
37.8362910875498
 21
9.108142849936598
 31
0.0
  0
SPLINE
  5
13B
330
2
100
AcDbEntity
  8
GAIKEI
  6
Continuous
100
AcDbSpline
210
0.0
220
0.0
230
1.0
 70
     8
 71
     3
 72
     9
 73
     5
 74
     3
 42
0.0000000001
 43
0.0000000001
 44
0.00000001
 40
0.0
 40
0.0
 40
0.0
 40
0.0
 40
0.0448303517279152
 40
0.0901700961244808
 40
0.0901700961244808
 40
0.0901700961244808
 40
0.0901700961244808
 10
37.8362910875498
 20
9.108142849936598
 30
0.0
 10
37.84451414750912
 20
9.095112660335473
 30
0.0
 10
37.8610536853941
 20
9.068904216857561
 30
0.0
 10
37.85779245913172
 20
9.038072710711503
 30
0.0
 10
37.85615262472976
 20
9.022569869216567
 30
0.0
 11
37.8362910875498
 21
9.108142849936598
 31
0.0
 11
37.85606583991933
 21
9.067909532810631
 31
0.0
 11
37.85615262472976
 21
9.022569869216567
 31
0.0
  0
SPLINE
  5
13C
330
2
100
AcDbEntity
  8
GAIKEI
  6
Continuous
100
AcDbSpline
210
0.0
220
0.0
230
1.0
 70
    24
 71
     3
 72
     9
 73
     5
 74
     3
 42
0.0000000001
 43
0.0000000001
 44
0.00000001
 40
0.0
 40
0.0
 40
0.0
 40
0.0
 40
0.0250379957831741
 40
0.0500759915662978
 40
0.0500759915662978
 40
0.0500759915662978
 40
0.0500759915662978
 10
37.85615262472976
 20
9.022569869216567
 30
0.0
 10
37.85229886340976
 20
9.015166882236599
 30
0.0
 10
37.84459134076984
 20
9.000360908276547
 30
0.0
 10
37.83688381812979
 20
8.985554934316553
 30
0.0
 10
37.83303005680983
 20
8.978151947336584
 30
0.0
 11
37.85615262472976
 21
9.022569869216567
 31
0.0
 11
37.8445913407698
 21
9.000360908276604
 31
0.0
 11
37.83303005680983
 21
8.978151947336584
 31
0.0
  0
SPLINE
  5
13D
330
2
100
AcDbEntity
  8
GAIKEI
  6
Continuous
100
AcDbSpline
210
0.0
220
0.0
230
1.0
 70
    24
 71
     3
 72
     9
 73
     5
 74
     3
 42
0.0000000001
 43
0.0000000001
 44
0.00000001
 40
0.0
 40
0.0
 40
0.0
 40
0.0
 40
0.0051327278945343
 40
0.0102654557890306
 40
0.0102654557890306
 40
0.0102654557890306
 40
0.0102654557890306
 10
21.3412907558498
 20
25.60391120689656
 30
0.0
 10
21.34001865224312
 20
25.60505530612323
 30
0.0
 10
21.33747444502981
 20
25.60734350457654
 30
0.0
 10
21.33493023781645
 20
25.60963170302989
 30
0.0
 10
21.33365813420977
 20
25.61077580225657
 30
0.0
 11
21.3412907558498
 21
25.60391120689656
 31
0.0
 11
21.33747444502978
 21
25.60734350457659
 31
0.0
 11
21.33365813420977
 21
25.61077580225657
 31
0.0
  0
SPLINE
  5
13E
330
2
100
AcDbEntity
  8
GAIKEI
  6
Continuous
100
AcDbSpline
210
0.0
220
0.0
230
1.0
 70
     8
 71
     3
 72
     9
 73
     5
 74
     3
 42
0.0000000001
 43
0.0000000001
 44
0.00000001
 40
0.0
 40
0.0
 40
0.0
 40
0.0
 40
0.0448303652788432
 40
0.0901701221244438
 40
0.0901701221244438
 40
0.0901701221244438
 40
0.0901701221244438
 10
21.33365813420977
 20
25.61077580225657
 30
0.0
 10
21.32062793957592
 20
25.61899886348442
 30
0.0
 10
21.29441948634036
 20
25.63553840369065
 30
0.0
 10
21.26358797174149
 20
25.63227716730575
 30
0.0
 10
21.24808512620979
 20
25.63063732783661
 30
0.0
 11
21.33365813420977
 21
25.61077580225657
 31
0.0
 11
21.29342480227626
 21
25.63055055521954
 31
0.0
 11
21.24808512620979
 21
25.63063732783661
 31
0.0
  0
SPLINE
  5
13F
330
2
100
AcDbEntity
  8
GAIKEI
  6
Continuous
100
AcDbSpline
210
0.0
220
0.0
230
1.0
 70
    24
 71
     3
 72
     9
 73
     5
 74
     3
 42
0.0000000001
 43
0.0000000001
 44
0.00000001
 40
0.0
 40
0.0
 40
0.0
 40
0.0
 40
0.0250379796823485
 40
0.0500759593648503
 40
0.0500759593648503
 40
0.0500759593648503
 40
0.0500759593648503
 10
21.24808512620979
 20
25.63063732783661
 30
0.0
 10
21.24068214463315
 20
25.62678356775996
 30
0.0
 10
21.22587618147978
 20
25.61907604760677
 30
0.0
 10
21.21107021832648
 20
25.6113685274533
 30
0.0
 10
21.20366723674977
 20
25.60751476737659
 30
0.0
 11
21.24808512620979
 21
25.63063732783661
 31
0.0
 11
21.22587618147981
 21
25.6190760476066
 31
0.0
 11
21.20366723674977
 21
25.60751476737659
 31
0.0
  0
SPLINE
  5
140
330
2
100
AcDbEntity
  8
GAIKEI
  6
Continuous
 62
     1
100
AcDbSpline
210
0.0
220
0.0
230
1.0
 70
     8
 71
     3
 72
    11
 73
     7
 74
     5
 42
0.0000000001
 43
0.0000000001
 44
0.00000001
 40
0.0
 40
0.0
 40
0.0
 40
0.0
 40
0.0354803485464263
 40
0.0708954585420517
 40
0.087103405749331
 40
0.10284542440534
 40
0.10284542440534
 40
0.10284542440534
 40
0.10284542440534
 10
11.1228516917298
 20
16.43331589951663
 30
0.0
 10
11.11442518033867
 20
16.44166954712813
 30
0.0
 10
11.09758765689497
 20
16.45836148587619
 30
0.0
 10
11.07460490314722
 20
16.47568339221266
 30
0.0
 10
11.0572748310999
 20
16.49089369300088
 30
0.0
 10
11.0465267222138
 20
16.49256290649225
 30
0.0
 10
11.0412310344098
 20
16.49338533273658
 30
0.0
 11
11.1228516917298
 21
16.43331589951663
 31
0.0
 11
11.09710413276883
 21
16.457727332236
 31
0.0
 11
11.06969732666982
 21
16.48015715647654
 31
0.0
 11
11.05650420318011
 21
16.48957199350525
 31
0.0
 11
11.0412310344098
 21
16.49338533273658
 31
0.0
  0
SPLINE
  5
141
330
2
100
AcDbEntity
  8
GAIKEI
  6
Continuous
 62
     1
100
AcDbSpline
210
0.0
220
0.0
230
1.0
 70
     8
 71
     3
 72
    11
 73
     7
 74
     5
 42
0.0000000001
 43
0.0000000001
 44
0.00000001
 40
0.0
 40
0.0
 40
0.0
 40
0.0
 40
0.0157420186560538
 40
0.0319499658632422
 40
0.0673650758569541
 40
0.1028454243907437
 40
0.1028454243907437
 40
0.1028454243907437
 40
0.1028454243907437
 10
28.71890062214982
 20
-1.184284255003433
 30
0.0
 10
28.7180781959055
 20
-1.178988567199382
 30
0.0
 10
28.71640898241425
 20
-1.168240458313277
 30
0.0
 10
28.70119868162618
 20
-1.150910386266616
 30
0.0
 10
28.68387677529368
 20
-1.127927632521618
 30
0.0
 10
28.66718483654188
 20
-1.111090109088138
 30
0.0
 10
28.65883118892981
 20
-1.10266359770344
 30
0.0
 11
28.71890062214982
 21
-1.184284255003433
 31
0.0
 11
28.71508728291849
 21
-1.169011086233069
 31
0.0
 11
28.70567244588983
 21
-1.155817962743412
 31
0.0
 11
28.6832426216493
 21
-1.128411156646905
 31
0.0
 11
28.65883118892981
 21
-1.10266359770344
 31
0.0
  0
SPLINE
  5
142
330
2
100
AcDbEntity
  8
GAIKEI
  6
Continuous
 62
     1
100
AcDbSpline
210
0.0
220
0.0
230
1.0
 70
     8
 71
     3
 72
     9
 73
     5
 74
     3
 42
0.0000000001
 43
0.0000000001
 44
0.00000001
 40
0.0
 40
0.0
 40
0.0
 40
0.0
 40
0.0582090978218693
 40
0.116420778651621
 40
0.116420778651621
 40
0.116420778651621
 40
0.116420778651621
 10
31.67715391838977
 20
25.79771742975663
 30
0.0
 10
31.6578743525667
 20
25.79997904035514
 30
0.0
 10
31.61931436825702
 20
25.80450238169203
 30
0.0
 10
31.58124290193715
 20
25.81211135870922
 30
0.0
 10
31.56220674812977
 20
25.81591594147659
 30
0.0
 11
31.67715391838977
 21
25.79771742975663
 31
0.0
 11
31.61943734629523
 21
25.80527364614659
 31
0.0
 11
31.56220674812977
 21
25.81591594147659
 31
0.0
  0
SPLINE
  5
143
330
2
100
AcDbEntity
  8
GAIKEI
  6
Continuous
 62
     1
100
AcDbSpline
210
0.0
220
0.0
230
1.0
 70
     8
 71
     3
 72
    11
 73
     7
 74
     5
 42
0.0000000001
 43
0.0000000001
 44
0.00000001
 40
0.0
 40
0.0
 40
0.0
 40
0.0
 40
0.1024281171943253
 40
0.2048509629244156
 40
0.3072736936018419
 40
0.4097016946942897
 40
0.4097016946942897
 40
0.4097016946942897
 40
0.4097016946942897
 10
31.56220674812977
 20
26.13793956973661
 30
0.0
 10
31.59462402444335
 20
26.12698264977843
 30
0.0
 10
31.65945691276247
 20
26.10506938804713
 30
0.0
 10
31.76220682695876
 20
26.09404155114333
 30
0.0
 10
31.86495669452118
 20
26.10506942426065
 30
0.0
 10
31.92978950893493
 20
26.12698266188687
 30
0.0
 10
31.9622067481298
 20
26.13793956973661
 30
0.0
 11
31.56220674812977
 21
26.13793956973661
 31
0.0
 11
31.66037554350896
 21
26.10870932781791
 31
0.0
 11
31.76220686412978
 21
26.09771742975659
 31
0.0
 11
31.86403806626567
 21
26.10870935342359
 31
0.0
 11
31.9622067481298
 21
26.13793956973661
 31
0.0
  0
SPLINE
  5
144
330
2
100
AcDbEntity
  8
GAIKEI
  6
Continuous
 62
     1
100
AcDbSpline
210
0.0
220
0.0
230
1.0
 70
     8
 71
     3
 72
     9
 73
     5
 74
     3
 42
0.0000000001
 43
0.0000000001
 44
0.00000001
 40
0.0
 40
0.0
 40
0.0
 40
0.0
 40
0.0582116986878591
 40
0.1164207786032093
 40
0.1164207786032093
 40
0.1164207786032093
 40
0.1164207786032093
 10
32.36220674812978
 20
25.81591594147659
 30
0.0
 10
32.34317058841735
 20
25.8121113578822
 30
0.0
 10
32.30509912198299
 20
25.80450238154816
 30
0.0
 10
32.2665391377511
 20
25.79997903984406
 30
0.0
 10
32.24725957788979
 20
25.79771742975663
 30
0.0
 11
32.36220674812978
 21
25.81591594147659
 31
0.0
 11
32.30497613222218
 21
25.80527364387666
 31
0.0
 11
32.24725957788979
 21
25.79771742975663
 31
0.0
  0
SPLINE
  5
145
330
2
100
AcDbEntity
  8
GAIKEI
  6
Continuous
 62
     1
100
AcDbSpline
210
0.0
220
0.0
230
1.0
 70
     8
 71
     3
 72
     9
 73
     5
 74
     3
 42
0.0000000001
 43
0.0000000001
 44
0.00000001
 40
0.0
 40
0.0
 40
0.0
 40
0.0
 40
0.0582090978218693
 40
0.1164207786515651
 40
0.1164207786515651
 40
0.1164207786515651
 40
0.1164207786515651
 10
32.07715391838974
 20
25.79771742975663
 30
0.0
 10
32.05787435256669
 20
25.79997904035514
 30
0.0
 10
32.01931436825697
 20
25.80450238169186
 30
0.0
 10
31.98124290193715
 20
25.81211135870933
 30
0.0
 10
31.9622067481298
 20
25.81591594147659
 30
0.0
 11
32.07715391838974
 21
25.79771742975663
 31
0.0
 11
32.01943734629521
 21
25.80527364614659
 31
0.0
 11
31.9622067481298
 21
25.81591594147659
 31
0.0
  0
SPLINE
  5
146
330
2
100
AcDbEntity
  8
GAIKEI
  6
Continuous
 62
     1
100
AcDbSpline
210
0.0
220
0.0
230
1.0
 70
     8
 71
     3
 72
    11
 73
     7
 74
     5
 42
0.0000000001
 43
0.0000000001
 44
0.00000001
 40
0.0
 40
0.0
 40
0.0
 40
0.0
 40
0.1024281171942708
 40
0.2048509629243612
 40
0.3072736936018439
 40
0.4097016946942372
 40
0.4097016946942372
 40
0.4097016946942372
 40
0.4097016946942372
 10
31.9622067481298
 20
26.13793956973661
 30
0.0
 10
31.99462402444336
 20
26.12698264977837
 30
0.0
 10
32.05945691276244
 20
26.10506938804724
 30
0.0
 10
32.16220682695877
 20
26.09404155114328
 30
0.0
 10
32.26495669452115
 20
26.10506942426054
 30
0.0
 10
32.32978950893494
 20
26.12698266188704
 30
0.0
 10
32.36220674812978
 20
26.13793956973661
 30
0.0
 11
31.9622067481298
 21
26.13793956973661
 31
0.0
 11
32.06037554350894
 21
26.10870932781791
 31
0.0
 11
32.16220686412976
 21
26.09771742975659
 31
0.0
 11
32.2640380662657
 21
26.10870935342359
 31
0.0
 11
32.36220674812978
 21
26.13793956973661
 31
0.0
  0
SPLINE
  5
147
330
2
100
AcDbEntity
  8
GAIKEI
  6
Continuous
 62
     1
100
AcDbSpline
210
0.0
220
0.0
230
1.0
 70
     8
 71
     3
 72
     9
 73
     5
 74
     3
 42
0.0000000001
 43
0.0000000001
 44
0.00000001
 40
0.0
 40
0.0
 40
0.0
 40
0.0
 40
0.058211698687915
 40
0.1164207786032652
 40
0.1164207786032652
 40
0.1164207786032652
 40
0.1164207786032652
 10
31.9622067481298
 20
25.81591594147659
 30
0.0
 10
31.94317058841735
 20
25.8121113578822
 30
0.0
 10
31.90509912198296
 20
25.80450238154816
 30
0.0
 10
31.86653913775109
 20
25.79997903984406
 30
0.0
 10
31.84725957788976
 20
25.79771742975663
 30
0.0
 11
31.9622067481298
 21
25.81591594147659
 31
0.0
 11
31.90497613222215
 21
25.80527364387666
 31
0.0
 11
31.84725957788976
 21
25.79771742975663
 31
0.0
  0
SPLINE
  5
148
330
2
100
AcDbEntity
  8
GAIKEI
  6
Continuous
 62
     1
100
AcDbSpline
210
0.0
220
0.0
230
1.0
 70
     8
 71
     3
 72
     9
 73
     5
 74
     3
 42
0.0000000001
 43
0.0000000001
 44
0.00000001
 40
0.0
 40
0.0
 40
0.0
 40
0.0
 40
0.0429739061396797
 40
0.1012724415118847
 40
0.1012724415118847
 40
0.1012724415118847
 40
0.1012724415118847
 10
11.0412310344098
 20
16.49338533273658
 30
0.0
 10
11.03110171933714
 20
16.48325655418296
 30
0.0
 10
11.00723095825385
 20
16.45938702851498
 30
0.0
 10
10.98336141460265
 20
16.43551628541081
 30
0.0
 10
10.96962067160974
 20
16.42177483527666
 30
0.0
 11
11.0412310344098
 21
16.49338533273658
 31
0.0
 11
11.01084331361977
 21
16.46299877264658
 31
0.0
 11
10.96962067160974
 21
16.42177483527666
 31
0.0
  0
SPLINE
  5
149
330
2
100
AcDbEntity
  8
GAIKEI
  6
Continuous
 62
     1
100
AcDbSpline
210
0.0
220
0.0
230
1.0
 70
    24
 71
     3
 72
     9
 73
     5
 74
     3
 42
0.0000000001
 43
0.0000000001
 44
0.00000001
 40
0.0
 40
0.0
 40
0.0
 40
0.0
 40
0.0429739061398896
 40
0.0859478122795983
 40
0.0859478122795983
 40
0.0859478122795983
 40
0.0859478122795983
 10
28.71890062214982
 20
-1.184284255003433
 30
0.0
 10
28.70877176878643
 20
-1.194413495266758
 30
0.0
 10
28.68851406205981
 20
-1.214671975793407
 30
0.0
 10
28.66825635533312
 20
-1.234930456320114
 30
0.0
 10
28.65812750196983
 20
-1.245059696583382
 30
0.0
 11
28.71890062214982
 21
-1.184284255003433
 31
0.0
 11
28.68851406205977
 21
-1.214671975793407
 31
0.0
 11
28.65812750196983
 21
-1.245059696583382
 31
0.0
  0
LWPOLYLINE
  5
14A
330
2
100
AcDbEntity
  8
GAIKEI
  6
Continuous
 62
     1
100
AcDbPolyline
 90
        5
 70
     0
 43
0.0
 10
10.35126859336981
 20
14.94632622697656
 10
10.3501727399298
 20
14.94640400423657
 10
10.35553059028979
 20
14.9444752432766
 10
10.36980848122976
 20
14.93626388637659
 10
10.38788710996977
 20
14.9220801404166
  0
LWPOLYLINE
  5
14B
330
2
100
AcDbEntity
  8
GAIKEI
  6
Continuous
 62
     1
100
AcDbPolyline
 90
        4
 70
     0
 43
0.0
 10
27.13869403042981
 20
-1.828171661603391
 10
27.15384872868981
 20
-1.845022508983447
 10
27.16700253812979
 20
-1.864101364863415
 10
27.1704304698298
 20
-1.870996097843431
  0
LWPOLYLINE
  5
14C
330
2
100
AcDbEntity
  8
GAIKEI
  6
Continuous
100
AcDbPolyline
 90
        5
 70
     0
 43
0.0
 10
9.421639576189761
 20
14.74732261485655
 10
9.403380567809733
 20
14.71822686221656
 10
9.39600631434979
 20
14.6771771548166
 10
9.407025114769737
 20
14.63467507109658
 10
9.425243380549829
 20
14.60969887601658
  0
LINE
  5
14D
330
2
100
AcDbEntity
  8
GAIKEI
  6
Continuous
 62
     1
100
AcDbLine
 10
-19.55084862583175
 20
26.22771742975658
 30
0.0
 11
-18.35084862583176
 21
26.22771742975658
 31
0.0
  0
LINE
  5
14E
330
2
100
AcDbEntity
  8
GAIKEI
  6
Continuous
 62
     1
100
AcDbLine
 10
-18.55084862583175
 20
25.79771742975657
 30
0.0
 11
-19.35084862583176
 21
25.79771742975657
 31
0.0
  0
LINE
  5
14F
330
2
100
AcDbEntity
  8
GAIKEI
  6
Continuous
 62
     1
100
AcDbLine
 10
-18.35084862583176
 20
26.22771742975658
 30
0.0
 11
-18.55084862583175
 21
26.09771742975659
 31
0.0
  0
LINE
  5
150
330
2
100
AcDbEntity
  8
GAIKEI
  6
Continuous
 62
     1
100
AcDbLine
 10
-19.55084862583175
 20
26.22771742975658
 30
0.0
 11
-19.55084862583175
 21
26.29771742975658
 31
0.0
  0
LINE
  5
151
330
2
100
AcDbEntity
  8
GAIKEI
  6
Continuous
 62
     1
100
AcDbLine
 10
-19.35084862583176
 20
26.13793956973655
 30
0.0
 11
-19.35084862583176
 21
25.79771742975657
 31
0.0
  0
LINE
  5
152
330
2
100
AcDbEntity
  8
GAIKEI
  6
Continuous
 62
     1
100
AcDbLine
 10
-18.95084862583172
 20
25.81591594147653
 30
0.0
 11
-18.95084862583172
 21
26.13793956973655
 31
0.0
  0
LINE
  5
153
330
2
100
AcDbEntity
  8
GAIKEI
  6
Continuous
 62
     1
100
AcDbLine
 10
-18.55084862583175
 20
25.79771742975657
 30
0.0
 11
-18.55084862583175
 21
26.13793956973655
 31
0.0
  0
LINE
  5
154
330
2
100
AcDbEntity
  8
GAIKEI
  6
Continuous
 62
     1
100
AcDbLine
 10
-18.35084862583176
 20
26.22771742975658
 30
0.0
 11
-18.35084862583176
 21
26.29771742975658
 31
0.0
  0
LINE
  5
155
330
2
100
AcDbEntity
  8
GAIKEI
  6
Continuous
 62
     1
100
AcDbLine
 10
-19.55084862583175
 20
26.22771742975658
 30
0.0
 11
-19.35084862583176
 21
26.09771742975659
 31
0.0
  0
LINE
  5
156
330
2
100
AcDbEntity
  8
GAIKEI
  6
Continuous
100
AcDbLine
 10
-14.72517158759177
 20
-2.144580908543446
 30
0.0
 11
-14.73727327147173
 21
-2.147801907283451
 31
0.0
  0
LINE
  5
157
330
2
100
AcDbEntity
  8
GAIKEI
  6
Continuous
100
AcDbLine
 10
-14.73727327147173
 20
-2.147801907283451
 30
0.0
 11
-14.73725897329171
 21
-2.147799048563456
 31
0.0
  0
LINE
  5
158
330
2
100
AcDbEntity
  8
GAIKEI
  6
Continuous
100
AcDbLine
 10
-28.66442397983173
 20
-2.147801907343421
 30
0.0
 11
-28.66443831005176
 21
-2.147799042163455
 31
0.0
  0
LINE
  5
159
330
2
100
AcDbEntity
  8
GAIKEI
  6
Continuous
100
AcDbLine
 10
-28.67652566427171
 20
-2.144580908463467
 30
0.0
 11
-28.66442397983173
 21
-2.147801907343421
 31
0.0
  0
LINE
  5
15A
330
2
100
AcDbEntity
  8
GAIKEI
  6
Continuous
100
AcDbLine
 10
-28.69541287269181
 20
-2.135993884683443
 30
0.0
 11
-28.67652566427171
 21
-2.144580908463467
 31
0.0
  0
LINE
  5
15B
330
2
100
AcDbEntity
  8
GAIKEI
  6
Continuous
100
AcDbLine
 10
-28.70634684583178
 20
-2.12856511934342
 30
0.0
 11
-28.69541287269181
 21
-2.135993884683443
 31
0.0
  0
LINE
  5
15C
330
2
100
AcDbEntity
  8
GAIKEI
  6
Continuous
100
AcDbLine
 10
-28.70632385117171
 20
-2.128583077223424
 30
0.0
 11
-28.70634684583178
 21
-2.12856511934342
 31
0.0
  0
LINE
  5
15D
330
2
100
AcDbEntity
  8
GAIKEI
  6
Continuous
100
AcDbLine
 10
-28.96058179195171
 20
-1.899842146123432
 30
0.0
 11
-28.70629115019176
 21
-2.128603959923452
 31
0.0
  0
LINE
  5
15E
330
2
100
AcDbEntity
  8
GAIKEI
  6
Continuous
100
AcDbLine
 10
-24.19862930063175
 20
25.62048128667658
 30
0.0
 11
-24.21782920393173
 21
25.60651568857656
 31
0.0
  0
LINE
  5
15F
330
2
100
AcDbEntity
  8
GAIKEI
  6
Continuous
 62
     1
100
AcDbLine
 10
-24.05084862583175
 20
26.09771742975659
 30
0.0
 11
-23.85084862583176
 21
26.22771742975658
 31
0.0
  0
LINE
  5
160
330
2
100
AcDbEntity
  8
GAIKEI
  6
Continuous
100
AcDbLine
 10
-24.16730725111177
 20
25.63166014401657
 30
0.0
 11
-24.19862930063175
 21
25.62048128667658
 31
0.0
  0
LINE
  5
161
330
2
100
AcDbEntity
  8
GAIKEI
  6
Continuous
100
AcDbLine
 10
-29.3366374340917
 20
-1.337173131823419
 30
0.0
 11
-29.33665077847172
 21
-1.337141113523443
 31
0.0
  0
LINE
  5
162
330
2
100
AcDbEntity
  8
GAIKEI
  6
Continuous
100
AcDbLine
 10
-24.21782920393173
 20
25.60651568857656
 30
0.0
 11
-24.21774417411171
 21
25.60659463051655
 31
0.0
  0
LINE
  5
163
330
2
100
AcDbEntity
  8
GAIKEI
  6
Continuous
100
AcDbLine
 10
-29.34043259837176
 20
-1.32636035400344
 30
0.0
 11
-29.33665077847172
 21
-1.337141113523443
 31
0.0
  0
LINE
  5
164
330
2
100
AcDbEntity
  8
GAIKEI
  6
Continuous
100
AcDbLine
 10
-27.49193024365167
 20
21.53265367437655
 30
0.0
 11
-28.19679222751176
 21
20.09334867935655
 31
0.0
  0
LINE
  5
165
330
2
100
AcDbEntity
  8
GAIKEI
  6
Continuous
100
AcDbLine
 10
-29.33665077847172
 20
-1.337141113523443
 30
0.0
 11
-29.34063631649173
 21
-1.317752074103452
 31
0.0
  0
LINE
  5
166
330
2
100
AcDbEntity
  8
GAIKEI
  6
Continuous
100
AcDbLine
 10
-29.3442723909717
 20
-1.301170817503418
 30
0.0
 11
-29.35084862583176
 21
-1.174950855263432
 31
0.0
  0
LINE
  5
167
330
2
100
AcDbEntity
  8
GAIKEI
  6
Continuous
100
AcDbLine
 10
-29.34420483183174
 20
-1.303767933203459
 30
0.0
 11
-29.3442723909717
 21
-1.301170817503418
 31
0.0
  0
LINE
  5
168
330
2
100
AcDbEntity
  8
GAIKEI
  6
Continuous
 62
     7
100
AcDbLine
 10
-29.35083515663178
 20
16.36249641265658
 30
0.0
 11
-29.35083515663178
 21
16.43331589951657
 31
0.0
  0
LINE
  5
169
330
2
100
AcDbEntity
  8
GAIKEI
  6
Continuous
 62
     7
100
AcDbLine
 10
-29.34969079359172
 20
16.44377234543657
 30
0.0
 11
-29.35083515663178
 21
16.43331589951657
 31
0.0
  0
LINE
  5
16A
330
2
100
AcDbEntity
  8
GAIKEI
  6
Continuous
100
AcDbLine
 10
-29.04935254197176
 20
17.65244972551653
 30
0.0
 11
-29.34972472271176
 21
16.44377967223659
 31
0.0
  0
LINE
  5
16B
330
2
100
AcDbEntity
  8
GAIKEI
  6
Continuous
100
AcDbLine
 10
-29.35084862583176
 20
16.36249641265658
 30
0.0
 11
-29.3442723909717
 21
16.22239347679658
 31
0.0
  0
LINE
  5
16C
330
2
100
AcDbEntity
  8
GAIKEI
  6
Continuous
 62
     1
100
AcDbLine
 10
-28.72043665683168
 20
15.35134919831654
 30
0.0
 11
-28.72043665263175
 21
-2.096004494483452
 31
0.0
  0
LINE
  5
16D
330
2
100
AcDbEntity
  8
GAIKEI
  6
Continuous
100
AcDbLine
 10
-28.70084862583173
 20
27.26771742975655
 30
0.0
 11
-28.70084862583173
 21
27.49771742975656
 31
0.0
  0
LINE
  5
16E
330
2
100
AcDbEntity
  8
GAIKEI
  6
Continuous
 62
     1
100
AcDbLine
 10
-28.32307472229172
 20
14.91819415927659
 30
0.0
 11
-28.32307516333179
 21
-1.823156164763418
 31
0.0
  0
LINE
  5
16F
330
2
100
AcDbEntity
  8
GAIKEI
  6
Continuous
 62
     1
100
AcDbLine
 10
-28.05084862583175
 20
-1.298904632743415
 30
0.0
 11
-28.05084862583175
 21
14.91719440607653
 31
0.0
  0
LINE
  5
170
330
2
100
AcDbEntity
  8
GAIKEI
  6
Continuous
 62
     1
100
AcDbLine
 10
-28.00084862583174
 20
-1.681116531163411
 30
0.0
 11
-28.00084862583174
 21
14.90979851715656
 31
0.0
  0
LINE
  5
171
330
2
100
AcDbEntity
  8
GAIKEI
  6
Continuous
 62
     1
100
AcDbLine
 10
-27.9208486258317
 20
14.89796509489656
 30
0.0
 11
-27.9208486258317
 21
14.86518214859654
 31
0.0
  0
LINE
  5
172
330
2
100
AcDbEntity
  8
GAIKEI
  6
Continuous
 62
     1
100
AcDbLine
 10
-27.85084862583176
 20
-1.824639161923414
 30
0.0
 11
-27.85084862583176
 21
-1.787591416943428
 31
0.0
  0
LINE
  5
173
330
2
100
AcDbEntity
  8
GAIKEI
  6
Continuous
 62
     1
100
AcDbLine
 10
-27.85084862583176
 20
14.82941794093659
 30
0.0
 11
-27.85084862583176
 21
14.88761085043654
 31
0.0
  0
LINE
  5
174
330
2
100
AcDbEntity
  8
GAIKEI
  6
Continuous
100
AcDbLine
 10
-26.99716860909177
 20
27.26771742975655
 30
0.0
 11
-26.99716860909177
 21
27.26121742975659
 31
0.0
  0
LINE
  5
175
330
2
100
AcDbEntity
  8
GAIKEI
  6
Continuous
100
AcDbLine
 10
-26.9678792872117
 20
27.26771742975655
 30
0.0
 11
-26.9678792872117
 21
27.26121742975659
 31
0.0
  0
LINE
  5
176
330
2
100
AcDbEntity
  8
GAIKEI
  6
Continuous
 62
     1
100
AcDbLine
 10
-28.05084862583175
 20
-1.298904632743415
 30
0.0
 11
-28.08266754033179
 21
-1.739460162263412
 31
0.0
  0
LINE
  5
177
330
2
100
AcDbEntity
  8
GAIKEI
  6
Continuous
 62
     1
100
AcDbLine
 10
-28.29697279549174
 20
14.94170135937656
 30
0.0
 11
-28.29709613909177
 21
14.94165568673657
 31
0.0
  0
LINE
  5
178
330
2
100
AcDbEntity
  8
GAIKEI
  6
Continuous
 62
     1
100
AcDbLine
 10
-28.29697121271176
 20
14.94170233641654
 30
0.0
 11
-28.29044523147167
 21
14.94362243675658
 31
0.0
  0
LINE
  5
179
330
2
100
AcDbEntity
  8
GAIKEI
  6
Continuous
100
AcDbLine
 10
-26.04864047167178
 20
27.26771742975655
 30
0.0
 11
-26.04864047167178
 21
27.26121742975659
 31
0.0
  0
LINE
  5
17A
330
2
100
AcDbEntity
  8
GAIKEI
  6
Continuous
 62
     1
100
AcDbLine
 10
-25.05084862583175
 20
26.29771742975658
 30
0.0
 11
-25.05084862583175
 21
26.22771742975658
 31
0.0
  0
LINE
  5
17B
330
2
100
AcDbEntity
  8
GAIKEI
  6
Continuous
 62
     1
100
AcDbLine
 10
-24.85084862583176
 20
26.13793956973655
 30
0.0
 11
-24.85084862583176
 21
25.79771742975657
 31
0.0
  0
LINE
  5
17C
330
2
100
AcDbEntity
  8
GAIKEI
  6
Continuous
100
AcDbLine
 10
-17.40802830281171
 20
27.26771742975655
 30
0.0
 11
-17.90166278301177
 21
26.41271742967655
 31
0.0
  0
LINE
  5
17D
330
2
100
AcDbEntity
  8
GAIKEI
  6
Continuous
 62
     1
100
AcDbLine
 10
-21.82579941891174
 20
15.24341786557659
 30
0.0
 11
-21.73768705905167
 21
15.27526040647655
 31
0.0
  0
LINE
  5
17E
330
2
100
AcDbEntity
  8
GAIKEI
  6
Continuous
 62
     1
100
AcDbLine
 10
-24.45084862583172
 20
26.13793956973655
 30
0.0
 11
-24.45084862583172
 21
25.81591594147653
 31
0.0
  0
LINE
  5
17F
330
2
100
AcDbEntity
  8
GAIKEI
  6
Continuous
 62
     1
100
AcDbLine
 10
-24.05084862583175
 20
25.79771742975657
 30
0.0
 11
-24.05084862583175
 21
26.13793956973655
 31
0.0
  0
LINE
  5
180
330
2
100
AcDbEntity
  8
GAIKEI
  6
Continuous
 62
     1
100
AcDbLine
 10
-23.85084862583176
 20
26.29771742975658
 30
0.0
 11
-23.85084862583176
 21
26.22771742975658
 31
0.0
  0
LINE
  5
181
330
2
100
AcDbEntity
  8
GAIKEI
  6
Continuous
 62
     1
100
AcDbLine
 10
-22.05084807287176
 20
15.16178472299657
 30
0.0
 11
-22.05084862583175
 21
15.16225236741655
 31
0.0
  0
LINE
  5
182
330
2
100
AcDbEntity
  8
GAIKEI
  6
Continuous
100
AcDbLine
 10
-22.85084862583176
 20
25.63161851301658
 30
0.0
 11
-22.85084862583176
 21
26.29771742975658
 31
0.0
  0
LINE
  5
183
330
2
100
AcDbEntity
  8
GAIKEI
  6
Continuous
 62
     1
100
AcDbLine
 10
-22.62084862583169
 20
26.29771742975658
 30
0.0
 11
-22.62084862583169
 21
25.92771742975657
 31
0.0
  0
LINE
  5
184
330
2
100
AcDbEntity
  8
GAIKEI
  6
Continuous
 62
     1
100
AcDbLine
 10
-21.92584862583175
 20
15.04053309437654
 30
0.0
 11
-21.92584862583175
 21
14.99103561969656
 31
0.0
  0
LINE
  5
185
330
2
100
AcDbEntity
  8
GAIKEI
  6
Continuous
 62
     1
100
AcDbLine
 10
-21.85084862583176
 20
15.13603473101659
 30
0.0
 11
-21.85084862583176
 21
15.19260327351657
 31
0.0
  0
LINE
  5
186
330
2
100
AcDbEntity
  8
GAIKEI
  6
Continuous
 62
     1
100
AcDbLine
 10
-21.74084862583169
 20
15.05825298507653
 30
0.0
 11
-21.74084862583169
 21
15.11256003075658
 31
0.0
  0
LINE
  5
187
330
2
100
AcDbEntity
  8
GAIKEI
  6
Continuous
 62
     1
100
AcDbLine
 10
-21.74084862583169
 20
15.13952804373656
 30
0.0
 11
-21.74084862583169
 21
15.27038501943656
 31
0.0
  0
LINE
  5
188
330
2
100
AcDbEntity
  8
GAIKEI
  6
Continuous
 62
     1
100
AcDbLine
 10
-21.66084862583176
 20
15.11256003075658
 30
0.0
 11
-21.66084862583176
 21
15.05825298507653
 31
0.0
  0
LINE
  5
189
330
2
100
AcDbEntity
  8
GAIKEI
  6
Continuous
 62
     1
100
AcDbLine
 10
-21.66084862583176
 20
15.13952804373656
 30
0.0
 11
-21.66084862583176
 21
15.27038501943656
 31
0.0
  0
LINE
  5
18A
330
2
100
AcDbEntity
  8
GAIKEI
  6
Continuous
 62
     1
100
AcDbLine
 10
-21.55084862583175
 20
15.19260327351657
 30
0.0
 11
-21.55084862583175
 21
15.13603473101659
 31
0.0
  0
LINE
  5
18B
330
2
100
AcDbEntity
  8
GAIKEI
  6
Continuous
 62
     1
100
AcDbLine
 10
-21.9110888191517
 20
15.10865252357655
 30
0.0
 11
-21.91137813553172
 21
15.10085074287656
 31
0.0
  0
LINE
  5
18C
330
2
100
AcDbEntity
  8
GAIKEI
  6
Continuous
 62
     1
100
AcDbLine
 10
-21.49060843251175
 20
15.10865252357655
 30
0.0
 11
-21.48614408569176
 21
15.04850054203655
 31
0.0
  0
LINE
  5
18D
330
2
100
AcDbEntity
  8
GAIKEI
  6
Continuous
 62
     1
100
AcDbLine
 10
-21.49031911613179
 20
15.10085074287656
 30
0.0
 11
-21.49060843251175
 21
15.10865252357655
 31
0.0
  0
LINE
  5
18E
330
2
100
AcDbEntity
  8
GAIKEI
  6
Continuous
 62
     1
100
AcDbLine
 10
-20.78084862583176
 20
26.29771742975658
 30
0.0
 11
-20.78084862583176
 21
25.92771742975657
 31
0.0
  0
LINE
  5
18F
330
2
100
AcDbEntity
  8
GAIKEI
  6
Continuous
100
AcDbLine
 10
-20.55084862583175
 20
26.29771742975658
 30
0.0
 11
-20.55084862583175
 21
25.6316212819566
 31
0.0
  0
LINE
  5
190
330
2
100
AcDbEntity
  8
GAIKEI
  6
Continuous
 62
     1
100
AcDbLine
 10
-21.35084862583176
 20
15.16225398747656
 30
0.0
 11
-21.35084881877174
 21
15.16197977321656
 31
0.0
  0
LINE
  5
191
330
2
100
AcDbEntity
  8
GAIKEI
  6
Continuous
 62
     1
100
AcDbLine
 10
-17.72491164587171
 20
14.56582792781654
 30
0.0
 11
-15.19088564177173
 21
14.94085583615657
 31
0.0
  0
LINE
  5
192
330
2
100
AcDbEntity
  8
GAIKEI
  6
Continuous
 62
     1
100
AcDbLine
 10
-15.1908849927517
 20
14.94085476973657
 30
0.0
 11
-15.15781225517179
 21
14.94546533709655
 31
0.0
  0
LINE
  5
193
330
2
100
AcDbEntity
  8
GAIKEI
  6
Continuous
 62
     1
100
AcDbLine
 10
-21.65624773613172
 20
14.91669434135656
 30
0.0
 11
-21.70084862839178
 21
14.91464916269655
 31
0.0
  0
LINE
  5
194
330
2
100
AcDbEntity
  8
GAIKEI
  6
Continuous
 62
     1
100
AcDbLine
 10
-21.74084862583169
 20
15.18195445061656
 30
0.0
 11
-21.66084862583176
 21
15.18195445061656
 31
0.0
  0
LINE
  5
195
330
2
100
AcDbEntity
  8
GAIKEI
  6
Continuous
 62
     1
100
AcDbLine
 10
-28.26975012051173
 20
14.94618922285656
 30
0.0
 11
-28.24247338397174
 21
14.94534081801657
 31
0.0
  0
LINE
  5
196
330
2
100
AcDbEntity
  8
GAIKEI
  6
Continuous
 62
     1
100
AcDbLine
 10
-21.73768705905167
 20
15.27526040647655
 30
0.0
 11
-21.64527689447169
 21
15.27173342427659
 31
0.0
  0
LINE
  5
197
330
2
100
AcDbEntity
  8
GAIKEI
  6
Continuous
 62
     1
100
AcDbLine
 10
-21.70084862861171
 20
14.91465076611655
 30
0.0
 11
-21.74088450751174
 21
14.91629411035654
 31
0.0
  0
LINE
  5
198
330
2
100
AcDbEntity
  8
GAIKEI
  6
Continuous
 62
     1
100
AcDbLine
 10
-28.24247338397174
 20
14.94534081801657
 30
0.0
 11
-28.21081181333176
 21
14.94085473447654
 31
0.0
  0
LINE
  5
199
330
2
100
AcDbEntity
  8
GAIKEI
  6
Continuous
 62
     1
100
AcDbLine
 10
-28.29044523147167
 20
14.94362243675658
 30
0.0
 11
-28.26975012051173
 21
14.94618922285656
 31
0.0
  0
LINE
  5
19A
330
2
100
AcDbEntity
  8
GAIKEI
  6
Continuous
 62
     1
100
AcDbLine
 10
-15.11103819619177
 20
14.94356876891657
 30
0.0
 11
-15.10674022687175
 21
14.94238480825657
 31
0.0
  0
LINE
  5
19B
330
2
100
AcDbEntity
  8
GAIKEI
  6
Continuous
100
AcDbLine
 10
-25.99366894885174
 20
27.26771742975655
 30
0.0
 11
-25.50003446865179
 21
26.41271742967655
 31
0.0
  0
LINE
  5
19C
330
2
100
AcDbEntity
  8
GAIKEI
  6
Continuous
 62
     1
100
AcDbLine
 10
-15.35084862583176
 20
-1.298904632743415
 30
0.0
 11
-15.31902971133166
 21
-1.739460162263412
 31
0.0
  0
LINE
  5
19D
330
2
100
AcDbEntity
  8
GAIKEI
  6
Continuous
 62
     1
100
AcDbLine
 10
-15.55084862583175
 20
-1.824639161923414
 30
0.0
 11
-15.55084862583175
 21
-1.787591416943428
 31
0.0
  0
LINE
  5
19E
330
2
100
AcDbEntity
  8
GAIKEI
  6
Continuous
 62
     1
100
AcDbLine
 10
-15.55084862583175
 20
14.82941794093659
 30
0.0
 11
-15.55084862583175
 21
14.88758244245656
 31
0.0
  0
LINE
  5
19F
330
2
100
AcDbEntity
  8
GAIKEI
  6
Continuous
 62
     1
100
AcDbLine
 10
-15.48084862583175
 20
14.89794222311656
 30
0.0
 11
-15.48084862583175
 21
14.86518214859654
 31
0.0
  0
LINE
  5
1A0
330
2
100
AcDbEntity
  8
GAIKEI
  6
Continuous
 62
     1
100
AcDbLine
 10
-15.40084862583171
 20
14.90978197243657
 30
0.0
 11
-15.40084862583171
 21
-1.681116531163411
 31
0.0
  0
LINE
  5
1A1
330
2
100
AcDbEntity
  8
GAIKEI
  6
Continuous
 62
     1
100
AcDbLine
 10
-15.35084862583176
 20
14.91718181575658
 30
0.0
 11
-15.35084862583176
 21
-1.298904632743415
 31
0.0
  0
LINE
  5
1A2
330
2
100
AcDbEntity
  8
GAIKEI
  6
Continuous
 62
     1
100
AcDbLine
 10
-15.10674022687175
 20
14.94238480825657
 30
0.0
 11
-15.10470913031167
 21
14.94169055513657
 31
0.0
  0
LINE
  5
1A3
330
2
100
AcDbEntity
  8
GAIKEI
  6
Continuous
 62
     1
100
AcDbLine
 10
-15.10461903737172
 20
14.94165702793657
 30
0.0
 11
-15.10470914913179
 21
14.94169042259659
 31
0.0
  0
LINE
  5
1A4
330
2
100
AcDbEntity
  8
GAIKEI
  6
Continuous
 62
     1
100
AcDbLine
 10
-15.0786234013317
 20
-1.823155655683422
 30
0.0
 11
-15.07862340131168
 21
14.91819470579656
 31
0.0
  0
LINE
  5
1A5
330
2
100
AcDbEntity
  8
GAIKEI
  6
Continuous
100
AcDbLine
 10
-14.70084862583172
 20
27.26771742975655
 30
0.0
 11
-14.70084862583172
 21
27.49771742975656
 31
0.0
  0
LINE
  5
1A6
330
2
100
AcDbEntity
  8
GAIKEI
  6
Continuous
 62
     1
100
AcDbLine
 10
-14.68126087399167
 20
-2.096004708483405
 30
0.0
 11
-14.68126087367176
 21
15.35134895945657
 31
0.0
  0
LINE
  5
1A7
330
2
100
AcDbEntity
  8
GAIKEI
  6
Continuous
 62
     1
100
AcDbLine
 10
-14.05086209503173
 20
16.43331589951657
 30
0.0
 11
-14.05086209503173
 21
16.36249641265658
 31
0.0
  0
LINE
  5
1A8
330
2
100
AcDbEntity
  8
GAIKEI
  6
Continuous
100
AcDbLine
 10
-14.05742486069175
 20
16.22239347679658
 30
0.0
 11
-14.05084862583175
 21
16.36249641265658
 31
0.0
  0
LINE
  5
1A9
330
2
100
AcDbEntity
  8
GAIKEI
  6
Continuous
100
AcDbLine
 10
-14.05086209503173
 20
16.43331589951657
 30
0.0
 11
-14.05200645521176
 21
16.44377233197656
 31
0.0
  0
LINE
  5
1AA
330
2
100
AcDbEntity
  8
GAIKEI
  6
Continuous
100
AcDbLine
 10
-14.0574924198317
 20
-1.303767933183451
 30
0.0
 11
-14.05742486069175
 21
-1.301170817503418
 31
0.0
  0
LINE
  5
1AB
330
2
100
AcDbEntity
  8
GAIKEI
  6
Continuous
100
AcDbLine
 10
-14.05084862583175
 20
-1.174950855263432
 30
0.0
 11
-14.05742486069175
 21
-1.301170817503418
 31
0.0
  0
LINE
  5
1AC
330
2
100
AcDbEntity
  8
GAIKEI
  6
Continuous
100
AcDbLine
 10
-14.06504646963179
 20
-1.337141104943441
 30
0.0
 11
-14.06106093491172
 21
-1.317752073483461
 31
0.0
  0
LINE
  5
1AD
330
2
100
AcDbEntity
  8
GAIKEI
  6
Continuous
 62
     1
100
AcDbLine
 10
-24.85084862583176
 20
26.09771742975659
 30
0.0
 11
-25.05084862583175
 21
26.22771742975658
 31
0.0
  0
LINE
  5
1AE
330
2
100
AcDbEntity
  8
GAIKEI
  6
Continuous
100
AcDbLine
 10
-14.06126465269176
 20
-1.326360351903417
 30
0.0
 11
-14.06504646963179
 21
-1.337141104943441
 31
0.0
  0
LINE
  5
1AF
330
2
100
AcDbEntity
  8
GAIKEI
  6
Continuous
100
AcDbLine
 10
-14.06506080635177
 20
-1.337175501843432
 30
0.0
 11
-14.06504646963179
 21
-1.337141104943441
 31
0.0
  0
LINE
  5
1B0
330
2
100
AcDbEntity
  8
GAIKEI
  6
Continuous
100
AcDbLine
 10
-19.2030679510317
 20
25.62048128667658
 30
0.0
 11
-19.18386804797177
 21
25.60651568881656
 31
0.0
  0
LINE
  5
1B1
330
2
100
AcDbEntity
  8
GAIKEI
  6
Continuous
100
AcDbLine
 10
-19.18386804797177
 20
25.60651568881656
 30
0.0
 11
-19.18395309097173
 21
25.60659464295657
 31
0.0
  0
LINE
  5
1B2
330
2
100
AcDbEntity
  8
GAIKEI
  6
Continuous
100
AcDbLine
 10
-24.14971941689174
 20
25.63320036043655
 30
0.0
 11
-24.16730725111177
 21
25.63166014401657
 31
0.0
  0
LINE
  5
1B3
330
2
100
AcDbEntity
  8
GAIKEI
  6
Continuous
 62
     1
100
AcDbLine
 10
-24.05084862583175
 20
25.79771742975657
 30
0.0
 11
-24.85084862583176
 21
25.79771742975657
 31
0.0
  0
LINE
  5
1B4
330
2
100
AcDbEntity
  8
GAIKEI
  6
Continuous
 62
     1
100
AcDbLine
 10
-22.85084862583176
 20
25.92771742975657
 30
0.0
 11
-20.55084862583175
 21
25.92771742975657
 31
0.0
  0
LINE
  5
1B5
330
2
100
AcDbEntity
  8
GAIKEI
  6
Continuous
100
AcDbLine
 10
-19.25197783543172
 20
25.63320036043655
 30
0.0
 11
-19.23439000053167
 21
25.63166014401657
 31
0.0
  0
LINE
  5
1B6
330
2
100
AcDbEntity
  8
GAIKEI
  6
Continuous
100
AcDbLine
 10
-19.23439000053167
 20
25.63166014401657
 30
0.0
 11
-19.2030679510317
 21
25.62048128667658
 31
0.0
  0
LINE
  5
1B7
330
2
100
AcDbEntity
  8
GAIKEI
  6
Continuous
100
AcDbLine
 10
-14.69537325261171
 20
-2.128582961843449
 30
0.0
 11
-14.69535041091177
 21
-2.128565123323426
 31
0.0
  0
LINE
  5
1B8
330
2
100
AcDbEntity
  8
GAIKEI
  6
Continuous
 62
     1
100
AcDbLine
 10
-25.05084862583175
 20
26.22771742975658
 30
0.0
 11
-23.85084862583176
 21
26.22771742975658
 31
0.0
  0
LINE
  5
1B9
330
2
100
AcDbEntity
  8
GAIKEI
  6
Continuous
100
AcDbLine
 10
-18.10085219139176
 20
26.29771742975658
 30
0.0
 11
-25.30084506025167
 21
26.29771742975658
 31
0.0
  0
LINE
  5
1BA
330
2
100
AcDbEntity
  8
GAIKEI
  6
Continuous
100
AcDbLine
 10
-28.70084862583173
 20
27.26771742975655
 30
0.0
 11
-14.70084862583172
 21
27.26771742975655
 31
0.0
  0
LINE
  5
1BB
330
2
100
AcDbEntity
  8
GAIKEI
  6
Continuous
100
AcDbLine
 10
-28.70084862583173
 20
27.49771742975656
 30
0.0
 11
-14.70084862583172
 21
27.49771742975656
 31
0.0
  0
LINE
  5
1BC
330
2
100
AcDbEntity
  8
GAIKEI
  6
Continuous
100
AcDbLine
 10
-14.69535041091177
 20
-2.128565123323426
 30
0.0
 11
-14.70628437929173
 21
-2.135993884883419
 31
0.0
  0
LINE
  5
1BD
330
2
100
AcDbEntity
  8
GAIKEI
  6
Continuous
100
AcDbLine
 10
-14.70628437929173
 20
-2.135993884883419
 30
0.0
 11
-14.72517158759177
 21
-2.144580908543446
 31
0.0
  0
LINE
  5
1BE
330
2
100
AcDbEntity
  8
GAIKEI
  6
Continuous
100
AcDbLine
 10
-14.05084862583175
 20
-1.174950855263432
 30
0.0
 11
-14.05084862583175
 21
16.36249641265658
 31
0.0
  0
LINE
  5
1BF
330
2
100
AcDbEntity
  8
GAIKEI
  6
Continuous
100
AcDbLine
 10
-29.35084862583176
 20
-1.174950855263432
 30
0.0
 11
-29.35084862583176
 21
16.36249641265658
 31
0.0
  0
ARC
  5
1C0
330
2
100
AcDbEntity
  8
GAIKEI
  6
Continuous
100
AcDbCircle
 10
-25.30084862583175
 20
26.52771742975654
 30
0.0
 40
0.2299999999963644
100
AcDbArc
 50
210.0000000235335
 51
270.0
  0
ARC
  5
1C1
330
2
100
AcDbEntity
  8
GAIKEI
  6
Continuous
100
AcDbCircle
 10
-18.10084862583176
 20
26.52771742975654
 30
0.0
 40
0.2299999999999898
100
AcDbArc
 50
270.0
 51
329.9999999764576
  0
SPLINE
  5
1C2
330
2
100
AcDbEntity
  8
GAIKEI
  6
Continuous
 62
     1
100
AcDbSpline
210
0.0
220
0.0
230
1.0
 70
     8
 71
     3
 72
     9
 73
     5
 74
     3
 42
0.0000000001
 43
0.0000000001
 44
0.00000001
 40
0.0
 40
0.0
 40
0.0
 40
0.0
 40
0.0582116986878661
 40
0.1164207786032092
 40
0.1164207786032092
 40
0.1164207786032092
 40
0.1164207786032092
 10
-18.95084862583172
 20
25.81591594147659
 30
0.0
 10
-18.93181246611929
 20
25.8121113578822
 30
0.0
 10
-18.89374099968493
 20
25.8045023815481
 30
0.0
 10
-18.85518101545303
 20
25.79997903984406
 30
0.0
 10
-18.83590145559174
 20
25.79771742975663
 30
0.0
 11
-18.95084862583172
 21
25.81591594147659
 31
0.0
 11
-18.89361800992412
 21
25.80527364387666
 31
0.0
 11
-18.83590145559174
 21
25.79771742975663
 31
0.0
  0
SPLINE
  5
1C3
330
2
100
AcDbEntity
  8
GAIKEI
  6
Continuous
 62
     1
100
AcDbSpline
210
0.0
220
0.0
230
1.0
 70
     8
 71
     3
 72
    11
 73
     7
 74
     5
 42
0.0000000001
 43
0.0000000001
 44
0.00000001
 40
0.0
 40
0.0
 40
0.0
 40
0.0
 40
0.1024281171943185
 40
0.2048509629244159
 40
0.3072736936019057
 40
0.4097016946942923
 40
0.4097016946942923
 40
0.4097016946942923
 40
0.4097016946942923
 10
-18.95084862583172
 20
26.13793956973661
 30
0.0
 10
-18.98326590214529
 20
26.12698264977843
 30
0.0
 10
-19.04809879046441
 20
26.10506938804713
 30
0.0
 10
-19.15084870466076
 20
26.09404155114328
 30
0.0
 10
-19.25359857222315
 20
26.10506942426048
 30
0.0
 10
-19.31843138663693
 20
26.12698266188693
 30
0.0
 10
-19.35084862583176
 20
26.13793956973661
 30
0.0
 11
-18.95084862583172
 21
26.13793956973661
 31
0.0
 11
-19.04901742121092
 21
26.10870932781791
 31
0.0
 11
-19.15084874183174
 21
26.09771742975659
 31
0.0
 11
-19.25267994396768
 21
26.10870935342359
 31
0.0
 11
-19.35084862583176
 21
26.13793956973661
 31
0.0
  0
SPLINE
  5
1C4
330
2
100
AcDbEntity
  8
GAIKEI
  6
Continuous
 62
     1
100
AcDbSpline
210
0.0
220
0.0
230
1.0
 70
     8
 71
     3
 72
     9
 73
     5
 74
     3
 42
0.0000000001
 43
0.0000000001
 44
0.00000001
 40
0.0
 40
0.0
 40
0.0
 40
0.0
 40
0.0582090978218623
 40
0.1164207786516209
 40
0.1164207786516209
 40
0.1164207786516209
 40
0.1164207786516209
 10
-19.06579579609172
 20
25.79771742975663
 30
0.0
 10
-19.04651623026866
 20
25.79997904035514
 30
0.0
 10
-19.00795624595893
 20
25.80450238169198
 30
0.0
 10
-18.9698847796391
 20
25.81211135870922
 30
0.0
 10
-18.95084862583172
 20
25.81591594147659
 30
0.0
 11
-19.06579579609172
 21
25.79771742975663
 31
0.0
 11
-19.00807922399718
 21
25.80527364614659
 31
0.0
 11
-18.95084862583172
 21
25.81591594147659
 31
0.0
  0
SPLINE
  5
1C5
330
2
100
AcDbEntity
  8
GAIKEI
  6
Continuous
 62
     1
100
AcDbSpline
210
0.0
220
0.0
230
1.0
 70
     8
 71
     3
 72
     9
 73
     5
 74
     3
 42
0.0000000001
 43
0.0000000001
 44
0.00000001
 40
0.0
 40
0.0
 40
0.0
 40
0.0
 40
0.0582116986878661
 40
0.1164207786032092
 40
0.1164207786032092
 40
0.1164207786032092
 40
0.1164207786032092
 10
-19.35084862583176
 20
25.81591594147659
 30
0.0
 10
-19.33181246611932
 20
25.8121113578822
 30
0.0
 10
-19.29374099968496
 20
25.8045023815481
 30
0.0
 10
-19.25518101545307
 20
25.79997903984406
 30
0.0
 10
-19.23590145559177
 20
25.79771742975663
 30
0.0
 11
-19.35084862583176
 21
25.81591594147659
 31
0.0
 11
-19.29361800992416
 21
25.80527364387666
 31
0.0
 11
-19.23590145559177
 21
25.79771742975663
 31
0.0
  0
SPLINE
  5
1C6
330
2
100
AcDbEntity
  8
GAIKEI
  6
Continuous
 62
     1
100
AcDbSpline
210
0.0
220
0.0
230
1.0
 70
     8
 71
     3
 72
    11
 73
     7
 74
     5
 42
0.0000000001
 43
0.0000000001
 44
0.00000001
 40
0.0
 40
0.0
 40
0.0
 40
0.0
 40
0.102428117194264
 40
0.2048509629243614
 40
0.3072736936018512
 40
0.4097016946942377
 40
0.4097016946942377
 40
0.4097016946942377
 40
0.4097016946942377
 10
-18.55084862583175
 20
26.13793956973661
 30
0.0
 10
-18.58326590214528
 20
26.12698264977837
 30
0.0
 10
-18.64809879046439
 20
26.10506938804724
 30
0.0
 10
-18.75084870466072
 20
26.09404155114322
 30
0.0
 10
-18.85359857222312
 20
26.10506942426054
 30
0.0
 10
-18.91843138663689
 20
26.12698266188704
 30
0.0
 10
-18.95084862583172
 20
26.13793956973661
 30
0.0
 11
-18.55084862583175
 21
26.13793956973661
 31
0.0
 11
-18.64901742121088
 21
26.10870932781791
 31
0.0
 11
-18.7508487418317
 21
26.09771742975659
 31
0.0
 11
-18.85267994396764
 21
26.10870935342359
 31
0.0
 11
-18.95084862583172
 21
26.13793956973661
 31
0.0
  0
SPLINE
  5
1C7
330
2
100
AcDbEntity
  8
GAIKEI
  6
Continuous
 62
     1
100
AcDbSpline
210
0.0
220
0.0
230
1.0
 70
     8
 71
     3
 72
     9
 73
     5
 74
     3
 42
0.0000000001
 43
0.0000000001
 44
0.00000001
 40
0.0
 40
0.0
 40
0.0
 40
0.0
 40
0.0582090978218059
 40
0.1164207786515645
 40
0.1164207786515645
 40
0.1164207786515645
 40
0.1164207786515645
 10
-18.66579579609168
 20
25.79771742975663
 30
0.0
 10
-18.64651623026865
 20
25.79997904035514
 30
0.0
 10
-18.60795624595897
 20
25.80450238169186
 30
0.0
 10
-18.56988477963911
 20
25.81211135870933
 30
0.0
 10
-18.55084862583175
 20
25.81591594147659
 30
0.0
 11
-18.66579579609168
 21
25.79771742975663
 31
0.0
 11
-18.60807922399721
 21
25.80527364614659
 31
0.0
 11
-18.55084862583175
 21
25.81591594147659
 31
0.0
  0
SPLINE
  5
1C8
330
2
100
AcDbEntity
  8
GAIKEI
  6
Continuous
 62
     1
100
AcDbSpline
210
0.0
220
0.0
230
1.0
 70
     8
 71
     3
 72
    19
 73
    15
 74
    13
 42
0.0000000001
 43
0.0000000001
 44
0.00000001
 40
0.0
 40
0.0
 40
0.0
 40
0.0
 40
0.0096972949319458
 40
0.0193938377939719
 40
0.0238028705217595
 40
0.0282118997995764
 40
0.032325641821305
 40
0.0364385758425067
 40
0.0401989574631272
 40
0.0439587370216724
 40
0.0474470213607051
 40
0.050933122215455
 40
0.057615541292125
 40
0.0642980516409183
 40
0.0642980516409183
 40
0.0642980516409183
 40
0.0642980516409183
 10
-15.50084862583173
 20
14.80311316777658
 30
0.0
 10
-15.50405295047855
 20
14.80265392763795
 30
0.0
 10
-15.51046135276734
 20
14.80173549645741
 30
0.0
 10
-15.51844034883903
 20
14.80203344348746
 30
0.0
 10
-15.52454382617201
 20
14.80297064040928
 30
0.0
 10
-15.52873730034233
 20
14.80399747959546
 30
0.0
 10
-15.53272412002892
 20
14.80537459222648
 30
0.0
 10
-15.53635594334825
 20
14.80705948001679
 30
0.0
 10
-15.53968065341299
 20
14.80907076511681
 30
0.0
 10
-15.54258129477495
 20
14.81133300708063
 30
0.0
 10
-15.54510912169629
 20
14.8138827961817
 30
0.0
 10
-15.54784258085169
 20
14.81752824676232
 30
0.0
 10
-15.55032374870672
 20
14.82270977243496
 30
0.0
 10
-15.55067367029825
 20
14.8271818739156
 30
0.0
 10
-15.55084862583175
 20
14.82941794093659
 30
0.0
 11
-15.50084862583173
 21
14.80311316777658
 31
0.0
 11
-15.5104847568856
 21
14.80202577198776
 31
0.0
 11
-15.52017575645175
 21
14.80235359541655
 31
0.0
 11
-15.52453195907662
 21
14.80303408850238
 31
0.0
 11
-15.52881307939174
 21
14.80408839019651
 31
0.0
 11
-15.53269857274171
 21
14.8054396191157
 31
0.0
 11
-15.53642584197177
 21
14.80717849701654
 31
0.0
 11
-15.53963888262001
 21
14.80913217200213
 31
0.0
 11
-15.54259822537176
 21
14.81145127537661
 31
0.0
 11
-15.54504798014267
 21
14.81393458713495
 31
0.0
 11
-15.54713959121176
 21
14.81672350669657
 31
0.0
 11
-15.54991926113229
 21
14.82280036575463
 31
0.0
 11
-15.55084862583175
 21
14.82941794093659
 31
0.0
  0
SPLINE
  5
1C9
330
2
100
AcDbEntity
  8
GAIKEI
  6
Continuous
 62
     1
100
AcDbSpline
210
0.0
220
0.0
230
1.0
 70
     8
 71
     3
 72
     9
 73
     5
 74
     3
 42
0.0000000001
 43
0.0000000001
 44
0.00000001
 40
0.0
 40
0.0
 40
0.0
 40
0.0
 40
0.0203546161627046
 40
0.0407092323252384
 40
0.0407092323252384
 40
0.0407092323252384
 40
0.0407092323252384
 10
-15.50084862583173
 20
14.80311316777658
 30
0.0
 10
-15.49417334759389
 20
14.80432772717233
 30
0.0
 10
-15.48082279470442
 20
14.8067568656395
 30
0.0
 10
-15.46747444885852
 20
14.80919810289265
 30
0.0
 10
-15.46080027773166
 20
14.8104187313566
 30
0.0
 11
-15.50084862583173
 21
14.80311316777658
 31
0.0
 11
-15.48082334467068
 21
14.80675988049836
 31
0.0
 11
-15.46080027773166
 21
14.8104187313566
 31
0.0
  0
SPLINE
  5
1CA
330
2
100
AcDbEntity
  8
GAIKEI
  6
Continuous
 62
     1
100
AcDbSpline
210
0.0
220
0.0
230
1.0
 70
     8
 71
     3
 72
    13
 73
     9
 74
     7
 42
0.0000000001
 43
0.0000000001
 44
0.00000001
 40
0.0
 40
0.0
 40
0.0
 40
0.0
 40
0.0164215231608242
 40
0.0328429736833157
 40
0.0408016507956621
 40
0.048760314977338
 40
0.0644445907369121
 40
0.0801288520387898
 40
0.0801288520387898
 40
0.0801288520387898
 40
0.0801288520387898
 10
-21.66084862583176
 20
15.05825298507659
 30
0.0
 10
-21.66630147010243
 20
15.05874213333817
 30
0.0
 10
-21.67720713570355
 20
15.05972041295996
 30
0.0
 10
-21.69080663776661
 20
15.06017619169984
 30
0.0
 10
-21.70158604225873
 20
15.06026512289281
 30
0.0
 10
-21.71211940518214
 20
15.06014154424622
 30
0.0
 10
-21.72522560777924
 20
15.05966442351734
 30
0.0
 10
-21.73564095514573
 20
15.05872346932096
 30
0.0
 10
-21.74084862583169
 20
15.05825298507659
 30
0.0
 11
-21.66084862583176
 21
15.05825298507659
 31
0.0
 11
-21.67721744637072
 21
15.05956757341596
 31
0.0
 11
-21.69362756283175
 21
15.06017759711653
 31
0.0
 11
-21.70158600613274
 21
15.06023862851617
 31
0.0
 11
-21.70954417411173
 21
15.06014973949652
 31
0.0
 11
-21.72521597649654
 21
15.05952433604005
 31
0.0
 11
-21.74084862583169
 21
15.05825298507659
 31
0.0
  0
SPLINE
  5
1CB
330
2
100
AcDbEntity
  8
GAIKEI
  6
Continuous
 62
     1
100
AcDbSpline
210
0.0
220
0.0
230
1.0
 70
     8
 71
     3
 72
     9
 73
     5
 74
     3
 42
0.0000000001
 43
0.0000000001
 44
0.00000001
 40
0.0
 40
0.0
 40
0.0
 40
0.0
 40
0.0172642597901988
 40
0.0345313494890867
 40
0.0345313494890867
 40
0.0345313494890867
 40
0.0345313494890867
 10
-21.55084862583175
 20
15.13603473101659
 30
0.0
 10
-21.55628815164032
 20
15.13794991062446
 30
0.0
 10
-21.56716810041282
 20
15.14178056461014
 30
0.0
 10
-21.57854657304878
 20
15.14367203632139
 30
0.0
 10
-21.58423627781167
 20
15.14461783995659
 30
0.0
 11
-21.55084862583175
 21
15.13603473101659
 31
0.0
 11
-21.56729181683005
 21
15.14129554425392
 31
0.0
 11
-21.58423627781167
 21
15.14461783995659
 31
0.0
  0
SPLINE
  5
1CC
330
2
100
AcDbEntity
  8
GAIKEI
  6
Continuous
 62
     1
100
AcDbSpline
210
0.0
220
0.0
230
1.0
 70
     8
 71
     3
 72
     9
 73
     5
 74
     3
 42
0.0000000001
 43
0.0000000001
 44
0.00000001
 40
0.0
 40
0.0
 40
0.0
 40
0.0
 40
0.017266836459236
 40
0.0345313319932436
 40
0.0345313319932436
 40
0.0345313319932436
 40
0.0345313319932436
 10
-21.81746097385178
 20
15.14461783995659
 30
0.0
 10
-21.82315057945709
 20
15.14367197903635
 30
0.0
 10
-21.83452901490562
 20
15.14178036598037
 30
0.0
 10
-21.84540900322042
 20
15.13794986249951
 30
0.0
 10
-21.85084862583176
 20
15.13603473101659
 30
0.0
 11
-21.81746097385178
 21
15.14461783995659
 31
0.0
 11
-21.83440516007562
 21
15.14129545910202
 31
0.0
 11
-21.85084862583176
 21
15.13603473101659
 31
0.0
  0
SPLINE
  5
1CD
330
2
100
AcDbEntity
  8
GAIKEI
  6
Continuous
 62
     1
100
AcDbSpline
210
0.0
220
0.0
230
1.0
 70
     8
 71
     3
 72
     9
 73
     5
 74
     3
 42
0.0000000001
 43
0.0000000001
 44
0.00000001
 40
0.0
 40
0.0
 40
0.0
 40
0.0
 40
0.0134083550985825
 40
0.0268167472469177
 40
0.0268167472469177
 40
0.0268167472469177
 40
0.0268167472469177
 10
-21.7908486258317
 20
15.14791536981659
 30
0.0
 10
-21.79529068791941
 20
15.14741966749926
 30
0.0
 10
-21.80417482199022
 20
15.14642824163798
 30
0.0
 10
-21.81303225333202
 20
15.14522131435194
 30
0.0
 10
-21.81746097385178
 20
15.14461783995659
 30
0.0
 11
-21.7908486258317
 21
15.14791536981659
 31
0.0
 11
-21.80416813528188
 21
15.1463743777245
 31
0.0
 11
-21.81746097385178
 21
15.14461783995659
 31
0.0
  0
SPLINE
  5
1CE
330
2
100
AcDbEntity
  8
GAIKEI
  6
Continuous
 62
     1
100
AcDbSpline
210
0.0
220
0.0
230
1.0
 70
     8
 71
     3
 72
    23
 73
    19
 74
    17
 42
0.0000000001
 43
0.0000000001
 44
0.00000001
 40
0.0
 40
0.0
 40
0.0
 40
0.0
 40
0.0061330070462452
 40
0.012266761082792
 40
0.0155425489494448
 40
0.018818775658696
 40
0.0221887405574352
 40
0.0255588258743779
 40
0.0290216926955394
 40
0.0324847919282259
 40
0.0360990981537957
 40
0.039713609340219
 40
0.0434432464026016
 40
0.0471729763861165
 40
0.050895243753829
 40
0.0546173827165987
 40
0.0618986522130021
 40
0.0691798960909488
 40
0.0691798960909488
 40
0.0691798960909488
 40
0.0691798960909488
 10
-21.74084862583169
 20
15.11256003075658
 30
0.0
 10
-21.74095828336912
 20
15.11460746836189
 30
0.0
 10
-21.74117762554964
 20
15.11870259157786
 30
0.0
 10
-21.74271167917546
 20
15.12370634717479
 30
0.0
 10
-21.74448999440265
 20
15.12754581000564
 30
0.0
 10
-21.74618572197445
 20
15.13039310293158
 30
0.0
 10
-21.74817527720362
 20
15.13308085508259
 30
0.0
 10
-21.75045901196906
 20
15.13560810179427
 30
0.0
 10
-21.75299512044113
 20
15.13792792180732
 30
0.0
 10
-21.75579609651591
 20
15.14005649353248
 30
0.0
 10
-21.75881671809537
 20
15.14195664858988
 30
0.0
 10
-21.76206607347854
 20
15.1436343457558
 30
0.0
 10
-21.76547658267816
 20
15.14505701738966
 30
0.0
 10
-21.7690213438875
 20
15.1462198747077
 30
0.0
 10
-21.77263982258978
 20
15.14711872238689
 30
0.0
 10
-21.77747783544547
 20
15.14795791244813
 30
0.0
 10
-21.78357882803165
 20
15.1484509902379
 30
0.0
 10
-21.7884253629735
 20
15.14809391461733
 30
0.0
 10
-21.7908486258317
 20
15.14791536981659
 30
0.0
 11
-21.74084862583169
 21
15.11256003075658
 31
0.0
 11
-21.74142542097866
 21
15.11866585870382
 31
0.0
 11
-21.74315961419177
 21
15.12454935683661
 31
0.0
 11
-21.74454024722718
 21
15.12751998742283
 31
0.0
 11
-21.74621447493172
 21
15.13033612473657
 31
0.0
 11
-21.7482177094771
 21
15.13304605472996
 31
0.0
 11
-21.75047561891171
 21
15.13554791905659
 31
0.0
 11
-21.75302868778283
 21
15.13788742557136
 31
0.0
 11
-21.75578433817168
 21
15.13998491251652
 31
0.0
 11
-21.75884196145847
 21
15.14191212642913
 31
0.0
 11
-21.7620523268717
 21
15.14357292403662
 31
0.0
 11
-21.76549340955148
 21
15.14501137668424
 31
0.0
 11
-21.76903642279171
 21
15.1461766860167
 31
0.0
 11
-21.77264864345005
 21
15.14707509496247
 31
0.0
 11
-21.77631496321169
 21
15.14771729399666
 31
0.0
 11
-21.78357571295368
 21
15.14826355527953
 31
0.0
 11
-21.7908486258317
 21
15.14791536981659
 31
0.0
  0
SPLINE
  5
1CF
330
2
100
AcDbEntity
  8
GAIKEI
  6
Continuous
 62
     1
100
AcDbSpline
210
0.0
220
0.0
230
1.0
 70
     8
 71
     3
 72
     9
 73
     5
 74
     3
 42
0.0000000001
 43
0.0000000001
 44
0.00000001
 40
0.0
 40
0.0
 40
0.0
 40
0.0
 40
0.0134083791635441
 40
0.0268167472977521
 40
0.0268167472977521
 40
0.0268167472977521
 40
0.0268167472977521
 10
-21.58423627781167
 20
15.14461783995659
 30
0.0
 10
-21.58866499383867
 20
15.14522131534107
 30
0.0
 10
-21.59752242478935
 20
15.14642824577669
 30
0.0
 10
-21.60640655924264
 20
15.1474196685582
 30
0.0
 10
-21.61084862583175
 20
15.14791536981659
 30
0.0
 11
-21.58423627781167
 21
15.14461783995659
 31
0.0
 11
-21.59752910308373
 21
15.14637437923932
 31
0.0
 11
-21.61084862583175
 21
15.14791536981659
 31
0.0
  0
SPLINE
  5
1D0
330
2
100
AcDbEntity
  8
GAIKEI
  6
Continuous
 62
     1
100
AcDbSpline
210
0.0
220
0.0
230
1.0
 70
     8
 71
     3
 72
    23
 73
    19
 74
    17
 42
0.0000000001
 43
0.0000000001
 44
0.00000001
 40
0.0
 40
0.0
 40
0.0
 40
0.0
 40
0.0075289807308201
 40
0.0150582064427653
 40
0.0189084256537709
 40
0.0227586868803324
 40
0.0264996404320444
 40
0.0302403929335292
 40
0.0338222128908867
 40
0.0374038608792304
 40
0.0408718990719708
 40
0.0443397037049632
 40
0.0476776565567601
 40
0.0510153594689511
 40
0.0541704870666217
 40
0.0573251392322997
 40
0.063253070286124
 40
0.0691807391877381
 40
0.0691807391877381
 40
0.0691807391877381
 40
0.0691807391877381
 10
-21.61084862583175
 20
15.14791536981659
 30
0.0
 10
-21.61335474566682
 20
15.14809715330443
 30
0.0
 10
-21.6183670675511
 20
15.14846071159462
 30
0.0
 10
-21.62467470289965
 20
15.14790887325875
 30
0.0
 10
-21.62966925691008
 20
15.14698935624125
 30
0.0
 10
-21.63336202072497
 20
15.14601951689815
 30
0.0
 10
-21.63693577711656
 20
15.14478536020294
 30
0.0
 10
-21.64031906716109
 20
15.14330738319574
 30
0.0
 10
-21.64352275891109
 20
15.14158185886083
 30
0.0
 10
-21.6464924461338
 20
15.13963960631002
 30
0.0
 10
-21.64924797726909
 20
15.13746458111296
 30
0.0
 10
-21.65173309890868
 20
15.13510078941431
 30
0.0
 10
-21.65395251786017
 20
15.13254313033053
 30
0.0
 10
-21.65585216170416
 20
15.1298666610021
 30
0.0
 10
-21.65744985931244
 20
15.12706883679902
 30
0.0
 10
-21.65911015687093
 20
15.12334010355357
 30
0.0
 10
-21.66054156566826
 20
15.11849615814981
 30
0.0
 10
-21.66074627853237
 20
15.11453871115907
 30
0.0
 10
-21.66084862583176
 20
15.11256003075658
 30
0.0
 11
-21.61084862583175
 21
15.14791536981659
 31
0.0
 11
-21.61836971526378
 21
15.14825996486399
 31
0.0
 11
-21.62587387687171
 21
15.14764612343657
 31
0.0
 11
-21.62965924181321
 21
15.14694241746179
 31
0.0
 11
-21.63338287917174
 21
15.14596311215661
 31
0.0
 11
-21.63691795089869
 21
15.14473918229441
 31
0.0
 11
-21.64034473257175
 21
15.14323904893666
 31
0.0
 11
-21.64349688780323
 21
15.14153806239562
 31
0.0
 11
-21.64649263979175
 21
15.13957498409661
 31
0.0
 11
-21.64921317543326
 21
15.13742417517676
 31
0.0
 11
-21.65172371807177
 21
15.13503192739654
 31
0.0
 11
-21.65390990092044
 21
15.13250952005205
 31
0.0
 11
-21.65584004499175
 21
15.12978650511661
 31
0.0
 11
-21.65740271218846
 21
15.1270455367956
 31
0.0
 11
-21.65868974467179
 21
15.12416536583657
 31
0.0
 11
-21.66031012360293
 21
15.11846319302106
 31
0.0
 11
-21.66084862583176
 21
15.11256003075658
 31
0.0
  0
SPLINE
  5
1D1
330
2
100
AcDbEntity
  8
GAIKEI
  6
Continuous
 62
     1
100
AcDbSpline
210
0.0
220
0.0
230
1.0
 70
    24
 71
     3
 72
     9
 73
     5
 74
     3
 42
0.0000000001
 43
0.0000000001
 44
0.00000001
 40
0.0
 40
0.0
 40
0.0
 40
0.0
 40
0.0009397078257216
 40
0.0018794156513856
 40
0.0018794156513856
 40
0.0018794156513856
 40
0.0018794156513856
 10
-21.48614441835173
 20
15.0485049449166
 30
0.0
 10
-21.48612394263173
 20
15.04819237892326
 30
0.0
 10
-21.48608299119171
 20
15.04756724693658
 30
0.0
 10
-21.48604203975172
 20
15.04694211494995
 30
0.0
 10
-21.48602156403172
 20
15.04662954895661
 30
0.0
 11
-21.48614441835173
 21
15.0485049449166
 31
0.0
 11
-21.48608299119172
 21
15.04756724693658
 31
0.0
 11
-21.48602156403172
 21
15.04662954895661
 31
0.0
  0
SPLINE
  5
1D2
330
2
100
AcDbEntity
  8
GAIKEI
  6
Continuous
 62
     1
100
AcDbSpline
210
0.0
220
0.0
230
1.0
 70
    24
 71
     3
 72
     9
 73
     5
 74
     3
 42
0.0000000001
 43
0.0000000001
 44
0.00000001
 40
0.0
 40
0.0
 40
0.0
 40
0.0
 40
0.003049453478409
 40
0.0060989069567607
 40
0.0060989069567607
 40
0.0060989069567607
 40
0.0060989069567607
 10
-21.48602156403172
 20
15.04662954895661
 30
0.0
 10
-21.48599274099838
 20
15.04561347319327
 30
0.0
 10
-21.48593509493172
 20
15.04358132166658
 30
0.0
 10
-21.48587744886508
 20
15.04154917013994
 30
0.0
 10
-21.48584862583175
 20
15.0405330943766
 30
0.0
 11
-21.48602156403172
 21
15.04662954895661
 31
0.0
 11
-21.48593509493173
 21
15.04358132166658
 31
0.0
 11
-21.48584862583175
 21
15.0405330943766
 31
0.0
  0
SPLINE
  5
1D3
330
2
100
AcDbEntity
  8
GAIKEI
  6
Continuous
 62
     1
100
AcDbSpline
210
0.0
220
0.0
230
1.0
 70
    24
 71
     3
 72
     9
 73
     5
 74
     3
 42
0.0000000001
 43
0.0000000001
 44
0.00000001
 40
0.0
 40
0.0
 40
0.0
 40
0.0
 40
0.0004971674267603
 40
0.0009943348536914
 40
0.0009943348536914
 40
0.0009943348536914
 40
0.0009943348536914
 10
-21.48584862583175
 20
15.0405330943766
 30
0.0
 10
-21.4858493922584
 20
15.04036737367329
 30
0.0
 10
-21.4858509251117
 20
15.04003593226662
 30
0.0
 10
-21.48585245796506
 20
15.03970449085995
 30
0.0
 10
-21.48585322439175
 20
15.03953877015658
 30
0.0
 11
-21.48584862583175
 21
15.0405330943766
 31
0.0
 11
-21.48585092511172
 21
15.04003593226662
 31
0.0
 11
-21.48585322439175
 21
15.03953877015658
 31
0.0
  0
SPLINE
  5
1D4
330
2
100
AcDbEntity
  8
GAIKEI
  6
Continuous
 62
     1
100
AcDbSpline
210
0.0
220
0.0
230
1.0
 70
    24
 71
     3
 72
     9
 73
     5
 74
     3
 42
0.0000000001
 43
0.0000000001
 44
0.00000001
 40
0.0
 40
0.0
 40
0.0
 40
0.0
 40
0.0004965013101185
 40
0.0009930026202376
 40
0.0009930026202376
 40
0.0009930026202376
 40
0.0009930026202376
 10
-21.48585322439175
 20
15.03953877015658
 30
0.0
 10
-21.48585551940506
 20
15.03937328563324
 30
0.0
 10
-21.48586010943171
 20
15.03904231658657
 30
0.0
 10
-21.48586469945839
 20
15.03871134753984
 30
0.0
 10
-21.48586699447173
 20
15.03854586301656
 30
0.0
 11
-21.48585322439175
 21
15.03953877015658
 31
0.0
 11
-21.48586010943171
 21
15.03904231658657
 31
0.0
 11
-21.48586699447173
 21
15.03854586301656
 31
0.0
  0
SPLINE
  5
1D5
330
2
100
AcDbEntity
  8
GAIKEI
  6
Continuous
 62
     1
100
AcDbSpline
210
0.0
220
0.0
230
1.0
 70
     8
 71
     3
 72
     9
 73
     5
 74
     3
 42
0.0000000001
 43
0.0000000001
 44
0.00000001
 40
0.0
 40
0.0
 40
0.0
 40
0.0
 40
0.0904702468420438
 40
0.1818630641185351
 40
0.1818630641185351
 40
0.1818630641185351
 40
0.1818630641185351
 10
-21.38646361899174
 20
15.04841383591656
 30
0.0
 10
-21.40093544998442
 20
15.07559755325388
 30
0.0
 10
-21.43002670368887
 20
15.13024218186945
 30
0.0
 10
-21.48347951390745
 20
15.16150017225931
 30
0.0
 10
-21.51034150537174
 20
15.17720844417658
 30
0.0
 11
-21.38646361899174
 21
15.04841383591656
 31
0.0
 11
-21.43590787405714
 21
15.12417749171982
 31
0.0
 11
-21.51034150537174
 21
15.17720844417658
 31
0.0
  0
SPLINE
  5
1D6
330
2
100
AcDbEntity
  8
GAIKEI
  6
Continuous
 62
     1
100
AcDbSpline
210
0.0
220
0.0
230
1.0
 70
     8
 71
     3
 72
     9
 73
     5
 74
     3
 42
0.0000000001
 43
0.0000000001
 44
0.00000001
 40
0.0
 40
0.0
 40
0.0
 40
0.0
 40
0.0916077976697587
 40
0.1822922114031322
 40
0.1822922114031322
 40
0.1822922114031322
 40
0.1822922114031322
 10
-21.8905663341917
 20
15.1776107277966
 30
0.0
 10
-21.91753228172135
 20
15.16193577691393
 30
0.0
 10
-21.97119235406016
 20
15.13074386006656
 30
0.0
 10
-22.00049851588351
 20
15.07604876193414
 30
0.0
 10
-22.01507736545176
 20
15.04883973327656
 30
0.0
 11
-21.8905663341917
 21
15.1776107277966
 31
0.0
 11
-21.96531385620847
 21
15.12465039465542
 31
0.0
 11
-22.01507736545176
 21
15.04883973327656
 31
0.0
  0
SPLINE
  5
1D7
330
2
100
AcDbEntity
  8
GAIKEI
  6
Continuous
 62
     1
100
AcDbSpline
210
0.0
220
0.0
230
1.0
 70
    24
 71
     3
 72
     9
 73
     5
 74
     3
 42
0.0000000001
 43
0.0000000001
 44
0.00000001
 40
0.0
 40
0.0
 40
0.0
 40
0.0
 40
0.0083552519769553
 40
0.0167105039539613
 40
0.0167105039539613
 40
0.0167105039539613
 40
0.0167105039539613
 10
-21.90814283767168
 20
15.10239628915661
 30
0.0
 10
-21.90939774646169
 20
15.09990994710995
 30
0.0
 10
-21.91190756404173
 20
15.09493726301662
 30
0.0
 10
-21.91441738162174
 20
15.08996457892328
 30
0.0
 10
-21.91567229041175
 20
15.08747823687656
 30
0.0
 11
-21.90814283767168
 21
15.10239628915661
 31
0.0
 11
-21.91190756404171
 21
15.09493726301662
 31
0.0
 11
-21.91567229041175
 21
15.08747823687656
 31
0.0
  0
SPLINE
  5
1D8
330
2
100
AcDbEntity
  8
GAIKEI
  6
Continuous
 62
     1
100
AcDbSpline
210
0.0
220
0.0
230
1.0
 70
    24
 71
     3
 72
     9
 73
     5
 74
     3
 42
0.0000000001
 43
0.0000000001
 44
0.00000001
 40
0.0
 40
0.0
 40
0.0
 40
0.0
 40
0.0189400524343869
 40
0.0378801048688945
 40
0.0378801048688945
 40
0.0378801048688945
 40
0.0378801048688945
 10
-21.91567229041175
 20
15.08747823687656
 30
0.0
 10
-21.91727178113839
 20
15.08137086199991
 30
0.0
 10
-21.92047076259173
 20
15.06915611224662
 30
0.0
 10
-21.92366974404507
 20
15.0569413624932
 30
0.0
 10
-21.92526923477175
 20
15.05083398761655
 30
0.0
 11
-21.91567229041175
 21
15.08747823687656
 31
0.0
 11
-21.92047076259172
 21
15.06915611224656
 31
0.0
 11
-21.92526923477175
 21
15.05083398761655
 31
0.0
  0
SPLINE
  5
1D9
330
2
100
AcDbEntity
  8
GAIKEI
  6
Continuous
 62
     1
100
AcDbSpline
210
0.0
220
0.0
230
1.0
 70
    24
 71
     3
 72
     9
 73
     5
 74
     3
 42
0.0000000001
 43
0.0000000001
 44
0.00000001
 40
0.0
 40
0.0
 40
0.0
 40
0.0
 40
0.0052368079017703
 40
0.0104736158035958
 40
0.0104736158035958
 40
0.0104736158035958
 40
0.0104736158035958
 10
-21.92526923477175
 20
15.05083398761655
 30
0.0
 10
-21.92536096646842
 20
15.04909079690657
 30
0.0
 10
-21.92554442986174
 20
15.04560441548665
 30
0.0
 10
-21.92572789325506
 20
15.04211803406656
 30
0.0
 10
-21.92581962495172
 20
15.04037484335657
 30
0.0
 11
-21.92526923477175
 21
15.05083398761655
 31
0.0
 11
-21.92554442986176
 21
15.04560441548659
 31
0.0
 11
-21.92581962495172
 21
15.04037484335657
 31
0.0
  0
SPLINE
  5
1DA
330
2
100
AcDbEntity
  8
GAIKEI
  6
Continuous
 62
     1
100
AcDbSpline
210
0.0
220
0.0
230
1.0
 70
    24
 71
     3
 72
     9
 73
     5
 74
     3
 42
0.0000000001
 43
0.0000000001
 44
0.00000001
 40
0.0
 40
0.0
 40
0.0
 40
0.0
 40
0.0241792736621077
 40
0.0483585473241569
 40
0.0483585473241569
 40
0.0483585473241569
 40
0.0483585473241569
 10
-21.49031911613179
 20
15.10085074287661
 30
0.0
 10
-21.49218012421844
 20
15.09300878227327
 30
0.0
 10
-21.49590214039177
 20
15.07732486106658
 30
0.0
 10
-21.49962415656508
 20
15.06164093985995
 30
0.0
 10
-21.50148516465174
 20
15.05379897925661
 30
0.0
 11
-21.49031911613179
 21
15.10085074287661
 31
0.0
 11
-21.49590214039176
 21
15.07732486106658
 31
0.0
 11
-21.50148516465174
 21
15.05379897925661
 31
0.0
  0
SPLINE
  5
1DB
330
2
100
AcDbEntity
  8
GAIKEI
  6
Continuous
 62
     1
100
AcDbSpline
210
0.0
220
0.0
230
1.0
 70
     8
 71
     3
 72
     9
 73
     5
 74
     3
 42
0.0000000001
 43
0.0000000001
 44
0.00000001
 40
0.0
 40
0.0
 40
0.0
 40
0.0
 40
0.0497637214489038
 40
0.1004877874213112
 40
0.1004877874213112
 40
0.1004877874213112
 40
0.1004877874213112
 10
-21.50148516465174
 20
15.05379897925661
 30
0.0
 10
-21.51009905998698
 20
15.03930656837679
 30
0.0
 10
-21.52749309735071
 20
15.01004208335007
 30
0.0
 10
-21.55656749098767
 20
14.99230792453022
 30
0.0
 10
-21.57124362373173
 20
14.98335611143659
 30
0.0
 11
-21.50148516465174
 21
15.05379897925661
 31
0.0
 11
-21.53019140059621
 21
15.01314950013443
 31
0.0
 11
-21.57124362373173
 21
14.98335611143659
 31
0.0
  0
SPLINE
  5
1DC
330
2
100
AcDbEntity
  8
GAIKEI
  6
Continuous
 62
     1
100
AcDbSpline
210
0.0
220
0.0
230
1.0
 70
    24
 71
     3
 72
     9
 73
     5
 74
     3
 42
0.0000000001
 43
0.0000000001
 44
0.00000001
 40
0.0
 40
0.0
 40
0.0
 40
0.0
 40
0.0134447303780151
 40
0.0268894607559402
 40
0.0268894607559402
 40
0.0268894607559402
 40
0.0268894607559402
 10
-21.57124362373173
 20
14.98335611143659
 30
0.0
 10
-21.57530033160841
 20
14.98145147190325
 30
0.0
 10
-21.58341374736173
 20
14.97764219283658
 30
0.0
 10
-21.59152716311503
 20
14.97383291376997
 30
0.0
 10
-21.59558387099167
 20
14.97192827423657
 30
0.0
 11
-21.57124362373173
 21
14.98335611143659
 31
0.0
 11
-21.58341374736176
 21
14.97764219283658
 31
0.0
 11
-21.59558387099167
 21
14.97192827423657
 31
0.0
  0
SPLINE
  5
1DD
330
2
100
AcDbEntity
  8
GAIKEI
  6
Continuous
 62
     1
100
AcDbSpline
210
0.0
220
0.0
230
1.0
 70
     8
 71
     3
 72
     9
 73
     5
 74
     3
 42
0.0000000001
 43
0.0000000001
 44
0.00000001
 40
0.0
 40
0.0
 40
0.0
 40
0.0
 40
0.107137511258918
 40
0.2142750225178361
 40
0.2142750225178361
 40
0.2142750225178361
 40
0.2142750225178361
 10
-21.59558387099167
 20
14.97192827423657
 30
0.0
 10
-21.63067212199536
 20
14.96195608675981
 30
0.0
 10
-21.70084862583173
 20
14.94201173111332
 30
0.0
 10
-21.7710251296681
 20
14.96195608675981
 30
0.0
 10
-21.80611338067178
 20
14.97192827423657
 30
0.0
 11
-21.59558387099167
 21
14.97192827423657
 31
0.0
 11
-21.70084862583173
 21
14.95198389893659
 31
0.0
 11
-21.80611338067178
 21
14.97192827423657
 31
0.0
  0
SPLINE
  5
1DE
330
2
100
AcDbEntity
  8
GAIKEI
  6
Continuous
 62
     1
100
AcDbSpline
210
0.0
220
0.0
230
1.0
 70
    24
 71
     3
 72
     9
 73
     5
 74
     3
 42
0.0000000001
 43
0.0000000001
 44
0.00000001
 40
0.0
 40
0.0
 40
0.0
 40
0.0
 40
0.0134447303779187
 40
0.0268894607559917
 40
0.0268894607559917
 40
0.0268894607559917
 40
0.0268894607559917
 10
-21.80611338067178
 20
14.97192827423657
 30
0.0
 10
-21.81017008854841
 20
14.97383291376991
 30
0.0
 10
-21.81828350430173
 20
14.97764219283658
 30
0.0
 10
-21.82639692005508
 20
14.98145147190325
 30
0.0
 10
-21.83045362793178
 20
14.98335611143659
 30
0.0
 11
-21.80611338067178
 21
14.97192827423657
 31
0.0
 11
-21.81828350430169
 21
14.97764219283658
 31
0.0
 11
-21.83045362793178
 21
14.98335611143659
 31
0.0
  0
SPLINE
  5
1DF
330
2
100
AcDbEntity
  8
GAIKEI
  6
Continuous
 62
     1
100
AcDbSpline
210
0.0
220
0.0
230
1.0
 70
     8
 71
     3
 72
     9
 73
     5
 74
     3
 42
0.0000000001
 43
0.0000000001
 44
0.00000001
 40
0.0
 40
0.0
 40
0.0
 40
0.0
 40
0.0507240659724075
 40
0.1004877874213112
 40
0.1004877874213112
 40
0.1004877874213112
 40
0.1004877874213112
 10
-21.83045362793178
 20
14.98335611143659
 30
0.0
 10
-21.84512976067584
 20
14.99230792453028
 30
0.0
 10
-21.8742041543128
 20
15.01004208335013
 30
0.0
 10
-21.89159819167652
 20
15.03930656837679
 30
0.0
 10
-21.90021208701177
 20
15.05379897925661
 30
0.0
 11
-21.83045362793178
 21
14.98335611143659
 31
0.0
 11
-21.8715058510673
 21
15.01314950013443
 31
0.0
 11
-21.90021208701177
 21
15.05379897925661
 31
0.0
  0
SPLINE
  5
1E0
330
2
100
AcDbEntity
  8
GAIKEI
  6
Continuous
 62
     1
100
AcDbSpline
210
0.0
220
0.0
230
1.0
 70
    24
 71
     3
 72
     9
 73
     5
 74
     3
 42
0.0000000001
 43
0.0000000001
 44
0.00000001
 40
0.0
 40
0.0
 40
0.0
 40
0.0
 40
0.0241792736621061
 40
0.0483585473241569
 40
0.0483585473241569
 40
0.0483585473241569
 40
0.0483585473241569
 10
-21.90021208701177
 20
15.05379897925661
 30
0.0
 10
-21.90207309509844
 20
15.06164093985995
 30
0.0
 10
-21.90579511127173
 20
15.07732486106658
 30
0.0
 10
-21.90951712744507
 20
15.09300878227333
 30
0.0
 10
-21.91137813553172
 20
15.10085074287661
 30
0.0
 11
-21.90021208701177
 21
15.05379897925661
 31
0.0
 11
-21.90579511127174
 21
15.07732486106658
 31
0.0
 11
-21.91137813553172
 21
15.10085074287661
 31
0.0
  0
SPLINE
  5
1E1
330
2
100
AcDbEntity
  8
GAIKEI
  6
Continuous
 62
     1
100
AcDbSpline
210
0.0
220
0.0
230
1.0
 70
     8
 71
     3
 72
     9
 73
     5
 74
     3
 42
0.0000000001
 43
0.0000000001
 44
0.00000001
 40
0.0
 40
0.0
 40
0.0
 40
0.0
 40
0.0172668364592251
 40
0.0345313319931958
 40
0.0345313319931958
 40
0.0345313319931958
 40
0.0345313319931958
 10
-21.58423627781167
 20
15.20118638245657
 30
0.0
 10
-21.57854667220636
 20
15.20024052153633
 30
0.0
 10
-21.56716823675782
 20
15.19834890848057
 30
0.0
 10
-21.55628824844308
 20
15.19451840499937
 30
0.0
 10
-21.55084862583175
 20
15.19260327351657
 30
0.0
 11
-21.58423627781167
 21
15.20118638245657
 31
0.0
 11
-21.56729209158783
 21
15.19786400160205
 31
0.0
 11
-21.55084862583175
 21
15.19260327351657
 31
0.0
  0
SPLINE
  5
1E2
330
2
100
AcDbEntity
  8
GAIKEI
  6
Continuous
 62
     1
100
AcDbSpline
210
0.0
220
0.0
230
1.0
 70
    24
 71
     3
 72
     9
 73
     5
 74
     3
 42
0.0000000001
 43
0.0000000001
 44
0.00000001
 40
0.0
 40
0.0
 40
0.0
 40
0.0
 40
0.0061162729758385
 40
0.0122325459514634
 40
0.0122325459514634
 40
0.0122325459514634
 40
0.0122325459514634
 10
-21.66084862583176
 20
15.13952804373662
 30
0.0
 10
-21.66035092622176
 20
15.13755096814651
 30
0.0
 10
-21.65935552700183
 20
15.13359681696659
 30
0.0
 10
-21.65836012778177
 20
15.12964266578643
 30
0.0
 10
-21.65786242817177
 20
15.12766559019655
 30
0.0
 11
-21.66084862583176
 21
15.13952804373662
 31
0.0
 11
-21.65935552700176
 21
15.13359681696659
 31
0.0
 11
-21.65786242817177
 21
15.12766559019655
 31
0.0
  0
SPLINE
  5
1E3
330
2
100
AcDbEntity
  8
GAIKEI
  6
Continuous
 62
     1
100
AcDbSpline
210
0.0
220
0.0
230
1.0
 70
     8
 71
     3
 72
    13
 73
     9
 74
     7
 42
0.0000000001
 43
0.0000000001
 44
0.00000001
 40
0.0
 40
0.0
 40
0.0
 40
0.0
 40
0.0164215231604458
 40
0.0328429736825306
 40
0.0408016507948504
 40
0.0487603149764875
 40
0.064444590735725
 40
0.0801288520372015
 40
0.0801288520372015
 40
0.0801288520372015
 40
0.0801288520372015
 10
-21.74084862583169
 20
15.27038501943662
 30
0.0
 10
-21.73539578156125
 20
15.27087416770041
 30
0.0
 10
-21.72449011596059
 20
15.27185244732681
 30
0.0
 10
-21.71089061389666
 20
15.27230822603963
 30
0.0
 10
-21.70011120940478
 20
15.27239715722851
 30
0.0
 10
-21.68957784648156
 20
15.27227357858578
 30
0.0
 10
-21.67647164388358
 20
15.27179645788374
 30
0.0
 10
-21.66605629651748
 20
15.27085550368309
 30
0.0
 10
-21.66084862583176
 20
15.27038501943662
 30
0.0
 11
-21.74084862583169
 21
15.27038501943662
 31
0.0
 11
-21.72447980529313
 21
15.27169960777621
 31
0.0
 11
-21.70806968883176
 21
15.27230963145666
 31
0.0
 11
-21.70011124553076
 21
15.27237066285283
 31
0.0
 11
-21.69215307755178
 21
15.27228177383665
 31
0.0
 11
-21.67648127516651
 21
15.27165637040002
 31
0.0
 11
-21.66084862583176
 21
15.27038501943662
 31
0.0
  0
SPLINE
  5
1E4
330
2
100
AcDbEntity
  8
GAIKEI
  6
Continuous
 62
     1
100
AcDbSpline
210
0.0
220
0.0
230
1.0
 70
     8
 71
     3
 72
     9
 73
     5
 74
     3
 42
0.0000000001
 43
0.0000000001
 44
0.00000001
 40
0.0
 40
0.0
 40
0.0
 40
0.0
 40
0.0172642597900258
 40
0.0345313494885604
 40
0.0345313494885604
 40
0.0345313494885604
 40
0.0345313494885604
 10
-21.85084862583176
 20
15.19260327351657
 30
0.0
 10
-21.84540910002252
 20
15.19451845312204
 30
0.0
 10
-21.83452915124874
 20
15.19834910710284
 30
0.0
 10
-21.82315067861403
 20
15.20024057881903
 30
0.0
 10
-21.81746097385178
 20
15.20118638245657
 30
0.0
 11
-21.85084862583176
 21
15.19260327351657
 31
0.0
 11
-21.83440543483209
 21
15.19786408674906
 31
0.0
 11
-21.81746097385178
 21
15.20118638245657
 31
0.0
  0
SPLINE
  5
1E5
330
2
100
AcDbEntity
  8
GAIKEI
  6
Continuous
 62
     1
100
AcDbSpline
210
0.0
220
0.0
230
1.0
 70
     8
 71
     3
 72
     9
 73
     5
 74
     3
 42
0.0000000001
 43
0.0000000001
 44
0.00000001
 40
0.0
 40
0.0
 40
0.0
 40
0.0
 40
0.0134083791633449
 40
0.0268167472973969
 40
0.0268167472973969
 40
0.0268167472973969
 40
0.0268167472973969
 10
-21.81746097385178
 20
15.20118638245657
 30
0.0
 10
-21.81303225782341
 20
15.2017898578299
 30
0.0
 10
-21.80417482686998
 20
15.20299678824341
 30
0.0
 10
-21.79529069241945
 20
15.20398821104703
 30
0.0
 10
-21.7908486258317
 20
15.20448391231662
 30
0.0
 11
-21.81746097385178
 21
15.20118638245657
 31
0.0
 11
-21.80416814857699
 21
15.20294292171712
 31
0.0
 11
-21.7908486258317
 21
15.20448391231662
 31
0.0
  0
SPLINE
  5
1E6
330
2
100
AcDbEntity
  8
GAIKEI
  6
Continuous
 62
     1
100
AcDbSpline
210
0.0
220
0.0
230
1.0
 70
     8
 71
     3
 72
    23
 73
    19
 74
    17
 42
0.0000000001
 43
0.0000000001
 44
0.00000001
 40
0.0
 40
0.0
 40
0.0
 40
0.0
 40
0.0076684892654153
 40
0.0153371861278177
 40
0.0193177809809787
 40
0.0232983707944159
 40
0.0271525141531191
 40
0.0310065740332802
 40
0.0346335957878402
 40
0.038260503610953
 40
0.0416552577813385
 40
0.0450498661904756
 40
0.0481510328954978
 40
0.0512516849279148
 40
0.0539912951101585
 40
0.0567307403533423
 40
0.061363484726474
 40
0.0659941331320315
 40
0.0659941331320315
 40
0.0659941331320315
 40
0.0659941331320315
 10
-21.7908486258317
 20
15.20448391231662
 30
0.0
 10
-21.78831342574414
 20
15.20482302696115
 30
0.0
 10
-21.78324295846753
 20
15.20550127487206
 30
0.0
 10
-21.77698490775679
 20
15.20707859029949
 30
0.0
 10
-21.77202444357847
 20
15.20867422081551
 30
0.0
 10
-21.76834049905103
 20
15.21007285008403
 30
0.0
 10
-21.76477281513133
 20
15.21164316529342
 30
0.0
 10
-21.76140188795269
 20
15.2133546108231
 30
0.0
 10
-21.7582000202202
 20
15.21521820959458
 30
0.0
 10
-21.75524538861239
 20
15.21718976254055
 30
0.0
 10
-21.75248662045619
 20
15.2193021750403
 30
0.0
 10
-21.7500157603973
 20
15.2214895480929
 30
0.0
 10
-21.74778646265544
 20
15.22378818532343
 30
0.0
 10
-21.74589504621775
 20
15.22609613338181
 30
0.0
 10
-21.74428094273631
 20
15.2284633967455
 30
0.0
 10
-21.74266760682613
 20
15.23142260217059
 30
0.0
 10
-21.74119852682991
 20
15.23519890117802
 30
0.0
 10
-21.74096523716289
 20
15.23829270055779
 30
0.0
 10
-21.74084862583169
 20
15.23983925137656
 30
0.0
 11
-21.7908486258317
 21
15.20448391231662
 31
0.0
 11
-21.78326851898658
 21
15.20564476684131
 31
0.0
 11
-21.77582337479174
 21
15.20748289701657
 31
0.0
 11
-21.77203555075613
 21
15.20870663058633
 31
0.0
 11
-21.76831437249171
 21
15.21012011121655
 31
0.0
 11
-21.76478790246386
 21
15.21167524149354
 31
0.0
 11
-21.7613525190917
 21
15.21342221561667
 31
0.0
 11
-21.7582195547509
 21
15.21524973334766
 31
0.0
 11
-21.7552046118717
 21
15.21726581355665
 31
0.0
 11
-21.75251210437614
 21
15.21933336251624
 31
0.0
 11
-21.74997353359168
 21
15.22158703147659
 31
0.0
 11
-21.74781856060201
 21
15.22381712684972
 31
0.0
 11
-21.74585720667176
 21
15.22621861235655
 31
0.0
 11
-21.74432006781092
 21
15.22848635739296
 31
0.0
 11
-21.74300750699178
 21
15.23089088367658
 31
0.0
 11
-21.74142348934487
 21
15.2352444182269
 31
0.0
 11
-21.74084862583169
 21
15.23983925137656
 31
0.0
  0
SPLINE
  5
1E7
330
2
100
AcDbEntity
  8
GAIKEI
  6
Continuous
 62
     1
100
AcDbSpline
210
0.0
220
0.0
230
1.0
 70
     8
 71
     3
 72
     9
 73
     5
 74
     3
 42
0.0000000001
 43
0.0000000001
 44
0.00000001
 40
0.0
 40
0.0
 40
0.0
 40
0.0
 40
0.0134083550985891
 40
0.0268167472469242
 40
0.0268167472469242
 40
0.0268167472469242
 40
0.0268167472469242
 10
-21.61084862583175
 20
15.20448391231662
 30
0.0
 10
-21.60640656374403
 20
15.20398820999929
 30
0.0
 10
-21.59752242967323
 20
15.20299678413789
 30
0.0
 10
-21.58866499833143
 20
15.2017898568518
 30
0.0
 10
-21.58423627781167
 20
15.20118638245657
 30
0.0
 11
-21.61084862583175
 21
15.20448391231662
 31
0.0
 11
-21.59752911638157
 21
15.20294292022447
 31
0.0
 11
-21.58423627781167
 21
15.20118638245657
 31
0.0
  0
SPLINE
  5
1E8
330
2
100
AcDbEntity
  8
GAIKEI
  6
Continuous
 62
     1
100
AcDbSpline
210
0.0
220
0.0
230
1.0
 70
     8
 71
     3
 72
    23
 73
    19
 74
    17
 42
0.0000000001
 43
0.0000000001
 44
0.00000001
 40
0.0
 40
0.0
 40
0.0
 40
0.0
 40
0.0048023361343593
 40
0.0096077818270029
 40
0.0124697808845828
 40
0.015331836645157
 40
0.0184819029409898
 40
0.0216323533160484
 40
0.0250368670628426
 40
0.028441517886914
 40
0.0321106631614437
 40
0.0357799434887724
 40
0.039626164746719
 40
0.0434724089976212
 40
0.0473198124141807
 40
0.0511671744253746
 40
0.0585799484682656
 40
0.0659926444976494
 40
0.0659926444976494
 40
0.0659926444976494
 40
0.0659926444976494
 10
-21.66084862583176
 20
15.23983925137656
 30
0.0
 10
-21.66072301966406
 20
15.23823519175801
 30
0.0
 10
-21.66047171174668
 20
15.23502603622597
 30
0.0
 10
-21.65889632593212
 20
15.23111901076322
 30
0.0
 10
-21.6571704476465
 20
15.22806318398244
 30
0.0
 10
-21.65545868311778
 20
15.22564370770129
 30
0.0
 10
-21.65347974454357
 20
15.22331286236766
 30
0.0
 10
-21.65118724423408
 20
15.2210257163963
 30
0.0
 10
-21.64866610546279
 20
15.21886117083295
 30
0.0
 10
-21.64586215641049
 20
15.21677442156709
 30
0.0
 10
-21.64285616246251
 20
15.21482371724516
 30
0.0
 10
-21.63960936392193
 20
15.21298709987206
 30
0.0
 10
-21.63621098474049
 20
15.21131092978442
 30
0.0
 10
-21.6326724355995
 20
15.20979833680712
 30
0.0
 10
-21.6290617939588
 20
15.20846533643151
 30
0.0
 10
-21.6242563523213
 20
15.20695709971841
 30
0.0
 10
-21.61820109161971
 20
15.20546101495182
 30
0.0
 10
-21.61329943967311
 20
15.20480960886942
 30
0.0
 10
-21.61084862583175
 20
15.20448391231662
 30
0.0
 11
-21.66084862583176
 21
15.23983925137656
 31
0.0
 11
-21.66023133018723
 21
15.23507674836526
 31
0.0
 11
-21.65853763747174
 21
15.23057966363666
 31
0.0
 11
-21.65712897441228
 21
15.22808833675185
 31
0.0
 11
-21.65548277673173
 21
15.22574709863664
 31
0.0
 11
-21.65344794759767
 21
15.22334243920431
 31
0.0
 11
-21.65122163275169
 21
15.22111334547651
 31
0.0
 11
-21.64864151836292
 21
15.21889214696875
 31
0.0
 11
-21.64591291349172
 21
15.21685588515663
 31
0.0
 11
-21.64283695947393
 21
15.2148556017845
 31
0.0
 11
-21.63964492479175
 21
15.21304603483668
 31
0.0
 11
-21.63619650192357
 21
15.21134256847563
 31
0.0
 11
-21.63266082887174
 21
15.20982843145663
 31
0.0
 11
-21.62905171249395
 21
15.20849546787855
 31
0.0
 11
-21.62538228843175
 21
15.2073389555166
 31
0.0
 11
-21.61817755373693
 21
15.2055951091807
 31
0.0
 11
-21.61084862583175
 21
15.20448391231662
 31
0.0
  0
SPLINE
  5
1E9
330
2
100
AcDbEntity
  8
GAIKEI
  6
Continuous
 62
     1
100
AcDbSpline
210
0.0
220
0.0
230
1.0
 70
     8
 71
     3
 72
     9
 73
     5
 74
     3
 42
0.0000000001
 43
0.0000000001
 44
0.00000001
 40
0.0
 40
0.0
 40
0.0
 40
0.0
 40
0.0101164718294524
 40
0.0202173694739903
 40
0.0202173694739903
 40
0.0202173694739903
 40
0.0202173694739903
 10
-21.9239867012518
 20
14.97076650117657
 30
0.0
 10
-21.92453334903778
 20
14.97409894510218
 30
0.0
 10
-21.92562578322346
 20
14.98075870498206
 30
0.0
 10
-21.92575505086884
 20
14.98750621295227
 30
0.0
 10
-21.92581962495172
 20
14.99087736867659
 30
0.0
 11
-21.9239867012518
 21
14.97076650117657
 31
0.0
 11
-21.92538547196523
 21
14.9807858051667
 31
0.0
 11
-21.92581962495172
 21
14.99087736867659
 31
0.0
  0
SPLINE
  5
1EA
330
2
100
AcDbEntity
  8
GAIKEI
  6
Continuous
 62
     1
100
AcDbSpline
210
0.0
220
0.0
230
1.0
 70
    24
 71
     3
 72
     9
 73
     5
 74
     3
 42
0.0000000001
 43
0.0000000001
 44
0.00000001
 40
0.0
 40
0.0
 40
0.0
 40
0.0
 40
0.0144346436316716
 40
0.0288692872633994
 40
0.0288692872633994
 40
0.0288692872633994
 40
0.0288692872633994
 10
-21.48586699447173
 20
15.03854586301656
 30
0.0
 10
-21.48662122116506
 20
15.03379379661658
 30
0.0
 10
-21.48812967455171
 20
15.0242896638166
 30
0.0
 10
-21.48963812793837
 20
15.01478553101657
 30
0.0
 10
-21.49039235463169
 20
15.01003346461658
 30
0.0
 11
-21.48586699447173
 21
15.03854586301656
 31
0.0
 11
-21.48812967455171
 21
15.0242896638166
 31
0.0
 11
-21.49039235463169
 21
15.01003346461658
 31
0.0
  0
SPLINE
  5
1EB
330
2
100
AcDbEntity
  8
GAIKEI
  6
Continuous
 62
     1
100
AcDbSpline
210
0.0
220
0.0
230
1.0
 70
     8
 71
     3
 72
     9
 73
     5
 74
     3
 42
0.0000000001
 43
0.0000000001
 44
0.00000001
 40
0.0
 40
0.0
 40
0.0
 40
0.0
 40
0.0434675309797481
 40
0.0870604043422104
 40
0.0870604043422104
 40
0.0870604043422104
 40
0.0870604043422104
 10
-21.49039235463169
 20
15.01003346461658
 30
0.0
 10
-21.49587458798655
 20
14.99639092733179
 30
0.0
 10
-21.50685488004772
 20
14.96906652329363
 30
0.0
 10
-21.52882995093705
 20
14.94946109709355
 30
0.0
 10
-21.53983331289174
 20
14.93964427709659
 30
0.0
 11
-21.49039235463169
 21
15.01003346461658
 31
0.0
 11
-21.50957984906239
 21
14.97103004885474
 31
0.0
 11
-21.53983331289174
 21
14.93964427709659
 31
0.0
  0
SPLINE
  5
1EC
330
2
100
AcDbEntity
  8
GAIKEI
  6
Continuous
 62
     1
100
AcDbSpline
210
0.0
220
0.0
230
1.0
 70
    24
 71
     3
 72
     9
 73
     5
 74
     3
 42
0.0000000001
 43
0.0000000001
 44
0.00000001
 40
0.0
 40
0.0
 40
0.0
 40
0.0
 40
0.006137840613973
 40
0.0122756812280667
 40
0.0122756812280667
 40
0.0122756812280667
 40
0.0122756812280667
 10
-21.7438546008517
 20
15.12762609163656
 30
0.0
 10
-21.74335360501505
 20
15.1296097503199
 30
0.0
 10
-21.7423516133417
 20
15.13357706768658
 30
0.0
 10
-21.74134962166839
 20
15.13754438505322
 30
0.0
 10
-21.74084862583169
 20
15.13952804373662
 30
0.0
 11
-21.7438546008517
 21
15.12762609163656
 31
0.0
 11
-21.74235161334173
 21
15.13357706768658
 31
0.0
 11
-21.74084862583169
 21
15.13952804373662
 31
0.0
  0
SPLINE
  5
1ED
330
2
100
AcDbEntity
  8
GAIKEI
  6
Continuous
 62
     1
100
AcDbSpline
210
0.0
220
0.0
230
1.0
 70
     8
 71
     3
 72
     9
 73
     5
 74
     3
 42
0.0000000001
 43
0.0000000001
 44
0.00000001
 40
0.0
 40
0.0
 40
0.0
 40
0.0
 40
0.0582090978218623
 40
0.1164207786516209
 40
0.1164207786516209
 40
0.1164207786516209
 40
0.1164207786516209
 10
-24.73590145557177
 20
25.79771742975663
 30
0.0
 10
-24.75518102139483
 20
25.79997904035514
 30
0.0
 10
-24.79374100570453
 20
25.80450238169198
 30
0.0
 10
-24.83181247202439
 20
25.81211135870922
 30
0.0
 10
-24.85084862583176
 20
25.81591594147659
 30
0.0
 11
-24.73590145557177
 21
25.79771742975663
 31
0.0
 11
-24.7936180276663
 21
25.80527364614659
 31
0.0
 11
-24.85084862583176
 21
25.81591594147659
 31
0.0
  0
SPLINE
  5
1EE
330
2
100
AcDbEntity
  8
GAIKEI
  6
Continuous
 62
     1
100
AcDbSpline
210
0.0
220
0.0
230
1.0
 70
     8
 71
     3
 72
    11
 73
     7
 74
     5
 42
0.0000000001
 43
0.0000000001
 44
0.00000001
 40
0.0
 40
0.0
 40
0.0
 40
0.0
 40
0.1024281171943185
 40
0.2048509629244159
 40
0.3072736936019057
 40
0.4097016946942923
 40
0.4097016946942923
 40
0.4097016946942923
 40
0.4097016946942923
 10
-24.85084862583176
 20
26.13793956973661
 30
0.0
 10
-24.8184313495182
 20
26.12698264977843
 30
0.0
 10
-24.75359846119908
 20
26.10506938804713
 30
0.0
 10
-24.65084854700272
 20
26.09404155114328
 30
0.0
 10
-24.54809867944035
 20
26.10506942426048
 30
0.0
 10
-24.48326586502656
 20
26.12698266188693
 30
0.0
 10
-24.45084862583172
 20
26.13793956973661
 30
0.0
 11
-24.85084862583176
 21
26.13793956973661
 31
0.0
 11
-24.75267983045256
 21
26.10870932781791
 31
0.0
 11
-24.65084850983175
 21
26.09771742975659
 31
0.0
 11
-24.54901730769581
 21
26.10870935342359
 31
0.0
 11
-24.45084862583172
 21
26.13793956973661
 31
0.0
  0
SPLINE
  5
1EF
330
2
100
AcDbEntity
  8
GAIKEI
  6
Continuous
 62
     1
100
AcDbSpline
210
0.0
220
0.0
230
1.0
 70
     8
 71
     3
 72
     9
 73
     5
 74
     3
 42
0.0000000001
 43
0.0000000001
 44
0.00000001
 40
0.0
 40
0.0
 40
0.0
 40
0.0
 40
0.0582116986878661
 40
0.1164207786032092
 40
0.1164207786032092
 40
0.1164207786032092
 40
0.1164207786032092
 10
-24.05084862583175
 20
25.81591594147659
 30
0.0
 10
-24.06988478554418
 20
25.8121113578822
 30
0.0
 10
-24.10795625197854
 20
25.8045023815481
 30
0.0
 10
-24.14651623621044
 20
25.79997903984406
 30
0.0
 10
-24.16579579607173
 20
25.79771742975663
 30
0.0
 11
-24.05084862583175
 21
25.81591594147659
 31
0.0
 11
-24.10807924173935
 21
25.80527364387666
 31
0.0
 11
-24.16579579607173
 21
25.79771742975663
 31
0.0
  0
SPLINE
  5
1F0
330
2
100
AcDbEntity
  8
GAIKEI
  6
Continuous
 62
     1
100
AcDbSpline
210
0.0
220
0.0
230
1.0
 70
     8
 71
     3
 72
     9
 73
     5
 74
     3
 42
0.0000000001
 43
0.0000000001
 44
0.00000001
 40
0.0
 40
0.0
 40
0.0
 40
0.0
 40
0.0582090978218623
 40
0.1164207786516209
 40
0.1164207786516209
 40
0.1164207786516209
 40
0.1164207786516209
 10
-24.33590145557173
 20
25.79771742975663
 30
0.0
 10
-24.35518102139479
 20
25.79997904035514
 30
0.0
 10
-24.39374100570451
 20
25.80450238169198
 30
0.0
 10
-24.43181247202435
 20
25.81211135870922
 30
0.0
 10
-24.45084862583172
 20
25.81591594147659
 30
0.0
 11
-24.33590145557173
 21
25.79771742975663
 31
0.0
 11
-24.39361802766626
 21
25.80527364614659
 31
0.0
 11
-24.45084862583172
 21
25.81591594147659
 31
0.0
  0
SPLINE
  5
1F1
330
2
100
AcDbEntity
  8
GAIKEI
  6
Continuous
 62
     1
100
AcDbSpline
210
0.0
220
0.0
230
1.0
 70
     8
 71
     3
 72
    11
 73
     7
 74
     5
 42
0.0000000001
 43
0.0000000001
 44
0.00000001
 40
0.0
 40
0.0
 40
0.0
 40
0.0
 40
0.1024281171943185
 40
0.2048509629243594
 40
0.3072736936019057
 40
0.4097016946942377
 40
0.4097016946942377
 40
0.4097016946942377
 40
0.4097016946942377
 10
-24.45084862583172
 20
26.13793956973661
 30
0.0
 10
-24.41843134951816
 20
26.12698264977843
 30
0.0
 10
-24.35359846119907
 20
26.10506938804718
 30
0.0
 10
-24.25084854700271
 20
26.09404155114328
 30
0.0
 10
-24.14809867944034
 20
26.10506942426059
 30
0.0
 10
-24.08326586502657
 20
26.12698266188687
 30
0.0
 10
-24.05084862583175
 20
26.13793956973661
 30
0.0
 11
-24.45084862583172
 21
26.13793956973661
 31
0.0
 11
-24.35267983045253
 21
26.10870932781791
 31
0.0
 11
-24.25084850983177
 21
26.09771742975659
 31
0.0
 11
-24.14901730769577
 21
26.10870935342359
 31
0.0
 11
-24.05084862583175
 21
26.13793956973661
 31
0.0
  0
SPLINE
  5
1F2
330
2
100
AcDbEntity
  8
GAIKEI
  6
Continuous
 62
     1
100
AcDbSpline
210
0.0
220
0.0
230
1.0
 70
     8
 71
     3
 72
     9
 73
     5
 74
     3
 42
0.0000000001
 43
0.0000000001
 44
0.00000001
 40
0.0
 40
0.0
 40
0.0
 40
0.0
 40
0.0582116986878661
 40
0.1164207786032092
 40
0.1164207786032092
 40
0.1164207786032092
 40
0.1164207786032092
 10
-24.45084862583172
 20
25.81591594147659
 30
0.0
 10
-24.46988478554416
 20
25.8121113578822
 30
0.0
 10
-24.50795625197853
 20
25.8045023815481
 30
0.0
 10
-24.54651623621041
 20
25.79997903984406
 30
0.0
 10
-24.56579579607171
 20
25.79771742975663
 30
0.0
 11
-24.45084862583172
 21
25.81591594147659
 31
0.0
 11
-24.50807924173933
 21
25.80527364387666
 31
0.0
 11
-24.56579579607171
 21
25.79771742975663
 31
0.0
  0
SPLINE
  5
1F3
330
2
100
AcDbEntity
  8
GAIKEI
  6
Continuous
 62
     1
100
AcDbSpline
210
0.0
220
0.0
230
1.0
 70
     8
 71
     3
 72
     9
 73
     5
 74
     3
 42
0.0000000001
 43
0.0000000001
 44
0.00000001
 40
0.0
 40
0.0
 40
0.0
 40
0.0
 40
0.0203546161609145
 40
0.0407092323216536
 40
0.0407092323216536
 40
0.0407092323216536
 40
0.0407092323216536
 10
-15.50084862583173
 20
-1.743185511983426
 30
0.0
 10
-15.494173347593
 20
-1.741970952595863
 30
0.0
 10
-15.48082279470178
 20
-1.739541814144956
 30
0.0
 10
-15.46747444885764
 20
-1.737100576888849
 30
0.0
 10
-15.46080027773166
 20
-1.735879948423416
 30
0.0
 11
-15.50084862583173
 21
-1.743185511983426
 31
0.0
 11
-15.48082334466892
 21
-1.739538799281319
 31
0.0
 11
-15.46080027773166
 21
-1.735879948423416
 31
0.0
  0
SPLINE
  5
1F4
330
2
100
AcDbEntity
  8
GAIKEI
  6
Continuous
 62
     1
100
AcDbSpline
210
0.0
220
0.0
230
1.0
 70
     8
 71
     3
 72
    19
 73
    15
 74
    13
 42
0.0000000001
 43
0.0000000001
 44
0.00000001
 40
0.0
 40
0.0
 40
0.0
 40
0.0
 40
0.0073596237621077
 40
0.0147211717567751
 40
0.0188461076554498
 40
0.0229704258259521
 40
0.0274841274939057
 40
0.031998530910412
 40
0.036772099185081
 40
0.0415456909289633
 40
0.0464957549116209
 40
0.051445994636232
 40
0.0615982020291979
 40
0.0717505183490894
 40
0.0717505183490894
 40
0.0717505183490894
 40
0.0717505183490894
 10
-15.55084862583175
 20
-1.787591416943428
 30
0.0
 10
-15.55063740992366
 20
-1.78513328808583
 30
0.0
 10
-15.55021490869233
 20
-1.780216389835629
 30
0.0
 10
-15.5476951857612
 20
-1.774361159610577
 30
0.0
 10
-15.54504396615218
 20
-1.769885859549162
 30
0.0
 10
-15.54252015141306
 20
-1.766450825167339
 30
0.0
 10
-15.53962358196948
 20
-1.763153391421894
 30
0.0
 10
-15.53630587298124
 20
-1.759959100917967
 30
0.0
 10
-15.53268474194728
 20
-1.756975730532133
 30
0.0
 10
-15.52873491483279
 20
-1.754185043913025
 30
0.0
 10
-15.5245498362718
 20
-1.751644143164298
 30
0.0
 10
-15.51860787118046
 20
-1.748579708654688
 30
0.0
 10
-15.5107722814997
 20
-1.745393280437895
 30
0.0
 10
-15.50415652401474
 20
-1.743921433047319
 30
0.0
 10
-15.50084862583173
 20
-1.743185511983426
 30
0.0
 11
-15.55084862583175
 21
-1.787591416943428
 31
0.0
 11
-15.54982864382214
 21
-1.780302812136426
 31
0.0
 11
-15.54709198361172
 21
-1.77346884060347
 31
0.0
 11
-15.54498628719852
 21
-1.769921848223816
 31
0.0
 11
-15.5425528692117
 21
-1.766591910363501
 31
0.0
 11
-15.53957825224199
 21
-1.763197037429961
 31
0.0
 11
-15.53633056887173
 21
-1.760061372583379
 31
0.0
 11
-15.53264909795103
 21
-1.757022667623687
 31
0.0
 11
-15.52875310663171
 21
-1.754264329263435
 31
0.0
 11
-15.52452237262423
 21
-1.751694499992936
 31
0.0
 11
-15.52012669333175
 21
-1.749417907383417
 31
0.0
 11
-15.51069330409257
 21
-1.745665782134722
 31
0.0
 11
-15.50084862583173
 21
-1.743185511983426
 31
0.0
  0
SPLINE
  5
1F5
330
2
100
AcDbEntity
  8
GAIKEI
  6
Continuous
 62
     1
100
AcDbSpline
210
0.0
220
0.0
230
1.0
 70
     8
 71
     3
 72
    19
 73
    15
 74
    13
 42
0.0000000001
 43
0.0000000001
 44
0.00000001
 40
0.0
 40
0.0
 40
0.0
 40
0.0
 40
0.010179456248052
 40
0.0203587642331831
 40
0.0253176824366697
 40
0.0302764607378208
 40
0.0350781008493617
 40
0.0398796564505206
 40
0.0443664773521332
 40
0.0488526102940024
 40
0.0529917522183995
 40
0.0571316366221131
 40
0.064443229869167
 40
0.0717509809141646
 40
0.0717509809141646
 40
0.0717509809141646
 40
0.0717509809141646
 10
-27.90084862583171
 20
-1.743185511983426
 30
0.0
 10
-27.89753193834425
 20
-1.743923750738531
 30
0.0
 10
-27.89089861506645
 20
-1.745400230642985
 30
0.0
 10
-27.88304503018513
 20
-1.74859894156566
 30
0.0
 10
-27.87709228306677
 20
-1.751674843480202
 30
0.0
 10
-27.87289663617999
 20
-1.754227585981823
 30
0.0
 10
-27.86893266888602
 20
-1.757035780801402
 30
0.0
 10
-27.8653095858538
 20
-1.760031834829703
 30
0.0
 10
-27.86200486814108
 20
-1.763226475415194
 30
0.0
 10
-27.85912275577916
 20
-1.766518619692533
 30
0.0
 10
-27.85660433304165
 20
-1.769958602358542
 30
0.0
 10
-27.85396683198857
 20
-1.774434401105452
 30
0.0
 10
-27.85147347703232
 20
-1.780267845534808
 30
0.0
 10
-27.85105686833838
 20
-1.785150653517916
 30
0.0
 10
-27.85084862583176
 20
-1.787591416943428
 30
0.0
 11
-27.90084862583171
 21
-1.743185511983426
 31
0.0
 11
-27.89097807105486
 21
-1.745674162352884
 31
0.0
 11
-27.88152149521176
 21
-1.749441315883473
 31
0.0
 11
-27.8771199120186
 21
-1.751725376340345
 31
0.0
 11
-27.87288417227177
 21
-1.754303746043433
 31
0.0
 11
-27.86896884462567
 21
-1.757083306784693
 31
0.0
 11
-27.86527140969173
 21
-1.760146624103413
 31
0.0
 11
-27.86204982513186
 21
-1.763269596684096
 31
0.0
 11
-27.85909902629175
 21
-1.766648676503393
 31
0.0
 11
-27.85666266357629
 21
-1.769994814790607
 31
0.0
 11
-27.85455766043174
 21
-1.773559589803312
 31
0.0
 11
-27.851854783475
 21
-1.78035325880171
 31
0.0
 11
-27.85084862583176
 21
-1.787591416943428
 31
0.0
  0
SPLINE
  5
1F6
330
2
100
AcDbEntity
  8
GAIKEI
  6
Continuous
 62
     1
100
AcDbSpline
210
0.0
220
0.0
230
1.0
 70
     8
 71
     3
 72
     9
 73
     5
 74
     3
 42
0.0000000001
 43
0.0000000001
 44
0.00000001
 40
0.0
 40
0.0
 40
0.0
 40
0.0
 40
0.0203546161607411
 40
0.0407092323216515
 40
0.0407092323216515
 40
0.0407092323216515
 40
0.0407092323216515
 10
-27.94089697393179
 20
-1.735879948423416
 30
0.0
 10
-27.9342228028055
 20
-1.7371005768872
 30
0.0
 10
-27.92087445696074
 20
-1.73954181413984
 30
0.0
 10
-27.90752390407013
 20
-1.741970952594215
 30
0.0
 10
-27.90084862583171
 20
-1.743185511983426
 30
0.0
 11
-27.94089697393179
 21
-1.735879948423416
 31
0.0
 11
-27.92087390699391
 21
-1.739538799277909
 31
0.0
 11
-27.90084862583171
 21
-1.743185511983426
 31
0.0
  0
SPLINE
  5
1F7
330
2
100
AcDbEntity
  8
GAIKEI
  6
Continuous
 62
     1
100
AcDbSpline
210
0.0
220
0.0
230
1.0
 70
     8
 71
     3
 72
    19
 73
    15
 74
    13
 42
0.0000000001
 43
0.0000000001
 44
0.00000001
 40
0.0
 40
0.0
 40
0.0
 40
0.0
 40
0.0096735450805584
 40
0.0193463755834243
 40
0.0237483943710278
 40
0.0281503424501
 40
0.0322404296374735
 40
0.0363298417032282
 40
0.0401126541831605
 40
0.0438948030224228
 40
0.0473685224133825
 40
0.0508399662905854
 40
0.0575633433943072
 40
0.0642887894569954
 40
0.0642887894569954
 40
0.0642887894569954
 40
0.0642887894569954
 10
-27.90084862583171
 20
14.86152752575662
 30
0.0
 10
-27.89765249894349
 20
14.86106714933072
 30
0.0
 10
-27.89126047974601
 20
14.86014644396925
 30
0.0
 10
-27.8832996874888
 20
14.86043403513474
 30
0.0
 10
-27.87720724774386
 20
14.86135985968076
 30
0.0
 10
-27.87302422861522
 20
14.86237624444948
 30
0.0
 10
-27.86905157116443
 20
14.86373859041362
 30
0.0
 10
-27.86542237612786
 20
14.86540911947969
 30
0.0
 10
-27.86208492693039
 20
14.86741316661357
 30
0.0
 10
-27.85916992608532
 20
14.86967356720339
 30
0.0
 10
-27.8566367863634
 20
14.87221471214906
 30
0.0
 10
-27.85388860151147
 20
14.8758536523776
 30
0.0
 10
-27.85137963736533
 20
14.88105004911875
 30
0.0
 10
-27.85102564352369
 20
14.8855505885993
 30
0.0
 10
-27.85084862583176
 20
14.88780120553662
 30
0.0
 11
-27.90084862583171
 21
14.86152752575662
 31
0.0
 11
-27.89123695816295
 21
14.86043516974564
 31
0.0
 11
-27.88156926725174
 21
14.86075044695656
 31
0.0
 11
-27.87721893880757
 21
14.86142306452001
 31
0.0
 11
-27.87294281967178
 21
14.86246803153654
 31
0.0
 11
-27.86907665970415
 21
14.86380280679879
 31
0.0
 11
-27.86536551059175
 21
14.86552055801661
 31
0.0
 11
-27.86212691542051
 21
14.86747534134883
 31
0.0
 11
-27.8591435460117
 21
14.86980002725653
 31
0.0
 11
-27.85669719686496
 21
14.87226622073922
 31
0.0
 11
-27.85460481555174
 21
14.87503621585659
 31
0.0
 11
-27.8517898653854
 21
14.88114194365659
 31
0.0
 11
-27.85084862583176
 21
14.88780120553662
 31
0.0
  0
SPLINE
  5
1F8
330
2
100
AcDbEntity
  8
GAIKEI
  6
Continuous
 62
     1
100
AcDbSpline
210
0.0
220
0.0
230
1.0
 70
     8
 71
     3
 72
     9
 73
     5
 74
     3
 42
0.0000000001
 43
0.0000000001
 44
0.00000001
 40
0.0
 40
0.0
 40
0.0
 40
0.0
 40
0.0101655825891753
 40
0.0203311651784559
 40
0.0203311651784559
 40
0.0203311651784559
 40
0.0203311651784559
 10
-27.9208486258317
 20
14.8651821485966
 30
0.0
 10
-27.91751543126439
 20
14.86457228539291
 30
0.0
 10
-27.91084903853313
 20
14.86335257865948
 30
0.0
 10
-27.90418209793006
 20
14.86213587016607
 30
0.0
 10
-27.90084862583171
 20
14.86152752575662
 30
0.0
 11
-27.9208486258317
 21
14.8651821485966
 31
0.0
 11
-27.91084890336276
 21
14.86335331838239
 31
0.0
 11
-27.90084862583171
 21
14.86152752575662
 31
0.0
  0
SPLINE
  5
1F9
330
2
100
AcDbEntity
  8
GAIKEI
  6
Continuous
 62
     1
100
AcDbSpline
210
0.0
220
0.0
230
1.0
 70
     8
 71
     3
 72
     9
 73
     5
 74
     3
 42
0.0000000001
 43
0.0000000001
 44
0.00000001
 40
0.0
 40
0.0
 40
0.0
 40
0.0
 40
0.0101655825891966
 40
0.020331165178457
 40
0.020331165178457
 40
0.020331165178457
 40
0.020331165178457
 10
-15.50084862583173
 20
14.86152752575662
 30
0.0
 10
-15.49751515373308
 20
14.86213587016431
 30
0.0
 10
-15.49084821312934
 20
14.8633525786542
 30
0.0
 10
-15.48418182039876
 20
14.8645722853912
 30
0.0
 10
-15.48084862583175
 20
14.8651821485966
 30
0.0
 11
-15.50084862583173
 21
14.86152752575662
 31
0.0
 11
-15.49084834830012
 21
14.86335331837881
 31
0.0
 11
-15.48084862583175
 21
14.8651821485966
 31
0.0
  0
SPLINE
  5
1FA
330
2
100
AcDbEntity
  8
GAIKEI
  6
Continuous
 62
     1
100
AcDbSpline
210
0.0
220
0.0
230
1.0
 70
     8
 71
     3
 72
    17
 73
    13
 74
    11
 42
0.0000000001
 43
0.0000000001
 44
0.00000001
 40
0.0
 40
0.0
 40
0.0
 40
0.0
 40
0.010855774387231
 40
0.0217139063559461
 40
0.0275588882112221
 40
0.0334045625537652
 40
0.0396439395276296
 40
0.0458840253079545
 40
0.0525321680462966
 40
0.0591804986366313
 40
0.073487167264176
 40
0.0877946378903257
 40
0.0877946378903257
 40
0.0877946378903257
 40
0.0877946378903257
 10
-15.40084862583171
 20
-1.681116531163411
 30
0.0
 10
-15.40113739921597
 20
-1.684745064753599
 30
0.0
 10
-15.40171502259724
 20
-1.692002917965055
 30
0.0
 10
-15.4054630416604
 20
-1.700562149914389
 30
0.0
 10
-15.4095042059772
 20
-1.706900706035526
 30
0.0
 10
-15.4132776748613
 20
-1.711554404296464
 30
0.0
 10
-15.41759624009042
 20
-1.715887858363146
 30
0.0
 10
-15.42251968903286
 20
-1.719952885721909
 30
0.0
 10
-15.42790178019129
 20
-1.723636507503499
 30
0.0
 10
-15.43592019265491
 20
-1.728159286160405
 30
0.0
 10
-15.44681427703618
 20
-1.732766241251226
 30
0.0
 10
-15.45613818922447
 20
-1.734842031195398
 30
0.0
 10
-15.46080027773166
 20
-1.735879948423416
 30
0.0
 11
-15.40084862583171
 21
-1.681116531163411
 31
0.0
 11
-15.40230869135661
 21
-1.691873674472162
 31
0.0
 11
-15.40644988325169
 21
-1.701911086983443
 31
0.0
 11
-15.40959536106766
 21
-1.706837525947491
 31
0.0
 11
-15.41326609499174
 21
-1.711386991383392
 31
0.0
 11
-15.41766387979999
 21
-1.715812974516722
 31
0.0
 11
-15.42246930343174
 21
-1.719793751303427
 31
0.0
 11
-15.42795159239239
 21
-1.723554378527751
 31
0.0
 11
-15.43373445377176
 21
-1.726834442263452
 31
0.0
 11
-15.44693496842905
 21
-1.732350525482274
 31
0.0
 11
-15.46080027773166
 21
-1.735879948423416
 31
0.0
  0
SPLINE
  5
1FB
330
2
100
AcDbEntity
  8
GAIKEI
  6
Continuous
 62
     1
100
AcDbSpline
210
0.0
220
0.0
230
1.0
 70
     8
 71
     3
 72
    17
 73
    13
 74
    11
 42
0.0000000001
 43
0.0000000001
 44
0.00000001
 40
0.0
 40
0.0
 40
0.0
 40
0.0
 40
0.014307470625681
 40
0.0286141392528212
 40
0.035262469842874
 40
0.0419106125814679
 40
0.048150698362227
 40
0.0543900753358153
 40
0.060235749672129
 40
0.0660807315219253
 40
0.0769388634918831
 40
0.0877946378805355
 40
0.0877946378805355
 40
0.0877946378805355
 40
0.0877946378805355
 10
-27.94089697393179
 20
-1.735879948423416
 30
0.0
 10
-27.94555906243785
 20
-1.734842031192101
 30
0.0
 10
-27.9548829746239
 20
-1.732766241241279
 30
0.0
 10
-27.965777059009
 20
-1.728159286161314
 30
0.0
 10
-27.97379547147214
 20
-1.723636507503499
 30
0.0
 10
-27.97917756263033
 20
-1.719952885721397
 30
0.0
 10
-27.98410101157458
 20
-1.715887858364681
 30
0.0
 10
-27.9884195768021
 20
-1.711554404298908
 30
0.0
 10
-27.99219304567647
 20
-1.706900706035071
 30
0.0
 10
-27.99623420998094
 20
-1.700562149910126
 30
0.0
 10
-27.99998222904224
 20
-1.692002917963804
 30
0.0
 10
-28.00055985243949
 20
-1.684745064753144
 30
0.0
 10
-28.00084862583174
 20
-1.681116531163411
 30
0.0
 11
-27.94089697393179
 21
-1.735879948423416
 31
0.0
 11
-27.95476228323236
 21
-1.732350525476135
 31
0.0
 11
-27.96796279789174
 21
-1.726834442263395
 31
0.0
 11
-27.97374565927089
 21
-1.723554378527865
 31
0.0
 11
-27.97922794823177
 21
-1.719793751303427
 31
0.0
 11
-27.98403337186488
 21
-1.715812974517689
 31
0.0
 11
-27.98843115667177
 21
-1.711386991383392
 31
0.0
 11
-27.99210189058579
 21
-1.706837525947378
 31
0.0
 11
-27.99524736839174
 21
-1.701911086983443
 31
0.0
 11
-27.99938856028706
 21
-1.691873674470912
 31
0.0
 11
-28.00084862583174
 21
-1.681116531163411
 31
0.0
  0
SPLINE
  5
1FC
330
2
100
AcDbEntity
  8
GAIKEI
  6
Continuous
 62
     1
100
AcDbSpline
210
0.0
220
0.0
230
1.0
 70
     8
 71
     3
 72
    19
 73
    15
 74
    13
 42
0.0000000001
 43
0.0000000001
 44
0.00000001
 40
0.0
 40
0.0
 40
0.0
 40
0.0
 40
0.006680980638702
 40
0.0133618652252842
 40
0.0168468041257881
 40
0.0203339329030796
 40
0.0240925461309733
 40
0.0278517626198206
 40
0.0319638005414716
 40
0.0360766483072649
 40
0.0404852498901526
 40
0.0448938550230509
 40
0.0545911954383237
 40
0.0642892892029868
 40
0.0642892892029868
 40
0.0642892892029868
 40
0.0642892892029868
 10
-15.55084862583175
 20
14.88780120553662
 30
0.0
 10
-15.55067375534285
 20
14.88556564471929
 30
0.0
 10
-15.55032400396797
 20
14.88109455724515
 30
0.0
 10
-15.54784319208269
 20
14.87591436010177
 30
0.0
 10
-15.54510981638248
 20
14.87227043209748
 30
0.0
 10
-15.54258213004296
 20
14.8697221272215
 30
0.0
 10
-15.53968160813343
 20
14.86746160616769
 30
0.0
 10
-15.53635697083066
 20
14.86545226801422
 30
0.0
 10
-15.53272522675699
 20
14.86376953518027
 30
0.0
 10
-15.52873837570313
 20
14.86239476821078
 30
0.0
 10
-15.52454488641951
 20
14.86137043096653
 30
0.0
 10
-15.51844087342461
 20
14.86043683092896
 30
0.0
 10
-15.51046129143892
 20
14.86014383876039
 30
0.0
 10
-15.50405293016657
 20
14.86106628032195
 30
0.0
 10
-15.50084862583173
 20
14.86152752575662
 30
0.0
 11
-15.55084862583175
 21
14.88780120553662
 31
0.0
 11
-15.5499195334138
 21
14.8811851368344
 31
0.0
 11
-15.54714010017176
 21
14.8751098569366
 31
0.0
 11
-15.54504867416568
 21
14.87232225108033
 31
0.0
 11
-15.54259907581172
 21
14.86984040839661
 31
0.0
 11
-15.53963984991725
 21
14.86752304714793
 31
0.0
 11
-15.53642699205176
 21
14.86557131479657
 31
0.0
 11
-15.53269970673472
 21
14.8638345920084
 31
0.0
 11
-15.52881434941173
 21
14.86248569617657
 31
0.0
 11
-15.5245330537586
 21
14.8614338979566
 31
0.0
 11
-15.52017687509175
 21
14.86075602687651
 31
0.0
 11
-15.51048487954694
 21
14.86043410942761
 31
0.0
 11
-15.50084862583173
 21
14.86152752575662
 31
0.0
  0
SPLINE
  5
1FD
330
2
100
AcDbEntity
  8
GAIKEI
  6
Continuous
 62
     1
100
AcDbSpline
210
0.0
220
0.0
230
1.0
 70
     8
 71
     3
 72
    19
 73
    15
 74
    13
 42
0.0000000001
 43
0.0000000001
 44
0.00000001
 40
0.0
 40
0.0
 40
0.0
 40
0.0
 40
0.006726933993704
 40
0.0134518044586614
 40
0.0169244510146561
 40
0.0203993668768496
 40
0.0241827086142447
 40
0.0279667126041799
 40
0.032057029066026
 40
0.0361480190385435
 40
0.0405504493734589
 40
0.0449529502870095
 40
0.0546248951402744
 40
0.0642975530826953
 40
0.0642975530826953
 40
0.0642975530826953
 40
0.0642975530826953
 10
-27.85084862583176
 20
14.82941794093659
 30
0.0
 10
-27.85102572746215
 20
14.82716683222384
 30
0.0
 10
-27.85137988931287
 20
14.82266530737411
 30
0.0
 10
-27.85388917721301
 20
14.81746758609904
 30
0.0
 10
-27.85663743837269
 20
14.81382709666991
 30
0.0
 10
-27.85917073997491
 20
14.81128443379515
 30
0.0
 10
-27.86208588245807
 20
14.80902228461076
 30
0.0
 10
-27.86542342312576
 20
14.80701627276528
 30
0.0
 10
-27.86905271692422
 20
14.80534358457629
 30
0.0
 10
-27.87302537322251
 20
14.80397889559469
 30
0.0
 10
-27.87720842166604
 20
14.80296001202004
 30
0.0
 10
-27.88330033978802
 20
14.80203061170732
 30
0.0
 10
-27.89126050824561
 20
14.80173809571875
 30
0.0
 10
-27.89765250859761
 20
14.80265479466481
 30
0.0
 10
-27.90084862583171
 20
14.80311316777658
 30
0.0
 11
-27.85084862583176
 21
14.82941794093659
 31
0.0
 11
-27.85179012641453
 21
14.82275721323441
 31
0.0
 11
-27.85460526805179
 21
14.8166499292966
 31
0.0
 11
-27.85669785003825
 21
14.81387857860454
 31
0.0
 11
-27.85914438245175
 21
14.81141088181658
 31
0.0
 11
-27.86212788441464
 21
14.80908442560667
 31
0.0
 11
-27.86536668279178
 21
14.80712767381664
 31
0.0
 11
-27.86907783253571
 21
14.8054077719969
 31
0.0
 11
-27.87294414503174
 21
14.80407067389666
 31
0.0
 11
-27.87722014720851
 21
14.80302319966301
 31
0.0
 11
-27.88157055831175
 21
14.80234796631657
 31
0.0
 11
-27.89123716992691
 21
14.80202682082762
 31
0.0
 11
-27.90084862583171
 21
14.80311316777658
 31
0.0
  0
SPLINE
  5
1FE
330
2
100
AcDbEntity
  8
GAIKEI
  6
Continuous
 62
     1
100
AcDbSpline
210
0.0
220
0.0
230
1.0
 70
     8
 71
     3
 72
    17
 73
    13
 74
    11
 42
0.0000000001
 43
0.0000000001
 44
0.00000001
 40
0.0
 40
0.0
 40
0.0
 40
0.0
 40
0.0108557743885397
 40
0.0217139063586027
 40
0.0275588882084295
 40
0.0334045625447875
 40
0.0396439395183357
 40
0.0458840252990948
 40
0.0525321680376069
 40
0.0591804986276944
 40
0.073487167252408
 40
0.0877946378755669
 40
0.0877946378755669
 40
0.0877946378755669
 40
0.0877946378755669
 10
-28.00084862583174
 20
14.8651821485966
 30
0.0
 10
-28.00055985243949
 20
14.86155361500692
 30
0.0
 10
-27.99998222904221
 20
14.85429576179615
 30
0.0
 10
-27.99623420998099
 20
14.84573652985
 30
0.0
 10
-27.99219304567639
 20
14.83939797372488
 30
0.0
 10
-27.98841957680209
 20
14.83474427546105
 30
0.0
 10
-27.98410101157455
 20
14.83041082139527
 30
0.0
 10
-27.9791775626304
 20
14.8263457940385
 30
0.0
 10
-27.97379547147201
 20
14.82266217225674
 30
0.0
 10
-27.96577705900967
 20
14.81813939359944
 30
0.0
 10
-27.95488297462745
 20
14.81353243851458
 30
0.0
 10
-27.94555906243903
 20
14.8114566485799
 30
0.0
 10
-27.94089697393179
 20
14.8104187313566
 30
0.0
 11
-28.00084862583174
 21
14.8651821485966
 31
0.0
 11
-27.99938856028706
 21
14.85442500528921
 31
0.0
 11
-27.99524736839174
 21
14.84438759277657
 31
0.0
 11
-27.99210189058573
 21
14.83946115381263
 31
0.0
 11
-27.98843115667171
 21
14.83491168837656
 31
0.0
 11
-27.98403337186488
 21
14.83048570524227
 31
0.0
 11
-27.97922794823177
 21
14.82650492845653
 31
0.0
 11
-27.97374565927083
 21
14.82274430123232
 31
0.0
 11
-27.96796279789174
 21
14.81946423749661
 31
0.0
 11
-27.95476228323463
 21
14.81394815428473
 31
0.0
 11
-27.94089697393179
 21
14.8104187313566
 31
0.0
  0
SPLINE
  5
1FF
330
2
100
AcDbEntity
  8
GAIKEI
  6
Continuous
 62
     1
100
AcDbSpline
210
0.0
220
0.0
230
1.0
 70
     8
 71
     3
 72
    17
 73
    13
 74
    11
 42
0.0000000001
 43
0.0000000001
 44
0.00000001
 40
0.0
 40
0.0
 40
0.0
 40
0.0
 40
0.0143074706236827
 40
0.0286141392488007
 40
0.0352624698391701
 40
0.0419106125773836
 40
0.0481506983577523
 40
0.0543900753315766
 40
0.0602357496741997
 40
0.0660807315294451
 40
0.0769388634981602
 40
0.0877946378853912
 40
0.0877946378853912
 40
0.0877946378853912
 40
0.0877946378853912
 10
-15.46080027773166
 20
14.8104187313566
 30
0.0
 10
-15.45613818922327
 20
14.81145664857649
 30
0.0
 10
-15.4468142770326
 20
14.81353243850458
 30
0.0
 10
-15.43592019265418
 20
14.81813939360051
 30
0.0
 10
-15.42790178019138
 20
14.82266217225663
 30
0.0
 10
-15.42251968903279
 20
14.82634579403805
 30
0.0
 10
-15.41759624009039
 20
14.83041082139675
 30
0.0
 10
-15.41327767486128
 20
14.83474427546355
 30
0.0
 10
-15.40950420597716
 20
14.83939797372443
 30
0.0
 10
-15.40546304166041
 20
14.84573652984568
 30
0.0
 10
-15.40171502259724
 20
14.85429576179484
 30
0.0
 10
-15.40113739921597
 20
14.86155361500641
 30
0.0
 10
-15.40084862583171
 20
14.8651821485966
 30
0.0
 11
-15.46080027773166
 21
14.8104187313566
 31
0.0
 11
-15.44693496842671
 21
14.81394815427859
 31
0.0
 11
-15.4337344537717
 21
14.81946423749656
 31
0.0
 11
-15.42795159239239
 21
14.82274430123243
 31
0.0
 11
-15.42246930343174
 21
14.82650492845653
 31
0.0
 11
-15.41766387979993
 21
14.83048570524323
 31
0.0
 11
-15.41326609499174
 21
14.83491168837656
 31
0.0
 11
-15.4095953610676
 21
14.83946115381252
 31
0.0
 11
-15.40644988325169
 21
14.84438759277657
 31
0.0
 11
-15.40230869135661
 21
14.85442500528785
 31
0.0
 11
-15.40084862583171
 21
14.8651821485966
 31
0.0
  0
SPLINE
  5
200
330
2
100
AcDbEntity
  8
GAIKEI
  6
Continuous
 62
     1
100
AcDbSpline
210
0.0
220
0.0
230
1.0
 70
     8
 71
     3
 72
     9
 73
     5
 74
     3
 42
0.0000000001
 43
0.0000000001
 44
0.00000001
 40
0.0
 40
0.0
 40
0.0
 40
0.0
 40
0.0203546161625358
 40
0.0407092323252363
 40
0.0407092323252363
 40
0.0407092323252363
 40
0.0407092323252363
 10
-27.94089697393179
 20
14.8104187313566
 30
0.0
 10
-27.93422280280462
 20
14.80919810289435
 30
0.0
 10
-27.92087445695809
 20
14.80675686564473
 30
0.0
 10
-27.90752390406924
 20
14.80432772717404
 30
0.0
 10
-27.90084862583171
 20
14.80311316777658
 30
0.0
 11
-27.94089697393179
 21
14.8104187313566
 31
0.0
 11
-27.92087390699214
 21
14.80675988050177
 31
0.0
 11
-27.90084862583171
 21
14.80311316777658
 31
0.0
  0
SPLINE
  5
201
330
2
100
AcDbEntity
  8
GAIKEI
  6
Continuous
 62
     1
100
AcDbSpline
210
0.0
220
0.0
230
1.0
 70
    24
 71
     3
 72
     9
 73
     5
 74
     3
 42
0.0000000001
 43
0.0000000001
 44
0.00000001
 40
0.0
 40
0.0
 40
0.0
 40
0.0
 40
0.0190428687423929
 40
0.0380857374847965
 40
0.0380857374847965
 40
0.0380857374847965
 40
0.0380857374847965
 10
-14.15046243941174
 20
16.4217748352766
 30
0.0
 10
-14.14411778293841
 20
16.42158079689
 30
0.0
 10
-14.13142846999175
 20
16.42119272011661
 30
0.0
 10
-14.11873915704511
 20
16.42080464334316
 30
0.0
 10
-14.11239450057178
 20
16.42061060495661
 30
0.0
 11
-14.15046243941174
 21
16.4217748352766
 31
0.0
 11
-14.13142846999176
 21
16.42119272011661
 31
0.0
 11
-14.11239450057178
 21
16.42061060495661
 31
0.0
  0
SPLINE
  5
202
330
2
100
AcDbEntity
  8
GAIKEI
  6
Continuous
 62
     1
100
AcDbSpline
210
0.0
220
0.0
230
1.0
 70
    24
 71
     3
 72
     9
 73
     5
 74
     3
 42
0.0000000001
 43
0.0000000001
 44
0.00000001
 40
0.0
 40
0.0
 40
0.0
 40
0.0
 40
0.0103960384111216
 40
0.0207920768221884
 40
0.0207920768221884
 40
0.0207920768221884
 40
0.0207920768221884
 10
-14.11239450057178
 20
16.42061060495661
 30
0.0
 10
-14.10905753572842
 20
16.41967610536665
 30
0.0
 10
-14.10238360604173
 20
16.41780710618661
 30
0.0
 10
-14.09570967635504
 20
16.41593810700658
 30
0.0
 10
-14.0923727115117
 20
16.41500360741662
 30
0.0
 11
-14.11239450057178
 21
16.42061060495661
 31
0.0
 11
-14.10238360604171
 21
16.41780710618661
 31
0.0
 11
-14.0923727115117
 21
16.41500360741662
 31
0.0
  0
SPLINE
  5
203
330
2
100
AcDbEntity
  8
GAIKEI
  6
Continuous
 62
     1
100
AcDbSpline
210
0.0
220
0.0
230
1.0
 70
    24
 71
     3
 72
     9
 73
     5
 74
     3
 42
0.0000000001
 43
0.0000000001
 44
0.00000001
 40
0.0
 40
0.0
 40
0.0
 40
0.0
 40
0.0069239296449986
 40
0.0138478592899583
 40
0.0138478592899583
 40
0.0138478592899583
 40
0.0138478592899583
 10
-14.0923727115117
 20
16.41500360741662
 30
0.0
 10
-14.09029981230503
 20
16.41398879480999
 30
0.0
 10
-14.08615401389169
 20
16.41195916959668
 30
0.0
 10
-14.08200821547842
 20
16.4099295443832
 30
0.0
 10
-14.07993531627176
 20
16.40891473177657
 30
0.0
 11
-14.0923727115117
 21
16.41500360741662
 31
0.0
 11
-14.0861540138917
 21
16.41195916959657
 31
0.0
 11
-14.07993531627176
 21
16.40891473177657
 31
0.0
  0
SPLINE
  5
204
330
2
100
AcDbEntity
  8
GAIKEI
  6
Continuous
 62
     1
100
AcDbSpline
210
0.0
220
0.0
230
1.0
 70
    24
 71
     3
 72
     9
 73
     5
 74
     3
 42
0.0000000001
 43
0.0000000001
 44
0.00000001
 40
0.0
 40
0.0
 40
0.0
 40
0.0
 40
0.002107882318365
 40
0.0042157646365722
 40
0.0042157646365722
 40
0.0042157646365722
 40
0.0042157646365722
 10
-14.07993531627176
 20
16.40891473177657
 30
0.0
 10
-14.07934184128506
 20
16.4085386031299
 30
0.0
 10
-14.07815489131182
 20
16.40778634583648
 30
0.0
 10
-14.0769679413384
 20
16.40703408854318
 30
0.0
 10
-14.07637446635175
 20
16.40665795989662
 30
0.0
 11
-14.07993531627176
 21
16.40891473177657
 31
0.0
 11
-14.07815489131172
 21
16.4077863458366
 31
0.0
 11
-14.07637446635175
 21
16.40665795989662
 31
0.0
  0
SPLINE
  5
205
330
2
100
AcDbEntity
  8
GAIKEI
  6
Continuous
 62
     1
100
AcDbSpline
210
0.0
220
0.0
230
1.0
 70
    24
 71
     3
 72
     9
 73
     5
 74
     3
 42
0.0000000001
 43
0.0000000001
 44
0.00000001
 40
0.0
 40
0.0
 40
0.0
 40
0.0
 40
0.0128669887126417
 40
0.0257339774253239
 40
0.0257339774253239
 40
0.0257339774253239
 40
0.0257339774253239
 10
-14.07637446635175
 20
16.40665795989662
 30
0.0
 10
-14.07336001907175
 20
16.40360696066329
 30
0.0
 10
-14.06733112451168
 20
16.39750496219682
 30
0.0
 10
-14.06130222995172
 20
16.39140296372994
 30
0.0
 10
-14.0582877826717
 20
16.38835196449662
 30
0.0
 11
-14.07637446635175
 21
16.40665795989662
 31
0.0
 11
-14.06733112451172
 21
16.39750496219659
 31
0.0
 11
-14.0582877826717
 21
16.38835196449662
 31
0.0
  0
SPLINE
  5
206
330
2
100
AcDbEntity
  8
GAIKEI
  6
Continuous
 62
     1
100
AcDbSpline
210
0.0
220
0.0
230
1.0
 70
    24
 71
     3
 72
     9
 73
     5
 74
     3
 42
0.0000000001
 43
0.0000000001
 44
0.00000001
 40
0.0
 40
0.0
 40
0.0
 40
0.0
 40
0.0134522360171029
 40
0.0269044720342605
 40
0.0269044720342605
 40
0.0269044720342605
 40
0.0269044720342605
 10
-14.0582877826717
 20
16.38835196449662
 30
0.0
 10
-14.05704792319837
 20
16.38404270585659
 30
0.0
 10
-14.05456820425171
 20
16.37542418857663
 30
0.0
 10
-14.05208848530506
 20
16.36680567129662
 30
0.0
 10
-14.05084862583175
 20
16.36249641265658
 30
0.0
 11
-14.0582877826717
 21
16.38835196449662
 31
0.0
 11
-14.05456820425172
 21
16.37542418857663
 31
0.0
 11
-14.05084862583175
 21
16.36249641265658
 31
0.0
  0
SPLINE
  5
207
330
2
100
AcDbEntity
  8
GAIKEI
  6
Continuous
 62
     1
100
AcDbSpline
210
0.0
220
0.0
230
1.0
 70
    24
 71
     3
 72
     9
 73
     5
 74
     3
 42
0.0000000001
 43
0.0000000001
 44
0.00000001
 40
0.0
 40
0.0
 40
0.0
 40
0.0
 40
0.0170174255430877
 40
0.0340348510860865
 40
0.0340348510860865
 40
0.0340348510860865
 40
0.0340348510860865
 10
-29.25123481223176
 20
16.4217748352766
 30
0.0
 10
-29.2455949941984
 20
16.42116703001994
 30
0.0
 10
-29.23431535813175
 20
16.41995141950644
 30
0.0
 10
-29.22303572206504
 20
16.41873580899317
 30
0.0
 10
-29.21739590403172
 20
16.41812800373657
 30
0.0
 11
-29.25123481223176
 21
16.4217748352766
 31
0.0
 11
-29.23431535813171
 21
16.41995141950656
 31
0.0
 11
-29.21739590403172
 21
16.41812800373657
 31
0.0
  0
SPLINE
  5
208
330
2
100
AcDbEntity
  8
GAIKEI
  6
Continuous
 62
     1
100
AcDbSpline
210
0.0
220
0.0
230
1.0
 70
    24
 71
     3
 72
     9
 73
     5
 74
     3
 42
0.0000000001
 43
0.0000000001
 44
0.00000001
 40
0.0
 40
0.0
 40
0.0
 40
0.0
 40
0.2657296068738097
 40
0.5314592137476336
 40
0.5314592137476336
 40
0.5314592137476336
 40
0.5314592137476336
 10
-29.21739590403172
 20
16.41812800373657
 30
0.0
 10
-29.12929148121172
 20
16.40899491319658
 30
0.0
 10
-28.95308263557171
 20
16.39072873211665
 30
0.0
 10
-28.77687378993172
 20
16.37246255103662
 30
0.0
 10
-28.68876936711172
 20
16.36332946049663
 30
0.0
 11
-29.21739590403172
 21
16.41812800373657
 31
0.0
 11
-28.95308263557172
 21
16.3907287321166
 31
0.0
 11
-28.68876936711172
 21
16.36332946049663
 31
0.0
  0
SPLINE
  5
209
330
2
100
AcDbEntity
  8
GAIKEI
  6
Continuous
 62
     1
100
AcDbSpline
210
0.0
220
0.0
230
1.0
 70
    24
 71
     3
 72
     9
 73
     5
 74
     3
 42
0.0000000001
 43
0.0000000001
 44
0.00000001
 40
0.0
 40
0.0
 40
0.0
 40
0.0
 40
0.0247115106541479
 40
0.0494230213082393
 40
0.0494230213082393
 40
0.0494230213082393
 40
0.0494230213082393
 10
-28.68876936711172
 20
16.36332946049663
 30
0.0
 10
-28.68057263061172
 20
16.36251430164662
 30
0.0
 10
-28.66417915761175
 20
16.36088398394662
 30
0.0
 10
-28.64778568461177
 20
16.35925366624661
 30
0.0
 10
-28.6395889481118
 20
16.35843850739661
 30
0.0
 11
-28.68876936711172
 21
16.36332946049663
 31
0.0
 11
-28.66417915761173
 21
16.36088398394656
 31
0.0
 11
-28.6395889481118
 21
16.35843850739661
 31
0.0
  0
SPLINE
  5
20A
330
2
100
AcDbEntity
  8
GAIKEI
  6
Continuous
 62
     1
100
AcDbSpline
210
0.0
220
0.0
230
1.0
 70
     8
 71
     3
 72
    19
 73
    15
 74
    13
 42
0.0000000001
 43
0.0000000001
 44
0.00000001
 40
0.0
 40
0.0
 40
0.0
 40
0.0
 40
1.580986661275411
 40
3.161997694711203
 40
4.108627914345451
 40
5.05525699748557
 40
6.002572225829817
 40
6.949887854910437
 40
7.897204245897381
 40
8.844520236192058
 40
9.79115129490948
 40
10.73778349014808
 40
12.31880238767795
 40
13.89979691297032
 40
13.89979691297032
 40
13.89979691297032
 40
13.89979691297032
 10
-28.6395889481118
 20
16.35843850739661
 30
0.0
 10
-28.11481203876353
 20
16.30989552794489
 30
0.0
 10
-27.0652501289292
 20
16.2128088353864
 30
0.0
 10
-25.69828083679934
 20
16.12587066211552
 30
0.0
 10
-24.54146479986358
 20
16.07124055919536
 30
0.0
 10
-23.59510248823447
 20
16.03958076188758
 30
0.0
 10
-22.64818077970605
 20
16.02052427056765
 30
0.0
 10
-21.70085755121967
 20
16.01418377071587
 30
0.0
 10
-20.75353406707542
 20
16.02052403136008
 30
0.0
 10
-19.8066111876057
 20
16.0395803154887
 30
0.0
 10
-18.86024729847354
 20
16.07123995265215
 30
0.0
 10
-17.70342731676416
 20
16.12587001460662
 30
0.0
 10
-16.3364521208467
 20
16.2128083784155
 30
0.0
 10
-15.28688499076892
 20
16.30989556271538
 30
0.0
 10
-14.76210547131171
 20
16.35843878803661
 30
0.0
 11
-28.6395889481118
 21
16.35843850739661
 31
0.0
 11
-27.06464400997158
 21
16.22035423845995
 31
0.0
 11
-25.4869611665917
 21
16.11782261273652
 31
0.0
 11
-24.54137347327861
 21
16.07340766900779
 31
0.0
 11
-23.59527595597171
 21
16.0416884470365
 31
0.0
 11
-22.6481521705432
 21
16.0226443618551
 31
0.0
 11
-21.70085780491172
 21
16.01629722109658
 31
0.0
 11
-20.75356267577689
 21
16.0226441260508
 31
0.0
 11
-19.80643812391173
 21
16.04168799577661
 31
0.0
 11
-18.86033862501551
 21
16.07340707153304
 31
0.0
 11
-17.91474894953171
 21
16.11782192183659
 31
0.0
 11
-16.33705824555483
 21
16.22035385663986
 31
0.0
 11
-14.76210547131171
 21
16.35843878803661
 31
0.0
  0
SPLINE
  5
20B
330
2
100
AcDbEntity
  8
GAIKEI
  6
Continuous
 62
     1
100
AcDbSpline
210
0.0
220
0.0
230
1.0
 70
    24
 71
     3
 72
     9
 73
     5
 74
     3
 42
0.0000000001
 43
0.0000000001
 44
0.00000001
 40
0.0
 40
0.0
 40
0.0
 40
0.0
 40
0.0247100889862562
 40
0.0494201779725942
 40
0.0494201779725942
 40
0.0494201779725942
 40
0.0494201779725942
 10
-14.76210547131171
 20
16.35843878803661
 30
0.0
 10
-14.75390920639174
 20
16.3592539001599
 30
0.0
 10
-14.73751667655173
 20
16.36088412440659
 30
0.0
 10
-14.72112414671176
 20
16.36251434865323
 30
0.0
 10
-14.71292788179176
 20
16.36332946077658
 30
0.0
 11
-14.76210547131171
 21
16.35843878803661
 31
0.0
 11
-14.73751667655176
 21
16.36088412440659
 31
0.0
 11
-14.71292788179176
 21
16.36332946077658
 31
0.0
  0
SPLINE
  5
20C
330
2
100
AcDbEntity
  8
GAIKEI
  6
Continuous
 62
     1
100
AcDbSpline
210
0.0
220
0.0
230
1.0
 70
    24
 71
     3
 72
     9
 73
     5
 74
     3
 42
0.0000000001
 43
0.0000000001
 44
0.00000001
 40
0.0
 40
0.0
 40
0.0
 40
0.0
 40
0.2657296055265717
 40
0.5314592110530552
 40
0.5314592110530552
 40
0.5314592110530552
 40
0.5314592110530552
 10
-14.71292788179176
 20
16.36332946077658
 30
0.0
 10
-14.62482345941841
 20
16.3724625512699
 30
0.0
 10
-14.44861461467175
 20
16.39072873225666
 30
0.0
 10
-14.27240576992506
 20
16.4089949132433
 30
0.0
 10
-14.18430134755175
 20
16.41812800373657
 30
0.0
 11
-14.71292788179176
 21
16.36332946077658
 31
0.0
 11
-14.44861461467172
 21
16.3907287322566
 31
0.0
 11
-14.18430134755175
 21
16.41812800373657
 31
0.0
  0
SPLINE
  5
20D
330
2
100
AcDbEntity
  8
GAIKEI
  6
Continuous
 62
     1
100
AcDbSpline
210
0.0
220
0.0
230
1.0
 70
    24
 71
     3
 72
     9
 73
     5
 74
     3
 42
0.0000000001
 43
0.0000000001
 44
0.00000001
 40
0.0
 40
0.0
 40
0.0
 40
0.0
 40
0.0170174255132209
 40
0.0340348510264055
 40
0.0340348510264055
 40
0.0340348510264055
 40
0.0340348510264055
 10
-14.18430134755175
 20
16.41812800373657
 30
0.0
 10
-14.1786615295284
 20
16.41873580899323
 30
0.0
 10
-14.16738189348173
 20
16.41995141950656
 30
0.0
 10
-14.15610225743507
 20
16.42116703001988
 30
0.0
 10
-14.15046243941174
 20
16.4217748352766
 30
0.0
 11
-14.18430134755175
 21
16.41812800373657
 31
0.0
 11
-14.16738189348172
 21
16.41995141950656
 31
0.0
 11
-14.15046243941174
 21
16.4217748352766
 31
0.0
  0
SPLINE
  5
20E
330
2
100
AcDbEntity
  8
GAIKEI
  6
Continuous
 62
     1
100
AcDbSpline
210
0.0
220
0.0
230
1.0
 70
     8
 71
     3
 72
     9
 73
     5
 74
     3
 42
0.0000000001
 43
0.0000000001
 44
0.00000001
 40
0.0
 40
0.0
 40
0.0
 40
0.0
 40
0.0282816068629038
 40
0.0567664332451285
 40
0.0567664332451285
 40
0.0567664332451285
 40
0.0567664332451285
 10
-29.35084862583176
 20
16.36249641265658
 30
0.0
 10
-29.34916711412294
 20
16.37217401376881
 30
0.0
 10
-29.34579199093813
 20
16.39159874737891
 30
0.0
 10
-29.32979105279148
 20
16.40312898187182
 30
0.0
 10
-29.32176193539175
 20
16.40891473177657
 30
0.0
 11
-29.35084862583176
 21
16.36249641265658
 31
0.0
 11
-29.34267018763791
 21
16.38956969439027
 31
0.0
 11
-29.32176193539175
 21
16.40891473177657
 31
0.0
  0
SPLINE
  5
20F
330
2
100
AcDbEntity
  8
GAIKEI
  6
Continuous
 62
     1
100
AcDbSpline
210
0.0
220
0.0
230
1.0
 70
    24
 71
     3
 72
     9
 73
     5
 74
     3
 42
0.0000000001
 43
0.0000000001
 44
0.00000001
 40
0.0
 40
0.0
 40
0.0
 40
0.0
 40
0.0069239296539776
 40
0.0138478593079803
 40
0.0138478593079803
 40
0.0138478593079803
 40
0.0138478593079803
 10
-29.32176193539175
 20
16.40891473177657
 30
0.0
 10
-29.31968903618174
 20
16.4099295443832
 30
0.0
 10
-29.31554323776172
 20
16.41195916959663
 30
0.0
 10
-29.31139743934174
 20
16.41398879480999
 30
0.0
 10
-29.30932454013174
 20
16.41500360741662
 30
0.0
 11
-29.32176193539175
 21
16.40891473177657
 31
0.0
 11
-29.31554323776174
 21
16.41195916959657
 31
0.0
 11
-29.30932454013174
 21
16.41500360741662
 31
0.0
  0
SPLINE
  5
210
330
2
100
AcDbEntity
  8
GAIKEI
  6
Continuous
 62
     1
100
AcDbSpline
210
0.0
220
0.0
230
1.0
 70
    24
 71
     3
 72
     9
 73
     5
 74
     3
 42
0.0000000001
 43
0.0000000001
 44
0.00000001
 40
0.0
 40
0.0
 40
0.0
 40
0.0
 40
0.0103960384014552
 40
0.020792076802866
 40
0.020792076802866
 40
0.020792076802866
 40
0.020792076802866
 10
-29.30932454013174
 20
16.41500360741662
 30
0.0
 10
-29.30598757529173
 20
16.41593810700669
 30
0.0
 10
-29.29931364561176
 20
16.41780710618673
 30
0.0
 10
-29.29263971593172
 20
16.41967610536659
 30
0.0
 10
-29.28930275109173
 20
16.42061060495661
 30
0.0
 11
-29.30932454013174
 21
16.41500360741662
 31
0.0
 11
-29.29931364561173
 21
16.41780710618661
 31
0.0
 11
-29.28930275109173
 21
16.42061060495661
 31
0.0
  0
SPLINE
  5
211
330
2
100
AcDbEntity
  8
GAIKEI
  6
Continuous
 62
     1
100
AcDbSpline
210
0.0
220
0.0
230
1.0
 70
    24
 71
     3
 72
     9
 73
     5
 74
     3
 42
0.0000000001
 43
0.0000000001
 44
0.00000001
 40
0.0
 40
0.0
 40
0.0
 40
0.0
 40
0.0108667327571567
 40
0.021733465514402
 40
0.021733465514402
 40
0.021733465514402
 40
0.021733465514402
 10
-29.28930275109173
 20
16.42061060495661
 30
0.0
 10
-29.2856957362084
 20
16.42094241371995
 30
0.0
 10
-29.27848170644174
 20
16.42160603124671
 30
0.0
 10
-29.27126767667505
 20
16.42226964877329
 30
0.0
 10
-29.26766066179169
 20
16.42260145753659
 30
0.0
 11
-29.28930275109173
 21
16.42061060495661
 31
0.0
 11
-29.27848170644177
 21
16.4216060312466
 31
0.0
 11
-29.26766066179169
 21
16.42260145753659
 31
0.0
  0
SPLINE
  5
212
330
2
100
AcDbEntity
  8
GAIKEI
  6
Continuous
 62
     1
100
AcDbSpline
210
0.0
220
0.0
230
1.0
 70
    24
 71
     3
 72
     9
 73
     5
 74
     3
 42
0.0000000001
 43
0.0000000001
 44
0.00000001
 40
0.0
 40
0.0
 40
0.0
 40
0.0
 40
0.0082233180366275
 40
0.0164466360732636
 40
0.0164466360732636
 40
0.0164466360732636
 40
0.0164466360732636
 10
-29.26766066179169
 20
16.42260145753659
 30
0.0
 10
-29.26492302019838
 20
16.4224636871599
 30
0.0
 10
-29.25944773701174
 20
16.42218814640648
 30
0.0
 10
-29.25397245382509
 20
16.42191260565323
 30
0.0
 10
-29.25123481223176
 20
16.4217748352766
 30
0.0
 11
-29.26766066179169
 21
16.42260145753659
 31
0.0
 11
-29.25944773701173
 21
16.42218814640659
 31
0.0
 11
-29.25123481223176
 21
16.4217748352766
 31
0.0
  0
SPLINE
  5
213
330
2
100
AcDbEntity
  8
GAIKEI
  6
Continuous
 62
     1
100
AcDbSpline
210
0.0
220
0.0
230
1.0
 70
     8
 71
     3
 72
     9
 73
     5
 74
     3
 42
0.0000000001
 43
0.0000000001
 44
0.00000001
 40
0.0
 40
0.0
 40
0.0
 40
0.0
 40
0.1015565977143197
 40
0.2030916452766685
 40
0.2030916452766685
 40
0.2030916452766685
 40
0.2030916452766685
 10
-28.12657707465172
 20
-1.774449024743432
 30
0.0
 10
-28.16030454252735
 20
-1.778637242860042
 30
0.0
 10
-28.22775231735239
 20
-1.787012809840064
 30
0.0
 10
-28.29130313099199
 20
-1.811109225717871
 30
0.0
 10
-28.32307516333179
 20
-1.823156164763418
 30
0.0
 11
-28.12657707465172
 21
-1.774449024743432
 31
0.0
 11
-28.22678502961264
 21
-1.790944735211382
 31
0.0
 11
-28.32307516333179
 21
-1.823156164763418
 31
0.0
  0
SPLINE
  5
214
330
2
100
AcDbEntity
  8
GAIKEI
  6
Continuous
100
AcDbSpline
210
0.0
220
0.0
230
1.0
 70
     8
 71
     3
 72
     9
 73
     5
 74
     3
 42
0.0000000001
 43
0.0000000001
 44
0.00000001
 40
0.0
 40
0.0
 40
0.0
 40
0.0
 40
0.0174201645210159
 40
0.0365206154627382
 40
0.0365206154627382
 40
0.0365206154627382
 40
0.0365206154627382
 10
-14.69541367415166
 20
-2.128479330483401
 30
0.0
 10
-14.69119828888975
 20
-2.124199842501127
 30
0.0
 10
-14.68236093361208
 20
-2.115228072426077
 30
0.0
 10
-14.68164007810985
 20
-2.102607200276622
 30
0.0
 10
-14.68126307679171
 20
-2.096006422703396
 30
0.0
 11
-14.69541367415166
 21
-2.128479330483401
 31
0.0
 11
-14.68461422788528
 21
-2.114810600579858
 31
0.0
 11
-14.68126307679171
 21
-2.096006422703396
 31
0.0
  0
SPLINE
  5
215
330
2
100
AcDbEntity
  8
GAIKEI
  6
Continuous
 62
     1
100
AcDbSpline
210
0.0
220
0.0
230
1.0
 70
     8
 71
     3
 72
    23
 73
    19
 74
    17
 42
0.0000000001
 43
0.0000000001
 44
0.00000001
 40
0.0
 40
0.0
 40
0.0
 40
0.0
 40
0.005621046622647
 40
0.0112615479075641
 40
0.0152134899268976
 40
0.0191643396073021
 40
0.0242311999601961
 40
0.0292994896665546
 40
0.0355258182608176
 40
0.0417524313661302
 40
0.0490345832061177
 40
0.0563168630314306
 40
0.0646083882478433
 40
0.0729000695978286
 40
0.0821606585046945
 40
0.091421223988072
 40
0.1122802812677399
 40
0.133139367489151
 40
0.133139367489151
 40
0.133139367489151
 40
0.133139367489151
 10
-28.3230685488918
 20
-1.823160152723403
 30
0.0
 10
-28.32283173662236
 20
-1.825046216594216
 30
0.0
 10
-28.32235729507638
 20
-1.828824871448432
 30
0.0
 10
-28.31931449639395
 20
-1.833079588987459
 30
0.0
 10
-28.31611057620986
 20
-1.836247805415268
 30
0.0
 10
-28.31264278191561
 20
-1.838854196763918
 30
0.0
 10
-28.30862047095486
 20
-1.841287689476928
 30
0.0
 10
-28.3037119028375
 20
-1.843678437821438
 30
0.0
 10
-28.29828161559097
 20
-1.845842276266864
 30
0.0
 10
-28.29202065607416
 20
-1.847872315973177
 30
0.0
 10
-28.28531986578511
 20
-1.849653852229664
 30
0.0
 10
-28.27786972344961
 20
-1.851257925031518
 30
0.0
 10
-28.27002957530492
 20
-1.852617977280203
 30
0.0
 10
-28.26149303568377
 20
-1.85378557864044
 30
0.0
 10
-28.25260384855239
 20
-1.854727591329833
 30
0.0
 10
-28.23951666959735
 20
-1.855758868305201
 30
0.0
 10
-28.22253481593982
 20
-1.856522136908097
 30
0.0
 10
-28.20862872834663
 20
-1.856640165179044
 30
0.0
 10
-28.20167567977171
 20
-1.856699182503405
 30
0.0
 11
-28.3230685488918
 21
-1.823160152723403
 31
0.0
 11
-28.32191515766431
 21
-1.828661603163027
 31
0.0
 11
-28.31885549769174
 21
-1.833400135483429
 31
0.0
 11
-28.31604942207815
 21
-1.836182900047049
 31
0.0
 11
-28.31290970611173
 21
-1.838581106203434
 31
0.0
 11
-28.30858425681299
 21
-1.841219961632077
 31
0.0
 11
-28.30403675579169
 21
-1.843457771303462
 31
0.0
 11
-28.29825889410216
 21
-1.845778003839768
 31
0.0
 11
-28.29234104533174
 21
-1.847714437283343
 31
0.0
 11
-28.28530654047177
 21
-1.849597380348313
 31
0.0
 11
-28.27818999351172
 21
-1.851142164203395
 31
0.0
 11
-28.27002215981884
 21
-1.852569007419674
 31
0.0
 11
-28.26180831247171
 21
-1.853702449143384
 31
0.0
 11
-28.25260012042241
 21
-1.854686169108163
 31
0.0
 11
-28.24336893049173
 21
-1.85542319338333
 31
0.0
 11
-28.22253254599298
 21
-1.85639548543844
 31
0.0
 11
-28.20167567977171
 21
-1.856699182503405
 31
0.0
  0
SPLINE
  5
216
330
2
100
AcDbEntity
  8
GAIKEI
  6
Continuous
100
AcDbSpline
210
0.0
220
0.0
230
1.0
 70
     8
 71
     3
 72
     9
 73
     5
 74
     3
 42
0.0000000001
 43
0.0000000001
 44
0.00000001
 40
0.0
 40
0.0
 40
0.0
 40
0.0
 40
0.0174201420933698
 40
0.0365206115913116
 40
0.0365206115913116
 40
0.0365206115913116
 40
0.0365206115913116
 10
-28.70628359345176
 20
-2.128479341523416
 30
0.0
 10
-28.71049896523155
 20
-2.124199853415007
 30
0.0
 10
-28.71933630268538
 20
-2.115228072475531
 30
0.0
 10
-28.72005716819396
 20
-2.102607204819321
 30
0.0
 10
-28.7204341751517
 20
-2.096006422483412
 30
0.0
 11
-28.70628359345176
 21
-2.128479341523416
 31
0.0
 11
-28.71708300996738
 21
-2.114810616697297
 31
0.0
 11
-28.7204341751517
 21
-2.096006422483412
 31
0.0
  0
SPLINE
  5
217
330
2
100
AcDbEntity
  8
GAIKEI
  6
Continuous
 62
     1
100
AcDbSpline
210
0.0
220
0.0
230
1.0
 70
     8
 71
     3
 72
    15
 73
    11
 74
     9
 42
0.0000000001
 43
0.0000000001
 44
0.00000001
 40
0.0
 40
0.0
 40
0.0
 40
0.0
 40
0.0607430100535447
 40
0.1217602417495054
 40
0.1641743159991721
 40
0.2066014405697529
 40
0.2525771226545639
 40
0.2985576595696841
 40
0.3905271171677967
 40
0.4824803325298823
 40
0.4824803325298823
 40
0.4824803325298823
 40
0.4824803325298823
 10
-22.05080910197176
 20
15.1622523458966
 30
0.0
 10
-22.04895234030267
 20
15.18257028676231
 30
0.0
 10
-22.04523042102593
 20
15.22329789068988
 30
0.0
 10
-22.02004802066338
 20
15.27319711844711
 30
0.0
 10
-21.99013888746228
 20
15.31162711301726
 30
0.0
 10
-21.95809381627011
 20
15.34147360703491
 30
0.0
 10
-21.92126981643887
 20
15.36723919293075
 30
0.0
 10
-21.86673634307757
 20
15.39544425378301
 30
0.0
 10
-21.79294481517877
 20
15.41942804786976
 30
0.0
 10
-21.73154554869688
 20
15.42289128869538
 30
0.0
 10
-21.70084862583173
 20
15.42462274911656
 30
0.0
 11
-22.05080910197176
 21
15.1622523458966
 31
0.0
 11
-22.04151696684056
 21
15.22228042282597
 31
0.0
 11
-22.01533469467171
 21
15.27739477423665
 31
0.0
 11
-21.98929542132436
 21
15.31087476991962
 31
0.0
 11
-21.95837133979177
 21
15.33992235507662
 31
0.0
 11
-21.92075451520179
 21
15.36635600687333
 31
0.0
 11
-21.87999690201178
 21
15.38764043309663
 31
0.0
 11
-21.7923479932349
 21
15.41549810648064
 31
0.0
 11
-21.70084862583173
 21
15.42462274911656
 31
0.0
  0
SPLINE
  5
218
330
2
100
AcDbEntity
  8
GAIKEI
  6
Continuous
 62
     1
100
AcDbSpline
210
0.0
220
0.0
230
1.0
 70
     8
 71
     3
 72
    13
 73
     9
 74
     7
 42
0.0000000001
 43
0.0000000001
 44
0.00000001
 40
0.0
 40
0.0
 40
0.0
 40
0.0
 40
2.612228839188444
 40
5.224468090001409
 40
6.539616868623967
 40
7.854765649522037
 40
10.46698737135649
 40
13.07919866387903
 40
13.07919866387903
 40
13.07919866387903
 40
13.07919866387903
 10
-28.20167583301174
 20
-1.856699158703406
 30
0.0
 10
-27.34312720693913
 20
-2.004482394742524
 30
0.0
 10
-25.62602653059826
 20
-2.300049441251587
 30
0.0
 10
-23.448187763874
 20
-2.455718198843328
 30
0.0
 10
-21.70083053831334
 20
-2.49084428389392
 30
0.0
 10
-19.95347919194419
 20
-2.455716407818556
 30
0.0
 10
-17.77565227343219
 20
-2.300046816716189
 30
0.0
 10
-16.05856319733568
 20
-2.004481383510267
 30
0.0
 10
-15.20002037429179
 20
-1.856698954623425
 30
0.0
 11
-28.20167583301174
 21
-1.856699158703406
 31
0.0
 11
-25.62033894748521
 21
-2.257248024339787
 31
0.0
 11
-23.01573871469174
 21
-2.456876516563454
 31
0.0
 11
-21.70083054367723
 21
-2.482032284645299
 31
0.0
 11
-20.38592239759174
 21
-2.456875094583438
 31
0.0
 11
-17.78133979695849
 21
-2.257245926900736
 31
0.0
 11
-15.20002037429179
 21
-1.856698954623425
 31
0.0
  0
SPLINE
  5
219
330
2
100
AcDbEntity
  8
GAIKEI
  6
Continuous
 62
     1
100
AcDbSpline
210
0.0
220
0.0
230
1.0
 70
     8
 71
     3
 72
     9
 73
     5
 74
     3
 42
0.0000000001
 43
0.0000000001
 44
0.00000001
 40
0.0
 40
0.0
 40
0.0
 40
0.0
 40
0.1015558976936087
 40
0.2030902416206722
 40
0.2030902416206722
 40
0.2030902416206722
 40
0.2030902416206722
 10
-15.27512017699178
 20
-1.774449024743432
 30
0.0
 10
-15.24139293923894
 20
-1.778637191247241
 30
0.0
 10
-15.17394562586035
 20
-1.787012654857505
 30
0.0
 10
-15.11039522614334
 20
-1.811108834810852
 30
0.0
 10
-15.0786234013317
 20
-1.823155655683422
 30
0.0
 11
-15.27512017699178
 21
-1.774449024743432
 31
0.0
 11
-15.17491290055182
 21
-1.790944547372987
 31
0.0
 11
-15.0786234013317
 21
-1.823155655683422
 31
0.0
  0
SPLINE
  5
21A
330
2
100
AcDbEntity
  8
GAIKEI
  6
Continuous
 62
     1
100
AcDbSpline
210
0.0
220
0.0
230
1.0
 70
     8
 71
     3
 72
    13
 73
     9
 74
     7
 42
0.0000000001
 43
0.0000000001
 44
0.00000001
 40
0.0
 40
0.0
 40
0.0
 40
0.0
 40
0.0052392821144106
 40
0.0104946235185548
 40
0.0141234275791272
 40
0.0177509327991525
 40
0.0273618403490214
 40
0.0369727328766804
 40
0.0369727328766804
 40
0.0369727328766804
 40
0.0369727328766804
 10
-15.07863181337171
 20
14.91818870283657
 30
0.0
 10
-15.07883870539495
 20
14.91994552539449
 30
0.0
 10
-15.07925313743818
 20
14.9234645524192
 30
0.0
 10
-15.08193119053174
 20
14.9274977897245
 30
0.0
 10
-15.08476901074807
 20
14.93054534433543
 30
0.0
 10
-15.08911155102284
 20
14.93414102121244
 30
0.0
 10
-15.09569077188627
 20
14.93808057586449
 30
0.0
 10
-15.10164284932967
 20
14.94046515014957
 30
0.0
 10
-15.10461888701172
 20
14.9416574335566
 30
0.0
 11
-15.07863181337171
 21
14.91818870283657
 31
0.0
 11
-15.0796451746977
 21
14.92332905536278
 31
0.0
 11
-15.08235524485172
 21
14.92783174411659
 31
0.0
 11
-15.08482491254165
 21
14.9304904989749
 31
0.0
 11
-15.08760140497173
 21
14.93282499909662
 31
0.0
 11
-15.09579512287735
 21
14.93784819915674
 31
0.0
 11
-15.10461888701172
 21
14.9416574335566
 31
0.0
  0
SPLINE
  5
21B
330
2
100
AcDbEntity
  8
GAIKEI
  6
Continuous
 62
     1
100
AcDbSpline
210
0.0
220
0.0
230
1.0
 70
     8
 71
     3
 72
    19
 73
    15
 74
    13
 42
0.0000000001
 43
0.0000000001
 44
0.00000001
 40
0.0
 40
0.0
 40
0.0
 40
0.0
 40
0.022151331870887
 40
0.0443025824478535
 40
0.0539956747302494
 40
0.0636874789082679
 40
0.0725051332065365
 40
0.0813271219390032
 40
0.0894388079869228
 40
0.0975364873750556
 40
0.1046316756926556
 40
0.1117743487057019
 40
0.12240492843007
 40
0.1329360798467792
 40
0.1329360798467792
 40
0.1329360798467792
 40
0.1329360798467792
 10
-15.20002053835173
 20
-1.856698980103431
 30
0.0
 10
-15.19263673222066
 20
-1.856633786204724
 30
0.0
 10
-15.17786914694375
 20
-1.856503406060653
 30
0.0
 10
-15.15988377429386
 20
-1.855633117590627
 30
0.0
 10
-15.1460882681264
 20
-1.854442922482576
 30
0.0
 10
-15.13674905509548
 20
-1.853353414123205
 30
0.0
 10
-15.12773948147892
 20
-1.851986148322737
 30
0.0
 10
-15.1193126145708
 20
-1.85033958145425
 30
0.0
 10
-15.11120642170168
 20
-1.848336362342081
 30
0.0
 10
-15.10379921903098
 20
-1.845999948754865
 30
0.0
 10
-15.09684822412062
 20
-1.843243622089801
 30
0.0
 10
-15.08960769712627
 20
-1.839359980217864
 30
0.0
 10
-15.08141556372994
 20
-1.833698058588311
 30
0.0
 10
-15.07955681692292
 20
-1.826662748178137
 30
0.0
 10
-15.07863181303173
 20
-1.823161618063409
 30
0.0
 11
-15.20002053835173
 21
-1.856698980103431
 31
0.0
 11
-15.17787184767383
 21
-1.856357481018505
 31
0.0
 11
-15.1557488456117
 21
-1.855239141863421
 31
0.0
 11
-15.14609262192164
 21
-1.854394523005282
 31
0.0
 11
-15.13646723633167
 21
-1.853261818763371
 31
0.0
 11
-15.12775150314633
 21
-1.851925023895546
 31
0.0
 11
-15.11909580371173
 21
-1.85022022186348
 31
0.0
 11
-15.11122624282575
 21
-1.848253127826353
 31
0.0
 11
-15.10350923291173
 21
-1.845799525383483
 31
0.0
 11
-15.09693391949378
 21
-1.843133639961024
 31
0.0
 11
-15.09062816977172
 21
-1.839778749823437
 31
0.0
 11
-15.08246335574398
 21
-1.832971033939429
 31
0.0
 11
-15.07863181303173
 21
-1.823161618063409
 31
0.0
  0
SPLINE
  5
21C
330
2
100
AcDbEntity
  8
GAIKEI
  6
Continuous
100
AcDbSpline
210
0.0
220
0.0
230
1.0
 70
     8
 71
     3
 72
     9
 73
     5
 74
     3
 42
0.0000000001
 43
0.0000000001
 44
0.00000001
 40
0.0
 40
0.0
 40
0.0
 40
0.0
 40
0.5323727647422825
 40
1.06420709845827
 40
1.06420709845827
 40
1.06420709845827
 40
1.06420709845827
 10
-14.68126087367176
 20
15.35134895945657
 30
0.0
 10
-14.55084820650473
 20
15.47424057140023
 30
0.0
 10
-14.29015478410225
 20
15.71989951776953
 30
0.0
 10
-14.13740047921469
 20
16.04389411795125
 30
0.0
 10
-14.06106197779172
 20
16.20580946147657
 30
0.0
 11
-14.68126087367176
 21
15.35134895945657
 31
0.0
 11
-14.31703497124135
 21
15.73962753724896
 31
0.0
 11
-14.06106197779172
 21
16.20580946147657
 31
0.0
  0
SPLINE
  5
21D
330
2
100
AcDbEntity
  8
GAIKEI
  6
Continuous
100
AcDbSpline
210
0.0
220
0.0
230
1.0
 70
    24
 71
     3
 72
     9
 73
     5
 74
     3
 42
0.0000000001
 43
0.0000000001
 44
0.00000001
 40
0.0
 40
0.0
 40
0.0
 40
0.0
 40
0.0094505372679991
 40
0.0189010745358824
 40
0.0189010745358824
 40
0.0189010745358824
 40
0.0189010745358824
 10
-14.06106197783174
 20
-1.31775458650344
 30
0.0
 10
-14.06228935300842
 20
-1.320655823906747
 30
0.0
 10
-14.0647441033617
 20
-1.326458298713475
 30
0.0
 10
-14.06719885371507
 20
-1.33226077352009
 30
0.0
 10
-14.06842622889172
 20
-1.335162010923397
 30
0.0
 11
-14.06106197783174
 21
-1.31775458650344
 31
0.0
 11
-14.06474410336176
 21
-1.326458298713419
 31
0.0
 11
-14.06842622889172
 21
-1.335162010923397
 31
0.0
  0
SPLINE
  5
21E
330
2
100
AcDbEntity
  8
GAIKEI
  6
Continuous
100
AcDbSpline
210
0.0
220
0.0
230
1.0
 70
     8
 71
     3
 72
    15
 73
    11
 74
     9
 42
0.0000000001
 43
0.0000000001
 44
0.00000001
 40
0.0
 40
0.0
 40
0.0
 40
0.0
 40
2.33294948789346
 40
4.665907154100633
 40
5.843173958399969
 40
7.020435904434278
 40
8.197702454245336
 40
9.37497386372653
 40
11.70793661051901
 40
14.04089117429949
 40
14.04089117429949
 40
14.04089117429949
 40
14.04089117429949
 10
-28.67269154195174
 20
15.3297025745166
 30
0.0
 10
-27.90832539811296
 20
15.18491298625156
 30
0.0
 10
-26.37959042836865
 20
14.8953333166815
 30
0.0
 10
-24.43868154446657
 20
14.70419787971309
 30
0.0
 10
-22.87822242428582
 20
14.62291642350482
 30
0.0
 10
-21.70085680224472
 20
14.60309026730675
 30
0.0
 10
-20.52348963267395
 20
14.62291586519711
 30
0.0
 10
-18.96302572521902
 20
14.70419700473394
 30
0.0
 10
-17.0221118813048
 20
14.89533245897667
 30
0.0
 10
-15.49337356874738
 20
15.18491269420701
 30
0.0
 10
-14.72900575427172
 20
15.32970256515659
 30
0.0
 11
-28.67269154195174
 21
15.3297025745166
 31
0.0
 11
-26.37431191062251
 21
14.92957211452864
 31
0.0
 11
-24.05366428725171
 21
14.69022700023652
 31
0.0
 11
-22.87794833715793
 21
14.62981893802612
 31
0.0
 11
-21.70085833491169
 21
14.60969887389655
 31
0.0
 11
-20.52376371958695
 21
14.62981843317874
 31
0.0
 11
-19.34804314835173
 21
14.69022630299656
 31
0.0
 11
-17.02739041652353
 21
14.92957140835085
 31
0.0
 11
-14.72900575427172
 21
15.32970256515659
 31
0.0
  0
SPLINE
  5
21F
330
2
100
AcDbEntity
  8
GAIKEI
  6
Continuous
 62
     1
100
AcDbSpline
210
0.0
220
0.0
230
1.0
 70
     8
 71
     3
 72
     9
 73
     5
 74
     3
 42
0.0000000001
 43
0.0000000001
 44
0.00000001
 40
0.0
 40
0.0
 40
0.0
 40
0.0
 40
0.0333743326817164
 40
0.0656363939033429
 40
0.0656363939033429
 40
0.0656363939033429
 40
0.0656363939033429
 10
-15.4008486493517
 20
-1.334223638083415
 30
0.0
 10
-15.3888879101543
 20
-1.33310464311279
 30
0.0
 10
-15.36536505661671
 20
-1.330903930056138
 30
0.0
 10
-15.35563245576804
 20
-1.309449882706417
 30
0.0
 10
-15.35084862583176
 20
-1.298904632743415
 30
0.0
 11
-15.4008486493517
 21
-1.334223638083415
 31
0.0
 11
-15.36853183124924
 21
-1.325888796122001
 31
0.0
 11
-15.35084862583176
 21
-1.298904632743415
 31
0.0
  0
SPLINE
  5
220
330
2
100
AcDbEntity
  8
GAIKEI
  6
Continuous
 62
     1
100
AcDbSpline
210
0.0
220
0.0
230
1.0
 70
     8
 71
     3
 72
    15
 73
    11
 74
     9
 42
0.0000000001
 43
0.0000000001
 44
0.00000001
 40
0.0
 40
0.0
 40
0.0
 40
0.0
 40
0.0987070756831916
 40
0.1974022363833297
 40
0.2428162198728513
 40
0.2882233275782855
 40
0.330112101493646
 40
0.3719890730846203
 40
0.4273741403890262
 40
0.4824861151992014
 40
0.4824861151992014
 40
0.4824861151992014
 40
0.4824861151992014
 10
-21.70084862583173
 20
15.42462274911656
 30
0.0
 10
-21.66789063567014
 20
15.42262800813569
 30
0.0
 10
-21.60197863525016
 20
15.41863875292438
 30
0.0
 10
-21.5244952139268
 20
15.39136811746027
 30
0.0
 10
-21.46939864704483
 20
15.36028457131817
 30
0.0
 10
-21.43404231128252
 20
15.33343958060124
 30
0.0
 10
-21.40367734803532
 20
15.30265140912706
 30
0.0
 10
-21.37682816675888
 20
15.26470119071069
 30
0.0
 10
-21.35547055527785
 20
15.21761649495403
 30
0.0
 10
-21.35241311915775
 20
15.18067774029907
 30
0.0
 10
-21.35088818611178
 20
15.16225400885656
 30
0.0
 11
-21.70084862583173
 21
15.42462274911656
 31
0.0
 11
-21.60270482791879
 21
15.41409273678982
 31
0.0
 11
-21.50941137601171
 21
15.38188921791658
 31
0.0
 11
-21.46994855748392
 21
15.35941443414566
 31
0.0
 11
-21.43384530971173
 21
15.33187607865653
 31
0.0
 11
-21.40455691714499
 21
15.30192846504985
 31
0.0
 11
-21.38038628225172
 21
15.26773107723653
 31
0.0
 11
-21.35855526370909
 21
15.2168300675408
 31
0.0
 11
-21.35088818611178
 21
15.16225400885656
 31
0.0
  0
SPLINE
  5
221
330
2
100
AcDbEntity
  8
GAIKEI
  6
Continuous
 62
     1
100
AcDbSpline
210
0.0
220
0.0
230
1.0
 70
     8
 71
     3
 72
     9
 73
     5
 74
     3
 42
0.0000000001
 43
0.0000000001
 44
0.00000001
 40
0.0
 40
0.0
 40
0.0
 40
0.0
 40
0.0322620656484419
 40
0.0656363944931783
 40
0.0656363944931783
 40
0.0656363944931783
 40
0.0656363944931783
 10
-28.05084862583175
 20
-1.298904632743415
 30
0.0
 10
-28.04606479513769
 20
-1.309449884342882
 30
0.0
 10
-28.03633219399531
 20
-1.330903932270871
 30
0.0
 10
-28.0128093401719
 20
-1.33310464395123
 30
0.0
 10
-28.00084860231175
 20
-1.334223638083415
 30
0.0
 11
-28.05084862583175
 21
-1.298904632743415
 31
0.0
 11
-28.03316541728839
 21
-1.325888799366225
 31
0.0
 11
-28.00084860231175
 21
-1.334223638083415
 31
0.0
  0
SPLINE
  5
222
330
2
100
AcDbEntity
  8
GAIKEI
  6
Continuous
100
AcDbSpline
210
0.0
220
0.0
230
1.0
 70
    24
 71
     3
 72
     9
 73
     5
 74
     3
 42
0.0000000001
 43
0.0000000001
 44
0.00000001
 40
0.0
 40
0.0
 40
0.0
 40
0.0
 40
0.0094679100771834
 40
0.0189358201544469
 40
0.0189358201544469
 40
0.0189358201544469
 40
0.0189358201544469
 10
-29.3332575077518
 20
-1.335193668703425
 30
0.0
 10
-29.33448715612176
 20
-1.332287105150101
 30
0.0
 10
-29.33694645286172
 20
-1.326473978043338
 30
0.0
 10
-29.33940574960169
 20
-1.320660850936747
 30
0.0
 10
-29.34063539797171
 20
-1.317754287383422
 30
0.0
 11
-29.3332575077518
 21
-1.335193668703425
 31
0.0
 11
-29.3369464528617
 21
-1.326473978043395
 31
0.0
 11
-29.34063539797171
 21
-1.317754287383422
 31
0.0
  0
SPLINE
  5
223
330
2
100
AcDbEntity
  8
GAIKEI
  6
Continuous
100
AcDbSpline
210
0.0
220
0.0
230
1.0
 70
     8
 71
     3
 72
     9
 73
     5
 74
     3
 42
0.0000000001
 43
0.0000000001
 44
0.00000001
 40
0.0
 40
0.0
 40
0.0
 40
0.0
 40
0.531834348141331
 40
1.064207082595101
 40
1.064207082595101
 40
1.064207082595101
 40
1.064207082595101
 10
-29.34063539785177
 20
16.20580978951659
 30
0.0
 10
-29.26429692632181
 20
16.04389442574279
 30
0.0
 10
-29.11154268767074
 20
15.71989979866129
 30
0.0
 10
-28.85084930076547
 20
15.4742408208362
 30
0.0
 10
-28.72043665683168
 20
15.3513491983166
 30
0.0
 11
-29.34063539785177
 21
16.20580978951659
 31
0.0
 11
-29.08466248413805
 21
15.73962780505041
 31
0.0
 11
-28.72043665683168
 21
15.3513491983166
 31
0.0
  0
SPLINE
  5
224
330
2
100
AcDbEntity
  8
GAIKEI
  6
Continuous
 62
     1
100
AcDbSpline
210
0.0
220
0.0
230
1.0
 70
     8
 71
     3
 72
    17
 73
    13
 74
    11
 42
0.0000000001
 43
0.0000000001
 44
0.00000001
 40
0.0
 40
0.0
 40
0.0
 40
0.0
 40
0.005868007729319
 40
0.0117392459245159
 40
0.0154414761240671
 40
0.0191448991939504
 40
0.0234861096720699
 40
0.0278287653676071
 40
0.0328258421005676
 40
0.0378237862790787
 40
0.0493191098000423
 40
0.0608162366515261
 40
0.0608162366515261
 40
0.0608162366515261
 40
0.0608162366515261
 10
-28.08266754033179
 20
-1.739460162263412
 30
0.0
 10
-28.0829254538168
 20
-1.741406057724475
 30
0.0
 10
-28.08344143653484
 20
-1.74529891738274
 30
0.0
 10
-28.08542467615826
 20
-1.75010739636275
 30
0.0
 10
-28.08765144916876
 20
-1.753935592760967
 30
0.0
 10
-28.0899859569874
 20
-1.757089721711167
 30
0.0
 10
-28.09278939448196
 20
-1.760132614004646
 30
0.0
 10
-28.09622386266826
 20
-1.763144004921741
 30
0.0
 10
-28.1001331603468
 20
-1.76591158165877
 30
0.0
 10
-28.10637974457609
 20
-1.769427937082127
 30
0.0
 10
-28.11516454026035
 20
-1.772846517960829
 30
0.0
 10
-28.12277269677436
 20
-1.773914832513412
 30
0.0
 10
-28.12657707465172
 20
-1.774449024743432
 30
0.0
 11
-28.08266754033179
 21
-1.739460162263412
 31
0.0
 11
-28.08368908926031
 21
-1.745238570399919
 31
0.0
 11
-28.08584469339172
 21
-1.750699784003415
 31
0.0
 11
-28.0877086517778
 21
-1.753898561853702
 31
0.0
 11
-28.08990622785177
 21
-1.756879503123457
 31
0.0
 11
-28.0928427253989
 21
-1.760076861348295
 31
0.0
 11
-28.09610322935174
 21
-1.762945271863372
 31
0.0
 11
-28.10017792043192
 21
-1.765837965101979
 31
0.0
 11
-28.10452626539171
 21
-1.768301975083431
 31
0.0
 11
-28.11526195210996
 21
-1.772411414088026
 31
0.0
 11
-28.12657707465172
 21
-1.774449024743432
 31
0.0
  0
SPLINE
  5
225
330
2
100
AcDbEntity
  8
GAIKEI
  6
Continuous
 62
     1
100
AcDbSpline
210
0.0
220
0.0
230
1.0
 70
     8
 71
     3
 72
    17
 73
    13
 74
    11
 42
0.0000000001
 43
0.0000000001
 44
0.00000001
 40
0.0
 40
0.0
 40
0.0
 40
0.0
 40
0.0057919903535807
 40
0.0115869372484152
 40
0.0152282942735388
 40
0.0188708081996585
 40
0.02317750739586
 40
0.027485730089608
 40
0.0325030335818006
 40
0.0375213423028281
 40
0.049167535182499
 40
0.0608155494150761
 40
0.0608155494150761
 40
0.0608155494150761
 40
0.0608155494150761
 10
-15.31902971133166
 20
-1.739460162263412
 30
0.0
 10
-15.3187767341744
 20
-1.741380886165302
 30
0.0
 10
-15.31827063696837
 20
-1.74522331190684
 30
0.0
 10
-15.31633416269251
 20
-1.749972033376138
 30
0.0
 10
-15.31416161161749
 20
-1.753755168918246
 30
0.0
 10
-15.31187979285608
 20
-1.756882971188474
 30
0.0
 10
-15.30912845354034
 20
-1.759914732438517
 30
0.0
 10
-15.30572938948596
 20
-1.762941561792501
 30
0.0
 10
-15.30183795570772
 20
-1.765738157317173
 30
0.0
 10
-15.29555738020985
 20
-1.76932418334951
 30
0.0
 10
-15.28668217292899
 20
-1.772817987752603
 30
0.0
 10
-15.27897437737168
 20
-1.773905322029122
 30
0.0
 10
-15.27512017699178
 20
-1.774449024743432
 30
0.0
 11
-15.31902971133166
 21
-1.739460162263412
 31
0.0
 11
-15.31802906489258
 21
-1.745165064247089
 31
0.0
 11
-15.3159217005317
 21
-1.750563255563406
 31
0.0
 11
-15.314105818646
 21
-1.753719529600573
 31
0.0
 11
-15.31196449471167
 21
-1.756666162983435
 31
0.0
 11
-15.30907523561484
 21
-1.75985988319644
 31
0.0
 11
-15.3058624915717
 21
-1.762730260323337
 31
0.0
 11
-15.30179213861146
 21
-1.765663784978414
 31
0.0
 11
-15.29744130945175
 21
-1.768164527103294
 31
0.0
 11
-15.28658133532912
 21
-1.772371041833196
 31
0.0
 11
-15.27512017699178
 21
-1.774449024743432
 31
0.0
  0
SPLINE
  5
226
330
2
100
AcDbEntity
  8
GAIKEI
  6
Continuous
 62
     1
100
AcDbSpline
210
0.0
220
0.0
230
1.0
 70
     8
 71
     3
 72
    11
 73
     7
 74
     5
 42
0.0000000001
 43
0.0000000001
 44
0.00000001
 40
0.0
 40
0.0
 40
0.0
 40
0.0
 40
0.0077502186363468
 40
0.0155408900033984
 40
0.0262048588380392
 40
0.036768099618642
 40
0.036768099618642
 40
0.036768099618642
 40
0.036768099618642
 10
-28.29709658207179
 20
14.94165687649661
 30
0.0
 10
-28.29950847812084
 20
14.94070940905726
 30
0.0
 10
-28.30434485389783
 20
14.93880951631757
 30
0.0
 10
-28.31191979138533
 20
14.93460356668004
 30
0.0
 10
-28.3202441003977
 20
14.92874419109722
 30
0.0
 10
-28.32212956347485
 20
14.92169905676525
 30
0.0
 10
-28.32306781493173
 20
14.91819320223658
 30
0.0
 11
-28.29709658207179
 21
14.94165687649661
 31
0.0
 11
-28.30424670501299
 21
14.93866662900001
 31
0.0
 11
-28.31108199341173
 21
14.93492852283663
 31
0.0
 11
-28.3192120185384
 21
14.92802757817736
 31
0.0
 11
-28.32306781493173
 21
14.91819320223658
 31
0.0
  0
SPLINE
  5
227
330
2
100
AcDbEntity
  8
GAIKEI
  6
Continuous
100
AcDbSpline
210
0.0
220
0.0
230
1.0
 70
     8
 71
     3
 72
     9
 73
     5
 74
     3
 42
0.0000000001
 43
0.0000000001
 44
0.00000001
 40
0.0
 40
0.0
 40
0.0
 40
0.0
 40
0.0263804145147622
 40
0.052797490971957
 40
0.052797490971957
 40
0.052797490971957
 40
0.052797490971957
 10
-28.72043665677177
 20
15.35134910101658
 30
0.0
 10
-28.71313251197032
 20
15.34631522767625
 30
0.0
 10
-28.69851406227843
 20
15.33624050268486
 30
0.0
 10
-28.68130303479555
 20
15.33188288760556
 30
0.0
 10
-28.67269154195174
 20
15.32970257635656
 30
0.0
 11
-28.72043665677177
 21
15.35134910101658
 31
0.0
 11
-28.6978769726511
 21
15.33767478256635
 31
0.0
 11
-28.67269154195174
 21
15.32970257635656
 31
0.0
  0
SPLINE
  5
228
330
2
100
AcDbEntity
  8
GAIKEI
  6
Continuous
100
AcDbSpline
210
0.0
220
0.0
230
1.0
 70
     8
 71
     3
 72
     9
 73
     5
 74
     3
 42
0.0000000001
 43
0.0000000001
 44
0.00000001
 40
0.0
 40
0.0
 40
0.0
 40
0.0
 40
0.0264089346890578
 40
0.0527972719469885
 40
0.0527972719469885
 40
0.0527972719469885
 40
0.0527972719469885
 10
-14.72900575427172
 20
15.3297025672166
 30
0.0
 10
-14.72039683639016
 20
15.33188185130353
 30
0.0
 10
-14.7031857221496
 20
15.33623873820721
 30
0.0
 10
-14.68856725245221
 20
15.3463134657469
 30
0.0
 10
-14.68126087371178
 20
15.35134887305656
 30
0.0
 11
-14.72900575427172
 21
15.3297025672166
 31
0.0
 11
-14.70382767052774
 21
15.33767100452877
 31
0.0
 11
-14.68126087371178
 21
15.35134887305656
 31
0.0
  0
SPLINE
  5
229
330
2
100
AcDbEntity
  8
GAIKEI
  6
Continuous
100
AcDbSpline
210
0.0
220
0.0
230
1.0
 70
     8
 71
     3
 72
     9
 73
     5
 74
     3
 42
0.0000000001
 43
0.0000000001
 44
0.00000001
 40
0.0
 40
0.0
 40
0.0
 40
0.0
 40
0.0085154836865546
 40
0.0170351284928592
 40
0.0170351284928592
 40
0.0170351284928592
 40
0.0170351284928592
 10
-29.3442723909717
 20
16.22239347679658
 30
0.0
 10
-29.34400757035318
 20
16.21955540072082
 30
0.0
 10
-29.34347778013115
 20
16.21387786519
 30
0.0
 10
-29.34158301925873
 20
16.2084996566025
 30
0.0
 10
-29.34063539779174
 20
16.20580989797662
 30
0.0
 11
-29.3442723909717
 21
16.22239347679658
 31
0.0
 11
-29.34313684333501
 21
16.21395404506501
 31
0.0
 11
-29.34063539779174
 21
16.20580989797662
 31
0.0
  0
SPLINE
  5
22A
330
2
100
AcDbEntity
  8
GAIKEI
  6
Continuous
100
AcDbSpline
210
0.0
220
0.0
230
1.0
 70
    24
 71
     3
 72
     9
 73
     5
 74
     3
 42
0.0000000001
 43
0.0000000001
 44
0.00000001
 40
0.0
 40
0.0
 40
0.0
 40
0.0
 40
0.0041661400269662
 40
0.0083322800538782
 40
0.0083322800538782
 40
0.0083322800538782
 40
0.0083322800538782
 10
-29.34063539791168
 20
-1.317754395963447
 30
0.0
 10
-29.34104543163835
 20
-1.316427596396806
 30
0.0
 10
-29.34186549909167
 20
-1.31377399726341
 30
0.0
 10
-29.34268556654501
 20
-1.311120398130071
 30
0.0
 10
-29.34309560027168
 20
-1.30979359856343
 30
0.0
 11
-29.34063539791168
 21
-1.317754395963447
 31
0.0
 11
-29.34186549909168
 21
-1.31377399726341
 31
0.0
 11
-29.34309560027168
 21
-1.30979359856343
 31
0.0
  0
SPLINE
  5
22B
330
2
100
AcDbEntity
  8
GAIKEI
  6
Continuous
100
AcDbSpline
210
0.0
220
0.0
230
1.0
 70
    24
 71
     3
 72
     9
 73
     5
 74
     3
 42
0.0000000001
 43
0.0000000001
 44
0.00000001
 40
0.0
 40
0.0
 40
0.0
 40
0.0
 40
0.0043513558105143
 40
0.0087027116211297
 40
0.0087027116211297
 40
0.0087027116211297
 40
0.0087027116211297
 10
-29.34309560027168
 20
-1.30979359856343
 30
0.0
 10
-29.34329173205505
 20
-1.308356468386818
 30
0.0
 10
-29.34368399562176
 20
-1.305482208033481
 30
0.0
 10
-29.34407625918839
 20
-1.302607947680087
 30
0.0
 10
-29.3442723909717
 20
-1.301170817503418
 30
0.0
 11
-29.34309560027168
 21
-1.30979359856343
 31
0.0
 11
-29.34368399562174
 21
-1.305482208033424
 31
0.0
 11
-29.3442723909717
 21
-1.301170817503418
 31
0.0
  0
SPLINE
  5
22C
330
2
100
AcDbEntity
  8
GAIKEI
  6
Continuous
100
AcDbSpline
210
0.0
220
0.0
230
1.0
 70
     8
 71
     3
 72
     9
 73
     5
 74
     3
 42
0.0000000001
 43
0.0000000001
 44
0.00000001
 40
0.0
 40
0.0
 40
0.0
 40
0.0
 40
0.0085164379863581
 40
0.017035367847611
 40
0.017035367847611
 40
0.017035367847611
 40
0.017035367847611
 10
-14.06106197787176
 20
16.20580958475659
 30
0.0
 10
-14.06011493803563
 20
16.20849838368753
 30
0.0
 10
-14.05822060049272
 20
16.21387677333473
 30
0.0
 10
-14.05769012662996
 20
16.21955429766029
 30
0.0
 10
-14.05742486069175
 20
16.22239347679658
 30
0.0
 11
-14.06106197787176
 21
16.20580958475659
 31
0.0
 11
-14.05856173399877
 21
16.21395074625309
 31
0.0
 11
-14.05742486069175
 21
16.22239347679658
 31
0.0
  0
SPLINE
  5
22D
330
2
100
AcDbEntity
  8
GAIKEI
  6
Continuous
100
AcDbSpline
210
0.0
220
0.0
230
1.0
 70
     8
 71
     3
 72
     9
 73
     5
 74
     3
 42
0.0000000001
 43
0.0000000001
 44
0.00000001
 40
0.0
 40
0.0
 40
0.0
 40
0.0
 40
0.0085156670539908
 40
0.0170354897530447
 40
0.0170354897530447
 40
0.0170354897530447
 40
0.0170354897530447
 10
-14.05742486069175
 20
-1.301170817503418
 30
0.0
 10
-14.05768961359315
 20
-1.304008967251263
 30
0.0
 10
-14.05821926817485
 20
-1.309686648307774
 30
0.0
 10
-14.06011424750078
 20
-1.315064920183772
 30
0.0
 10
-14.06106197791172
 20
-1.317754709583425
 30
0.0
 11
-14.05742486069175
 21
-1.301170817503418
 31
0.0
 11
-14.05856029388019
 21
-1.309610449653177
 31
0.0
 11
-14.06106197791172
 21
-1.317754709583425
 31
0.0
  0
SPLINE
  5
22E
330
2
100
AcDbEntity
  8
GAIKEI
  6
Continuous
100
AcDbSpline
210
0.0
220
0.0
230
1.0
 70
     8
 71
     3
 72
    11
 73
     7
 74
     5
 42
0.0000000001
 43
0.0000000001
 44
0.00000001
 40
0.0
 40
0.0
 40
0.0
 40
0.0
 40
0.0361108344612155
 40
0.0722060415280217
 40
0.0876211462196501
 40
0.1028758676467633
 40
0.1028758676467633
 40
0.1028758676467633
 40
0.1028758676467633
 10
-29.25195359621176
 20
16.49338533273658
 30
0.0
 10
-29.26405491362754
 20
16.49381888009043
 30
0.0
 10
-29.28825231021321
 20
16.49468577274149
 30
0.0
 10
-29.31661381694305
 20
16.48466388608904
 30
0.0
 10
-29.33478690378826
 20
16.47137494774466
 30
0.0
 10
-29.34077639271296
 20
16.46301292719994
 30
0.0
 10
-29.34375547115172
 20
16.45885377645658
 30
0.0
 11
-29.25195359621176
 21
16.49338533273658
 31
0.0
 11
-29.28805107984783
 21
16.49240357286965
 31
0.0
 11
-29.32200530707172
 21
16.48015715647654
 31
0.0
 11
-29.33423471275489
 21
16.4707727437783
 31
0.0
 11
-29.34375547115172
 21
16.45885377645658
 31
0.0
  0
SPLINE
  5
22F
330
2
100
AcDbEntity
  8
GAIKEI
  6
Continuous
100
AcDbSpline
210
0.0
220
0.0
230
1.0
 70
    24
 71
     3
 72
     9
 73
     5
 74
     3
 42
0.0000000001
 43
0.0000000001
 44
0.00000001
 40
0.0
 40
0.0
 40
0.0
 40
0.0
 40
0.0081023561685686
 40
0.0162047123371953
 40
0.0162047123371953
 40
0.0162047123371953
 40
0.0162047123371953
 10
-29.34375547115172
 20
16.45885377645658
 30
0.0
 10
-29.34474196855174
 20
16.45633960370992
 30
0.0
 10
-29.34671496335176
 20
16.45131125821655
 30
0.0
 10
-29.34868795815178
 20
16.44628291272329
 30
0.0
 10
-29.34967445555179
 20
16.44376873997657
 30
0.0
 11
-29.34375547115172
 21
16.45885377645658
 31
0.0
 11
-29.34671496335176
 21
16.4513112582166
 31
0.0
 11
-29.34967445555179
 21
16.44376873997657
 31
0.0
  0
SPLINE
  5
230
330
2
100
AcDbEntity
  8
GAIKEI
  6
Continuous
100
AcDbSpline
210
0.0
220
0.0
230
1.0
 70
    24
 71
     3
 72
     9
 73
     5
 74
     3
 42
0.0000000001
 43
0.0000000001
 44
0.00000001
 40
0.0
 40
0.0
 40
0.0
 40
0.0
 40
0.0037275188347355
 40
0.0074550376693881
 40
0.0074550376693881
 40
0.0074550376693881
 40
0.0074550376693881
 10
-14.14974365545169
 20
16.49338533273658
 30
0.0
 10
-14.15097895255839
 20
16.49325168053985
 30
0.0
 10
-14.15344954677171
 20
16.49298437614641
 30
0.0
 10
-14.1559201409851
 20
16.4927170717533
 30
0.0
 10
-14.15715543809176
 20
16.49258341955658
 30
0.0
 11
-14.14974365545169
 21
16.49338533273658
 31
0.0
 11
-14.15344954677175
 21
16.49298437614658
 31
0.0
 11
-14.15715543809176
 21
16.49258341955658
 31
0.0
  0
SPLINE
  5
231
330
2
100
AcDbEntity
  8
GAIKEI
  6
Continuous
100
AcDbSpline
210
0.0
220
0.0
230
1.0
 70
    24
 71
     3
 72
     9
 73
     5
 74
     3
 42
0.0000000001
 43
0.0000000001
 44
0.00000001
 40
0.0
 40
0.0
 40
0.0
 40
0.0
 40
0.0170175501121625
 40
0.0340351002242845
 40
0.0340351002242845
 40
0.0340351002242845
 40
0.0340351002242845
 10
-14.15715543809176
 20
16.49258341955658
 30
0.0
 10
-14.16279522445843
 20
16.49197493332326
 30
0.0
 10
-14.17407479719171
 20
16.49075796085651
 30
0.0
 10
-14.18535436992507
 20
16.48954098838982
 30
0.0
 10
-14.19099415629171
 20
16.48893250215656
 30
0.0
 11
-14.15715543809176
 21
16.49258341955658
 31
0.0
 11
-14.17407479719173
 21
16.49075796085657
 31
0.0
 11
-14.19099415629171
 21
16.48893250215656
 31
0.0
  0
SPLINE
  5
232
330
2
100
AcDbEntity
  8
GAIKEI
  6
Continuous
100
AcDbSpline
210
0.0
220
0.0
230
1.0
 70
     8
 71
     3
 72
    19
 73
    15
 74
    13
 42
0.0000000001
 43
0.0000000001
 44
0.00000001
 40
0.0
 40
0.0
 40
0.0
 40
0.0
 40
1.867870587392839
 40
3.735743909384707
 40
4.68247416609332
 40
5.629204262510622
 40
6.576623542233548
 40
7.524042899273108
 40
8.471463060848963
 40
9.418883145157122
 40
10.36561568981047
 40
11.31234839480407
 40
13.18023341851012
 40
15.04811570798005
 40
15.04811570798005
 40
15.04811570798005
 40
15.04811570798005
 10
-14.19099415629171
 20
16.48893250215656
 30
0.0
 10
-14.81057494696134
 20
16.42709105521038
 30
0.0
 10
-16.04973743676109
 20
16.30340808547237
 30
0.0
 10
-17.60753277245967
 20
16.20140455103615
 30
0.0
 10
-18.85991943159994
 20
16.14213543906316
 30
0.0
 10
-19.80638307838859
 20
16.11042117078648
 30
0.0
 10
-20.75340676236618
 20
16.09132875144252
 30
0.0
 10
-21.70083394163924
 20
16.08497718954078
 30
0.0
 10
-22.64826139183007
 20
16.09132835722755
 30
0.0
 10
-23.59528643580723
 20
16.11042041864209
 30
0.0
 10
-24.54175199438112
 20
16.1421343866931
 30
0.0
 10
-25.79414420071543
 20
16.20140332315697
 30
0.0
 10
-27.35194816763195
 20
16.30340701367447
 30
0.0
 10
-28.59111842742518
 20
16.42709069848695
 30
0.0
 10
-29.21070310315173
 20
16.48893250297658
 30
0.0
 11
-14.19099415629171
 21
16.48893250215656
 31
0.0
 11
-16.05065367575912
 21
16.3139839285044
 31
0.0
 11
-17.91432798689175
 21
16.18880881097658
 31
0.0
 11
-18.86001188659236
 21
16.14431003503637
 31
0.0
 11
-19.80620850023177
 21
16.11253199153651
 31
0.0
 11
-20.7534356554317
 21
16.09345299015444
 31
0.0
 11
-21.70083367391175
 21
16.08709430119654
 31
0.0
 11
-22.64823249956788
 21
16.09345259953136
 31
0.0
 11
-23.59546046695169
 21
16.11253123175663
 31
0.0
 11
-24.54165953965628
 21
16.14430899391607
 31
0.0
 11
-25.48734590051168
 21
16.1888075539166
 31
0.0
 11
-27.35103191838096
 21
16.31398298920158
 31
0.0
 11
-29.21070310315173
 21
16.48893250297658
 31
0.0
  0
SPLINE
  5
233
330
2
100
AcDbEntity
  8
GAIKEI
  6
Continuous
100
AcDbSpline
210
0.0
220
0.0
230
1.0
 70
    24
 71
     3
 72
     9
 73
     5
 74
     3
 42
0.0000000001
 43
0.0000000001
 44
0.00000001
 40
0.0
 40
0.0
 40
0.0
 40
0.0
 40
0.0170175500425727
 40
0.0340351000851435
 40
0.0340351000851435
 40
0.0340351000851435
 40
0.0340351000851435
 10
-29.21070310315173
 20
16.48893250297658
 30
0.0
 10
-29.21634288949507
 20
16.4895409892099
 30
0.0
 10
-29.22762246218174
 20
16.49075796167653
 30
0.0
 10
-29.2389020348684
 20
16.49197493414317
 30
0.0
 10
-29.24454182121173
 20
16.4925834203766
 30
0.0
 11
-29.21070310315173
 21
16.48893250297658
 31
0.0
 11
-29.22762246218173
 21
16.49075796167659
 31
0.0
 11
-29.24454182121173
 21
16.4925834203766
 31
0.0
  0
SPLINE
  5
234
330
2
100
AcDbEntity
  8
GAIKEI
  6
Continuous
100
AcDbSpline
210
0.0
220
0.0
230
1.0
 70
    24
 71
     3
 72
     9
 73
     5
 74
     3
 42
0.0000000001
 43
0.0000000001
 44
0.00000001
 40
0.0
 40
0.0
 40
0.0
 40
0.0
 40
0.0037275149927287
 40
0.0074550299854697
 40
0.0074550299854697
 40
0.0074550299854697
 40
0.0074550299854697
 10
-29.24454182121173
 20
16.4925834203766
 30
0.0
 10
-29.24577711704507
 20
16.49271707243656
 30
0.0
 10
-29.24824770871174
 20
16.49298437655648
 30
0.0
 10
-29.25071830037842
 20
16.49325168067656
 30
0.0
 10
-29.25195359621176
 20
16.49338533273658
 30
0.0
 11
-29.24454182121173
 21
16.4925834203766
 31
0.0
 11
-29.24824770871174
 21
16.49298437655659
 31
0.0
 11
-29.25195359621176
 21
16.49338533273658
 31
0.0
  0
SPLINE
  5
235
330
2
100
AcDbEntity
  8
GAIKEI
  6
Continuous
100
AcDbSpline
210
0.0
220
0.0
230
1.0
 70
    24
 71
     3
 72
     9
 73
     5
 74
     3
 42
0.0000000001
 43
0.0000000001
 44
0.00000001
 40
0.0
 40
0.0
 40
0.0
 40
0.0
 40
0.0084157044105837
 40
0.0168314088210988
 40
0.0168314088210988
 40
0.0168314088210988
 40
0.0168314088210988
 10
-14.05202279313175
 20
16.44376872653657
 30
0.0
 10
-14.0530634028451
 20
16.44637381266329
 30
0.0
 10
-14.05514462227176
 20
16.45158398491662
 30
0.0
 10
-14.0572258416984
 20
16.45679415716995
 30
0.0
 10
-14.05826645141172
 20
16.45939924329661
 30
0.0
 11
-14.05202279313175
 21
16.44376872653657
 31
0.0
 11
-14.05514462227177
 21
16.45158398491662
 31
0.0
 11
-14.05826645141172
 21
16.45939924329661
 31
0.0
  0
SPLINE
  5
236
330
2
100
AcDbEntity
  8
GAIKEI
  6
Continuous
100
AcDbSpline
210
0.0
220
0.0
230
1.0
 70
     8
 71
     3
 72
     9
 73
     5
 74
     3
 42
0.0000000001
 43
0.0000000001
 44
0.00000001
 40
0.0
 40
0.0
 40
0.0
 40
0.0
 40
0.0502583600068451
 40
0.1012351236844085
 40
0.1012351236844085
 40
0.1012351236844085
 40
0.1012351236844085
 10
-14.05826645141172
 20
16.45939924329661
 30
0.0
 10
-14.07105821906732
 20
16.47130085998862
 30
0.0
 10
-14.09682461156585
 20
16.49527420110849
 30
0.0
 10
-14.13202071769772
 20
16.49401793332214
 30
0.0
 10
-14.14974365545169
 20
16.49338533273658
 30
0.0
 11
-14.05826645141172
 21
16.45939924329661
 31
0.0
 11
-14.09896584843227
 21
16.48888588603824
 31
0.0
 11
-14.14974365545169
 21
16.49338533273658
 31
0.0
  0
LWPOLYLINE
  5
237
330
2
100
AcDbEntity
  8
GAIKEI
  6
Continuous
100
AcDbPolyline
 90
        4
 70
     0
 43
0.0
 10
-14.69540501569173
 20
-2.128605038643399
 10
-14.43820303145173
 20
-1.896794592843434
 10
-14.20675082325169
 20
-1.605179460403405
 10
-14.06505992489178
 20
-1.337162185303441
  0
LWPOLYLINE
  5
238
330
2
100
AcDbEntity
  8
GAIKEI
  6
Continuous
100
AcDbPolyline
 90
        4
 70
     0
 43
0.0
 10
-19.25205582571169
 20
25.63320036367656
 10
-20.8652779480517
 20
25.63123899651657
 10
-22.54217419881172
 20
25.6312425663566
 10
-24.14964142593175
 20
25.63320036359659
  0
LWPOLYLINE
  5
239
330
2
100
AcDbEntity
  8
GAIKEI
  6
Continuous
100
AcDbPolyline
 90
        4
 70
     0
 43
0.0
 10
-14.05197252603176
 20
16.44377965875657
 10
-14.35340956075174
 20
17.6562338780966
 10
-14.74752020629177
 20
18.9037492207766
 10
-15.20490412029175
 20
20.09334758233661
  0
LWPOLYLINE
  5
23A
330
2
100
AcDbEntity
  8
GAIKEI
  6
Continuous
100
AcDbPolyline
 90
        5
 70
     0
 43
0.0
 10
-15.20490500879168
 20
20.09334864251662
 10
-15.91180008551174
 20
21.53626472391659
 10
-16.83108351937176
 20
22.97013820131656
 10
-17.93830470321177
 20
24.3429160874166
 10
-19.18398619749172
 20
25.6066246946566
  0
LWPOLYLINE
  5
23B
330
2
100
AcDbEntity
  8
GAIKEI
  6
Continuous
100
AcDbPolyline
 90
        3
 70
     0
 43
0.0
 10
-14.05748516257176
 20
-1.30362536108339
 10
-14.05871629657167
 20
-1.31509334558342
 10
-14.06126465269176
 20
-1.326360351903417
  0
LWPOLYLINE
  5
23C
330
2
100
AcDbEntity
  8
GAIKEI
  6
Continuous
 62
     1
100
AcDbPolyline
 90
        4
 70
     0
 43
0.0
 10
-21.64527689447169
 20
15.27173342427659
 10
-21.56564532523174
 20
15.2365778356966
 10
-21.51257278887169
 20
15.17903124867661
 10
-21.49060843251175
 20
15.10865252357655
  0
LWPOLYLINE
  5
23D
330
2
100
AcDbEntity
  8
GAIKEI
  6
Continuous
 62
     1
100
AcDbPolyline
 90
        6
 70
     0
 43
0.0
 10
-21.74088450751174
 20
14.9162941103566
 10
-21.84490679951171
 20
14.9368846518966
 10
-21.93641134933171
 20
14.97981143499657
 10
-22.00494801025172
 20
15.04054238283657
 10
-22.04323478127173
 20
15.11140907637662
 10
-22.05084801041175
 20
15.1617990196766
  0
LWPOLYLINE
  5
23E
330
2
100
AcDbEntity
  8
GAIKEI
  6
Continuous
 62
     1
100
AcDbPolyline
 90
        5
 70
     0
 43
0.0
 10
-28.21081152165175
 20
14.94085576221658
 10
-25.67137104659167
 20
14.56522736927661
 10
-23.02767740461167
 20
14.37086816561657
 10
-20.36854382983177
 20
14.37106911413662
 10
-17.72491164587171
 20
14.5658279278166
  0
LWPOLYLINE
  5
23F
330
2
100
AcDbEntity
  8
GAIKEI
  6
Continuous
 62
     1
100
AcDbPolyline
 90
        3
 70
     0
 43
0.0
 10
-15.15781225517173
 20
14.94546533709661
 10
-15.13116935191175
 20
14.94615549515657
 10
-15.11103819619177
 20
14.94356876891657
  0
LWPOLYLINE
  5
240
330
2
100
AcDbEntity
  8
GAIKEI
  6
Continuous
 62
     1
100
AcDbPolyline
 90
        3
 70
     0
 43
0.0
 10
-21.9110888191517
 20
15.10865252357655
 10
-21.88738460241177
 20
15.18196146267655
 10
-21.82579941891174
 20
15.24341786557659
  0
LWPOLYLINE
  5
241
330
2
100
AcDbEntity
  8
GAIKEI
  6
Continuous
 62
     1
100
AcDbPolyline
 90
        6
 70
     0
 43
0.0
 10
-21.35084883799175
 20
15.16197060345655
 10
-21.3580788804718
 20
15.11269972719663
 10
-21.39552578499172
 20
15.04207427445658
 10
-21.46297778281172
 20
14.98132241885656
 10
-21.55331536343175
 20
14.93802558587657
 10
-21.65624773613172
 20
14.91669434135661
  0
LWPOLYLINE
  5
242
330
2
100
AcDbEntity
  8
GAIKEI
  6
Continuous
100
AcDbPolyline
 90
        3
 70
     0
 43
0.0
 10
-28.19679312717176
 20
20.09334759235662
 10
-28.65549073877173
 20
18.90000178205662
 10
-29.04935254197176
 20
17.65244972551659
  0
LWPOLYLINE
  5
243
330
2
100
AcDbEntity
  8
GAIKEI
  6
Continuous
100
AcDbPolyline
 90
        3
 70
     0
 43
0.0
 10
-29.34421208909174
 20
-1.30362536108339
 10
-29.3429809549117
 20
-1.315093346663388
 10
-29.34043259837176
 20
-1.326360354003384
  0
LWPOLYLINE
  5
244
330
2
100
AcDbEntity
  8
GAIKEI
  6
Continuous
100
AcDbPolyline
 90
        4
 70
     0
 43
0.0
 10
-24.21771106737174
 20
25.60662468217663
 10
-25.46635242561172
 20
24.33960885263662
 10
-26.57312245277172
 20
22.96666289463656
 10
-27.49193024365167
 20
21.5326536743766
  0
LWPOLYLINE
  5
245
330
2
100
AcDbEntity
  8
GAIKEI
  6
Continuous
100
AcDbPolyline
 90
        3
 70
     0
 43
0.0
 10
-29.33663997105168
 20
-1.337160509983391
 10
-29.19277474963172
 20
-1.608527573183437
 10
-28.96058179195171
 20
-1.899842146123432
  0
LWPOLYLINE
  5
246
330
2
100
AcDbEntity
  8
GAIKEI
  6
Continuous
 62
     1
100
AcDbPolyline
 90
       14
 70
     0
 43
0.0
 10
-27.85084862583176
 20
-1.824644857023429
 10
-26.93225208211174
 20
-1.977304771623437
 10
-25.99167760549176
 20
-2.107014917823391
 10
-25.04475288975175
 20
-2.211012854183422
 10
-24.09288245757171
 20
-2.289145146063447
 10
-23.13747705501175
 20
-2.34129684776343
 10
-22.17994647731178
 20
-2.36739159230342
 10
-21.22170931545173
 20
-2.367391027583437
 10
-20.26418142973171
 20
-2.341295262043445
 10
-19.30878119819175
 20
-2.289142851163433
 10
-18.35691912717175
 20
-2.211010433703393
 10
-17.41000535177176
 20
-2.107013147903444
 10
-16.46944062609174
 20
-1.977304080563442
 10
-15.55084862583175
 20
-1.824644857023429
  0
LWPOLYLINE
  5
247
330
2
100
AcDbEntity
  8
GAIKEI
  6
Continuous
100
AcDbPolyline
 90
        7
 70
     0
 43
0.0
 10
-28.66439459053174
 20
-2.147807466463405
 10
-26.41671195403171
 20
-2.520242938283445
 10
-24.06823256039172
 20
-2.752127349443412
 10
-21.69816230989176
 20
-2.829561132043409
 10
-19.32810377597173
 20
-2.751775418143438
 10
-16.97965977581168
 20
-2.519537755003398
 10
-14.73730272659168
 20
-2.147807309183406
  0
TEXT
  5
248
330
2
100
AcDbEntity
  8
TOUROKU
100
AcDbText
 10
26.01083343721933
 20
47.51478384071731
 30
0.0
 40
2.0
  1
ＷＳＭ１０＋ＷＳＱ１４６　ＳＰタテ
 72
     2
 11
66.14416677055264
 21
47.51478384071731
 31
0.0
100
AcDbText
  0
TEXT
  5
24A
330
2
100
AcDbEntity
  8
MOJI1
100
AcDbText
 10
-31.85578326237476
 20
53.51478384071731
 30
0.0
 40
4.0
  1
１２ｃｍ　コーン形スピーカー（天井取付金具付）
 41
0.9
100
AcDbText
  0
TEXT
  5
24C
330
2
100
AcDbEntity
  8
MOJI1
100
AcDbText
 10
-56.35578326237453
 20
-54.4852161592828
 30
0.0
 40
3.0
  1
備　考
100
AcDbText
  0
TEXT
  5
24D
330
2
100
AcDbEntity
  8
MOJI1
100
AcDbText
 10
-16.35578326237453
 20
-54.4852161592828
 30
0.0
 40
3.0
  1
取付金具付
100
AcDbText
  0
LINE
  5
24E
330
2
100
AcDbEntity
  8
WAKU
 62
     4
100
AcDbLine
 10
66.14421673762547
 20
-55.48521615928279
 30
0.0
 11
66.14421673762547
 21
-20.4852161592828
 31
0.0
  0
TEXT
  5
250
330
2
100
AcDbEntity
  8
MOJI1
100
AcDbText
 10
-16.35578326237453
 20
-34.4852161592828
 30
0.0
 40
3.0
  1
８Ω
100
AcDbText
  0
TEXT
  5
251
330
2
100
AcDbEntity
  8
MOJI1
100
AcDbText
 10
-16.35578326237453
 20
-39.4852161592828
 30
0.0
 40
3.0
  1
５０Ｈｚ～１６ｋＨｚ
100
AcDbText
  0
TEXT
  5
252
330
2
100
AcDbEntity
  8
MOJI1
100
AcDbText
 10
-16.35578326237453
 20
-44.4852161592828
 30
0.0
 40
3.0
  1
９１ｄＢ（１Ｗ／１ｍ）
100
AcDbText
  0
TEXT
  5
253
330
2
100
AcDbEntity
  8
MOJI1
100
AcDbText
 10
-16.35578326237453
 20
-24.4852161592828
 30
0.0
 40
3.0
  1
フルレンジバスレフ形
100
AcDbText
  0
TEXT
  5
254
330
2
100
AcDbEntity
  8
MOJI1
100
AcDbText
 10
-16.35578326237453
 20
-49.4852161592828
 30
0.0
 40
3.0
  1
１２ｃｍ　コーン形
100
AcDbText
  0
LINE
  5
255
330
2
100
AcDbEntity
  8
WAKU
 62
     4
100
AcDbLine
 10
-18.85578326237453
 20
-55.48521615928279
 30
0.0
 11
-18.85578326237453
 21
-20.4852161592828
 31
0.0
  0
TEXT
  5
256
330
2
100
AcDbEntity
  8
MOJI1
100
AcDbText
 10
-56.35578326237453
 20
-39.4852161592828
 30
0.0
 40
3.0
  1
周波数特性
100
AcDbText
  0
TEXT
  5
257
330
2
100
AcDbEntity
  8
MOJI1
100
AcDbText
 10
-56.35578326237453
 20
-44.4852161592828
 30
0.0
 40
3.0
  1
出力音圧レベル
100
AcDbText
  0
TEXT
  5
258
330
2
100
AcDbEntity
  8
MOJI1
100
AcDbText
 10
-56.35578326237453
 20
-29.4852161592828
 30
0.0
 40
3.0
  1
許容入力
100
AcDbText
  0
TEXT
  5
259
330
2
100
AcDbEntity
  8
MOJI1
100
AcDbText
 10
-56.35578326237453
 20
-24.4852161592828
 30
0.0
 40
3.0
  1
形　式
100
AcDbText
  0
TEXT
  5
25A
330
2
100
AcDbEntity
  8
MOJI1
100
AcDbText
 10
-56.35578326237453
 20
-49.4852161592828
 30
0.0
 40
3.0
  1
使用スピーカー
100
AcDbText
  0
LINE
  5
25B
330
2
100
AcDbEntity
  8
WAKU
 62
     4
100
AcDbLine
 10
-58.85578326237453
 20
-20.4852161592828
 30
0.0
 11
-58.85578326237453
 21
-55.48521615928279
 31
0.0
  0
TEXT
  5
25C
330
2
100
AcDbEntity
  8
MOJI1
100
AcDbText
 10
-56.35578326237453
 20
-34.4852161592828
 30
0.0
 40
3.0
  1
入力インピーダンス
100
AcDbText
  0
TEXT
  5
25D
330
2
100
AcDbEntity
  8
MOJI1
100
AcDbText
 10
-16.35578326237453
 20
-29.4852161592828
 30
0.0
 40
3.0
  1
１２０Ｗ／６０Ｗ（連続プログラム／ＲＭＳ）
100
AcDbText
  0
LINE
  5
25E
330
2
100
AcDbEntity
  8
WAKU
 62
     4
100
AcDbLine
 10
-58.85578326237453
 20
-55.48521615928279
 30
0.0
 11
66.14421673762547
 21
-55.48521615928279
 31
0.0
  0
LINE
  5
25F
330
2
100
AcDbEntity
  8
WAKU
 62
     4
100
AcDbLine
 10
66.14421673762547
 20
-20.4852161592828
 30
0.0
 11
-58.85578326237453
 21
-20.4852161592828
 31
0.0
  0
LINE
  5
260
330
2
100
AcDbEntity
  8
WAKU
 62
     1
100
AcDbLine
 10
-58.85578326237453
 20
-50.48521615928279
 30
0.0
 11
66.14421673762547
 21
-50.48521615928279
 31
0.0
  0
LINE
  5
261
330
2
100
AcDbEntity
  8
WAKU
 62
     1
100
AcDbLine
 10
-58.85578326237453
 20
-45.48521615928279
 30
0.0
 11
66.14421673762547
 21
-45.48521615928279
 31
0.0
  0
LINE
  5
262
330
2
100
AcDbEntity
  8
WAKU
 62
     1
100
AcDbLine
 10
-58.85578326237453
 20
-40.48521615928279
 30
0.0
 11
66.14421673762547
 21
-40.48521615928279
 31
0.0
  0
LINE
  5
263
330
2
100
AcDbEntity
  8
WAKU
 62
     1
100
AcDbLine
 10
-58.85578326237453
 20
-35.4852161592828
 30
0.0
 11
66.14421673762547
 21
-35.4852161592828
 31
0.0
  0
LINE
  5
264
330
2
100
AcDbEntity
  8
WAKU
 62
     1
100
AcDbLine
 10
-58.85578326237453
 20
-30.4852161592828
 30
0.0
 11
66.14421673762547
 21
-30.4852161592828
 31
0.0
  0
LINE
  5
265
330
2
100
AcDbEntity
  8
WAKU
 62
     1
100
AcDbLine
 10
-58.85578326237453
 20
-25.4852161592828
 30
0.0
 11
66.14421673762547
 21
-25.4852161592828
 31
0.0
  0
ENDSEC
  0
SECTION
  2
OBJECTS
  0
DICTIONARY
  5
7
330
0
100
AcDbDictionary
281
     1
  3
ACAD_COLOR
350
2A
  3
ACAD_GROUP
350
26
  3
ACAD_LAYOUT
350
B
  3
ACAD_MATERIAL
350
29
  3
ACAD_MLINESTYLE
350
27
  3
ACAD_PLOTSETTINGS
350
28
  3
ACAD_PLOTSTYLENAME
350
6
  3
ACDBHEADERROUNDTRIPXREC
350
296
  3
AcDbVariableDictionary
350
291
  0
DICTIONARY
  5
2A
102
{ACAD_REACTORS
330
7
102
}
330
7
100
AcDbDictionary
281
     1
  0
DICTIONARY
  5
26
102
{ACAD_REACTORS
330
7
102
}
330
7
100
AcDbDictionary
281
     1
  0
DICTIONARY
  5
B
102
{ACAD_REACTORS
330
7
102
}
330
7
100
AcDbDictionary
281
     1
  3
Model
350
A
  3
レイアウト1
350
F
  0
DICTIONARY
  5
29
102
{ACAD_REACTORS
330
7
102
}
330
7
100
AcDbDictionary
281
     1
  0
DICTIONARY
  5
27
102
{ACAD_REACTORS
330
7
102
}
330
7
100
AcDbDictionary
281
     1
  3
Standard
350
2C
  0
DICTIONARY
  5
28
102
{ACAD_REACTORS
330
7
102
}
330
7
100
AcDbDictionary
281
     1
  0
ACDBDICTIONARYWDFLT
  5
6
102
{ACAD_REACTORS
330
7
102
}
330
7
100
AcDbDictionary
281
     1
  3
Normal
350
5
100
AcDbDictionaryWithDefault
340
5
  0
DICTIONARY
  5
296
102
{ACAD_REACTORS
330
7
102
}
330
7
100
AcDbDictionary
281
     1
  3
COLORDICT
350
298
  3
MATERIALDICT
350
297
  0
DICTIONARY
  5
291
102
{ACAD_REACTORS
330
7
102
}
330
7
100
AcDbDictionary
281
     1
  3
DIMASSOC
350
293
  3
HIDETEXT
350
292
  3
PROJECTNAME
350
294
  0
LAYOUT
  5
A
102
{ACAD_XDICTIONARY
360
299
102
}
102
{ACAD_REACTORS
330
B
102
}
330
B
100
AcDbPlotSettings
  1

  2
none_device
  4
ANSI_A_(8.50_x_11.00_Inches)
  6

 40
6.349999904632568
 41
19.04999923706055
 42
6.350006103515625
 43
19.04998779296875
 44
215.8999938964844
 45
279.3999938964844
 46
0.0
 47
0.0
 48
0.0
 49
0.0
140
0.0
141
0.0
142
1.0
143
78.436453180766
 70
 11952
 72
     0
 73
     1
 74
     0
  7

 75
     0
147
0.0127491741332998
148
0.0
149
0.0
100
AcDbLayout
  1
Model
 70
     1
 71
     0
 10
0.0
 20
0.0
 11
12.0
 21
9.0
 12
0.0
 22
0.0
 32
0.0
 14
0.0
 24
0.0
 34
0.0
 15
0.0
 25
0.0
 35
0.0
146
0.0
 13
0.0
 23
0.0
 33
0.0
 16
1.0
 26
0.0
 36
0.0
 17
0.0
 27
1.0
 37
0.0
 76
     0
330
2
  0
LAYOUT
  5
F
102
{ACAD_XDICTIONARY
360
29B
102
}
102
{ACAD_REACTORS
330
B
102
}
330
B
100
AcDbPlotSettings
  1

  2
None
  4

  6

 40
0.0
 41
0.0
 42
0.0
 43
0.0
 44
0.0
 45
0.0
 46
0.0
 47
0.0
 48
0.0
 49
0.0
140
0.0
141
0.0
142
1.0
143
1.0
 70
   688
 72
     0
 73
     0
 74
     5
  7
tmsacad.ctb
 75
    16
147
1.0
148
0.0
149
0.0
100
AcDbLayout
  1
レイアウト1
 70
     1
 71
     1
 10
0.0
 20
0.0
 11
12.0
 21
9.0
 12
0.0
 22
0.0
 32
0.0
 14
0.0
 24
0.0
 34
0.0
 15
0.0
 25
0.0
 35
0.0
146
0.0
 13
0.0
 23
0.0
 33
0.0
 16
1.0
 26
0.0
 36
0.0
 17
0.0
 27
1.0
 37
0.0
 76
     0
330
C
  0
MLINESTYLE
  5
2C
102
{ACAD_REACTORS
330
27
102
}
330
27
100
AcDbMlineStyle
  2
STANDARD
 70
     0
  3

 62
   256
 51
90.0
 52
90.0
 71
     2
 49
0.5
 62
   256
  6
BYLAYER
 49
-0.5
 62
   256
  6
BYLAYER
  0
ACDBPLACEHOLDER
  5
5
102
{ACAD_REACTORS
330
6
102
}
330
6
  0
XRECORD
  5
298
102
{ACAD_REACTORS
330
296
102
}
330
296
100
AcDbXrecord
280
     1
340
2A
  0
XRECORD
  5
297
102
{ACAD_REACTORS
330
296
102
}
330
296
100
AcDbXrecord
280
     1
340
29
  0
DICTIONARYVAR
  5
293
102
{ACAD_REACTORS
330
291
102
}
330
291
100
DictionaryVariables
280
     0
  1
1
  0
DICTIONARYVAR
  5
292
102
{ACAD_REACTORS
330
291
102
}
330
291
100
DictionaryVariables
280
     0
  1
1
  0
DICTIONARYVAR
  5
294
102
{ACAD_REACTORS
330
291
102
}
330
291
100
DictionaryVariables
280
     0
  1

  0
DICTIONARY
  5
299
330
A
100
AcDbDictionary
280
     1
281
     1
  3
ACAD_XREC_ROUNDTRIP
360
29A
  0
DICTIONARY
  5
29B
330
F
100
AcDbDictionary
280
     1
281
     1
  3
ACAD_XREC_ROUNDTRIP
360
29C
  0
XRECORD
  5
29A
102
{ACAD_REACTORS
330
299
102
}
330
299
100
AcDbXrecord
280
     1
102
SHADEPLOT
 70
     0
102
SHADEPLOTRESLEVEL
 70
     2
102
SHADEPLOTCUSTOMDPI
 70
   300
  0
XRECORD
  5
29C
102
{ACAD_REACTORS
330
29B
102
}
330
29B
100
AcDbXrecord
280
     1
102
SHADEPLOT
 70
     0
102
SHADEPLOTRESLEVEL
 70
     2
102
SHADEPLOTCUSTOMDPI
 70
   300
  0
ENDSEC
  0
EOF
