  0
SECTION
  2
HEADER
  9
$ACADVER
  1
AC1015
  9
$ACADMAINTVER
 70
    20
  9
$DWGCODEPAGE
  3
ANSI_932
  9
$INSBASE
 10
129.499999944041
 20
372.5008351249344
 30
0.0
  9
$EXTMIN
 10
-56.34521393145575
 20
-56.27210935935386
 30
-0.0015258207003583
  9
$EXTMAX
 10
68.68835506109565
 20
56.75248759443923
 30
0.0000000349246037
  9
$LIMMIN
 10
0.0
 20
0.0
  9
$LIMMAX
 10
420.0
 20
297.0
  9
$ORTHOMODE
 70
     1
  9
$REGENMODE
 70
     0
  9
$FILLMODE
 70
     1
  9
$QTEXTMODE
 70
     0
  9
$MIRRTEXT
 70
     0
  9
$LTSCALE
 40
1.0
  9
$ATTMODE
 70
     1
  9
$TEXTSIZE
 40
2.5
  9
$TRACEWID
 40
1.0
  9
$TEXTSTYLE
  7
Standard
  9
$CLAYER
  8
SUNPO
  9
$CELTYPE
  6
ByLayer
  9
$CECOLOR
 62
   256
  9
$CELTSCALE
 40
1.0
  9
$DISPSILH
 70
     0
  9
$DIMSCALE
 40
1.0
  9
$DIMASZ
 40
2.0
  9
$DIMEXO
 40
2.0
  9
$DIMDLI
 40
8.0
  9
$DIMRND
 40
0.0
  9
$DIMDLE
 40
0.0
  9
$DIMEXE
 40
2.0
  9
$DIMTP
 40
0.0
  9
$DIMTM
 40
0.0
  9
$DIMTXT
 40
2.5
  9
$DIMCEN
 40
0.0
  9
$DIMTSZ
 40
0.0
  9
$DIMTOL
 70
     0
  9
$DIMLIM
 70
     0
  9
$DIMTIH
 70
     0
  9
$DIMTOH
 70
     0
  9
$DIMSE1
 70
     0
  9
$DIMSE2
 70
     0
  9
$DIMTAD
 70
     3
  9
$DIMZIN
 70
     0
  9
$DIMBLK
  1

  9
$DIMASO
 70
     1
  9
$DIMSHO
 70
     1
  9
$DIMPOST
  1

  9
$DIMAPOST
  1

  9
$DIMALT
 70
     0
  9
$DIMALTD
 70
     2
  9
$DIMALTF
 40
25.4
  9
$DIMLFAC
 40
1.0
  9
$DIMTOFL
 70
     1
  9
$DIMTVP
 40
0.0
  9
$DIMTIX
 70
     0
  9
$DIMSOXD
 70
     0
  9
$DIMSAH
 70
     1
  9
$DIMBLK1
  1
OPEN30
  9
$DIMBLK2
  1
OPEN30
  9
$DIMSTYLE
  2
STANDARD
  9
$DIMCLRD
 70
     0
  9
$DIMCLRE
 70
     0
  9
$DIMCLRT
 70
     0
  9
$DIMTFAC
 40
1.0
  9
$DIMGAP
 40
0.5
  9
$DIMJUST
 70
     0
  9
$DIMSD1
 70
     0
  9
$DIMSD2
 70
     0
  9
$DIMTOLJ
 70
     1
  9
$DIMTZIN
 70
     0
  9
$DIMALTZ
 70
     0
  9
$DIMALTTZ
 70
     0
  9
$DIMUPT
 70
     0
  9
$DIMDEC
 70
     4
  9
$DIMTDEC
 70
     4
  9
$DIMALTU
 70
     2
  9
$DIMALTTD
 70
     2
  9
$DIMTXSTY
  7
Standard
  9
$DIMAUNIT
 70
     0
  9
$DIMADEC
 70
     0
  9
$DIMALTRND
 40
0.0
  9
$DIMAZIN
 70
     0
  9
$DIMDSEP
 70
    46
  9
$DIMATFIT
 70
     3
  9
$DIMFRAC
 70
     0
  9
$DIMLDRBLK
  1
OPEN30
  9
$DIMLUNIT
 70
     2
  9
$DIMLWD
 70
    -2
  9
$DIMLWE
 70
    -2
  9
$DIMTMOVE
 70
     0
  9
$LUNITS
 70
     2
  9
$LUPREC
 70
     4
  9
$SKETCHINC
 40
1.0
  9
$FILLETRAD
 40
0.0
  9
$AUNITS
 70
     0
  9
$AUPREC
 70
     0
  9
$MENU
  1
.
  9
$ELEVATION
 40
0.0
  9
$PELEVATION
 40
0.0
  9
$THICKNESS
 40
0.0
  9
$LIMCHECK
 70
     0
  9
$CHAMFERA
 40
0.0
  9
$CHAMFERB
 40
0.0
  9
$CHAMFERC
 40
0.0
  9
$CHAMFERD
 40
0.0
  9
$SKPOLY
 70
     0
  9
$TDCREATE
 40
2454349.434269746
  9
$TDUCREATE
 40
2454349.059269746
  9
$TDUPDATE
 40
2455456.592568172
  9
$TDUUPDATE
 40
2455456.217568171
  9
$TDINDWG
 40
0.2069408333
  9
$TDUSRTIMER
 40
0.2069408333
  9
$USRTIMER
 70
     1
  9
$ANGBASE
 50
0.0
  9
$ANGDIR
 70
     0
  9
$PDMODE
 70
     0
  9
$PDSIZE
 40
0.0
  9
$PLINEWID
 40
0.0
  9
$SPLFRAME
 70
     0
  9
$SPLINETYPE
 70
     6
  9
$SPLINESEGS
 70
     8
  9
$HANDSEED
  5
1CD
  9
$SURFTAB1
 70
     6
  9
$SURFTAB2
 70
     6
  9
$SURFTYPE
 70
     6
  9
$SURFU
 70
     6
  9
$SURFV
 70
     6
  9
$UCSBASE
  2

  9
$UCSNAME
  2

  9
$UCSORG
 10
0.0
 20
0.0
 30
0.0
  9
$UCSXDIR
 10
1.0
 20
0.0
 30
0.0
  9
$UCSYDIR
 10
0.0
 20
1.0
 30
0.0
  9
$UCSORTHOREF
  2

  9
$UCSORTHOVIEW
 70
     0
  9
$UCSORGTOP
 10
0.0
 20
0.0
 30
0.0
  9
$UCSORGBOTTOM
 10
0.0
 20
0.0
 30
0.0
  9
$UCSORGLEFT
 10
0.0
 20
0.0
 30
0.0
  9
$UCSORGRIGHT
 10
0.0
 20
0.0
 30
0.0
  9
$UCSORGFRONT
 10
0.0
 20
0.0
 30
0.0
  9
$UCSORGBACK
 10
0.0
 20
0.0
 30
0.0
  9
$PUCSBASE
  2

  9
$PUCSNAME
  2

  9
$PUCSORG
 10
0.0
 20
0.0
 30
0.0
  9
$PUCSXDIR
 10
1.0
 20
0.0
 30
0.0
  9
$PUCSYDIR
 10
0.0
 20
1.0
 30
0.0
  9
$PUCSORTHOREF
  2

  9
$PUCSORTHOVIEW
 70
     0
  9
$PUCSORGTOP
 10
0.0
 20
0.0
 30
0.0
  9
$PUCSORGBOTTOM
 10
0.0
 20
0.0
 30
0.0
  9
$PUCSORGLEFT
 10
0.0
 20
0.0
 30
0.0
  9
$PUCSORGRIGHT
 10
0.0
 20
0.0
 30
0.0
  9
$PUCSORGFRONT
 10
0.0
 20
0.0
 30
0.0
  9
$PUCSORGBACK
 10
0.0
 20
0.0
 30
0.0
  9
$USERI1
 70
     0
  9
$USERI2
 70
     0
  9
$USERI3
 70
     0
  9
$USERI4
 70
     0
  9
$USERI5
 70
     0
  9
$USERR1
 40
0.0
  9
$USERR2
 40
0.0
  9
$USERR3
 40
0.0
  9
$USERR4
 40
0.0
  9
$USERR5
 40
0.0
  9
$WORLDVIEW
 70
     1
  9
$SHADEDGE
 70
     3
  9
$SHADEDIF
 70
    70
  9
$TILEMODE
 70
     1
  9
$MAXACTVP
 70
    64
  9
$PINSBASE
 10
0.0
 20
0.0
 30
0.0
  9
$PLIMCHECK
 70
     0
  9
$PEXTMIN
 10
0.0
 20
0.0
 30
0.0
  9
$PEXTMAX
 10
0.0
 20
0.0
 30
0.0
  9
$PLIMMIN
 10
0.0
 20
0.0
  9
$PLIMMAX
 10
12.0
 20
9.0
  9
$UNITMODE
 70
     0
  9
$VISRETAIN
 70
     1
  9
$PLINEGEN
 70
     0
  9
$PSLTSCALE
 70
     1
  9
$TREEDEPTH
 70
  3020
  9
$CMLSTYLE
  2
Standard
  9
$CMLJUST
 70
     0
  9
$CMLSCALE
 40
20.0
  9
$PROXYGRAPHICS
 70
     1
  9
$MEASUREMENT
 70
     1
  9
$CELWEIGHT
370
    -1
  9
$ENDCAPS
280
     0
  9
$JOINSTYLE
280
     0
  9
$LWDISPLAY
290
     0
  9
$INSUNITS
 70
     4
  9
$HYPERLINKBASE
  1

  9
$STYLESHEET
  1

  9
$XEDIT
290
     1
  9
$CEPSNTYPE
380
     0
  9
$PSTYLEMODE
290
     1
  9
$FINGERPRINTGUID
  2
{FDEAD578-A652-11D2-9A35-0060089B3A3F}
  9
$VERSIONGUID
  2
{406F2D3C-BC75-45EA-A6FC-C97D6E95F072}
  9
$EXTNAMES
290
     1
  9
$PSVPSCALE
 40
0.0
  9
$OLESTARTUP
290
     0
  0
ENDSEC
  0
SECTION
  2
CLASSES
  0
CLASS
  1
ACDBDICTIONARYWDFLT
  2
AcDbDictionaryWithDefault
  3
ObjectDBX Classes
 90
        0
280
     0
281
     0
  0
CLASS
  1
ACDBPLACEHOLDER
  2
AcDbPlaceHolder
  3
ObjectDBX Classes
 90
        0
280
     0
281
     0
  0
CLASS
  1
LAYOUT
  2
AcDbLayout
  3
ObjectDBX Classes
 90
        0
280
     0
281
     0
  0
CLASS
  1
DICTIONARYVAR
  2
AcDbDictionaryVar
  3
ObjectDBX Classes
 90
        0
280
     0
281
     0
  0
CLASS
  1
DIMASSOC
  2
AcDbDimAssoc
  3
"AcDbDimAssoc|Product Desc:     AcDim ARX App For Dimension|Company:          Autodesk, Inc.|WEB Address:      www.autodesk.com"
 90
    32768
280
     0
281
     0
  0
ENDSEC
  0
SECTION
  2
TABLES
  0
TABLE
  2
VPORT
  5
19
330
0
100
AcDbSymbolTable
 70
     2
  0
VPORT
  5
1C5
330
19
100
AcDbSymbolTableRecord
100
AcDbViewportTableRecord
  2
*Active
 70
     0
 10
0.0
 20
0.0
 11
1.0
 21
1.0
 12
6.171570564819941
 22
0.240189117542684
 13
0.0
 23
0.0
 14
10.0
 24
10.0
 15
10.0
 25
10.0
 16
0.0
 26
0.0
 36
1.0
 17
0.0
 27
0.0
 37
0.0
 40
113.9216175645375
 41
1.451655629139072
 42
50.0
 43
0.0
 44
0.0
 50
0.0
 51
0.0
 71
     0
 72
  1000
 73
     1
 74
     2
 75
     0
 76
     0
 77
     0
 78
     0
281
     0
 65
     1
110
0.0
120
0.0
130
0.0
111
1.0
121
0.0
131
0.0
112
0.0
122
1.0
132
0.0
 79
     0
146
0.0
  0
ENDTAB
  0
TABLE
  2
LTYPE
  5
14
330
0
100
AcDbSymbolTable
 70
     1
  0
LTYPE
  5
15
330
14
100
AcDbSymbolTableRecord
100
AcDbLinetypeTableRecord
  2
ByBlock
 70
     0
  3

 72
    65
 73
     0
 40
0.0
  0
LTYPE
  5
16
330
14
100
AcDbSymbolTableRecord
100
AcDbLinetypeTableRecord
  2
ByLayer
 70
     0
  3

 72
    65
 73
     0
 40
0.0
  0
LTYPE
  5
8
330
14
100
AcDbSymbolTableRecord
100
AcDbLinetypeTableRecord
  2
Continuous
 70
     0
  3
Solid line
 72
    65
 73
     0
 40
0.0
  0
ENDTAB
  0
TABLE
  2
LAYER
  5
10
330
0
100
AcDbSymbolTable
 70
     7
  0
LAYER
  5
4
330
10
100
AcDbSymbolTableRecord
100
AcDbLayerTableRecord
  2
0
 70
     0
 62
     7
  6
Continuous
370
    -3
390
5
  0
LAYER
  5
174
330
10
100
AcDbSymbolTableRecord
100
AcDbLayerTableRecord
  2
WAKU
 70
     0
 62
     4
  6
Continuous
370
    -3
390
5
  0
LAYER
  5
2E
330
10
100
AcDbSymbolTableRecord
100
AcDbLayerTableRecord
  2
MOJI1
 70
     0
 62
     2
  6
Continuous
370
    -3
390
5
  0
LAYER
  5
16F
330
10
100
AcDbSymbolTableRecord
100
AcDbLayerTableRecord
  2
TOUROKU
 70
     0
 62
     1
  6
Continuous
370
    -3
390
5
  0
LAYER
  5
65
330
10
100
AcDbSymbolTableRecord
100
AcDbLayerTableRecord
  2
GAIKEI
 70
     0
 62
     7
  6
Continuous
370
    -3
390
5
  0
LAYER
  5
2B
330
10
100
AcDbSymbolTableRecord
100
AcDbLayerTableRecord
  2
SUNPO
 70
     0
 62
     3
  6
Continuous
370
    -3
390
5
  0
LAYER
  5
39
330
10
100
AcDbSymbolTableRecord
100
AcDbLayerTableRecord
  2
DEFPOINTS
 70
     0
 62
     7
  6
Continuous
290
     0
370
    -3
390
5
  0
ENDTAB
  0
TABLE
  2
STYLE
  5
11
330
0
100
AcDbSymbolTable
 70
     1
  0
STYLE
  5
12
330
11
100
AcDbSymbolTableRecord
100
AcDbTextStyleTableRecord
  2
Standard
 70
     0
 40
0.0
 41
1.0
 50
0.0
 71
     0
 42
2.5
  3
MONOTXT.shx
  4
BIGFONT.shx
  0
ENDTAB
  0
TABLE
  2
VIEW
  5
17
330
0
100
AcDbSymbolTable
 70
     0
  0
ENDTAB
  0
TABLE
  2
UCS
  5
18
330
0
100
AcDbSymbolTable
 70
     0
  0
ENDTAB
  0
TABLE
  2
APPID
  5
1B
330
0
100
AcDbSymbolTable
 70
     1
  0
APPID
  5
1C
330
1B
100
AcDbSymbolTableRecord
100
AcDbRegAppTableRecord
  2
ACAD
 70
     0
  0
ENDTAB
  0
TABLE
  2
DIMSTYLE
  5
1D
330
0
100
AcDbSymbolTable
 70
     1
100
AcDbDimStyleTable
 71
     1
340
1E
  0
DIMSTYLE
105
1E
102
{ACAD_REACTORS
330
57
330
4A
330
3D
330
2F
102
}
330
1D
100
AcDbSymbolTableRecord
100
AcDbDimStyleTableRecord
  2
STANDARD
 70
     0
 40
0.0
 41
2.0
 42
2.0
 43
8.0
 44
2.0
 73
     0
 74
     0
 77
     3
140
3.0
141
0.0
173
     1
279
     2
288
     1
340
12
341
1F
343
1F
344
1F
  0
ENDTAB
  0
TABLE
  2
BLOCK_RECORD
  5
1
330
0
100
AcDbSymbolTable
 70
     9
  0
BLOCK_RECORD
  5
2
330
1
100
AcDbSymbolTableRecord
100
AcDbBlockTableRecord
  2
*Model_Space
340
A
  0
BLOCK_RECORD
  5
C
330
1
100
AcDbSymbolTableRecord
100
AcDbBlockTableRecord
  2
*Paper_Space
340
F
  0
BLOCK_RECORD
  5
1F
330
1
100
AcDbSymbolTableRecord
100
AcDbBlockTableRecord
  2
_OPEN30
340
0
102
{BLKREFS
331
35
331
36
331
43
331
44
331
50
331
51
331
5D
331
5E
331
195
331
196
331
1A1
331
1A2
331
1AD
331
1AE
331
1B9
331
1BA
102
}
  0
BLOCK_RECORD
  5
58
330
1
100
AcDbSymbolTableRecord
100
AcDbBlockTableRecord
  2
*D1
340
0
  0
BLOCK_RECORD
  5
4B
330
1
100
AcDbSymbolTableRecord
100
AcDbBlockTableRecord
  2
*D2
340
0
  0
BLOCK_RECORD
  5
3E
330
1
100
AcDbSymbolTableRecord
100
AcDbBlockTableRecord
  2
*D3
340
0
  0
BLOCK_RECORD
  5
30
330
1
100
AcDbSymbolTableRecord
100
AcDbBlockTableRecord
  2
*D4
340
0
  0
BLOCK_RECORD
  5
191
330
1
100
AcDbSymbolTableRecord
100
AcDbBlockTableRecord
  2
*D5
340
0
  0
BLOCK_RECORD
  5
19D
330
1
100
AcDbSymbolTableRecord
100
AcDbBlockTableRecord
  2
*D6
340
0
  0
BLOCK_RECORD
  5
1A9
330
1
100
AcDbSymbolTableRecord
100
AcDbBlockTableRecord
  2
*D7
340
0
  0
BLOCK_RECORD
  5
1B5
330
1
100
AcDbSymbolTableRecord
100
AcDbBlockTableRecord
  2
*D8
340
0
  0
ENDTAB
  0
ENDSEC
  0
SECTION
  2
BLOCKS
  0
BLOCK
  5
3
330
2
100
AcDbEntity
  8
0
100
AcDbBlockBegin
  2
*Model_Space
 70
     0
 10
0.0
 20
0.0
 30
0.0
  3
*Model_Space
  1

  0
ENDBLK
  5
9
330
2
100
AcDbEntity
  8
0
100
AcDbBlockEnd
  0
BLOCK
  5
D
330
C
100
AcDbEntity
 67
     1
  8
0
100
AcDbBlockBegin
  2
*Paper_Space
 70
     0
 10
0.0
 20
0.0
 30
0.0
  3
*Paper_Space
  1

  0
ENDBLK
  5
E
330
C
100
AcDbEntity
 67
     1
  8
0
100
AcDbBlockEnd
  0
BLOCK
  5
20
330
1F
100
AcDbEntity
  8
0
100
AcDbBlockBegin
  2
_OPEN30
 70
     0
 10
0.0
 20
0.0
 30
0.0
  3
_OPEN30
  1

  0
LINE
  5
21
330
1F
100
AcDbEntity
  8
0
  6
ByBlock
 62
     0
100
AcDbLine
 10
-1.0
 20
0.26794919
 30
0.0
 11
0.0
 21
0.0
 31
0.0
  0
LINE
  5
22
330
1F
100
AcDbEntity
  8
0
  6
ByBlock
 62
     0
100
AcDbLine
 10
0.0
 20
0.0
 30
0.0
 11
-1.0
 21
-0.26794919
 31
0.0
  0
LINE
  5
23
330
1F
100
AcDbEntity
  8
0
  6
ByBlock
 62
     0
100
AcDbLine
 10
0.0
 20
0.0
 30
0.0
 11
-1.0
 21
0.0
 31
0.0
  0
ENDBLK
  5
24
330
1F
100
AcDbEntity
  8
0
100
AcDbBlockEnd
  0
BLOCK
  5
59
330
58
100
AcDbEntity
  8
0
100
AcDbBlockBegin
  2
*D1
 70
     1
 10
0.0
 20
0.0
 30
0.0
  3
*D1
  1

  0
LINE
  5
5A
330
58
100
AcDbEntity
  8
SUNPO
 62
     0
370
    -2
100
AcDbLine
 10
153.9463296919706
 20
339.6952455311354
 30
0.0
 11
153.9463296919706
 21
347.6952455073554
 31
0.0
  0
LINE
  5
5B
330
58
100
AcDbEntity
  8
SUNPO
 62
     0
370
    -2
100
AcDbLine
 10
178.9463295718706
 20
339.6952455073554
 30
0.0
 11
178.9463295718706
 21
347.6952455073554
 31
0.0
  0
LINE
  5
5C
330
58
100
AcDbEntity
  8
SUNPO
 62
     0
370
    -2
100
AcDbLine
 10
155.9463296919706
 20
345.6952455073554
 30
0.0
 11
176.9463295718706
 21
345.6952455073554
 31
0.0
  0
INSERT
  5
5D
330
58
100
AcDbEntity
  8
SUNPO
 62
     0
370
    -2
100
AcDbBlockReference
  2
_OPEN30
 10
153.9463296919706
 20
345.6952455073554
 30
0.0
 41
2.0
 42
2.0
 43
2.0
 50
180.0
  0
INSERT
  5
5E
330
58
100
AcDbEntity
  8
SUNPO
 62
     0
370
    -2
100
AcDbBlockReference
  2
_OPEN30
 10
178.9463295718706
 20
345.6952455073554
 30
0.0
 41
2.0
 42
2.0
 43
2.0
  0
MTEXT
  5
5F
330
58
100
AcDbEntity
  8
SUNPO
 62
     0
100
AcDbMText
 10
166.4463296319206
 20
347.4452455073554
 30
0.0
 40
2.5
 41
0.0
 71
     5
 72
     1
  1
\A1;250
 73
     1
 44
1.0
1001
ACAD
1000
MTEXTBEGIN
1070
    73
1070
     1
1070
    44
1040
1.0
1070
    74
1070
     0
1000
MTEXTEND
  0
POINT
  5
60
330
58
100
AcDbEntity
  8
DEFPOINTS
 62
     0
100
AcDbPoint
 10
153.9463296919706
 20
337.6952455311354
 30
0.0
  0
POINT
  5
61
330
58
100
AcDbEntity
  8
DEFPOINTS
 62
     0
100
AcDbPoint
 10
178.9463295718706
 20
337.6952455073554
 30
0.0
  0
POINT
  5
62
330
58
100
AcDbEntity
  8
DEFPOINTS
 62
     0
100
AcDbPoint
 10
178.9463295718706
 20
345.6952455073554
 30
0.0
  0
ENDBLK
  5
63
330
58
100
AcDbEntity
  8
0
100
AcDbBlockEnd
  0
BLOCK
  5
4C
330
4B
100
AcDbEntity
  8
0
100
AcDbBlockBegin
  2
*D2
 70
     1
 10
0.0
 20
0.0
 30
0.0
  3
*D2
  1

  0
LINE
  5
4D
330
4B
100
AcDbEntity
  8
SUNPO
 62
     0
370
    -2
100
AcDbLine
 10
181.3471775197706
 20
322.0009622143754
 30
0.0
 11
189.3471775197706
 21
322.0009622143754
 31
0.0
  0
LINE
  5
4E
330
4B
100
AcDbEntity
  8
SUNPO
 62
     0
370
    -2
100
AcDbLine
 10
181.3471775197706
 20
337.3009622143754
 30
0.0
 11
189.3471775197706
 21
337.3009622143754
 31
0.0
  0
LINE
  5
4F
330
4B
100
AcDbEntity
  8
SUNPO
 62
     0
370
    -2
100
AcDbLine
 10
187.3471775197706
 20
324.0009622143754
 30
0.0
 11
187.3471775197706
 21
335.3009622143754
 31
0.0
  0
INSERT
  5
50
330
4B
100
AcDbEntity
  8
SUNPO
 62
     0
370
    -2
100
AcDbBlockReference
  2
_OPEN30
 10
187.3471775197706
 20
322.0009622143754
 30
0.0
 41
2.0
 42
2.0
 43
2.0
 50
270.0
  0
INSERT
  5
51
330
4B
100
AcDbEntity
  8
SUNPO
 62
     0
370
    -2
100
AcDbBlockReference
  2
_OPEN30
 10
187.3471775197706
 20
337.3009622143754
 30
0.0
 41
2.0
 42
2.0
 43
2.0
 50
90.0
  0
MTEXT
  5
52
330
4B
100
AcDbEntity
  8
SUNPO
 62
     0
100
AcDbMText
 10
185.5971775197706
 20
329.6509622143755
 30
0.0
 40
2.5
 41
0.0
 71
     5
 72
     1
  1
\A1;153
 11
0.0000000000000001
 21
1.0
 31
0.0
 73
     1
 44
1.0
1001
ACAD
1000
MTEXTBEGIN
1070
    73
1070
     1
1070
    44
1040
1.0
1070
    74
1070
     0
1000
MTEXTEND
  0
POINT
  5
53
330
4B
100
AcDbEntity
  8
DEFPOINTS
 62
     0
100
AcDbPoint
 10
179.3471775197706
 20
322.0009622143754
 30
0.0
  0
POINT
  5
54
330
4B
100
AcDbEntity
  8
DEFPOINTS
 62
     0
100
AcDbPoint
 10
179.3471775197706
 20
337.3009622143754
 30
0.0
  0
POINT
  5
55
330
4B
100
AcDbEntity
  8
DEFPOINTS
 62
     0
100
AcDbPoint
 10
187.3471775197706
 20
337.3009622143754
 30
0.0
  0
ENDBLK
  5
56
330
4B
100
AcDbEntity
  8
0
100
AcDbBlockEnd
  0
BLOCK
  5
3F
330
3E
100
AcDbEntity
  8
0
100
AcDbBlockBegin
  2
*D3
 70
     1
 10
0.0
 20
0.0
 30
0.0
  3
*D3
  1

  0
LINE
  5
40
330
3E
100
AcDbEntity
  8
SUNPO
 62
     0
370
    -2
100
AcDbLine
 10
211.1020655663428
 20
339.6952455311354
 30
0.0
 11
211.1020655663428
 21
347.6952455073554
 31
0.0
  0
LINE
  5
41
330
3E
100
AcDbEntity
  8
SUNPO
 62
     0
370
    -2
100
AcDbLine
 10
225.1020655663428
 20
339.6952455073554
 30
0.0
 11
225.1020655663428
 21
347.6952455073554
 31
0.0
  0
LINE
  5
42
330
3E
100
AcDbEntity
  8
SUNPO
 62
     0
370
    -2
100
AcDbLine
 10
213.1020655663428
 20
345.6952455073554
 30
0.0
 11
223.1020655663428
 21
345.6952455073554
 31
0.0
  0
INSERT
  5
43
330
3E
100
AcDbEntity
  8
SUNPO
 62
     0
370
    -2
100
AcDbBlockReference
  2
_OPEN30
 10
211.1020655663428
 20
345.6952455073554
 30
0.0
 41
2.0
 42
2.0
 43
2.0
 50
180.0
  0
INSERT
  5
44
330
3E
100
AcDbEntity
  8
SUNPO
 62
     0
370
    -2
100
AcDbBlockReference
  2
_OPEN30
 10
225.1020655663428
 20
345.6952455073554
 30
0.0
 41
2.0
 42
2.0
 43
2.0
  0
MTEXT
  5
45
330
3E
100
AcDbEntity
  8
SUNPO
 62
     0
100
AcDbMText
 10
218.1020655663429
 20
347.4452455073554
 30
0.0
 40
2.5
 41
0.0
 71
     5
 72
     1
  1
\A1;φ140
 73
     1
 44
1.0
1001
ACAD
1000
MTEXTBEGIN
1070
    73
1070
     1
1070
    44
1040
1.0
1070
    74
1070
     0
1000
MTEXTEND
  0
POINT
  5
46
330
3E
100
AcDbEntity
  8
DEFPOINTS
 62
     0
100
AcDbPoint
 10
211.1020655663428
 20
337.6952455311354
 30
0.0
  0
POINT
  5
47
330
3E
100
AcDbEntity
  8
DEFPOINTS
 62
     0
100
AcDbPoint
 10
225.1020655663428
 20
337.6952455073554
 30
0.0
  0
POINT
  5
48
330
3E
100
AcDbEntity
  8
DEFPOINTS
 62
     0
100
AcDbPoint
 10
225.1020655663428
 20
345.6952455073554
 30
0.0
  0
ENDBLK
  5
49
330
3E
100
AcDbEntity
  8
0
100
AcDbBlockEnd
  0
BLOCK
  5
31
330
30
100
AcDbEntity
  8
0
100
AcDbBlockBegin
  2
*D4
 70
     1
 10
0.0
 20
0.0
 30
0.0
  3
*D4
  1

  0
LINE
  5
32
330
30
100
AcDbEntity
  8
SUNPO
 62
     0
370
    -2
100
AcDbLine
 10
197.2520655663458
 20
320.0036797274887
 30
0.0
 11
197.2520655663458
 21
312.0036797274887
 31
0.0
  0
LINE
  5
33
330
30
100
AcDbEntity
  8
SUNPO
 62
     0
370
    -2
100
AcDbLine
 10
213.4520655663429
 20
320.0036797274887
 30
0.0
 11
213.4520655663429
 21
312.0036797274887
 31
0.0
  0
LINE
  5
34
330
30
100
AcDbEntity
  8
SUNPO
 62
     0
370
    -2
100
AcDbLine
 10
199.2520655663458
 20
314.0036797274887
 30
0.0
 11
211.4520655663429
 21
314.0036797274887
 31
0.0
  0
INSERT
  5
35
330
30
100
AcDbEntity
  8
SUNPO
 62
     0
370
    -2
100
AcDbBlockReference
  2
_OPEN30
 10
197.2520655663458
 20
314.0036797274887
 30
0.0
 41
2.0
 42
2.0
 43
2.0
 50
180.0
  0
INSERT
  5
36
330
30
100
AcDbEntity
  8
SUNPO
 62
     0
370
    -2
100
AcDbBlockReference
  2
_OPEN30
 10
213.4520655663429
 20
314.0036797274887
 30
0.0
 41
2.0
 42
2.0
 43
2.0
  0
MTEXT
  5
37
330
30
100
AcDbEntity
  8
SUNPO
 62
     0
100
AcDbMText
 10
205.3520655663444
 20
315.7536797274887
 30
0.0
 40
2.5
 41
0.0
 71
     5
 72
     1
  1
\A1;162
 73
     1
 44
1.0
1001
ACAD
1000
MTEXTBEGIN
1070
    73
1070
     1
1070
    44
1040
1.0
1070
    74
1070
     0
1000
MTEXTEND
  0
POINT
  5
38
330
30
100
AcDbEntity
  8
DEFPOINTS
 62
     0
100
AcDbPoint
 10
197.2520655663458
 20
322.0036797274887
 30
0.0
  0
POINT
  5
3A
330
30
100
AcDbEntity
  8
DEFPOINTS
 62
     0
100
AcDbPoint
 10
213.4520655663429
 20
322.0036797274887
 30
0.0
  0
POINT
  5
3B
330
30
100
AcDbEntity
  8
DEFPOINTS
 62
     0
100
AcDbPoint
 10
213.4520655663429
 20
314.0036797274887
 30
0.0
  0
ENDBLK
  5
3C
330
30
100
AcDbEntity
  8
0
100
AcDbBlockEnd
  0
BLOCK
  5
19B
330
191
100
AcDbEntity
  8
0
100
AcDbBlockBegin
  2
*D5
 70
     1
 10
0.0
 20
0.0
 30
0.0
  3
*D5
  1

  0
LINE
  5
192
330
191
100
AcDbEntity
  8
SUNPO
 62
     0
370
    -2
100
AcDbLine
 10
-33.87624483213347
 20
25.9431293274734
 30
0.0
 11
-33.87624483213347
 21
33.94312930369336
 31
0.0
  0
LINE
  5
193
330
191
100
AcDbEntity
  8
SUNPO
 62
     0
370
    -2
100
AcDbLine
 10
-8.876244952233435
 20
25.94312930369336
 30
0.0
 11
-8.876244952233435
 21
33.94312930369336
 31
0.0
  0
LINE
  5
194
330
191
100
AcDbEntity
  8
SUNPO
 62
     0
370
    -2
100
AcDbLine
 10
-31.87624483213347
 20
31.94312930369335
 30
0.0
 11
-10.87624495223343
 21
31.94312930369335
 31
0.0
  0
INSERT
  5
195
330
191
100
AcDbEntity
  8
SUNPO
 62
     0
370
    -2
100
AcDbBlockReference
  2
_OPEN30
 10
-33.87624483213347
 20
31.94312930369335
 30
0.0
 41
2.0
 42
2.0
 43
2.0
 50
180.0
  0
INSERT
  5
196
330
191
100
AcDbEntity
  8
SUNPO
 62
     0
370
    -2
100
AcDbBlockReference
  2
_OPEN30
 10
-8.876244952233435
 20
31.94312930369335
 30
0.0
 41
2.0
 42
2.0
 43
2.0
  0
MTEXT
  5
197
330
191
100
AcDbEntity
  8
SUNPO
 62
     0
100
AcDbMText
 10
-21.37624489218345
 20
33.69312930369336
 30
0.0
 40
2.5
 41
0.0
 71
     5
 72
     1
  1
\A1;250
 73
     1
 44
1.0
1001
ACAD
1000
MTEXTBEGIN
1070
    73
1070
     1
1070
    44
1040
1.0
1070
    74
1070
     0
1000
MTEXTEND
  0
POINT
  5
198
330
191
100
AcDbEntity
  8
DEFPOINTS
 62
     0
100
AcDbPoint
 10
-33.87624483213347
 20
23.9431293274734
 30
0.0
  0
POINT
  5
199
330
191
100
AcDbEntity
  8
DEFPOINTS
 62
     0
100
AcDbPoint
 10
-8.876244952233435
 20
23.94312930369336
 30
0.0
  0
POINT
  5
19A
330
191
100
AcDbEntity
  8
DEFPOINTS
 62
     0
100
AcDbPoint
 10
-8.876244952233435
 20
31.94312930369335
 30
0.0
  0
ENDBLK
  5
19C
330
191
100
AcDbEntity
  8
0
100
AcDbBlockEnd
  0
BLOCK
  5
1A7
330
19D
100
AcDbEntity
  8
0
100
AcDbBlockBegin
  2
*D6
 70
     1
 10
0.0
 20
0.0
 30
0.0
  3
*D6
  1

  0
LINE
  5
19E
330
19D
100
AcDbEntity
  8
SUNPO
 62
     0
370
    -2
100
AcDbLine
 10
-6.475397004333444
 20
8.248846010713407
 30
0.0
 11
1.524602995666551
 21
8.248846010713405
 31
0.0
  0
LINE
  5
19F
330
19D
100
AcDbEntity
  8
SUNPO
 62
     0
370
    -2
100
AcDbLine
 10
-6.475397004333444
 20
23.54884601071336
 30
0.0
 11
1.524602995666555
 21
23.54884601071336
 31
0.0
  0
LINE
  5
1A0
330
19D
100
AcDbEntity
  8
SUNPO
 62
     0
370
    -2
100
AcDbLine
 10
-0.4753970043334478
 20
10.2488460107134
 30
0.0
 11
-0.4753970043334453
 21
21.54884601071336
 31
0.0
  0
INSERT
  5
1A1
330
19D
100
AcDbEntity
  8
SUNPO
 62
     0
370
    -2
100
AcDbBlockReference
  2
_OPEN30
 10
-0.4753970043334482
 20
8.248846010713405
 30
0.0
 41
2.0
 42
2.0
 43
2.0
 50
270.0
  0
INSERT
  5
1A2
330
19D
100
AcDbEntity
  8
SUNPO
 62
     0
370
    -2
100
AcDbBlockReference
  2
_OPEN30
 10
-0.4753970043334448
 20
23.54884601071336
 30
0.0
 41
2.0
 42
2.0
 43
2.0
 50
90.0
  0
MTEXT
  5
1A3
330
19D
100
AcDbEntity
  8
SUNPO
 62
     0
100
AcDbMText
 10
-2.225397004333449
 20
15.89884601071338
 30
0.0
 40
2.5
 41
0.0
 71
     5
 72
     1
  1
\A1;153
 11
0.0000000000000001
 21
1.0
 31
0.0
 73
     1
 44
1.0
1001
ACAD
1000
MTEXTBEGIN
1070
    73
1070
     1
1070
    44
1040
1.0
1070
    74
1070
     0
1000
MTEXTEND
  0
POINT
  5
1A4
330
19D
100
AcDbEntity
  8
DEFPOINTS
 62
     0
100
AcDbPoint
 10
-8.475397004333444
 20
8.248846010713407
 30
0.0
  0
POINT
  5
1A5
330
19D
100
AcDbEntity
  8
DEFPOINTS
 62
     0
100
AcDbPoint
 10
-8.475397004333444
 20
23.54884601071336
 30
0.0
  0
POINT
  5
1A6
330
19D
100
AcDbEntity
  8
DEFPOINTS
 62
     0
100
AcDbPoint
 10
-0.4753970043334448
 20
23.54884601071336
 30
0.0
  0
ENDBLK
  5
1A8
330
19D
100
AcDbEntity
  8
0
100
AcDbBlockEnd
  0
BLOCK
  5
1B3
330
1A9
100
AcDbEntity
  8
0
100
AcDbBlockBegin
  2
*D7
 70
     1
 10
0.0
 20
0.0
 30
0.0
  3
*D7
  1

  0
LINE
  5
1AA
330
1A9
100
AcDbEntity
  8
SUNPO
 62
     0
370
    -2
100
AcDbLine
 10
23.27949104223876
 20
25.9431293274734
 30
0.0
 11
23.27949104223876
 21
33.94312930369336
 31
0.0
  0
LINE
  5
1AB
330
1A9
100
AcDbEntity
  8
SUNPO
 62
     0
370
    -2
100
AcDbLine
 10
37.27949104223876
 20
25.94312930369336
 30
0.0
 11
37.27949104223876
 21
33.94312930369336
 31
0.0
  0
LINE
  5
1AC
330
1A9
100
AcDbEntity
  8
SUNPO
 62
     0
370
    -2
100
AcDbLine
 10
25.27949104223876
 20
31.94312930369335
 30
0.0
 11
35.27949104223876
 21
31.94312930369335
 31
0.0
  0
INSERT
  5
1AD
330
1A9
100
AcDbEntity
  8
SUNPO
 62
     0
370
    -2
100
AcDbBlockReference
  2
_OPEN30
 10
23.27949104223876
 20
31.94312930369335
 30
0.0
 41
2.0
 42
2.0
 43
2.0
 50
180.0
  0
INSERT
  5
1AE
330
1A9
100
AcDbEntity
  8
SUNPO
 62
     0
370
    -2
100
AcDbBlockReference
  2
_OPEN30
 10
37.27949104223876
 20
31.94312930369335
 30
0.0
 41
2.0
 42
2.0
 43
2.0
  0
MTEXT
  5
1AF
330
1A9
100
AcDbEntity
  8
SUNPO
 62
     0
100
AcDbMText
 10
30.27949104223876
 20
33.69312930369336
 30
0.0
 40
2.5
 41
0.0
 71
     5
 72
     1
  1
\A1;φ140
 73
     1
 44
1.0
1001
ACAD
1000
MTEXTBEGIN
1070
    73
1070
     1
1070
    44
1040
1.0
1070
    74
1070
     0
1000
MTEXTEND
  0
POINT
  5
1B0
330
1A9
100
AcDbEntity
  8
DEFPOINTS
 62
     0
100
AcDbPoint
 10
23.27949104223876
 20
23.9431293274734
 30
0.0
  0
POINT
  5
1B1
330
1A9
100
AcDbEntity
  8
DEFPOINTS
 62
     0
100
AcDbPoint
 10
37.27949104223876
 20
23.94312930369336
 30
0.0
  0
POINT
  5
1B2
330
1A9
100
AcDbEntity
  8
DEFPOINTS
 62
     0
100
AcDbPoint
 10
37.27949104223876
 20
31.94312930369335
 30
0.0
  0
ENDBLK
  5
1B4
330
1A9
100
AcDbEntity
  8
0
100
AcDbBlockEnd
  0
BLOCK
  5
1BF
330
1B5
100
AcDbEntity
  8
0
100
AcDbBlockBegin
  2
*D8
 70
     1
 10
0.0
 20
0.0
 30
0.0
  3
*D8
  1

  0
LINE
  5
1B6
330
1B5
100
AcDbEntity
  8
SUNPO
 62
     0
370
    -2
100
AcDbLine
 10
9.429491042241778
 20
6.251563523826689
 30
0.0
 11
9.429491042241778
 21
-1.74843647617331
 31
0.0
  0
LINE
  5
1B7
330
1B5
100
AcDbEntity
  8
SUNPO
 62
     0
370
    -2
100
AcDbLine
 10
25.62949104223887
 20
6.251563523826689
 30
0.0
 11
25.62949104223887
 21
-1.74843647617331
 31
0.0
  0
LINE
  5
1B8
330
1B5
100
AcDbEntity
  8
SUNPO
 62
     0
370
    -2
100
AcDbLine
 10
11.42949104224178
 20
0.2515635238266896
 30
0.0
 11
23.62949104223887
 21
0.2515635238266896
 31
0.0
  0
INSERT
  5
1B9
330
1B5
100
AcDbEntity
  8
SUNPO
 62
     0
370
    -2
100
AcDbBlockReference
  2
_OPEN30
 10
9.429491042241778
 20
0.2515635238266896
 30
0.0
 41
2.0
 42
2.0
 43
2.0
 50
180.0
  0
INSERT
  5
1BA
330
1B5
100
AcDbEntity
  8
SUNPO
 62
     0
370
    -2
100
AcDbBlockReference
  2
_OPEN30
 10
25.62949104223887
 20
0.2515635238266896
 30
0.0
 41
2.0
 42
2.0
 43
2.0
  0
MTEXT
  5
1BB
330
1B5
100
AcDbEntity
  8
SUNPO
 62
     0
100
AcDbMText
 10
17.52949104224032
 20
2.001563523826689
 30
0.0
 40
2.5
 41
0.0
 71
     5
 72
     1
  1
\A1;162
 73
     1
 44
1.0
1001
ACAD
1000
MTEXTBEGIN
1070
    73
1070
     1
1070
    44
1040
1.0
1070
    74
1070
     0
1000
MTEXTEND
  0
POINT
  5
1BC
330
1B5
100
AcDbEntity
  8
DEFPOINTS
 62
     0
100
AcDbPoint
 10
9.429491042241778
 20
8.251563523826689
 30
0.0
  0
POINT
  5
1BD
330
1B5
100
AcDbEntity
  8
DEFPOINTS
 62
     0
100
AcDbPoint
 10
25.62949104223887
 20
8.251563523826689
 30
0.0
  0
POINT
  5
1BE
330
1B5
100
AcDbEntity
  8
DEFPOINTS
 62
     0
100
AcDbPoint
 10
25.62949104223887
 20
0.2515635238266896
 30
0.0
  0
ENDBLK
  5
1C0
330
1B5
100
AcDbEntity
  8
0
100
AcDbBlockEnd
  0
ENDSEC
  0
SECTION
  2
ENTITIES
  0
TEXT
  5
2D
330
2
100
AcDbEntity
  8
MOJI1
100
AcDbText
 10
-29.32257458006314
 20
52.74871892127237
 30
0.0
 40
4.0
  1
１２ｃｍ　コーン形スピーカー（天井取付金具付）
 41
0.9
100
AcDbText
  0
DIMENSION
  5
2F
330
2
100
AcDbEntity
  8
SUNPO
100
AcDbDimension
  2
*D8
 10
25.62949104223887
 20
0.2515635238266896
 30
0.0
 11
17.52949104224032
 21
2.001563523826689
 31
0.0
 70
    33
  1
162
 71
     5
 42
16.19999999999709
  3
STANDARD
100
AcDbAlignedDimension
 13
9.429491042241778
 23
8.251563523826689
 33
0.0
 14
25.62949104223887
 24
8.251563523826689
 34
0.0
1001
ACAD
1000
DSTYLE
1002
{
1070
    40
1040
1.0
1070
   140
1040
2.5
1070
   147
1040
0.5
1070
   172
1070
     1
1070
   279
1070
     0
1070
   288
1070
     0
1002
}
  0
DIMENSION
  5
3D
330
2
100
AcDbEntity
  8
SUNPO
100
AcDbDimension
  2
*D7
 10
37.27949104223876
 20
31.94312930369335
 30
0.0
 11
30.27949104223876
 21
33.69312930369336
 31
0.0
 70
    33
  1
φ140
 71
     5
 42
14.0
  3
STANDARD
100
AcDbAlignedDimension
 13
23.27949104223876
 23
23.9431293274734
 33
0.0
 14
37.27949104223876
 24
23.94312930369336
 34
0.0
1001
ACAD
1000
DSTYLE
1002
{
1070
    40
1040
1.0
1070
   140
1040
2.5
1070
   147
1040
0.5
1070
   172
1070
     1
1070
   279
1070
     0
1070
   288
1070
     0
1002
}
  0
DIMENSION
  5
4A
330
2
100
AcDbEntity
  8
SUNPO
100
AcDbDimension
  2
*D6
 10
-0.4753970043334448
 20
23.54884601071336
 30
0.0
 11
-2.225397004333449
 21
15.89884601071338
 31
0.0
 70
    33
  1
153
 71
     5
 42
15.29999999999995
  3
STANDARD
100
AcDbAlignedDimension
 13
-8.475397004333444
 23
8.248846010713407
 33
0.0
 14
-8.475397004333444
 24
23.54884601071336
 34
0.0
1001
ACAD
1000
DSTYLE
1002
{
1070
    40
1040
1.0
1070
   140
1040
2.5
1070
   147
1040
0.5
1070
   172
1070
     1
1070
   279
1070
     0
1070
   288
1070
     0
1002
}
  0
DIMENSION
  5
57
330
2
100
AcDbEntity
  8
SUNPO
100
AcDbDimension
  2
*D5
 10
-8.876244952233435
 20
31.94312930369335
 30
0.0
 11
-21.37624489218345
 21
33.69312930369336
 31
0.0
 70
    33
  1
250
 71
     5
 42
24.99999987990003
  3
STANDARD
100
AcDbAlignedDimension
 13
-33.87624483213347
 23
23.9431293274734
 33
0.0
 14
-8.876244952233435
 24
23.94312930369336
 34
0.0
1001
ACAD
1000
DSTYLE
1002
{
1070
    40
1040
1.0
1070
   140
1040
2.5
1070
   147
1040
0.5
1070
   172
1070
     1
1070
   279
1070
     0
1070
   288
1070
     0
1002
}
  0
LINE
  5
64
330
2
100
AcDbEntity
  8
GAIKEI
  6
Continuous
 62
     1
100
AcDbLine
 10
29.67949104223874
 20
22.51884601071339
 30
0.0
 11
30.87949104223878
 21
22.51884601071339
 31
0.0
  0
LINE
  5
66
330
2
100
AcDbEntity
  8
GAIKEI
  6
Continuous
 62
     1
100
AcDbLine
 10
29.87949104223878
 20
22.38884601071339
 30
0.0
 11
29.67949104223874
 21
22.51884601071339
 31
0.0
  0
LINE
  5
67
330
2
100
AcDbEntity
  8
GAIKEI
  6
Continuous
 62
     1
100
AcDbLine
 10
30.67949104223874
 20
22.08884601071338
 30
0.0
 11
29.87949104223878
 21
22.08884601071338
 31
0.0
  0
LINE
  5
68
330
2
100
AcDbEntity
  8
GAIKEI
  6
Continuous
 62
     1
100
AcDbLine
 10
30.87949104223878
 20
22.58884601071338
 30
0.0
 11
30.87949104223878
 21
22.51884601071339
 31
0.0
  0
LINE
  5
69
330
2
100
AcDbEntity
  8
GAIKEI
  6
Continuous
 62
     1
100
AcDbLine
 10
30.67949104223874
 20
22.08884601071338
 30
0.0
 11
30.67949104223874
 21
22.42906815069336
 31
0.0
  0
LINE
  5
6A
330
2
100
AcDbEntity
  8
GAIKEI
  6
Continuous
 62
     1
100
AcDbLine
 10
30.27949104223876
 20
22.42906815069336
 30
0.0
 11
30.27949104223876
 21
22.1070445224334
 31
0.0
  0
LINE
  5
6B
330
2
100
AcDbEntity
  8
GAIKEI
  6
Continuous
 62
     1
100
AcDbLine
 10
29.87949104223878
 20
22.42906815069336
 30
0.0
 11
29.87949104223878
 21
22.08884601071338
 31
0.0
  0
LINE
  5
6C
330
2
100
AcDbEntity
  8
GAIKEI
  6
Continuous
 62
     1
100
AcDbLine
 10
29.67949104223874
 20
22.58884601071338
 30
0.0
 11
29.67949104223874
 21
22.51884601071339
 31
0.0
  0
LINE
  5
6D
330
2
100
AcDbEntity
  8
GAIKEI
  6
Continuous
 62
     1
100
AcDbLine
 10
30.67949104223874
 20
22.38884601071339
 30
0.0
 11
30.87949104223878
 21
22.51884601071339
 31
0.0
  0
LINE
  5
6E
330
2
100
AcDbEntity
  8
GAIKEI
  6
Continuous
100
AcDbLine
 10
37.27949104223876
 20
23.55884601071335
 30
0.0
 11
37.27949104223876
 21
23.78884601071337
 31
0.0
  0
LINE
  5
6F
330
2
100
AcDbEntity
  8
GAIKEI
  6
Continuous
100
AcDbLine
 10
35.57119823235877
 20
23.55884601071335
 30
0.0
 11
35.57119823235877
 21
23.55234601071339
 31
0.0
  0
LINE
  5
70
330
2
100
AcDbEntity
  8
GAIKEI
  6
Continuous
100
AcDbLine
 10
33.83520515117874
 20
18.52316398881339
 30
0.0
 11
33.00190742761879
 21
19.80632995777336
 31
0.0
  0
LINE
  5
71
330
2
100
AcDbEntity
  8
GAIKEI
  6
Continuous
 62
     1
100
AcDbLine
 10
30.60668866821874
 20
20.64891833305336
 30
0.0
 11
30.37574856053874
 21
21.04891833305339
 31
0.0
  0
LINE
  5
72
330
2
100
AcDbEntity
  8
GAIKEI
  6
Continuous
 62
     1
100
AcDbLine
 10
29.68292823751875
 20
20.64891833305336
 30
0.0
 11
29.91386834517874
 21
20.24891833305338
 31
0.0
  0
LINE
  5
73
330
2
100
AcDbEntity
  8
GAIKEI
  6
Continuous
100
AcDbLine
 10
31.57949104223877
 20
22.10786146139338
 30
0.0
 11
31.57949104223877
 21
22.14458194199335
 31
0.0
  0
LINE
  5
74
330
2
100
AcDbEntity
  8
GAIKEI
  6
Continuous
 62
     1
100
AcDbLine
 10
29.94137125759875
 20
17.51884601071339
 30
0.0
 11
29.71043114991875
 21
17.91884601071337
 31
0.0
  0
LINE
  5
75
330
2
100
AcDbEntity
  8
GAIKEI
  6
Continuous
100
AcDbLine
 10
25.98667071921875
 20
23.55884601071335
 30
0.0
 11
26.48030519937873
 21
22.70384601071339
 31
0.0
  0
LINE
  5
76
330
2
100
AcDbEntity
  8
GAIKEI
  6
Continuous
100
AcDbLine
 10
23.27949104223876
 20
23.55884601071335
 30
0.0
 11
37.27949104223876
 21
23.55884601071335
 31
0.0
  0
LINE
  5
77
330
2
100
AcDbEntity
  8
GAIKEI
  6
Continuous
100
AcDbLine
 10
35.57119823235877
 20
23.55234601071339
 30
0.0
 11
34.56855858851873
 21
23.55234601071339
 31
0.0
  0
LINE
  5
78
330
2
100
AcDbEntity
  8
GAIKEI
  6
Continuous
100
AcDbLine
 10
11.81818160805875
 20
23.54884601071336
 30
0.0
 11
11.62986288083874
 21
23.54226977585341
 31
0.0
  0
LINE
  5
79
330
2
100
AcDbEntity
  8
GAIKEI
  6
Continuous
100
AcDbLine
 10
31.39801092295875
 20
21.2540646278934
 30
0.0
 11
31.57949104223877
 21
22.10786146139338
 31
0.0
  0
LINE
  5
7A
330
2
100
AcDbEntity
  8
GAIKEI
  6
Continuous
 62
     1
100
AcDbLine
 10
31.11866865619874
 20
19.93986258885337
 30
0.0
 11
31.23917025519876
 21
20.50677803983337
 31
0.0
  0
LINE
  5
7B
330
2
100
AcDbEntity
  8
GAIKEI
  6
Continuous
 62
     1
100
AcDbLine
 10
30.34480845285873
 20
20.59891833305341
 30
0.0
 11
30.34480845285873
 21
20.69891833305337
 31
0.0
  0
LINE
  5
7C
330
2
100
AcDbEntity
  8
GAIKEI
  6
Continuous
 62
     1
100
AcDbLine
 10
30.19480845285875
 20
20.59891833305341
 30
0.0
 11
30.19480845285875
 21
20.24891833305338
 31
0.0
  0
LINE
  5
7D
330
2
100
AcDbEntity
  8
GAIKEI
  6
Continuous
 62
     1
100
AcDbLine
 10
30.19480845285875
 20
21.04891833305339
 30
0.0
 11
30.19480845285875
 21
20.69891833305337
 31
0.0
  0
LINE
  5
7E
330
2
100
AcDbEntity
  8
GAIKEI
  6
Continuous
 62
     1
100
AcDbLine
 10
30.09480845285873
 20
20.59891833305341
 30
0.0
 11
30.09480845285873
 21
20.24891833305338
 31
0.0
  0
LINE
  5
7F
330
2
100
AcDbEntity
  8
GAIKEI
  6
Continuous
 62
     1
100
AcDbLine
 10
30.09480845285873
 20
21.04891833305339
 30
0.0
 11
30.09480845285873
 21
20.69891833305337
 31
0.0
  0
LINE
  5
80
330
2
100
AcDbEntity
  8
GAIKEI
  6
Continuous
 62
     1
100
AcDbLine
 10
29.94480845285875
 20
20.69891833305337
 30
0.0
 11
29.94480845285875
 21
20.59891833305341
 31
0.0
  0
LINE
  5
81
330
2
100
AcDbEntity
  8
GAIKEI
  6
Continuous
 62
     1
100
AcDbLine
 10
29.01761082689876
 20
17.51884601071339
 30
0.0
 11
29.24855093455875
 21
17.11884601071341
 31
0.0
  0
LINE
  5
82
330
2
100
AcDbEntity
  8
GAIKEI
  6
Continuous
100
AcDbLine
 10
11.90644235985871
 20
23.46501205927336
 30
0.0
 11
11.80661283801873
 21
23.47374601071334
 31
0.0
  0
LINE
  5
83
330
2
100
AcDbEntity
  8
GAIKEI
  6
Continuous
100
AcDbLine
 10
33.87949104223878
 20
22.58884601071338
 30
0.0
 11
26.67949104223874
 21
22.58884601071338
 31
0.0
  0
LINE
  5
84
330
2
100
AcDbEntity
  8
GAIKEI
  6
Continuous
100
AcDbLine
 10
28.33949104223876
 20
22.21884601071338
 30
0.0
 11
28.68949104223873
 21
22.21884601071338
 31
0.0
  0
LINE
  5
85
330
2
100
AcDbEntity
  8
GAIKEI
  6
Continuous
100
AcDbLine
 10
34.57231136527878
 20
23.55884601071335
 30
0.0
 11
34.07867688511874
 21
22.70384601071339
 31
0.0
  0
LINE
  5
86
330
2
100
AcDbEntity
  8
GAIKEI
  6
Continuous
 62
     1
100
AcDbLine
 10
28.68949104223873
 20
20.14891833305336
 30
0.0
 11
28.68949104223873
 21
21.14891833305336
 31
0.0
  0
LINE
  5
87
330
2
100
AcDbEntity
  8
GAIKEI
  6
Continuous
100
AcDbLine
 10
28.68949104223873
 20
22.58884601071338
 30
0.0
 11
28.68949104223873
 21
22.21884601071338
 31
0.0
  0
LINE
  5
88
330
2
100
AcDbEntity
  8
GAIKEI
  6
Continuous
 62
     1
100
AcDbLine
 10
28.56949104223872
 20
21.14891833305336
 30
0.0
 11
28.56949104223872
 21
20.14891833305336
 31
0.0
  0
LINE
  5
89
330
2
100
AcDbEntity
  8
GAIKEI
  6
Continuous
100
AcDbLine
 10
28.33949104223876
 20
22.21884601071338
 30
0.0
 11
28.33949104223876
 21
18.9497246646934
 31
0.0
  0
LINE
  5
8A
330
2
100
AcDbEntity
  8
GAIKEI
  6
Continuous
 62
     1
100
AcDbLine
 10
28.33949104223876
 20
21.14891833305336
 30
0.0
 11
28.68949104223873
 21
21.14891833305336
 31
0.0
  0
LINE
  5
8B
330
2
100
AcDbEntity
  8
GAIKEI
  6
Continuous
 62
     1
100
AcDbLine
 10
29.91386834517874
 20
21.04891833305339
 30
0.0
 11
30.37574856053874
 21
21.04891833305339
 31
0.0
  0
LINE
  5
8C
330
2
100
AcDbEntity
  8
GAIKEI
  6
Continuous
 62
     1
100
AcDbLine
 10
30.09480845285873
 20
20.69891833305337
 30
0.0
 11
29.94480845285875
 21
20.69891833305337
 31
0.0
  0
LINE
  5
8D
330
2
100
AcDbEntity
  8
GAIKEI
  6
Continuous
 62
     1
100
AcDbLine
 10
30.34480845285873
 20
20.69891833305337
 30
0.0
 11
30.19480845285875
 21
20.69891833305337
 31
0.0
  0
LINE
  5
8E
330
2
100
AcDbEntity
  8
GAIKEI
  6
Continuous
 62
     1
100
AcDbLine
 10
30.19480845285875
 20
20.59891833305341
 30
0.0
 11
30.34480845285873
 21
20.59891833305341
 31
0.0
  0
LINE
  5
8F
330
2
100
AcDbEntity
  8
GAIKEI
  6
Continuous
 62
     1
100
AcDbLine
 10
29.94480845285875
 20
20.59891833305341
 30
0.0
 11
30.09480845285873
 21
20.59891833305341
 31
0.0
  0
LINE
  5
90
330
2
100
AcDbEntity
  8
GAIKEI
  6
Continuous
 62
     1
100
AcDbLine
 10
29.71043114991875
 20
17.11884601071341
 30
0.0
 11
29.94137125759875
 21
17.51884601071339
 31
0.0
  0
LINE
  5
91
330
2
100
AcDbEntity
  8
GAIKEI
  6
Continuous
100
AcDbLine
 10
29.16666085211875
 20
20.85683002387339
 30
0.0
 11
28.99492819419874
 21
20.04889139057338
 31
0.0
  0
LINE
  5
92
330
2
100
AcDbEntity
  8
GAIKEI
  6
Continuous
 62
     1
100
AcDbLine
 10
27.12949104223878
 20
14.48884601071336
 30
0.0
 11
27.12949104223878
 21
14.41884601071336
 31
0.0
  0
LINE
  5
93
330
2
100
AcDbEntity
  8
GAIKEI
  6
Continuous
 62
     1
100
AcDbLine
 10
26.99137125759876
 20
15.69884601071339
 30
0.0
 11
26.76043114991876
 21
16.09884601071337
 31
0.0
  0
LINE
  5
94
330
2
100
AcDbEntity
  8
GAIKEI
  6
Continuous
 62
     1
100
AcDbLine
 10
27.79677706197873
 20
14.60176293671338
 30
0.0
 11
27.57892144797876
 21
14.93723116389339
 31
0.0
  0
LINE
  5
95
330
2
100
AcDbEntity
  8
GAIKEI
  6
Continuous
 62
     1
100
AcDbLine
 10
29.91386834517874
 20
20.24891833305338
 30
0.0
 11
30.37574856053874
 21
20.24891833305338
 31
0.0
  0
LINE
  5
96
330
2
100
AcDbEntity
  8
GAIKEI
  6
Continuous
 62
     1
100
AcDbLine
 10
28.33949104223876
 20
20.14891833305336
 30
0.0
 11
28.68949104223873
 21
20.14891833305336
 31
0.0
  0
LINE
  5
97
330
2
100
AcDbEntity
  8
GAIKEI
  6
Continuous
 62
     1
100
AcDbLine
 10
29.24855093455875
 20
17.91884601071337
 30
0.0
 11
29.01761082689876
 21
17.51884601071339
 31
0.0
  0
LINE
  5
98
330
2
100
AcDbEntity
  8
GAIKEI
  6
Continuous
 62
     1
100
AcDbLine
 10
30.37574856053874
 20
20.24891833305338
 30
0.0
 11
30.60668866821874
 21
20.64891833305336
 31
0.0
  0
LINE
  5
99
330
2
100
AcDbEntity
  8
GAIKEI
  6
Continuous
 62
     1
100
AcDbLine
 10
26.76043114991876
 20
15.29884601071336
 30
0.0
 11
26.99137125759876
 21
15.69884601071339
 31
0.0
  0
LINE
  5
9A
330
2
100
AcDbEntity
  8
GAIKEI
  6
Continuous
 62
     1
100
AcDbLine
 10
29.91386834517874
 20
21.04891833305339
 30
0.0
 11
29.68292823751875
 21
20.64891833305336
 31
0.0
  0
LINE
  5
9B
330
2
100
AcDbEntity
  8
GAIKEI
  6
Continuous
 62
     1
100
AcDbLine
 10
26.99137125759876
 20
14.32906815069339
 30
0.0
 11
26.99137125759876
 21
14.00704452241336
 31
0.0
  0
LINE
  5
9C
330
2
100
AcDbEntity
  8
GAIKEI
  6
Continuous
 62
     1
100
AcDbLine
 10
26.76043114991876
 20
14.32906815069339
 30
0.0
 11
26.76043114991876
 21
14.00704452241336
 31
0.0
  0
LINE
  5
9D
330
2
100
AcDbEntity
  8
GAIKEI
  6
Continuous
 62
     1
100
AcDbLine
 10
26.72949104223875
 20
15.64884601071338
 30
0.0
 11
26.72949104223875
 21
15.74884601071341
 31
0.0
  0
LINE
  5
9E
330
2
100
AcDbEntity
  8
GAIKEI
  6
Continuous
 62
     1
100
AcDbLine
 10
26.57949104223877
 20
13.98884601071336
 30
0.0
 11
26.57949104223877
 21
14.16884601071337
 31
0.0
  0
LINE
  5
9F
330
2
100
AcDbEntity
  8
GAIKEI
  6
Continuous
 62
     1
100
AcDbLine
 10
26.57949104223877
 20
15.64884601071338
 30
0.0
 11
26.57949104223877
 21
15.29884601071336
 31
0.0
  0
LINE
  5
A0
330
2
100
AcDbEntity
  8
GAIKEI
  6
Continuous
 62
     1
100
AcDbLine
 10
26.57949104223877
 20
16.09884601071337
 30
0.0
 11
26.57949104223877
 21
15.74884601071341
 31
0.0
  0
LINE
  5
A1
330
2
100
AcDbEntity
  8
GAIKEI
  6
Continuous
 62
     1
100
AcDbLine
 10
26.47949104223875
 20
13.98884601071336
 30
0.0
 11
26.47949104223875
 21
14.16884601071337
 31
0.0
  0
LINE
  5
A2
330
2
100
AcDbEntity
  8
GAIKEI
  6
Continuous
 62
     1
100
AcDbLine
 10
26.47949104223875
 20
15.64884601071338
 30
0.0
 11
26.47949104223875
 21
15.29884601071336
 31
0.0
  0
LINE
  5
A3
330
2
100
AcDbEntity
  8
GAIKEI
  6
Continuous
 62
     1
100
AcDbLine
 10
26.47949104223875
 20
16.09884601071337
 30
0.0
 11
26.47949104223875
 21
15.74884601071341
 31
0.0
  0
LINE
  5
A4
330
2
100
AcDbEntity
  8
GAIKEI
  6
Continuous
 62
     1
100
AcDbLine
 10
26.32949104223877
 20
15.74884601071341
 30
0.0
 11
26.32949104223877
 21
15.64884601071338
 31
0.0
  0
LINE
  5
A5
330
2
100
AcDbEntity
  8
GAIKEI
  6
Continuous
 62
     1
100
AcDbLine
 10
26.29855093455876
 20
14.32906815069339
 30
0.0
 11
26.29855093455876
 21
14.00704452241336
 31
0.0
  0
LINE
  5
A6
330
2
100
AcDbEntity
  8
GAIKEI
  6
Continuous
 62
     1
100
AcDbLine
 10
26.06761082689877
 20
14.32906815069339
 30
0.0
 11
26.06761082689877
 21
14.00704452241336
 31
0.0
  0
LINE
  5
A7
330
2
100
AcDbEntity
  8
GAIKEI
  6
Continuous
 62
     1
100
AcDbLine
 10
25.92949104223874
 20
14.48884601071336
 30
0.0
 11
25.92949104223874
 21
14.41884601071336
 31
0.0
  0
LINE
  5
A8
330
2
100
AcDbEntity
  8
GAIKEI
  6
Continuous
 62
     1
100
AcDbLine
 10
26.06761082689877
 20
15.69884601071339
 30
0.0
 11
26.29855093455876
 21
15.29884601071336
 31
0.0
  0
LINE
  5
A9
330
2
100
AcDbEntity
  8
GAIKEI
  6
Continuous
 62
   251
100
AcDbLine
 10
9.329491042238714
 20
16.85798908177338
 30
0.0
 11
9.447896926385453
 21
16.85798908177338
 31
0.0
  0
LINE
  5
AA
330
2
100
AcDbEntity
  8
GAIKEI
  6
Continuous
 62
     1
100
AcDbLine
 10
29.71043114991875
 20
17.91884601071337
 30
0.0
 11
29.24855093455875
 21
17.91884601071337
 31
0.0
  0
LINE
  5
AB
330
2
100
AcDbEntity
  8
GAIKEI
  6
Continuous
 62
     1
100
AcDbLine
 10
26.99137125759876
 20
14.00704452241336
 30
0.0
 11
26.94137125759875
 21
13.98884601071336
 31
0.0
  0
LINE
  5
AC
330
2
100
AcDbEntity
  8
GAIKEI
  6
Continuous
100
AcDbLine
 10
27.68003811801873
 20
14.5259517800734
 30
0.0
 11
33.83520515117874
 21
18.52316398881339
 31
0.0
  0
LINE
  5
AD
330
2
100
AcDbEntity
  8
GAIKEI
  6
Continuous
 62
     1
100
AcDbLine
 10
27.67151008391875
 20
14.79465716733341
 30
0.0
 11
27.55477113997875
 21
14.71884601071337
 31
0.0
  0
LINE
  5
AE
330
2
100
AcDbEntity
  8
GAIKEI
  6
Continuous
 62
     1
100
AcDbLine
 10
27.57892144797876
 20
14.93723116389339
 30
0.0
 11
27.13689440035876
 21
14.65017544277339
 31
0.0
  0
LINE
  5
AF
330
2
100
AcDbEntity
  8
GAIKEI
  6
Continuous
 62
     1
100
AcDbLine
 10
26.99137125759876
 20
14.32906815069339
 30
0.0
 11
27.12949104223878
 21
14.41884601071336
 31
0.0
  0
LINE
  5
B0
330
2
100
AcDbEntity
  8
GAIKEI
  6
Continuous
 62
     1
100
AcDbLine
 10
26.29855093455876
 20
16.09884601071337
 30
0.0
 11
26.06761082689877
 21
15.69884601071339
 31
0.0
  0
LINE
  5
B1
330
2
100
AcDbEntity
  8
GAIKEI
  6
Continuous
100
AcDbLine
 10
25.62949104223879
 20
18.34782023817337
 30
0.0
 11
25.62949104223879
 21
13.4498717832534
 31
0.0
  0
LINE
  5
B2
330
2
100
AcDbEntity
  8
GAIKEI
  6
Continuous
 62
     1
100
AcDbLine
 10
26.06761082689877
 20
14.32906815069339
 30
0.0
 11
25.92949104223874
 21
14.41884601071336
 31
0.0
  0
LINE
  5
B3
330
2
100
AcDbEntity
  8
GAIKEI
  6
Continuous
 62
     1
100
AcDbLine
 10
29.24855093455875
 20
17.11884601071341
 30
0.0
 11
29.71043114991875
 21
17.11884601071341
 31
0.0
  0
LINE
  5
B4
330
2
100
AcDbEntity
  8
GAIKEI
  6
Continuous
100
AcDbLine
 10
31.66735900787876
 20
22.35671397635337
 30
0.0
 11
31.78162307659875
 21
22.47097804507337
 31
0.0
  0
LINE
  5
B5
330
2
100
AcDbEntity
  8
GAIKEI
  6
Continuous
100
AcDbLine
 10
23.27949104223876
 20
23.55884601071335
 30
0.0
 11
23.27949104223876
 21
23.78884601071337
 31
0.0
  0
LINE
  5
B6
330
2
100
AcDbEntity
  8
GAIKEI
  6
Continuous
 62
     1
100
AcDbLine
 10
26.06761082689877
 20
14.00704452241336
 30
0.0
 11
26.11761082689873
 21
13.98884601071336
 31
0.0
  0
LINE
  5
B7
330
2
100
AcDbEntity
  8
GAIKEI
  6
Continuous
 62
     1
100
AcDbLine
 10
26.29855093455876
 20
16.09884601071337
 30
0.0
 11
26.76043114991876
 21
16.09884601071337
 31
0.0
  0
LINE
  5
B8
330
2
100
AcDbEntity
  8
GAIKEI
  6
Continuous
 62
     1
100
AcDbLine
 10
10.08949104223876
 20
16.04884601071336
 30
0.0
 11
10.16949104223874
 21
16.04884601071336
 31
0.0
  0
LINE
  5
B9
330
2
100
AcDbEntity
  8
GAIKEI
  6
Continuous
 62
     1
100
AcDbLine
 10
10.21949104223875
 20
15.93884601071335
 30
0.0
 11
10.27949104223876
 21
15.93884601071335
 31
0.0
  0
LINE
  5
BA
330
2
100
AcDbEntity
  8
GAIKEI
  6
Continuous
 62
     1
100
AcDbLine
 10
9.979491042238748
 20
15.93884601071335
 30
0.0
 11
10.03949104223875
 21
15.93884601071335
 31
0.0
  0
LINE
  5
BB
330
2
100
AcDbEntity
  8
GAIKEI
  6
Continuous
 62
     1
100
AcDbLine
 10
10.03949104223875
 20
15.85884601071336
 30
0.0
 11
9.979491042238748
 21
15.85884601071336
 31
0.0
  0
LINE
  5
BC
330
2
100
AcDbEntity
  8
GAIKEI
  6
Continuous
 62
     1
100
AcDbLine
 10
10.27949104223876
 20
15.85884601071336
 30
0.0
 11
10.21949104223875
 21
15.85884601071336
 31
0.0
  0
LINE
  5
BD
330
2
100
AcDbEntity
  8
GAIKEI
  6
Continuous
 62
     1
100
AcDbLine
 10
10.16949104223874
 20
15.74884601071341
 30
0.0
 11
10.08949104223876
 21
15.74884601071341
 31
0.0
  0
LINE
  5
BE
330
2
100
AcDbEntity
  8
GAIKEI
  6
Continuous
 62
     1
100
AcDbLine
 10
26.47949104223875
 20
15.74884601071341
 30
0.0
 11
26.32949104223877
 21
15.74884601071341
 31
0.0
  0
LINE
  5
BF
330
2
100
AcDbEntity
  8
GAIKEI
  6
Continuous
 62
     1
100
AcDbLine
 10
26.72949104223875
 20
15.74884601071341
 30
0.0
 11
26.57949104223877
 21
15.74884601071341
 31
0.0
  0
LINE
  5
C0
330
2
100
AcDbEntity
  8
GAIKEI
  6
Continuous
 62
     1
100
AcDbLine
 10
26.57949104223877
 20
15.64884601071338
 30
0.0
 11
26.72949104223875
 21
15.64884601071338
 31
0.0
  0
LINE
  5
C1
330
2
100
AcDbEntity
  8
GAIKEI
  6
Continuous
 62
     1
100
AcDbLine
 10
26.32949104223877
 20
15.64884601071338
 30
0.0
 11
26.47949104223875
 21
15.64884601071338
 31
0.0
  0
LINE
  5
C2
330
2
100
AcDbEntity
  8
GAIKEI
  6
Continuous
100
AcDbLine
 10
28.12791106275876
 20
18.78737363631336
 30
0.0
 11
25.63485200723875
 21
17.16836215537336
 31
0.0
  0
LINE
  5
C3
330
2
100
AcDbEntity
  8
GAIKEI
  6
Continuous
 62
     1
100
AcDbLine
 10
26.29855093455876
 20
15.29884601071336
 30
0.0
 11
26.76043114991876
 21
15.29884601071336
 31
0.0
  0
LINE
  5
C4
330
2
100
AcDbEntity
  8
GAIKEI
  6
Continuous
 62
     1
100
AcDbLine
 10
27.55477113997875
 20
14.71884601071337
 30
0.0
 11
27.24263780197873
 21
14.71884601071337
 31
0.0
  0
LINE
  5
C5
330
2
100
AcDbEntity
  8
GAIKEI
  6
Continuous
100
AcDbLine
 10
25.62949104223879
 20
14.48884601071336
 30
0.0
 11
27.55477113997875
 21
14.48884601071336
 31
0.0
  0
LINE
  5
C6
330
2
100
AcDbEntity
  8
GAIKEI
  6
Continuous
 62
     1
100
AcDbLine
 10
25.92949104223874
 20
14.41884601071336
 30
0.0
 11
27.12949104223878
 21
14.41884601071336
 31
0.0
  0
LINE
  5
C7
330
2
100
AcDbEntity
  8
GAIKEI
  6
Continuous
 62
     1
100
AcDbLine
 10
26.47949104223875
 20
14.16884601071337
 30
0.0
 11
26.57949104223877
 21
14.16884601071337
 31
0.0
  0
LINE
  5
C8
330
2
100
AcDbEntity
  8
GAIKEI
  6
Continuous
 62
     1
100
AcDbLine
 10
26.47949104223875
 20
13.98884601071336
 30
0.0
 11
26.11762347057874
 21
13.98884601071336
 31
0.0
  0
LINE
  5
C9
330
2
100
AcDbEntity
  8
GAIKEI
  6
Continuous
 62
     1
100
AcDbLine
 10
26.94135861391874
 20
13.98884601071336
 30
0.0
 11
26.57949104223877
 21
13.98884601071336
 31
0.0
  0
LINE
  5
CA
330
2
100
AcDbEntity
  8
GAIKEI
  6
Continuous
 62
   251
100
AcDbLine
 10
9.329491042238714
 20
14.9388460107134
 30
0.0
 11
9.44792984202553
 21
14.9388460107134
 31
0.0
  0
LINE
  5
CB
330
2
100
AcDbEntity
  8
GAIKEI
  6
Continuous
100
AcDbLine
 10
11.90644235985871
 20
8.332679962153349
 30
0.0
 11
11.80661283801873
 21
8.32394601071337
 31
0.0
  0
LINE
  5
CC
330
2
100
AcDbEntity
  8
GAIKEI
  6
Continuous
100
AcDbLine
 10
11.81818160805875
 20
8.248846010713407
 30
0.0
 11
11.62986288083874
 21
8.255422245573413
 31
0.0
  0
LINE
  5
CD
330
2
100
AcDbEntity
  8
GAIKEI
  6
Continuous
 62
     1
100
AcDbLine
 10
10.27949104223876
 20
15.93884601071335
 30
0.0
 11
10.27949104223876
 21
15.85884601071336
 31
0.0
  0
LINE
  5
CE
330
2
100
AcDbEntity
  8
GAIKEI
  6
Continuous
 62
     1
100
AcDbLine
 10
10.16949104223874
 20
15.80884601071335
 30
0.0
 11
10.16949104223874
 21
15.74884601071341
 31
0.0
  0
LINE
  5
CF
330
2
100
AcDbEntity
  8
GAIKEI
  6
Continuous
 62
     1
100
AcDbLine
 10
10.16949104223874
 20
16.04884601071336
 30
0.0
 11
10.16949104223874
 21
15.98884601071336
 31
0.0
  0
LINE
  5
D0
330
2
100
AcDbEntity
  8
GAIKEI
  6
Continuous
 62
     1
100
AcDbLine
 10
10.08949104223876
 20
15.98884601071336
 30
0.0
 11
10.08949104223876
 21
16.04884601071336
 31
0.0
  0
LINE
  5
D1
330
2
100
AcDbEntity
  8
GAIKEI
  6
Continuous
 62
     1
100
AcDbLine
 10
10.08949104223876
 20
15.74884601071341
 30
0.0
 11
10.08949104223876
 21
15.80884601071335
 31
0.0
  0
LINE
  5
D2
330
2
100
AcDbEntity
  8
GAIKEI
  6
Continuous
 62
     1
100
AcDbLine
 10
9.979491042238748
 20
15.85884601071336
 30
0.0
 11
9.979491042238748
 21
15.93884601071335
 31
0.0
  0
LINE
  5
D3
330
2
100
AcDbEntity
  8
GAIKEI
  6
Continuous
 62
   251
100
AcDbLine
 10
9.329491042238714
 20
14.9388460107134
 30
0.0
 11
9.329491042238714
 21
16.85798908177338
 31
0.0
  0
LINE
  5
D4
330
2
100
AcDbEntity
  8
GAIKEI
  6
Continuous
100
AcDbLine
 10
23.27949104223876
 20
23.78884601071337
 30
0.0
 11
37.27949104223876
 21
23.78884601071337
 31
0.0
  0
ARC
  5
D5
330
2
100
AcDbEntity
  8
GAIKEI
  6
Continuous
 62
     1
100
AcDbCircle
 10
61.22949104223875
 20
15.89884601071338
 30
0.0
 40
49.90000000004471
100
AcDbArc
 50
171.1814170882425
 51
188.8185829117574
  0
ARC
  5
D6
330
2
100
AcDbEntity
  8
GAIKEI
  6
Continuous
100
AcDbCircle
 10
25.52949104223876
 20
13.4498717832534
 30
0.0
 40
0.0999999999977483
100
AcDbArc
 50
305.8767808862354
 51
0.0
  0
ARC
  5
D7
330
2
100
AcDbEntity
  8
GAIKEI
  6
Continuous
100
AcDbCircle
 10
25.52949104223876
 20
18.34782023817337
 30
0.0
 40
0.1
100
AcDbArc
 50
0.0
 51
54.12321919181394
  0
ARC
  5
D8
330
2
100
AcDbEntity
  8
GAIKEI
  6
Continuous
100
AcDbCircle
 10
10.35086391839877
 20
-2.638348507826606
 30
0.0
 40
25.99999999999992
100
AcDbArc
 50
54.12298384219883
 51
74.35885929111226
  0
ARC
  5
D9
330
2
100
AcDbEntity
  8
GAIKEI
  6
Continuous
100
AcDbCircle
 10
5.767458780778724
 20
-19.00882184686662
 30
0.0
 40
43.00000000000003
100
AcDbArc
 50
74.35884222189961
 51
81.77459537539959
  0
ARC
  5
DA
330
2
100
AcDbEntity
  8
GAIKEI
  6
Continuous
100
AcDbCircle
 10
5.767458780778724
 20
50.80651386829339
 30
0.0
 40
43.00000000000008
100
AcDbArc
 50
278.2254046246003
 51
285.6411577785303
  0
ARC
  5
DB
330
2
100
AcDbEntity
  8
GAIKEI
  6
Continuous
100
AcDbCircle
 10
10.35086391839877
 20
34.43604052925337
 30
0.0
 40
25.99999999999994
100
AcDbArc
 50
285.6411407096013
 51
305.8770161580995
  0
ARC
  5
DC
330
2
100
AcDbEntity
  8
GAIKEI
  6
Continuous
100
AcDbCircle
 10
11.6333528302257
 20
23.44233069309104
 30
0.0
 40
0.1000000000505152
100
AcDbArc
 50
91.99999983659393
 51
105.630419585421
  0
ARC
  5
DD
330
2
100
AcDbEntity
  8
GAIKEI
  6
Continuous
100
AcDbCircle
 10
11.63335283049872
 20
8.355361328273374
 30
0.0
 40
0.0999999999999883
100
AcDbArc
 50
254.3698442856395
 51
268.0000000058297
  0
ARC
  5
DE
330
2
100
AcDbEntity
  8
GAIKEI
  6
Continuous
100
AcDbCircle
 10
10.51732937027873
 20
22.84280195623336
 30
0.0
 40
0.1000000000000502
100
AcDbArc
 50
130.8593268935254
 51
163.8072698456992
  0
ARC
  5
DF
330
2
100
AcDbEntity
  8
GAIKEI
  6
Continuous
100
AcDbCircle
 10
10.51732937027873
 20
8.954890065173401
 30
0.0
 40
0.1000000000098085
100
AcDbArc
 50
196.1927568933305
 51
229.140913633871
  0
ARC
  5
E0
330
2
100
AcDbEntity
  8
GAIKEI
  6
Continuous
100
AcDbCircle
 10
12.41459507267876
 20
20.64954345473336
 30
0.0
 40
2.999999999999923
100
AcDbArc
 50
105.6282760902977
 51
130.8611920313984
  0
ARC
  5
E1
330
2
100
AcDbEntity
  8
GAIKEI
  6
Continuous
 62
     1
100
AcDbCircle
 10
61.22949104223875
 20
15.89884601071338
 30
0.0
 40
50.00000000000285
100
AcDbArc
 50
171.1991788112339
 51
188.800821188766
  0
ARC
  5
E2
330
2
100
AcDbEntity
  8
GAIKEI
  6
Continuous
100
AcDbCircle
 10
12.41459507267876
 20
11.14814856669335
 30
0.0
 40
3.000000000000085
100
AcDbArc
 50
229.1388161180009
 51
254.3717327024021
  0
ARC
  5
E3
330
2
100
AcDbEntity
  8
GAIKEI
  6
Continuous
100
AcDbCircle
 10
34.42949104223874
 20
15.89884601071338
 30
0.0
 40
25.00000000000001
100
AcDbArc
 50
163.8070040030005
 51
196.1929961039992
  0
ARC
  5
E4
330
2
100
AcDbEntity
  8
GAIKEI
  6
Continuous
100
AcDbCircle
 10
32.16323685967876
 20
19.26169092275336
 30
0.0
 40
0.2750000000078171
100
AcDbArc
 50
212.9999999969188
 51
33.00000000306618
  0
ARC
  5
E5
330
2
100
AcDbEntity
  8
GAIKEI
  6
Continuous
100
AcDbCircle
 10
27.55477113997875
 20
14.71884601071337
 30
0.0
 40
0.2300000000000125
100
AcDbArc
 50
270.0
 51
302.9999999954851
  0
ARC
  5
E6
330
2
100
AcDbEntity
  8
GAIKEI
  6
Continuous
 62
     1
100
AcDbCircle
 10
26.59225536533876
 20
15.48884601071336
 30
0.0
 40
1.0
100
AcDbArc
 50
270.0
 51
303.0000000004085
  0
ARC
  5
E7
330
2
100
AcDbEntity
  8
GAIKEI
  6
Continuous
100
AcDbCircle
 10
29.47949104223875
 20
17.51884601071339
 30
0.0
 40
4.200000000006045
100
AcDbArc
 50
32.99999999989719
 51
77.99999999993379
  0
ARC
  5
E8
330
2
100
AcDbEntity
  8
GAIKEI
  6
Continuous
100
AcDbCircle
 10
30.14480845285874
 20
20.64891833305336
 30
0.0
 40
0.9999999999999946
100
AcDbArc
 50
77.99999999999703
 51
167.9999999999472
  0
ARC
  5
E9
330
2
100
AcDbEntity
  8
GAIKEI
  6
Continuous
100
AcDbCircle
 10
29.47949104223875
 20
17.51884601071339
 30
0.0
 40
3.475000000000034
100
AcDbArc
 50
32.99999999999835
 51
68.82766731143779
  0
ARC
  5
EA
330
2
100
AcDbEntity
  8
GAIKEI
  6
Continuous
100
AcDbCircle
 10
29.47949104223875
 20
17.51884601071339
 30
0.0
 40
2.925000000000054
100
AcDbArc
 50
33.00000000000108
 51
68.0004206216236
  0
ARC
  5
EB
330
2
100
AcDbEntity
  8
GAIKEI
  6
Continuous
100
AcDbCircle
 10
27.03863299271876
 20
20.46471477221337
 30
0.0
 40
2.000000000013094
100
AcDbArc
 50
303.0000000000951
 51
347.9999999999472
  0
ARC
  5
EC
330
2
100
AcDbEntity
  8
GAIKEI
  6
Continuous
100
AcDbCircle
 10
31.56949104223873
 20
22.68311007941338
 30
0.0
 40
0.2999999999915636
100
AcDbArc
 50
315.0000000027014
 51
341.678582000621
  0
ARC
  5
ED
330
2
100
AcDbEntity
  8
GAIKEI
  6
Continuous
100
AcDbCircle
 10
31.87949104223879
 20
22.14458194199335
 30
0.0
 40
0.300000000005704
100
AcDbArc
 50
135.0
 51
180.0
  0
ARC
  5
EE
330
2
100
AcDbEntity
  8
GAIKEI
  6
Continuous
100
AcDbCircle
 10
26.67949104223874
 20
22.8188460107134
 30
0.0
 40
0.2299999999909756
100
AcDbArc
 50
210.0000000012977
 51
270.0
  0
ARC
  5
EF
330
2
100
AcDbEntity
  8
GAIKEI
  6
Continuous
100
AcDbCircle
 10
33.87949104223878
 20
22.8188460107134
 30
0.0
 40
0.2300000000000011
100
AcDbArc
 50
270.0
 51
330.0000000011916
  0
ARC
  5
F0
330
2
100
AcDbEntity
  8
GAIKEI
  6
Continuous
 62
     1
100
AcDbCircle
 10
26.52949104223876
 20
15.69884601071339
 30
0.0
 40
0.4118802153600477
100
AcDbArc
 50
103.7947482709896
 51
136.2052517289957
  0
ARC
  5
F1
330
2
100
AcDbEntity
  8
GAIKEI
  6
Continuous
 62
     1
100
AcDbCircle
 10
26.52949104223876
 20
15.69884601071339
 30
0.0
 40
0.4118802153599728
100
AcDbArc
 50
343.7947482709919
 51
16.20525172900804
  0
ARC
  5
F2
330
2
100
AcDbEntity
  8
GAIKEI
  6
Continuous
 62
     1
100
AcDbCircle
 10
26.52949104223876
 20
15.69884601071339
 30
0.0
 40
0.4118802153600436
100
AcDbArc
 50
223.7947482710043
 51
256.2052517290104
  0
ARC
  5
F3
330
2
100
AcDbEntity
  8
GAIKEI
  6
Continuous
 62
     1
100
AcDbCircle
 10
26.52949104223876
 20
15.69884601071339
 30
0.0
 40
0.4118802153600317
100
AcDbArc
 50
43.7947482710043
 51
76.20525172901034
  0
ARC
  5
F4
330
2
100
AcDbEntity
  8
GAIKEI
  6
Continuous
 62
     1
100
AcDbCircle
 10
26.52949104223876
 20
15.69884601071339
 30
0.0
 40
0.4118802153599685
100
AcDbArc
 50
163.7947482709919
 51
196.205251729008
  0
ARC
  5
F5
330
2
100
AcDbEntity
  8
GAIKEI
  6
Continuous
 62
     1
100
AcDbCircle
 10
26.52949104223876
 20
15.69884601071339
 30
0.0
 40
0.4118802153600539
100
AcDbArc
 50
283.7947482709897
 51
316.2052517289957
  0
ARC
  5
F6
330
2
100
AcDbEntity
  8
GAIKEI
  6
Continuous
 62
     1
100
AcDbCircle
 10
30.14480845285874
 20
20.64891833305336
 30
0.0
 40
0.4118802153600533
100
AcDbArc
 50
103.7947482709896
 51
136.2052517289957
  0
ARC
  5
F7
330
2
100
AcDbEntity
  8
GAIKEI
  6
Continuous
 62
     1
100
AcDbCircle
 10
30.14480845285874
 20
20.64891833305336
 30
0.0
 40
0.4118802153599728
100
AcDbArc
 50
343.7947482709919
 51
16.20525172900401
  0
ARC
  5
F8
330
2
100
AcDbEntity
  8
GAIKEI
  6
Continuous
 62
     1
100
AcDbCircle
 10
30.14480845285874
 20
20.64891833305336
 30
0.0
 40
0.4118802153600436
100
AcDbArc
 50
223.7947482710043
 51
256.2052517290104
  0
ARC
  5
F9
330
2
100
AcDbEntity
  8
GAIKEI
  6
Continuous
 62
     1
100
AcDbCircle
 10
30.14480845285874
 20
20.64891833305336
 30
0.0
 40
0.4118802153600357
100
AcDbArc
 50
43.7947482710043
 51
76.20525172901034
  0
ARC
  5
FA
330
2
100
AcDbEntity
  8
GAIKEI
  6
Continuous
 62
     1
100
AcDbCircle
 10
30.14480845285874
 20
20.64891833305336
 30
0.0
 40
0.4118802153599669
100
AcDbArc
 50
163.794748270996
 51
196.205251729008
  0
ARC
  5
FB
330
2
100
AcDbEntity
  8
GAIKEI
  6
Continuous
 62
     1
100
AcDbCircle
 10
30.14480845285874
 20
20.64891833305336
 30
0.0
 40
0.4118802153600649
100
AcDbArc
 50
283.7947482709897
 51
316.2052517289957
  0
ARC
  5
FC
330
2
100
AcDbEntity
  8
GAIKEI
  6
Continuous
 62
     1
100
AcDbCircle
 10
29.47949104223875
 20
17.51884601071339
 30
0.0
 40
0.4118802153600397
100
AcDbArc
 50
223.7947482710043
 51
256.2052517290104
  0
ARC
  5
FD
330
2
100
AcDbEntity
  8
GAIKEI
  6
Continuous
 62
     1
100
AcDbCircle
 10
29.47949104223875
 20
17.51884601071339
 30
0.0
 40
0.4118802153600357
100
AcDbArc
 50
43.7947482710043
 51
76.20525172901034
  0
ARC
  5
FE
330
2
100
AcDbEntity
  8
GAIKEI
  6
Continuous
 62
     1
100
AcDbCircle
 10
29.47949104223875
 20
17.51884601071339
 30
0.0
 40
0.4118802153599712
100
AcDbArc
 50
343.7947482709919
 51
16.20525172900401
  0
ARC
  5
FF
330
2
100
AcDbEntity
  8
GAIKEI
  6
Continuous
 62
     1
100
AcDbCircle
 10
29.47949104223875
 20
17.51884601071339
 30
0.0
 40
0.4118802153600422
100
AcDbArc
 50
103.7947482709896
 51
136.2052517289957
  0
ARC
  5
100
330
2
100
AcDbEntity
  8
GAIKEI
  6
Continuous
 62
     1
100
AcDbCircle
 10
29.47949104223875
 20
17.51884601071339
 30
0.0
 40
0.4118802153600594
100
AcDbArc
 50
283.7947482709897
 51
316.2052517289957
  0
ARC
  5
101
330
2
100
AcDbEntity
  8
GAIKEI
  6
Continuous
 62
     1
100
AcDbCircle
 10
29.47949104223875
 20
17.51884601071339
 30
0.0
 40
0.4118802153599669
100
AcDbArc
 50
163.794748270996
 51
196.205251729008
  0
ARC
  5
102
330
2
100
AcDbEntity
  8
GAIKEI
  6
Continuous
 62
     1
100
AcDbCircle
 10
10.21949104223875
 20
15.80884601071335
 30
0.0
 40
0.05
100
AcDbArc
 50
90.0
 51
180.0
  0
ARC
  5
103
330
2
100
AcDbEntity
  8
GAIKEI
  6
Continuous
 62
     1
100
AcDbCircle
 10
10.21949104223875
 20
15.98884601071336
 30
0.0
 40
0.05
100
AcDbArc
 50
180.0
 51
270.0
  0
ARC
  5
104
330
2
100
AcDbEntity
  8
GAIKEI
  6
Continuous
 62
     1
100
AcDbCircle
 10
10.03949104223875
 20
15.80884601071335
 30
0.0
 40
0.05
100
AcDbArc
 50
0.0
 51
90.0
  0
ARC
  5
105
330
2
100
AcDbEntity
  8
GAIKEI
  6
Continuous
 62
     1
100
AcDbCircle
 10
10.03949104223875
 20
15.98884601071336
 30
0.0
 40
0.05
100
AcDbArc
 50
270.0
 51
0.0
  0
CIRCLE
  5
106
330
2
100
AcDbEntity
  8
GAIKEI
  6
Continuous
 62
     1
100
AcDbCircle
 10
10.12949104223872
 20
15.89884601071338
 30
0.0
 40
0.35
  0
CIRCLE
  5
107
330
2
100
AcDbEntity
  8
GAIKEI
  6
Continuous
 62
     1
100
AcDbCircle
 10
26.52949104223876
 20
15.69884601071339
 30
0.0
 40
0.6000000000000001
  0
CIRCLE
  5
108
330
2
100
AcDbEntity
  8
GAIKEI
  6
Continuous
 62
     1
100
AcDbCircle
 10
30.14480845285874
 20
20.64891833305336
 30
0.0
 40
0.6000000000000001
  0
CIRCLE
  5
109
330
2
100
AcDbEntity
  8
GAIKEI
  6
Continuous
 62
     1
100
AcDbCircle
 10
10.12949104223872
 20
15.89884601071338
 30
0.0
 40
0.2150000000000038
  0
SPLINE
  5
10A
330
2
100
AcDbEntity
  8
GAIKEI
  6
Continuous
 62
     1
100
AcDbSpline
210
0.0
220
0.0
230
1.0
 70
     8
 71
     3
 72
     9
 73
     5
 74
     3
 42
0.0000000001
 43
0.0000000001
 44
0.00000001
 40
0.0
 40
0.0
 40
0.0
 40
0.0
 40
0.0582116986878275
 40
0.1164207786031637
 40
0.1164207786031637
 40
0.1164207786031637
 40
0.1164207786031637
 10
30.27949104223876
 20
22.1070445224334
 30
0.0
 10
30.26045488252635
 20
22.10323993883901
 30
0.0
 10
30.22238341609205
 20
22.09563096250485
 30
0.0
 10
30.18382343186011
 20
22.09110762080076
 30
0.0
 10
30.16454387199883
 20
22.08884601071338
 30
0.0
 11
30.27949104223876
 21
22.1070445224334
 31
0.0
 11
30.22226042633122
 21
22.09640222483341
 31
0.0
 11
30.16454387199883
 21
22.08884601071338
 31
0.0
  0
SPLINE
  5
10B
330
2
100
AcDbEntity
  8
GAIKEI
  6
Continuous
 62
     1
100
AcDbSpline
210
0.0
220
0.0
230
1.0
 70
     8
 71
     3
 72
    11
 73
     7
 74
     5
 42
0.0000000001
 43
0.0000000001
 44
0.00000001
 40
0.0
 40
0.0
 40
0.0
 40
0.0
 40
0.1024281171943091
 40
0.2048509629244055
 40
0.3072736936018883
 40
0.4097016946942816
 40
0.4097016946942816
 40
0.4097016946942816
 40
0.4097016946942816
 10
30.27949104223876
 20
22.42906815069336
 30
0.0
 10
30.31190831855236
 20
22.41811123073524
 30
0.0
 10
30.37674120687143
 20
22.39619796900399
 30
0.0
 10
30.47949112106784
 20
22.38517013210008
 30
0.0
 10
30.58224098863011
 20
22.39619800521729
 30
0.0
 10
30.64707380304404
 20
22.41811124284379
 30
0.0
 10
30.6794910422388
 20
22.42906815069336
 30
0.0
 11
30.27949104223876
 21
22.42906815069336
 31
0.0
 11
30.37765983761796
 21
22.39983790877472
 31
0.0
 11
30.47949115823878
 21
22.38884601071334
 31
0.0
 11
30.58132236037471
 21
22.39983793438034
 31
0.0
 11
30.6794910422388
 21
22.42906815069336
 31
0.0
  0
SPLINE
  5
10C
330
2
100
AcDbEntity
  8
GAIKEI
  6
Continuous
 62
     1
100
AcDbSpline
210
0.0
220
0.0
230
1.0
 70
     8
 71
     3
 72
     9
 73
     5
 74
     3
 42
0.0000000001
 43
0.0000000001
 44
0.00000001
 40
0.0
 40
0.0
 40
0.0
 40
0.0
 40
0.0582090978218626
 40
0.1164207786516282
 40
0.1164207786516282
 40
0.1164207786516282
 40
0.1164207786516282
 10
30.39443821249875
 20
22.08884601071338
 30
0.0
 10
30.37515864667572
 20
22.09110762131189
 30
0.0
 10
30.33659866236596
 20
22.09563096264867
 30
0.0
 10
30.29852719604619
 20
22.10323993966619
 30
0.0
 10
30.27949104223876
 20
22.1070445224334
 30
0.0
 11
30.39443821249875
 21
22.08884601071338
 31
0.0
 11
30.33672164040422
 21
22.0964022271034
 31
0.0
 11
30.27949104223876
 21
22.1070445224334
 31
0.0
  0
SPLINE
  5
10D
330
2
100
AcDbEntity
  8
GAIKEI
  6
Continuous
 62
     1
100
AcDbSpline
210
0.0
220
0.0
230
1.0
 70
     8
 71
     3
 72
     9
 73
     5
 74
     3
 42
0.0000000001
 43
0.0000000001
 44
0.00000001
 40
0.0
 40
0.0
 40
0.0
 40
0.0
 40
0.0582116986878834
 40
0.1164207786032196
 40
0.1164207786032196
 40
0.1164207786032196
 40
0.1164207786032196
 10
30.6794910422388
 20
22.1070445224334
 30
0.0
 10
30.66045488252636
 20
22.10323993883895
 30
0.0
 10
30.62238341609202
 20
22.09563096250491
 30
0.0
 10
30.58382343186011
 20
22.09110762080076
 30
0.0
 10
30.56454387199881
 20
22.08884601071338
 30
0.0
 11
30.6794910422388
 21
22.1070445224334
 31
0.0
 11
30.6222604263312
 21
22.09640222483341
 31
0.0
 11
30.56454387199881
 21
22.08884601071338
 31
0.0
  0
SPLINE
  5
10E
330
2
100
AcDbEntity
  8
GAIKEI
  6
Continuous
 62
     1
100
AcDbSpline
210
0.0
220
0.0
230
1.0
 70
     8
 71
     3
 72
    11
 73
     7
 74
     5
 42
0.0000000001
 43
0.0000000001
 44
0.00000001
 40
0.0
 40
0.0
 40
0.0
 40
0.0
 40
0.1024281171943091
 40
0.204850962924349
 40
0.3072736936018317
 40
0.409701694694225
 40
0.409701694694225
 40
0.409701694694225
 40
0.409701694694225
 10
29.87949104223878
 20
22.42906815069336
 30
0.0
 10
29.91190831855235
 20
22.41811123073524
 30
0.0
 10
29.97674120687151
 20
22.39619796900405
 30
0.0
 10
30.07949112106781
 20
22.38517013209997
 30
0.0
 10
30.1822409886301
 20
22.39619800521729
 30
0.0
 10
30.24707380304398
 20
22.41811124284374
 30
0.0
 10
30.27949104223876
 20
22.42906815069336
 30
0.0
 11
29.87949104223878
 21
22.42906815069336
 31
0.0
 11
29.97765983761798
 21
22.39983790877472
 31
0.0
 11
30.07949115823874
 21
22.38884601071334
 31
0.0
 11
30.18132236037468
 21
22.39983793438034
 31
0.0
 11
30.27949104223876
 21
22.42906815069336
 31
0.0
  0
SPLINE
  5
10F
330
2
100
AcDbEntity
  8
GAIKEI
  6
Continuous
 62
     1
100
AcDbSpline
210
0.0
220
0.0
230
1.0
 70
     8
 71
     3
 72
     9
 73
     5
 74
     3
 42
0.0000000001
 43
0.0000000001
 44
0.00000001
 40
0.0
 40
0.0
 40
0.0
 40
0.0
 40
0.0582090978218626
 40
0.1164207786516282
 40
0.1164207786516282
 40
0.1164207786516282
 40
0.1164207786516282
 10
29.99443821249878
 20
22.08884601071338
 30
0.0
 10
29.97515864667574
 20
22.09110762131189
 30
0.0
 10
29.93659866236595
 20
22.09563096264867
 30
0.0
 10
29.89852719604625
 20
22.10323993966619
 30
0.0
 10
29.87949104223878
 20
22.1070445224334
 30
0.0
 11
29.99443821249878
 21
22.08884601071338
 31
0.0
 11
29.93672164040424
 21
22.0964022271034
 31
0.0
 11
29.87949104223878
 21
22.1070445224334
 31
0.0
  0
SPLINE
  5
110
330
2
100
AcDbEntity
  8
GAIKEI
  6
Continuous
 62
     1
100
AcDbSpline
210
0.0
220
0.0
230
1.0
 70
     8
 71
     3
 72
     9
 73
     5
 74
     3
 42
0.0000000001
 43
0.0000000001
 44
0.00000001
 40
0.0
 40
0.0
 40
0.0
 40
0.0
 40
0.0344385020319317
 40
0.068882264914309
 40
0.068882264914309
 40
0.068882264914309
 40
0.068882264914309
 10
26.82679592959881
 20
13.98884601071336
 30
0.0
 10
26.81553440505124
 20
13.99114377592184
 30
0.0
 10
26.79300964048966
 20
13.99573967671438
 30
0.0
 10
26.77129119778576
 20
14.00327604227334
 30
0.0
 10
26.76043114991876
 20
14.00704452241336
 30
0.0
 11
26.82679592959881
 21
13.98884601071336
 31
0.0
 11
26.79321290783776
 21
13.99647431996823
 31
0.0
 11
26.76043114991876
 21
14.00704452241336
 31
0.0
  0
SPLINE
  5
111
330
2
100
AcDbEntity
  8
GAIKEI
  6
Continuous
 62
     1
100
AcDbSpline
210
0.0
220
0.0
230
1.0
 70
     8
 71
     3
 72
    11
 73
     7
 74
     5
 42
0.0000000001
 43
0.0000000001
 44
0.00000001
 40
0.0
 40
0.0
 40
0.0
 40
0.0
 40
0.0617780673729021
 40
0.1235739681012828
 40
0.1853698018343487
 40
0.2471478034369006
 40
0.2471478034369006
 40
0.2471478034369006
 40
0.2471478034369006
 10
26.76043114991876
 20
14.32906815069339
 30
0.0
 10
26.77820382066625
 20
14.31850174922181
 30
0.0
 10
26.81375429901243
 20
14.29736590915081
 30
0.0
 10
26.87590125073024
 20
14.28458545260054
 30
0.0
 10
26.93804816556599
 20
14.29736594574086
 30
0.0
 10
26.97359860575415
 20
14.31850176134856
 30
0.0
 10
26.99137125759876
 20
14.32906815069339
 30
0.0
 11
26.76043114991876
 21
14.32906815069339
 31
0.0
 11
26.81521845304962
 21
14.30052202503572
 31
0.0
 11
26.87590127071883
 21
14.28884601071343
 31
0.0
 11
26.93658401520662
 21
14.30052205079943
 31
0.0
 11
26.99137125759876
 21
14.32906815069339
 31
0.0
  0
SPLINE
  5
112
330
2
100
AcDbEntity
  8
GAIKEI
  6
Continuous
 62
     1
100
AcDbSpline
210
0.0
220
0.0
230
1.0
 70
     8
 71
     3
 72
     9
 73
     5
 74
     3
 42
0.0000000001
 43
0.0000000001
 44
0.00000001
 40
0.0
 40
0.0
 40
0.0
 40
0.0
 40
0.1175431990361133
 40
0.2351577691290002
 40
0.2351577691290002
 40
0.2351577691290002
 40
0.2351577691290002
 10
26.52949104223876
 20
14.28884601071337
 30
0.0
 10
26.56876934642006
 20
14.29095389825619
 30
0.0
 10
26.64734980154654
 20
14.29517097294513
 30
0.0
 10
26.72272974251518
 20
14.31776679899474
 30
0.0
 10
26.76043114991876
 20
14.32906815069339
 30
0.0
 11
26.52949104223876
 21
14.28884601071337
 31
0.0
 11
26.64652631093827
 21
14.29976158246069
 31
0.0
 11
26.76043114991876
 21
14.32906815069339
 31
0.0
  0
SPLINE
  5
113
330
2
100
AcDbEntity
  8
GAIKEI
  6
Continuous
 62
     1
100
AcDbSpline
210
0.0
220
0.0
230
1.0
 70
     8
 71
     3
 72
     9
 73
     5
 74
     3
 42
0.0000000001
 43
0.0000000001
 44
0.00000001
 40
0.0
 40
0.0
 40
0.0
 40
0.0
 40
0.1176157418906832
 40
0.2351577576602537
 40
0.2351577576602537
 40
0.2351577576602537
 40
0.2351577576602537
 10
26.29855093455876
 20
14.32906815069339
 30
0.0
 10
26.33625273195455
 20
14.3177667361528
 30
0.0
 10
26.41163269798147
 20
14.29517101068183
 30
0.0
 10
26.49021313872984
 20
14.29095389675319
 30
0.0
 10
26.52949104223876
 20
14.28884601071337
 30
0.0
 11
26.29855093455876
 21
14.32906815069339
 31
0.0
 11
26.41245694968177
 21
14.29976145101727
 31
0.0
 11
26.52949104223876
 21
14.28884601071337
 31
0.0
  0
SPLINE
  5
114
330
2
100
AcDbEntity
  8
GAIKEI
  6
Continuous
 62
     1
100
AcDbSpline
210
0.0
220
0.0
230
1.0
 70
     8
 71
     3
 72
     9
 73
     5
 74
     3
 42
0.0000000001
 43
0.0000000001
 44
0.00000001
 40
0.0
 40
0.0
 40
0.0
 40
0.0
 40
0.067002908108957
 40
0.1340079953221744
 40
0.1340079953221744
 40
0.1340079953221744
 40
0.1340079953221744
 10
26.4312804939388
 20
13.98884601071336
 30
0.0
 10
26.40905283646248
 20
13.99110284823382
 30
0.0
 10
26.36459680109374
 20
13.99561661650841
 30
0.0
 10
26.32056646108063
 20
14.00323517255924
 30
0.0
 10
26.29855093455876
 20
14.00704452241336
 30
0.0
 11
26.4312804939388
 21
13.98884601071336
 31
0.0
 11
26.36470394301284
 21
13.99639270490348
 31
0.0
 11
26.29855093455876
 21
14.00704452241336
 31
0.0
  0
SPLINE
  5
115
330
2
100
AcDbEntity
  8
GAIKEI
  6
Continuous
 62
     1
100
AcDbSpline
210
0.0
220
0.0
230
1.0
 70
     8
 71
     3
 72
     9
 73
     5
 74
     3
 42
0.0000000001
 43
0.0000000001
 44
0.00000001
 40
0.0
 40
0.0
 40
0.0
 40
0.0
 40
0.0344437913774314
 40
0.0688822648181227
 40
0.0688822648181227
 40
0.0688822648181227
 40
0.0688822648181227
 10
26.99137125759876
 20
14.00704452241336
 30
0.0
 10
26.98051120050588
 20
14.00327603986977
 30
0.0
 10
26.95879275734959
 20
13.99573967574923
 30
0.0
 10
26.93626799301771
 20
13.99114377433051
 30
0.0
 10
26.92500647791877
 20
13.98884601071336
 30
0.0
 11
26.99137125759876
 21
14.00704452241336
 31
0.0
 11
26.95858947183865
 21
13.99647431345971
 31
0.0
 11
26.92500647791877
 21
13.98884601071336
 31
0.0
  0
SPLINE
  5
116
330
2
100
AcDbEntity
  8
GAIKEI
  6
Continuous
 62
     1
100
AcDbSpline
210
0.0
220
0.0
230
1.0
 70
     8
 71
     3
 72
     9
 73
     5
 74
     3
 42
0.0000000001
 43
0.0000000001
 44
0.00000001
 40
0.0
 40
0.0
 40
0.0
 40
0.0
 40
0.0232121034485282
 40
0.0464247620115787
 40
0.0464247620115787
 40
0.0464247620115787
 40
0.0464247620115787
 10
26.11198158383877
 20
13.99344789201336
 30
0.0
 10
26.10449314299245
 20
13.99540916093042
 30
0.0
 10
26.08951608780737
 20
13.99933176485643
 30
0.0
 10
26.07491263670161
 20
14.00447357639109
 30
0.0
 10
26.06761082689877
 20
14.00704452241336
 30
0.0
 11
26.11198158383877
 21
13.99344789201336
 31
0.0
 11
26.08960966274878
 21
13.99963650300458
 31
0.0
 11
26.06761082689877
 21
14.00704452241336
 31
0.0
  0
SPLINE
  5
117
330
2
100
AcDbEntity
  8
GAIKEI
  6
Continuous
 62
     1
100
AcDbSpline
210
0.0
220
0.0
230
1.0
 70
    24
 71
     3
 72
     9
 73
     5
 74
     3
 42
0.0000000001
 43
0.0000000001
 44
0.00000001
 40
0.0
 40
0.0
 40
0.0
 40
0.0
 40
0.011235149618346
 40
0.0224702992367476
 40
0.0224702992367476
 40
0.0224702992367476
 40
0.0224702992367476
 10
26.13397560657882
 20
13.98884601071336
 30
0.0
 10
26.13030993612216
 20
13.98961299093008
 30
0.0
 10
26.12297859520874
 20
13.99114695136336
 30
0.0
 10
26.11564725429545
 20
13.99268091179664
 30
0.0
 10
26.11198158383877
 20
13.99344789201336
 30
0.0
 11
26.13397560657882
 21
13.98884601071336
 31
0.0
 11
26.12297859520879
 21
13.99114695136336
 31
0.0
 11
26.11198158383877
 21
13.99344789201336
 31
0.0
  0
SPLINE
  5
118
330
2
100
AcDbEntity
  8
GAIKEI
  6
Continuous
 62
     1
100
AcDbSpline
210
0.0
220
0.0
230
1.0
 70
     8
 71
     3
 72
     9
 73
     5
 74
     3
 42
0.0000000001
 43
0.0000000001
 44
0.00000001
 40
0.0
 40
0.0
 40
0.0
 40
0.0
 40
0.0344437913776959
 40
0.068882264818655
 40
0.068882264818655
 40
0.068882264818655
 40
0.068882264818655
 10
26.29855093455876
 20
14.00704452241336
 30
0.0
 10
26.28769087746667
 20
14.00327603986682
 30
0.0
 10
26.26597243431198
 20
13.99573967574059
 30
0.0
 10
26.24344766997851
 20
13.99114377432755
 30
0.0
 10
26.23218615487878
 20
13.98884601071336
 30
0.0
 11
26.29855093455876
 21
14.00704452241336
 31
0.0
 11
26.26576914880025
 21
13.99647431345391
 31
0.0
 11
26.23218615487878
 21
13.98884601071336
 31
0.0
  0
SPLINE
  5
119
330
2
100
AcDbEntity
  8
GAIKEI
  6
Continuous
 62
     1
100
AcDbSpline
210
0.0
220
0.0
230
1.0
 70
     8
 71
     3
 72
    11
 73
     7
 74
     5
 42
0.0000000001
 43
0.0000000001
 44
0.00000001
 40
0.0
 40
0.0
 40
0.0
 40
0.0
 40
0.0617780673729021
 40
0.123573968101227
 40
0.1853698018253614
 40
0.2471478034191465
 40
0.2471478034191465
 40
0.2471478034191465
 40
0.2471478034191465
 10
26.06761082689877
 20
14.32906815069339
 30
0.0
 10
26.08538349764626
 20
14.31850174922169
 30
0.0
 10
26.12093397599256
 20
14.29736590915081
 30
0.0
 10
26.18308092770684
 20
14.28458545260162
 30
0.0
 10
26.24522784253836
 20
14.29736594573614
 30
0.0
 10
26.28077828271822
 20
14.31850176134691
 30
0.0
 10
26.29855093455876
 20
14.32906815069339
 30
0.0
 11
26.06761082689877
 21
14.32906815069339
 31
0.0
 11
26.12239813002964
 21
14.30052202503572
 31
0.0
 11
26.18308094769878
 21
14.28884601071343
 31
0.0
 11
26.24376369217805
 21
14.30052205079647
 31
0.0
 11
26.29855093455876
 21
14.32906815069339
 31
0.0
  0
SPLINE
  5
11A
330
2
100
AcDbEntity
  8
GAIKEI
  6
Continuous
 62
     1
100
AcDbSpline
210
0.0
220
0.0
230
1.0
 70
     8
 71
     3
 72
     9
 73
     5
 74
     3
 42
0.0000000001
 43
0.0000000001
 44
0.00000001
 40
0.0
 40
0.0
 40
0.0
 40
0.0
 40
0.0670051028510377
 40
0.1340079952996982
 40
0.1340079952996982
 40
0.1340079952996982
 40
0.1340079952996982
 10
26.76043114991876
 20
14.00704452241336
 30
0.0
 10
26.7384156182101
 20
14.00323517196682
 30
0.0
 10
26.69438527810684
 20
13.99561661651063
 30
0.0
 10
26.64992924279511
 20
13.9911028478831
 30
0.0
 10
26.62770159053878
 20
13.98884601071336
 30
0.0
 11
26.76043114991876
 21
14.00704452241336
 31
0.0
 11
26.69427812589134
 21
13.99639270325207
 31
0.0
 11
26.62770159053878
 21
13.98884601071336
 31
0.0
  0
LINE
  5
11B
330
2
100
AcDbEntity
  8
GAIKEI
  6
Continuous
 62
     1
100
AcDbLine
 10
-9.538322534473479
 20
22.52107123521341
 30
0.0
 11
-33.21416726813345
 21
22.52107123523336
 31
0.0
  0
LINE
  5
11C
330
2
100
AcDbEntity
  8
GAIKEI
  6
Continuous
 62
     1
100
AcDbLine
 10
-9.039102805933509
 20
22.91843376253337
 30
0.0
 11
-33.71338699025347
 21
22.9184337628734
 31
0.0
  0
LINE
  5
11D
330
2
100
AcDbEntity
  8
GAIKEI
  6
Continuous
 62
     1
100
AcDbLine
 10
-33.21416701691345
 20
9.276619914233378
 30
0.0
 11
-9.538322600113474
 21
9.276619473193363
 31
0.0
  0
LINE
  5
11E
330
2
100
AcDbEntity
  8
GAIKEI
  6
Continuous
 62
     1
100
AcDbLine
 10
-33.71338700573347
 20
8.879257979713372
 30
0.0
 11
-9.039102790693505
 21
8.879257983913362
 31
0.0
  0
LINE
  5
11F
330
2
100
AcDbEntity
  8
GAIKEI
  6
Continuous
 62
     1
100
AcDbLine
 10
-9.508321170153465
 20
9.648845987193396
 30
0.0
 11
-9.508321170153465
 21
9.598846034213352
 31
0.0
  0
LINE
  5
120
330
2
100
AcDbEntity
  8
GAIKEI
  6
Continuous
 62
     1
100
AcDbLine
 10
-9.508321170153465
 20
22.19884598719335
 30
0.0
 11
-9.508321170153465
 21
22.14884603421336
 31
0.0
  0
LINE
  5
121
330
2
100
AcDbEntity
  8
GAIKEI
  6
Continuous
 62
     1
100
AcDbLine
 10
-9.52624489219346
 20
22.04884601071336
 30
0.0
 11
-9.52624489219346
 21
9.748846010713407
 31
0.0
  0
LINE
  5
122
330
2
100
AcDbEntity
  8
GAIKEI
  6
Continuous
 62
     1
100
AcDbLine
 10
-9.676244892193494
 20
22.09884601071337
 30
0.0
 11
-9.676244892193494
 21
22.1988460107134
 31
0.0
  0
LINE
  5
123
330
2
100
AcDbEntity
  8
GAIKEI
  6
Continuous
 62
     1
100
AcDbLine
 10
-9.676244892193494
 20
9.598846010713373
 30
0.0
 11
-9.676244892193494
 21
9.698846010713396
 31
0.0
  0
LINE
  5
124
330
2
100
AcDbEntity
  8
GAIKEI
  6
Continuous
100
AcDbLine
 10
-28.37624489219349
 20
23.78884601071337
 30
0.0
 11
-14.37624489219348
 21
23.78884601071337
 31
0.0
  0
LINE
  5
125
330
2
100
AcDbEntity
  8
GAIKEI
  6
Continuous
100
AcDbLine
 10
-28.37624489219349
 20
23.55884601071335
 30
0.0
 11
-14.37624489219348
 21
23.55884601071335
 31
0.0
  0
LINE
  5
126
330
2
100
AcDbEntity
  8
GAIKEI
  6
Continuous
 62
     1
100
AcDbLine
 10
-33.19421999787346
 20
22.24884601071335
 30
0.0
 11
-9.558269786513506
 21
22.24884601071335
 31
0.0
  0
LINE
  5
127
330
2
100
AcDbEntity
  8
GAIKEI
  6
Continuous
 62
     1
100
AcDbLine
 10
-33.07624489219347
 20
22.1988460107134
 30
0.0
 11
-9.676244892193494
 21
22.1988460107134
 31
0.0
  0
LINE
  5
128
330
2
100
AcDbEntity
  8
GAIKEI
  6
Continuous
 62
     1
100
AcDbLine
 10
-9.676244892193494
 20
22.09884601071337
 30
0.0
 11
-9.558269786513506
 21
22.09884601071337
 31
0.0
  0
LINE
  5
129
330
2
100
AcDbEntity
  8
GAIKEI
  6
Continuous
 62
     1
100
AcDbLine
 10
-33.19421999787346
 20
22.09884601071337
 30
0.0
 11
-33.07624489219347
 21
22.09884601071337
 31
0.0
  0
LINE
  5
12A
330
2
100
AcDbEntity
  8
GAIKEI
  6
Continuous
 62
     1
100
AcDbLine
 10
-9.626244892193483
 20
22.04884601071336
 30
0.0
 11
-9.52624489219346
 21
22.04884601071336
 31
0.0
  0
LINE
  5
12B
330
2
100
AcDbEntity
  8
GAIKEI
  6
Continuous
 62
     1
100
AcDbLine
 10
-33.12624489219349
 20
22.04884601071336
 30
0.0
 11
-33.22624489219345
 21
22.04884601071336
 31
0.0
  0
LINE
  5
12C
330
2
100
AcDbEntity
  8
GAIKEI
  6
Continuous
100
AcDbLine
 10
-14.37624489219348
 20
23.55884601071335
 30
0.0
 11
-14.37624489219348
 21
23.78884601071337
 31
0.0
  0
LINE
  5
12D
330
2
100
AcDbEntity
  8
GAIKEI
  6
Continuous
100
AcDbLine
 10
-14.9762448921935
 20
23.54884601071336
 30
0.0
 11
-14.9762448921935
 21
23.55884601071335
 31
0.0
  0
LINE
  5
12E
330
2
100
AcDbEntity
  8
GAIKEI
  6
Continuous
100
AcDbLine
 10
-16.9762448921935
 20
23.54884601071336
 30
0.0
 11
-16.9762448921935
 21
23.55884601071335
 31
0.0
  0
LINE
  5
12F
330
2
100
AcDbEntity
  8
GAIKEI
  6
Continuous
100
AcDbLine
 10
-20.37624489219348
 20
23.54884601071336
 30
0.0
 11
-20.37624489219348
 21
23.55884601071335
 31
0.0
  0
LINE
  5
130
330
2
100
AcDbEntity
  8
GAIKEI
  6
Continuous
100
AcDbLine
 10
-22.37624489219348
 20
23.54884601071336
 30
0.0
 11
-22.37624489219348
 21
23.55884601071335
 31
0.0
  0
LINE
  5
131
330
2
100
AcDbEntity
  8
GAIKEI
  6
Continuous
100
AcDbLine
 10
-25.77624489219346
 20
23.54884601071336
 30
0.0
 11
-25.77624489219346
 21
23.55884601071335
 31
0.0
  0
LINE
  5
132
330
2
100
AcDbEntity
  8
GAIKEI
  6
Continuous
 62
     1
100
AcDbLine
 10
-33.12624489219349
 20
9.748846010713407
 30
0.0
 11
-33.22624489219345
 21
9.748846010713407
 31
0.0
  0
LINE
  5
133
330
2
100
AcDbEntity
  8
GAIKEI
  6
Continuous
 62
     1
100
AcDbLine
 10
-9.52624489219346
 20
9.748846010713407
 30
0.0
 11
-9.626244892193483
 21
9.748846010713407
 31
0.0
  0
LINE
  5
134
330
2
100
AcDbEntity
  8
GAIKEI
  6
Continuous
 62
     1
100
AcDbLine
 10
-33.07624489219347
 20
9.698846010713396
 30
0.0
 11
-33.19421999787346
 21
9.698846010713396
 31
0.0
  0
LINE
  5
135
330
2
100
AcDbEntity
  8
GAIKEI
  6
Continuous
 62
     1
100
AcDbLine
 10
-9.558269786513506
 20
9.698846010713396
 30
0.0
 11
-9.676244892193494
 21
9.698846010713396
 31
0.0
  0
LINE
  5
136
330
2
100
AcDbEntity
  8
GAIKEI
  6
Continuous
 62
     1
100
AcDbLine
 10
-9.676244892193494
 20
9.598846010713373
 30
0.0
 11
-33.07624489219347
 21
9.598846010713373
 31
0.0
  0
LINE
  5
137
330
2
100
AcDbEntity
  8
GAIKEI
  6
Continuous
 62
     1
100
AcDbLine
 10
-9.558269786513506
 20
9.548846010713418
 30
0.0
 11
-33.19421999787346
 21
9.548846010713418
 31
0.0
  0
LINE
  5
138
330
2
100
AcDbEntity
  8
GAIKEI
  6
Continuous
100
AcDbLine
 10
-27.77624489219346
 20
23.54884601071336
 30
0.0
 11
-27.77624489219346
 21
23.55884601071335
 31
0.0
  0
LINE
  5
139
330
2
100
AcDbEntity
  8
GAIKEI
  6
Continuous
100
AcDbLine
 10
-28.37624489219349
 20
23.55884601071335
 30
0.0
 11
-28.37624489219349
 21
23.78884601071337
 31
0.0
  0
LINE
  5
13A
330
2
100
AcDbEntity
  8
GAIKEI
  6
Continuous
 62
     1
100
AcDbLine
 10
-33.07624489219347
 20
22.09884601071337
 30
0.0
 11
-33.07624489219347
 21
22.1988460107134
 31
0.0
  0
LINE
  5
13B
330
2
100
AcDbEntity
  8
GAIKEI
  6
Continuous
 62
     1
100
AcDbLine
 10
-33.07624489219347
 20
9.598846010713373
 30
0.0
 11
-33.07624489219347
 21
9.698846010713396
 31
0.0
  0
LINE
  5
13C
330
2
100
AcDbEntity
  8
GAIKEI
  6
Continuous
 62
     1
100
AcDbLine
 10
-33.22624489219345
 20
9.748846010713407
 30
0.0
 11
-33.22624489219345
 21
22.04884601071336
 31
0.0
  0
LINE
  5
13D
330
2
100
AcDbEntity
  8
GAIKEI
  6
Continuous
 62
     1
100
AcDbLine
 10
-33.2441686142335
 20
9.648845987193396
 30
0.0
 11
-33.2441686142335
 21
9.598846034213352
 31
0.0
  0
LINE
  5
13E
330
2
100
AcDbEntity
  8
GAIKEI
  6
Continuous
 62
     1
100
AcDbLine
 10
-33.2441686142335
 20
22.19884598719335
 30
0.0
 11
-33.2441686142335
 21
22.14884603421336
 31
0.0
  0
LINE
  5
13F
330
2
100
AcDbEntity
  8
GAIKEI
  6
Continuous
100
AcDbLine
 10
-8.975397004333501
 20
8.248846010713407
 30
0.0
 11
-33.77709278005347
 21
8.248846010713407
 31
0.0
  0
LINE
  5
140
330
2
100
AcDbEntity
  8
GAIKEI
  6
Continuous
100
AcDbLine
 10
-8.975397004333501
 20
23.54884601071336
 30
0.0
 11
-33.77709278005347
 21
23.54884601071336
 31
0.0
  0
ARC
  5
141
330
2
100
AcDbEntity
  8
GAIKEI
  6
Continuous
 62
     1
100
AcDbCircle
 10
-33.12624489219349
 20
22.09884601071337
 30
0.0
 40
0.05
100
AcDbArc
 50
270.0
 51
0.0
  0
ARC
  5
142
330
2
100
AcDbEntity
  8
GAIKEI
  6
Continuous
 62
     1
100
AcDbCircle
 10
-33.12624489219349
 20
9.698846010713396
 30
0.0
 40
0.05
100
AcDbArc
 50
0.0
 51
90.0
  0
ARC
  5
143
330
2
100
AcDbEntity
  8
GAIKEI
  6
Continuous
 62
     1
100
AcDbCircle
 10
-9.626244892193483
 20
9.698846010713396
 30
0.0
 40
0.05
100
AcDbArc
 50
90.0
 51
180.0
  0
ARC
  5
144
330
2
100
AcDbEntity
  8
GAIKEI
  6
Continuous
 62
     1
100
AcDbCircle
 10
-9.626244892193483
 20
22.09884601071337
 30
0.0
 40
0.05
100
AcDbArc
 50
180.0
 51
270.0
  0
SPLINE
  5
145
330
2
100
AcDbEntity
  8
GAIKEI
  6
Continuous
 62
     1
100
AcDbSpline
210
0.0
220
0.0
230
1.0
 70
    24
 71
     3
 72
     9
 73
     5
 74
     3
 42
0.0000000001
 43
0.0000000001
 44
0.00000001
 40
0.0
 40
0.0
 40
0.0
 40
0.0
 40
0.0147684240900536
 40
0.0295368481801639
 40
0.0295368481801639
 40
0.0295368481801639
 40
0.0295368481801639
 10
-33.78688102133344
 20
16.24882262121338
 30
0.0
 10
-33.78688292143011
 20
16.25374542887669
 30
0.0
 10
-33.78688672162343
 20
16.26359104420334
 30
0.0
 10
-33.78689052181676
 20
16.27343665953003
 30
0.0
 10
-33.78689242191342
 20
16.27835946719335
 30
0.0
 11
-33.78688102133344
 21
16.24882262121338
 31
0.0
 11
-33.78688672162343
 21
16.26359104420339
 31
0.0
 11
-33.78689242191342
 21
16.27835946719335
 31
0.0
  0
SPLINE
  5
146
330
2
100
AcDbEntity
  8
GAIKEI
  6
Continuous
 62
     1
100
AcDbSpline
210
0.0
220
0.0
230
1.0
 70
    24
 71
     3
 72
     9
 73
     5
 74
     3
 42
0.0000000001
 43
0.0000000001
 44
0.00000001
 40
0.0
 40
0.0
 40
0.0
 40
0.0
 40
0.1749949712262702
 40
0.3499899424527678
 40
0.3499899424527678
 40
0.3499899424527678
 40
0.3499899424527678
 10
-33.78681625403345
 20
15.89883268475336
 30
0.0
 10
-33.78682704858346
 20
15.95716434082993
 30
0.0
 10
-33.78684863768351
 20
16.07382765298337
 30
0.0
 10
-33.78687022678344
 20
16.19049096513657
 30
0.0
 10
-33.78688102133344
 20
16.24882262121338
 30
0.0
 11
-33.78681625403345
 21
15.89883268475336
 31
0.0
 11
-33.78684863768342
 21
16.07382765298337
 31
0.0
 11
-33.78688102133344
 21
16.24882262121338
 31
0.0
  0
SPLINE
  5
147
330
2
100
AcDbEntity
  8
GAIKEI
  6
Continuous
 62
     1
100
AcDbSpline
210
0.0
220
0.0
230
1.0
 70
    24
 71
     3
 72
     9
 73
     5
 74
     3
 42
0.0000000001
 43
0.0000000001
 44
0.00000001
 40
0.0
 40
0.0
 40
0.0
 40
0.0
 40
0.1749816397063442
 40
0.3499632794127453
 40
0.3499632794127453
 40
0.3499632794127453
 40
0.3499632794127453
 10
-33.78688101899343
 20
15.54886941133338
 30
0.0
 10
-33.78687022483342
 20
15.60719662357007
 30
0.0
 10
-33.7868486365135
 20
15.72385104804334
 30
0.0
 10
-33.78682704819349
 20
15.84050547251667
 30
0.0
 10
-33.78681625403345
 20
15.89883268475336
 30
0.0
 11
-33.78688101899343
 21
15.54886941133338
 31
0.0
 11
-33.78684863651347
 21
15.7238510480434
 31
0.0
 11
-33.78681625403345
 21
15.89883268475336
 31
0.0
  0
SPLINE
  5
148
330
2
100
AcDbEntity
  8
GAIKEI
  6
Continuous
 62
     1
100
AcDbSpline
210
0.0
220
0.0
230
1.0
 70
    24
 71
     3
 72
     9
 73
     5
 74
     3
 42
0.0000000001
 43
0.0000000001
 44
0.00000001
 40
0.0
 40
0.0
 40
0.0
 40
0.0
 40
0.0128138998641931
 40
0.0256277997284999
 40
0.0256277997284999
 40
0.0256277997284999
 40
0.0256277997284999
 10
-33.78689085749346
 20
15.52324161349338
 30
0.0
 10
-33.78688921774346
 20
15.52751291313336
 30
0.0
 10
-33.78688593824345
 20
15.5360555124135
 30
0.0
 10
-33.78688265874345
 20
15.54459811169335
 30
0.0
 10
-33.78688101899343
 20
15.54886941133338
 30
0.0
 11
-33.78689085749346
 21
15.52324161349338
 31
0.0
 11
-33.78688593824347
 21
15.53605551241338
 31
0.0
 11
-33.78688101899343
 21
15.54886941133338
 31
0.0
  0
SPLINE
  5
149
330
2
100
AcDbEntity
  8
GAIKEI
  6
Continuous
 62
     1
100
AcDbSpline
210
0.0
220
0.0
230
1.0
 70
     8
 71
     3
 72
     9
 73
     5
 74
     3
 42
0.0000000001
 43
0.0000000001
 44
0.00000001
 40
0.0
 40
0.0
 40
0.0
 40
0.0
 40
0.0405615529193022
 40
0.0811231077807221
 40
0.0811231077807221
 40
0.0811231077807221
 40
0.0811231077807221
 10
-33.26302344863348
 20
22.3996742582134
 30
0.0
 10
-33.26292116574502
 20
22.38615411390288
 30
0.0
 10
-33.2627166199627
 20
22.35911382450877
 30
0.0
 10
-33.26261480155745
 20
22.33207295317453
 30
0.0
 10
-33.26256390235347
 20
22.31855251713335
 30
0.0
 11
-33.26302344863348
 21
22.3996742582134
 31
0.0
 11
-33.26274229181081
 21
22.35911367972773
 31
0.0
 11
-33.26256390235347
 21
22.31855251713335
 31
0.0
  0
SPLINE
  5
14A
330
2
100
AcDbEntity
  8
GAIKEI
  6
Continuous
 62
     1
100
AcDbSpline
210
0.0
220
0.0
230
1.0
 70
     8
 71
     3
 72
    13
 73
     9
 74
     7
 42
0.0000000001
 43
0.0000000001
 44
0.00000001
 40
0.0
 40
0.0
 40
0.0
 40
0.0
 40
2.592976402469126
 40
5.185952835964959
 40
6.500861402826434
 40
7.81576996968484
 40
10.4087639986477
 40
13.00175799660792
 40
13.00175799660792
 40
13.00175799660792
 40
13.00175799660792
 10
-33.26302344863348
 20
22.3996742582134
 30
0.0
 10
-33.26838266553654
 20
21.53536482020826
 30
0.0
 10
-33.27910108462649
 20
19.8067459337737
 30
0.0
 10
-33.28464232607286
 20
17.63979457192414
 30
0.0
 10
-33.28590846903717
 20
15.89886360222601
 30
0.0
 10
-33.2846423886474
 20
14.15792676732656
 30
0.0
 10
-33.27910117544116
 20
11.99096367496003
 30
0.0
 10
-33.26838269588808
 20
10.26233305833682
 30
0.0
 10
-33.26302344875347
 20
9.398017755233354
 30
0.0
 11
-33.26302344863348
 21
22.3996742582134
 31
0.0
 11
-33.2775265978479
 21
19.80673841587275
 31
0.0
 11
-33.28468230617346
 21
17.21377185599346
 31
0.0
 11
-33.28558971892056
 21
15.89886360221919
 31
0.0
 11
-33.28468235617339
 21
14.5839553484135
 31
0.0
 11
-33.27752666943161
 21
11.9909711929406
 31
0.0
 11
-33.26302344875347
 21
9.398017755233354
 31
0.0
  0
SPLINE
  5
14B
330
2
100
AcDbEntity
  8
GAIKEI
  6
Continuous
 62
     1
100
AcDbSpline
210
0.0
220
0.0
230
1.0
 70
     8
 71
     3
 72
     9
 73
     5
 74
     3
 42
0.0000000001
 43
0.0000000001
 44
0.00000001
 40
0.0
 40
0.0
 40
0.0
 40
0.0
 40
0.0657980243399495
 40
0.1332113193399964
 40
0.1332113193399964
 40
0.1332113193399964
 40
0.1332113193399964
 10
-33.81324713517347
 20
22.84353544097337
 30
0.0
 10
-33.80376844600511
 20
22.86506360968252
 30
0.0
 10
-33.78457836277582
 20
22.90864842847947
 30
0.0
 10
-33.73730842819595
 20
22.91514426606852
 30
0.0
 10
-33.71338686805348
 20
22.91843155985339
 30
0.0
 11
-33.81324713517347
 21
22.84353544097337
 31
0.0
 11
-33.77796030848913
 21
22.89907119818565
 31
0.0
 11
-33.71338686805348
 21
22.91843155985339
 31
0.0
  0
SPLINE
  5
14C
330
2
100
AcDbEntity
  8
GAIKEI
  6
Continuous
 62
     1
100
AcDbSpline
210
0.0
220
0.0
230
1.0
 70
     8
 71
     3
 72
     9
 73
     5
 74
     3
 42
0.0000000001
 43
0.0000000001
 44
0.00000001
 40
0.0
 40
0.0
 40
0.0
 40
0.0
 40
0.065798032735209
 40
0.1332113198787191
 40
0.1332113198787191
 40
0.1332113198787191
 40
0.1332113198787191
 10
-33.81324713517347
 20
8.9541565804534
 30
0.0
 10
-33.80376844437393
 20
8.932628408830453
 30
0.0
 10
-33.78457836021301
 20
8.889043589518621
 30
0.0
 10
-33.73730842541943
 20
8.882547754009408
 30
0.0
 10
-33.71338686805348
 20
8.879260461673368
 30
0.0
 11
-33.81324713517347
 21
8.9541565804534
 31
0.0
 11
-33.77796030207787
 21
8.898620817368168
 31
0.0
 11
-33.71338686805348
 21
8.879260461673368
 31
0.0
  0
SPLINE
  5
14D
330
2
100
AcDbEntity
  8
GAIKEI
  6
Continuous
 62
     1
100
AcDbSpline
210
0.0
220
0.0
230
1.0
 70
     8
 71
     3
 72
     9
 73
     5
 74
     3
 42
0.0000000001
 43
0.0000000001
 44
0.00000001
 40
0.0
 40
0.0
 40
0.0
 40
0.0
 40
0.065798017889898
 40
0.1332113187411892
 40
0.1332113187411892
 40
0.1332113187411892
 40
0.1332113187411892
 10
-8.939242661013452
 20
8.9541565804534
 30
0.0
 10
-8.948721349037754
 20
8.932628414070904
 30
0.0
 10
-8.967911431745818
 20
8.88904359590731
 30
0.0
 10
-9.015181365968146
 20
8.882547756432757
 30
0.0
 10
-9.039102928113493
 20
8.879260461393414
 30
0.0
 11
-8.939242661013452
 21
8.9541565804534
 31
0.0
 11
-8.97452948302407
 21
8.898620827913418
 31
0.0
 11
-9.039102928113493
 21
8.879260461393414
 31
0.0
  0
SPLINE
  5
14E
330
2
100
AcDbEntity
  8
GAIKEI
  6
Continuous
 62
     1
100
AcDbSpline
210
0.0
220
0.0
230
1.0
 70
     8
 71
     3
 72
     9
 73
     5
 74
     3
 42
0.0000000001
 43
0.0000000001
 44
0.00000001
 40
0.0
 40
0.0
 40
0.0
 40
0.0
 40
0.0657980327453702
 40
0.1332113198906515
 40
0.1332113198906515
 40
0.1332113198906515
 40
0.1332113198906515
 10
-8.939242661013452
 20
22.84353544097337
 30
0.0
 10
-8.948721351805147
 20
22.86506361260842
 30
0.0
 10
-8.967911435948906
 20
22.90864843194174
 30
0.0
 10
-9.01518137076016
 20
22.91514426741549
 30
0.0
 10
-9.039102928133445
 20
22.91843155973339
 30
0.0
 11
-8.939242661013452
 21
22.84353544097337
 31
0.0
 11
-8.974529494094895
 21
22.89907120407963
 31
0.0
 11
-9.039102928133445
 21
22.91843155973339
 31
0.0
  0
SPLINE
  5
14F
330
2
100
AcDbEntity
  8
GAIKEI
  6
Continuous
 62
     1
100
AcDbSpline
210
0.0
220
0.0
230
1.0
 70
     8
 71
     3
 72
    23
 73
    19
 74
    17
 42
0.0000000001
 43
0.0000000001
 44
0.00000001
 40
0.0
 40
0.0
 40
0.0
 40
0.0
 40
0.007609435364694
 40
0.0152269801751068
 40
0.019978527111309
 40
0.024732415521758
 40
0.0303982163651386
 40
0.0360655755948175
 40
0.0426936269397673
 40
0.0493225848621432
 40
0.0568475856985862
 40
0.064372907133598
 40
0.0727959582717023
 40
0.0812193322150188
 40
0.0905397053325637
 40
0.0998600695882286
 40
0.1207386818529389
 40
0.1416174295599603
 40
0.1416174295599603
 40
0.1416174295599603
 40
0.1416174295599603
 10
-9.538322631173457
 20
9.276626087653426
 30
0.0
 10
-9.53577581775076
 20
9.276834719377347
 30
0.0
 10
-9.530679479368757
 20
9.277252215943576
 30
0.0
 10
-9.524563166364231
 20
9.280204782610837
 30
0.0
 10
-9.519904830077962
 20
9.283504716424658
 30
0.0
 10
-9.516170344531872
 20
9.286935972791525
 30
0.0
 10
-9.512638072664458
 20
9.290983737863257
 30
0.0
 10
-9.509174480933666
 20
9.295877579127761
 30
0.0
 10
-9.506000157092046
 20
9.301338468701771
 30
0.0
 10
-9.503011375484959
 20
9.307594448620136
 30
0.0
 10
-9.500357450086482
 20
9.314322107622274
 30
0.0
 10
-9.497949663701405
 20
9.321771236900303
 30
0.0
 10
-9.495878958717554
 20
9.32963096105152
 30
0.0
 10
-9.494078309947127
 20
9.338168258943483
 30
0.0
 10
-9.492601164551501
 20
9.347070832712063
 30
0.0
 10
-9.490961210368709
 20
9.36014348924931
 30
0.0
 10
-9.489698138735377
 20
9.377138540330804
 30
0.0
 10
-9.489543606205018
 20
9.391058802897873
 30
0.0
 10
-9.48946633931348
 20
9.398018956753389
 30
0.0
 11
-9.538322631173457
 21
9.276626087653426
 31
0.0
 11
-9.530790739551321
 21
9.277709715568903
 31
0.0
 11
-9.523845688713493
 21
9.280839138833471
 31
0.0
 11
-9.519966970058817
 21
9.283583721341074
 31
0.0
 11
-9.516452470013518
 21
9.286784930433441
 31
0.0
 11
-9.51271413948109
 21
9.291042415538868
 31
0.0
 11
-9.509425304053479
 21
9.295657880733358
 31
0.0
 11
-9.506079579023094
 21
9.301379522592924
 31
0.0
 11
-9.503206673693455
 21
9.307353591213313
 31
0.0
 11
-9.500432144270462
 21
9.314348419446616
 31
0.0
 11
-9.498104285773479
 21
9.321504643033335
 31
0.0
 11
-9.495946997332339
 21
9.329646749377843
 31
0.0
 11
-9.494196958333418
 21
9.337886324073338
 31
0.0
 11
-9.492662129234986
 21
9.347079454877189
 31
0.0
 11
-9.491489086733452
 21
9.356325706053382
 31
0.0
 11
-9.489917656324678
 21
9.3771450974574
 31
0.0
 11
-9.48946633931348
 21
9.398018956753389
 31
0.0
  0
SPLINE
  5
150
330
2
100
AcDbEntity
  8
GAIKEI
  6
Continuous
 62
     1
100
AcDbSpline
210
0.0
220
0.0
230
1.0
 70
     8
 71
     3
 72
     9
 73
     5
 74
     3
 42
0.0000000001
 43
0.0000000001
 44
0.00000001
 40
0.0
 40
0.0
 40
0.0
 40
0.0
 40
0.3010562902554646
 40
0.6021985085620394
 40
0.6021985085620394
 40
0.6021985085620394
 40
0.6021985085620394
 10
-33.86713580935345
 20
8.354562632893362
 30
0.0
 10
-33.85441149806136
 20
8.454144178272485
 30
0.0
 10
-33.82895926356543
 20
8.653335693820054
 30
0.0
 10
-33.8184850028527
 20
8.85387341278124
 30
0.0
 10
-33.81324713517347
 20
8.9541565804534
 30
0.0
 11
-33.86713580935345
 21
8.354562632893362
 31
0.0
 11
-33.83270631031371
 21
8.653643724988171
 31
0.0
 11
-33.81324713517347
 21
8.9541565804534
 31
0.0
  0
SPLINE
  5
151
330
2
100
AcDbEntity
  8
GAIKEI
  6
Continuous
 62
     1
100
AcDbSpline
210
0.0
220
0.0
230
1.0
 70
     8
 71
     3
 72
     9
 73
     5
 74
     3
 42
0.0000000001
 43
0.0000000001
 44
0.00000001
 40
0.0
 40
0.0
 40
0.0
 40
0.0
 40
3.282620167026742
 40
6.565240153007229
 40
6.565240153007229
 40
6.565240153007229
 40
6.565240153007229
 10
-33.78689242191342
 20
16.27835946719335
 30
0.0
 10
-33.78824218675817
 20
17.37256770731079
 30
0.0
 10
-33.79094173637307
 20
19.56098412713515
 30
0.0
 10
-33.80581199571009
 20
21.7493516898428
 30
0.0
 10
-33.81324713517347
 20
22.84353544097337
 30
0.0
 11
-33.78689242191342
 21
16.27835946719335
 31
0.0
 11
-33.79398440404595
 21
19.56097197324425
 31
0.0
 11
-33.81324713517347
 21
22.84353544097337
 31
0.0
  0
SPLINE
  5
152
330
2
100
AcDbEntity
  8
GAIKEI
  6
Continuous
 62
     1
100
AcDbSpline
210
0.0
220
0.0
230
1.0
 70
     8
 71
     3
 72
     9
 73
     5
 74
     3
 42
0.0000000001
 43
0.0000000001
 44
0.00000001
 40
0.0
 40
0.0
 40
0.0
 40
0.0
 40
3.284574511496432
 40
6.569149206120899
 40
6.569149206120899
 40
6.569149206120899
 40
6.569149206120899
 10
-33.81324713517347
 20
8.9541565804534
 30
0.0
 10
-33.80580825993025
 20
10.04899183371503
 30
0.0
 10
-33.79093052902877
 20
12.23866240137852
 30
0.0
 10
-33.78823740803031
 20
14.42838185575363
 30
0.0
 10
-33.78689085749346
 20
15.52324161349338
 30
0.0
 11
-33.81324713517347
 21
8.9541565804534
 31
0.0
 11
-33.79397667174953
 21
12.23867456197416
 31
0.0
 11
-33.78689085749346
 21
15.52324161349338
 31
0.0
  0
SPLINE
  5
153
330
2
100
AcDbEntity
  8
GAIKEI
  6
Continuous
 62
     1
100
AcDbSpline
210
0.0
220
0.0
230
1.0
 70
     8
 71
     3
 72
     9
 73
     5
 74
     3
 42
0.0000000001
 43
0.0000000001
 44
0.00000001
 40
0.0
 40
0.0
 40
0.0
 40
0.0
 40
0.30114222287027
 40
0.60219850651644
 40
0.60219850651644
 40
0.60219850651644
 40
0.60219850651644
 10
-33.81324713517347
 20
22.84353544097337
 30
0.0
 10
-33.81848502317286
 20
22.94381860868663
 30
0.0
 10
-33.82895932432572
 20
23.14435632400978
 30
0.0
 10
-33.85441151847033
 20
23.34354784317406
 30
0.0
 10
-33.86713580935345
 20
23.4431293885134
 30
0.0
 11
-33.81324713517347
 21
22.84353544097337
 31
0.0
 11
-33.83270635120948
 21
23.14404829836371
 31
0.0
 11
-33.86713580935345
 21
23.4431293885134
 31
0.0
  0
SPLINE
  5
154
330
2
100
AcDbEntity
  8
GAIKEI
  6
Continuous
 62
     1
100
AcDbSpline
210
0.0
220
0.0
230
1.0
 70
     8
 71
     3
 72
    19
 73
    15
 74
    13
 42
0.0000000001
 43
0.0000000001
 44
0.00000001
 40
0.0
 40
0.0
 40
0.0
 40
0.0
 40
0.0221835688708591
 40
0.0443669609037382
 40
0.0541357864493843
 40
0.0639044797777428
 40
0.0728956772192558
 40
0.0818875232721561
 40
0.0903441634626411
 40
0.0987981573416454
 40
0.1065803706016672
 40
0.114375638269632
 40
0.1279286336804177
 40
0.1414544306416861
 40
0.1414544306416861
 40
0.1414544306416861
 40
0.1414544306416861
 10
-33.26302345027347
 20
9.398018028193405
 30
0.0
 10
-33.26293629805892
 20
9.390622826644118
 30
0.0
 10
-33.26276199524372
 20
9.375832482487567
 30
0.0
 10
-33.26132132986524
 20
9.35782446098409
 30
0.0
 10
-33.25943706013243
 20
9.344043055818644
 30
0.0
 10
-33.25773688445284
 20
9.334682946068483
 30
0.0
 10
-33.25564002976753
 20
9.325668862328711
 30
0.0
 10
-33.25314739358276
 20
9.317209777351934
 30
0.0
 10
-33.25015617687117
 20
9.309100820049479
 30
0.0
 10
-33.24668622243959
 20
9.301630662390834
 30
0.0
 10
-33.24263976188269
 20
9.2946821274042
 30
0.0
 10
-33.23673572788027
 20
9.287019138182358
 30
0.0
 10
-33.22780357218528
 20
9.278811726385413
 30
0.0
 10
-33.21870946472543
 20
9.277354631116168
 30
0.0
 10
-33.21416697555344
 20
9.276626821613376
 30
0.0
 11
-33.26302345027347
 21
9.398018028193405
 31
0.0
 11
-33.26251039359289
 21
9.375840403024369
 31
0.0
 11
-33.26070523447351
 21
9.353730579753403
 31
0.0
 11
-33.25936656326354
 21
9.344053911352034
 31
0.0
 11
-33.25760935197349
 21
9.334444562953422
 31
0.0
 11
-33.25555592983909
 21
9.325690987263044
 31
0.0
 11
-33.25299868281348
 21
9.317070443153397
 31
0.0
 11
-33.250049958516
 21
9.309144549810866
 31
0.0
 11
-33.24646919905354
 21
9.301486340513349
 31
0.0
 11
-33.24250863426795
 21
9.294787328347865
 31
0.0
 11
-33.23775054085349
 21
9.288612643133319
 31
0.0
 11
-33.22725589971486
 21
9.28003672732035
 31
0.0
 11
-33.21416697555344
 21
9.276626821613376
 31
0.0
  0
SPLINE
  5
155
330
2
100
AcDbEntity
  8
GAIKEI
  6
Continuous
 62
     1
100
AcDbSpline
210
0.0
220
0.0
230
1.0
 70
     8
 71
     3
 72
    19
 73
    15
 74
    13
 42
0.0000000001
 43
0.0000000001
 44
0.00000001
 40
0.0
 40
0.0
 40
0.0
 40
0.0
 40
0.0221756432472182
 40
0.0443511096672841
 40
0.0541176476854586
 40
0.0638840477282082
 40
0.0728738781155398
 40
0.0818643500004034
 40
0.0903221214826705
 40
0.0987772713064257
 40
0.1065625476481661
 40
0.1143608987985814
 40
0.1279180421015558
 40
0.1414479061687921
 40
0.1414479061687921
 40
0.1414479061687921
 40
0.1414479061687921
 10
-9.489466346653443
 20
22.39967409819337
 30
0.0
 10
-9.489553439223868
 20
22.40706665665022
 30
0.0
 10
-9.489727622753719
 20
22.42185171462563
 30
0.0
 10
-9.491167155768891
 20
22.43985373732556
 30
0.0
 10
-9.493050160180246
 20
22.45363110790294
 30
0.0
 10
-9.494749668699768
 20
22.46298932842188
 30
0.0
 10
-9.496846227214575
 20
22.47200176252647
 30
0.0
 10
-9.499338861905101
 20
22.48046028681045
 30
0.0
 10
-9.502330213288871
 20
22.4885695134218
 30
0.0
 10
-9.50580031250584
 20
22.49604153145651
 30
0.0
 10
-9.509846416105261
 20
22.50299307673794
 30
0.0
 10
-9.515750176897199
 20
22.51066050357668
 30
0.0
 10
-9.524682141555956
 20
22.51887418407631
 30
0.0
 10
-9.533778805699995
 20
22.52033377126031
 30
0.0
 10
-9.538322559753453
 20
22.52106282351338
 30
0.0
 11
-9.489466346653443
 21
22.39967409819337
 31
0.0
 11
-9.48997901566156
 21
22.42184380458553
 31
0.0
 11
-9.491782765573475
 21
22.4439457909134
 31
0.0
 11
-9.493120669298662
 21
22.45362025616481
 31
0.0
 11
-9.494877186373457
 21
22.46322740019343
 31
0.0
 11
-9.496930326824326
 21
22.47197963779791
 31
0.0
 11
-9.499487289733451
 21
22.48059883283344
 31
0.0
 11
-9.502436334085416
 21
22.48852581415116
 31
0.0
 11
-9.506016870773521
 21
22.49618540363337
 31
0.0
 11
-9.509977535266443
 21
22.50288791500384
 31
0.0
 11
-9.51473566211348
 21
22.50906646677345
 31
0.0
 11
-9.525230548603531
 21
22.51764863620849
 31
0.0
 11
-9.538322559753453
 21
22.52106282351338
 31
0.0
  0
SPLINE
  5
156
330
2
100
AcDbEntity
  8
GAIKEI
  6
Continuous
 62
     1
100
AcDbSpline
210
0.0
220
0.0
230
1.0
 70
     8
 71
     3
 72
    23
 73
    19
 74
    17
 42
0.0000000001
 43
0.0000000001
 44
0.00000001
 40
0.0
 40
0.0
 40
0.0
 40
0.0
 40
0.0071312508317553
 40
0.0142690761398021
 40
0.0186520812270524
 40
0.0230369818374169
 40
0.0282247546534845
 40
0.0334139841356561
 40
0.0395695925478241
 40
0.0457263255258839
 40
0.0528487044278656
 40
0.0599715555973445
 40
0.0680677198977374
 40
0.0761642918881997
 40
0.0852956215315936
 40
0.0944269579419855
 40
0.1180219827210173
 40
0.1416177280346762
 40
0.1416177280346762
 40
0.1416177280346762
 40
0.1416177280346762
 10
-33.21416723569342
 20
22.52106282315339
 30
0.0
 10
-33.21655301481303
 20
22.52088134354398
 30
0.0
 10
-33.22132677013718
 20
22.5205182064251
 30
0.0
 10
-33.22709753473075
 20
22.51791975023457
 30
0.0
 10
-33.23152272889638
 20
22.51499687909609
 30
0.0
 10
-33.23507244974783
 20
22.51197124478915
 30
0.0
 10
-33.23845789518464
 20
22.50838813681764
 30
0.0
 10
-33.24182819014396
 20
22.50401839334586
 30
0.0
 10
-33.24496569143438
 20
22.49909054873501
 30
0.0
 10
-33.24798653817237
 20
22.49335324666032
 30
0.0
 10
-33.25071345917752
 20
22.48711673244037
 30
0.0
 10
-33.25324246225932
 20
22.48010761929982
 30
0.0
 10
-33.25545350081177
 20
22.47265238475399
 30
0.0
 10
-33.25742432319169
 20
22.46444113143349
 30
0.0
 10
-33.25907575536707
 20
22.45580792650605
 30
0.0
 10
-33.26111098433055
 20
22.44200213123747
 30
0.0
 10
-33.26272604489941
 20
22.42327186817539
 30
0.0
 10
-33.26292431338641
 20
22.40754010138465
 30
0.0
 10
-33.26302344953342
 20
22.39967409789335
 30
0.0
 11
-33.21416723569342
 21
22.52106282315339
 31
0.0
 11
-33.22123490074142
 21
22.52011257269214
 31
0.0
 11
-33.22781198553343
 21
22.51733939167332
 31
0.0
 11
-33.23146993528098
 21
22.51492482525129
 31
0.0
 11
-33.23481798337332
 21
22.51209323155331
 31
0.0
 11
-33.23839148316825
 21
22.50833250267107
 31
0.0
 11
-33.24157282763338
 21
22.50423285061334
 31
0.0
 11
-33.2448921414138
 21
22.49904886875231
 31
0.0
 11
-33.24777428427348
 21
22.49360840817337
 31
0.0
 11
-33.25064053133872
 21
22.48708821593135
 31
0.0
 11
-33.25307105551343
 21
22.4803928772933
 31
0.0
 11
-33.25538461883872
 21
22.47263431430145
 31
0.0
 11
-33.2572860581534
 21
22.46476418053339
 31
0.0
 11
-33.25901170552453
 21
22.4557973906185
 31
0.0
 11
-33.26035689987339
 21
22.44676568223344
 31
0.0
 11
-33.26243729594984
 21
22.42326255163164
 31
0.0
 11
-33.26302344953342
 21
22.39967409789335
 31
0.0
  0
SPLINE
  5
157
330
2
100
AcDbEntity
  8
GAIKEI
  6
Continuous
 62
     1
100
AcDbSpline
210
0.0
220
0.0
230
1.0
 70
     8
 71
     3
 72
     9
 73
     5
 74
     3
 42
0.0000000001
 43
0.0000000001
 44
0.00000001
 40
0.0
 40
0.0
 40
0.0
 40
0.0
 40
0.301056283647617
 40
0.6021985065180149
 40
0.6021985065180149
 40
0.6021985065180149
 40
0.6021985065180149
 10
-8.88535398681347
 20
23.4431293885134
 30
0.0
 10
-8.898078277697777
 20
23.34354784317384
 30
0.0
 10
-8.923530471844742
 20
23.14435632400932
 30
0.0
 10
-8.934004773008609
 20
22.94381860868629
 30
0.0
 10
-8.939242661013452
 20
22.84353544097337
 30
0.0
 11
-8.88535398681347
 21
23.4431293885134
 31
0.0
 11
-8.919783444963172
 21
23.14404829836292
 31
0.0
 11
-8.939242661013452
 21
22.84353544097337
 31
0.0
  0
SPLINE
  5
158
330
2
100
AcDbEntity
  8
GAIKEI
  6
Continuous
 62
     1
100
AcDbSpline
210
0.0
220
0.0
230
1.0
 70
     8
 71
     3
 72
     9
 73
     5
 74
     3
 42
0.0000000001
 43
0.0000000001
 44
0.00000001
 40
0.0
 40
0.0
 40
0.0
 40
0.0
 40
3.662119202409618
 40
6.944752815495763
 40
6.944752815495763
 40
6.944752815495763
 40
6.944752815495763
 10
-8.965597387753462
 20
15.89884601062971
 30
0.0
 10
-8.964498775536469
 20
14.67813696090121
 30
0.0
 10
-8.962415374279828
 20
12.36321433243995
 30
0.0
 10
-8.94668029856183
 20
10.04834497779615
 30
0.0
 10
-8.939242661013452
 20
8.9541565804534
 30
0.0
 11
-8.965597387753462
 21
15.89884601062971
 31
0.0
 11
-8.958505443031071
 21
12.23673367522525
 31
0.0
 11
-8.939242661013452
 21
8.9541565804534
 31
0.0
  0
SPLINE
  5
159
330
2
100
AcDbEntity
  8
GAIKEI
  6
Continuous
 62
     1
100
AcDbSpline
210
0.0
220
0.0
230
1.0
 70
     8
 71
     3
 72
     9
 73
     5
 74
     3
 42
0.0000000001
 43
0.0000000001
 44
0.00000001
 40
0.0
 40
0.0
 40
0.0
 40
0.0
 40
3.284577726452974
 40
6.944752819104254
 40
6.944752819104254
 40
6.944752819104254
 40
6.944752819104254
 10
-8.939242661013452
 20
22.84353544097337
 30
0.0
 10
-8.946683944830397
 20
21.74869901305147
 30
0.0
 10
-8.962417416584202
 20
19.43382964388957
 30
0.0
 10
-8.964500878019919
 20
17.11890701955627
 30
0.0
 10
-8.965598938733478
 20
15.89884601062971
 30
0.0
 11
-8.939242661013452
 21
22.84353544097337
 31
0.0
 11
-8.958513140191314
 21
19.55901424453202
 31
0.0
 11
-8.965598938733478
 21
15.89884601062971
 31
0.0
  0
SPLINE
  5
15A
330
2
100
AcDbEntity
  8
GAIKEI
  6
Continuous
 62
     1
100
AcDbSpline
210
0.0
220
0.0
230
1.0
 70
     8
 71
     3
 72
     9
 73
     5
 74
     3
 42
0.0000000001
 43
0.0000000001
 44
0.00000001
 40
0.0
 40
0.0
 40
0.0
 40
0.0
 40
0.3011422183075693
 40
0.6021985085645283
 40
0.6021985085645283
 40
0.6021985085645283
 40
0.6021985085645283
 10
-8.939242661013452
 20
8.9541565804534
 30
0.0
 10
-8.934004793337862
 20
8.853873412780558
 30
0.0
 10
-8.92353053263244
 20
8.65333569381795
 30
0.0
 10
-8.898078298115819
 20
8.454144178271917
 30
0.0
 10
-8.88535398681347
 20
8.354562632893362
 30
0.0
 11
-8.939242661013452
 21
8.9541565804534
 31
0.0
 11
-8.919783485877132
 21
8.65364372498692
 31
0.0
 11
-8.88535398681347
 21
8.354562632893362
 31
0.0
  0
SPLINE
  5
15B
330
2
100
AcDbEntity
  8
GAIKEI
  6
Continuous
 62
     1
100
AcDbSpline
210
0.0
220
0.0
230
1.0
 70
     8
 71
     3
 72
    13
 73
     9
 74
     7
 42
0.0000000001
 43
0.0000000001
 44
0.00000001
 40
0.0
 40
0.0
 40
0.0
 40
0.0
 40
2.592993760518023
 40
5.185987552038881
 40
6.500896023647317
 40
7.815804495258641
 40
10.40878073930455
 40
13.00175695232374
 40
13.00175695232374
 40
13.00175695232374
 40
13.00175695232374
 10
-9.489466340193473
 20
9.398018803533375
 30
0.0
 10
-9.484107094425837
 20
10.26233402749625
 30
0.0
 10
-9.47338861760673
 20
11.99096448583839
 30
0.0
 10
-9.467847406540471
 20
14.1579273881639
 30
0.0
 10
-9.466581327205489
 20
15.89886408041661
 30
0.0
 10
-9.467847470831571
 20
17.63979492346419
 30
0.0
 10
-9.473388712573012
 20
19.80674612726147
 30
0.0
 10
-9.484107131001252
 20
21.53536488739746
 30
0.0
 10
-9.489466347573454
 20
22.39967426225337
 30
0.0
 11
-9.489466340193473
 21
9.398018803533375
 31
0.0
 11
-9.474963123363863
 21
11.99097200381624
 31
0.0
 11
-9.467807439233524
 21
14.58395592185343
 31
0.0
 11
-9.466900077274146
 21
15.89886408040968
 31
0.0
 11
-9.467807490533573
 21
17.21377223893341
 31
0.0
 11
-9.474963199127444
 21
19.80673860936133
 31
0.0
 11
-9.489466347573454
 21
22.39967426225337
 31
0.0
  0
SPLINE
  5
15C
330
2
100
AcDbEntity
  8
GAIKEI
  6
Continuous
 62
     1
100
AcDbSpline
210
0.0
220
0.0
230
1.0
 70
     8
 71
     3
 72
     9
 73
     5
 74
     3
 42
0.0000000001
 43
0.0000000001
 44
0.00000001
 40
0.0
 40
0.0
 40
0.0
 40
0.0
 40
0.0382154474454806
 40
0.0764356549782078
 40
0.0764356549782078
 40
0.0764356549782078
 40
0.0764356549782078
 10
-33.19421999787346
 20
9.698846010713396
 30
0.0
 10
-33.20769297854619
 20
9.695656894061642
 30
0.0
 10
-33.23464060846868
 20
9.689278248947573
 30
0.0
 10
-33.24099248531792
 20
9.662323970508737
 30
0.0
 10
-33.24416861423344
 20
9.64884598719334
 30
0.0
 11
-33.19421999787346
 21
9.698846010713396
 31
0.0
 11
-33.22949064037914
 21
9.684135385580418
 31
0.0
 11
-33.24416861423344
 21
9.64884598719334
 31
0.0
  0
SPLINE
  5
15D
330
2
100
AcDbEntity
  8
GAIKEI
  6
Continuous
 62
     1
100
AcDbSpline
210
0.0
220
0.0
230
1.0
 70
     8
 71
     3
 72
     9
 73
     5
 74
     3
 42
0.0000000001
 43
0.0000000001
 44
0.00000001
 40
0.0
 40
0.0
 40
0.0
 40
0.0
 40
0.0382202075232447
 40
0.0764356549596859
 40
0.0764356549596859
 40
0.0764356549596859
 40
0.0764356549596859
 10
-33.24416861423344
 20
9.598846034213352
 30
0.0
 10
-33.24099248531445
 20
9.585368050902843
 30
0.0
 10
-33.23464060845814
 20
9.5584137724735
 30
0.0
 10
-33.20769297854275
 20
9.552035127363296
 30
0.0
 10
-33.19421999787346
 20
9.548846010713418
 30
0.0
 11
-33.24416861423344
 21
9.598846034213352
 31
0.0
 11
-33.22949064037227
 21
9.563556635839404
 31
0.0
 11
-33.19421999787346
 21
9.548846010713418
 31
0.0
  0
SPLINE
  5
15E
330
2
100
AcDbEntity
  8
GAIKEI
  6
Continuous
 62
     1
100
AcDbSpline
210
0.0
220
0.0
230
1.0
 70
     8
 71
     3
 72
     9
 73
     5
 74
     3
 42
0.0000000001
 43
0.0000000001
 44
0.00000001
 40
0.0
 40
0.0
 40
0.0
 40
0.0
 40
0.0382154519094399
 40
0.0764356556111575
 40
0.0764356556111575
 40
0.0764356556111575
 40
0.0764356556111575
 10
-9.558269786513449
 20
9.548846010713418
 30
0.0
 10
-9.544796804035883
 20
9.552035127823501
 30
0.0
 10
-9.517849173428174
 20
9.558413773161703
 30
0.0
 10
-9.511497298009118
 20
9.585368052107185
 30
0.0
 10
-9.508321170153408
 20
9.598846034213352
 30
0.0
 11
-9.558269786513449
 21
9.548846010713418
 31
0.0
 11
-9.522999140239562
 21
9.563556638408158
 31
0.0
 11
-9.508321170153408
 21
9.598846034213352
 31
0.0
  0
SPLINE
  5
15F
330
2
100
AcDbEntity
  8
GAIKEI
  6
Continuous
 62
     1
100
AcDbSpline
210
0.0
220
0.0
230
1.0
 70
     8
 71
     3
 72
     9
 73
     5
 74
     3
 42
0.0000000001
 43
0.0000000001
 44
0.00000001
 40
0.0
 40
0.0
 40
0.0
 40
0.0
 40
0.0382202075327272
 40
0.0764356549782603
 40
0.0764356549782603
 40
0.0764356549782603
 40
0.0764356549782603
 10
-9.508321170153408
 20
9.64884598719334
 30
0.0
 10
-9.511497299068963
 20
9.66232397050868
 30
0.0
 10
-9.517849175918172
 20
9.689278248947687
 30
0.0
 10
-9.54479680584069
 20
9.695656894061698
 30
0.0
 10
-9.558269786513449
 20
9.698846010713396
 30
0.0
 11
-9.508321170153408
 21
9.64884598719334
 31
0.0
 11
-9.522999144007712
 21
9.684135385580418
 31
0.0
 11
-9.558269786513449
 21
9.698846010713396
 31
0.0
  0
SPLINE
  5
160
330
2
100
AcDbEntity
  8
GAIKEI
  6
Continuous
 62
     1
100
AcDbSpline
210
0.0
220
0.0
230
1.0
 70
     8
 71
     3
 72
     9
 73
     5
 74
     3
 42
0.0000000001
 43
0.0000000001
 44
0.00000001
 40
0.0
 40
0.0
 40
0.0
 40
0.0
 40
0.0382154474365155
 40
0.0764356549597602
 40
0.0764356549597602
 40
0.0764356549597602
 40
0.0764356549597602
 10
-9.558269786513449
 20
22.09884601071337
 30
0.0
 10
-9.544796805844157
 20
22.10203512736325
 30
0.0
 10
-9.517849175928688
 20
22.10841377247357
 30
0.0
 10
-9.511497299072431
 20
22.13536805090291
 30
0.0
 10
-9.508321170153408
 20
22.14884603421336
 30
0.0
 11
-9.558269786513449
 21
22.09884601071337
 31
0.0
 11
-9.52299914401459
 21
22.11355663583942
 31
0.0
 11
-9.508321170153408
 21
22.14884603421336
 31
0.0
  0
SPLINE
  5
161
330
2
100
AcDbEntity
  8
GAIKEI
  6
Continuous
 62
     1
100
AcDbSpline
210
0.0
220
0.0
230
1.0
 70
     8
 71
     3
 72
     9
 73
     5
 74
     3
 42
0.0000000001
 43
0.0000000001
 44
0.00000001
 40
0.0
 40
0.0
 40
0.0
 40
0.0
 40
0.0382202075327272
 40
0.0764356549782384
 40
0.0764356549782384
 40
0.0764356549782384
 40
0.0764356549782384
 10
-9.508321170153408
 20
22.19884598719335
 30
0.0
 10
-9.511497299068935
 20
22.21232397050881
 30
0.0
 10
-9.5178491759182
 20
22.2392782489477
 30
0.0
 10
-9.544796805840718
 20
22.2456568940616
 30
0.0
 10
-9.558269786513449
 20
22.24884601071335
 30
0.0
 11
-9.508321170153408
 21
22.19884598719335
 31
0.0
 11
-9.522999144007712
 21
22.23413538558043
 31
0.0
 11
-9.558269786513449
 21
22.24884601071335
 31
0.0
  0
SPLINE
  5
162
330
2
100
AcDbEntity
  8
GAIKEI
  6
Continuous
 62
     1
100
AcDbSpline
210
0.0
220
0.0
230
1.0
 70
     8
 71
     3
 72
     9
 73
     5
 74
     3
 42
0.0000000001
 43
0.0000000001
 44
0.00000001
 40
0.0
 40
0.0
 40
0.0
 40
0.0
 40
0.0382154474454587
 40
0.076435654978186
 40
0.076435654978186
 40
0.076435654978186
 40
0.076435654978186
 10
-33.19421999787346
 20
22.24884601071335
 30
0.0
 10
-33.20769297854619
 20
22.2456568940616
 30
0.0
 10
-33.23464060846868
 20
22.2392782489477
 30
0.0
 10
-33.24099248531789
 20
22.21232397050881
 30
0.0
 10
-33.24416861423344
 20
22.19884598719335
 30
0.0
 11
-33.19421999787346
 21
22.24884601071335
 31
0.0
 11
-33.22949064037914
 21
22.23413538558043
 31
0.0
 11
-33.24416861423344
 21
22.19884598719335
 31
0.0
  0
SPLINE
  5
163
330
2
100
AcDbEntity
  8
GAIKEI
  6
Continuous
 62
     1
100
AcDbSpline
210
0.0
220
0.0
230
1.0
 70
     8
 71
     3
 72
     9
 73
     5
 74
     3
 42
0.0000000001
 43
0.0000000001
 44
0.00000001
 40
0.0
 40
0.0
 40
0.0
 40
0.0
 40
0.0382202075232447
 40
0.0764356549597078
 40
0.0764356549597078
 40
0.0764356549597078
 40
0.0764356549597078
 10
-33.24416861423344
 20
22.14884603421336
 30
0.0
 10
-33.24099248531439
 20
22.13536805090285
 30
0.0
 10
-33.23464060845817
 20
22.10841377247351
 30
0.0
 10
-33.20769297854275
 20
22.10203512736331
 30
0.0
 10
-33.19421999787346
 20
22.09884601071337
 30
0.0
 11
-33.24416861423344
 21
22.14884603421336
 31
0.0
 11
-33.22949064037227
 21
22.11355663583942
 31
0.0
 11
-33.19421999787346
 21
22.09884601071337
 31
0.0
  0
SPLINE
  5
164
330
2
100
AcDbEntity
  8
GAIKEI
  6
Continuous
100
AcDbSpline
210
0.0
220
0.0
230
1.0
 70
     8
 71
     3
 72
    11
 73
     7
 74
     5
 42
0.0000000001
 43
0.0000000001
 44
0.00000001
 40
0.0
 40
0.0
 40
0.0
 40
0.0
 40
0.0387109420616472
 40
0.0774287525113422
 40
0.1163040428357723
 40
0.1551773802130452
 40
0.1551773802130452
 40
0.1551773802130452
 40
0.1551773802130452
 10
-8.975397004333444
 20
23.54884601071336
 30
0.0
 10
-8.962395390552387
 20
23.5473601417217
 30
0.0
 10
-8.936389859266171
 20
23.54438812606327
 30
0.0
 10
-8.903554007438458
 20
23.52137582864793
 30
0.0
 10
-8.880671063918327
 20
23.48839854987591
 30
0.0
 10
-8.877720289467902
 20
23.46228743044156
 30
0.0
 10
-8.876244946333429
 20
23.44923219711336
 30
0.0
 11
-8.975397004333444
 21
23.54884601071336
 31
0.0
 11
-8.937428290848345
 21
23.54130187402473
 31
0.0
 11
-8.90525706901343
 21
23.51975932027335
 31
0.0
 11
-8.883752081000125
 21
23.48737376826915
 31
0.0
 11
-8.876244946333429
 21
23.44923219711336
 31
0.0
  0
SPLINE
  5
165
330
2
100
AcDbEntity
  8
GAIKEI
  6
Continuous
100
AcDbSpline
210
0.0
220
0.0
230
1.0
 70
    24
 71
     3
 72
     9
 73
     5
 74
     3
 42
0.0000000001
 43
0.0000000001
 44
0.00000001
 40
0.0
 40
0.0
 40
0.0
 40
0.0
 40
0.0030514467100048
 40
0.0061028934200095
 40
0.0061028934200095
 40
0.0061028934200095
 40
0.0061028934200095
 10
-8.876244952233435
 20
8.354562717713406
 30
0.0
 10
-8.876244951250129
 20
8.353545568810034
 30
0.0
 10
-8.876244949283375
 20
8.351511271003346
 30
0.0
 10
-8.876244947316735
 20
8.349476973196772
 30
0.0
 10
-8.876244946333429
 20
8.348459824293399
 30
0.0
 11
-8.876244952233435
 21
8.354562717713406
 31
0.0
 11
-8.876244949283432
 21
8.351511271003346
 31
0.0
 11
-8.876244946333429
 21
8.348459824293399
 31
0.0
  0
SPLINE
  5
166
330
2
100
AcDbEntity
  8
GAIKEI
  6
Continuous
100
AcDbSpline
210
0.0
220
0.0
230
1.0
 70
    24
 71
     3
 72
     9
 73
     5
 74
     3
 42
0.0000000001
 43
0.0000000001
 44
0.00000001
 40
0.0
 40
0.0
 40
0.0
 40
0.0
 40
0.0030514467099479
 40
0.0061028934200095
 40
0.0061028934200095
 40
0.0061028934200095
 40
0.0061028934200095
 10
-8.876244946333429
 20
23.44923219711336
 30
0.0
 10
-8.876244947316763
 20
23.44821504821005
 30
0.0
 10
-8.876244949283403
 20
23.44618075040347
 30
0.0
 10
-8.8762449512501
 20
23.44414645259667
 30
0.0
 10
-8.876244952233435
 20
23.44312930369335
 30
0.0
 11
-8.876244946333429
 21
23.44923219711336
 31
0.0
 11
-8.876244949283432
 21
23.44618075040336
 31
0.0
 11
-8.876244952233435
 21
23.44312930369335
 31
0.0
  0
SPLINE
  5
167
330
2
100
AcDbEntity
  8
GAIKEI
  6
Continuous
100
AcDbSpline
210
0.0
220
0.0
230
1.0
 70
     8
 71
     3
 72
    11
 73
     7
 74
     5
 42
0.0000000001
 43
0.0000000001
 44
0.00000001
 40
0.0
 40
0.0
 40
0.0
 40
0.0
 40
0.0388733373773396
 40
0.0777486277017383
 40
0.1164664381457375
 40
0.1551773802019795
 40
0.1551773802019795
 40
0.1551773802019795
 40
0.1551773802019795
 10
-8.876244946333429
 20
8.348459824293399
 30
0.0
 10
-8.877720289468214
 20
8.335404590965595
 30
0.0
 10
-8.880671063919322
 20
8.309293471532214
 30
0.0
 10
-8.903554007433683
 20
8.276316192754961
 30
0.0
 10
-8.936389859274697
 20
8.2533038953664
 30
0.0
 10
-8.962395390555172
 20
8.250331879706038
 30
0.0
 10
-8.975397004333444
 20
8.248846010713407
 30
0.0
 11
-8.876244946333429
 21
8.348459824293399
 31
0.0
 11
-8.883752081000181
 21
8.310318253137552
 31
0.0
 11
-8.90525706901343
 21
8.277932701133352
 31
0.0
 11
-8.937428290853404
 21
8.25639014739977
 31
0.0
 11
-8.975397004333444
 21
8.248846010713407
 31
0.0
  0
SPLINE
  5
168
330
2
100
AcDbEntity
  8
GAIKEI
  6
Continuous
100
AcDbSpline
210
0.0
220
0.0
230
1.0
 70
     8
 71
     3
 72
    11
 73
     7
 74
     5
 42
0.0000000001
 43
0.0000000001
 44
0.00000001
 40
0.0
 40
0.0
 40
0.0
 40
0.0
 40
0.0387109420561863
 40
0.0774287525001855
 40
0.1163040428245841
 40
0.1551773802019237
 40
0.1551773802019237
 40
0.1551773802019237
 40
0.1551773802019237
 10
-33.77709278005347
 20
8.248846010713407
 30
0.0
 10
-33.79009439383174
 20
8.250331879705981
 30
0.0
 10
-33.81609992511215
 20
8.253303895366229
 30
0.0
 10
-33.84893577695317
 20
8.276316192755132
 30
0.0
 10
-33.87181872046753
 20
8.309293471532157
 30
0.0
 10
-33.87476949491861
 20
8.335404590965652
 30
0.0
 10
-33.87624483805343
 20
8.348459824293399
 30
0.0
 11
-33.77709278005347
 21
8.248846010713407
 31
0.0
 11
-33.81506149353345
 21
8.25639014739977
 31
0.0
 11
-33.84723271537342
 21
8.277932701133352
 31
0.0
 11
-33.86873770338667
 21
8.310318253137552
 31
0.0
 11
-33.87624483805343
 21
8.348459824293399
 31
0.0
  0
SPLINE
  5
169
330
2
100
AcDbEntity
  8
GAIKEI
  6
Continuous
100
AcDbSpline
210
0.0
220
0.0
230
1.0
 70
    24
 71
     3
 72
     9
 73
     5
 74
     3
 42
0.0000000001
 43
0.0000000001
 44
0.00000001
 40
0.0
 40
0.0
 40
0.0
 40
0.0
 40
0.00305143482001
 40
0.0061028696399632
 40
0.0061028696399632
 40
0.0061028696399632
 40
0.0061028696399632
 10
-33.87624483213347
 20
23.4431293274734
 30
0.0
 10
-33.87624483312013
 20
23.44414647241336
 30
0.0
 10
-33.87624483509342
 20
23.44618076229341
 30
0.0
 10
-33.87624483706677
 20
23.4482150521734
 30
0.0
 10
-33.87624483805343
 20
23.44923219711336
 30
0.0
 11
-33.87624483213347
 21
23.4431293274734
 31
0.0
 11
-33.87624483509347
 21
23.44618076229335
 31
0.0
 11
-33.87624483805343
 21
23.44923219711336
 31
0.0
  0
SPLINE
  5
16A
330
2
100
AcDbEntity
  8
GAIKEI
  6
Continuous
100
AcDbSpline
210
0.0
220
0.0
230
1.0
 70
    24
 71
     3
 72
     9
 73
     5
 74
     3
 42
0.0000000001
 43
0.0000000001
 44
0.00000001
 40
0.0
 40
0.0
 40
0.0
 40
0.0
 40
0.00305143482001
 40
0.00610286964002
 40
0.00610286964002
 40
0.00610286964002
 40
0.00610286964002
 10
-33.87624483805343
 20
8.348459824293399
 30
0.0
 10
-33.87624483706677
 20
8.349476969233421
 30
0.0
 10
-33.87624483509342
 20
8.351511259113408
 30
0.0
 10
-33.87624483312013
 20
8.353545548993452
 30
0.0
 10
-33.87624483213347
 20
8.354562693933416
 30
0.0
 11
-33.87624483805343
 21
8.348459824293399
 31
0.0
 11
-33.87624483509347
 21
8.351511259113351
 31
0.0
 11
-33.87624483213347
 21
8.354562693933416
 31
0.0
  0
SPLINE
  5
16B
330
2
100
AcDbEntity
  8
GAIKEI
  6
Continuous
100
AcDbSpline
210
0.0
220
0.0
230
1.0
 70
     8
 71
     3
 72
    11
 73
     7
 74
     5
 42
0.0000000001
 43
0.0000000001
 44
0.00000001
 40
0.0
 40
0.0
 40
0.0
 40
0.0
 40
0.0388733373772839
 40
0.0777486277016825
 40
0.1164664381513303
 40
0.1551773802129774
 40
0.1551773802129774
 40
0.1551773802129774
 40
0.1551773802129774
 10
-33.87624483805343
 20
23.44923219711336
 30
0.0
 10
-33.87476949491893
 20
23.46228743044156
 30
0.0
 10
-33.87181872046841
 20
23.48839854987591
 30
0.0
 10
-33.84893577694845
 20
23.52137582864793
 30
0.0
 10
-33.81609992512068
 20
23.54438812606327
 30
0.0
 10
-33.79009439383452
 20
23.54736014172175
 30
0.0
 10
-33.77709278005347
 20
23.54884601071336
 30
0.0
 11
-33.87624483805343
 21
23.44923219711336
 31
0.0
 11
-33.86873770338667
 21
23.48737376826915
 31
0.0
 11
-33.84723271537342
 21
23.51975932027335
 31
0.0
 11
-33.81506149353857
 21
23.54130187402473
 31
0.0
 11
-33.77709278005347
 21
23.54884601071336
 31
0.0
  0
SPLINE
  5
16C
330
2
100
AcDbEntity
  8
GAIKEI
  6
Continuous
100
AcDbSpline
210
0.0
220
0.0
230
1.0
 70
     8
 71
     3
 72
    19
 73
    15
 74
    13
 42
0.0000000001
 43
0.0000000001
 44
0.00000001
 40
0.0
 40
0.0
 40
0.0
 40
0.0
 40
1.87908538809788
 40
3.758170776196017
 40
4.704013381554217
 40
5.64985598691119
 40
6.597065062449511
 40
7.544274137987912
 40
8.491483978486334
 40
9.438693818984619
 40
10.38453840622155
 40
11.33038299345983
 40
13.20947481378803
 40
15.08856663411586
 40
15.08856663411586
 40
15.08856663411586
 40
15.08856663411586
 10
-33.87624483213347
 20
8.354562693933416
 30
0.0
 10
-33.87624152399428
 20
8.980924489960443
 30
0.0
 10
-33.87623492247513
 20
10.23364808201449
 30
0.0
 10
-33.8762129615194
 20
11.80165254238989
 30
0.0
 10
-33.87619894734968
 20
13.05857607524916
 30
0.0
 10
-33.8761904102567
 20
14.00487417062993
 30
0.0
 10
-33.87618503859514
 20
14.95162775609452
 30
0.0
 10
-33.87618312652887
 20
15.89883708662006
 30
0.0
 10
-33.87618503852997
 20
16.84604667213221
 30
0.0
 10
-33.87619041013739
 20
17.79280142819686
 30
0.0
 10
-33.87619894719307
 20
18.73910109981756
 30
0.0
 10
-33.87621296135961
 20
19.99602809800683
 30
0.0
 10
-33.87623492241644
 20
21.56403750716237
 30
0.0
 10
-33.87624152397473
 20
22.8167653873698
 30
0.0
 10
-33.87624483213347
 20
23.4431293274734
 30
0.0
 11
-33.87624483213347
 21
8.354562693933416
 31
0.0
 11
-33.87623217654607
 21
10.23364808198874
 31
0.0
 11
-33.87620978459342
 21
12.11273346995341
 31
0.0
 11
-33.87619927281037
 21
13.0585760752532
 31
0.0
 11
-33.87619093173345
 21
14.00441868057345
 31
0.0
 11
-33.87618560562515
 21
14.9516277560968
 31
0.0
 11
-33.87618375387342
 21
15.89883683163339
 31
0.0
 11
-33.87618560556126
 21
16.84604667213
 31
0.0
 11
-33.87619093161345
 21
17.79325651261331
 31
0.0
 11
-33.8761992726578
 21
18.73910109981352
 31
0.0
 11
-33.87620978443346
 21
19.68494568699339
 31
0.0
 11
-33.87623217647581
 21
21.56403750718812
 31
0.0
 11
-33.87624483213347
 21
23.4431293274734
 31
0.0
  0
SPLINE
  5
16D
330
2
100
AcDbEntity
  8
GAIKEI
  6
Continuous
100
AcDbSpline
210
0.0
220
0.0
230
1.0
 70
     8
 71
     3
 72
    11
 73
     7
 74
     5
 42
0.0000000001
 43
0.0000000001
 44
0.00000001
 40
0.0
 40
0.0
 40
0.0
 40
0.0
 40
3.772141640686733
 40
7.544283281372897
 40
11.31642493392899
 40
15.08856658648577
 40
15.08856658648577
 40
15.08856658648577
 40
15.08856658648577
 10
-8.876244952233435
 20
23.44312930369335
 30
0.0
 10
-8.876256341096052
 20
22.1857487568588
 30
0.0
 10
-8.87627910382119
 20
19.6709876631898
 30
0.0
 10
-8.876319478859556
 20
15.89884601861672
 30
0.0
 10
-8.876279103821275
 20
12.12670437008688
 30
0.0
 10
-8.87625634109608
 20
9.61194326850466
 30
0.0
 10
-8.876244952233435
 20
8.354562717713406
 30
0.0
 11
-8.876244952233435
 21
23.44312930369335
 31
0.0
 11
-8.876280152312972
 21
19.67098766317076
 31
0.0
 11
-8.876306030513433
 21
15.89884602257336
 31
0.0
 11
-8.876280152313029
 21
12.12670437010604
 31
0.0
 11
-8.876244952233435
 21
8.354562717713406
 31
0.0
  0
TEXT
  5
16E
330
2
100
AcDbEntity
  8
TOUROKU
100
AcDbText
 10
28.67737545286429
 20
46.74871892127237
 30
0.0
 40
2.0
  1
ＷＳＭ１０＋ＷＳＱ１４６　ＳＰヨコ
 72
     2
 11
68.67737545286428
 21
46.74871892127237
 31
0.0
100
AcDbText
  0
TEXT
  5
170
330
2
100
AcDbEntity
  8
MOJI1
100
AcDbText
 10
-53.8225745800629
 20
-55.25128107872774
 30
0.0
 40
3.0
  1
備　考
100
AcDbText
  0
TEXT
  5
171
330
2
100
AcDbEntity
  8
MOJI1
100
AcDbText
 10
-13.8225745800629
 20
-55.25128107872774
 30
0.0
 40
3.0
  1
取付金具付
100
AcDbText
  0
TEXT
  5
172
330
2
100
AcDbEntity
  8
MOJI1
100
AcDbText
 10
-13.8225745800629
 20
-45.25128107872774
 30
0.0
 40
3.0
  1
９１ｄＢ（１Ｗ／１ｍ）
100
AcDbText
  0
LINE
  5
173
330
2
100
AcDbEntity
  8
WAKU
 62
     1
100
AcDbLine
 10
-56.3225745800629
 20
-26.25128107872774
 30
0.0
 11
68.6774254199371
 21
-26.25128107872774
 31
0.0
  0
LINE
  5
175
330
2
100
AcDbEntity
  8
WAKU
 62
     1
100
AcDbLine
 10
-56.3225745800629
 20
-31.25128107872774
 30
0.0
 11
68.6774254199371
 21
-31.25128107872774
 31
0.0
  0
LINE
  5
176
330
2
100
AcDbEntity
  8
WAKU
 62
     1
100
AcDbLine
 10
-56.3225745800629
 20
-36.25128107872774
 30
0.0
 11
68.6774254199371
 21
-36.25128107872774
 31
0.0
  0
LINE
  5
177
330
2
100
AcDbEntity
  8
WAKU
 62
     1
100
AcDbLine
 10
-56.3225745800629
 20
-41.25128107872774
 30
0.0
 11
68.6774254199371
 21
-41.25128107872774
 31
0.0
  0
LINE
  5
178
330
2
100
AcDbEntity
  8
WAKU
 62
     1
100
AcDbLine
 10
-56.3225745800629
 20
-46.25128107872774
 30
0.0
 11
68.6774254199371
 21
-46.25128107872774
 31
0.0
  0
LINE
  5
179
330
2
100
AcDbEntity
  8
WAKU
 62
     1
100
AcDbLine
 10
-56.3225745800629
 20
-51.25128107872774
 30
0.0
 11
68.6774254199371
 21
-51.25128107872774
 31
0.0
  0
LINE
  5
17A
330
2
100
AcDbEntity
  8
WAKU
 62
     4
100
AcDbLine
 10
68.6774254199371
 20
-21.25128107872774
 30
0.0
 11
-56.3225745800629
 21
-21.25128107872774
 31
0.0
  0
LINE
  5
17B
330
2
100
AcDbEntity
  8
WAKU
 62
     4
100
AcDbLine
 10
-56.3225745800629
 20
-56.25128107872774
 30
0.0
 11
68.6774254199371
 21
-56.25128107872774
 31
0.0
  0
TEXT
  5
17C
330
2
100
AcDbEntity
  8
MOJI1
100
AcDbText
 10
-13.8225745800629
 20
-30.25128107872774
 30
0.0
 40
3.0
  1
１２０Ｗ／６０Ｗ（連続プログラム／ＲＭＳ）
100
AcDbText
  0
TEXT
  5
17D
330
2
100
AcDbEntity
  8
MOJI1
100
AcDbText
 10
-53.8225745800629
 20
-35.25128107872774
 30
0.0
 40
3.0
  1
入力インピーダンス
100
AcDbText
  0
LINE
  5
17E
330
2
100
AcDbEntity
  8
WAKU
 62
     4
100
AcDbLine
 10
-56.3225745800629
 20
-21.25128107872774
 30
0.0
 11
-56.3225745800629
 21
-56.25128107872774
 31
0.0
  0
TEXT
  5
17F
330
2
100
AcDbEntity
  8
MOJI1
100
AcDbText
 10
-53.8225745800629
 20
-50.25128107872774
 30
0.0
 40
3.0
  1
使用スピーカー
100
AcDbText
  0
TEXT
  5
180
330
2
100
AcDbEntity
  8
MOJI1
100
AcDbText
 10
-53.8225745800629
 20
-25.25128107872774
 30
0.0
 40
3.0
  1
形　式
100
AcDbText
  0
TEXT
  5
181
330
2
100
AcDbEntity
  8
MOJI1
100
AcDbText
 10
-53.8225745800629
 20
-30.25128107872774
 30
0.0
 40
3.0
  1
許容入力
100
AcDbText
  0
TEXT
  5
182
330
2
100
AcDbEntity
  8
MOJI1
100
AcDbText
 10
-53.8225745800629
 20
-45.25128107872774
 30
0.0
 40
3.0
  1
出力音圧レベル
100
AcDbText
  0
TEXT
  5
183
330
2
100
AcDbEntity
  8
MOJI1
100
AcDbText
 10
-53.8225745800629
 20
-40.25128107872774
 30
0.0
 40
3.0
  1
周波数特性
100
AcDbText
  0
LINE
  5
184
330
2
100
AcDbEntity
  8
WAKU
 62
     4
100
AcDbLine
 10
-16.3225745800629
 20
-56.25128107872774
 30
0.0
 11
-16.3225745800629
 21
-21.25128107872774
 31
0.0
  0
TEXT
  5
185
330
2
100
AcDbEntity
  8
MOJI1
100
AcDbText
 10
-13.8225745800629
 20
-50.25128107872774
 30
0.0
 40
3.0
  1
１２ｃｍ　コーン形
100
AcDbText
  0
TEXT
  5
186
330
2
100
AcDbEntity
  8
MOJI1
100
AcDbText
 10
-13.8225745800629
 20
-25.25128107872774
 30
0.0
 40
3.0
  1
フルレンジバスレフ形
100
AcDbText
  0
TEXT
  5
187
330
2
100
AcDbEntity
  8
MOJI1
100
AcDbText
 10
-13.8225745800629
 20
-40.25128107872774
 30
0.0
 40
3.0
  1
５０Ｈｚ～１６ｋＨｚ
100
AcDbText
  0
TEXT
  5
188
330
2
100
AcDbEntity
  8
MOJI1
100
AcDbText
 10
-13.8225745800629
 20
-35.25128107872774
 30
0.0
 40
3.0
  1
８Ω
100
AcDbText
  0
LINE
  5
189
330
2
100
AcDbEntity
  8
WAKU
 62
     4
100
AcDbLine
 10
68.6774254199371
 20
-56.25128107872774
 30
0.0
 11
68.6774254199371
 21
-21.25128107872774
 31
0.0
  0
ENDSEC
  0
SECTION
  2
OBJECTS
  0
DICTIONARY
  5
7
330
0
100
AcDbDictionary
281
     1
  3
ACAD_COLOR
350
2A
  3
ACAD_GROUP
350
26
  3
ACAD_LAYOUT
350
B
  3
ACAD_MATERIAL
350
29
  3
ACAD_MLINESTYLE
350
27
  3
ACAD_PLOTSETTINGS
350
28
  3
ACAD_PLOTSTYLENAME
350
6
  3
ACDBHEADERROUNDTRIPXREC
350
1C6
  3
AcDbVariableDictionary
350
1C1
  0
DICTIONARY
  5
2A
102
{ACAD_REACTORS
330
7
102
}
330
7
100
AcDbDictionary
281
     1
  0
DICTIONARY
  5
26
102
{ACAD_REACTORS
330
7
102
}
330
7
100
AcDbDictionary
281
     1
  0
DICTIONARY
  5
B
102
{ACAD_REACTORS
330
7
102
}
330
7
100
AcDbDictionary
281
     1
  3
Model
350
A
  3
レイアウト1
350
F
  0
DICTIONARY
  5
29
102
{ACAD_REACTORS
330
7
102
}
330
7
100
AcDbDictionary
281
     1
  0
DICTIONARY
  5
27
102
{ACAD_REACTORS
330
7
102
}
330
7
100
AcDbDictionary
281
     1
  3
Standard
350
2C
  0
DICTIONARY
  5
28
102
{ACAD_REACTORS
330
7
102
}
330
7
100
AcDbDictionary
281
     1
  0
ACDBDICTIONARYWDFLT
  5
6
102
{ACAD_REACTORS
330
7
102
}
330
7
100
AcDbDictionary
281
     1
  3
Normal
350
5
100
AcDbDictionaryWithDefault
340
5
  0
DICTIONARY
  5
1C6
102
{ACAD_REACTORS
330
7
102
}
330
7
100
AcDbDictionary
281
     1
  3
COLORDICT
350
1C8
  3
MATERIALDICT
350
1C7
  0
DICTIONARY
  5
1C1
102
{ACAD_REACTORS
330
7
102
}
330
7
100
AcDbDictionary
281
     1
  3
DIMASSOC
350
1C3
  3
HIDETEXT
350
1C2
  3
PROJECTNAME
350
1C4
  0
LAYOUT
  5
A
102
{ACAD_XDICTIONARY
360
1C9
102
}
102
{ACAD_REACTORS
330
B
102
}
330
B
100
AcDbPlotSettings
  1

  2
none_device
  4
ANSI_A_(8.50_x_11.00_Inches)
  6

 40
6.349999904632568
 41
19.04999923706055
 42
6.350006103515625
 43
19.04998779296875
 44
215.8999938964844
 45
279.3999938964844
 46
0.0
 47
0.0
 48
0.0
 49
0.0
140
0.0
141
0.0
142
1.0
143
78.436453180766
 70
 11952
 72
     0
 73
     1
 74
     0
  7

 75
     0
147
0.0127491741332998
148
0.0
149
0.0
100
AcDbLayout
  1
Model
 70
     1
 71
     0
 10
0.0
 20
0.0
 11
12.0
 21
9.0
 12
0.0
 22
0.0
 32
0.0
 14
0.0
 24
0.0
 34
0.0
 15
0.0
 25
0.0
 35
0.0
146
0.0
 13
0.0
 23
0.0
 33
0.0
 16
1.0
 26
0.0
 36
0.0
 17
0.0
 27
1.0
 37
0.0
 76
     0
330
2
  0
LAYOUT
  5
F
102
{ACAD_XDICTIONARY
360
1CB
102
}
102
{ACAD_REACTORS
330
B
102
}
330
B
100
AcDbPlotSettings
  1

  2
None
  4

  6

 40
0.0
 41
0.0
 42
0.0
 43
0.0
 44
0.0
 45
0.0
 46
0.0
 47
0.0
 48
0.0
 49
0.0
140
0.0
141
0.0
142
1.0
143
1.0
 70
   688
 72
     0
 73
     0
 74
     5
  7
tmsacad.ctb
 75
    16
147
1.0
148
0.0
149
0.0
100
AcDbLayout
  1
レイアウト1
 70
     1
 71
     1
 10
0.0
 20
0.0
 11
12.0
 21
9.0
 12
0.0
 22
0.0
 32
0.0
 14
0.0
 24
0.0
 34
0.0
 15
0.0
 25
0.0
 35
0.0
146
0.0
 13
0.0
 23
0.0
 33
0.0
 16
1.0
 26
0.0
 36
0.0
 17
0.0
 27
1.0
 37
0.0
 76
     0
330
C
  0
MLINESTYLE
  5
2C
102
{ACAD_REACTORS
330
27
102
}
330
27
100
AcDbMlineStyle
  2
STANDARD
 70
     0
  3

 62
   256
 51
90.0
 52
90.0
 71
     2
 49
0.5
 62
   256
  6
BYLAYER
 49
-0.5
 62
   256
  6
BYLAYER
  0
ACDBPLACEHOLDER
  5
5
102
{ACAD_REACTORS
330
6
102
}
330
6
  0
XRECORD
  5
1C8
102
{ACAD_REACTORS
330
1C6
102
}
330
1C6
100
AcDbXrecord
280
     1
340
2A
  0
XRECORD
  5
1C7
102
{ACAD_REACTORS
330
1C6
102
}
330
1C6
100
AcDbXrecord
280
     1
340
29
  0
DICTIONARYVAR
  5
1C3
102
{ACAD_REACTORS
330
1C1
102
}
330
1C1
100
DictionaryVariables
280
     0
  1
1
  0
DICTIONARYVAR
  5
1C2
102
{ACAD_REACTORS
330
1C1
102
}
330
1C1
100
DictionaryVariables
280
     0
  1
1
  0
DICTIONARYVAR
  5
1C4
102
{ACAD_REACTORS
330
1C1
102
}
330
1C1
100
DictionaryVariables
280
     0
  1

  0
DICTIONARY
  5
1C9
330
A
100
AcDbDictionary
280
     1
281
     1
  3
ACAD_XREC_ROUNDTRIP
360
1CA
  0
DICTIONARY
  5
1CB
330
F
100
AcDbDictionary
280
     1
281
     1
  3
ACAD_XREC_ROUNDTRIP
360
1CC
  0
XRECORD
  5
1CA
102
{ACAD_REACTORS
330
1C9
102
}
330
1C9
100
AcDbXrecord
280
     1
102
SHADEPLOT
 70
     0
102
SHADEPLOTRESLEVEL
 70
     2
102
SHADEPLOTCUSTOMDPI
 70
   300
  0
XRECORD
  5
1CC
102
{ACAD_REACTORS
330
1CB
102
}
330
1CB
100
AcDbXrecord
280
     1
102
SHADEPLOT
 70
     0
102
SHADEPLOTRESLEVEL
 70
     2
102
SHADEPLOTCUSTOMDPI
 70
   300
  0
ENDSEC
  0
EOF
