  0
SECTION
  2
HEADER
  9
$ACADVER
  1
AC1015
  9
$ACADMAINTVER
 70
    20
  9
$DWGCODEPAGE
  3
ANSI_932
  9
$INSBASE
 10
0.4999999440410648
 20
246.5008351249344
 30
0.0
  9
$EXTMIN
 10
-61.72851471897274
 20
-45.84883053862585
 30
-0.0015258207003583
  9
$EXTMAX
 10
63.30505427357866
 20
67.17576641516735
 30
0.0000000349246037
  9
$LIMMIN
 10
0.0
 20
0.0
  9
$LIMMAX
 10
420.0
 20
297.0
  9
$ORTHOMODE
 70
     1
  9
$REGENMODE
 70
     0
  9
$FILLMODE
 70
     1
  9
$QTEXTMODE
 70
     0
  9
$MIRRTEXT
 70
     0
  9
$LTSCALE
 40
1.0
  9
$ATTMODE
 70
     1
  9
$TEXTSIZE
 40
2.5
  9
$TRACEWID
 40
1.0
  9
$TEXTSTYLE
  7
Standard
  9
$CLAYER
  8
SUNPO
  9
$CELTYPE
  6
ByLayer
  9
$CECOLOR
 62
   256
  9
$CELTSCALE
 40
1.0
  9
$DISPSILH
 70
     0
  9
$DIMSCALE
 40
1.0
  9
$DIMASZ
 40
2.0
  9
$DIMEXO
 40
2.0
  9
$DIMDLI
 40
8.0
  9
$DIMRND
 40
0.0
  9
$DIMDLE
 40
0.0
  9
$DIMEXE
 40
2.0
  9
$DIMTP
 40
0.0
  9
$DIMTM
 40
0.0
  9
$DIMTXT
 40
2.5
  9
$DIMCEN
 40
0.0
  9
$DIMTSZ
 40
0.0
  9
$DIMTOL
 70
     0
  9
$DIMLIM
 70
     0
  9
$DIMTIH
 70
     0
  9
$DIMTOH
 70
     0
  9
$DIMSE1
 70
     0
  9
$DIMSE2
 70
     0
  9
$DIMTAD
 70
     3
  9
$DIMZIN
 70
     0
  9
$DIMBLK
  1

  9
$DIMASO
 70
     1
  9
$DIMSHO
 70
     1
  9
$DIMPOST
  1

  9
$DIMAPOST
  1

  9
$DIMALT
 70
     0
  9
$DIMALTD
 70
     2
  9
$DIMALTF
 40
25.4
  9
$DIMLFAC
 40
1.0
  9
$DIMTOFL
 70
     1
  9
$DIMTVP
 40
0.0
  9
$DIMTIX
 70
     0
  9
$DIMSOXD
 70
     0
  9
$DIMSAH
 70
     1
  9
$DIMBLK1
  1
OPEN30
  9
$DIMBLK2
  1
OPEN30
  9
$DIMSTYLE
  2
STANDARD
  9
$DIMCLRD
 70
     0
  9
$DIMCLRE
 70
     0
  9
$DIMCLRT
 70
     0
  9
$DIMTFAC
 40
1.0
  9
$DIMGAP
 40
0.5
  9
$DIMJUST
 70
     0
  9
$DIMSD1
 70
     0
  9
$DIMSD2
 70
     0
  9
$DIMTOLJ
 70
     1
  9
$DIMTZIN
 70
     0
  9
$DIMALTZ
 70
     0
  9
$DIMALTTZ
 70
     0
  9
$DIMUPT
 70
     0
  9
$DIMDEC
 70
     4
  9
$DIMTDEC
 70
     4
  9
$DIMALTU
 70
     2
  9
$DIMALTTD
 70
     2
  9
$DIMTXSTY
  7
Standard
  9
$DIMAUNIT
 70
     0
  9
$DIMADEC
 70
     0
  9
$DIMALTRND
 40
0.0
  9
$DIMAZIN
 70
     0
  9
$DIMDSEP
 70
    46
  9
$DIMATFIT
 70
     3
  9
$DIMFRAC
 70
     0
  9
$DIMLDRBLK
  1
OPEN30
  9
$DIMLUNIT
 70
     2
  9
$DIMLWD
 70
    -2
  9
$DIMLWE
 70
    -2
  9
$DIMTMOVE
 70
     0
  9
$LUNITS
 70
     2
  9
$LUPREC
 70
     4
  9
$SKETCHINC
 40
1.0
  9
$FILLETRAD
 40
0.0
  9
$AUNITS
 70
     0
  9
$AUPREC
 70
     0
  9
$MENU
  1
.
  9
$ELEVATION
 40
0.0
  9
$PELEVATION
 40
0.0
  9
$THICKNESS
 40
0.0
  9
$LIMCHECK
 70
     0
  9
$CHAMFERA
 40
0.0
  9
$CHAMFERB
 40
0.0
  9
$CHAMFERC
 40
0.0
  9
$CHAMFERD
 40
0.0
  9
$SKPOLY
 70
     0
  9
$TDCREATE
 40
2454349.434269746
  9
$TDUCREATE
 40
2454349.059269746
  9
$TDUPDATE
 40
2455456.592355324
  9
$TDUUPDATE
 40
2455456.217355324
  9
$TDINDWG
 40
0.2175895255
  9
$TDUSRTIMER
 40
0.2175895255
  9
$USRTIMER
 70
     1
  9
$ANGBASE
 50
0.0
  9
$ANGDIR
 70
     0
  9
$PDMODE
 70
     0
  9
$PDSIZE
 40
0.0
  9
$PLINEWID
 40
0.0
  9
$SPLFRAME
 70
     0
  9
$SPLINETYPE
 70
     6
  9
$SPLINESEGS
 70
     8
  9
$HANDSEED
  5
51D
  9
$SURFTAB1
 70
     6
  9
$SURFTAB2
 70
     6
  9
$SURFTYPE
 70
     6
  9
$SURFU
 70
     6
  9
$SURFV
 70
     6
  9
$UCSBASE
  2

  9
$UCSNAME
  2

  9
$UCSORG
 10
0.0
 20
0.0
 30
0.0
  9
$UCSXDIR
 10
1.0
 20
0.0
 30
0.0
  9
$UCSYDIR
 10
0.0
 20
1.0
 30
0.0
  9
$UCSORTHOREF
  2

  9
$UCSORTHOVIEW
 70
     0
  9
$UCSORGTOP
 10
0.0
 20
0.0
 30
0.0
  9
$UCSORGBOTTOM
 10
0.0
 20
0.0
 30
0.0
  9
$UCSORGLEFT
 10
0.0
 20
0.0
 30
0.0
  9
$UCSORGRIGHT
 10
0.0
 20
0.0
 30
0.0
  9
$UCSORGFRONT
 10
0.0
 20
0.0
 30
0.0
  9
$UCSORGBACK
 10
0.0
 20
0.0
 30
0.0
  9
$PUCSBASE
  2

  9
$PUCSNAME
  2

  9
$PUCSORG
 10
0.0
 20
0.0
 30
0.0
  9
$PUCSXDIR
 10
1.0
 20
0.0
 30
0.0
  9
$PUCSYDIR
 10
0.0
 20
1.0
 30
0.0
  9
$PUCSORTHOREF
  2

  9
$PUCSORTHOVIEW
 70
     0
  9
$PUCSORGTOP
 10
0.0
 20
0.0
 30
0.0
  9
$PUCSORGBOTTOM
 10
0.0
 20
0.0
 30
0.0
  9
$PUCSORGLEFT
 10
0.0
 20
0.0
 30
0.0
  9
$PUCSORGRIGHT
 10
0.0
 20
0.0
 30
0.0
  9
$PUCSORGFRONT
 10
0.0
 20
0.0
 30
0.0
  9
$PUCSORGBACK
 10
0.0
 20
0.0
 30
0.0
  9
$USERI1
 70
     0
  9
$USERI2
 70
     0
  9
$USERI3
 70
     0
  9
$USERI4
 70
     0
  9
$USERI5
 70
     0
  9
$USERR1
 40
0.0
  9
$USERR2
 40
0.0
  9
$USERR3
 40
0.0
  9
$USERR4
 40
0.0
  9
$USERR5
 40
0.0
  9
$WORLDVIEW
 70
     1
  9
$SHADEDGE
 70
     3
  9
$SHADEDIF
 70
    70
  9
$TILEMODE
 70
     1
  9
$MAXACTVP
 70
    64
  9
$PINSBASE
 10
0.0
 20
0.0
 30
0.0
  9
$PLIMCHECK
 70
     0
  9
$PEXTMIN
 10
0.0
 20
0.0
 30
0.0
  9
$PEXTMAX
 10
0.0
 20
0.0
 30
0.0
  9
$PLIMMIN
 10
0.0
 20
0.0
  9
$PLIMMAX
 10
12.0
 20
9.0
  9
$UNITMODE
 70
     0
  9
$VISRETAIN
 70
     1
  9
$PLINEGEN
 70
     0
  9
$PSLTSCALE
 70
     1
  9
$TREEDEPTH
 70
  3020
  9
$CMLSTYLE
  2
Standard
  9
$CMLJUST
 70
     0
  9
$CMLSCALE
 40
20.0
  9
$PROXYGRAPHICS
 70
     1
  9
$MEASUREMENT
 70
     1
  9
$CELWEIGHT
370
    -1
  9
$ENDCAPS
280
     0
  9
$JOINSTYLE
280
     0
  9
$LWDISPLAY
290
     0
  9
$INSUNITS
 70
     4
  9
$HYPERLINKBASE
  1

  9
$STYLESHEET
  1

  9
$XEDIT
290
     1
  9
$CEPSNTYPE
380
     0
  9
$PSTYLEMODE
290
     1
  9
$FINGERPRINTGUID
  2
{FDEAD578-A652-11D2-9A35-0060089B3A3F}
  9
$VERSIONGUID
  2
{341FCED0-D185-4F7C-9C35-76AC72A42BF5}
  9
$EXTNAMES
290
     1
  9
$PSVPSCALE
 40
0.0
  9
$OLESTARTUP
290
     0
  0
ENDSEC
  0
SECTION
  2
CLASSES
  0
CLASS
  1
ACDBDICTIONARYWDFLT
  2
AcDbDictionaryWithDefault
  3
ObjectDBX Classes
 90
        0
280
     0
281
     0
  0
CLASS
  1
ACDBPLACEHOLDER
  2
AcDbPlaceHolder
  3
ObjectDBX Classes
 90
        0
280
     0
281
     0
  0
CLASS
  1
LAYOUT
  2
AcDbLayout
  3
ObjectDBX Classes
 90
        0
280
     0
281
     0
  0
CLASS
  1
DICTIONARYVAR
  2
AcDbDictionaryVar
  3
ObjectDBX Classes
 90
        0
280
     0
281
     0
  0
CLASS
  1
DIMASSOC
  2
AcDbDimAssoc
  3
"AcDbDimAssoc|Product Desc:     AcDim ARX App For Dimension|Company:          Autodesk, Inc.|WEB Address:      www.autodesk.com"
 90
    32768
280
     0
281
     0
  0
ENDSEC
  0
SECTION
  2
TABLES
  0
TABLE
  2
VPORT
  5
19
330
0
100
AcDbSymbolTable
 70
     2
  0
VPORT
  5
515
330
19
100
AcDbSymbolTableRecord
100
AcDbViewportTableRecord
  2
*Active
 70
     0
 10
0.0
 20
0.0
 11
1.0
 21
1.0
 12
0.7882697773029541
 22
10.66346793827074
 13
0.0
 23
0.0
 14
10.0
 24
10.0
 15
10.0
 25
10.0
 16
0.0
 26
0.0
 36
1.0
 17
0.0
 27
0.0
 37
0.0
 40
113.9216175645376
 41
1.451655629139072
 42
50.0
 43
0.0
 44
0.0
 50
0.0
 51
0.0
 71
     0
 72
  1000
 73
     1
 74
     2
 75
     0
 76
     0
 77
     0
 78
     0
281
     0
 65
     1
110
0.0
120
0.0
130
0.0
111
1.0
121
0.0
131
0.0
112
0.0
122
1.0
132
0.0
 79
     0
146
0.0
  0
ENDTAB
  0
TABLE
  2
LTYPE
  5
14
330
0
100
AcDbSymbolTable
 70
     1
  0
LTYPE
  5
15
330
14
100
AcDbSymbolTableRecord
100
AcDbLinetypeTableRecord
  2
ByBlock
 70
     0
  3

 72
    65
 73
     0
 40
0.0
  0
LTYPE
  5
16
330
14
100
AcDbSymbolTableRecord
100
AcDbLinetypeTableRecord
  2
ByLayer
 70
     0
  3

 72
    65
 73
     0
 40
0.0
  0
LTYPE
  5
8
330
14
100
AcDbSymbolTableRecord
100
AcDbLinetypeTableRecord
  2
Continuous
 70
     0
  3
Solid line
 72
    65
 73
     0
 40
0.0
  0
ENDTAB
  0
TABLE
  2
LAYER
  5
10
330
0
100
AcDbSymbolTable
 70
     7
  0
LAYER
  5
4
330
10
100
AcDbSymbolTableRecord
100
AcDbLayerTableRecord
  2
0
 70
     0
 62
     7
  6
Continuous
370
    -3
390
5
  0
LAYER
  5
246
330
10
100
AcDbSymbolTableRecord
100
AcDbLayerTableRecord
  2
WAKU
 70
     0
 62
     4
  6
Continuous
370
    -3
390
5
  0
LAYER
  5
2E
330
10
100
AcDbSymbolTableRecord
100
AcDbLayerTableRecord
  2
MOJI1
 70
     0
 62
     2
  6
Continuous
370
    -3
390
5
  0
LAYER
  5
30
330
10
100
AcDbSymbolTableRecord
100
AcDbLayerTableRecord
  2
TOUROKU
 70
     0
 62
     1
  6
Continuous
370
    -3
390
5
  0
LAYER
  5
6A
330
10
100
AcDbSymbolTableRecord
100
AcDbLayerTableRecord
  2
GAIKEI
 70
     0
 62
     7
  6
Continuous
370
    -3
390
5
  0
LAYER
  5
2B
330
10
100
AcDbSymbolTableRecord
100
AcDbLayerTableRecord
  2
SUNPO
 70
     0
 62
     3
  6
Continuous
370
    -3
390
5
  0
LAYER
  5
3E
330
10
100
AcDbSymbolTableRecord
100
AcDbLayerTableRecord
  2
DEFPOINTS
 70
     0
 62
     7
  6
Continuous
290
     0
370
    -3
390
5
  0
ENDTAB
  0
TABLE
  2
STYLE
  5
11
330
0
100
AcDbSymbolTable
 70
     1
  0
STYLE
  5
12
330
11
100
AcDbSymbolTableRecord
100
AcDbTextStyleTableRecord
  2
Standard
 70
     0
 40
0.0
 41
1.0
 50
0.0
 71
     0
 42
2.5
  3
MONOTXT.shx
  4
BIGFONT.shx
  0
ENDTAB
  0
TABLE
  2
VIEW
  5
17
330
0
100
AcDbSymbolTable
 70
     0
  0
ENDTAB
  0
TABLE
  2
UCS
  5
18
330
0
100
AcDbSymbolTable
 70
     0
  0
ENDTAB
  0
TABLE
  2
APPID
  5
1B
330
0
100
AcDbSymbolTable
 70
     1
  0
APPID
  5
1C
330
1B
100
AcDbSymbolTableRecord
100
AcDbRegAppTableRecord
  2
ACAD
 70
     0
  0
ENDTAB
  0
TABLE
  2
DIMSTYLE
  5
1D
330
0
100
AcDbSymbolTable
 70
     1
100
AcDbDimStyleTable
 71
     1
340
1E
  0
DIMSTYLE
105
1E
102
{ACAD_REACTORS
330
4F
330
5C
330
42
330
34
102
}
330
1D
100
AcDbSymbolTableRecord
100
AcDbDimStyleTableRecord
  2
STANDARD
 70
     0
 40
0.0
 41
2.0
 42
2.0
 43
8.0
 44
2.0
 73
     0
 74
     0
 77
     3
140
3.0
141
0.0
173
     1
279
     2
288
     1
340
12
341
1F
343
1F
344
1F
  0
ENDTAB
  0
TABLE
  2
BLOCK_RECORD
  5
1
330
0
100
AcDbSymbolTable
 70
     9
  0
BLOCK_RECORD
  5
2
330
1
100
AcDbSymbolTableRecord
100
AcDbBlockTableRecord
  2
*Model_Space
340
A
  0
BLOCK_RECORD
  5
C
330
1
100
AcDbSymbolTableRecord
100
AcDbBlockTableRecord
  2
*Paper_Space
340
F
  0
BLOCK_RECORD
  5
1F
330
1
100
AcDbSymbolTableRecord
100
AcDbBlockTableRecord
  2
_OPEN30
340
0
102
{BLKREFS
331
55
331
56
331
62
331
63
331
48
331
49
331
3A
331
3B
331
4E5
331
4E6
331
4F1
331
4F2
331
4FD
331
4FE
331
509
331
50A
102
}
  0
BLOCK_RECORD
  5
50
330
1
100
AcDbSymbolTableRecord
100
AcDbBlockTableRecord
  2
*D1
340
0
  0
BLOCK_RECORD
  5
5D
330
1
100
AcDbSymbolTableRecord
100
AcDbBlockTableRecord
  2
*D2
340
0
  0
BLOCK_RECORD
  5
43
330
1
100
AcDbSymbolTableRecord
100
AcDbBlockTableRecord
  2
*D3
340
0
  0
BLOCK_RECORD
  5
35
330
1
100
AcDbSymbolTableRecord
100
AcDbBlockTableRecord
  2
*D4
340
0
  0
BLOCK_RECORD
  5
4E1
330
1
100
AcDbSymbolTableRecord
100
AcDbBlockTableRecord
  2
*D5
340
0
  0
BLOCK_RECORD
  5
4ED
330
1
100
AcDbSymbolTableRecord
100
AcDbBlockTableRecord
  2
*D6
340
0
  0
BLOCK_RECORD
  5
4F9
330
1
100
AcDbSymbolTableRecord
100
AcDbBlockTableRecord
  2
*D7
340
0
  0
BLOCK_RECORD
  5
505
330
1
100
AcDbSymbolTableRecord
100
AcDbBlockTableRecord
  2
*D8
340
0
  0
ENDTAB
  0
ENDSEC
  0
SECTION
  2
BLOCKS
  0
BLOCK
  5
3
330
2
100
AcDbEntity
  8
0
100
AcDbBlockBegin
  2
*Model_Space
 70
     0
 10
0.0
 20
0.0
 30
0.0
  3
*Model_Space
  1

  0
ENDBLK
  5
9
330
2
100
AcDbEntity
  8
0
100
AcDbBlockEnd
  0
BLOCK
  5
D
330
C
100
AcDbEntity
 67
     1
  8
0
100
AcDbBlockBegin
  2
*Paper_Space
 70
     0
 10
0.0
 20
0.0
 30
0.0
  3
*Paper_Space
  1

  0
ENDBLK
  5
E
330
C
100
AcDbEntity
 67
     1
  8
0
100
AcDbBlockEnd
  0
BLOCK
  5
20
330
1F
100
AcDbEntity
  8
0
100
AcDbBlockBegin
  2
_OPEN30
 70
     0
 10
0.0
 20
0.0
 30
0.0
  3
_OPEN30
  1

  0
LINE
  5
21
330
1F
100
AcDbEntity
  8
0
  6
ByBlock
 62
     0
100
AcDbLine
 10
-1.0
 20
0.26794919
 30
0.0
 11
0.0
 21
0.0
 31
0.0
  0
LINE
  5
22
330
1F
100
AcDbEntity
  8
0
  6
ByBlock
 62
     0
100
AcDbLine
 10
0.0
 20
0.0
 30
0.0
 11
-1.0
 21
-0.26794919
 31
0.0
  0
LINE
  5
23
330
1F
100
AcDbEntity
  8
0
  6
ByBlock
 62
     0
100
AcDbLine
 10
0.0
 20
0.0
 30
0.0
 11
-1.0
 21
0.0
 31
0.0
  0
ENDBLK
  5
24
330
1F
100
AcDbEntity
  8
0
100
AcDbBlockEnd
  0
BLOCK
  5
51
330
50
100
AcDbEntity
  8
0
100
AcDbBlockBegin
  2
*D1
 70
     1
 10
0.0
 20
0.0
 30
0.0
  3
*D1
  1

  0
LINE
  5
52
330
50
100
AcDbEntity
  8
SUNPO
 62
     0
370
    -2
100
AcDbLine
 10
32.56520918501008
 20
213.7994631027218
 30
0.0
 11
32.56520918501008
 21
221.7994631027218
 31
0.0
  0
LINE
  5
53
330
50
100
AcDbEntity
  8
SUNPO
 62
     0
370
    -2
100
AcDbLine
 10
47.86520918501003
 20
213.7994631027218
 30
0.0
 11
47.86520918501003
 21
221.7994631027218
 31
0.0
  0
LINE
  5
54
330
50
100
AcDbEntity
  8
SUNPO
 62
     0
370
    -2
100
AcDbLine
 10
34.56520918501008
 20
219.7994631027218
 30
0.0
 11
45.86520918501003
 21
219.7994631027218
 31
0.0
  0
INSERT
  5
55
330
50
100
AcDbEntity
  8
SUNPO
 62
     0
370
    -2
100
AcDbBlockReference
  2
_OPEN30
 10
32.56520918501008
 20
219.7994631027218
 30
0.0
 41
2.0
 42
2.0
 43
2.0
 50
180.0
  0
INSERT
  5
56
330
50
100
AcDbEntity
  8
SUNPO
 62
     0
370
    -2
100
AcDbBlockReference
  2
_OPEN30
 10
47.86520918501003
 20
219.7994631027218
 30
0.0
 41
2.0
 42
2.0
 43
2.0
  0
MTEXT
  5
57
330
50
100
AcDbEntity
  8
SUNPO
 62
     0
100
AcDbMText
 10
40.21520918501005
 20
221.5494631027218
 30
0.0
 40
2.5
 41
0.0
 71
     5
 72
     1
  1
\A1;153
 73
     1
 44
1.0
1001
ACAD
1000
MTEXTBEGIN
1070
    73
1070
     1
1070
    44
1040
1.0
1070
    74
1070
     0
1000
MTEXTEND
  0
POINT
  5
58
330
50
100
AcDbEntity
  8
DEFPOINTS
 62
     0
100
AcDbPoint
 10
32.56520918501008
 20
211.7994631027218
 30
0.0
  0
POINT
  5
59
330
50
100
AcDbEntity
  8
DEFPOINTS
 62
     0
100
AcDbPoint
 10
47.86520918501003
 20
211.7994631027218
 30
0.0
  0
POINT
  5
5A
330
50
100
AcDbEntity
  8
DEFPOINTS
 62
     0
100
AcDbPoint
 10
47.86520918501003
 20
219.7994631027218
 30
0.0
  0
ENDBLK
  5
5B
330
50
100
AcDbEntity
  8
0
100
AcDbBlockEnd
  0
BLOCK
  5
5E
330
5D
100
AcDbEntity
  8
0
100
AcDbBlockBegin
  2
*D2
 70
     1
 10
0.0
 20
0.0
 30
0.0
  3
*D2
  1

  0
LINE
  5
5F
330
5D
100
AcDbEntity
  8
SUNPO
 62
     0
370
    -2
100
AcDbLine
 10
49.91499645254356
 20
186.8066400745224
 30
0.0
 11
57.91499642876351
 21
186.8066400745224
 31
0.0
  0
LINE
  5
60
330
5D
100
AcDbEntity
  8
SUNPO
 62
     0
370
    -2
100
AcDbLine
 10
49.91499642876352
 20
211.8066399544224
 30
0.0
 11
57.91499642876352
 21
211.8066399544224
 31
0.0
  0
LINE
  5
61
330
5D
100
AcDbEntity
  8
SUNPO
 62
     0
370
    -2
100
AcDbLine
 10
55.91499642876351
 20
188.8066400745224
 30
0.0
 11
55.91499642876351
 21
209.8066399544224
 31
0.0
  0
INSERT
  5
62
330
5D
100
AcDbEntity
  8
SUNPO
 62
     0
370
    -2
100
AcDbBlockReference
  2
_OPEN30
 10
55.91499642876351
 20
186.8066400745224
 30
0.0
 41
2.0
 42
2.0
 43
2.0
 50
270.0
  0
INSERT
  5
63
330
5D
100
AcDbEntity
  8
SUNPO
 62
     0
370
    -2
100
AcDbBlockReference
  2
_OPEN30
 10
55.91499642876351
 20
211.8066399544224
 30
0.0
 41
2.0
 42
2.0
 43
2.0
 50
90.0
  0
MTEXT
  5
64
330
5D
100
AcDbEntity
  8
SUNPO
 62
     0
100
AcDbMText
 10
54.16499642876348
 20
199.3066400144724
 30
0.0
 40
2.5
 41
0.0
 71
     5
 72
     1
  1
\A1;250
 11
0.0000000000000001
 21
1.0
 31
0.0
 73
     1
 44
1.0
1001
ACAD
1000
MTEXTBEGIN
1070
    73
1070
     1
1070
    44
1040
1.0
1070
    74
1070
     0
1000
MTEXTEND
  0
POINT
  5
65
330
5D
100
AcDbEntity
  8
DEFPOINTS
 62
     0
100
AcDbPoint
 10
47.91499645254356
 20
186.8066400745224
 30
0.0
  0
POINT
  5
66
330
5D
100
AcDbEntity
  8
DEFPOINTS
 62
     0
100
AcDbPoint
 10
47.91499642876352
 20
211.8066399544224
 30
0.0
  0
POINT
  5
67
330
5D
100
AcDbEntity
  8
DEFPOINTS
 62
     0
100
AcDbPoint
 10
55.91499642876351
 20
211.8066399544224
 30
0.0
  0
ENDBLK
  5
68
330
5D
100
AcDbEntity
  8
0
100
AcDbBlockEnd
  0
BLOCK
  5
44
330
43
100
AcDbEntity
  8
0
100
AcDbBlockBegin
  2
*D3
 70
     1
 10
0.0
 20
0.0
 30
0.0
  3
*D3
  1

  0
LINE
  5
45
330
43
100
AcDbEntity
  8
SUNPO
 62
     0
370
    -2
100
AcDbLine
 10
73.51392830558928
 20
213.7994631027218
 30
0.0
 11
73.51392830558928
 21
221.7994631027218
 31
0.0
  0
LINE
  5
46
330
43
100
AcDbEntity
  8
SUNPO
 62
     0
370
    -2
100
AcDbLine
 10
89.71392830558636
 20
213.7994631027218
 30
0.0
 11
89.71392830558636
 21
221.7994631027218
 31
0.0
  0
LINE
  5
47
330
43
100
AcDbEntity
  8
SUNPO
 62
     0
370
    -2
100
AcDbLine
 10
75.51392830558928
 20
219.7994631027218
 30
0.0
 11
87.71392830558637
 21
219.7994631027218
 31
0.0
  0
INSERT
  5
48
330
43
100
AcDbEntity
  8
SUNPO
 62
     0
370
    -2
100
AcDbBlockReference
  2
_OPEN30
 10
73.51392830558928
 20
219.7994631027218
 30
0.0
 41
2.0
 42
2.0
 43
2.0
 50
180.0
  0
INSERT
  5
49
330
43
100
AcDbEntity
  8
SUNPO
 62
     0
370
    -2
100
AcDbBlockReference
  2
_OPEN30
 10
89.71392830558636
 20
219.7994631027218
 30
0.0
 41
2.0
 42
2.0
 43
2.0
  0
MTEXT
  5
4A
330
43
100
AcDbEntity
  8
SUNPO
 62
     0
100
AcDbMText
 10
81.61392830558781
 20
221.5494631027218
 30
0.0
 40
2.5
 41
0.0
 71
     5
 72
     1
  1
\A1;162
 73
     1
 44
1.0
1001
ACAD
1000
MTEXTBEGIN
1070
    73
1070
     1
1070
    44
1040
1.0
1070
    74
1070
     0
1000
MTEXTEND
  0
POINT
  5
4B
330
43
100
AcDbEntity
  8
DEFPOINTS
 62
     0
100
AcDbPoint
 10
73.51392830558928
 20
211.7994631027218
 30
0.0
  0
POINT
  5
4C
330
43
100
AcDbEntity
  8
DEFPOINTS
 62
     0
100
AcDbPoint
 10
89.71392830558636
 20
211.7994631027218
 30
0.0
  0
POINT
  5
4D
330
43
100
AcDbEntity
  8
DEFPOINTS
 62
     0
100
AcDbPoint
 10
89.71392830558636
 20
219.7994631027218
 30
0.0
  0
ENDBLK
  5
4E
330
43
100
AcDbEntity
  8
0
100
AcDbBlockEnd
  0
BLOCK
  5
36
330
35
100
AcDbEntity
  8
0
100
AcDbBlockBegin
  2
*D4
 70
     1
 10
0.0
 20
0.0
 30
0.0
  3
*D4
  1

  0
LINE
  5
37
330
35
100
AcDbEntity
  8
SUNPO
 62
     0
370
    -2
100
AcDbLine
 10
106.1763073746663
 20
215.3166400145025
 30
0.0
 11
114.1763073746663
 21
215.3166400145025
 31
0.0
  0
LINE
  5
38
330
35
100
AcDbEntity
  8
SUNPO
 62
     0
370
    -2
100
AcDbLine
 10
106.1763073746663
 20
201.3166400145026
 30
0.0
 11
114.1763073746663
 21
201.3166400145026
 31
0.0
  0
LINE
  5
39
330
35
100
AcDbEntity
  8
SUNPO
 62
     0
370
    -2
100
AcDbLine
 10
112.1763073746663
 20
213.3166400145025
 30
0.0
 11
112.1763073746663
 21
203.3166400145026
 31
0.0
  0
INSERT
  5
3A
330
35
100
AcDbEntity
  8
SUNPO
 62
     0
370
    -2
100
AcDbBlockReference
  2
_OPEN30
 10
112.1763073746663
 20
215.3166400145025
 30
0.0
 41
2.0
 42
2.0
 43
2.0
 50
90.0
  0
INSERT
  5
3B
330
35
100
AcDbEntity
  8
SUNPO
 62
     0
370
    -2
100
AcDbBlockReference
  2
_OPEN30
 10
112.1763073746663
 20
201.3166400145026
 30
0.0
 41
2.0
 42
2.0
 43
2.0
 50
270.0
  0
MTEXT
  5
3C
330
35
100
AcDbEntity
  8
SUNPO
 62
     0
100
AcDbMText
 10
110.4263073746663
 20
208.3166400145025
 30
0.0
 40
2.5
 41
0.0
 71
     5
 72
     1
  1
\A1;φ140
 11
0.0000000000000001
 21
1.0
 31
0.0
 73
     1
 44
1.0
1001
ACAD
1000
MTEXTBEGIN
1070
    73
1070
     1
1070
    44
1040
1.0
1070
    74
1070
     0
1000
MTEXTEND
  0
POINT
  5
3D
330
35
100
AcDbEntity
  8
DEFPOINTS
 62
     0
100
AcDbPoint
 10
104.1763073746663
 20
215.3166400145025
 30
0.0
  0
POINT
  5
3F
330
35
100
AcDbEntity
  8
DEFPOINTS
 62
     0
100
AcDbPoint
 10
104.1763073746663
 20
201.3166400145026
 30
0.0
  0
POINT
  5
40
330
35
100
AcDbEntity
  8
DEFPOINTS
 62
     0
100
AcDbPoint
 10
112.1763073746663
 20
201.3166400145026
 30
0.0
  0
ENDBLK
  5
41
330
35
100
AcDbEntity
  8
0
100
AcDbBlockEnd
  0
BLOCK
  5
4EB
330
4E1
100
AcDbEntity
  8
0
100
AcDbBlockBegin
  2
*D5
 70
     1
 10
0.0
 20
0.0
 30
0.0
  3
*D5
  1

  0
LINE
  5
4E2
330
4E1
100
AcDbEntity
  8
SUNPO
 62
     0
370
    -2
100
AcDbLine
 10
-14.29724232626603
 20
9.474736831474245
 30
0.0
 11
-6.297242350046081
 21
9.474736831474244
 31
0.0
  0
LINE
  5
4E3
330
4E1
100
AcDbEntity
  8
SUNPO
 62
     0
370
    -2
100
AcDbLine
 10
-14.29724235004607
 20
34.47473671137427
 30
0.0
 11
-6.297242350046075
 21
34.47473671137427
 31
0.0
  0
LINE
  5
4E4
330
4E1
100
AcDbEntity
  8
SUNPO
 62
     0
370
    -2
100
AcDbLine
 10
-8.297242350046081
 20
11.47473683147424
 30
0.0
 11
-8.297242350046076
 21
32.47473671137427
 31
0.0
  0
INSERT
  5
4E5
330
4E1
100
AcDbEntity
  8
SUNPO
 62
     0
370
    -2
100
AcDbBlockReference
  2
_OPEN30
 10
-8.297242350046081
 20
9.474736831474244
 30
0.0
 41
2.0
 42
2.0
 43
2.0
 50
270.0
  0
INSERT
  5
4E6
330
4E1
100
AcDbEntity
  8
SUNPO
 62
     0
370
    -2
100
AcDbBlockReference
  2
_OPEN30
 10
-8.297242350046076
 20
34.47473671137427
 30
0.0
 41
2.0
 42
2.0
 43
2.0
 50
90.0
  0
MTEXT
  5
4E7
330
4E1
100
AcDbEntity
  8
SUNPO
 62
     0
100
AcDbMText
 10
-10.04724235004608
 20
21.97473677142426
 30
0.0
 40
2.5
 41
0.0
 71
     5
 72
     1
  1
\A1;250
 11
0.0000000000000001
 21
1.0
 31
0.0
 73
     1
 44
1.0
1001
ACAD
1000
MTEXTBEGIN
1070
    73
1070
     1
1070
    44
1040
1.0
1070
    74
1070
     0
1000
MTEXTEND
  0
POINT
  5
4E8
330
4E1
100
AcDbEntity
  8
DEFPOINTS
 62
     0
100
AcDbPoint
 10
-16.29724232626603
 20
9.474736831474245
 30
0.0
  0
POINT
  5
4E9
330
4E1
100
AcDbEntity
  8
DEFPOINTS
 62
     0
100
AcDbPoint
 10
-16.29724235004607
 20
34.47473671137428
 30
0.0
  0
POINT
  5
4EA
330
4E1
100
AcDbEntity
  8
DEFPOINTS
 62
     0
100
AcDbPoint
 10
-8.297242350046076
 20
34.47473671137427
 30
0.0
  0
ENDBLK
  5
4EC
330
4E1
100
AcDbEntity
  8
0
100
AcDbBlockEnd
  0
BLOCK
  5
4F7
330
4ED
100
AcDbEntity
  8
0
100
AcDbBlockBegin
  2
*D6
 70
     1
 10
0.0
 20
0.0
 30
0.0
  3
*D6
  1

  0
LINE
  5
4EE
330
4ED
100
AcDbEntity
  8
SUNPO
 62
     0
370
    -2
100
AcDbLine
 10
-31.64702959379952
 20
36.46755985967369
 30
0.0
 11
-31.64702959379952
 21
44.46755985967368
 31
0.0
  0
LINE
  5
4EF
330
4ED
100
AcDbEntity
  8
SUNPO
 62
     0
370
    -2
100
AcDbLine
 10
-16.34702959379956
 20
36.46755985967369
 30
0.0
 11
-16.34702959379956
 21
44.46755985967368
 31
0.0
  0
LINE
  5
4F0
330
4ED
100
AcDbEntity
  8
SUNPO
 62
     0
370
    -2
100
AcDbLine
 10
-29.64702959379952
 20
42.46755985967368
 30
0.0
 11
-18.34702959379956
 21
42.46755985967368
 31
0.0
  0
INSERT
  5
4F1
330
4ED
100
AcDbEntity
  8
SUNPO
 62
     0
370
    -2
100
AcDbBlockReference
  2
_OPEN30
 10
-31.64702959379952
 20
42.46755985967368
 30
0.0
 41
2.0
 42
2.0
 43
2.0
 50
180.0
  0
INSERT
  5
4F2
330
4ED
100
AcDbEntity
  8
SUNPO
 62
     0
370
    -2
100
AcDbBlockReference
  2
_OPEN30
 10
-16.34702959379956
 20
42.46755985967368
 30
0.0
 41
2.0
 42
2.0
 43
2.0
  0
MTEXT
  5
4F3
330
4ED
100
AcDbEntity
  8
SUNPO
 62
     0
100
AcDbMText
 10
-23.99702959379954
 20
44.21755985967368
 30
0.0
 40
2.5
 41
0.0
 71
     5
 72
     1
  1
\A1;153
 73
     1
 44
1.0
1001
ACAD
1000
MTEXTBEGIN
1070
    73
1070
     1
1070
    44
1040
1.0
1070
    74
1070
     0
1000
MTEXTEND
  0
POINT
  5
4F4
330
4ED
100
AcDbEntity
  8
DEFPOINTS
 62
     0
100
AcDbPoint
 10
-31.64702959379952
 20
34.46755985967369
 30
0.0
  0
POINT
  5
4F5
330
4ED
100
AcDbEntity
  8
DEFPOINTS
 62
     0
100
AcDbPoint
 10
-16.34702959379956
 20
34.46755985967369
 30
0.0
  0
POINT
  5
4F6
330
4ED
100
AcDbEntity
  8
DEFPOINTS
 62
     0
100
AcDbPoint
 10
-16.34702959379956
 20
42.46755985967368
 30
0.0
  0
ENDBLK
  5
4F8
330
4ED
100
AcDbEntity
  8
0
100
AcDbBlockEnd
  0
BLOCK
  5
503
330
4F9
100
AcDbEntity
  8
0
100
AcDbBlockBegin
  2
*D7
 70
     1
 10
0.0
 20
0.0
 30
0.0
  3
*D7
  1

  0
LINE
  5
4FA
330
4F9
100
AcDbEntity
  8
SUNPO
 62
     0
370
    -2
100
AcDbLine
 10
9.301689526779682
 20
36.46755985967369
 30
0.0
 11
9.301689526779682
 21
44.46755985967368
 31
0.0
  0
LINE
  5
4FB
330
4F9
100
AcDbEntity
  8
SUNPO
 62
     0
370
    -2
100
AcDbLine
 10
25.50168952677677
 20
36.46755985967369
 30
0.0
 11
25.50168952677677
 21
44.46755985967368
 31
0.0
  0
LINE
  5
4FC
330
4F9
100
AcDbEntity
  8
SUNPO
 62
     0
370
    -2
100
AcDbLine
 10
11.30168952677968
 20
42.46755985967368
 30
0.0
 11
23.50168952677677
 21
42.46755985967368
 31
0.0
  0
INSERT
  5
4FD
330
4F9
100
AcDbEntity
  8
SUNPO
 62
     0
370
    -2
100
AcDbBlockReference
  2
_OPEN30
 10
9.301689526779682
 20
42.46755985967368
 30
0.0
 41
2.0
 42
2.0
 43
2.0
 50
180.0
  0
INSERT
  5
4FE
330
4F9
100
AcDbEntity
  8
SUNPO
 62
     0
370
    -2
100
AcDbBlockReference
  2
_OPEN30
 10
25.50168952677677
 20
42.46755985967368
 30
0.0
 41
2.0
 42
2.0
 43
2.0
  0
MTEXT
  5
4FF
330
4F9
100
AcDbEntity
  8
SUNPO
 62
     0
100
AcDbMText
 10
17.40168952677823
 20
44.21755985967368
 30
0.0
 40
2.5
 41
0.0
 71
     5
 72
     1
  1
\A1;162
 73
     1
 44
1.0
1001
ACAD
1000
MTEXTBEGIN
1070
    73
1070
     1
1070
    44
1040
1.0
1070
    74
1070
     0
1000
MTEXTEND
  0
POINT
  5
500
330
4F9
100
AcDbEntity
  8
DEFPOINTS
 62
     0
100
AcDbPoint
 10
9.301689526779682
 20
34.46755985967369
 30
0.0
  0
POINT
  5
501
330
4F9
100
AcDbEntity
  8
DEFPOINTS
 62
     0
100
AcDbPoint
 10
25.50168952677677
 20
34.46755985967369
 30
0.0
  0
POINT
  5
502
330
4F9
100
AcDbEntity
  8
DEFPOINTS
 62
     0
100
AcDbPoint
 10
25.50168952677677
 20
42.46755985967368
 30
0.0
  0
ENDBLK
  5
504
330
4F9
100
AcDbEntity
  8
0
100
AcDbBlockEnd
  0
BLOCK
  5
50F
330
505
100
AcDbEntity
  8
0
100
AcDbBlockBegin
  2
*D8
 70
     1
 10
0.0
 20
0.0
 30
0.0
  3
*D8
  1

  0
LINE
  5
506
330
505
100
AcDbEntity
  8
SUNPO
 62
     0
370
    -2
100
AcDbLine
 10
41.96406859585676
 20
37.98473677145433
 30
0.0
 11
49.96406859585675
 21
37.98473677145432
 31
0.0
  0
LINE
  5
507
330
505
100
AcDbEntity
  8
SUNPO
 62
     0
370
    -2
100
AcDbLine
 10
41.96406859585676
 20
23.98473677145441
 30
0.0
 11
49.96406859585675
 21
23.98473677145441
 31
0.0
  0
LINE
  5
508
330
505
100
AcDbEntity
  8
SUNPO
 62
     0
370
    -2
100
AcDbLine
 10
47.96406859585675
 20
35.98473677145432
 30
0.0
 11
47.96406859585675
 21
25.9847367714544
 31
0.0
  0
INSERT
  5
509
330
505
100
AcDbEntity
  8
SUNPO
 62
     0
370
    -2
100
AcDbBlockReference
  2
_OPEN30
 10
47.96406859585675
 20
37.98473677145433
 30
0.0
 41
2.0
 42
2.0
 43
2.0
 50
90.0
  0
INSERT
  5
50A
330
505
100
AcDbEntity
  8
SUNPO
 62
     0
370
    -2
100
AcDbBlockReference
  2
_OPEN30
 10
47.96406859585675
 20
23.98473677145441
 30
0.0
 41
2.0
 42
2.0
 43
2.0
 50
270.0
  0
MTEXT
  5
50B
330
505
100
AcDbEntity
  8
SUNPO
 62
     0
100
AcDbMText
 10
46.21406859585674
 20
30.98473677145437
 30
0.0
 40
2.5
 41
0.0
 71
     5
 72
     1
  1
\A1;φ140
 11
0.0000000000000001
 21
1.0
 31
0.0
 73
     1
 44
1.0
1001
ACAD
1000
MTEXTBEGIN
1070
    73
1070
     1
1070
    44
1040
1.0
1070
    74
1070
     0
1000
MTEXTEND
  0
POINT
  5
50C
330
505
100
AcDbEntity
  8
DEFPOINTS
 62
     0
100
AcDbPoint
 10
39.96406859585676
 20
37.98473677145433
 30
0.0
  0
POINT
  5
50D
330
505
100
AcDbEntity
  8
DEFPOINTS
 62
     0
100
AcDbPoint
 10
39.96406859585676
 20
23.98473677145441
 30
0.0
  0
POINT
  5
50E
330
505
100
AcDbEntity
  8
DEFPOINTS
 62
     0
100
AcDbPoint
 10
47.96406859585675
 20
23.98473677145441
 30
0.0
  0
ENDBLK
  5
510
330
505
100
AcDbEntity
  8
0
100
AcDbBlockEnd
  0
ENDSEC
  0
SECTION
  2
ENTITIES
  0
TEXT
  5
2D
330
2
100
AcDbEntity
  8
MOJI1
100
AcDbText
 10
-34.71223883476853
 20
63.16893188188629
 30
0.0
 40
4.0
  1
１２ｃｍ　コーン形スピーカー（壁取付金具付）
 41
0.95
100
AcDbText
  0
TEXT
  5
2F
330
2
100
AcDbEntity
  8
TOUROKU
100
AcDbText
 10
23.15437786482555
 20
57.16893188188629
 30
0.0
 40
2.0
  1
ＷＳＭ１０＋ＷＳＱ１４７　ＳＰタテ
 72
     2
 11
63.28771119815887
 21
57.16893188188629
 31
0.0
100
AcDbText
  0
TEXT
  5
31
330
2
100
AcDbEntity
  8
MOJI1
100
AcDbText
 10
-59.21223883476841
 20
-44.8310681181137
 30
0.0
 40
3.0
  1
備　考
100
AcDbText
  0
TEXT
  5
32
330
2
100
AcDbEntity
  8
MOJI1
100
AcDbText
 10
-19.21223883476841
 20
-44.8310681181137
 30
0.0
 40
3.0
  1
取付金具付
100
AcDbText
  0
TEXT
  5
33
330
2
100
AcDbEntity
  8
MOJI1
100
AcDbText
 10
-19.21223883476841
 20
-34.83106811811371
 30
0.0
 40
3.0
  1
９１ｄＢ（１Ｗ／１ｍ）
100
AcDbText
  0
DIMENSION
  5
34
330
2
100
AcDbEntity
  8
SUNPO
100
AcDbDimension
  2
*D8
 10
47.96406859585675
 20
23.98473677145441
 30
0.0
 11
46.21406859585674
 21
30.98473677145437
 31
0.0
 70
    33
  1
φ140
 71
     5
 42
13.99999999999991
  3
STANDARD
100
AcDbAlignedDimension
 13
39.96406859585676
 23
37.98473677145433
 33
0.0
 14
39.96406859585676
 24
23.98473677145441
 34
0.0
1001
ACAD
1000
DSTYLE
1002
{
1070
    40
1040
1.0
1070
   140
1040
2.5
1070
   147
1040
0.5
1070
   172
1070
     1
1070
   279
1070
     0
1070
   288
1070
     0
1002
}
  0
DIMENSION
  5
42
330
2
100
AcDbEntity
  8
SUNPO
100
AcDbDimension
  2
*D7
 10
25.50168952677677
 20
42.46755985967368
 30
0.0
 11
17.40168952677823
 21
44.21755985967368
 31
0.0
 70
    33
  1
162
 71
     5
 42
16.19999999999709
  3
STANDARD
100
AcDbAlignedDimension
 13
9.301689526779682
 23
34.46755985967369
 33
0.0
 14
25.50168952677677
 24
34.46755985967369
 34
0.0
1001
ACAD
1000
DSTYLE
1002
{
1070
    40
1040
1.0
1070
   140
1040
2.5
1070
   147
1040
0.5
1070
   172
1070
     1
1070
   279
1070
     0
1070
   288
1070
     0
1002
}
  0
DIMENSION
  5
4F
330
2
100
AcDbEntity
  8
SUNPO
100
AcDbDimension
  2
*D6
 10
-16.34702959379956
 20
42.46755985967368
 30
0.0
 11
-23.99702959379954
 21
44.21755985967368
 31
0.0
 70
    33
  1
153
 71
     5
 42
15.29999999999995
  3
STANDARD
100
AcDbAlignedDimension
 13
-31.64702959379952
 23
34.46755985967369
 33
0.0
 14
-16.34702959379956
 24
34.46755985967369
 34
0.0
1001
ACAD
1000
DSTYLE
1002
{
1070
    40
1040
1.0
1070
   140
1040
2.5
1070
   147
1040
0.5
1070
   172
1070
     1
1070
   279
1070
     0
1070
   288
1070
     0
1002
}
  0
DIMENSION
  5
5C
330
2
100
AcDbEntity
  8
SUNPO
100
AcDbDimension
  2
*D5
 10
-8.297242350046076
 20
34.47473671137427
 30
0.0
 11
-10.04724235004608
 21
21.97473677142426
 31
0.0
 70
    33
  1
250
 71
     5
 42
24.99999987990003
  3
STANDARD
100
AcDbAlignedDimension
 13
-16.29724232626603
 23
9.474736831474245
 33
0.0
 14
-16.29724235004607
 24
34.47473671137428
 34
0.0
1001
ACAD
1000
DSTYLE
1002
{
1070
    40
1040
1.0
1070
   140
1040
2.5
1070
   147
1040
0.5
1070
   172
1070
     1
1070
   279
1070
     0
1070
   288
1070
     0
1002
}
  0
LWPOLYLINE
  5
69
330
2
100
AcDbEntity
  8
GAIKEI
  6
Continuous
 62
     1
100
AcDbPolyline
 90
        3
 70
     0
 43
0.0
 10
-23.68679481569956
 20
34.40378024179429
 10
-23.71177617987957
 20
34.4022903037343
 10
-23.74024946171954
 20
34.40089836789429
  0
LWPOLYLINE
  5
6B
330
2
100
AcDbEntity
  8
GAIKEI
  6
Continuous
 62
     1
100
AcDbPolyline
 90
        6
 70
     0
 43
0.0
 10
-23.74024946171954
 20
34.40089836789429
 10
-23.77208206685958
 20
34.39962903913431
 10
-23.80705731293955
 20
34.39850930751428
 10
-23.84489146241958
 20
34.39756950557433
 10
-23.88524901677954
 20
34.39682952419429
 10
-23.92772497939956
 20
34.3963112360143
  0
LWPOLYLINE
  5
6C
330
2
100
AcDbEntity
  8
GAIKEI
  6
Continuous
 62
     1
100
AcDbPolyline
 90
        3
 70
     0
 43
0.0
 10
-23.92772497939956
 20
34.3963112360143
 10
-23.97184771825954
 20
34.39603685983428
 10
-23.99702959421956
 20
34.39599450621432
  0
LWPOLYLINE
  5
6D
330
2
100
AcDbEntity
  8
GAIKEI
  6
Continuous
 62
     1
100
AcDbPolyline
 90
       12
 70
     0
 43
0.0
 10
-24.07144087733957
 20
34.3963601805543
 10
-24.11760003249958
 20
34.39696952523429
 10
-24.16124781363953
 20
34.3978418186343
 10
-24.20178618245956
 20
34.3989504639743
 10
-24.23871942211957
 20
34.40026372171428
 10
-24.27164536365956
 20
34.40173731969426
 10
-24.30030888827957
 20
34.4033350214543
 10
-24.32457109557953
 20
34.40501287129431
 10
-24.34434791599955
 20
34.4067162417343
 10
-24.35962762609956
 20
34.40838380909429
 10
-24.37032422007957
 20
34.40990307181432
 10
-24.37260325421954
 20
34.41029895683431
  0
LWPOLYLINE
  5
6E
330
2
100
AcDbEntity
  8
GAIKEI
  6
Continuous
 62
     1
100
AcDbPolyline
 90
        7
 70
     0
 43
0.0
 10
-23.61754788751955
 20
34.4111143942543
 10
-23.61810023237956
 20
34.4109802511143
 10
-23.62364451317956
 20
34.40991809061427
 10
-23.63370015357958
 20
34.4084756213143
 10
-23.64768311681956
 20
34.40691543995431
 10
-23.66540345139958
 20
34.40533451007429
 10
-23.68679481569956
 20
34.40378024179429
  0
LWPOLYLINE
  5
6F
330
2
100
AcDbEntity
  8
GAIKEI
  6
Continuous
 62
     1
100
AcDbPolyline
 90
        3
 70
     0
 43
0.0
 10
-24.30698134585958
 20
9.545711511614229
 10
-24.28198676903958
 20
9.547198593774226
 10
-24.25350928747957
 20
9.548589446834228
  0
LWPOLYLINE
  5
70
330
2
100
AcDbEntity
  8
GAIKEI
  6
Continuous
 62
     1
100
AcDbPolyline
 90
        6
 70
     0
 43
0.0
 10
-24.25350928747957
 20
9.548589446834228
 10
-24.22169314427959
 20
9.54985420503425
 10
-24.18673413855953
 20
9.550970872814218
 10
-24.14891350127959
 20
9.551910829814346
 10
-24.10857955573954
 20
9.552647429854346
 10
-24.06613807935958
 20
9.553163976474337
  0
LWPOLYLINE
  5
71
330
2
100
AcDbEntity
  8
GAIKEI
  6
Continuous
 62
     1
100
AcDbPolyline
 90
        3
 70
     0
 43
0.0
 10
-24.06613807935958
 20
9.553163976474337
 10
-24.02206500739954
 20
9.553437616394234
 10
-23.99702959341954
 20
9.553478175714246
  0
LWPOLYLINE
  5
72
330
2
100
AcDbEntity
  8
GAIKEI
  6
Continuous
 62
     1
100
AcDbPolyline
 90
       12
 70
     0
 43
0.0
 10
-23.92249182763953
 20
9.553111413214253
 10
-23.87634894753956
 20
9.552502782994224
 10
-23.83273140297956
 20
9.551628424094246
 10
-23.79222898567957
 20
9.550521711874239
 10
-23.75531988657957
 20
9.54921033621423
 10
-23.72239325185956
 20
9.547734145694221
 10
-23.69374065653955
 20
9.546138266914226
 10
-23.66948863253958
 20
9.544461239034234
 10
-23.64970430331954
 20
9.542755735834248
 10
-23.63443210885953
 20
9.541090015734255
 10
-23.62374491423953
 20
9.539572534374258
 10
-23.62146236133958
 20
9.539175916214333
  0
LWPOLYLINE
  5
73
330
2
100
AcDbEntity
  8
GAIKEI
  6
Continuous
 62
     1
100
AcDbPolyline
 90
        7
 70
     0
 43
0.0
 10
-24.37648405411954
 20
9.53836608235423
 10
-24.37590536005956
 20
9.538505764014246
 10
-24.37028627589956
 20
9.53957713633423
 10
-24.36018293805955
 20
9.54101949211423
 10
-24.34614636275956
 20
9.542580704334341
 10
-24.32838623229952
 20
9.544161624454318
 10
-24.30698134585958
 20
9.545711511614229
  0
SPLINE
  5
74
330
2
100
AcDbEntity
  8
GAIKEI
  6
Continuous
100
AcDbSpline
210
0.0
220
0.0
230
1.0
 70
     8
 71
     3
 72
    19
 73
    15
 74
    13
 42
0.0000000001
 43
0.0000000001
 44
0.00000001
 40
0.0
 40
0.0
 40
0.0
 40
0.0
 40
1.879085388097951
 40
3.758170776196052
 40
4.704013381554245
 40
5.649855986911268
 40
6.597065062449525
 40
7.544274137988026
 40
8.491483978486376
 40
9.438693818984654
 40
10.38453840622164
 40
11.33038299345985
 40
13.20947481378802
 40
15.08856663411592
 40
15.08856663411592
 40
15.08856663411592
 40
15.08856663411592
 10
-31.54131291057956
 20
34.47473671137428
 30
0.0
 10
-30.91495111455256
 20
34.47473340323512
 30
0.0
 10
-29.66222752249841
 20
34.474726801716
 30
0.0
 10
-28.09422306212304
 20
34.47470484076024
 30
0.0
 10
-26.83729952926375
 20
34.47469082659058
 30
0.0
 10
-25.89100143388302
 20
34.47468228949748
 30
0.0
 10
-24.94424784841839
 20
34.47467691783601
 30
0.0
 10
-23.99703851789285
 20
34.47467500576977
 30
0.0
 10
-23.04982893238066
 20
34.47467691777084
 30
0.0
 10
-22.10307417631608
 20
34.47468228937822
 30
0.0
 10
-21.15677450469536
 20
34.47469082643389
 30
0.0
 10
-19.89984750650605
 20
34.47470484060043
 30
0.0
 10
-18.33183809735066
 20
34.47472680165737
 30
0.0
 10
-17.07911021714318
 20
34.47473340321551
 30
0.0
 10
-16.45274627703952
 20
34.47473671137428
 30
0.0
 11
-31.54131291057956
 21
34.47473671137428
 31
0.0
 11
-29.66222752252418
 21
34.47472405578691
 31
0.0
 11
-27.78314213455951
 21
34.47470166383428
 31
0.0
 11
-26.83729952925972
 21
34.47469115205124
 31
0.0
 11
-25.89145692393947
 21
34.47468281097429
 31
0.0
 11
-24.94424784841618
 21
34.47467748486599
 31
0.0
 11
-23.99703877287948
 21
34.47467563311432
 31
0.0
 11
-23.04982893238292
 21
34.4746774848021
 31
0.0
 11
-22.10261909189961
 21
34.47468281085429
 31
0.0
 11
-21.1567745046994
 21
34.47469115189861
 31
0.0
 11
-20.21092991751959
 21
34.4747016636743
 31
0.0
 11
-18.33183809732486
 21
34.47472405571665
 31
0.0
 11
-16.45274627703952
 21
34.47473671137428
 31
0.0
  0
SPLINE
  5
75
330
2
100
AcDbEntity
  8
GAIKEI
  6
Continuous
100
AcDbSpline
210
0.0
220
0.0
230
1.0
 70
     8
 71
     3
 72
    11
 73
     7
 74
     5
 42
0.0000000001
 43
0.0000000001
 44
0.00000001
 40
0.0
 40
0.0
 40
0.0
 40
0.0
 40
3.772141640686748
 40
7.544283281372897
 40
11.31642493392903
 40
15.08856658648582
 40
15.08856658648582
 40
15.08856658648582
 40
15.08856658648582
 10
-16.45274630081957
 20
9.474736831474331
 30
0.0
 10
-17.71012684765412
 20
9.47474822033692
 30
0.0
 10
-20.22488794132315
 20
9.474770983062086
 30
0.0
 10
-23.99702958589622
 20
9.474811358100424
 30
0.0
 10
-27.76917123442598
 20
9.474770983062086
 30
0.0
 10
-30.28393233600834
 20
9.474748220336891
 30
0.0
 10
-31.54131288679958
 20
9.474736831474331
 30
0.0
 11
-16.45274630081957
 21
9.474736831474331
 31
0.0
 11
-20.22488794134216
 21
9.474772031553868
 31
0.0
 11
-23.99702958193956
 21
9.474797909754329
 31
0.0
 11
-27.76917123440694
 21
9.474772031553868
 31
0.0
 11
-31.54131288679958
 21
9.474736831474331
 31
0.0
  0
SPLINE
  5
76
330
2
100
AcDbEntity
  8
GAIKEI
  6
Continuous
 62
     1
100
AcDbSpline
210
0.0
220
0.0
230
1.0
 70
    24
 71
     3
 72
     9
 73
     5
 74
     3
 42
0.0000000001
 43
0.0000000001
 44
0.00000001
 40
0.0
 40
0.0
 40
0.0
 40
0.0
 40
0.0147684240901104
 40
0.0295368481801639
 40
0.0295368481801639
 40
0.0295368481801639
 40
0.0295368481801639
 10
-23.64705298329955
 20
34.38537290057428
 30
0.0
 10
-23.64213017563621
 20
34.38537480067095
 30
0.0
 10
-23.63228456030954
 20
34.38537860086424
 30
0.0
 10
-23.62243894498289
 20
34.3853824010576
 30
0.0
 10
-23.61751613731957
 20
34.38538430115429
 30
0.0
 11
-23.64705298329955
 21
34.38537290057428
 31
0.0
 11
-23.63228456030953
 21
34.38537860086433
 31
0.0
 11
-23.61751613731957
 21
34.38538430115429
 31
0.0
  0
SPLINE
  5
77
330
2
100
AcDbEntity
  8
GAIKEI
  6
Continuous
 62
     1
100
AcDbSpline
210
0.0
220
0.0
230
1.0
 70
    24
 71
     3
 72
     9
 73
     5
 74
     3
 42
0.0000000001
 43
0.0000000001
 44
0.00000001
 40
0.0
 40
0.0
 40
0.0
 40
0.0
 40
0.1749949712263768
 40
0.3499899424527678
 40
0.3499899424527678
 40
0.3499899424527678
 40
0.3499899424527678
 10
-23.99704291975957
 20
34.38530813327427
 30
0.0
 10
-23.9387112636829
 20
34.38531892782427
 30
0.0
 10
-23.82204795152956
 20
34.38534051692432
 30
0.0
 10
-23.70538463937622
 20
34.38536210602427
 30
0.0
 10
-23.64705298329955
 20
34.38537290057428
 30
0.0
 11
-23.99704291975957
 21
34.38530813327427
 31
0.0
 11
-23.82204795152956
 21
34.38534051692429
 31
0.0
 11
-23.64705298329955
 21
34.38537290057428
 31
0.0
  0
SPLINE
  5
78
330
2
100
AcDbEntity
  8
GAIKEI
  6
Continuous
 62
     1
100
AcDbSpline
210
0.0
220
0.0
230
1.0
 70
    24
 71
     3
 72
     9
 73
     5
 74
     3
 42
0.0000000001
 43
0.0000000001
 44
0.00000001
 40
0.0
 40
0.0
 40
0.0
 40
0.0
 40
0.1749816397063442
 40
0.3499632794127453
 40
0.3499632794127453
 40
0.3499632794127453
 40
0.3499632794127453
 10
-24.34700619317954
 20
34.38537289823429
 30
0.0
 10
-24.28867898094289
 20
34.38536210407432
 30
0.0
 10
-24.17202455646957
 20
34.38534051575431
 30
0.0
 10
-24.05537013199623
 20
34.38531892743427
 30
0.0
 10
-23.99704291975957
 20
34.38530813327427
 30
0.0
 11
-24.34700619317954
 21
34.38537289823429
 31
0.0
 11
-24.17202455646958
 21
34.38534051575431
 31
0.0
 11
-23.99704291975957
 21
34.38530813327427
 31
0.0
  0
SPLINE
  5
79
330
2
100
AcDbEntity
  8
GAIKEI
  6
Continuous
 62
     1
100
AcDbSpline
210
0.0
220
0.0
230
1.0
 70
    24
 71
     3
 72
     9
 73
     5
 74
     3
 42
0.0000000001
 43
0.0000000001
 44
0.00000001
 40
0.0
 40
0.0
 40
0.0
 40
0.0
 40
0.0128138998642429
 40
0.0256277997284999
 40
0.0256277997284999
 40
0.0256277997284999
 40
0.0256277997284999
 10
-24.37263399101954
 20
34.3853827367343
 30
0.0
 10
-24.36836269137955
 20
34.38538109698433
 30
0.0
 10
-24.35982009209955
 20
34.38537781748426
 30
0.0
 10
-24.35127749281954
 20
34.38537453798427
 30
0.0
 10
-24.34700619317954
 20
34.38537289823429
 30
0.0
 11
-24.37263399101954
 21
34.3853827367343
 31
0.0
 11
-24.35982009209954
 21
34.38537781748431
 31
0.0
 11
-24.34700619317954
 21
34.38537289823429
 31
0.0
  0
SPLINE
  5
7A
330
2
100
AcDbEntity
  8
GAIKEI
  6
Continuous
 62
     1
100
AcDbSpline
210
0.0
220
0.0
230
1.0
 70
     8
 71
     3
 72
     9
 73
     5
 74
     3
 42
0.0000000001
 43
0.0000000001
 44
0.00000001
 40
0.0
 40
0.0
 40
0.0
 40
0.0
 40
0.0405615529192238
 40
0.081123107780665
 40
0.081123107780665
 40
0.081123107780665
 40
0.081123107780665
 10
-17.49620134629958
 20
33.86151532787429
 30
0.0
 10
-17.50972149061003
 20
33.86141304498583
 30
0.0
 10
-17.53676178000425
 20
33.86120849920351
 30
0.0
 10
-17.56380265133845
 20
33.86110668079829
 30
0.0
 10
-17.57732308737957
 20
33.8610557815943
 30
0.0
 11
-17.49620134629958
 21
33.86151532787429
 31
0.0
 11
-17.53676192478519
 21
33.86123417105165
 31
0.0
 11
-17.57732308737957
 21
33.8610557815943
 31
0.0
  0
SPLINE
  5
7B
330
2
100
AcDbEntity
  8
GAIKEI
  6
Continuous
 62
     1
100
AcDbSpline
210
0.0
220
0.0
230
1.0
 70
     8
 71
     3
 72
    13
 73
     9
 74
     7
 42
0.0000000001
 43
0.0000000001
 44
0.00000001
 40
0.0
 40
0.0
 40
0.0
 40
0.0
 40
2.592976402469055
 40
5.18595283596491
 40
6.500861402826321
 40
7.815769969684833
 40
10.40876399864771
 40
13.00175799660781
 40
13.00175799660781
 40
13.00175799660781
 40
13.00175799660781
 10
-17.49620134629958
 20
33.86151532787429
 30
0.0
 10
-18.36051078430464
 20
33.86687454477735
 30
0.0
 10
-20.08912967073925
 20
33.87759296386736
 30
0.0
 10
-22.25608103258867
 20
33.88313420531364
 30
0.0
 10
-23.99701200228687
 20
33.88440034827804
 30
0.0
 10
-25.73794883718637
 20
33.8831342678883
 30
0.0
 10
-27.90491192955295
 20
33.87759305468205
 30
0.0
 10
-29.63354254617616
 20
33.86687457512895
 30
0.0
 10
-30.49785784927951
 20
33.86151532799431
 30
0.0
 11
-17.49620134629958
 21
33.86151532787429
 31
0.0
 11
-20.08913718864016
 21
33.87601847708871
 31
0.0
 11
-22.68210374851947
 21
33.88317418541431
 31
0.0
 11
-23.99701200229367
 21
33.88408159816143
 31
0.0
 11
-25.31192025609949
 21
33.88317423541429
 31
0.0
 11
-27.90490441157237
 21
33.87601854867248
 31
0.0
 11
-30.49785784927951
 21
33.86151532799431
 31
0.0
  0
SPLINE
  5
7C
330
2
100
AcDbEntity
  8
GAIKEI
  6
Continuous
 62
     1
100
AcDbSpline
210
0.0
220
0.0
230
1.0
 70
     8
 71
     3
 72
     9
 73
     5
 74
     3
 42
0.0000000001
 43
0.0000000001
 44
0.00000001
 40
0.0
 40
0.0
 40
0.0
 40
0.0
 40
0.0657980243398471
 40
0.1332113193400001
 40
0.1332113193400001
 40
0.1332113193400001
 40
0.1332113193400001
 10
-17.05234016353955
 20
34.41173901441431
 30
0.0
 10
-17.03081199483054
 20
34.40226032524598
 30
0.0
 10
-16.98722717603341
 20
34.38307024201674
 30
0.0
 10
-16.98073133844441
 20
34.33580030743676
 30
0.0
 10
-16.97744404465953
 20
34.31187874729429
 30
0.0
 11
-17.05234016353955
 21
34.41173901441431
 31
0.0
 11
-16.99680440632733
 21
34.37645218773003
 31
0.0
 11
-16.97744404465953
 21
34.31187874729429
 31
0.0
  0
SPLINE
  5
7D
330
2
100
AcDbEntity
  8
GAIKEI
  6
Continuous
 62
     1
100
AcDbSpline
210
0.0
220
0.0
230
1.0
 70
     8
 71
     3
 72
     9
 73
     5
 74
     3
 42
0.0000000001
 43
0.0000000001
 44
0.00000001
 40
0.0
 40
0.0
 40
0.0
 40
0.0
 40
0.0657980327351851
 40
0.1332113198787142
 40
0.1332113198787142
 40
0.1332113198787142
 40
0.1332113198787142
 10
-30.94171902405958
 20
34.41173901441431
 30
0.0
 10
-30.96324719568255
 20
34.4022603236148
 30
0.0
 10
-31.0068320149943
 20
34.38307023945376
 30
0.0
 10
-31.01332785050355
 20
34.33580030466027
 30
0.0
 10
-31.01661514283956
 20
34.31187874729429
 30
0.0
 11
-30.94171902405958
 21
34.41173901441431
 31
0.0
 11
-30.99725478714481
 21
34.37645218131871
 31
0.0
 11
-31.01661514283956
 21
34.31187874729429
 31
0.0
  0
SPLINE
  5
7E
330
2
100
AcDbEntity
  8
GAIKEI
  6
Continuous
 62
     1
100
AcDbSpline
210
0.0
220
0.0
230
1.0
 70
     8
 71
     3
 72
     9
 73
     5
 74
     3
 42
0.0000000001
 43
0.0000000001
 44
0.00000001
 40
0.0
 40
0.0
 40
0.0
 40
0.0
 40
0.0657980178898168
 40
0.1332113187411033
 40
0.1332113187411033
 40
0.1332113187411033
 40
0.1332113187411033
 10
-30.94171902405958
 20
9.537734540254348
 30
0.0
 10
-30.96324719044205
 20
9.547213228278621
 30
0.0
 10
-31.00683200860552
 20
9.566403310986743
 30
0.0
 10
-31.01332784808027
 20
9.613673245208985
 30
0.0
 10
-31.01661514311957
 20
9.637594807354332
 30
0.0
 11
-30.94171902405958
 21
9.537734540254348
 31
0.0
 11
-30.9972547765995
 21
9.573021362264938
 31
0.0
 11
-31.01661514311957
 21
9.637594807354332
 31
0.0
  0
SPLINE
  5
7F
330
2
100
AcDbEntity
  8
GAIKEI
  6
Continuous
 62
     1
100
AcDbSpline
210
0.0
220
0.0
230
1.0
 70
     8
 71
     3
 72
     9
 73
     5
 74
     3
 42
0.0000000001
 43
0.0000000001
 44
0.00000001
 40
0.0
 40
0.0
 40
0.0
 40
0.0
 40
0.0657980327453157
 40
0.1332113198906597
 40
0.1332113198906597
 40
0.1332113198906597
 40
0.1332113198906597
 10
-17.05234016353955
 20
9.537734540254348
 30
0.0
 10
-17.03081199190455
 20
9.547213231046043
 30
0.0
 10
-16.98722717257124
 20
9.566403315189859
 30
0.0
 10
-16.98073133709742
 20
9.613673250000971
 30
0.0
 10
-16.97744404477953
 20
9.637594807374341
 30
0.0
 11
-17.05234016353955
 21
9.537734540254348
 31
0.0
 11
-16.99680440043329
 21
9.573021373335734
 31
0.0
 11
-16.97744404477953
 21
9.637594807374341
 31
0.0
  0
SPLINE
  5
80
330
2
100
AcDbEntity
  8
GAIKEI
  6
Continuous
 62
     1
100
AcDbSpline
210
0.0
220
0.0
230
1.0
 70
     8
 71
     3
 72
    23
 73
    19
 74
    17
 42
0.0000000001
 43
0.0000000001
 44
0.00000001
 40
0.0
 40
0.0
 40
0.0
 40
0.0
 40
0.0076094353647482
 40
0.0152269801751611
 40
0.0199785271113496
 40
0.0247324155217184
 40
0.0303982163651846
 40
0.0360655755949156
 40
0.0426936269398531
 40
0.0493225848622364
 40
0.0568475856987015
 40
0.0643729071336667
 40
0.0727959582717637
 40
0.0812193322150385
 40
0.0905397053325928
 40
0.0998600695882928
 40
0.1207386818530074
 40
0.1416174295600429
 40
0.1416174295600429
 40
0.1416174295600429
 40
0.1416174295600429
 10
-30.61924951685956
 20
10.13681451041435
 30
0.0
 10
-30.61904088513571
 20
10.13426769699165
 30
0.0
 10
-30.61862338856946
 20
10.12917135860965
 30
0.0
 10
-30.61567082190214
 20
10.12305504560504
 30
0.0
 10
-30.61237088808838
 20
10.11839670931891
 30
0.0
 10
-30.60893963172136
 20
10.11466222377277
 30
0.0
 10
-30.60489186664982
 20
10.11112995190524
 30
0.0
 10
-30.5999980253851
 20
10.10766636017462
 30
0.0
 10
-30.59453713581114
 20
10.10449203633277
 30
0.0
 10
-30.58828115589268
 20
10.10150325472591
 30
0.0
 10
-30.58155349689075
 20
10.09884932932721
 30
0.0
 10
-30.57410436761254
 20
10.09644154294227
 30
0.0
 10
-30.56624464346135
 20
10.09437083795845
 30
0.0
 10
-30.55770734556947
 20
10.09257018918805
 30
0.0
 10
-30.54880477180088
 20
10.09109304379228
 30
0.0
 10
-30.53573211526368
 20
10.08945308960972
 30
0.0
 10
-30.51873706418206
 20
10.08819001797607
 30
0.0
 10
-30.50481680161508
 20
10.08803548544586
 30
0.0
 10
-30.49785664775953
 20
10.08795821855432
 30
0.0
 11
-30.61924951685956
 21
10.13681451041435
 31
0.0
 11
-30.61816588894408
 21
10.12928261879216
 31
0.0
 11
-30.61503646567951
 21
10.12233756795433
 31
0.0
 11
-30.61229188317185
 21
10.11845884929971
 31
0.0
 11
-30.60909067407954
 21
10.11494434925447
 31
0.0
 11
-30.60483318897411
 21
10.11120601872193
 31
0.0
 11
-30.60021772377957
 21
10.10791718329432
 31
0.0
 11
-30.59449608192
 21
10.10457145826393
 31
0.0
 11
-30.58852201329961
 21
10.10169855293435
 31
0.0
 11
-30.58152718506631
 21
10.09892402351124
 31
0.0
 11
-30.57437096147959
 21
10.09659616501434
 31
0.0
 11
-30.56622885513508
 21
10.09443887657323
 31
0.0
 11
-30.55798928043965
 21
10.09268883757431
 31
0.0
 11
-30.54879614963579
 21
10.09115400847582
 31
0.0
 11
-30.53954989845954
 21
10.08998096597435
 31
0.0
 11
-30.51873050705552
 21
10.08840953556552
 31
0.0
 11
-30.49785664775953
 21
10.08795821855432
 31
0.0
  0
SPLINE
  5
81
330
2
100
AcDbEntity
  8
GAIKEI
  6
Continuous
 62
     1
100
AcDbSpline
210
0.0
220
0.0
230
1.0
 70
     8
 71
     3
 72
     9
 73
     5
 74
     3
 42
0.0000000001
 43
0.0000000001
 44
0.00000001
 40
0.0
 40
0.0
 40
0.0
 40
0.0
 40
0.3010562902554716
 40
0.6021985085619825
 40
0.6021985085619825
 40
0.6021985085619825
 40
0.6021985085619825
 10
-31.54131297161956
 20
34.46562768859428
 30
0.0
 10
-31.44173142624043
 20
34.45290337730219
 30
0.0
 10
-31.24253991069276
 20
34.42745114280621
 30
0.0
 10
-31.0420021917317
 20
34.41697688209354
 30
0.0
 10
-30.94171902405958
 20
34.41173901441431
 30
0.0
 11
-31.54131297161956
 21
34.46562768859428
 31
0.0
 11
-31.24223187952475
 21
34.43119818955455
 31
0.0
 11
-30.94171902405958
 21
34.41173901441431
 31
0.0
  0
SPLINE
  5
82
330
2
100
AcDbEntity
  8
GAIKEI
  6
Continuous
 62
     1
100
AcDbSpline
210
0.0
220
0.0
230
1.0
 70
     8
 71
     3
 72
     9
 73
     5
 74
     3
 42
0.0000000001
 43
0.0000000001
 44
0.00000001
 40
0.0
 40
0.0
 40
0.0
 40
0.0
 40
3.282620167026728
 40
6.565240153007228
 40
6.565240153007228
 40
6.565240153007228
 40
6.565240153007228
 10
-23.61751613731957
 20
34.38538430115429
 30
0.0
 10
-22.52330789720212
 20
34.38673406599904
 30
0.0
 10
-20.33489147737779
 20
34.38943361561397
 30
0.0
 10
-18.14652391467019
 20
34.40430387495098
 30
0.0
 10
-17.05234016353955
 20
34.41173901441431
 30
0.0
 11
-23.61751613731957
 21
34.38538430115429
 31
0.0
 11
-20.33490363126867
 21
34.39247628328681
 31
0.0
 11
-17.05234016353955
 21
34.41173901441431
 31
0.0
  0
SPLINE
  5
83
330
2
100
AcDbEntity
  8
GAIKEI
  6
Continuous
 62
     1
100
AcDbSpline
210
0.0
220
0.0
230
1.0
 70
     8
 71
     3
 72
     9
 73
     5
 74
     3
 42
0.0000000001
 43
0.0000000001
 44
0.00000001
 40
0.0
 40
0.0
 40
0.0
 40
0.0
 40
3.284574511496482
 40
6.569149206120956
 40
6.569149206120956
 40
6.569149206120956
 40
6.569149206120956
 10
-30.94171902405958
 20
34.41173901441431
 30
0.0
 10
-29.84688377079795
 20
34.40430013917108
 30
0.0
 10
-27.65721320313448
 20
34.38942240826975
 30
0.0
 10
-25.46749374875935
 20
34.38672928727118
 30
0.0
 10
-24.37263399101954
 20
34.3853827367343
 30
0.0
 11
-30.94171902405958
 21
34.41173901441431
 31
0.0
 11
-27.65720104253876
 21
34.3924685509904
 31
0.0
 11
-24.37263399101954
 21
34.3853827367343
 31
0.0
  0
SPLINE
  5
84
330
2
100
AcDbEntity
  8
GAIKEI
  6
Continuous
 62
     1
100
AcDbSpline
210
0.0
220
0.0
230
1.0
 70
     8
 71
     3
 72
     9
 73
     5
 74
     3
 42
0.0000000001
 43
0.0000000001
 44
0.00000001
 40
0.0
 40
0.0
 40
0.0
 40
0.0
 40
0.3011422228702629
 40
0.6021985065163833
 40
0.6021985065163833
 40
0.6021985065163833
 40
0.6021985065163833
 10
-17.05234016353955
 20
34.41173901441431
 30
0.0
 10
-16.95205699582628
 20
34.41697690241372
 30
0.0
 10
-16.75151928050324
 20
34.42745120356653
 30
0.0
 10
-16.55232776133887
 20
34.45290339771111
 30
0.0
 10
-16.45274621599958
 20
34.46562768859428
 30
0.0
 11
-17.05234016353955
 21
34.41173901441431
 31
0.0
 11
-16.75182730614921
 21
34.43119823045032
 31
0.0
 11
-16.45274621599958
 21
34.46562768859428
 31
0.0
  0
SPLINE
  5
85
330
2
100
AcDbEntity
  8
GAIKEI
  6
Continuous
 62
     1
100
AcDbSpline
210
0.0
220
0.0
230
1.0
 70
     8
 71
     3
 72
    19
 73
    15
 74
    13
 42
0.0000000001
 43
0.0000000001
 44
0.00000001
 40
0.0
 40
0.0
 40
0.0
 40
0.0
 40
0.0221835688708093
 40
0.0443669609036601
 40
0.0541357864494048
 40
0.063904479777739
 40
0.072895677219237
 40
0.0818875232721019
 40
0.0903441634626135
 40
0.0987981573416178
 40
0.1065803706015968
 40
0.1143756382695499
 40
0.1279286336803136
 40
0.1414544306416406
 40
0.1414544306416406
 40
0.1414544306416406
 40
0.1414544306416406
 10
-30.49785757631958
 20
33.8615153295143
 30
0.0
 10
-30.50525277786883
 20
33.86142817729976
 30
0.0
 10
-30.52004312202539
 20
33.86125387448462
 30
0.0
 10
-30.53805114352881
 20
33.85981320910602
 30
0.0
 10
-30.55183254869436
 20
33.8579289393733
 30
0.0
 10
-30.56119265844456
 20
33.85622876369379
 30
0.0
 10
-30.57020674218425
 20
33.85413190900829
 30
0.0
 10
-30.57866582716101
 20
33.85163927282361
 30
0.0
 10
-30.58677478446343
 20
33.84864805611204
 30
0.0
 10
-30.59424494212212
 20
33.84517810168043
 30
0.0
 10
-30.60119347710862
 20
33.84113164112355
 30
0.0
 10
-30.60885646633061
 20
33.83522760712114
 30
0.0
 10
-30.61706387812758
 20
33.8262954514262
 30
0.0
 10
-30.61852097339674
 20
33.81720134396628
 30
0.0
 10
-30.61924878289955
 20
33.81265885479428
 30
0.0
 11
-30.49785757631958
 21
33.8615153295143
 31
0.0
 11
-30.52003520148856
 21
33.86100227283373
 31
0.0
 11
-30.54214502475952
 21
33.85919711371434
 31
0.0
 11
-30.55182169316095
 21
33.85785844250438
 31
0.0
 11
-30.56143104155956
 21
33.85610123121438
 31
0.0
 11
-30.57018461724988
 21
33.8540478090799
 31
0.0
 11
-30.57880516135953
 21
33.85149056205432
 31
0.0
 11
-30.58673105470206
 21
33.84854183775684
 31
0.0
 11
-30.59438926399958
 21
33.84496107829438
 31
0.0
 11
-30.60108827616506
 21
33.84100051350879
 31
0.0
 11
-30.60726296137961
 21
33.83624242009435
 31
0.0
 11
-30.61583887719257
 21
33.82574777895576
 31
0.0
 11
-30.61924878289955
 21
33.81265885479428
 31
0.0
  0
SPLINE
  5
86
330
2
100
AcDbEntity
  8
GAIKEI
  6
Continuous
 62
     1
100
AcDbSpline
210
0.0
220
0.0
230
1.0
 70
     8
 71
     3
 72
    19
 73
    15
 74
    13
 42
0.0000000001
 43
0.0000000001
 44
0.00000001
 40
0.0
 40
0.0
 40
0.0
 40
0.0
 40
0.0221756432471918
 40
0.0443511096672718
 40
0.0541176476854494
 40
0.0638840477282373
 40
0.072873878115562
 40
0.0818643500004106
 40
0.0903221214827176
 40
0.0987772713064663
 40
0.1065625476481188
 40
0.114360898798522
 40
0.1279180421015674
 40
0.1414479061688019
 40
0.1414479061688019
 40
0.1414479061688019
 40
0.1414479061688019
 10
-17.49620150631955
 20
10.08795822589422
 30
0.0
 10
-17.4888089478627
 20
10.08804531846465
 30
0.0
 10
-17.47402388988734
 20
10.08821950199461
 30
0.0
 10
-17.45602186718739
 20
10.08965903500984
 30
0.0
 10
-17.44224449661002
 20
10.09154203942105
 30
0.0
 10
-17.43288627609103
 20
10.09324154794072
 30
0.0
 10
-17.42387384198643
 20
10.09533810645547
 30
0.0
 10
-17.4154153177024
 20
10.09783074114591
 30
0.0
 10
-17.40730609109118
 20
10.10082209252991
 30
0.0
 10
-17.39983407305647
 20
10.10429219174671
 30
0.0
 10
-17.39288252777505
 20
10.10833829534624
 30
0.0
 10
-17.38521510093623
 20
10.11424205613798
 30
0.0
 10
-17.37700142043674
 20
10.12317402079688
 30
0.0
 10
-17.3755418332525
 20
10.13227068494089
 30
0.0
 10
-17.37481278099955
 20
10.13681443899435
 30
0.0
 11
-17.49620150631955
 21
10.08795822589422
 31
0.0
 11
-17.47403179992739
 21
10.08847089490243
 31
0.0
 11
-17.45192981359952
 21
10.09027464481434
 31
0.0
 11
-17.44225534834811
 21
10.0916125485395
 31
0.0
 11
-17.43264820431949
 21
10.09336906561435
 31
0.0
 11
-17.42389596671501
 21
10.09542220606522
 31
0.0
 11
-17.41527677167949
 21
10.09797916897432
 31
0.0
 11
-17.40734979036176
 21
10.10092821332634
 31
0.0
 11
-17.39969020087954
 21
10.10450875001444
 31
0.0
 11
-17.39298768950914
 21
10.10846941450734
 31
0.0
 11
-17.38680913773953
 21
10.11322754135432
 31
0.0
 11
-17.37822696830443
 21
10.12372242784443
 31
0.0
 11
-17.37481278099955
 21
10.13681443899435
 31
0.0
  0
SPLINE
  5
87
330
2
100
AcDbEntity
  8
GAIKEI
  6
Continuous
 62
     1
100
AcDbSpline
210
0.0
220
0.0
230
1.0
 70
     8
 71
     3
 72
    23
 73
    19
 74
    17
 42
0.0000000001
 43
0.0000000001
 44
0.00000001
 40
0.0
 40
0.0
 40
0.0
 40
0.0
 40
0.0071312508317834
 40
0.0142690761398358
 40
0.018652081227078
 40
0.0230369818374276
 40
0.0282247546535064
 40
0.0334139841356095
 40
0.0395695925478381
 40
0.0457263255259034
 40
0.0528487044278705
 40
0.0599715555973093
 40
0.0680677198976887
 40
0.0761642918882408
 40
0.0852956215316346
 40
0.0944269579419928
 40
0.118021982721022
 40
0.1416177280346732
 40
0.1416177280346732
 40
0.1416177280346732
 40
0.1416177280346732
 10
-17.37481278135954
 20
33.81265911493426
 30
0.0
 10
-17.37499426096895
 20
33.81504489405387
 30
0.0
 10
-17.37535739808773
 20
33.81981864937797
 30
0.0
 10
-17.37795585427837
 20
33.82558941397164
 30
0.0
 10
-17.38087872541686
 20
33.83001460813719
 30
0.0
 10
-17.38390435972377
 20
33.83356432898873
 30
0.0
 10
-17.38748746769531
 20
33.83694977442542
 30
0.0
 10
-17.39185721116706
 20
33.84032006938475
 30
0.0
 10
-17.39678505577792
 20
33.84345757067524
 30
0.0
 10
-17.40252235785263
 20
33.84647841741304
 30
0.0
 10
-17.40875887207252
 20
33.84920533841836
 30
0.0
 10
-17.41576798521304
 20
33.85173434150019
 30
0.0
 10
-17.42322321975891
 20
33.85394538005267
 30
0.0
 10
-17.43143447307932
 20
33.85591620243247
 30
0.0
 10
-17.44006767800692
 20
33.85756763460785
 30
0.0
 10
-17.45387347327534
 20
33.85960286357152
 30
0.0
 10
-17.47260373633752
 20
33.86121792414028
 30
0.0
 10
-17.48833550312823
 20
33.86141619262722
 30
0.0
 10
-17.49620150661957
 20
33.86151532877426
 30
0.0
 11
-17.37481278135954
 21
33.81265911493426
 31
0.0
 11
-17.37576303182078
 21
33.81972677998229
 31
0.0
 11
-17.3785362128396
 21
33.8263038647743
 31
0.0
 11
-17.38095077926169
 21
33.82996181452182
 31
0.0
 11
-17.38378237295961
 21
33.83330986261419
 31
0.0
 11
-17.38754310184186
 21
33.83688336240908
 31
0.0
 11
-17.39164275389959
 21
33.84006470687416
 31
0.0
 11
-17.39682673576061
 21
33.84338402065464
 31
0.0
 11
-17.40226719633961
 21
33.84626616351429
 31
0.0
 11
-17.40878738858157
 21
33.84913241057956
 31
0.0
 11
-17.41548272721962
 21
33.85156293475427
 31
0.0
 11
-17.42324129021142
 21
33.85387649807956
 31
0.0
 11
-17.43111142397959
 21
33.85577793739424
 31
0.0
 11
-17.44007821389448
 21
33.85750358476537
 31
0.0
 11
-17.44910992227949
 21
33.85884877911428
 31
0.0
 11
-17.47261305288128
 21
33.86092917519071
 31
0.0
 11
-17.49620150661957
 21
33.86151532877426
 31
0.0
  0
SPLINE
  5
88
330
2
100
AcDbEntity
  8
GAIKEI
  6
Continuous
 62
     1
100
AcDbSpline
210
0.0
220
0.0
230
1.0
 70
     8
 71
     3
 72
     9
 73
     5
 74
     3
 42
0.0000000001
 43
0.0000000001
 44
0.00000001
 40
0.0
 40
0.0
 40
0.0
 40
0.0
 40
0.3010562836475676
 40
0.6021985065179603
 40
0.6021985065179603
 40
0.6021985065179603
 40
0.6021985065179603
 10
-16.45274621599958
 20
9.483845866054338
 30
0.0
 10
-16.55232776133916
 20
9.496570156938645
 30
0.0
 10
-16.75151928050366
 20
9.522022351085666
 30
0.0
 10
-16.95205699582658
 20
9.532496652249449
 30
0.0
 10
-17.05234016353955
 20
9.537734540254348
 30
0.0
 11
-16.45274621599958
 21
9.483845866054338
 31
0.0
 11
-16.75182730615
 21
9.51827532420404
 31
0.0
 11
-17.05234016353955
 21
9.537734540254348
 31
0.0
  0
SPLINE
  5
89
330
2
100
AcDbEntity
  8
GAIKEI
  6
Continuous
 62
     1
100
AcDbSpline
210
0.0
220
0.0
230
1.0
 70
     8
 71
     3
 72
     9
 73
     5
 74
     3
 42
0.0000000001
 43
0.0000000001
 44
0.00000001
 40
0.0
 40
0.0
 40
0.0
 40
0.0
 40
3.282633794111335
 40
6.565267407198632
 40
6.565267407198632
 40
6.565267407198632
 40
6.565267407198632
 10
-24.37651579603954
 20
9.564089266994358
 30
0.0
 10
-25.4707285785708
 20
9.562739521978016
 30
0.0
 10
-27.6591540832301
 20
9.560040012019982
 30
0.0
 10
-29.84753073059605
 20
9.545169704039466
 30
0.0
 10
-30.94171902405958
 20
9.537734540254348
 30
0.0
 11
-24.37651579603954
 21
9.564089266994358
 31
0.0
 11
-27.65914192928767
 21
9.556997322272025
 31
0.0
 11
-30.94171902405958
 21
9.537734540254348
 31
0.0
  0
SPLINE
  5
8A
330
2
100
AcDbEntity
  8
GAIKEI
  6
Continuous
 62
     1
100
AcDbSpline
210
0.0
220
0.0
230
1.0
 70
    24
 71
     3
 72
     9
 73
     5
 74
     3
 42
0.0000000001
 43
0.0000000001
 44
0.00000001
 40
0.0
 40
0.0
 40
0.0
 40
0.0
 40
0.0147547976789127
 40
0.029509595357868
 40
0.029509595357868
 40
0.029509595357868
 40
0.029509595357868
 10
-24.34700620287959
 20
9.564100656414325
 30
0.0
 10
-24.35192446840624
 20
9.564098758177635
 30
0.0
 10
-24.36176099945954
 20
9.564094961704398
 30
0.0
 10
-24.37159753051288
 20
9.564091165230991
 30
0.0
 10
-24.37651579603954
 20
9.564089266994358
 30
0.0
 11
-24.34700620287959
 21
9.564100656414325
 31
0.0
 11
-24.36176099945953
 21
9.564094961704313
 31
0.0
 11
-24.37651579603954
 21
9.564089266994358
 31
0.0
  0
SPLINE
  5
8B
330
2
100
AcDbEntity
  8
GAIKEI
  6
Continuous
 62
     1
100
AcDbSpline
210
0.0
220
0.0
230
1.0
 70
    24
 71
     3
 72
     9
 73
     5
 74
     3
 42
0.0000000001
 43
0.0000000001
 44
0.00000001
 40
0.0
 40
0.0
 40
0.0
 40
0.0
 40
0.1749949713061479
 40
0.3499899426123527
 40
0.3499899426123527
 40
0.3499899426123527
 40
0.3499899426123527
 10
-23.99701626625955
 20
9.564165421394335
 30
0.0
 10
-24.05534792236288
 20
9.564154627231005
 30
0.0
 10
-24.17201123456957
 20
9.564133038904316
 30
0.0
 10
-24.28867454677624
 20
9.564111450577655
 30
0.0
 10
-24.34700620287959
 20
9.564100656414325
 30
0.0
 11
-23.99701626625955
 21
9.564165421394335
 31
0.0
 11
-24.17201123456954
 21
9.564133038904344
 31
0.0
 11
-24.34700620287959
 21
9.564100656414325
 31
0.0
  0
SPLINE
  5
8C
330
2
100
AcDbEntity
  8
GAIKEI
  6
Continuous
 62
     1
100
AcDbSpline
210
0.0
220
0.0
230
1.0
 70
    24
 71
     3
 72
     9
 73
     5
 74
     3
 42
0.0000000001
 43
0.0000000001
 44
0.00000001
 40
0.0
 40
0.0
 40
0.0
 40
0.0
 40
0.174981641546648
 40
0.3499632830932249
 40
0.3499632830932249
 40
0.3499632830932249
 40
0.3499632830932249
 10
-23.64705298915954
 20
9.564100654074309
 30
0.0
 10
-23.70538020200955
 20
9.564111448627642
 30
0.0
 10
-23.82203462770956
 20
9.564133037734336
 30
0.0
 10
-23.93868905340956
 20
9.564154626840974
 30
0.0
 10
-23.99701626625955
 20
9.564165421394335
 30
0.0
 11
-23.64705298915954
 21
9.564100654074309
 31
0.0
 11
-23.82203462770957
 21
9.564133037734336
 31
0.0
 11
-23.99701626625955
 21
9.564165421394335
 31
0.0
  0
SPLINE
  5
8D
330
2
100
AcDbEntity
  8
GAIKEI
  6
Continuous
 62
     1
100
AcDbSpline
210
0.0
220
0.0
230
1.0
 70
    24
 71
     3
 72
     9
 73
     5
 74
     3
 42
0.0000000001
 43
0.0000000001
 44
0.00000001
 40
0.0
 40
0.0
 40
0.0
 40
0.0
 40
0.0128106822540186
 40
0.025621364508023
 40
0.025621364508023
 40
0.025621364508023
 40
0.025621364508023
 10
-23.62143162653956
 20
9.564090817974317
 30
0.0
 10
-23.62570185364289
 20
9.564092457324335
 30
0.0
 10
-23.63424230784955
 20
9.564095736024341
 30
0.0
 10
-23.64278276205621
 20
9.56409901472432
 30
0.0
 10
-23.64705298915954
 20
9.564100654074309
 30
0.0
 11
-23.62143162653956
 21
9.564090817974317
 31
0.0
 11
-23.63424230784955
 21
9.564095736024341
 31
0.0
 11
-23.64705298915954
 21
9.564100654074309
 31
0.0
  0
SPLINE
  5
8E
330
2
100
AcDbEntity
  8
GAIKEI
  6
Continuous
 62
     1
100
AcDbSpline
210
0.0
220
0.0
230
1.0
 70
     8
 71
     3
 72
     9
 73
     5
 74
     3
 42
0.0000000001
 43
0.0000000001
 44
0.00000001
 40
0.0
 40
0.0
 40
0.0
 40
0.0
 40
3.284577726454161
 40
6.569155636076638
 40
6.569155636076638
 40
6.569155636076638
 40
6.569155636076638
 10
-17.05234016353955
 20
9.537734540254348
 30
0.0
 10
-18.14717648843485
 20
9.54517342337121
 30
0.0
 10
-20.33684919937904
 20
9.560051170020074
 30
0.0
 10
-22.52657079711344
 20
9.562744275297802
 30
0.0
 10
-23.62143162653956
 20
9.564090817974317
 30
0.0
 11
-17.05234016353955
 21
9.537734540254348
 31
0.0
 11
-20.33686135998096
 21
9.557005019432239
 31
0.0
 11
-23.62143162653956
 21
9.564090817974317
 31
0.0
  0
SPLINE
  5
8F
330
2
100
AcDbEntity
  8
GAIKEI
  6
Continuous
 62
     1
100
AcDbSpline
210
0.0
220
0.0
230
1.0
 70
     8
 71
     3
 72
     9
 73
     5
 74
     3
 42
0.0000000001
 43
0.0000000001
 44
0.00000001
 40
0.0
 40
0.0
 40
0.0
 40
0.0
 40
0.3011422183075622
 40
0.602198508564475
 40
0.602198508564475
 40
0.602198508564475
 40
0.602198508564475
 10
-30.94171902405958
 20
9.537734540254348
 30
0.0
 10
-31.04200219173238
 20
9.53249667257873
 30
0.0
 10
-31.24253991069495
 20
9.52202241187328
 30
0.0
 10
-31.44173142624111
 20
9.496570177356744
 30
0.0
 10
-31.54131297161956
 20
9.483845866054338
 30
0.0
 11
-30.94171902405958
 21
9.537734540254348
 31
0.0
 11
-31.24223187952606
 21
9.518275365118029
 31
0.0
 11
-31.54131297161956
 21
9.483845866054338
 31
0.0
  0
SPLINE
  5
90
330
2
100
AcDbEntity
  8
GAIKEI
  6
Continuous
 62
     1
100
AcDbSpline
210
0.0
220
0.0
230
1.0
 70
     8
 71
     3
 72
    13
 73
     9
 74
     7
 42
0.0000000001
 43
0.0000000001
 44
0.00000001
 40
0.0
 40
0.0
 40
0.0
 40
0.0
 40
2.592993760518008
 40
5.185987552038888
 40
6.500896023647317
 40
7.815804495258634
 40
10.40878073930456
 40
13.00175695232374
 40
13.00175695232374
 40
13.00175695232374
 40
13.00175695232374
 10
-30.49785680097955
 20
10.08795821943431
 30
0.0
 10
-29.63354157701672
 20
10.0825989736667
 30
0.0
 10
-27.90491111867456
 20
10.07188049684765
 30
0.0
 10
-25.73794821634904
 20
10.0663392857812
 30
0.0
 10
-23.9970115240963
 20
10.06507320644618
 30
0.0
 10
-22.25608068104867
 20
10.06633935007252
 30
0.0
 10
-20.08912947725147
 20
10.07188059181388
 30
0.0
 10
-18.36051071711537
 20
10.08259901024206
 30
0.0
 10
-17.49620134225955
 20
10.08795822681423
 30
0.0
 11
-30.49785680097955
 21
10.08795821943431
 31
0.0
 11
-27.90490360069668
 21
10.07345500260473
 31
0.0
 11
-25.31191968265949
 21
10.0662993184743
 31
0.0
 11
-23.99701152410324
 21
10.06539195651493
 31
0.0
 11
-22.68210336557951
 21
10.06629936977444
 31
0.0
 11
-20.08913699515159
 21
10.07345507836834
 31
0.0
 11
-17.49620134225955
 21
10.08795822681423
 31
0.0
  0
SPLINE
  5
91
330
2
100
AcDbEntity
  8
GAIKEI
  6
Continuous
 62
     1
100
AcDbSpline
210
0.0
220
0.0
230
1.0
 70
     8
 71
     3
 72
     9
 73
     5
 74
     3
 42
0.0000000001
 43
0.0000000001
 44
0.00000001
 40
0.0
 40
0.0
 40
0.0
 40
0.0
 40
0.0125541686690953
 40
0.025110790924604
 40
0.025110790924604
 40
0.025110790924604
 40
0.025110790924604
 10
-23.84702959379956
 20
10.08244650799423
 30
0.0
 10
-23.8511733321048
 20
10.08305254727452
 30
0.0
 10
-23.85946162077705
 20
10.08426472442261
 30
0.0
 10
-23.86783070742145
 20
10.08461617233141
 30
0.0
 10
-23.87201566037953
 20
10.0847919034943
 30
0.0
 11
-23.84702959379956
 21
10.08244650799423
 31
0.0
 11
-23.85948100553594
 21
10.08404947567572
 31
0.0
 11
-23.87201566037953
 21
10.0847919034943
 31
0.0
  0
SPLINE
  5
92
330
2
100
AcDbEntity
  8
GAIKEI
  6
Continuous
 62
     1
100
AcDbSpline
210
0.0
220
0.0
230
1.0
 70
     8
 71
     3
 72
     9
 73
     5
 74
     3
 42
0.0000000001
 43
0.0000000001
 44
0.00000001
 40
0.0
 40
0.0
 40
0.0
 40
0.0
 40
0.0125541686695532
 40
0.0251107909259801
 40
0.0251107909259801
 40
0.0251107909259801
 40
0.0251107909259801
 10
-23.84702959379956
 20
33.8670270348743
 30
0.0
 10
-23.85117333210378
 20
33.8664209955841
 30
0.0
 10
-23.85946162077416
 20
33.86520881841594
 30
0.0
 10
-23.86783070742042
 20
33.86485737052721
 30
0.0
 10
-23.87201566037953
 20
33.86468163937428
 30
0.0
 11
-23.84702959379956
 21
33.8670270348743
 31
0.0
 11
-23.85948100553384
 21
33.86542406717288
 31
0.0
 11
-23.87201566037953
 21
33.86468163937428
 31
0.0
  0
SPLINE
  5
93
330
2
100
AcDbEntity
  8
GAIKEI
  6
Continuous
 62
     1
100
AcDbSpline
210
0.0
220
0.0
230
1.0
 70
     8
 71
     3
 72
     9
 73
     5
 74
     3
 42
0.0000000001
 43
0.0000000001
 44
0.00000001
 40
0.0
 40
0.0
 40
0.0
 40
0.0
 40
0.0152494189321727
 40
0.0305138297366387
 40
0.0305138297366387
 40
0.0305138297366387
 40
0.0305138297366387
 10
-27.18136625941952
 20
33.8552090966943
 30
0.0
 10
-27.18094828241328
 20
33.85014197578158
 30
0.0
 10
-27.1801119374368
 20
33.84000275115594
 30
0.0
 10
-27.17986575670789
 20
33.82983206773838
 30
0.0
 10
-27.17974261585954
 20
33.8247442270943
 30
0.0
 11
-27.18136625941952
 21
33.8552090966943
 31
0.0
 11
-27.18025973447851
 21
33.83999987625958
 31
0.0
 11
-27.17974261585954
 21
33.8247442270943
 31
0.0
  0
SPLINE
  5
94
330
2
100
AcDbEntity
  8
GAIKEI
  6
Continuous
 62
     1
100
AcDbSpline
210
0.0
220
0.0
230
1.0
 70
     8
 71
     3
 72
     9
 73
     5
 74
     3
 42
0.0000000001
 43
0.0000000001
 44
0.00000001
 40
0.0
 40
0.0
 40
0.0
 40
0.0
 40
0.0152643978183723
 40
0.0305138146159197
 40
0.0305138146159197
 40
0.0305138146159197
 40
0.0305138146159197
 10
-20.81431646499954
 20
33.82474423015429
 30
0.0
 10
-20.81419325967779
 20
33.82983206357522
 30
0.0
 10
-20.8139469499779
 20
33.8400027361661
 30
0.0
 10
-20.81311080525621
 20
33.85014196958531
 30
0.0
 10
-20.81269292817956
 20
33.8552090966943
 30
0.0
 11
-20.81431646499954
 21
33.82474423015429
 31
0.0
 11
-20.81379923545256
 21
33.83999986256541
 31
0.0
 11
-20.81269292817956
 21
33.8552090966943
 31
0.0
  0
SPLINE
  5
95
330
2
100
AcDbEntity
  8
GAIKEI
  6
Continuous
 62
     1
100
AcDbSpline
210
0.0
220
0.0
230
1.0
 70
     8
 71
     3
 72
     9
 73
     5
 74
     3
 42
0.0000000001
 43
0.0000000001
 44
0.00000001
 40
0.0
 40
0.0
 40
0.0
 40
0.0
 40
0.015264410763821
 40
0.0305138296848556
 40
0.0305138296848556
 40
0.0305138296848556
 40
0.0305138296848556
 10
-27.17974261613955
 20
10.12472931575433
 30
0.0
 10
-27.17986575716042
 20
10.11964147513151
 30
0.0
 10
-27.18011193823444
 20
10.10947079174676
 30
0.0
 10
-27.18094828267879
 20
10.09933156710153
 30
0.0
 10
-27.18136625941952
 20
10.09426444617423
 30
0.0
 11
-27.17974261613955
 21
10.12472931575433
 31
0.0
 11
-27.18025973505627
 21
10.10947366663981
 31
0.0
 11
-27.18136625941952
 21
10.09426444617423
 31
0.0
  0
SPLINE
  5
96
330
2
100
AcDbEntity
  8
GAIKEI
  6
Continuous
 62
     1
100
AcDbSpline
210
0.0
220
0.0
230
1.0
 70
     8
 71
     3
 72
     9
 73
     5
 74
     3
 42
0.0000000001
 43
0.0000000001
 44
0.00000001
 40
0.0
 40
0.0
 40
0.0
 40
0.0
 40
0.0152494167987858
 40
0.0305138146506006
 40
0.0305138146506006
 40
0.0305138146506006
 40
0.0305138146506006
 10
-20.81269292817956
 20
10.09426444617423
 30
0.0
 10
-20.81311080554703
 20
10.09933157326358
 30
0.0
 10
-20.81394695085155
 20
10.10947080665411
 30
0.0
 10
-20.81419326016899
 20
10.11964147927364
 30
0.0
 10
-20.81431646529956
 20
10.12472931271424
 30
0.0
 11
-20.81269292817956
 21
10.09426444617423
 31
0.0
 11
-20.81379923608427
 21
10.10947368025842
 31
0.0
 11
-20.81431646529956
 21
10.12472931271424
 31
0.0
  0
SPLINE
  5
97
330
2
100
AcDbEntity
  8
GAIKEI
  6
Continuous
 62
     1
100
AcDbSpline
210
0.0
220
0.0
230
1.0
 70
     8
 71
     3
 72
     9
 73
     5
 74
     3
 42
0.0000000001
 43
0.0000000001
 44
0.00000001
 40
0.0
 40
0.0
 40
0.0
 40
0.0
 40
0.0125566219125108
 40
0.025110790486891
 40
0.025110790486891
 40
0.025110790486891
 40
0.025110790486891
 10
-24.12204352679953
 20
10.08479189437434
 30
0.0
 10
-24.1262284797175
 20
10.08461616489882
 30
0.0
 10
-24.13459756636441
 20
10.084264720361
 30
0.0
 10
-24.14288585531446
 20
10.08305254607143
 30
0.0
 10
-24.14702959379957
 20
10.08244650821433
 30
0.0
 11
-24.12204352679953
 21
10.08479189437434
 31
0.0
 11
-24.13457818159202
 21
10.08404947149404
 31
0.0
 11
-24.14702959379957
 21
10.08244650821433
 31
0.0
  0
SPLINE
  5
98
330
2
100
AcDbEntity
  8
GAIKEI
  6
Continuous
 62
     1
100
AcDbSpline
210
0.0
220
0.0
230
1.0
 70
     8
 71
     3
 72
     9
 73
     5
 74
     3
 42
0.0000000001
 43
0.0000000001
 44
0.00000001
 40
0.0
 40
0.0
 40
0.0
 40
0.0
 40
0.0382154474454795
 40
0.0764356549782198
 40
0.0764356549782198
 40
0.0764356549782198
 40
0.0764356549782198
 10
-30.19702959379959
 20
33.7927118771143
 30
0.0
 10
-30.20021871045132
 20
33.806184857787
 30
0.0
 10
-30.20659735556519
 20
33.83313248770958
 30
0.0
 10
-30.23355163400417
 20
33.83948436455876
 30
0.0
 10
-30.24702961731958
 20
33.84266049347431
 30
0.0
 11
-30.19702959379959
 21
33.7927118771143
 31
0.0
 11
-30.21174021893251
 21
33.82798251962001
 31
0.0
 11
-30.24702961731958
 21
33.84266049347431
 31
0.0
  0
SPLINE
  5
99
330
2
100
AcDbEntity
  8
GAIKEI
  6
Continuous
 62
     1
100
AcDbSpline
210
0.0
220
0.0
230
1.0
 70
     8
 71
     3
 72
     9
 73
     5
 74
     3
 42
0.0000000001
 43
0.0000000001
 44
0.00000001
 40
0.0
 40
0.0
 40
0.0
 40
0.0
 40
0.0382202075232688
 40
0.0764356549597263
 40
0.0764356549597263
 40
0.0764356549597263
 40
0.0764356549597263
 10
-30.29702957029957
 20
33.84266049347431
 30
0.0
 10
-30.3105075536101
 20
33.83948436455529
 30
0.0
 10
-30.33746183203944
 20
33.83313248769898
 30
0.0
 10
-30.34384047714964
 20
33.80618485778354
 30
0.0
 10
-30.34702959379956
 20
33.7927118771143
 30
0.0
 11
-30.29702957029957
 21
33.84266049347431
 31
0.0
 11
-30.33231896867352
 21
33.8279825196131
 31
0.0
 11
-30.34702959379956
 21
33.7927118771143
 31
0.0
  0
SPLINE
  5
9A
330
2
100
AcDbEntity
  8
GAIKEI
  6
Continuous
 62
     1
100
AcDbSpline
210
0.0
220
0.0
230
1.0
 70
     8
 71
     3
 72
     9
 73
     5
 74
     3
 42
0.0000000001
 43
0.0000000001
 44
0.00000001
 40
0.0
 40
0.0
 40
0.0
 40
0.0
 40
0.0382154519093776
 40
0.0764356556110756
 40
0.0764356556110756
 40
0.0764356556110756
 40
0.0764356556110756
 10
-30.34702959379956
 20
10.15676166575423
 30
0.0
 10
-30.3438404766895
 20
10.14328868327675
 30
0.0
 10
-30.33746183135118
 20
10.11634105266898
 30
0.0
 10
-30.3105075524057
 20
10.10998917725001
 30
0.0
 10
-30.29702957029957
 20
10.10681304939436
 30
0.0
 11
-30.34702959379956
 21
10.15676166575423
 31
0.0
 11
-30.33231896610477
 21
10.12149101948043
 31
0.0
 11
-30.29702957029957
 21
10.10681304939436
 31
0.0
  0
SPLINE
  5
9B
330
2
100
AcDbEntity
  8
GAIKEI
  6
Continuous
 62
     1
100
AcDbSpline
210
0.0
220
0.0
230
1.0
 70
     8
 71
     3
 72
     9
 73
     5
 74
     3
 42
0.0000000001
 43
0.0000000001
 44
0.00000001
 40
0.0
 40
0.0
 40
0.0
 40
0.0
 40
0.0382202075326967
 40
0.07643565497815
 40
0.07643565497815
 40
0.07643565497815
 40
0.07643565497815
 10
-30.24702961731958
 20
10.10681304939436
 30
0.0
 10
-30.23355163400417
 20
10.10998917830989
 30
0.0
 10
-30.20659735556517
 20
10.11634105515901
 30
0.0
 10
-30.20021871045133
 20
10.1432886850815
 30
0.0
 10
-30.19702959379959
 20
10.15676166575423
 30
0.0
 11
-30.24702961731958
 21
10.10681304939436
 31
0.0
 11
-30.21174021893251
 21
10.12149102324855
 31
0.0
 11
-30.19702959379959
 21
10.15676166575423
 31
0.0
  0
SPLINE
  5
9C
330
2
100
AcDbEntity
  8
GAIKEI
  6
Continuous
 62
     1
100
AcDbSpline
210
0.0
220
0.0
230
1.0
 70
     8
 71
     3
 72
     9
 73
     5
 74
     3
 42
0.0000000001
 43
0.0000000001
 44
0.00000001
 40
0.0
 40
0.0
 40
0.0
 40
0.0
 40
0.0382154474364576
 40
0.0764356549596718
 40
0.0764356549596718
 40
0.0764356549596718
 40
0.0764356549596718
 10
-17.79702959379955
 20
10.15676166575423
 30
0.0
 10
-17.79384047714963
 20
10.14328868508497
 30
0.0
 10
-17.78746183203945
 20
10.11634105516947
 30
0.0
 10
-17.76050755361008
 20
10.10998917831335
 30
0.0
 10
-17.74702957029956
 20
10.10681304939436
 30
0.0
 11
-17.79702959379955
 21
10.15676166575423
 31
0.0
 11
-17.78231896867351
 21
10.12149102325543
 31
0.0
 11
-17.74702957029956
 21
10.10681304939436
 31
0.0
  0
SPLINE
  5
9D
330
2
100
AcDbEntity
  8
GAIKEI
  6
Continuous
 62
     1
100
AcDbSpline
210
0.0
220
0.0
230
1.0
 70
     8
 71
     3
 72
     9
 73
     5
 74
     3
 42
0.0000000001
 43
0.0000000001
 44
0.00000001
 40
0.0
 40
0.0
 40
0.0
 40
0.0
 40
0.0382202075326967
 40
0.07643565497815
 40
0.07643565497815
 40
0.07643565497815
 40
0.07643565497815
 10
-17.69702961731957
 20
10.10681304939436
 30
0.0
 10
-17.68355163400415
 20
10.10998917830989
 30
0.0
 10
-17.65659735556517
 20
10.11634105515901
 30
0.0
 10
-17.65021871045131
 20
10.1432886850815
 30
0.0
 10
-17.64702959379957
 20
10.15676166575423
 30
0.0
 11
-17.69702961731957
 21
10.10681304939436
 31
0.0
 11
-17.66174021893249
 21
10.12149102324855
 31
0.0
 11
-17.64702959379957
 21
10.15676166575423
 31
0.0
  0
SPLINE
  5
9E
330
2
100
AcDbEntity
  8
GAIKEI
  6
Continuous
 62
     1
100
AcDbSpline
210
0.0
220
0.0
230
1.0
 70
     8
 71
     3
 72
     9
 73
     5
 74
     3
 42
0.0000000001
 43
0.0000000001
 44
0.00000001
 40
0.0
 40
0.0
 40
0.0
 40
0.0
 40
0.0382154474454795
 40
0.0764356549782198
 40
0.0764356549782198
 40
0.0764356549782198
 40
0.0764356549782198
 10
-17.64702959379957
 20
33.7927118771143
 30
0.0
 10
-17.6502187104513
 20
33.806184857787
 30
0.0
 10
-17.65659735556519
 20
33.83313248770958
 30
0.0
 10
-17.68355163400415
 20
33.83948436455876
 30
0.0
 10
-17.69702961731957
 20
33.84266049347431
 30
0.0
 11
-17.64702959379957
 21
33.7927118771143
 31
0.0
 11
-17.66174021893249
 21
33.82798251962001
 31
0.0
 11
-17.69702961731957
 21
33.84266049347431
 31
0.0
  0
SPLINE
  5
9F
330
2
100
AcDbEntity
  8
GAIKEI
  6
Continuous
 62
     1
100
AcDbSpline
210
0.0
220
0.0
230
1.0
 70
     8
 71
     3
 72
     9
 73
     5
 74
     3
 42
0.0000000001
 43
0.0000000001
 44
0.00000001
 40
0.0
 40
0.0
 40
0.0
 40
0.0
 40
0.0382202075232469
 40
0.076435654959757
 40
0.076435654959757
 40
0.076435654959757
 40
0.076435654959757
 10
-17.74702957029956
 20
33.84266049347431
 30
0.0
 10
-17.76050755361008
 20
33.83948436455529
 30
0.0
 10
-17.78746183203945
 20
33.83313248769909
 30
0.0
 10
-17.79384047714964
 20
33.80618485778359
 30
0.0
 10
-17.79702959379955
 20
33.7927118771143
 30
0.0
 11
-17.74702957029956
 21
33.84266049347431
 31
0.0
 11
-17.78231896867351
 21
33.82798251961316
 31
0.0
 11
-17.79702959379955
 21
33.7927118771143
 31
0.0
  0
SPLINE
  5
A0
330
2
100
AcDbEntity
  8
GAIKEI
  6
Continuous
 62
     1
100
AcDbSpline
210
0.0
220
0.0
230
1.0
 70
     8
 71
     3
 72
     9
 73
     5
 74
     3
 42
0.0000000001
 43
0.0000000001
 44
0.00000001
 40
0.0
 40
0.0
 40
0.0
 40
0.0
 40
0.0125566219125074
 40
0.0251107904868913
 40
0.0251107904868913
 40
0.0251107904868913
 40
0.0251107904868913
 10
-24.12204352679953
 20
33.8646816484943
 30
0.0
 10
-24.1262284797175
 20
33.86485737796983
 30
0.0
 10
-24.13459756636441
 20
33.86520882250759
 30
0.0
 10
-24.14288585531447
 20
33.86642099679713
 30
0.0
 10
-24.14702959379957
 20
33.86702703465429
 30
0.0
 11
-24.12204352679953
 21
33.8646816484943
 31
0.0
 11
-24.13457818159202
 21
33.86542407137455
 31
0.0
 11
-24.14702959379957
 21
33.86702703465429
 31
0.0
  0
SPLINE
  5
A1
330
2
100
AcDbEntity
  8
GAIKEI
  6
Continuous
 62
     1
100
AcDbSpline
210
0.0
220
0.0
230
1.0
 70
     8
 71
     3
 72
     9
 73
     5
 74
     3
 42
0.0000000001
 43
0.0000000001
 44
0.00000001
 40
0.0
 40
0.0
 40
0.0
 40
0.0
 40
0.0625134514251261
 40
0.125026831495956
 40
0.125026831495956
 40
0.125026831495956
 40
0.125026831495956
 10
-24.12204352721955
 20
10.08010111271423
 30
0.0
 10
-24.10121054632843
 20
10.07962513154172
 30
0.0
 10
-24.0595446080044
 20
10.07867318973666
 30
0.0
 10
-24.01786792400112
 20
10.07857013647597
 30
0.0
 10
-23.99702959379954
 20
10.07851861987421
 30
0.0
 11
-24.12204352721955
 21
10.08010111271423
 31
0.0
 11
-24.05954189792885
 21
10.0788854015725
 31
0.0
 11
-23.99702959379954
 21
10.07851861987421
 31
0.0
  0
SPLINE
  5
A2
330
2
100
AcDbEntity
  8
GAIKEI
  6
Continuous
 62
     1
100
AcDbSpline
210
0.0
220
0.0
230
1.0
 70
     8
 71
     3
 72
     9
 73
     5
 74
     3
 42
0.0000000001
 43
0.0000000001
 44
0.00000001
 40
0.0
 40
0.0
 40
0.0
 40
0.0
 40
0.0125541686696205
 40
0.0251107909260473
 40
0.0251107909260473
 40
0.0251107909260473
 40
0.0251107909260473
 10
-24.14702959379957
 20
10.08244650821433
 30
0.0
 10
-24.14288585549533
 20
10.08184046892407
 30
0.0
 10
-24.13459756682494
 20
10.08062829175594
 30
0.0
 10
-24.12622848017864
 20
10.08027684386715
 30
0.0
 10
-24.12204352721955
 20
10.08010111271423
 30
0.0
 11
-24.14702959379957
 21
10.08244650821433
 31
0.0
 11
-24.13457818206524
 21
10.08084354051283
 31
0.0
 11
-24.12204352721955
 21
10.08010111271423
 31
0.0
  0
SPLINE
  5
A3
330
2
100
AcDbEntity
  8
GAIKEI
  6
Continuous
 62
     1
100
AcDbSpline
210
0.0
220
0.0
230
1.0
 70
     8
 71
     3
 72
     9
 73
     5
 74
     3
 42
0.0000000001
 43
0.0000000001
 44
0.00000001
 40
0.0
 40
0.0
 40
0.0
 40
0.0
 40
0.0625134514251289
 40
0.1250268314959579
 40
0.1250268314959579
 40
0.1250268314959579
 40
0.1250268314959579
 10
-24.12204352721955
 20
33.86937243015427
 30
0.0
 10
-24.10121054632842
 20
33.86984841132687
 30
0.0
 10
-24.05954460800441
 20
33.87080035313207
 30
0.0
 10
-24.01786792400112
 20
33.87090340639259
 30
0.0
 10
-23.99702959379954
 20
33.87095492299429
 30
0.0
 11
-24.12204352721955
 21
33.86937243015427
 31
0.0
 11
-24.05954189792885
 21
33.87058814129614
 31
0.0
 11
-23.99702959379954
 21
33.87095492299429
 31
0.0
  0
SPLINE
  5
A4
330
2
100
AcDbEntity
  8
GAIKEI
  6
Continuous
 62
     1
100
AcDbSpline
210
0.0
220
0.0
230
1.0
 70
     8
 71
     3
 72
     9
 73
     5
 74
     3
 42
0.0000000001
 43
0.0000000001
 44
0.00000001
 40
0.0
 40
0.0
 40
0.0
 40
0.0
 40
0.0125541686696096
 40
0.0251107909260348
 40
0.0251107909260348
 40
0.0251107909260348
 40
0.0251107909260348
 10
-24.14702959379957
 20
33.86702703465429
 30
0.0
 10
-24.14288585549533
 20
33.86763307394449
 30
0.0
 10
-24.13459756682494
 20
33.86884525111262
 30
0.0
 10
-24.12622848017865
 20
33.86919669900138
 30
0.0
 10
-24.12204352721955
 20
33.86937243015427
 30
0.0
 11
-24.14702959379957
 21
33.86702703465429
 31
0.0
 11
-24.13457818206524
 21
33.8686300023557
 31
0.0
 11
-24.12204352721955
 21
33.86937243015427
 31
0.0
  0
SPLINE
  5
A5
330
2
100
AcDbEntity
  8
GAIKEI
  6
Continuous
 62
     1
100
AcDbSpline
210
0.0
220
0.0
230
1.0
 70
     8
 71
     3
 72
     9
 73
     5
 74
     3
 42
0.0000000001
 43
0.0000000001
 44
0.00000001
 40
0.0
 40
0.0
 40
0.0
 40
0.0
 40
0.0125566219137688
 40
0.0251107904894524
 40
0.0251107904894524
 40
0.0251107904894524
 40
0.0251107904894524
 10
-23.87201566079955
 20
10.08010112181421
 30
0.0
 10
-23.86783070788091
 20
10.08027685128766
 30
0.0
 10
-23.85946162123267
 20
10.08062829582133
 30
0.0
 10
-23.85117333228398
 20
10.08184047012838
 30
0.0
 10
-23.84702959379956
 20
10.08244650799423
 30
0.0
 11
-23.87201566079955
 21
10.08010112181421
 31
0.0
 11
-23.85948100600575
 21
10.08084354469372
 31
0.0
 11
-23.84702959379956
 21
10.08244650799423
 31
0.0
  0
SPLINE
  5
A6
330
2
100
AcDbEntity
  8
GAIKEI
  6
Continuous
 62
     1
100
AcDbSpline
210
0.0
220
0.0
230
1.0
 70
     8
 71
     3
 72
     9
 73
     5
 74
     3
 42
0.0000000001
 43
0.0000000001
 44
0.00000001
 40
0.0
 40
0.0
 40
0.0
 40
0.0
 40
0.0625133799799566
 40
0.1250268312639828
 40
0.1250268312639828
 40
0.1250268312639828
 40
0.1250268312639828
 10
-23.99702959379954
 20
10.07851861987421
 30
0.0
 10
-23.9761912636102
 20
10.07857013531216
 30
0.0
 10
-23.93451457964815
 20
10.07867318624519
 30
0.0
 10
-23.8928486415629
 20
10.07962513644466
 30
0.0
 10
-23.87201566079955
 20
10.08010112181421
 30
0.0
 11
-23.99702959379954
 21
10.07851861987421
 31
0.0
 11
-23.93451728975634
 21
10.07888540076175
 31
0.0
 11
-23.87201566079955
 21
10.08010112181421
 31
0.0
  0
SPLINE
  5
A7
330
2
100
AcDbEntity
  8
GAIKEI
  6
Continuous
 62
     1
100
AcDbSpline
210
0.0
220
0.0
230
1.0
 70
     8
 71
     3
 72
     9
 73
     5
 74
     3
 42
0.0000000001
 43
0.0000000001
 44
0.00000001
 40
0.0
 40
0.0
 40
0.0
 40
0.0
 40
0.0125566219130159
 40
0.0251107904880724
 40
0.0251107904880724
 40
0.0251107904880724
 40
0.0251107904880724
 10
-23.87201566079955
 20
33.8693724210543
 30
0.0
 10
-23.86783070788187
 20
33.86919669157089
 30
0.0
 10
-23.8594616212355
 20
33.86884524701728
 30
0.0
 10
-23.85117333228494
 20
33.86763307273014
 30
0.0
 10
-23.84702959379956
 20
33.8670270348743
 30
0.0
 11
-23.87201566079955
 21
33.8693724210543
 31
0.0
 11
-23.85948100600769
 21
33.86862999815489
 31
0.0
 11
-23.84702959379956
 21
33.8670270348743
 31
0.0
  0
SPLINE
  5
A8
330
2
100
AcDbEntity
  8
GAIKEI
  6
Continuous
 62
     1
100
AcDbSpline
210
0.0
220
0.0
230
1.0
 70
     8
 71
     3
 72
     9
 73
     5
 74
     3
 42
0.0000000001
 43
0.0000000001
 44
0.00000001
 40
0.0
 40
0.0
 40
0.0
 40
0.0
 40
0.0625133799799559
 40
0.1250268312639843
 40
0.1250268312639843
 40
0.1250268312639843
 40
0.1250268312639843
 10
-23.99702959379954
 20
33.87095492299429
 30
0.0
 10
-23.97619126361021
 20
33.8709034075564
 30
0.0
 10
-23.93451457964814
 20
33.87080035662345
 30
0.0
 10
-23.89284864156291
 20
33.8698484064239
 30
0.0
 10
-23.87201566079955
 20
33.8693724210543
 30
0.0
 11
-23.99702959379954
 21
33.87095492299429
 31
0.0
 11
-23.93451728975634
 21
33.87058814210687
 31
0.0
 11
-23.87201566079955
 21
33.8693724210543
 31
0.0
  0
SPLINE
  5
A9
330
2
100
AcDbEntity
  8
GAIKEI
  6
Continuous
100
AcDbSpline
210
0.0
220
0.0
230
1.0
 70
     8
 71
     3
 72
    11
 73
     7
 74
     5
 42
0.0000000001
 43
0.0000000001
 44
0.00000001
 40
0.0
 40
0.0
 40
0.0
 40
0.0
 40
0.0387109420617628
 40
0.0774287525114224
 40
0.1163040428358053
 40
0.1551773802131001
 40
0.1551773802131001
 40
0.1551773802131001
 40
0.1551773802131001
 10
-16.34702959379956
 20
9.57388888357434
 30
0.0
 10
-16.34851546279121
 20
9.560887269793255
 30
0.0
 10
-16.35148747844975
 20
9.534881738507067
 30
0.0
 10
-16.37449977586488
 20
9.502045886679212
 30
0.0
 10
-16.4074770546371
 20
9.479162943159252
 30
0.0
 10
-16.43358817407134
 20
9.476212168708769
 30
0.0
 10
-16.44664340739956
 20
9.474736825574211
 30
0.0
 11
-16.34702959379956
 21
9.57388888357434
 31
0.0
 11
-16.3545737304882
 21
9.535920170089127
 31
0.0
 11
-16.37611628423957
 21
9.503748948254241
 31
0.0
 11
-16.40850183624377
 21
9.482243960241021
 31
0.0
 11
-16.44664340739956
 21
9.474736825574211
 31
0.0
  0
SPLINE
  5
AA
330
2
100
AcDbEntity
  8
GAIKEI
  6
Continuous
100
AcDbSpline
210
0.0
220
0.0
230
1.0
 70
    24
 71
     3
 72
     9
 73
     5
 74
     3
 42
0.0000000001
 43
0.0000000001
 44
0.00000001
 40
0.0
 40
0.0
 40
0.0
 40
0.0
 40
0.0030514467100048
 40
0.0061028934199527
 40
0.0061028934199527
 40
0.0061028934199527
 40
0.0061028934199527
 10
-31.54131288679958
 20
9.474736831474331
 30
0.0
 10
-31.5423300357029
 20
9.47473683049094
 30
0.0
 10
-31.54436433350956
 20
9.474736828524214
 30
0.0
 10
-31.54639863131621
 20
9.474736826557546
 30
0.0
 10
-31.54741578021952
 20
9.474736825574211
 30
0.0
 11
-31.54131288679958
 21
9.474736831474331
 31
0.0
 11
-31.54436433350958
 21
9.474736828524214
 31
0.0
 11
-31.54741578021952
 21
9.474736825574211
 31
0.0
  0
SPLINE
  5
AB
330
2
100
AcDbEntity
  8
GAIKEI
  6
Continuous
100
AcDbSpline
210
0.0
220
0.0
230
1.0
 70
    24
 71
     3
 72
     9
 73
     5
 74
     3
 42
0.0000000001
 43
0.0000000001
 44
0.00000001
 40
0.0
 40
0.0
 40
0.0
 40
0.0
 40
0.0030514467100119
 40
0.0061028934200095
 40
0.0061028934200095
 40
0.0061028934200095
 40
0.0061028934200095
 10
-16.44664340739956
 20
9.474736825574211
 30
0.0
 10
-16.4476605563029
 20
9.474736826557517
 30
0.0
 10
-16.44969485410957
 20
9.4747368285241
 30
0.0
 10
-16.45172915191624
 20
9.474736830490911
 30
0.0
 10
-16.45274630081957
 20
9.474736831474331
 30
0.0
 11
-16.44664340739956
 21
9.474736825574211
 31
0.0
 11
-16.44969485410956
 21
9.474736828524214
 31
0.0
 11
-16.45274630081957
 21
9.474736831474331
 31
0.0
  0
SPLINE
  5
AC
330
2
100
AcDbEntity
  8
GAIKEI
  6
Continuous
100
AcDbSpline
210
0.0
220
0.0
230
1.0
 70
     8
 71
     3
 72
    11
 73
     7
 74
     5
 42
0.0000000001
 43
0.0000000001
 44
0.00000001
 40
0.0
 40
0.0
 40
0.0
 40
0.0
 40
0.0388733373773287
 40
0.0777486277017745
 40
0.116466438145817
 40
0.155177380202119
 40
0.155177380202119
 40
0.155177380202119
 40
0.155177380202119
 10
-31.54741578021952
 20
9.474736825574211
 30
0.0
 10
-31.56047101354733
 20
9.476212168708968
 30
0.0
 10
-31.58658213298077
 20
9.479162943160019
 30
0.0
 10
-31.6195594117579
 20
9.502045886674494
 30
0.0
 10
-31.64257170914663
 20
9.534881738515622
 30
0.0
 10
-31.64554372480701
 20
9.560887269796069
 30
0.0
 10
-31.64702959379957
 20
9.57388888357434
 30
0.0
 11
-31.54741578021952
 21
9.474736825574211
 31
0.0
 11
-31.58555735137537
 21
9.482243960240907
 31
0.0
 11
-31.61794290337957
 21
9.503748948254241
 31
0.0
 11
-31.63948545711321
 21
9.535920170094243
 31
0.0
 11
-31.64702959379957
 21
9.57388888357434
 31
0.0
  0
SPLINE
  5
AD
330
2
100
AcDbEntity
  8
GAIKEI
  6
Continuous
100
AcDbSpline
210
0.0
220
0.0
230
1.0
 70
     8
 71
     3
 72
    11
 73
     7
 74
     5
 42
0.0000000001
 43
0.0000000001
 44
0.00000001
 40
0.0
 40
0.0
 40
0.0
 40
0.0
 40
0.0387109420562462
 40
0.0774287525002888
 40
0.1163040428246874
 40
0.1551773802020215
 40
0.1551773802020215
 40
0.1551773802020215
 40
0.1551773802020215
 10
-31.64702959379957
 20
34.37558465929428
 30
0.0
 10
-31.64554372480701
 20
34.38858627307252
 30
0.0
 10
-31.64257170914662
 20
34.41459180435302
 30
0.0
 10
-31.61955941175794
 20
34.44742765619404
 30
0.0
 10
-31.58658213298074
 20
34.47031059970843
 30
0.0
 10
-31.56047101354732
 20
34.47326137415954
 30
0.0
 10
-31.54741578021952
 20
34.47473671729429
 30
0.0
 11
-31.64702959379957
 21
34.37558465929428
 31
0.0
 11
-31.63948545711321
 21
34.41355337277432
 31
0.0
 11
-31.61794290337957
 21
34.44572459461432
 31
0.0
 11
-31.58555735137537
 21
34.46722958262757
 31
0.0
 11
-31.54741578021952
 21
34.47473671729429
 31
0.0
  0
SPLINE
  5
AE
330
2
100
AcDbEntity
  8
GAIKEI
  6
Continuous
100
AcDbSpline
210
0.0
220
0.0
230
1.0
 70
    24
 71
     3
 72
     9
 73
     5
 74
     3
 42
0.0000000001
 43
0.0000000001
 44
0.00000001
 40
0.0
 40
0.0
 40
0.0
 40
0.0
 40
0.0030514348199532
 40
0.0061028696399632
 40
0.0061028696399632
 40
0.0061028696399632
 40
0.0061028696399632
 10
-16.45274627703952
 20
34.47473671137428
 30
0.0
 10
-16.45172913209954
 20
34.47473671236096
 30
0.0
 10
-16.44969484221955
 20
34.47473671433426
 30
0.0
 10
-16.44766055233956
 20
34.47473671630763
 30
0.0
 10
-16.44664340739956
 20
34.47473671729429
 30
0.0
 11
-16.45274627703952
 21
34.47473671137428
 31
0.0
 11
-16.44969484221957
 21
34.47473671433428
 31
0.0
 11
-16.44664340739956
 21
34.47473671729429
 31
0.0
  0
SPLINE
  5
AF
330
2
100
AcDbEntity
  8
GAIKEI
  6
Continuous
100
AcDbSpline
210
0.0
220
0.0
230
1.0
 70
    24
 71
     3
 72
     9
 73
     5
 74
     3
 42
0.0000000001
 43
0.0000000001
 44
0.00000001
 40
0.0
 40
0.0
 40
0.0
 40
0.0
 40
0.0030514348199603
 40
0.0061028696399632
 40
0.0061028696399632
 40
0.0061028696399632
 40
0.0061028696399632
 10
-31.54741578021952
 20
34.47473671729429
 30
0.0
 10
-31.54639863527954
 20
34.47473671630763
 30
0.0
 10
-31.54436434539954
 20
34.47473671433446
 30
0.0
 10
-31.54233005551957
 20
34.474736712361
 30
0.0
 10
-31.54131291057956
 20
34.47473671137428
 30
0.0
 11
-31.54741578021952
 21
34.47473671729429
 31
0.0
 11
-31.54436434539957
 21
34.47473671433431
 31
0.0
 11
-31.54131291057956
 21
34.47473671137428
 31
0.0
  0
SPLINE
  5
B0
330
2
100
AcDbEntity
  8
GAIKEI
  6
Continuous
100
AcDbSpline
210
0.0
220
0.0
230
1.0
 70
     8
 71
     3
 72
    11
 73
     7
 74
     5
 42
0.0000000001
 43
0.0000000001
 44
0.00000001
 40
0.0
 40
0.0
 40
0.0
 40
0.0
 40
0.0388733373772839
 40
0.0777486277016668
 40
0.1164664381513263
 40
0.1551773802130334
 40
0.1551773802130334
 40
0.1551773802130334
 40
0.1551773802130334
 10
-16.44664340739956
 20
34.47473671729429
 30
0.0
 10
-16.43358817407134
 20
34.47326137415982
 30
0.0
 10
-16.40747705463708
 20
34.47031059970928
 30
0.0
 10
-16.37449977586488
 20
34.44742765618938
 30
0.0
 10
-16.35148747844977
 20
34.41459180436152
 30
0.0
 10
-16.34851546279121
 20
34.38858627307539
 30
0.0
 10
-16.34702959379956
 20
34.37558465929428
 30
0.0
 11
-16.44664340739956
 21
34.47473671729429
 31
0.0
 11
-16.40850183624377
 21
34.46722958262754
 31
0.0
 11
-16.37611628423957
 21
34.44572459461432
 31
0.0
 11
-16.3545737304882
 21
34.41355337277943
 31
0.0
 11
-16.34702959379956
 21
34.37558465929428
 31
0.0
  0
ARC
  5
B1
330
2
100
AcDbEntity
  8
GAIKEI
  6
Continuous
 62
     1
100
AcDbCircle
 10
-23.29218815579964
 20
36.33853902285427
 30
0.0
 40
0.5999999999831975
100
AcDbArc
 50
262.4999999986576
 51
82.50000000133161
  0
ARC
  5
B2
330
2
100
AcDbEntity
  8
GAIKEI
  6
Continuous
 62
     1
100
AcDbCircle
 10
-23.99702959379959
 20
30.98473677145427
 30
0.0
 40
4.799999999999889
100
AcDbArc
 50
82.50000000000111
 51
97.4999999999299
  0
ARC
  5
B3
330
2
100
AcDbEntity
  8
GAIKEI
  6
Continuous
 62
     1
100
AcDbCircle
 10
-24.7018710317796
 20
36.33853902285429
 30
0.0
 40
0.6000000000194295
100
AcDbArc
 50
97.50000000056061
 51
277.5000000000021
  0
ARC
  5
B4
330
2
100
AcDbEntity
  8
GAIKEI
  6
Continuous
 62
     1
100
AcDbCircle
 10
-23.99702959379959
 20
30.98473677145427
 30
0.0
 40
5.999999999999953
100
AcDbArc
 50
82.49999999999788
 51
97.50000000000213
  0
ARC
  5
B5
330
2
100
AcDbEntity
  8
GAIKEI
  6
Continuous
100
AcDbCircle
 10
-23.99702959379959
 20
30.98473677145427
 30
0.0
 40
7.000000000000106
100
AcDbArc
 50
29.92549769419608
 51
150.074502305596
  0
ARC
  5
B6
330
2
100
AcDbEntity
  8
GAIKEI
  6
Continuous
 62
     1
100
AcDbCircle
 10
-17.7970295937996
 20
33.7247367714343
 30
0.0
 40
0.05
100
AcDbArc
 50
180.0
 51
270.0
  0
ARC
  5
B7
330
2
100
AcDbEntity
  8
GAIKEI
  6
Continuous
 62
     1
100
AcDbCircle
 10
-30.19702959379959
 20
33.7247367714343
 30
0.0
 40
0.05
100
AcDbArc
 50
270.0
 51
0.0
  0
ARC
  5
B8
330
2
100
AcDbEntity
  8
GAIKEI
  6
Continuous
 62
     1
100
AcDbCircle
 10
-30.19702959379959
 20
10.22473677143432
 30
0.0
 40
0.05
100
AcDbArc
 50
0.0
 51
90.0
  0
ARC
  5
B9
330
2
100
AcDbEntity
  8
GAIKEI
  6
Continuous
 62
     1
100
AcDbCircle
 10
-17.7970295937996
 20
10.22473677143432
 30
0.0
 40
0.05
100
AcDbArc
 50
90.0
 51
180.0
  0
LINE
  5
BA
330
2
100
AcDbEntity
  8
GAIKEI
  6
Continuous
100
AcDbLine
 10
-31.64702959379963
 20
9.57388888357434
 30
0.0
 11
-31.64702959379963
 21
34.37558465929428
 31
0.0
  0
LINE
  5
BB
330
2
100
AcDbEntity
  8
GAIKEI
  6
Continuous
100
AcDbLine
 10
-16.34702959379962
 20
9.57388888357434
 30
0.0
 11
-16.34702959379962
 21
34.37558465929428
 31
0.0
  0
LINE
  5
BC
330
2
100
AcDbEntity
  8
GAIKEI
  6
Continuous
 62
     1
100
AcDbLine
 10
-23.99702959379959
 20
37.18473677145428
 30
0.0
 11
-23.99702959379959
 21
37.88473677145427
 31
0.0
  0
LINE
  5
BD
330
2
100
AcDbEntity
  8
GAIKEI
  6
Continuous
 62
     1
100
AcDbLine
 10
-17.37480436929956
 20
10.13681441371432
 30
0.0
 11
-17.37480436927961
 21
33.81265914737426
 31
0.0
  0
LINE
  5
BE
330
2
100
AcDbEntity
  8
GAIKEI
  6
Continuous
 62
     1
100
AcDbLine
 10
-16.97744184197955
 20
9.637594685174349
 30
0.0
 11
-16.97744184163957
 21
34.31187886949425
 31
0.0
  0
LINE
  5
BF
330
2
100
AcDbEntity
  8
GAIKEI
  6
Continuous
 62
     1
100
AcDbLine
 10
-30.6192556902796
 20
33.81265889615426
 30
0.0
 11
-30.61925613131962
 21
10.13681447935434
 31
0.0
  0
LINE
  5
C0
330
2
100
AcDbEntity
  8
GAIKEI
  6
Continuous
 62
     1
100
AcDbLine
 10
-31.01661762479961
 20
34.31187888497425
 30
0.0
 11
-31.01661762059962
 21
9.637594669934316
 31
0.0
  0
LINE
  5
C1
330
2
100
AcDbEntity
  8
GAIKEI
  6
Continuous
 62
     1
100
AcDbLine
 10
-23.97048729183962
 20
9.553433755994319
 30
0.0
 11
-23.92249182763959
 21
9.553111413214224
 31
0.0
  0
LINE
  5
C2
330
2
100
AcDbEntity
  8
GAIKEI
  6
Continuous
 62
     1
100
AcDbLine
 10
-23.99702959343961
 20
9.553481632714238
 30
0.0
 11
-23.97048729183962
 21
9.553433755994319
 31
0.0
  0
LINE
  5
C3
330
2
100
AcDbEntity
  8
GAIKEI
  6
Continuous
 62
     1
100
AcDbLine
 10
-30.24702961731958
 20
10.10681304939433
 30
0.0
 11
-30.29702957029963
 21
10.10681304939433
 31
0.0
  0
LINE
  5
C4
330
2
100
AcDbEntity
  8
GAIKEI
  6
Continuous
 62
     1
100
AcDbLine
 10
-17.69702961731957
 20
10.10681304939433
 30
0.0
 11
-17.74702957029961
 21
10.10681304939433
 31
0.0
  0
LINE
  5
C5
330
2
100
AcDbEntity
  8
GAIKEI
  6
Continuous
 62
     1
100
AcDbLine
 10
-17.84702959379962
 20
10.12473677143433
 30
0.0
 11
-30.14702959379963
 21
10.12473677143433
 31
0.0
  0
LINE
  5
C6
330
2
100
AcDbEntity
  8
GAIKEI
  6
Continuous
 62
     1
100
AcDbLine
 10
-17.7970295937996
 20
10.27473677143433
 30
0.0
 11
-17.69702959379958
 21
10.27473677143433
 31
0.0
  0
LINE
  5
C7
330
2
100
AcDbEntity
  8
GAIKEI
  6
Continuous
 62
     1
100
AcDbLine
 10
-30.29702959379961
 20
10.27473677143433
 30
0.0
 11
-30.19702959379959
 21
10.27473677143433
 31
0.0
  0
LINE
  5
C8
330
2
100
AcDbEntity
  8
GAIKEI
  6
Continuous
 62
     1
100
AcDbLine
 10
-17.64702959379963
 20
33.7927118771143
 30
0.0
 11
-17.64702959379963
 21
10.15676166575423
 31
0.0
  0
LINE
  5
C9
330
2
100
AcDbEntity
  8
GAIKEI
  6
Continuous
 62
     1
100
AcDbLine
 10
-17.69702959379958
 20
33.67473677143431
 30
0.0
 11
-17.69702959379958
 21
10.27473677143433
 31
0.0
  0
LINE
  5
CA
330
2
100
AcDbEntity
  8
GAIKEI
  6
Continuous
 62
     1
100
AcDbLine
 10
-17.7970295937996
 20
10.27473677143433
 30
0.0
 11
-17.7970295937996
 21
10.15676166575423
 31
0.0
  0
LINE
  5
CB
330
2
100
AcDbEntity
  8
GAIKEI
  6
Continuous
 62
     1
100
AcDbLine
 10
-17.7970295937996
 20
33.7927118771143
 30
0.0
 11
-17.7970295937996
 21
33.67473677143431
 31
0.0
  0
LINE
  5
CC
330
2
100
AcDbEntity
  8
GAIKEI
  6
Continuous
 62
     1
100
AcDbLine
 10
-17.84702959379962
 20
10.22473677143432
 30
0.0
 11
-17.84702959379962
 21
10.12473677143433
 31
0.0
  0
LINE
  5
CD
330
2
100
AcDbEntity
  8
GAIKEI
  6
Continuous
 62
     1
100
AcDbLine
 10
-17.84702959379962
 20
33.7247367714343
 30
0.0
 11
-17.84702959379962
 21
33.82473677143429
 31
0.0
  0
LINE
  5
CE
330
2
100
AcDbEntity
  8
GAIKEI
  6
Continuous
 62
     1
100
AcDbLine
 10
-23.8720295937996
 20
33.8690624480343
 30
0.0
 11
-23.8720295937996
 21
33.82473677143429
 31
0.0
  0
LINE
  5
CF
330
2
100
AcDbEntity
  8
GAIKEI
  6
Continuous
 62
     1
100
AcDbLine
 10
-23.8720295937996
 20
10.08041109483423
 30
0.0
 11
-23.8720295937996
 21
10.12473677143433
 31
0.0
  0
LINE
  5
D0
330
2
100
AcDbEntity
  8
GAIKEI
  6
Continuous
 62
     1
100
AcDbLine
 10
-24.1220295937996
 20
33.86906244717426
 30
0.0
 11
-24.1220295937996
 21
33.82473677143429
 31
0.0
  0
LINE
  5
D1
330
2
100
AcDbEntity
  8
GAIKEI
  6
Continuous
 62
     1
100
AcDbLine
 10
-24.1220295937996
 20
10.08041109569433
 30
0.0
 11
-24.1220295937996
 21
10.12473677143433
 31
0.0
  0
LINE
  5
D2
330
2
100
AcDbEntity
  8
GAIKEI
  6
Continuous
 62
     1
100
AcDbLine
 10
-30.14702959379963
 20
33.7247367714343
 30
0.0
 11
-30.14702959379963
 21
33.82473677143429
 31
0.0
  0
LINE
  5
D3
330
2
100
AcDbEntity
  8
GAIKEI
  6
Continuous
 62
     1
100
AcDbLine
 10
-30.14702959379963
 20
10.12473677143433
 30
0.0
 11
-30.14702959379963
 21
10.22473677143432
 31
0.0
  0
LINE
  5
D4
330
2
100
AcDbEntity
  8
GAIKEI
  6
Continuous
 62
     1
100
AcDbLine
 10
-30.19702959379959
 20
33.67473677143431
 30
0.0
 11
-30.19702959379959
 21
33.7927118771143
 31
0.0
  0
LINE
  5
D5
330
2
100
AcDbEntity
  8
GAIKEI
  6
Continuous
 62
     1
100
AcDbLine
 10
-30.19702959379959
 20
10.15676166575423
 30
0.0
 11
-30.19702959379959
 21
10.27473677143433
 31
0.0
  0
LINE
  5
D6
330
2
100
AcDbEntity
  8
GAIKEI
  6
Continuous
 62
     1
100
AcDbLine
 10
-30.29702959379961
 20
10.27473677143433
 30
0.0
 11
-30.29702959379961
 21
33.67473677143431
 31
0.0
  0
LINE
  5
D7
330
2
100
AcDbEntity
  8
GAIKEI
  6
Continuous
 62
     1
100
AcDbLine
 10
-30.34702959379962
 20
10.15676166575423
 30
0.0
 11
-30.34702959379962
 21
33.7927118771143
 31
0.0
  0
LINE
  5
D8
330
2
100
AcDbEntity
  8
GAIKEI
  6
Continuous
 62
     1
100
AcDbLine
 10
-17.7970295937996
 20
33.67473677143431
 30
0.0
 11
-17.69702959379958
 21
33.67473677143431
 31
0.0
  0
LINE
  5
D9
330
2
100
AcDbEntity
  8
GAIKEI
  6
Continuous
 62
     1
100
AcDbLine
 10
-30.29702959379961
 20
33.67473677143431
 30
0.0
 11
-30.19702959379959
 21
33.67473677143431
 31
0.0
  0
LINE
  5
DA
330
2
100
AcDbEntity
  8
GAIKEI
  6
Continuous
 62
     1
100
AcDbLine
 10
-30.14702959379963
 20
33.82473677143429
 30
0.0
 11
-17.84702959379962
 21
33.82473677143429
 31
0.0
  0
LINE
  5
DB
330
2
100
AcDbEntity
  8
GAIKEI
  6
Continuous
 62
     1
100
AcDbLine
 10
-30.24702961731958
 20
33.84266049347429
 30
0.0
 11
-30.29702957029963
 21
33.84266049347429
 31
0.0
  0
LINE
  5
DC
330
2
100
AcDbEntity
  8
GAIKEI
  6
Continuous
 62
     1
100
AcDbLine
 10
-17.69702961731957
 20
33.84266049347429
 30
0.0
 11
-17.74702957029961
 21
33.84266049347429
 31
0.0
  0
LINE
  5
DD
330
2
100
AcDbEntity
  8
GAIKEI
  6
Continuous
 62
     1
100
AcDbLine
 10
-24.02346421317958
 20
34.39604132359426
 30
0.0
 11
-24.07144087733957
 21
34.3963601805543
 31
0.0
  0
LINE
  5
DE
330
2
100
AcDbEntity
  8
GAIKEI
  6
Continuous
 62
     1
100
AcDbLine
 10
-23.99702959417959
 20
34.39599397155431
 30
0.0
 11
-24.02346421317958
 21
34.39604132359426
 31
0.0
  0
LWPOLYLINE
  5
DF
330
2
100
AcDbEntity
  8
GAIKEI
  6
Continuous
 62
     1
100
AcDbPolyline
 90
        5
 70
     0
 43
0.0
 10
10.19451971992339
 20
33.86867794876832
 10
10.19379983135275
 20
33.86950783099491
 10
10.19622456372076
 20
33.86435541871867
 10
10.20051425107874
 20
33.84845311906725
 10
10.2032683491044
 20
33.82564017513966
  0
LWPOLYLINE
  5
E0
330
2
100
AcDbEntity
  8
GAIKEI
  6
Continuous
 62
     1
100
AcDbPolyline
 90
        4
 70
     0
 43
0.0
 10
10.20366087711773
 20
10.13681437554521
 10
10.20246151857304
 20
10.11418303718761
 10
10.19827187805646
 20
10.09139110096424
 10
10.19582047936239
 20
10.08409187476906
  0
LWPOLYLINE
  5
E1
330
2
100
AcDbEntity
  8
GAIKEI
  6
Continuous
100
AcDbPolyline
 90
        5
 70
     0
 43
0.0
 10
9.301689529791929
 20
9.664028369209745
 10
9.306468107511591
 20
9.633485272771338
 10
9.328730150711919
 20
9.595640292717348
 10
9.362971061709004
 20
9.571828151032434
 10
9.396455934276957
 20
9.564165415722641
  0
LWPOLYLINE
  5
E2
330
2
100
AcDbEntity
  8
GAIKEI
  6
Continuous
100
AcDbPolyline
 90
        5
 70
     0
 43
0.0
 10
9.3964559342769
 20
34.38530812719341
 10
9.362971061638177
 20
34.37764539184121
 10
9.328730150542185
 20
34.35383325000066
 10
9.306468107426724
 20
34.3159882698902
 10
9.301689529791985
 20
34.28544517370637
  0
SPLINE
  5
E3
330
2
100
AcDbEntity
  8
GAIKEI
  6
Continuous
100
AcDbSpline
210
0.0
220
0.0
230
1.0
 70
     8
 71
     3
 72
    21
 73
    17
 74
    15
 42
0.0000000001
 43
0.0000000001
 44
0.00000001
 40
0.0
 40
0.0
 40
0.0
 40
0.0
 40
0.0660401604112994
 40
0.1320802350025169
 40
0.1650419253206306
 40
0.1980036873263591
 40
0.2308806164577679
 40
0.2637574277189069
 40
0.2965303259980561
 40
0.3293031413909176
 40
0.3619599347261905
 40
0.3946166529533031
 40
0.4271532872220384
 40
0.4596898252652555
 40
0.5243914512798414
 40
0.589092760903675
 40
0.589092760903675
 40
0.589092760903675
 40
0.589092760903675
 10
28.82842073473972
 20
29.23622029073428
 30
0.0
 10
28.82923576951154
 20
29.25824776886151
 30
0.0
 10
28.83086585267597
 20
29.30230269554545
 30
0.0
 10
28.84188303063007
 20
29.35645899465584
 30
0.0
 10
28.85440250773672
 20
29.39863679672447
 30
0.0
 10
28.86585128725989
 20
29.42954621336108
 30
0.0
 10
28.87925311100957
 20
29.45962208367618
 30
0.0
 10
28.89455315921248
 20
29.4887094884673
 30
0.0
 10
28.91169837856252
 20
29.51670762145733
 30
0.0
 10
28.93059372245087
 20
29.54346624437008
 30
0.0
 10
28.9511807207862
 20
29.56889727756357
 30
0.0
 10
28.97334350970302
 20
29.59285769324157
 30
0.0
 10
28.99700896535055
 20
29.61528740484732
 30
0.0
 10
29.03036128834332
 20
29.64284881150172
 30
0.0
 10
29.07512336770987
 20
29.67349215798663
 30
0.0
 10
29.11440190824642
 20
29.69146982914941
 30
0.0
 10
29.13404113373969
 20
29.70045863617429
 30
0.0
 11
28.82842073473972
 21
29.23622029073428
 31
0.0
 11
28.8326625402421
 21
29.30212408412803
 31
0.0
 11
28.84532975467971
 21
29.36693791979422
 31
0.0
 11
28.85474870667821
 21
29.3985252021595
 31
0.0
 11
28.86618923977966
 21
29.42943785315424
 31
0.0
 11
28.87957410160232
 21
29.45946680547007
 31
0.0
 11
28.89488065735969
 21
29.48856309567421
 31
0.0
 11
28.91199681272025
 21
29.51651126415772
 31
0.0
 11
28.93090289009973
 21
29.54328098029424
 31
0.0
 11
28.95145195535963
 21
29.56866211707018
 31
0.0
 11
28.9736267824797
 21
29.59263581777427
 31
0.0
 11
28.99725056426291
 21
29.61500878234287
 31
0.0
 11
29.02230612941975
 21
29.63576558857432
 31
0.0
 11
29.0760009448984
 21
29.67186499856172
 31
0.0
 11
29.13404113373969
 21
29.70045863617429
 31
0.0
  0
SPLINE
  5
E4
330
2
100
AcDbEntity
  8
GAIKEI
  6
Continuous
 62
     1
100
AcDbSpline
210
0.0
220
0.0
230
1.0
 70
     8
 71
     3
 72
     9
 73
     5
 74
     3
 42
0.0000000001
 43
0.0000000001
 44
0.00000001
 40
0.0
 40
0.0
 40
0.0
 40
0.0
 40
0.0344385020330136
 40
0.0688822649150094
 40
0.0688822649150094
 40
0.0688822649150094
 40
0.0688822649150094
 10
30.44899441413969
 20
28.0747367714543
 30
0.0
 10
30.43773288959075
 20
28.07703453665872
 30
0.0
 10
30.41520812502692
 20
28.08163043744296
 30
0.0
 10
30.39348968232537
 20
28.08916680301019
 30
0.0
 10
30.38262963445971
 20
28.09293528315428
 30
0.0
 11
30.44899441413969
 21
28.0747367714543
 31
0.0
 11
30.41541139237569
 21
28.08236508070104
 31
0.0
 11
30.38262963445971
 21
28.09293528315428
 31
0.0
  0
SPLINE
  5
E5
330
2
100
AcDbEntity
  8
GAIKEI
  6
Continuous
 62
     1
100
AcDbSpline
210
0.0
220
0.0
230
1.0
 70
     8
 71
     3
 72
    11
 73
     7
 74
     5
 42
0.0000000001
 43
0.0000000001
 44
0.00000001
 40
0.0
 40
0.0
 40
0.0
 40
0.0
 40
0.0617780673801556
 40
0.1235739681155088
 40
0.1853698018343054
 40
0.2471478034224569
 40
0.2471478034224569
 40
0.2471478034224569
 40
0.2471478034224569
 10
30.38262963445971
 20
28.41495891141426
 30
0.0
 10
30.40040230520999
 20
28.40439250994192
 30
0.0
 10
30.43595278356188
 20
28.3832566698697
 30
0.0
 10
30.49809973528592
 20
28.37047621334546
 30
0.0
 10
30.56024665010902
 20
28.3832567064874
 30
0.0
 10
30.59579709029579
 20
28.40439252207796
 30
0.0
 10
30.6135697421397
 20
28.41495891141426
 30
0.0
 11
30.38262963445971
 21
28.41495891141426
 31
0.0
 11
30.43741693759995
 21
28.38641278575892
 31
0.0
 11
30.49809975527967
 21
28.37473677145431
 31
0.0
 11
30.55878249975268
 21
28.38641281154167
 31
0.0
 11
30.6135697421397
 21
28.41495891141426
 31
0.0
  0
SPLINE
  5
E6
330
2
100
AcDbEntity
  8
GAIKEI
  6
Continuous
 62
     1
100
AcDbSpline
210
0.0
220
0.0
230
1.0
 70
     8
 71
     3
 72
     9
 73
     5
 74
     3
 42
0.0000000001
 43
0.0000000001
 44
0.00000001
 40
0.0
 40
0.0
 40
0.0
 40
0.0
 40
0.1175431990327771
 40
0.2351577691255325
 40
0.2351577691255325
 40
0.2351577691255325
 40
0.2351577691255325
 10
30.15168952677971
 20
28.37473677145428
 30
0.0
 10
30.19096783096001
 20
28.37684465899369
 30
0.0
 10
30.26954828608575
 20
28.38106173367618
 30
0.0
 10
30.34492822705516
 20
28.40365755971888
 30
0.0
 10
30.38262963445971
 20
28.41495891141426
 30
0.0
 11
30.15168952677971
 21
28.37473677145428
 31
0.0
 11
30.26872479547683
 21
28.38565234319145
 31
0.0
 11
30.38262963445971
 21
28.41495891141426
 31
0.0
  0
SPLINE
  5
E7
330
2
100
AcDbEntity
  8
GAIKEI
  6
Continuous
 62
     1
100
AcDbSpline
210
0.0
220
0.0
230
1.0
 70
     8
 71
     3
 72
     9
 73
     5
 74
     3
 42
0.0000000001
 43
0.0000000001
 44
0.00000001
 40
0.0
 40
0.0
 40
0.0
 40
0.0
 40
0.1176157418806203
 40
0.2351577576374259
 40
0.2351577576374259
 40
0.2351577576374259
 40
0.2351577576374259
 10
29.92074941911972
 20
28.41495891141426
 30
0.0
 10
29.95845121651278
 20
28.40365749687606
 30
0.0
 10
30.03383118253342
 20
28.38106177141009
 30
0.0
 10
30.11241162327472
 20
28.37684465748987
 30
0.0
 10
30.15168952677971
 20
28.37473677145428
 30
0.0
 11
29.92074941911972
 21
28.41495891141426
 31
0.0
 11
30.03465543423442
 21
28.38565221174631
 31
0.0
 11
30.15168952677971
 21
28.37473677145428
 31
0.0
  0
SPLINE
  5
E8
330
2
100
AcDbEntity
  8
GAIKEI
  6
Continuous
 62
     1
100
AcDbSpline
210
0.0
220
0.0
230
1.0
 70
     8
 71
     3
 72
     9
 73
     5
 74
     3
 42
0.0000000001
 43
0.0000000001
 44
0.00000001
 40
0.0
 40
0.0
 40
0.0
 40
0.0
 40
0.0670029080996751
 40
0.1340079953028978
 40
0.1340079953028978
 40
0.1340079953028978
 40
0.1340079953028978
 10
30.05347897847969
 20
28.0747367714543
 30
0.0
 10
30.03125132100568
 20
28.07699360896837
 30
0.0
 10
29.98679528564191
 20
28.08150737723025
 30
0.0
 10
29.94276494563718
 20
28.0891259332937
 30
0.0
 10
29.92074941911972
 20
28.09293528315428
 30
0.0
 11
30.05347897847969
 21
28.0747367714543
 31
0.0
 11
29.98690242756163
 21
28.08228346563172
 31
0.0
 11
29.92074941911972
 21
28.09293528315428
 31
0.0
  0
SPLINE
  5
E9
330
2
100
AcDbEntity
  8
GAIKEI
  6
Continuous
 62
     1
100
AcDbSpline
210
0.0
220
0.0
230
1.0
 70
     8
 71
     3
 72
     9
 73
     5
 74
     3
 42
0.0000000001
 43
0.0000000001
 44
0.00000001
 40
0.0
 40
0.0
 40
0.0
 40
0.0
 40
0.034443791377402
 40
0.0688822648191075
 40
0.0688822648191075
 40
0.0688822648191075
 40
0.0688822648191075
 10
30.6135697421397
 20
28.09293528315428
 30
0.0
 10
30.60270968504844
 20
28.08916680060526
 30
0.0
 10
30.58099124189514
 20
28.08163043647397
 30
0.0
 10
30.55846647756034
 20
28.0770345350661
 30
0.0
 10
30.54720496245972
 20
28.0747367714543
 30
0.0
 11
30.6135697421397
 21
28.09293528315428
 31
0.0
 11
30.58078795638306
 21
28.08236507418996
 31
0.0
 11
30.54720496245972
 21
28.0747367714543
 31
0.0
  0
SPLINE
  5
EA
330
2
100
AcDbEntity
  8
GAIKEI
  6
Continuous
 62
     1
100
AcDbSpline
210
0.0
220
0.0
230
1.0
 70
     8
 71
     3
 72
     9
 73
     5
 74
     3
 42
0.0000000001
 43
0.0000000001
 44
0.00000001
 40
0.0
 40
0.0
 40
0.0
 40
0.0
 40
0.0232121034490096
 40
0.0464247620126313
 40
0.0464247620126313
 40
0.0464247620126313
 40
0.0464247620126313
 10
29.73418006837972
 20
28.07933865275428
 30
0.0
 10
29.7266916275306
 20
28.08129992166218
 30
0.0
 10
29.71171457233995
 20
28.08522252556997
 30
0.0
 10
29.69711112123976
 20
28.09036433712285
 30
0.0
 10
29.68980931143972
 20
28.09293528315428
 30
0.0
 11
29.73418006837972
 21
28.07933865275428
 31
0.0
 11
29.71180814728416
 21
28.08552726372716
 31
0.0
 11
29.68980931143972
 21
28.09293528315428
 31
0.0
  0
SPLINE
  5
EB
330
2
100
AcDbEntity
  8
GAIKEI
  6
Continuous
 62
     1
100
AcDbSpline
210
0.0
220
0.0
230
1.0
 70
    24
 71
     3
 72
     9
 73
     5
 74
     3
 42
0.0000000001
 43
0.0000000001
 44
0.00000001
 40
0.0
 40
0.0
 40
0.0
 40
0.0
 40
0.0112351496183182
 40
0.0224702992366861
 40
0.0224702992366861
 40
0.0224702992366861
 40
0.0224702992366861
 10
29.75617409111971
 20
28.0747367714543
 30
0.0
 10
29.75250842066305
 20
28.07550375167096
 30
0.0
 10
29.74517707974975
 20
28.07703771210439
 30
0.0
 10
29.7378457388364
 20
28.07857167253761
 30
0.0
 10
29.73418006837972
 20
28.07933865275428
 30
0.0
 11
29.75617409111971
 21
28.0747367714543
 31
0.0
 11
29.74517707974974
 21
28.07703771210427
 31
0.0
 11
29.73418006837972
 21
28.07933865275428
 31
0.0
  0
SPLINE
  5
EC
330
2
100
AcDbEntity
  8
GAIKEI
  6
Continuous
 62
     1
100
AcDbSpline
210
0.0
220
0.0
230
1.0
 70
     8
 71
     3
 72
     9
 73
     5
 74
     3
 42
0.0000000001
 43
0.0000000001
 44
0.00000001
 40
0.0
 40
0.0
 40
0.0
 40
0.0
 40
0.034443791387255
 40
0.0688822648386537
 40
0.0688822648386537
 40
0.0688822648386537
 40
0.0688822648386537
 10
29.92074941911972
 20
28.09293528315428
 30
0.0
 10
29.90988936202544
 20
28.08916680060386
 30
0.0
 10
29.88817091886604
 20
28.08163043646974
 30
0.0
 10
29.86564615452399
 20
28.07703453506468
 30
0.0
 10
29.85438463941972
 20
28.07473677145424
 30
0.0
 11
29.92074941911972
 21
28.09293528315428
 31
0.0
 11
29.88796763335364
 21
28.08236507418712
 31
0.0
 11
29.85438463941972
 21
28.07473677145424
 31
0.0
  0
SPLINE
  5
ED
330
2
100
AcDbEntity
  8
GAIKEI
  6
Continuous
 62
     1
100
AcDbSpline
210
0.0
220
0.0
230
1.0
 70
     8
 71
     3
 72
    11
 73
     7
 74
     5
 42
0.0000000001
 43
0.0000000001
 44
0.00000001
 40
0.0
 40
0.0
 40
0.0
 40
0.0
 40
0.0617780673715422
 40
0.1235739680978308
 40
0.1853698018263171
 40
0.2471478034244805
 40
0.2471478034244805
 40
0.2471478034244805
 40
0.2471478034244805
 10
29.68980931143972
 20
28.41495891141426
 30
0.0
 10
29.70758198218597
 20
28.40439250994001
 30
0.0
 10
29.74313246052967
 20
28.38325666986418
 30
0.0
 10
29.80527941225229
 20
28.3704762133483
 30
0.0
 10
29.86742632708011
 20
28.38325670648158
 30
0.0
 10
29.9029767672728
 20
28.40439252207602
 30
0.0
 10
29.92074941911972
 20
28.41495891141426
 30
0.0
 11
29.68980931143972
 21
28.41495891141426
 31
0.0
 11
29.74459661456865
 21
28.38641278575585
 31
0.0
 11
29.80527943223973
 21
28.37473677145431
 31
0.0
 11
29.86596217672332
 21
28.38641281153801
 31
0.0
 11
29.92074941911972
 21
28.41495891141426
 31
0.0
  0
SPLINE
  5
EE
330
2
100
AcDbEntity
  8
GAIKEI
  6
Continuous
 62
     1
100
AcDbSpline
210
0.0
220
0.0
230
1.0
 70
     8
 71
     3
 72
     9
 73
     5
 74
     3
 42
0.0000000001
 43
0.0000000001
 44
0.00000001
 40
0.0
 40
0.0
 40
0.0
 40
0.0
 40
0.0670051028411434
 40
0.1340079952803401
 40
0.1340079952803401
 40
0.1340079952803401
 40
0.1340079952803401
 10
30.38262963445971
 20
28.09293528315428
 30
0.0
 10
30.36061410275517
 20
28.08912593270278
 30
0.0
 10
30.3165837626599
 20
28.08150737723685
 30
0.0
 10
30.27212772735351
 20
28.07699360861921
 30
0.0
 10
30.24990007509973
 20
28.0747367714543
 30
0.0
 11
30.38262963445971
 21
28.09293528315428
 31
0.0
 11
30.31647661044388
 21
28.0822834639832
 31
0.0
 11
30.24990007509973
 21
28.0747367714543
 31
0.0
  0
SPLINE
  5
EF
330
2
100
AcDbEntity
  8
GAIKEI
  6
Continuous
 62
     1
100
AcDbSpline
210
0.0
220
0.0
230
1.0
 70
     8
 71
     3
 72
     9
 73
     5
 74
     3
 42
0.0000000001
 43
0.0000000001
 44
0.00000001
 40
0.0
 40
0.0
 40
0.0
 40
0.0
 40
0.0344385020329518
 40
0.0688822649150192
 40
0.0688822649150192
 40
0.0688822649150192
 40
0.0688822649150192
 10
26.69899441413969
 20
20.06473677145422
 30
0.0
 10
26.68773288959076
 20
20.06703453665861
 30
0.0
 10
26.66520812502688
 20
20.07163043744282
 30
0.0
 10
26.64348968232541
 20
20.07916680301011
 30
0.0
 10
26.63262963445971
 20
20.08293528315423
 30
0.0
 11
26.69899441413969
 21
20.06473677145422
 31
0.0
 11
26.66541139237575
 21
20.07236508070093
 31
0.0
 11
26.63262963445971
 21
20.08293528315423
 31
0.0
  0
SPLINE
  5
F0
330
2
100
AcDbEntity
  8
GAIKEI
  6
Continuous
 62
     1
100
AcDbSpline
210
0.0
220
0.0
230
1.0
 70
     8
 71
     3
 72
    11
 73
     7
 74
     5
 42
0.0000000001
 43
0.0000000001
 44
0.00000001
 40
0.0
 40
0.0
 40
0.0
 40
0.0
 40
0.0617780673802454
 40
0.1235739681155985
 40
0.1853698018342943
 40
0.2471478034225093
 40
0.2471478034225093
 40
0.2471478034225093
 40
0.2471478034225093
 10
26.63262963445971
 20
20.40495891141424
 30
0.0
 10
26.65040230521003
 20
20.39439250994186
 30
0.0
 10
26.68595278356189
 20
20.37325666986953
 30
0.0
 10
26.74809973528593
 20
20.36047621334532
 30
0.0
 10
26.81024665010905
 20
20.37325670648747
 30
0.0
 10
26.84579709029576
 20
20.39439252207791
 30
0.0
 10
26.8635697421397
 20
20.40495891141424
 30
0.0
 11
26.63262963445971
 21
20.40495891141424
 31
0.0
 11
26.68741693760001
 21
20.37641278575882
 31
0.0
 11
26.74809975527973
 21
20.36473677145421
 31
0.0
 11
26.80878249975263
 21
20.37641281154163
 31
0.0
 11
26.8635697421397
 21
20.40495891141424
 31
0.0
  0
SPLINE
  5
F1
330
2
100
AcDbEntity
  8
GAIKEI
  6
Continuous
 62
     1
100
AcDbSpline
210
0.0
220
0.0
230
1.0
 70
     8
 71
     3
 72
     9
 73
     5
 74
     3
 42
0.0000000001
 43
0.0000000001
 44
0.00000001
 40
0.0
 40
0.0
 40
0.0
 40
0.0
 40
0.1175431990327798
 40
0.2351577691255422
 40
0.2351577691255422
 40
0.2351577691255422
 40
0.2351577691255422
 10
26.40168952677971
 20
20.36473677145421
 30
0.0
 10
26.44096783096002
 20
20.36684465899364
 30
0.0
 10
26.51954828608577
 20
20.37106173367613
 30
0.0
 10
26.59492822705516
 20
20.39365755971883
 30
0.0
 10
26.63262963445971
 20
20.40495891141424
 30
0.0
 11
26.40168952677971
 21
20.36473677145421
 31
0.0
 11
26.51872479547683
 21
20.3756523431914
 31
0.0
 11
26.63262963445971
 21
20.40495891141424
 31
0.0
  0
SPLINE
  5
F2
330
2
100
AcDbEntity
  8
GAIKEI
  6
Continuous
 62
     1
100
AcDbSpline
210
0.0
220
0.0
230
1.0
 70
     8
 71
     3
 72
     9
 73
     5
 74
     3
 42
0.0000000001
 43
0.0000000001
 44
0.00000001
 40
0.0
 40
0.0
 40
0.0
 40
0.0
 40
0.1176157418806345
 40
0.23515775763744
 40
0.23515775763744
 40
0.23515775763744
 40
0.23515775763744
 10
26.17074941911972
 20
20.40495891141424
 30
0.0
 10
26.20845121651278
 20
20.39365749687608
 30
0.0
 10
26.28383118253339
 20
20.37106177140996
 30
0.0
 10
26.36241162327474
 20
20.36684465748982
 30
0.0
 10
26.40168952677971
 20
20.36473677145421
 30
0.0
 11
26.17074941911972
 21
20.40495891141424
 31
0.0
 11
26.28465543423442
 21
20.37565221174623
 31
0.0
 11
26.40168952677971
 21
20.36473677145421
 31
0.0
  0
SPLINE
  5
F3
330
2
100
AcDbEntity
  8
GAIKEI
  6
Continuous
 62
     1
100
AcDbSpline
210
0.0
220
0.0
230
1.0
 70
     8
 71
     3
 72
     9
 73
     5
 74
     3
 42
0.0000000001
 43
0.0000000001
 44
0.00000001
 40
0.0
 40
0.0
 40
0.0
 40
0.0
 40
0.0670029080996751
 40
0.1340079953029023
 40
0.1340079953029023
 40
0.1340079953029023
 40
0.1340079953029023
 10
26.30347897847969
 20
20.06473677145422
 30
0.0
 10
26.28125132100568
 20
20.06699360896835
 30
0.0
 10
26.23679528564188
 20
20.07150737723012
 30
0.0
 10
26.19276494563719
 20
20.07912593329368
 30
0.0
 10
26.17074941911972
 20
20.08293528315423
 30
0.0
 11
26.30347897847969
 21
20.06473677145422
 31
0.0
 11
26.23690242756163
 21
20.07228346563164
 31
0.0
 11
26.17074941911972
 21
20.08293528315423
 31
0.0
  0
SPLINE
  5
F4
330
2
100
AcDbEntity
  8
GAIKEI
  6
Continuous
 62
     1
100
AcDbSpline
210
0.0
220
0.0
230
1.0
 70
     8
 71
     3
 72
     9
 73
     5
 74
     3
 42
0.0000000001
 43
0.0000000001
 44
0.00000001
 40
0.0
 40
0.0
 40
0.0
 40
0.0
 40
0.0344437913773933
 40
0.0688822648191114
 40
0.0688822648191114
 40
0.0688822648191114
 40
0.0688822648191114
 10
26.8635697421397
 20
20.08293528315423
 30
0.0
 10
26.85270968504847
 20
20.07916680060526
 30
0.0
 10
26.83099124189508
 20
20.07163043647393
 30
0.0
 10
26.80846647756036
 20
20.06703453506609
 30
0.0
 10
26.79720496245972
 20
20.06473677145422
 30
0.0
 11
26.8635697421397
 21
20.08293528315423
 31
0.0
 11
26.83078795638306
 21
20.07236507418995
 31
0.0
 11
26.79720496245972
 21
20.06473677145422
 31
0.0
  0
SPLINE
  5
F5
330
2
100
AcDbEntity
  8
GAIKEI
  6
Continuous
 62
     1
100
AcDbSpline
210
0.0
220
0.0
230
1.0
 70
     8
 71
     3
 72
     9
 73
     5
 74
     3
 42
0.0000000001
 43
0.0000000001
 44
0.00000001
 40
0.0
 40
0.0
 40
0.0
 40
0.0
 40
0.0232121034490172
 40
0.0464247620126298
 40
0.0464247620126298
 40
0.0464247620126298
 40
0.0464247620126298
 10
25.98418006837972
 20
20.06933865275422
 30
0.0
 10
25.97669162753061
 20
20.07129992166216
 30
0.0
 10
25.96171457233995
 20
20.07522252556996
 30
0.0
 10
25.94711112123977
 20
20.08036433712283
 30
0.0
 10
25.93980931143972
 20
20.08293528315423
 30
0.0
 11
25.98418006837972
 21
20.06933865275422
 31
0.0
 11
25.96180814728416
 21
20.07552726372714
 31
0.0
 11
25.93980931143972
 21
20.08293528315423
 31
0.0
  0
SPLINE
  5
F6
330
2
100
AcDbEntity
  8
GAIKEI
  6
Continuous
 62
     1
100
AcDbSpline
210
0.0
220
0.0
230
1.0
 70
    24
 71
     3
 72
     9
 73
     5
 74
     3
 42
0.0000000001
 43
0.0000000001
 44
0.00000001
 40
0.0
 40
0.0
 40
0.0
 40
0.0
 40
0.011235149618324
 40
0.022470299236692
 40
0.022470299236692
 40
0.022470299236692
 40
0.022470299236692
 10
26.00617409111971
 20
20.06473677145422
 30
0.0
 10
26.00250842066305
 20
20.06550375167092
 30
0.0
 10
25.99517707974975
 20
20.06703771210434
 30
0.0
 10
25.98784573883639
 20
20.06857167253759
 30
0.0
 10
25.98418006837972
 20
20.06933865275422
 30
0.0
 11
26.00617409111971
 21
20.06473677145422
 31
0.0
 11
25.99517707974974
 21
20.06703771210425
 31
0.0
 11
25.98418006837972
 21
20.06933865275422
 31
0.0
  0
SPLINE
  5
F7
330
2
100
AcDbEntity
  8
GAIKEI
  6
Continuous
 62
     1
100
AcDbSpline
210
0.0
220
0.0
230
1.0
 70
     8
 71
     3
 72
     9
 73
     5
 74
     3
 42
0.0000000001
 43
0.0000000001
 44
0.00000001
 40
0.0
 40
0.0
 40
0.0
 40
0.0
 40
0.0344437913871293
 40
0.0688822648386452
 40
0.0688822648386452
 40
0.0688822648386452
 40
0.0688822648386452
 10
26.17074941911972
 20
20.08293528315423
 30
0.0
 10
26.15988936202547
 20
20.07916680060384
 30
0.0
 10
26.13817091886611
 20
20.07163043646975
 30
0.0
 10
26.11564615452401
 20
20.06703453506464
 30
0.0
 10
26.10438463941972
 20
20.06473677145422
 30
0.0
 11
26.17074941911972
 21
20.08293528315423
 31
0.0
 11
26.13796763335376
 21
20.07236507418713
 31
0.0
 11
26.10438463941972
 21
20.06473677145422
 31
0.0
  0
SPLINE
  5
F8
330
2
100
AcDbEntity
  8
GAIKEI
  6
Continuous
 62
     1
100
AcDbSpline
210
0.0
220
0.0
230
1.0
 70
     8
 71
     3
 72
    11
 73
     7
 74
     5
 42
0.0000000001
 43
0.0000000001
 44
0.00000001
 40
0.0
 40
0.0
 40
0.0
 40
0.0
 40
0.0617780673715422
 40
0.1235739680978469
 40
0.1853698018263385
 40
0.2471478034245283
 40
0.2471478034245283
 40
0.2471478034245283
 40
0.2471478034245283
 10
25.93980931143972
 20
20.40495891141424
 30
0.0
 10
25.957581982186
 20
20.39439250994005
 30
0.0
 10
25.99313246052964
 20
20.37325666986413
 30
0.0
 10
26.05527941225226
 20
20.36047621334816
 30
0.0
 10
26.11742632708015
 20
20.37325670648156
 30
0.0
 10
26.15297676727282
 20
20.39439252207595
 30
0.0
 10
26.17074941911972
 20
20.40495891141424
 30
0.0
 11
25.93980931143972
 21
20.40495891141424
 31
0.0
 11
25.99459661456865
 21
20.37641278575583
 31
0.0
 11
26.05527943223973
 21
20.36473677145421
 31
0.0
 11
26.11596217672332
 21
20.37641281153793
 31
0.0
 11
26.17074941911972
 21
20.40495891141424
 31
0.0
  0
SPLINE
  5
F9
330
2
100
AcDbEntity
  8
GAIKEI
  6
Continuous
 62
     1
100
AcDbSpline
210
0.0
220
0.0
230
1.0
 70
     8
 71
     3
 72
     9
 73
     5
 74
     3
 42
0.0000000001
 43
0.0000000001
 44
0.00000001
 40
0.0
 40
0.0
 40
0.0
 40
0.0
 40
0.0670051028411569
 40
0.1340079952803473
 40
0.1340079952803473
 40
0.1340079952803473
 40
0.1340079952803473
 10
26.63262963445971
 20
20.08293528315423
 30
0.0
 10
26.61061410275515
 20
20.07912593270271
 30
0.0
 10
26.56658376265993
 20
20.07150737723671
 30
0.0
 10
26.52212772735351
 20
20.0669936086191
 30
0.0
 10
26.49990007509973
 20
20.06473677145422
 30
0.0
 11
26.63262963445971
 21
20.08293528315423
 31
0.0
 11
26.56647661044388
 21
20.07228346398307
 31
0.0
 11
26.49990007509973
 21
20.06473677145422
 31
0.0
  0
SPLINE
  5
FA
330
2
100
AcDbEntity
  8
GAIKEI
  6
Continuous
 62
     1
100
AcDbSpline
210
0.0
220
0.0
230
1.0
 70
     8
 71
     3
 72
     9
 73
     5
 74
     3
 42
0.0000000001
 43
0.0000000001
 44
0.00000001
 40
0.0
 40
0.0
 40
0.0
 40
0.0
 40
0.0150513956046696
 40
0.0301051199557095
 40
0.0301051199557095
 40
0.0301051199557095
 40
0.0301051199557095
 10
10.20357209151746
 20
33.80678320726048
 30
0.0
 10
10.19975960397528
 20
33.80348016121514
 30
0.0
 10
10.19213405335439
 20
33.79687354434583
 30
0.0
 10
10.18662394518682
 20
33.78842160256295
 30
0.0
 10
10.18386868576505
 20
33.7841952986094
 30
0.0
 11
10.20357209151746
 21
33.80678320726048
 31
0.0
 11
10.19266341448184
 21
33.79641280210683
 31
0.0
 11
10.18386868576505
 21
33.7841952986094
 31
0.0
  0
SPLINE
  5
FB
330
2
100
AcDbEntity
  8
GAIKEI
  6
Continuous
 62
     1
100
AcDbSpline
210
0.0
220
0.0
230
1.0
 70
    24
 71
     3
 72
     9
 73
     5
 74
     3
 42
0.0000000001
 43
0.0000000001
 44
0.00000001
 40
0.0
 40
0.0
 40
0.0
 40
0.0
 40
0.0069221401139696
 40
0.0138442802278863
 40
0.0138442802278863
 40
0.0138442802278863
 40
0.0138442802278863
 10
10.18386868576505
 20
33.7841952986094
 30
0.0
 10
10.18288233564526
 20
33.78210936570517
 30
0.0
 10
10.18090963540569
 20
33.77793749989678
 30
0.0
 10
10.17893693516606
 20
33.77376563408836
 30
0.0
 10
10.17795058504623
 20
33.77167970118418
 30
0.0
 11
10.18386868576505
 21
33.7841952986094
 31
0.0
 11
10.18090963540567
 21
33.77793749989675
 31
0.0
 11
10.17795058504623
 21
33.77167970118418
 31
0.0
  0
SPLINE
  5
FC
330
2
100
AcDbEntity
  8
GAIKEI
  6
Continuous
 62
     1
100
AcDbSpline
210
0.0
220
0.0
230
1.0
 70
     8
 71
     3
 72
     9
 73
     5
 74
     3
 42
0.0000000001
 43
0.0000000001
 44
0.00000001
 40
0.0
 40
0.0
 40
0.0
 40
0.0
 40
0.0137399449681591
 40
0.0274785950968751
 40
0.0274785950968751
 40
0.0274785950968751
 40
0.0274785950968751
 10
10.17795058504623
 20
33.77167970118418
 30
0.0
 10
10.17654942079612
 20
33.7672959194694
 30
0.0
 10
10.17374724371879
 20
33.75852876480073
 30
0.0
 10
10.17333414389826
 20
33.74933395901854
 30
0.0
 10
10.17312761356481
 20
33.74473677145
 30
0.0
 11
10.17795058504623
 21
33.77167970118418
 31
0.0
 11
10.17434442743604
 21
33.75842143058466
 31
0.0
 11
10.17312761356481
 21
33.74473677145
 31
0.0
  0
SPLINE
  5
FD
330
2
100
AcDbEntity
  8
GAIKEI
  6
Continuous
 62
     1
100
AcDbSpline
210
0.0
220
0.0
230
1.0
 70
     8
 71
     3
 72
     9
 73
     5
 74
     3
 42
0.0000000001
 43
0.0000000001
 44
0.00000001
 40
0.0
 40
0.0
 40
0.0
 40
0.0
 40
0.0137374343637824
 40
0.0274761233434201
 40
0.0274761233434201
 40
0.0274761233434201
 40
0.0274761233434201
 10
10.17312761356481
 20
10.20473677146603
 30
0.0
 10
10.17333410690023
 20
10.20013999382268
 30
0.0
 10
10.17374713211833
 20
10.19094602135052
 30
0.0
 10
10.17654881217277
 20
10.18217958546438
 30
0.0
 10
10.17794972585494
 20
10.17779616955573
 30
0.0
 11
10.17312761356481
 21
10.20473677146603
 31
0.0
 11
10.17434421259008
 21
10.19105331378983
 31
0.0
 11
10.17794972585494
 21
10.17779616955573
 31
0.0
  0
SPLINE
  5
FE
330
2
100
AcDbEntity
  8
GAIKEI
  6
Continuous
 62
     1
100
AcDbSpline
210
0.0
220
0.0
230
1.0
 70
     8
 71
     3
 72
    11
 73
     7
 74
     5
 42
0.0000000001
 43
0.0000000001
 44
0.00000001
 40
0.0
 40
0.0
 40
0.0
 40
0.0
 40
0.0139341900074856
 40
0.0278689026034599
 40
0.0359235135456628
 40
0.0439711169395486
 40
0.0439711169395486
 40
0.0439711169395486
 40
0.0439711169395486
 10
10.17794972585494
 20
10.17779616955573
 30
0.0
 10
10.17978303074585
 20
10.17351486473805
 30
0.0
 10
10.18344972306451
 20
10.16495210140323
 30
0.0
 10
10.19056573467412
 20
10.15520494913889
 30
0.0
 10
10.19738757605668
 20
10.14785644893419
 30
0.0
 10
10.20151118758005
 20
10.14441186500315
 30
0.0
 10
10.20357210089372
 20
10.14269032806123
 30
0.0
 11
10.17794972585494
 21
10.17779616955573
 31
0.0
 11
10.18391307773089
 21
10.16520251656055
 31
0.0
 11
10.19198682836065
 21
10.15384510431272
 31
0.0
 11
10.19750590053803
 21
10.14797853647383
 31
0.0
 11
10.20357210089372
 21
10.14269032806123
 31
0.0
  0
SPLINE
  5
FF
330
2
100
AcDbEntity
  8
GAIKEI
  6
Continuous
 62
     1
100
AcDbSpline
210
0.0
220
0.0
230
1.0
 70
     8
 71
     3
 72
    19
 73
    15
 74
    13
 42
0.0000000001
 43
0.0000000001
 44
0.00000001
 40
0.0
 40
0.0
 40
0.0
 40
0.0
 40
0.0032222630499967
 40
0.0064916182340535
 40
0.0090870642505252
 40
0.011659508033122
 40
0.0149613294107119
 40
0.0182719531095234
 40
0.0221644033661859
 40
0.0260538398373021
 40
0.0304000663837735
 40
0.0347472702032546
 40
0.0442113369381557
 40
0.0536754769653218
 40
0.0536754769653218
 40
0.0536754769653218
 40
0.0536754769653218
 10
10.18592704660779
 20
33.67473677145435
 30
0.0
 10
10.18487247488661
 20
33.67507351112136
 30
0.0
 10
10.18274791605566
 20
33.67575190228829
 30
0.0
 10
10.18103471903208
 20
33.67843219383258
 30
0.0
 10
10.17971604238117
 20
33.68088478612697
 30
0.0
 10
10.17863882751662
 20
33.68350704308961
 30
0.0
 10
10.17766026858261
 20
33.68640700589103
 30
0.0
 10
10.17673523863433
 20
33.68978663929585
 30
0.0
 10
10.17591791870199
 20
33.69339358042243
 30
0.0
 10
10.17518397397128
 20
33.69737003185895
 30
0.0
 10
10.17456220858061
 20
33.70151883786707
 30
0.0
 10
10.17385636253542
 20
33.70753047410512
 30
0.0
 10
10.17325799094769
 20
33.71527184786467
 30
0.0
 10
10.17317107564642
 20
33.7215817888482
 30
0.0
 10
10.17312761356481
 20
33.72473677145533
 30
0.0
 11
10.18592704660779
 21
33.67473677145435
 31
0.0
 11
10.18298524252731
 21
33.67605161164977
 31
0.0
 11
10.18096642648169
 21
33.67862319404728
 31
0.0
 11
10.17975039439204
 21
33.6809161404546
 31
0.0
 11
10.17875485429539
 21
33.68328813653941
 31
0.0
 11
10.17769168509738
 21
33.68641410744832
 31
0.0
 11
10.17680835108456
 21
33.68960471072427
 31
0.0
 11
10.17594333662663
 21
33.69339982838557
 31
0.0
 11
10.17523201629376
 21
33.69722366662077
 31
0.0
 11
10.17458516506741
 21
33.70152148796222
 31
0.0
 11
10.17407329315347
 21
33.70583845079773
 31
0.0
 11
10.17335792192898
 21
33.71527544223625
 31
0.0
 11
10.17312761356481
 21
33.72473677145533
 31
0.0
  0
SPLINE
  5
100
330
2
100
AcDbEntity
  8
GAIKEI
  6
Continuous
 62
     1
100
AcDbSpline
210
0.0
220
0.0
230
1.0
 70
     8
 71
     3
 72
    19
 73
    15
 74
    13
 42
0.0000000001
 43
0.0000000001
 44
0.00000001
 40
0.0
 40
0.0
 40
0.0
 40
0.0
 40
0.0095225774836305
 40
0.0190449887420406
 40
0.0233685956507054
 40
0.027691263878189
 40
0.0315954985434456
 40
0.0355027218207599
 40
0.038785270791575
 40
0.0420591387312345
 40
0.04462208781715
 40
0.0472078971275474
 40
0.0504654679940472
 40
0.0536760212773837
 40
0.0536760212773837
 40
0.0536760212773837
 40
0.0536760212773837
 10
10.17312761356481
 20
10.22473677146075
 30
0.0
 10
10.1731716471351
 20
10.22791123592225
 30
0.0
 10
10.17325970498521
 20
10.23426010963538
 30
0.0
 10
10.17386422459492
 20
10.24203228143363
 30
0.0
 10
10.17457480976372
 20
10.24804711052303
 30
0.0
 10
10.17519757621183
 20
10.252184850752
 30
0.0
 10
10.17593456984369
 20
10.25616278998962
 30
0.0
 10
10.1767557688477
 20
10.25976939086902
 30
0.0
 10
10.17768150248818
 20
10.26313455101714
 30
0.0
 10
10.17865635152772
 20
10.2660127136813
 30
0.0
 10
10.17973030758543
 20
10.26861927407361
 30
0.0
 10
10.18104720441674
 20
10.27106131721328
 30
0.0
 10
10.18275850701374
 20
10.27372883978791
 30
0.0
 10
10.18487599858373
 20
10.27440242320486
 30
0.0
 10
10.18592704660779
 20
10.27473677146173
 30
0.0
 11
10.17312761356481
 21
10.22473677146075
 31
0.0
 11
10.1733608668481
 21
10.23425648363695
 31
0.0
 11
10.17408543544968
 21
10.24375128857156
 31
0.0
 11
10.17459757620315
 21
10.24804445622214
 31
0.0
 11
10.17524359345611
 21
10.25231857857801
 31
0.0
 11
10.17596031723587
 21
10.25615646272661
 31
0.0
 11
10.17683269558313
 21
10.25996505154904
 31
0.0
 11
10.17771256026111
 21
10.26312748176502
 31
0.0
 11
10.17877019885202
 21
10.26622580556505
 31
0.0
 11
10.17976458281231
 21
10.26858798825364
 31
0.0
 11
10.18097899843019
 21
10.27087088153854
 31
0.0
 11
10.18299439111348
 21
10.27343016491915
 31
0.0
 11
10.18592704660779
 21
10.27473677146173
 31
0.0
  0
SPLINE
  5
101
330
2
100
AcDbEntity
  8
GAIKEI
  6
Continuous
 62
     1
100
AcDbSpline
210
0.0
220
0.0
230
1.0
 70
     8
 71
     3
 72
    11
 73
     7
 74
     5
 42
0.0000000001
 43
0.0000000001
 44
0.00000001
 40
0.0
 40
0.0
 40
0.0
 40
0.0
 40
0.0155344411146117
 40
0.0315353208491291
 40
0.0666685753732705
 40
0.1018673977384668
 40
0.1018673977384668
 40
0.1018673977384668
 40
0.1018673977384668
 10
11.67506038382885
 20
34.47473671730524
 30
0.0
 10
11.67822921777214
 20
34.47049895112153
 30
0.0
 10
11.68466201490835
 20
34.46189616672118
 30
0.0
 10
11.68621585148072
 20
34.43911248142649
 30
0.0
 10
11.69022205015392
 20
34.41087960343376
 30
0.0
 10
11.69032737698644
 20
34.38735695085478
 30
0.0
 10
11.69038009260299
 20
34.37558465930579
 30
0.0
 11
11.67506038382885
 21
34.47473671730524
 31
0.0
 11
11.68318425182616
 21
34.46149580647753
 31
0.0
 11
11.68588557372044
 21
34.44572459463046
 31
0.0
 11
11.68943087854876
 21
34.41077067630522
 31
0.0
 11
11.69038009260299
 21
34.37558465930579
 31
0.0
  0
SPLINE
  5
102
330
2
100
AcDbEntity
  8
GAIKEI
  6
Continuous
100
AcDbSpline
210
0.0
220
0.0
230
1.0
 70
    24
 71
     3
 72
     9
 73
     5
 74
     3
 42
0.0000000001
 43
0.0000000001
 44
0.00000001
 40
0.0
 40
0.0
 40
0.0
 40
0.0
 40
0.086503952413254
 40
0.1730079048264228
 40
0.1730079048264228
 40
0.1730079048264228
 40
0.1730079048264228
 10
11.67506038381469
 20
9.474736825596721
 30
0.0
 10
11.64622573301774
 20
9.474737481761195
 30
0.0
 10
11.58855643142387
 20
9.474738794090171
 30
0.0
 10
11.53088712982999
 20
9.474740106419005
 30
0.0
 10
11.50205247903307
 20
9.474740762583422
 30
0.0
 11
11.67506038381469
 21
9.474736825596721
 31
0.0
 11
11.58855643142385
 21
9.474738794090114
 31
0.0
 11
11.50205247903307
 21
9.474740762583422
 31
0.0
  0
SPLINE
  5
103
330
2
100
AcDbEntity
  8
GAIKEI
  6
Continuous
100
AcDbSpline
210
0.0
220
0.0
230
1.0
 70
    24
 71
     3
 72
     9
 73
     5
 74
     3
 42
0.0000000001
 43
0.0000000001
 44
0.00000001
 40
0.0
 40
0.0
 40
0.0
 40
0.0
 40
0.0008676674970925
 40
0.0017353349941566
 40
0.0017353349941566
 40
0.0017353349941566
 40
0.0017353349941566
 10
11.50205247903307
 20
9.474740762583422
 30
0.0
 10
11.50176325653449
 20
9.47474077906844
 30
0.0
 10
11.5011848115374
 20
9.474740812038561
 30
0.0
 10
11.50060636654029
 20
9.474740845008568
 30
0.0
 10
11.50031714404173
 20
9.474740861493557
 30
0.0
 11
11.50205247903307
 21
9.474740762583422
 31
0.0
 11
11.50118481153737
 21
9.474740812038533
 31
0.0
 11
11.50031714404173
 21
9.474740861493557
 31
0.0
  0
SPLINE
  5
104
330
2
100
AcDbEntity
  8
GAIKEI
  6
Continuous
100
AcDbSpline
210
0.0
220
0.0
230
1.0
 70
    24
 71
     3
 72
     9
 73
     5
 74
     3
 42
0.0000000001
 43
0.0000000001
 44
0.00000001
 40
0.0
 40
0.0
 40
0.0
 40
0.0
 40
0.0108570510491395
 40
0.021714102098279
 40
0.021714102098279
 40
0.021714102098279
 40
0.021714102098279
 10
11.50031714404173
 20
9.474740861493557
 30
0.0
 10
11.49669812703267
 20
9.474741091630875
 30
0.0
 10
11.48946009301454
 20
9.474741551905538
 30
0.0
 10
11.48222205899641
 20
9.4747420121802
 30
0.0
 10
11.47860304198735
 20
9.474742242317518
 30
0.0
 11
11.50031714404173
 21
9.474740861493557
 31
0.0
 11
11.48946009301454
 21
9.474741551905538
 31
0.0
 11
11.47860304198735
 21
9.474742242317518
 31
0.0
  0
SPLINE
  5
105
330
2
100
AcDbEntity
  8
GAIKEI
  6
Continuous
100
AcDbSpline
210
0.0
220
0.0
230
1.0
 70
    24
 71
     3
 72
     9
 73
     5
 74
     3
 42
0.0000000001
 43
0.0000000001
 44
0.00000001
 40
0.0
 40
0.0
 40
0.0
 40
0.0
 40
0.1166821605386131
 40
0.2333643210773115
 40
0.2333643210773115
 40
0.2333643210773115
 40
0.2333643210773115
 10
11.47860304198735
 20
9.474742242317518
 30
0.0
 10
11.43970898878815
 20
9.474747181861516
 30
0.0
 10
11.36192088238968
 20
9.4747570609494
 30
0.0
 10
11.28413277599124
 20
9.47476694003717
 30
0.0
 10
11.24523872279201
 20
9.474771879581055
 30
0.0
 11
11.47860304198735
 21
9.474742242317518
 31
0.0
 11
11.36192088238971
 21
9.474757060949343
 31
0.0
 11
11.24523872279201
 21
9.474771879581055
 31
0.0
  0
SPLINE
  5
106
330
2
100
AcDbEntity
  8
GAIKEI
  6
Continuous
100
AcDbSpline
210
0.0
220
0.0
230
1.0
 70
    24
 71
     3
 72
     9
 73
     5
 74
     3
 42
0.0000000001
 43
0.0000000001
 44
0.00000001
 40
0.0
 40
0.0
 40
0.0
 40
0.0
 40
0.0717745991831926
 40
0.1435491983664136
 40
0.1435491983664136
 40
0.1435491983664136
 40
0.1435491983664136
 10
11.24523872279201
 20
9.474771879581055
 30
0.0
 10
11.22131385679095
 20
9.474776217947464
 30
0.0
 10
11.17346412478885
 20
9.474784894680283
 30
0.0
 10
11.12561439278671
 20
9.474793571413215
 30
0.0
 10
11.10168952678566
 20
9.474797909779738
 30
0.0
 11
11.24523872279201
 21
9.474771879581055
 31
0.0
 11
11.17346412478883
 21
9.47478489468034
 31
0.0
 11
11.10168952678566
 21
9.474797909779738
 31
0.0
  0
SPLINE
  5
107
330
2
100
AcDbEntity
  8
GAIKEI
  6
Continuous
 62
     1
100
AcDbSpline
210
0.0
220
0.0
230
1.0
 70
     8
 71
     3
 72
     9
 73
     5
 74
     3
 42
0.0000000001
 43
0.0000000001
 44
0.00000001
 40
0.0
 40
0.0
 40
0.0
 40
0.0
 40
0.0351681811304764
 40
0.0703296612357378
 40
0.0703296612357378
 40
0.0703296612357378
 40
0.0703296612357378
 10
11.69038009260299
 20
9.573888883610322
 30
0.0
 10
11.69026460265267
 20
9.562157173490732
 30
0.0
 10
11.69003362480167
 20
9.538695989555662
 30
0.0
 10
11.68726817621934
 20
9.515397221526029
 30
0.0
 10
11.68588557372044
 20
9.503748948285732
 30
0.0
 11
11.69038009260299
 21
9.573888883610322
 31
0.0
 11
11.68939987434254
 21
9.538734365243726
 31
0.0
 11
11.68588557372044
 21
9.503748948285732
 31
0.0
  0
SPLINE
  5
108
330
2
100
AcDbEntity
  8
GAIKEI
  6
Continuous
 62
     1
100
AcDbSpline
210
0.0
220
0.0
230
1.0
 70
     8
 71
     3
 72
     9
 73
     5
 74
     3
 42
0.0000000001
 43
0.0000000001
 44
0.00000001
 40
0.0
 40
0.0
 40
0.0
 40
0.0
 40
0.0161420319589824
 40
0.0316998441813728
 40
0.0316998441813728
 40
0.0316998441813728
 40
0.0316998441813728
 10
11.68588557372044
 20
9.503748948285732
 30
0.0
 10
11.68565376756862
 20
9.498217977593753
 30
0.0
 10
11.68519852633169
 20
9.487356220468996
 30
0.0
 10
11.67839799290412
 20
9.478891285512901
 30
0.0
 10
11.67506038381469
 20
9.474736825596721
 30
0.0
 11
11.68588557372044
 21
9.503748948285732
 31
0.0
 11
11.68354481283296
 21
9.487777533091332
 31
0.0
 11
11.67506038381469
 21
9.474736825596721
 31
0.0
  0
SPLINE
  5
109
330
2
100
AcDbEntity
  8
GAIKEI
  6
Continuous
100
AcDbSpline
210
0.0
220
0.0
230
1.0
 70
     8
 71
     3
 72
     9
 73
     5
 74
     3
 42
0.0000000001
 43
0.0000000001
 44
0.00000001
 40
0.0
 40
0.0
 40
0.0
 40
0.0
 40
0.0326169855821173
 40
0.0652339711735003
 40
0.0652339711735003
 40
0.0652339711735003
 40
0.0652339711735003
 10
10.39907272897142
 20
34.43785304709598
 30
0.0
 10
10.38821553365767
 20
34.43727960349042
 30
0.0
 10
10.36650114197255
 20
34.43613273625132
 30
0.0
 10
10.34478669401073
 20
34.4349869350329
 30
0.0
 10
10.33392946950118
 20
34.4344140444097
 30
0.0
 11
10.39907272897142
 21
34.43785304709598
 31
0.0
 11
10.36650112843364
 21
34.43613299277058
 31
0.0
 11
10.33392946950118
 21
34.4344140444097
 31
0.0
  0
SPLINE
  5
10A
330
2
100
AcDbEntity
  8
GAIKEI
  6
Continuous
100
AcDbSpline
210
0.0
220
0.0
230
1.0
 70
     8
 71
     3
 72
    17
 73
    13
 74
    11
 42
0.0000000001
 43
0.0000000001
 44
0.00000001
 40
0.0
 40
0.0
 40
0.0
 40
0.0
 40
0.0871358954279159
 40
0.1742717908700091
 40
0.2299466943460495
 40
0.2856215978245533
 40
0.3433663925633322
 40
0.401111187301866
 40
0.4560976561084125
 40
0.5110841249121137
 40
0.5952338017648788
 40
0.679383478603908
 40
0.679383478603908
 40
0.679383478603908
 40
0.679383478603908
 10
10.33392946950118
 20
34.4344140444097
 30
0.0
 10
10.30492446846455
 20
34.43288457406169
 30
0.0
 10
10.24691446561169
 20
34.42982564806488
 30
0.0
 10
10.17037144561736
 20
34.42579827940597
 30
0.0
 10
10.10430070134264
 20
34.42232641092301
 30
0.0
 10
10.0480133173519
 20
34.41937197941255
 30
0.0
 10
9.99103674296326
 20
34.41638472088929
 30
0.0
 10
9.93428915290579
 20
34.41341289604551
 30
0.0
 10
9.878459576438501
 20
34.41049240707119
 30
0.0
 10
9.813840192812293
 20
34.40711590649542
 30
0.0
 10
9.739512726506987
 20
34.40323706781735
 30
0.0
 10
9.683488852065451
 20
34.40031965037028
 30
0.0
 10
9.655476914464202
 20
34.39886094899484
 30
0.0
 11
10.33392946950118
 21
34.4344140444097
 31
0.0
 11
10.24691437831984
 21
34.4298273049572
 31
0.0
 11
10.15989887184025
 21
34.42524845065157
 31
0.0
 11
10.10430067303696
 21
34.42232694984591
 31
0.0
 11
10.04870230519429
 21
34.41940866770807
 31
0.0
 11
9.991036713146797
 21
34.41638528991092
 31
0.0
 11
9.933370939649819
 21
34.41336537493564
 31
0.0
 11
9.878459548975399
 21
34.41049293240755
 31
0.0
 11
9.823547994154012
 21
34.40762362958967
 31
0.0
 11
9.739512646024536
 21
34.40323861199156
 31
0.0
 11
9.655476914464202
 21
34.39886094899484
 31
0.0
  0
SPLINE
  5
10B
330
2
100
AcDbEntity
  8
GAIKEI
  6
Continuous
100
AcDbSpline
210
0.0
220
0.0
230
1.0
 70
     8
 71
     3
 72
     9
 73
     5
 74
     3
 42
0.0000000001
 43
0.0000000001
 44
0.00000001
 40
0.0
 40
0.0
 40
0.0
 40
0.0
 40
0.0282402250087156
 40
0.056480450010867
 40
0.056480450010867
 40
0.056480450010867
 40
0.056480450010867
 10
9.655476914464202
 20
34.39886094899484
 30
0.0
 10
9.646076227649643
 20
34.39837172108958
 30
0.0
 10
9.627274852983589
 20
34.39739328525212
 30
0.0
 10
9.608473437320341
 20
34.39641563752465
 30
0.0
 10
9.599072728970384
 20
34.39592682364744
 30
0.0
 11
9.655476914464202
 21
34.39886094899484
 31
0.0
 11
9.627274843251598
 21
34.39739347229301
 31
0.0
 11
9.599072728970384
 21
34.39592682364744
 31
0.0
  0
SPLINE
  5
10C
330
2
100
AcDbEntity
  8
GAIKEI
  6
Continuous
100
AcDbSpline
210
0.0
220
0.0
230
1.0
 70
    24
 71
     3
 72
     9
 73
     5
 74
     3
 42
0.0000000001
 43
0.0000000001
 44
0.00000001
 40
0.0
 40
0.0
 40
0.0
 40
0.0
 40
0.0069839693149778
 40
0.0139679386300423
 40
0.0139679386300423
 40
0.0139679386300423
 40
0.0139679386300423
 10
9.599072728970384
 20
34.39592682364744
 30
0.0
 10
9.60139757798008
 20
34.39604770978838
 30
0.0
 10
9.606047275999529
 20
34.39628948207025
 30
0.0
 10
9.610696974018921
 20
34.39653125435203
 30
0.0
 10
9.613021823028645
 20
34.39665214049296
 30
0.0
 11
9.599072728970384
 21
34.39592682364744
 31
0.0
 11
9.606047275999458
 21
34.39628948207022
 31
0.0
 11
9.613021823028645
 21
34.39665214049296
 31
0.0
  0
SPLINE
  5
10D
330
2
100
AcDbEntity
  8
GAIKEI
  6
Continuous
100
AcDbSpline
210
0.0
220
0.0
230
1.0
 70
     8
 71
     3
 72
     9
 73
     5
 74
     3
 42
0.0000000001
 43
0.0000000001
 44
0.00000001
 40
0.0
 40
0.0
 40
0.0
 40
0.0
 40
0.0212562556943403
 40
0.0425125113932472
 40
0.0425125113932472
 40
0.0425125113932472
 40
0.0425125113932472
 10
9.613021823028645
 20
34.39665214049296
 30
0.0
 10
9.620097677723293
 20
34.39702015759304
 30
0.0
 10
9.634249386075097
 20
34.39775621176639
 30
0.0
 10
9.648401072070328
 20
34.39849269565158
 30
0.0
 10
9.655476914549069
 20
34.39886094758066
 30
0.0
 11
9.613021823028645
 21
34.39665214049296
 31
0.0
 11
9.634249381003996
 21
34.39775630920775
 31
0.0
 11
9.655476914549069
 21
34.39886094758066
 31
0.0
  0
SPLINE
  5
10E
330
2
100
AcDbEntity
  8
GAIKEI
  6
Continuous
100
AcDbSpline
210
0.0
220
0.0
230
1.0
 70
     8
 71
     3
 72
     9
 73
     5
 74
     3
 42
0.0000000001
 43
0.0000000001
 44
0.00000001
 40
0.0
 40
0.0
 40
0.0
 40
0.0
 40
0.0323158683240587
 40
0.0646317366569794
 40
0.0646317366569794
 40
0.0646317366569794
 40
0.0646317366569794
 10
9.599072728984538
 20
9.553546719254541
 30
0.0
 10
9.609830151654691
 20
9.552987348242197
 30
0.0
 10
9.631344995959096
 20
9.551868586244353
 30
0.0
 10
9.652859785890413
 20
9.550748779091378
 30
0.0
 10
9.663617180337951
 20
9.550188865528355
 30
0.0
 11
9.599072728984538
 21
9.553546719254541
 31
0.0
 11
9.63134498288241
 21
9.551868334942241
 31
0.0
 11
9.663617180337951
 21
9.550188865528355
 31
0.0
  0
SPLINE
  5
10F
330
2
100
AcDbEntity
  8
GAIKEI
  6
Continuous
100
AcDbSpline
210
0.0
220
0.0
230
1.0
 70
     8
 71
     3
 72
    15
 73
    11
 74
     9
 42
0.0000000001
 43
0.0000000001
 44
0.00000001
 40
0.0
 40
0.0
 40
0.0
 40
0.0
 40
0.0864483614561057
 40
0.172896722926058
 40
0.2282389183343713
 40
0.283581113745128
 40
0.3410689432795033
 40
0.3985567728137742
 40
0.5012458757310793
 40
0.6039349786356134
 40
0.6039349786356134
 40
0.6039349786356134
 40
0.6039349786356134
 10
9.663617180337951
 20
9.550188865528355
 30
0.0
 10
9.69239429565016
 20
9.548690054257633
 30
0.0
 10
9.749948525513218
 20
9.545692417015175
 30
0.0
 10
9.825924731684182
 20
9.541726605753297
 30
0.0
 10
9.891546081676992
 20
9.538296868583557
 30
0.0
 10
9.947526906626777
 20
9.535367688300766
 30
0.0
 10
10.00422179395038
 20
9.532397851854653
 30
0.0
 10
10.07667714229337
 20
9.528597981952913
 30
0.0
 10
10.16417855685907
 20
9.524002392117893
 30
0.0
 10
10.23254324787568
 20
9.520402566450712
 30
0.0
 10
10.26672559299436
 20
9.518602646255317
 30
0.0
 11
9.663617180337951
 21
9.550188865528355
 31
0.0
 11
9.749948440480807
 21
9.545690785860642
 31
0.0
 11
9.83627929581803
 21
9.541184943236316
 31
0.0
 11
9.891546053792353
 21
9.538296335321746
 31
0.0
 11
9.946812645447153
 21
9.535404546981112
 31
0.0
 11
10.00422176370836
 21
9.532397274943235
 31
0.0
 11
10.06163070208322
 21
9.529386570823533
 31
0.0
 11
10.16417843542098
 21
9.524000083521627
 31
0.0
 11
10.26672559299436
 21
9.518602646255317
 31
0.0
  0
SPLINE
  5
110
330
2
100
AcDbEntity
  8
GAIKEI
  6
Continuous
100
AcDbSpline
210
0.0
220
0.0
230
1.0
 70
    24
 71
     3
 72
     9
 73
     5
 74
     3
 42
0.0000000001
 43
0.0000000001
 44
0.00000001
 40
0.0
 40
0.0
 40
0.0
 40
0.0
 40
0.0367807597613434
 40
0.0735615195227212
 40
0.0735615195227212
 40
0.0735615195227212
 40
0.0735615195227212
 10
10.26672559299436
 20
9.518602646255317
 30
0.0
 10
10.27896884001448
 20
9.517957113722218
 30
0.0
 10
10.30345533405473
 20
9.516666048655991
 30
0.0
 10
10.32794182809495
 20
9.515374983589595
 30
0.0
 10
10.34018507511507
 20
9.514729451056439
 30
0.0
 11
10.26672559299436
 21
9.518602646255317
 31
0.0
 11
10.30345533405472
 21
9.516666048655963
 31
0.0
 11
10.34018507511507
 21
9.514729451056439
 31
0.0
  0
SPLINE
  5
111
330
2
100
AcDbEntity
  8
GAIKEI
  6
Continuous
100
AcDbSpline
210
0.0
220
0.0
230
1.0
 70
     8
 71
     3
 72
     9
 73
     5
 74
     3
 42
0.0000000001
 43
0.0000000001
 44
0.00000001
 40
0.0
 40
0.0
 40
0.0
 40
0.0
 40
0.029484832481807
 40
0.0589696649563284
 40
0.0589696649563284
 40
0.0589696649563284
 40
0.0589696649563284
 10
10.34018507511507
 20
9.514729451056439
 30
0.0
 10
10.34999969601952
 20
9.514211517635601
 30
0.0
 10
10.36962893677167
 20
9.513175630821848
 30
0.0
 10
10.38925813195215
 20
9.512138880820742
 30
0.0
 10
10.39907272901388
 20
9.511620495834222
 30
0.0
 11
10.34018507511507
 21
9.514729451056439
 31
0.0
 11
10.36962892590838
 21
9.513175425010956
 31
0.0
 11
10.39907272901388
 21
9.511620495834222
 31
0.0
  0
SPLINE
  5
112
330
2
100
AcDbEntity
  8
GAIKEI
  6
Continuous
100
AcDbSpline
210
0.0
220
0.0
230
1.0
 70
    24
 71
     3
 72
     9
 73
     5
 74
     3
 42
0.0000000001
 43
0.0000000001
 44
0.00000001
 40
0.0
 40
0.0
 40
0.0
 40
0.0
 40
0.0073084193738969
 40
0.0146168387166003
 40
0.0146168387166003
 40
0.0146168387166003
 40
0.0146168387166003
 10
10.39907272901388
 20
9.511620495834222
 30
0.0
 10
10.39663998019684
 20
9.511748988152703
 30
0.0
 10
10.39177448257328
 20
9.51200597279211
 30
0.0
 10
10.38690898495005
 20
9.512262957437627
 30
0.0
 10
10.38447623614371
 20
9.512391449761651
 30
0.0
 11
10.39907272901388
 21
9.511620495834222
 31
0.0
 11
10.39177448256288
 21
9.512005972792621
 31
0.0
 11
10.38447623614371
 21
9.512391449761651
 31
0.0
  0
SPLINE
  5
113
330
2
100
AcDbEntity
  8
GAIKEI
  6
Continuous
100
AcDbSpline
210
0.0
220
0.0
230
1.0
 70
     8
 71
     3
 72
     9
 73
     5
 74
     3
 42
0.0000000001
 43
0.0000000001
 44
0.00000001
 40
0.0
 40
0.0
 40
0.0
 40
0.0
 40
0.0221764131166931
 40
0.0443528262388215
 40
0.0443528262388215
 40
0.0443528262388215
 40
0.0443528262388215
 10
10.38447623614371
 20
9.512391449761651
 30
0.0
 10
10.37709438267625
 20
9.512781243620111
 30
0.0
 10
10.36233067468515
 20
9.513560811364925
 30
0.0
 10
10.34756694183956
 20
9.514339908264986
 30
0.0
 10
10.34018507488878
 20
9.514729446728949
 30
0.0
 11
10.38447623614371
 21
9.512391449761651
 31
0.0
 11
10.36233066900047
 21
9.51356070363974
 31
0.0
 11
10.34018507488878
 21
9.514729446728949
 31
0.0
  0
SPLINE
  5
114
330
2
100
AcDbEntity
  8
GAIKEI
  6
Continuous
100
AcDbSpline
210
0.0
220
0.0
230
1.0
 70
     8
 71
     3
 72
     9
 73
     5
 74
     3
 42
0.0000000001
 43
0.0000000001
 44
0.00000001
 40
0.0
 40
0.0
 40
0.0
 40
0.0
 40
0.0073104540375136
 40
0.0146209080326668
 40
0.0146209080326668
 40
0.0146209080326668
 40
0.0146209080326668
 10
9.613673911259525
 20
9.552787490783941
 30
0.0
 10
9.611240381595209
 20
9.552914042745783
 30
0.0
 10
9.606373321558749
 20
9.553167132785659
 30
0.0
 10
9.601506260078537
 20
9.553420195059516
 30
0.0
 10
9.599072728984538
 20
9.553546719254541
 30
0.0
 11
9.613673911259525
 21
9.552787490783941
 31
0.0
 11
9.606373321544651
 21
9.553167132786427
 31
0.0
 11
9.599072728984538
 21
9.553546719254541
 31
0.0
  0
SPLINE
  5
115
330
2
100
AcDbEntity
  8
GAIKEI
  6
Continuous
 62
     1
100
AcDbSpline
210
0.0
220
0.0
230
1.0
 70
     8
 71
     3
 72
     9
 73
     5
 74
     3
 42
0.0000000001
 43
0.0000000001
 44
0.00000001
 40
0.0
 40
0.0
 40
0.0
 40
0.0
 40
0.0256591878955
 40
0.0509476196559677
 40
0.0509476196559677
 40
0.0509476196559677
 40
0.0509476196559677
 10
11.77864084438829
 20
9.626567026361925
 30
0.0
 10
11.7787670286218
 20
9.61794923011891
 30
0.0
 10
11.77901755412668
 20
9.600838160266789
 30
0.0
 10
11.77369971695447
 20
9.584574854158887
 30
0.0
 10
11.77106013824516
 20
9.576502378812335
 30
0.0
 11
11.77864084438829
 21
9.626567026361925
 31
0.0
 11
11.77760696169554
 21
9.600928674878844
 31
0.0
 11
11.77106013824516
 21
9.576502378812335
 31
0.0
  0
SPLINE
  5
116
330
2
100
AcDbEntity
  8
GAIKEI
  6
Continuous
 62
     1
100
AcDbSpline
210
0.0
220
0.0
230
1.0
 70
     8
 71
     3
 72
     9
 73
     5
 74
     3
 42
0.0000000001
 43
0.0000000001
 44
0.00000001
 40
0.0
 40
0.0
 40
0.0
 40
0.0
 40
0.0252880388905533
 40
0.0509504840634469
 40
0.0509504840634469
 40
0.0509504840634469
 40
0.0509504840634469
 10
11.77106013824516
 20
34.37297116410369
 30
0.0
 10
11.77370591656495
 20
34.36490025732175
 30
0.0
 10
11.779036626356
 20
34.34863894451903
 30
0.0
 10
11.77877342303405
 20
34.33152591118002
 30
0.0
 10
11.77864084438829
 20
34.32290651655419
 30
0.0
 11
11.77106013824516
 21
34.37297116410369
 31
0.0
 11
11.77761946332765
 21
34.34854862898629
 31
0.0
 11
11.77864084438829
 21
34.32290651655419
 31
0.0
  0
SPLINE
  5
117
330
2
100
AcDbEntity
  8
GAIKEI
  6
Continuous
 62
     1
100
AcDbSpline
210
0.0
220
0.0
230
1.0
 70
     8
 71
     3
 72
     9
 73
     5
 74
     3
 42
0.0000000001
 43
0.0000000001
 44
0.00000001
 40
0.0
 40
0.0
 40
0.0
 40
0.0
 40
0.0320097429366194
 40
0.0640194858731329
 40
0.0640194858731329
 40
0.0640194858731329
 40
0.0640194858731329
 10
11.77106013824516
 20
9.576502378812335
 30
0.0
 10
11.76039189252978
 20
9.576313686506466
 30
0.0
 10
11.73905540111136
 20
9.575936301200414
 30
0.0
 10
11.7177189097175
 20
9.575558914505762
 30
0.0
 10
11.70705066402672
 20
9.575370220811237
 30
0.0
 11
11.77106013824516
 21
9.576502378812335
 31
0.0
 11
11.73905540111133
 21
9.575936301200442
 31
0.0
 11
11.70705066402672
 21
9.575370220811237
 31
0.0
  0
SPLINE
  5
118
330
2
100
AcDbEntity
  8
GAIKEI
  6
Continuous
 62
     1
100
AcDbSpline
210
0.0
220
0.0
230
1.0
 70
    24
 71
     3
 72
     9
 73
     5
 74
     3
 42
0.0000000001
 43
0.0000000001
 44
0.00000001
 40
0.0
 40
0.0
 40
0.0
 40
0.0
 40
0.0083470806503695
 40
0.0166941613007665
 40
0.0166941613007665
 40
0.0166941613007665
 40
0.0166941613007665
 10
11.70705066402672
 20
9.575370220811237
 30
0.0
 10
11.70426873893329
 20
9.575321015623842
 30
0.0
 10
11.69870488874639
 20
9.575222605249052
 30
0.0
 10
11.6931410385595
 20
9.575124194874263
 30
0.0
 10
11.69035911346606
 20
9.575074989686925
 30
0.0
 11
11.70705066402672
 21
9.575370220811237
 31
0.0
 11
11.69870488874642
 21
9.575222605249052
 31
0.0
 11
11.69035911346606
 21
9.575074989686925
 31
0.0
  0
SPLINE
  5
119
330
2
100
AcDbEntity
  8
GAIKEI
  6
Continuous
 62
     1
100
AcDbSpline
210
0.0
220
0.0
230
1.0
 70
     8
 71
     3
 72
     9
 73
     5
 74
     3
 42
0.0000000001
 43
0.0000000001
 44
0.00000001
 40
0.0
 40
0.0
 40
0.0
 40
0.0
 40
0.0403568235869419
 40
0.0807136471738993
 40
0.0807136471738993
 40
0.0807136471738993
 40
0.0807136471738993
 10
11.77106013824516
 20
34.37297116410369
 30
0.0
 10
11.75760996742916
 20
34.3732090611897
 30
0.0
 10
11.73070962581661
 20
34.37368485646323
 30
0.0
 10
11.7038092842431
 20
34.37416065393998
 30
0.0
 10
11.69035911346606
 20
34.3743985532291
 30
0.0
 11
11.77106013824516
 21
34.37297116410369
 31
0.0
 11
11.73070962581664
 21
34.37368485646329
 31
0.0
 11
11.69035911346606
 21
34.3743985532291
 31
0.0
  0
SPLINE
  5
11A
330
2
100
AcDbEntity
  8
GAIKEI
  6
Continuous
100
AcDbSpline
210
0.0
220
0.0
230
1.0
 70
     8
 71
     3
 72
     9
 73
     5
 74
     3
 42
0.0000000001
 43
0.0000000001
 44
0.00000001
 40
0.0
 40
0.0
 40
0.0
 40
0.0
 40
0.0717757902589779
 40
0.1435515805069409
 40
0.1435515805069409
 40
0.1435515805069409
 40
0.1435515805069409
 10
11.24524110492166
 20
34.47470166370272
 30
0.0
 10
11.22131584181649
 20
34.47469777033479
 30
0.0
 10
11.17346531561333
 20
34.47468996359879
 30
0.0
 10
11.12561478972569
 20
34.47468041662381
 30
0.0
 10
11.1016895267856
 20
34.47467563313637
 30
0.0
 11
11.24524110492166
 21
34.47470166370272
 31
0.0
 11
11.17346531568671
 21
34.47468953853905
 31
0.0
 11
11.1016895267856
 21
34.47467563313637
 31
0.0
  0
SPLINE
  5
11B
330
2
100
AcDbEntity
  8
GAIKEI
  6
Continuous
100
AcDbSpline
210
0.0
220
0.0
230
1.0
 70
    24
 71
     3
 72
     9
 73
     5
 74
     3
 42
0.0000000001
 43
0.0000000001
 44
0.00000001
 40
0.0
 40
0.0
 40
0.0
 40
0.0
 40
0.0896228237501723
 40
0.1792456475003729
 40
0.1792456475003729
 40
0.1792456475003729
 40
0.1792456475003729
 10
11.42448675101388
 20
34.47472413163891
 30
0.0
 10
11.39461247666519
 20
34.47472038698291
 30
0.0
 10
11.33486392796777
 20
34.47471289767083
 30
0.0
 10
11.27511537927037
 20
34.47470540835875
 30
0.0
 10
11.24524110492166
 20
34.47470166370272
 30
0.0
 11
11.42448675101388
 21
34.47472413163891
 31
0.0
 11
11.33486392796777
 21
34.47471289767083
 31
0.0
 11
11.24524110492166
 21
34.47470166370272
 31
0.0
  0
SPLINE
  5
11C
330
2
100
AcDbEntity
  8
GAIKEI
  6
Continuous
100
AcDbSpline
210
0.0
220
0.0
230
1.0
 70
    24
 71
     3
 72
     9
 73
     5
 74
     3
 42
0.0000000001
 43
0.0000000001
 44
0.00000001
 40
0.0
 40
0.0
 40
0.0
 40
0.0
 40
0.0270598518534617
 40
0.0541197037070087
 40
0.0541197037070087
 40
0.0541197037070087
 40
0.0541197037070087
 10
11.47860645451294
 20
34.47472887598602
 30
0.0
 10
11.46958650392977
 20
34.47472808526149
 30
0.0
 10
11.45154660276343
 20
34.47472650381241
 30
0.0
 10
11.43350670159707
 20
34.47472492236338
 30
0.0
 10
11.42448675101388
 20
34.47472413163891
 30
0.0
 11
11.47860645451294
 21
34.47472887598602
 31
0.0
 11
11.45154660276347
 21
34.47472650381243
 31
0.0
 11
11.42448675101388
 21
34.47472413163891
 31
0.0
  0
SPLINE
  5
11D
330
2
100
AcDbEntity
  8
GAIKEI
  6
Continuous
100
AcDbSpline
210
0.0
220
0.0
230
1.0
 70
    24
 71
     3
 72
     9
 73
     5
 74
     3
 42
0.0000000001
 43
0.0000000001
 44
0.00000001
 40
0.0
 40
0.0
 40
0.0
 40
0.0
 40
0.0108554873175902
 40
0.0217109746351519
 40
0.0217109746351519
 40
0.0217109746351519
 40
0.0217109746351519
 10
11.50031742909061
 20
34.47473045581808
 30
0.0
 10
11.49669893332766
 20
34.47473019251271
 30
0.0
 10
11.48946194180176
 20
34.47472966590203
 30
0.0
 10
11.48222495027589
 20
34.47472913929136
 30
0.0
 10
11.47860645451294
 20
34.47472887598602
 30
0.0
 11
11.50031742909061
 21
34.47473045581808
 31
0.0
 11
11.48946194180178
 21
34.47472966590203
 31
0.0
 11
11.47860645451294
 21
34.47472887598602
 31
0.0
  0
SPLINE
  5
11E
330
2
100
AcDbEntity
  8
GAIKEI
  6
Continuous
100
AcDbSpline
210
0.0
220
0.0
230
1.0
 70
    24
 71
     3
 72
     9
 73
     5
 74
     3
 42
0.0000000001
 43
0.0000000001
 44
0.00000001
 40
0.0
 40
0.0
 40
0.0
 40
0.0
 40
0.0008692316673379
 40
0.0017384633346758
 40
0.0017384633346758
 40
0.0017384633346758
 40
0.0017384633346758
 10
11.50205589242125
 20
34.47473057428681
 30
0.0
 10
11.50176614853282
 20
34.47473055454202
 30
0.0
 10
11.50118666075593
 20
34.47473051505244
 30
0.0
 10
11.50060717297904
 20
34.47473047556284
 30
0.0
 10
11.50031742909061
 20
34.47473045581808
 30
0.0
 11
11.50205589242125
 21
34.47473057428681
 31
0.0
 11
11.50118666075593
 21
34.47473051505244
 31
0.0
 11
11.50031742909061
 21
34.47473045581808
 31
0.0
  0
SPLINE
  5
11F
330
2
100
AcDbEntity
  8
GAIKEI
  6
Continuous
100
AcDbSpline
210
0.0
220
0.0
230
1.0
 70
    24
 71
     3
 72
     9
 73
     5
 74
     3
 42
0.0000000001
 43
0.0000000001
 44
0.00000001
 40
0.0
 40
0.0
 40
0.0
 40
0.0
 40
0.0865022457583294
 40
0.1730044915166588
 40
0.1730044915166588
 40
0.1730044915166588
 40
0.1730044915166588
 10
11.67506038382885
 20
34.47473671730524
 30
0.0
 10
11.64622630192758
 20
34.47473569346886
 30
0.0
 10
11.58855813812505
 20
34.47473364579608
 30
0.0
 10
11.53088997432252
 20
34.47473159812318
 30
0.0
 10
11.50205589242125
 20
34.47473057428681
 30
0.0
 11
11.67506038382885
 21
34.47473671730524
 31
0.0
 11
11.58855813812505
 21
34.47473364579599
 31
0.0
 11
11.50205589242125
 21
34.47473057428681
 31
0.0
  0
SPLINE
  5
120
330
2
100
AcDbEntity
  8
GAIKEI
  6
Continuous
 62
     1
100
AcDbSpline
210
0.0
220
0.0
230
1.0
 70
    24
 71
     3
 72
     9
 73
     5
 74
     3
 42
0.0000000001
 43
0.0000000001
 44
0.00000001
 40
0.0
 40
0.0
 40
0.0
 40
0.0
 40
0.0126394149251611
 40
0.0252788298503276
 40
0.0252788298503276
 40
0.0252788298503276
 40
0.0252788298503276
 10
10.20425714321391
 20
10.11156427607653
 30
0.0
 10
10.20445799988377
 20
10.11577262385253
 30
0.0
 10
10.2048597132235
 20
10.12418931940453
 30
0.0
 10
10.20526142656332
 20
10.13260601495654
 30
0.0
 10
10.20546228323326
 20
10.13681436273254
 30
0.0
 11
10.20425714321391
 21
10.11156427607653
 31
0.0
 11
10.20485971322353
 21
10.12418931940453
 31
0.0
 11
10.20546228323326
 21
10.13681436273254
 31
0.0
  0
SPLINE
  5
121
330
2
100
AcDbEntity
  8
GAIKEI
  6
Continuous
 62
     1
100
AcDbSpline
210
0.0
220
0.0
230
1.0
 70
     8
 71
     3
 72
     9
 73
     5
 74
     3
 42
0.0000000001
 43
0.0000000001
 44
0.00000001
 40
0.0
 40
0.0
 40
0.0
 40
0.0
 40
0.3583007331057996
 40
0.7166014829005861
 40
0.7166014829005861
 40
0.7166014829005861
 40
0.7166014829005861
 10
10.38429439997219
 20
34.41173900853588
 30
0.0
 10
10.50359900409145
 20
34.41728876635335
 30
0.0
 10
10.74220821694351
 20
34.42838830222448
 30
0.0
 10
10.98079337966214
 20
34.43999331342397
 30
0.0
 10
11.1000859633209
 20
34.44579582914733
 30
0.0
 11
10.38429439997219
 21
34.41173900853588
 31
0.0
 11
10.74220219932868
 21
34.42851466080347
 31
0.0
 11
11.1000859633209
 21
34.44579582914733
 31
0.0
  0
SPLINE
  5
122
330
2
100
AcDbEntity
  8
GAIKEI
  6
Continuous
 62
     1
100
AcDbSpline
210
0.0
220
0.0
230
1.0
 70
    24
 71
     3
 72
     9
 73
     5
 74
     3
 42
0.0000000001
 43
0.0000000001
 44
0.00000001
 40
0.0
 40
0.0
 40
0.0
 40
0.0
 40
0.0514571851200776
 40
0.1029143702402944
 40
0.1029143702402944
 40
0.1029143702402944
 40
0.1029143702402944
 10
11.1000859633209
 20
34.44579582914733
 30
0.0
 10
11.11721773768977
 20
34.44663663981766
 30
0.0
 10
11.15148128642755
 20
34.44831826115828
 30
0.0
 10
11.18574483516535
 20
34.44999988249882
 30
0.0
 10
11.20287660953426
 20
34.45084069316911
 30
0.0
 11
11.1000859633209
 21
34.44579582914733
 31
0.0
 11
11.1514812864275
 21
34.44831826115825
 31
0.0
 11
11.20287660953426
 21
34.45084069316911
 31
0.0
  0
SPLINE
  5
123
330
2
100
AcDbEntity
  8
GAIKEI
  6
Continuous
 62
     1
100
AcDbSpline
210
0.0
220
0.0
230
1.0
 70
    24
 71
     3
 72
     9
 73
     5
 74
     3
 42
0.0000000001
 43
0.0000000001
 44
0.00000001
 40
0.0
 40
0.0
 40
0.0
 40
0.0
 40
0.1489043050261862
 40
0.2978086100524562
 40
0.2978086100524562
 40
0.2978086100524562
 40
0.2978086100524562
 10
11.20287660953426
 20
34.45084069316911
 30
0.0
 10
11.25245015567226
 20
34.45330519142883
 30
0.0
 10
11.35159724794835
 20
34.45823418794828
 30
0.0
 10
11.4507443402244
 20
34.46316318446773
 30
0.0
 10
11.50031788636244
 20
34.46562768272741
 30
0.0
 11
11.20287660953426
 21
34.45084069316911
 31
0.0
 11
11.35159724794829
 21
34.45823418794831
 31
0.0
 11
11.50031788636244
 21
34.46562768272741
 31
0.0
  0
SPLINE
  5
124
330
2
100
AcDbEntity
  8
GAIKEI
  6
Continuous
 62
     1
100
AcDbSpline
210
0.0
220
0.0
230
1.0
 70
    24
 71
     3
 72
     9
 73
     5
 74
     3
 42
0.0000000001
 43
0.0000000001
 44
0.00000001
 40
0.0
 40
0.0
 40
0.0
 40
0.0
 40
0.0042324475991668
 40
0.0084648951983342
 40
0.0084648951983342
 40
0.0084648951983342
 40
0.0084648951983342
 10
11.77864084438829
 20
9.626567026361925
 30
0.0
 10
11.77723024915025
 20
9.626542076747341
 30
0.0
 10
11.77440905867416
 20
9.626492177518116
 30
0.0
 10
11.77158786819808
 20
9.626442278288948
 30
0.0
 10
11.77017727296004
 20
9.626417328674335
 30
0.0
 11
11.77864084438829
 21
9.626567026361925
 31
0.0
 11
11.77440905867416
 21
9.626492177518116
 31
0.0
 11
11.77017727296004
 21
9.626417328674335
 31
0.0
  0
SPLINE
  5
125
330
2
100
AcDbEntity
  8
GAIKEI
  6
Continuous
100
AcDbSpline
210
0.0
220
0.0
230
1.0
 70
    24
 71
     3
 72
     9
 73
     5
 74
     3
 42
0.0000000001
 43
0.0000000001
 44
0.00000001
 40
0.0
 40
0.0
 40
0.0
 40
0.0
 40
0.0552775767705312
 40
0.1105551535410623
 40
0.1105551535410623
 40
0.1105551535410623
 40
0.1105551535410623
 10
9.506972451215006
 20
34.38823069939181
 30
0.0
 10
9.488553031701741
 20
34.38774360405842
 30
0.0
 10
9.45171419267524
 20
34.38676941339162
 30
0.0
 10
9.414875353648739
 20
34.38579522272482
 30
0.0
 10
9.396455934135474
 20
34.38530812739143
 30
0.0
 11
9.506972451215006
 21
34.38823069939181
 31
0.0
 11
9.45171419267524
 21
34.38676941339165
 31
0.0
 11
9.396455934135474
 21
34.38530812739143
 31
0.0
  0
SPLINE
  5
126
330
2
100
AcDbEntity
  8
GAIKEI
  6
Continuous
100
AcDbSpline
210
0.0
220
0.0
230
1.0
 70
     8
 71
     3
 72
    12
 73
     8
 74
     6
 42
0.0000000001
 43
0.0000000001
 44
0.00000001
 40
0.0
 40
0.0
 40
0.0
 40
0.0
 40
0.1035428588034195
 40
0.1036381684377077
 40
0.1647321270186336
 40
0.2441852681775943
 40
0.2993580745873501
 40
0.2993580745873501
 40
0.2993580745873501
 40
0.2993580745873501
 10
9.506972451215006
 20
34.38823069939181
 30
0.0
 10
9.437997771794286
 20
34.3864874555095
 30
0.0
 10
9.368959602234639
 20
34.38474260683762
 30
0.0
 10
9.423907834146504
 20
34.38593885858981
 30
0.0
 10
9.470738372993395
 20
34.38733042913003
 30
0.0
 10
9.535970764269535
 20
34.38898661648798
 30
0.0
 10
9.580828658371146
 20
34.39018346868531
 30
0.0
 10
9.59921245400568
 20
34.39067396623068
 30
0.0
 11
9.506972451215006
 21
34.38823069939181
 31
0.0
 11
9.403465759676294
 21
34.38549382403511
 31
0.0
 11
9.40356104672827
 21
34.38549589867168
 31
0.0
 11
9.464633679828637
 21
34.38711073767047
 31
0.0
 11
9.544059026435206
 21
34.38921215540049
 31
0.0
 11
9.59921245400568
 21
34.39067396623068
 31
0.0
  0
SPLINE
  5
127
330
2
100
AcDbEntity
  8
GAIKEI
  6
Continuous
 62
     1
100
AcDbSpline
210
0.0
220
0.0
230
1.0
 70
     8
 71
     3
 72
    25
 73
    21
 74
    19
 42
0.0000000001
 43
0.0000000001
 44
0.00000001
 40
0.0
 40
0.0
 40
0.0
 40
0.0
 40
0.1447298658453962
 40
0.2597410073545789
 40
0.3527113045431723
 40
0.431318627044352
 40
0.5032408443772348
 40
0.5761558265992503
 40
0.6577414447196866
 40
0.7556755703454803
 40
0.8776360750771326
 40
0.9291042318485311
 40
0.9707422351143819
 40
0.9881920069141754
 40
1.002137531718533
 40
1.038021673346371
 40
1.085348187207396
 40
1.133620828714817
 40
1.172343353293823
 40
1.191019506456137
 40
1.191019506456137
 40
1.191019506456137
 40
1.191019506456137
 10
10.38429439997219
 20
34.41173900853588
 30
0.0
 10
10.33606851799287
 20
34.41044437868831
 30
0.0
 10
10.24951942121369
 20
34.40812095734066
 30
0.0
 10
10.1319912045825
 20
34.40495754335058
 30
0.0
 10
10.03649729737122
 20
34.40238266378668
 30
0.0
 10
9.955357354215493
 20
34.40019314461418
 30
0.0
 10
9.880912373297647
 20
34.39818735102617
 30
0.0
 10
9.805428528255504
 20
34.39616175529849
 30
0.0
 10
9.721477823435392
 20
34.39392039539252
 30
0.0
 10
9.620205999996954
 20
34.39122902418132
 30
0.0
 10
9.532871907865683
 20
34.38891553209245
 30
0.0
 10
9.455602152183146
 20
34.38687177379657
 30
0.0
 10
9.429298024822159
 20
34.38617615745457
 30
0.0
 10
9.387918336401099
 20
34.38508242058308
 30
0.0
 10
9.422796510675397
 20
34.38600461157455
 30
0.0
 10
9.447603001201869
 20
34.38666053194922
 30
0.0
 10
9.494655907093175
 20
34.38790475719955
 30
0.0
 10
9.538486920858048
 20
34.38906464908581
 30
0.0
 10
9.573878945229594
 20
34.39000053593389
 30
0.0
 10
9.59299315014006
 20
34.39050864102214
 30
0.0
 10
9.59921245400568
 20
34.39067396623068
 30
0.0
 11
10.38429439997219
 21
34.41173900853588
 31
0.0
 11
10.23961671777385
 21
34.40785320787856
 31
0.0
 11
10.12464721009735
 21
34.4047588620889
 31
0.0
 11
10.03171068296945
 21
34.40225325143683
 31
0.0
 11
9.95313194241703
 21
34.40013365619206
 31
0.0
 11
9.881235794466931
 21
34.39819735662437
 31
0.0
 11
9.808347045146092
 21
34.39624163300351
 31
0.0
 11
9.726790500481286
 21
34.39406376559936
 31
0.0
 11
9.628890966499454
 21
34.39146103468164
 31
0.0
 11
9.506973249227428
 21
34.38823072052017
 31
0.0
 11
9.455523070629112
 21
34.38686971266924
 31
0.0
 11
9.413899614313208
 21
34.38576916722008
 31
0.0
 11
9.396455934135531
 21
34.38530812739137
 31
0.0
 11
9.410396586063939
 21
34.38567675441161
 31
0.0
 11
9.446268190195155
 21
34.38662524659384
 31
0.0
 11
9.493578162792005
 21
34.38787640890249
 31
0.0
 11
9.541833920117483
 21
34.38915304630191
 31
0.0
 11
9.580542878434414
 21
34.39017796375651
 31
0.0
 11
9.59921245400568
 21
34.39067396623068
 31
0.0
  0
SPLINE
  5
128
330
2
100
AcDbEntity
  8
GAIKEI
  6
Continuous
 62
     1
100
AcDbSpline
210
0.0
220
0.0
230
1.0
 70
    24
 71
     3
 72
     9
 73
     5
 74
     3
 42
0.0000000001
 43
0.0000000001
 44
0.00000001
 40
0.0
 40
0.0
 40
0.0
 40
0.0
 40
0.2115641430773566
 40
0.4231282861547684
 40
0.4231282861547684
 40
0.4231282861547684
 40
0.4231282861547684
 10
10.38429439997213
 20
9.537734534380206
 30
0.0
 10
10.31379861372798
 20
9.539634351108645
 30
0.0
 10
10.17280704123963
 20
9.543433984565496
 30
0.0
 10
10.03181546875129
 20
9.547233618022232
 30
0.0
 10
9.961319682507109
 20
9.549133434750615
 30
0.0
 11
10.38429439997213
 21
9.537734534380206
 31
0.0
 11
10.17280704123965
 21
9.543433984565439
 31
0.0
 11
9.961319682507109
 21
9.549133434750615
 31
0.0
  0
SPLINE
  5
129
330
2
100
AcDbEntity
  8
GAIKEI
  6
Continuous
 62
     1
100
AcDbSpline
210
0.0
220
0.0
230
1.0
 70
     8
 71
     3
 72
     9
 73
     5
 74
     3
 42
0.0000000001
 43
0.0000000001
 44
0.00000001
 40
0.0
 40
0.0
 40
0.0
 40
0.0
 40
0.1811181102891326
 40
0.3622362212041469
 40
0.3622362212041469
 40
0.3622362212041469
 40
0.3622362212041469
 10
9.961319682507109
 20
9.549133434750615
 30
0.0
 10
9.900968656927503
 20
9.55075116647103
 30
0.0
 10
9.780266605025332
 20
9.553986609924692
 30
0.0
 10
9.6595638379261
 20
9.55719526109425
 30
0.0
 10
9.599212454005737
 20
9.55879957668543
 30
0.0
 11
9.961319682507109
 21
9.549133434750615
 31
0.0
 11
9.780266426701473
 21
9.553979921844529
 31
0.0
 11
9.599212454005737
 21
9.55879957668543
 31
0.0
  0
SPLINE
  5
12A
330
2
100
AcDbEntity
  8
GAIKEI
  6
Continuous
 62
     1
100
AcDbSpline
210
0.0
220
0.0
230
1.0
 70
    24
 71
     3
 72
     9
 73
     5
 74
     3
 42
0.0000000001
 43
0.0000000001
 44
0.00000001
 40
0.0
 40
0.0
 40
0.0
 40
0.0
 40
0.0461361779724901
 40
0.0922723559450086
 40
0.0922723559450086
 40
0.0922723559450086
 40
0.0922723559450086
 10
9.599212454005737
 20
9.55879957668543
 30
0.0
 10
9.583839120190788
 20
9.55920678733733
 30
0.0
 10
9.553092452560889
 20
9.560021208641188
 30
0.0
 10
9.522345784930948
 20
9.560835629944932
 30
0.0
 10
9.506972451115984
 20
9.561242840596833
 30
0.0
 11
9.599212454005737
 21
9.55879957668543
 31
0.0
 11
9.553092452560861
 21
9.560021208641131
 31
0.0
 11
9.506972451115984
 21
9.561242840596833
 31
0.0
  0
SPLINE
  5
12B
330
2
100
AcDbEntity
  8
GAIKEI
  6
Continuous
 62
     1
100
AcDbSpline
210
0.0
220
0.0
230
1.0
 70
    24
 71
     3
 72
     9
 73
     5
 74
     3
 42
0.0000000001
 43
0.0000000001
 44
0.00000001
 40
0.0
 40
0.0
 40
0.0
 40
0.0
 40
0.0552775767543129
 40
0.1105551535193501
 40
0.1105551535193501
 40
0.1105551535193501
 40
0.1105551535193501
 10
9.506972451115984
 20
9.561242840596833
 30
0.0
 10
9.488553031620966
 20
9.561729936415474
 30
0.0
 10
9.451714192627477
 20
9.562704128055599
 30
0.0
 10
9.414875353634045
 20
9.563678319700755
 30
0.0
 10
9.396455934135587
 20
9.564165415524655
 30
0.0
 11
9.506972451115984
 21
9.561242840596833
 31
0.0
 11
9.451714192631015
 21
9.562704128055429
 31
0.0
 11
9.396455934135587
 21
9.564165415524655
 31
0.0
  0
SPLINE
  5
12C
330
2
100
AcDbEntity
  8
GAIKEI
  6
Continuous
 62
     1
100
AcDbSpline
210
0.0
220
0.0
230
1.0
 70
    24
 71
     3
 72
     9
 73
     5
 74
     3
 42
0.0000000001
 43
0.0000000001
 44
0.00000001
 40
0.0
 40
0.0
 40
0.0
 40
0.0
 40
0.1489043050262855
 40
0.2978086100525129
 40
0.2978086100525129
 40
0.2978086100525129
 40
0.2978086100525129
 10
11.50031788636244
 20
9.483845860188637
 30
0.0
 10
11.45074434022439
 20
9.486310358448378
 30
0.0
 10
11.35159724794832
 20
9.491239354967831
 30
0.0
 10
11.25245015567222
 20
9.496168351487227
 30
0.0
 10
11.2028766095342
 20
9.49863284974694
 30
0.0
 11
11.50031788636244
 21
9.483845860188637
 31
0.0
 11
11.35159724794829
 21
9.491239354967831
 31
0.0
 11
11.2028766095342
 21
9.49863284974694
 31
0.0
  0
SPLINE
  5
12D
330
2
100
AcDbEntity
  8
GAIKEI
  6
Continuous
 62
     1
100
AcDbSpline
210
0.0
220
0.0
230
1.0
 70
    24
 71
     3
 72
     9
 73
     5
 74
     3
 42
0.0000000001
 43
0.0000000001
 44
0.00000001
 40
0.0
 40
0.0
 40
0.0
 40
0.0
 40
0.0499417527835169
 40
0.0998835055669743
 40
0.0998835055669743
 40
0.0998835055669743
 40
0.0998835055669743
 10
11.2028766095342
 20
9.49863284974694
 30
0.0
 10
11.18624937603687
 20
9.499448980667608
 30
0.0
 10
11.15299490904223
 20
9.501081242508917
 30
0.0
 10
11.11974044204757
 20
9.502713504350197
 30
0.0
 10
11.10311320855027
 20
9.503529635270837
 30
0.0
 11
11.2028766095342
 21
9.49863284974694
 31
0.0
 11
11.1529949090422
 21
9.501081242508917
 31
0.0
 11
11.10311320855027
 21
9.503529635270837
 31
0.0
  0
SPLINE
  5
12E
330
2
100
AcDbEntity
  8
GAIKEI
  6
Continuous
 62
     1
100
AcDbSpline
210
0.0
220
0.0
230
1.0
 70
     8
 71
     3
 72
     9
 73
     5
 74
     3
 42
0.0000000001
 43
0.0000000001
 44
0.00000001
 40
0.0
 40
0.0
 40
0.0
 40
0.0
 40
0.3598161826870036
 40
0.7196323470366551
 40
0.7196323470366551
 40
0.7196323470366551
 40
0.7196323470366551
 10
11.10311320855027
 20
9.503529635270837
 30
0.0
 10
10.98331613250113
 20
9.509357840416583
 30
0.0
 10
10.74372198555038
 20
9.521014230434047
 30
0.0
 10
10.50410359344411
 20
9.532161106485403
 30
0.0
 10
10.38429439997213
 20
9.537734534380206
 30
0.0
 11
11.10311320855027
 21
9.503529635270837
 31
0.0
 11
10.74371591863126
 21
9.520886862221743
 31
0.0
 11
10.38429439997213
 21
9.537734534380206
 31
0.0
  0
SPLINE
  5
12F
330
2
100
AcDbEntity
  8
GAIKEI
  6
Continuous
 62
     1
100
AcDbSpline
210
0.0
220
0.0
230
1.0
 70
     8
 71
     3
 72
     9
 73
     5
 74
     3
 42
0.0000000001
 43
0.0000000001
 44
0.00000001
 40
0.0
 40
0.0
 40
0.0
 40
0.0
 40
0.0511653670755428
 40
0.1040998945296302
 40
0.1040998945296302
 40
0.1040998945296302
 40
0.1040998945296302
 10
11.50031788636244
 20
34.46562768272741
 30
0.0
 10
11.49197278762003
 20
34.45032474215734
 30
0.0
 10
11.4749940575421
 20
34.41918972056362
 30
0.0
 10
11.47739237791077
 20
34.38377580188407
 30
0.0
 10
11.47861192739213
 20
34.36576791450193
 30
0.0
 11
11.50031788636244
 21
34.46562768272741
 31
0.0
 11
11.47996360534802
 21
34.41868518356697
 31
0.0
 11
11.47861192739213
 21
34.36576791450193
 31
0.0
  0
SPLINE
  5
130
330
2
100
AcDbEntity
  8
GAIKEI
  6
Continuous
 62
     1
100
AcDbSpline
210
0.0
220
0.0
230
1.0
 70
     8
 71
     3
 72
     9
 73
     5
 74
     3
 42
0.0000000001
 43
0.0000000001
 44
0.00000001
 40
0.0
 40
0.0
 40
0.0
 40
0.0
 40
0.0724492803546139
 40
0.1451877960119079
 40
0.1451877960119079
 40
0.1451877960119079
 40
0.1451877960119079
 10
10.38429439997219
 20
34.41173900853588
 30
0.0
 10
10.35931458175056
 20
34.40412361429833
 30
0.0
 10
10.30925523020784
 20
34.38886240911927
 30
0.0
 10
10.2987554287572
 20
34.33757402501417
 30
0.0
 10
10.29349507701522
 20
34.31187874141818
 30
0.0
 11
10.38429439997219
 21
34.41173900853588
 31
0.0
 11
10.31920547092733
 21
34.37992187362886
 31
0.0
 11
10.29349507701522
 21
34.31187874141818
 31
0.0
  0
SPLINE
  5
131
330
2
100
AcDbEntity
  8
GAIKEI
  6
Continuous
 62
     1
100
AcDbSpline
210
0.0
220
0.0
230
1.0
 70
     8
 71
     3
 72
     9
 73
     5
 74
     3
 42
0.0000000001
 43
0.0000000001
 44
0.00000001
 40
0.0
 40
0.0
 40
0.0
 40
0.0
 40
0.0724492796971207
 40
0.1451877958750058
 40
0.1451877958750058
 40
0.1451877958750058
 40
0.1451877958750058
 10
10.38429439997213
 20
9.537734534380206
 30
0.0
 10
10.35931458202424
 20
9.545349928562103
 30
0.0
 10
10.30925523062294
 20
9.560611133753582
 30
0.0
 10
10.29875542892415
 20
9.611899517748838
 30
0.0
 10
10.29349507701522
 20
9.637594801497868
 30
0.0
 11
10.38429439997213
 21
9.537734534380206
 31
0.0
 11
10.31920547149121
 21
9.569551668943745
 31
0.0
 11
10.29349507701522
 21
9.637594801497868
 31
0.0
  0
SPLINE
  5
132
330
2
100
AcDbEntity
  8
GAIKEI
  6
Continuous
 62
     1
100
AcDbSpline
210
0.0
220
0.0
230
1.0
 70
     8
 71
     3
 72
     9
 73
     5
 74
     3
 42
0.0000000001
 43
0.0000000001
 44
0.00000001
 40
0.0
 40
0.0
 40
0.0
 40
0.0
 40
0.0511653637788406
 40
0.1040998810844181
 40
0.1040998810844181
 40
0.1040998810844181
 40
0.1040998810844181
 10
11.50031788636244
 20
9.483845860188637
 30
0.0
 10
11.49197280401591
 20
9.499148805610133
 30
0.0
 10
11.47499410839566
 20
9.530283835059123
 30
0.0
 10
11.47739239572232
 20
9.56569774602471
 30
0.0
 10
11.47861192832556
 20
9.58370562835762
 30
0.0
 11
11.50031788636244
 21
9.483845860188637
 31
0.0
 11
11.47996363883544
 21
9.530788370275956
 31
0.0
 11
11.47861192832556
 21
9.58370562835762
 31
0.0
  0
SPLINE
  5
133
330
2
100
AcDbEntity
  8
GAIKEI
  6
Continuous
100
AcDbSpline
210
0.0
220
0.0
230
1.0
 70
     8
 71
     3
 72
     9
 73
     5
 74
     3
 42
0.0000000001
 43
0.0000000001
 44
0.00000001
 40
0.0
 40
0.0
 40
0.0
 40
0.0
 40
2.721412639736365
 40
5.442825271813548
 40
5.442825271813548
 40
5.442825271813548
 40
5.442825271813548
 10
17.21124841209394
 20
34.18141364072267
 30
0.0
 10
16.30544273508745
 20
34.23055261952553
 30
0.0
 10
14.49383138254413
 20
34.32883055702212
 30
0.0
 10
12.68216567700524
 20
34.4261014007356
 30
0.0
 10
11.77633282497248
 20
34.47473681253837
 30
0.0
 11
17.21124841209394
 21
34.18141364072267
 31
0.0
 11
14.4938177922848
 21
34.32857879369939
 31
0.0
 11
11.77633282497248
 21
34.47473681253837
 31
0.0
  0
SPLINE
  5
134
330
2
100
AcDbEntity
  8
GAIKEI
  6
Continuous
100
AcDbSpline
210
0.0
220
0.0
230
1.0
 70
     8
 71
     3
 72
    11
 73
     7
 74
     5
 42
0.0000000001
 43
0.0000000001
 44
0.00000001
 40
0.0
 40
0.0
 40
0.0
 40
0.0
 40
1.964385234152525
 40
3.92877047043444
 40
6.068338715395892
 40
8.207906961556428
 40
8.207906961556428
 40
8.207906961556428
 40
8.207906961556428
 10
25.40692310522223
 20
33.73347198831982
 30
0.0
 10
24.75309706730616
 20
33.76908262413895
 30
0.0
 10
23.44544499196977
 20
33.84030391786246
 30
0.0
 10
21.42570623075385
 20
33.95117606186861
 30
0.0
 10
19.34765369310666
 20
34.0651172521024
 30
0.0
 10
17.92338350611203
 20
34.1426481817758
 30
0.0
 10
17.21124841209394
 20
34.18141364072267
 30
0.0
 11
25.40692310522223
 21
33.73347198831982
 31
0.0
 11
23.44545264299023
 21
33.84044382551051
 31
0.0
 11
21.48401169662941
 21
33.94795554798179
 31
0.0
 11
19.34764602955198
 21
34.06497696220117
 31
0.0
 11
17.21124841209394
 21
34.18141364072267
 31
0.0
  0
SPLINE
  5
135
330
2
100
AcDbEntity
  8
GAIKEI
  6
Continuous
100
AcDbSpline
210
0.0
220
0.0
230
1.0
 70
     8
 71
     3
 72
     9
 73
     5
 74
     3
 42
0.0000000001
 43
0.0000000001
 44
0.00000001
 40
0.0
 40
0.0
 40
0.0
 40
0.0
 40
2.721412632077213
 40
5.44282527181348
 40
5.44282527181348
 40
5.44282527181348
 40
5.44282527181348
 10
11.77633282495839
 20
9.474736730363645
 30
0.0
 10
12.68216567699082
 20
9.523372142172547
 30
0.0
 10
14.49383138252904
 20
9.6206429858982
 30
0.0
 10
16.30544273507299
 20
9.718920923382512
 30
0.0
 10
17.21124841207978
 20
9.768059902179231
 30
0.0
 11
11.77633282495839
 21
9.474736730363645
 31
0.0
 11
14.49381779227008
 21
9.620894749214812
 31
0.0
 11
17.21124841207978
 21
9.768059902179231
 31
0.0
  0
SPLINE
  5
136
330
2
100
AcDbEntity
  8
GAIKEI
  6
Continuous
100
AcDbSpline
210
0.0
220
0.0
230
1.0
 70
     8
 71
     3
 72
    11
 73
     7
 74
     5
 42
0.0000000001
 43
0.0000000001
 44
0.00000001
 40
0.0
 40
0.0
 40
0.0
 40
0.0
 40
2.139568246104097
 40
4.279136491009097
 40
6.243521727361533
 40
8.207906961584697
 40
8.207906961584697
 40
8.207906961584697
 40
8.207906961584697
 10
17.21124841207978
 20
9.768059902179231
 30
0.0
 10
17.92338350607882
 20
9.80682536112954
 30
0.0
 10
19.34765369303541
 20
9.884356290809904
 30
0.0
 10
21.42570623066923
 20
9.998297481029851
 30
0.0
 10
23.44544499191217
 20
10.1091696250588
 30
0.0
 10
24.75309706729637
 20
10.18039091876937
 30
0.0
 10
25.40692310523639
 20
10.21600155458213
 30
0.0
 11
17.21124841207978
 21
9.768059902179231
 31
0.0
 11
19.34764602948098
 21
9.884496580706638
 31
0.0
 11
21.48401169650219
 21
10.00151799492022
 31
0.0
 11
23.44545264293299
 21
10.10902971740341
 31
0.0
 11
25.40692310523639
 21
10.21600155458213
 31
0.0
  0
SPLINE
  5
137
330
2
100
AcDbEntity
  8
GAIKEI
  6
Continuous
100
AcDbSpline
210
0.0
220
0.0
230
1.0
 70
     8
 71
     3
 72
     9
 73
     5
 74
     3
 42
0.0000000001
 43
0.0000000001
 44
0.00000001
 40
0.0
 40
0.0
 40
0.0
 40
0.0
 40
0.0429739061396383
 40
0.1012724415260278
 40
0.1012724415260278
 40
0.1012724415260278
 40
0.1012724415260278
 10
11.77633282532605
 20
9.474736730391839
 30
0.0
 10
11.76200818994896
 20
9.47473635101636
 30
0.0
 10
11.72825070944661
 20
9.474735477447751
 30
0.0
 10
11.69449322894144
 20
9.474736325578419
 30
0.0
 10
11.67506038381471
 20
9.47473682559675
 30
0.0
 11
11.77633282532605
 21
9.474736730391839
 31
0.0
 11
11.73335891919407
 21
9.474735909653048
 31
0.0
 11
11.67506038381471
 21
9.47473682559675
 31
0.0
  0
SPLINE
  5
138
330
2
100
AcDbEntity
  8
GAIKEI
  6
Continuous
100
AcDbSpline
210
0.0
220
0.0
230
1.0
 70
    24
 71
     3
 72
     9
 73
     5
 74
     3
 42
0.0000000001
 43
0.0000000001
 44
0.00000001
 40
0.0
 40
0.0
 40
0.0
 40
0.0
 40
0.0051327246061213
 40
0.0102654492122994
 40
0.0102654492122994
 40
0.0102654492122994
 40
0.0102654492122994
 10
25.50168952677677
 20
10.31586418025455
 30
0.0
 10
25.50159901413184
 20
10.31415566793765
 30
0.0
 10
25.50141798884201
 20
10.31073864330392
 30
0.0
 10
25.50123696355216
 20
10.30732161867013
 30
0.0
 10
25.50114645090725
 20
10.30561310635323
 30
0.0
 11
25.50168952677677
 21
10.31586418025455
 31
0.0
 11
25.50141798884198
 21
10.31073864330392
 31
0.0
 11
25.50114645090725
 21
10.30561310635323
 31
0.0
  0
SPLINE
  5
139
330
2
100
AcDbEntity
  8
GAIKEI
  6
Continuous
100
AcDbSpline
210
0.0
220
0.0
230
1.0
 70
     8
 71
     3
 72
     9
 73
     5
 74
     3
 42
0.0000000001
 43
0.0000000001
 44
0.00000001
 40
0.0
 40
0.0
 40
0.0
 40
0.0
 40
0.0448303517279415
 40
0.0901700961244418
 40
0.0901700961244418
 40
0.0901700961244418
 40
0.0901700961244418
 10
25.50114645090725
 20
10.30561310635323
 30
0.0
 10
25.49774729693954
 20
10.29058478946677
 30
0.0
 10
25.49091034822819
 20
10.26035740196306
 30
0.0
 10
25.46680314595294
 20
10.24086227009806
 30
0.0
 10
25.45468144357858
 20
10.23105964377504
 30
0.0
 11
25.50114645090725
 21
10.30561310635323
 31
0.0
 11
25.48668006103469
 21
10.26318099348702
 31
0.0
 11
25.45468144357858
 21
10.23105964377504
 31
0.0
  0
SPLINE
  5
13A
330
2
100
AcDbEntity
  8
GAIKEI
  6
Continuous
100
AcDbSpline
210
0.0
220
0.0
230
1.0
 70
    24
 71
     3
 72
     9
 73
     5
 74
     3
 42
0.0000000001
 43
0.0000000001
 44
0.00000001
 40
0.0
 40
0.0
 40
0.0
 40
0.0
 40
0.0250379957831479
 40
0.0500759915663059
 40
0.0500759915663059
 40
0.0500759915663059
 40
0.0500759915663059
 10
25.45468144357858
 20
10.23105964377504
 30
0.0
 10
25.44672172052155
 20
10.22854996224288
 30
0.0
 10
25.43080227440753
 20
10.22353059917858
 30
0.0
 10
25.41488282829345
 20
10.21851123611429
 30
0.0
 10
25.40692310523639
 20
10.21600155458213
 30
0.0
 11
25.45468144357858
 21
10.23105964377504
 31
0.0
 11
25.43080227440749
 21
10.22353059917856
 31
0.0
 11
25.40692310523639
 21
10.21600155458213
 31
0.0
  0
SPLINE
  5
13B
330
2
100
AcDbEntity
  8
GAIKEI
  6
Continuous
100
AcDbSpline
210
0.0
220
0.0
230
1.0
 70
    24
 71
     3
 72
     9
 73
     5
 74
     3
 42
0.0000000001
 43
0.0000000001
 44
0.00000001
 40
0.0
 40
0.0
 40
0.0
 40
0.0
 40
0.0051327278945387
 40
0.0102654557889938
 40
0.0102654557889938
 40
0.0102654557889938
 40
0.0102654557889938
 10
25.50168952677677
 20
33.63360936266162
 30
0.0
 10
25.50159901401165
 20
33.63531787606985
 30
0.0
 10
25.50141798848142
 20
33.63873490288609
 30
0.0
 10
25.50123696295115
 20
33.64215192970252
 30
0.0
 10
25.50114645018601
 20
33.64386044311064
 30
0.0
 11
25.50168952677677
 21
33.63360936266162
 31
0.0
 11
25.50141798848136
 21
33.63873490288611
 31
0.0
 11
25.50114645018601
 21
33.64386044311064
 31
0.0
  0
SPLINE
  5
13C
330
2
100
AcDbEntity
  8
GAIKEI
  6
Continuous
100
AcDbSpline
210
0.0
220
0.0
230
1.0
 70
     8
 71
     3
 72
     9
 73
     5
 74
     3
 42
0.0000000001
 43
0.0000000001
 44
0.00000001
 40
0.0
 40
0.0
 40
0.0
 40
0.0
 40
0.0448303652788416
 40
0.0901701221244515
 40
0.0901701221244515
 40
0.0901701221244515
 40
0.0901701221244515
 10
25.50114645018601
 20
33.64386044311064
 30
0.0
 10
25.49774729355659
 20
33.65888876445277
 30
0.0
 10
25.49091033958675
 20
33.68911616049749
 30
0.0
 10
25.46680312417692
 20
33.70861129118194
 30
0.0
 10
25.45468141536503
 20
33.71841391677631
 30
0.0
 11
25.50114645018601
 21
33.64386044311064
 31
0.0
 11
25.48668005026252
 21
33.68629256686697
 31
0.0
 11
25.45468141536503
 21
33.71841391677631
 31
0.0
  0
SPLINE
  5
13D
330
2
100
AcDbEntity
  8
GAIKEI
  6
Continuous
100
AcDbSpline
210
0.0
220
0.0
230
1.0
 70
    24
 71
     3
 72
     9
 73
     5
 74
     3
 42
0.0000000001
 43
0.0000000001
 44
0.00000001
 40
0.0
 40
0.0
 40
0.0
 40
0.0
 40
0.025037979682427
 40
0.0500759593647984
 40
0.0500759593647984
 40
0.0500759593647984
 40
0.0500759593647984
 10
25.45468141536503
 20
33.71841391677631
 30
0.0
 10
25.44672169700787
 20
33.72092359536686
 30
0.0
 10
25.43080226029359
 20
33.72594295254803
 30
0.0
 10
25.41488282357935
 20
33.73096230972922
 30
0.0
 10
25.40692310522223
 20
33.73347198831982
 30
0.0
 11
25.45468141536503
 21
33.71841391677631
 31
0.0
 11
25.4308022602936
 21
33.72594295254803
 31
0.0
 11
25.40692310522223
 21
33.73347198831982
 31
0.0
  0
SPLINE
  5
13E
330
2
100
AcDbEntity
  8
GAIKEI
  6
Continuous
100
AcDbSpline
210
0.0
220
0.0
230
1.0
 70
     8
 71
     3
 72
     9
 73
     5
 74
     3
 42
0.0000000001
 43
0.0000000001
 44
0.00000001
 40
0.0
 40
0.0
 40
0.0
 40
0.0
 40
0.0429739061396952
 40
0.1012724415119877
 40
0.1012724415119877
 40
0.1012724415119877
 40
0.1012724415119877
 10
11.77633282532611
 20
34.47473681252422
 30
0.0
 10
11.762008189949
 20
34.47473719190046
 30
0.0
 10
11.72825070945133
 20
34.47473806547098
 30
0.0
 10
11.69449322895083
 20
34.47473721732959
 30
0.0
 10
11.67506038382881
 20
34.4747367173052
 30
0.0
 11
11.77633282532611
 21
34.47473681252422
 31
0.0
 11
11.73335891919407
 21
34.47473763326309
 31
0.0
 11
11.67506038382881
 21
34.4747367173052
 31
0.0
  0
SPLINE
  5
13F
330
2
100
AcDbEntity
  8
GAIKEI
  6
Continuous
 62
     1
100
AcDbSpline
210
0.0
220
0.0
230
1.0
 70
     8
 71
     3
 72
    11
 73
     7
 74
     5
 42
0.0000000001
 43
0.0000000001
 44
0.00000001
 40
0.0
 40
0.0
 40
0.0
 40
0.0
 40
0.0354803485464995
 40
0.0708954585421109
 40
0.0871034057493961
 40
0.1028454244053695
 40
0.1028454244053695
 40
0.1028454244053695
 40
0.1028454244053695
 10
11.79157184203006
 20
34.37454678867641
 30
0.0
 10
11.79152031955739
 20
34.38641215289661
 30
0.0
 10
11.79141737563188
 20
34.41012106298194
 30
0.0
 10
11.78741455203996
 20
34.43862076144092
 30
0.0
 10
11.78591564740824
 20
34.46163027973529
 30
0.0
 10
11.77949589890897
 20
34.47041065259259
 30
0.0
 10
11.77633282532611
 20
34.47473681252422
 30
0.0
 11
11.79157184203006
 21
34.37454678867641
 31
0.0
 11
11.79062705810412
 21
34.41001455183116
 31
0.0
 11
11.78710780048209
 21
34.4452543710957
 31
0.0
 11
11.78443614850431
 21
34.46124061328709
 31
0.0
 11
11.77633282532611
 21
34.47473681252422
 31
0.0
  0
SPLINE
  5
140
330
2
100
AcDbEntity
  8
GAIKEI
  6
Continuous
 62
     1
100
AcDbSpline
210
0.0
220
0.0
230
1.0
 70
     8
 71
     3
 72
    11
 73
     7
 74
     5
 42
0.0000000001
 43
0.0000000001
 44
0.00000001
 40
0.0
 40
0.0
 40
0.0
 40
0.0
 40
0.0157420186559832
 40
0.0319499658633338
 40
0.067365075857011
 40
0.1028454243908484
 40
0.1028454243908484
 40
0.1028454243908484
 40
0.1028454243908484
 10
11.77633282532605
 20
9.474736730391839
 30
0.0
 10
11.77949589890895
 20
9.479062890323433
 30
0.0
 10
11.78591564740837
 20
9.48784326318065
 30
0.0
 10
11.78741455203986
 20
9.510852781474454
 30
0.0
 10
11.7914173756325
 20
9.539352479928851
 30
0.0
 10
11.79152031954815
 20
9.563061390009437
 30
0.0
 10
11.79157184201591
 20
9.574926754225543
 30
0.0
 11
11.77633282532605
 21
9.474736730391839
 31
0.0
 11
11.78443614850437
 21
9.488232929628907
 31
0.0
 11
11.7871078004822
 21
9.504219171820352
 31
0.0
 11
11.79062705810241
 21
9.539458991083137
 31
0.0
 11
11.79157184201591
 21
9.574926754225543
 31
0.0
  0
CIRCLE
  5
141
330
2
100
AcDbEntity
  8
GAIKEI
  6
Continuous
 62
     1
100
AcDbCircle
 10
26.40168952677971
 20
21.77473677145423
 30
0.0
 40
0.6000000000000001
  0
CIRCLE
  5
142
330
2
100
AcDbEntity
  8
GAIKEI
  6
Continuous
 62
     1
100
AcDbCircle
 10
30.01700693739969
 20
26.72480909379428
 30
0.0
 40
0.6000000000000001
  0
ARC
  5
143
330
2
100
AcDbEntity
  8
GAIKEI
  6
Continuous
100
AcDbCircle
 10
27.4269696245197
 20
20.79473677145424
 30
0.0
 40
0.2299999999999955
100
AcDbArc
 50
270.0
 51
302.9999999954779
  0
ARC
  5
144
330
2
100
AcDbEntity
  8
GAIKEI
  6
Continuous
 62
     1
100
AcDbCircle
 10
26.4644538498797
 20
21.56473677145422
 30
0.0
 40
1.0
100
AcDbArc
 50
270.0
 51
302.9999999997843
  0
ARC
  5
145
330
2
100
AcDbEntity
  8
GAIKEI
  6
Continuous
100
AcDbCircle
 10
30.01700693739969
 20
26.72480909379428
 30
0.0
 40
0.9999999999999962
100
AcDbArc
 50
77.99999999999703
 51
167.9999999997172
  0
ARC
  5
146
330
2
100
AcDbEntity
  8
GAIKEI
  6
Continuous
100
AcDbCircle
 10
26.91083147725965
 20
26.54060553295426
 30
0.0
 40
2.00000000001305
100
AcDbArc
 50
303.0000000000955
 51
347.999999999944
  0
ARC
  5
147
330
2
100
AcDbEntity
  8
GAIKEI
  6
Continuous
 62
     1
100
AcDbCircle
 10
26.40168952677971
 20
21.77473677145423
 30
0.0
 40
0.4118802153600624
100
AcDbArc
 50
103.79474827099
 51
136.2052517289911
  0
ARC
  5
148
330
2
100
AcDbEntity
  8
GAIKEI
  6
Continuous
 62
     1
100
AcDbCircle
 10
26.40168952677971
 20
21.77473677145423
 30
0.0
 40
0.4118802153599779
100
AcDbArc
 50
343.7947482709991
 51
16.20525172900087
  0
ARC
  5
149
330
2
100
AcDbEntity
  8
GAIKEI
  6
Continuous
 62
     1
100
AcDbCircle
 10
26.40168952677971
 20
21.77473677145423
 30
0.0
 40
0.4118802153599649
100
AcDbArc
 50
223.7947482709945
 51
256.2052517290066
  0
ARC
  5
14A
330
2
100
AcDbEntity
  8
GAIKEI
  6
Continuous
 62
     1
100
AcDbCircle
 10
26.40168952677971
 20
21.77473677145423
 30
0.0
 40
0.4118802153600436
100
AcDbArc
 50
43.79474827099968
 51
76.20525172900659
  0
ARC
  5
14B
330
2
100
AcDbEntity
  8
GAIKEI
  6
Continuous
 62
     1
100
AcDbCircle
 10
26.40168952677971
 20
21.77473677145423
 30
0.0
 40
0.4118802153599587
100
AcDbArc
 50
163.7947482709991
 51
196.2052517290009
  0
ARC
  5
14C
330
2
100
AcDbEntity
  8
GAIKEI
  6
Continuous
 62
     1
100
AcDbCircle
 10
26.40168952677971
 20
21.77473677145423
 30
0.0
 40
0.4118802153600671
100
AcDbArc
 50
283.7947482709934
 51
316.2052517290003
  0
ARC
  5
14D
330
2
100
AcDbEntity
  8
GAIKEI
  6
Continuous
 62
     1
100
AcDbCircle
 10
30.01700693739969
 20
26.72480909379428
 30
0.0
 40
0.4118802153600402
100
AcDbArc
 50
103.79474827099
 51
136.2052517290009
  0
ARC
  5
14E
330
2
100
AcDbEntity
  8
GAIKEI
  6
Continuous
 62
     1
100
AcDbCircle
 10
30.01700693739969
 20
26.72480909379428
 30
0.0
 40
0.4118802153599779
100
AcDbArc
 50
343.7947482709991
 51
16.20525172900087
  0
ARC
  5
14F
330
2
100
AcDbEntity
  8
GAIKEI
  6
Continuous
 62
     1
100
AcDbCircle
 10
30.01700693739969
 20
26.72480909379428
 30
0.0
 40
0.4118802153600593
100
AcDbArc
 50
223.7947482710095
 51
256.20525172901
  0
ARC
  5
150
330
2
100
AcDbEntity
  8
GAIKEI
  6
Continuous
 62
     1
100
AcDbCircle
 10
30.01700693739969
 20
26.72480909379428
 30
0.0
 40
0.4118802153600279
100
AcDbArc
 50
43.7947482709991
 51
76.20525172900659
  0
ARC
  5
151
330
2
100
AcDbEntity
  8
GAIKEI
  6
Continuous
 62
     1
100
AcDbCircle
 10
30.01700693739969
 20
26.72480909379428
 30
0.0
 40
0.4118802153599587
100
AcDbArc
 50
163.7947482709991
 51
196.2052517290009
  0
ARC
  5
152
330
2
100
AcDbEntity
  8
GAIKEI
  6
Continuous
 62
     1
100
AcDbCircle
 10
30.01700693739969
 20
26.72480909379428
 30
0.0
 40
0.4118802153600671
100
AcDbArc
 50
283.7947482709934
 51
316.2052517289905
  0
ARC
  5
153
330
2
100
AcDbEntity
  8
GAIKEI
  6
Continuous
 62
     1
100
AcDbCircle
 10
29.35168952677969
 20
23.59473677145434
 30
0.0
 40
0.4118802153601065
100
AcDbArc
 50
223.7947482710135
 51
256.2052517290133
  0
ARC
  5
154
330
2
100
AcDbEntity
  8
GAIKEI
  6
Continuous
 62
     1
100
AcDbCircle
 10
29.35168952677969
 20
23.59473677145434
 30
0.0
 40
0.4118802153599728
100
AcDbArc
 50
43.79474827099449
 51
76.20525172900324
  0
ARC
  5
155
330
2
100
AcDbEntity
  8
GAIKEI
  6
Continuous
 62
     1
100
AcDbCircle
 10
29.35168952677969
 20
23.59473677145434
 30
0.0
 40
0.4118802153600063
100
AcDbArc
 50
343.7947482709857
 51
16.20525172900087
  0
ARC
  5
156
330
2
100
AcDbEntity
  8
GAIKEI
  6
Continuous
 62
     1
100
AcDbCircle
 10
29.35168952677969
 20
23.59473677145434
 30
0.0
 40
0.4118802153599629
100
AcDbArc
 50
103.7947482709934
 51
136.2052517290055
  0
ARC
  5
157
330
2
100
AcDbEntity
  8
GAIKEI
  6
Continuous
 62
     1
100
AcDbCircle
 10
29.35168952677969
 20
23.59473677145434
 30
0.0
 40
0.4118802153601554
100
AcDbArc
 50
283.7947482709901
 51
316.2052517289865
  0
ARC
  5
158
330
2
100
AcDbEntity
  8
GAIKEI
  6
Continuous
 62
     1
100
AcDbCircle
 10
29.35168952677969
 20
23.59473677145434
 30
0.0
 40
0.4118802153599333
100
AcDbArc
 50
163.7947482710117
 51
196.2052517290143
  0
ARC
  5
159
330
2
100
AcDbEntity
  8
GAIKEI
  6
Continuous
 62
     1
100
AcDbCircle
 10
25.20168952678517
 20
26.67473677146259
 30
0.0
 40
0.8499999999999927
100
AcDbArc
 50
290.6905794155943
 51
69.30942058439875
  0
ARC
  5
15A
330
2
100
AcDbEntity
  8
GAIKEI
  6
Continuous
 62
     1
100
AcDbCircle
 10
25.20168952678517
 20
26.67473677146259
 30
0.0
 40
0.4999999999999401
100
AcDbArc
 50
306.8971576941109
 51
53.10284230589214
  0
ARC
  5
15B
330
2
100
AcDbEntity
  8
GAIKEI
  6
Continuous
100
AcDbCircle
 10
9.481689526788727
 20
33.74473677146415
 30
0.0
 40
0.0799999999930378
100
AcDbArc
 50
90.00000001012891
 51
180.0
  0
ARC
  5
15C
330
2
100
AcDbEntity
  8
GAIKEI
  6
Continuous
100
AcDbCircle
 10
9.481689526788727
 20
10.20473677145185
 30
0.0
 40
0.0800000000071689
100
AcDbArc
 50
180.0
 51
270.0000000000065
  0
ARC
  5
15D
330
2
100
AcDbEntity
  8
GAIKEI
  6
Continuous
100
AcDbCircle
 10
9.351704543281982
 20
10.01540891270144
 30
0.0
 40
0.0499999999999069
100
AcDbArc
 50
91.50000000005809
 51
179.9999982613168
  0
ARC
  5
15E
330
2
100
AcDbEntity
  8
GAIKEI
  6
Continuous
100
AcDbCircle
 10
9.351704543282039
 20
33.93406463021467
 30
0.0
 40
0.0499999999999551
100
AcDbArc
 50
180.0000017387092
 51
268.499999999955
  0
LINE
  5
15F
330
2
100
AcDbEntity
  8
GAIKEI
  6
Continuous
100
AcDbLine
 10
25.50168952677672
 20
10.31586418025452
 30
0.0
 11
25.50168952677672
 21
33.63360936266159
 31
0.0
  0
LINE
  5
160
330
2
100
AcDbEntity
  8
GAIKEI
  6
Continuous
100
AcDbLine
 10
9.301689526779625
 20
33.93315714383908
 30
0.0
 11
9.301689526779682
 21
34.28544518574131
 31
0.0
  0
LINE
  5
161
330
2
100
AcDbEntity
  8
GAIKEI
  6
Continuous
 62
     1
100
AcDbLine
 10
26.8635697421397
 20
20.08293528315423
 30
0.0
 11
26.81356974213969
 21
20.06473677145422
 31
0.0
  0
LINE
  5
162
330
2
100
AcDbEntity
  8
GAIKEI
  6
Continuous
 62
     1
100
AcDbLine
 10
27.5437085684797
 20
20.87054792807422
 30
0.0
 11
27.4269696245197
 21
20.79473677145424
 31
0.0
  0
LINE
  5
163
330
2
100
AcDbEntity
  8
GAIKEI
  6
Continuous
 62
     1
100
AcDbLine
 10
27.4511199325197
 20
21.01312192461421
 30
0.0
 11
27.0090928848997
 21
20.72606620349424
 31
0.0
  0
LINE
  5
164
330
2
100
AcDbEntity
  8
GAIKEI
  6
Continuous
 62
     1
100
AcDbLine
 10
26.8635697421397
 20
20.40495891141424
 30
0.0
 11
27.00168952677967
 21
20.49473677145423
 31
0.0
  0
LINE
  5
165
330
2
100
AcDbEntity
  8
GAIKEI
  6
Continuous
100
AcDbLine
 10
28.0001095472997
 20
24.86326439705431
 30
0.0
 11
25.50705049177969
 21
23.24425291611422
 31
0.0
  0
LINE
  5
166
330
2
100
AcDbEntity
  8
GAIKEI
  6
Continuous
 62
     1
100
AcDbLine
 10
29.58262963445969
 20
23.19473677145433
 30
0.0
 11
29.81356974213969
 21
23.59473677145434
 31
0.0
  0
LINE
  5
167
330
2
100
AcDbEntity
  8
GAIKEI
  6
Continuous
 62
     1
100
AcDbLine
 10
29.12074941911965
 20
23.99473677145423
 30
0.0
 11
28.88980931143965
 21
23.59473677145434
 31
0.0
  0
LINE
  5
168
330
2
100
AcDbEntity
  8
GAIKEI
  6
Continuous
 62
     1
100
AcDbLine
 10
30.24794704507968
 20
26.32480909379427
 30
0.0
 11
30.47888715275969
 21
26.72480909379428
 31
0.0
  0
LINE
  5
169
330
2
100
AcDbEntity
  8
GAIKEI
  6
Continuous
 62
     1
100
AcDbLine
 10
26.63262963445971
 20
21.37473677145422
 30
0.0
 11
26.8635697421397
 21
21.77473677145423
 31
0.0
  0
LINE
  5
16A
330
2
100
AcDbEntity
  8
GAIKEI
  6
Continuous
 62
     1
100
AcDbLine
 10
29.78606682971963
 20
27.12480909379428
 30
0.0
 11
29.55512672205964
 21
26.72480909379428
 31
0.0
  0
LINE
  5
16B
330
2
100
AcDbEntity
  8
GAIKEI
  6
Continuous
 62
     1
100
AcDbLine
 10
30.6135697421397
 20
28.09293528315428
 30
0.0
 11
30.56356974213969
 21
28.0747367714543
 31
0.0
  0
LINE
  5
16C
330
2
100
AcDbEntity
  8
GAIKEI
  6
Continuous
 62
     1
100
AcDbLine
 10
30.6135697421397
 20
28.41495891141426
 30
0.0
 11
30.75168952677967
 21
28.50473677145428
 31
0.0
  0
LINE
  5
16D
330
2
100
AcDbEntity
  8
GAIKEI
  6
Continuous
 62
     1
100
AcDbLine
 10
26.17074941911966
 20
22.17473677145424
 30
0.0
 11
25.93980931143966
 21
21.77473677145423
 31
0.0
  0
LINE
  5
16E
330
2
100
AcDbEntity
  8
GAIKEI
  6
Continuous
100
AcDbLine
 10
29.03885933667965
 20
26.93272078461428
 30
0.0
 11
28.86712667873968
 21
26.12478215131427
 31
0.0
  0
LINE
  5
16F
330
2
100
AcDbEntity
  8
GAIKEI
  6
Continuous
 62
     1
100
AcDbLine
 10
30.75168952677967
 20
28.57473677145424
 30
0.0
 11
30.75168952677967
 21
28.50473677145428
 31
0.0
  0
LINE
  5
170
330
2
100
AcDbEntity
  8
GAIKEI
  6
Continuous
 62
     1
100
AcDbLine
 10
30.6135697421397
 20
28.41495891141426
 30
0.0
 11
30.6135697421397
 21
28.09293528315428
 31
0.0
  0
LINE
  5
171
330
2
100
AcDbEntity
  8
GAIKEI
  6
Continuous
 62
     1
100
AcDbLine
 10
30.38262963445971
 20
28.41495891141426
 30
0.0
 11
30.38262963445971
 21
28.09293528315428
 31
0.0
  0
LINE
  5
172
330
2
100
AcDbEntity
  8
GAIKEI
  6
Continuous
 62
     1
100
AcDbLine
 10
30.21700693739968
 20
26.67480909379427
 30
0.0
 11
30.21700693739968
 21
26.77480909379426
 31
0.0
  0
LINE
  5
173
330
2
100
AcDbEntity
  8
GAIKEI
  6
Continuous
 62
     1
100
AcDbLine
 10
30.20168952677966
 20
28.07473677145427
 30
0.0
 11
30.20168952677966
 21
28.25473677145428
 31
0.0
  0
LINE
  5
174
330
2
100
AcDbEntity
  8
GAIKEI
  6
Continuous
 62
     1
100
AcDbLine
 10
30.1016895267797
 20
28.07473677145427
 30
0.0
 11
30.1016895267797
 21
28.25473677145428
 31
0.0
  0
LINE
  5
175
330
2
100
AcDbEntity
  8
GAIKEI
  6
Continuous
 62
     1
100
AcDbLine
 10
30.0670069373997
 20
26.67480909379427
 30
0.0
 11
30.0670069373997
 21
26.32480909379427
 31
0.0
  0
LINE
  5
176
330
2
100
AcDbEntity
  8
GAIKEI
  6
Continuous
 62
     1
100
AcDbLine
 10
30.0670069373997
 20
27.12480909379428
 30
0.0
 11
30.0670069373997
 21
26.77480909379426
 31
0.0
  0
LINE
  5
177
330
2
100
AcDbEntity
  8
GAIKEI
  6
Continuous
 62
     1
100
AcDbLine
 10
29.96700693739967
 20
26.67480909379427
 30
0.0
 11
29.96700693739967
 21
26.32480909379427
 31
0.0
  0
LINE
  5
178
330
2
100
AcDbEntity
  8
GAIKEI
  6
Continuous
 62
     1
100
AcDbLine
 10
29.96700693739967
 20
27.12480909379428
 30
0.0
 11
29.96700693739967
 21
26.77480909379426
 31
0.0
  0
LINE
  5
179
330
2
100
AcDbEntity
  8
GAIKEI
  6
Continuous
 62
     1
100
AcDbLine
 10
29.92074941911966
 20
28.41495891141426
 30
0.0
 11
29.92074941911966
 21
28.09293528315428
 31
0.0
  0
LINE
  5
17A
330
2
100
AcDbEntity
  8
GAIKEI
  6
Continuous
 62
     1
100
AcDbLine
 10
29.8170069373997
 20
26.77480909379429
 30
0.0
 11
29.8170069373997
 21
26.67480909379427
 31
0.0
  0
LINE
  5
17B
330
2
100
AcDbEntity
  8
GAIKEI
  6
Continuous
 62
     1
100
AcDbLine
 10
29.68980931143966
 20
28.41495891141426
 30
0.0
 11
29.68980931143966
 21
28.09293528315428
 31
0.0
  0
LINE
  5
17C
330
2
100
AcDbEntity
  8
GAIKEI
  6
Continuous
 62
     1
100
AcDbLine
 10
29.55168952677968
 20
28.57473677145427
 30
0.0
 11
29.55168952677968
 21
28.50473677145428
 31
0.0
  0
LINE
  5
17D
330
2
100
AcDbEntity
  8
GAIKEI
  6
Continuous
 62
     1
100
AcDbLine
 10
30.47888715275969
 20
26.72480909379428
 30
0.0
 11
30.24794704507968
 21
27.12480909379428
 31
0.0
  0
LINE
  5
17E
330
2
100
AcDbEntity
  8
GAIKEI
  6
Continuous
100
AcDbLine
 10
28.82842073473966
 20
28.89473677145429
 30
0.0
 11
28.82842073473966
 21
29.23622029073428
 31
0.0
  0
LINE
  5
17F
330
2
100
AcDbEntity
  8
GAIKEI
  6
Continuous
100
AcDbLine
 10
28.78635130075969
 20
28.57473677145427
 30
0.0
 11
28.78635130075969
 21
28.89473677145429
 31
0.0
  0
LINE
  5
180
330
2
100
AcDbEntity
  8
GAIKEI
  6
Continuous
 62
     1
100
AcDbLine
 10
28.56168952677967
 20
26.22480909379431
 30
0.0
 11
28.56168952677967
 21
27.22480909379428
 31
0.0
  0
LINE
  5
181
330
2
100
AcDbEntity
  8
GAIKEI
  6
Continuous
100
AcDbLine
 10
28.56168952677967
 20
28.5747367714543
 30
0.0
 11
28.56168952677967
 21
28.29473677145429
 31
0.0
  0
LINE
  5
182
330
2
100
AcDbEntity
  8
GAIKEI
  6
Continuous
 62
     1
100
AcDbLine
 10
28.44168952677967
 20
27.22480909379431
 30
0.0
 11
28.44168952677967
 21
26.22480909379428
 31
0.0
  0
LINE
  5
183
330
2
100
AcDbEntity
  8
GAIKEI
  6
Continuous
100
AcDbLine
 10
28.21168952677965
 20
28.29473677145429
 30
0.0
 11
28.21168952677965
 21
25.02561542543424
 31
0.0
  0
LINE
  5
184
330
2
100
AcDbEntity
  8
GAIKEI
  6
Continuous
100
AcDbLine
 10
27.95168952677966
 20
28.89473677145426
 30
0.0
 11
27.95168952677966
 21
29.12473677145428
 31
0.0
  0
LINE
  5
185
330
2
100
AcDbEntity
  8
GAIKEI
  6
Continuous
 62
     1
100
AcDbLine
 10
27.00168952677967
 20
20.56473677145422
 30
0.0
 11
27.00168952677967
 21
20.49473677145423
 31
0.0
  0
LINE
  5
186
330
2
100
AcDbEntity
  8
GAIKEI
  6
Continuous
 62
     1
100
AcDbLine
 10
26.8635697421397
 20
20.40495891141424
 30
0.0
 11
26.8635697421397
 21
20.08293528315423
 31
0.0
  0
LINE
  5
187
330
2
100
AcDbEntity
  8
GAIKEI
  6
Continuous
 62
     1
100
AcDbLine
 10
29.55512672205964
 20
26.72480909379428
 30
0.0
 11
29.78606682971963
 21
26.32480909379427
 31
0.0
  0
LINE
  5
188
330
2
100
AcDbEntity
  8
GAIKEI
  6
Continuous
 62
     1
100
AcDbLine
 10
29.81356974213969
 20
23.59473677145434
 30
0.0
 11
29.58262963445969
 21
23.99473677145434
 31
0.0
  0
LINE
  5
189
330
2
100
AcDbEntity
  8
GAIKEI
  6
Continuous
 62
     1
100
AcDbLine
 10
29.68980931143966
 20
28.41495891141426
 30
0.0
 11
29.55168952677968
 21
28.50473677145428
 31
0.0
  0
LINE
  5
18A
330
2
100
AcDbEntity
  8
GAIKEI
  6
Continuous
 62
     1
100
AcDbLine
 10
26.63262963445971
 20
20.40495891141424
 30
0.0
 11
26.63262963445971
 21
20.08293528315423
 31
0.0
  0
LINE
  5
18B
330
2
100
AcDbEntity
  8
GAIKEI
  6
Continuous
 62
     1
100
AcDbLine
 10
26.60168952677969
 20
21.72473677145422
 30
0.0
 11
26.60168952677969
 21
21.82473677145424
 31
0.0
  0
LINE
  5
18C
330
2
100
AcDbEntity
  8
GAIKEI
  6
Continuous
 62
     1
100
AcDbLine
 10
26.45168952677966
 20
20.06473677145422
 30
0.0
 11
26.45168952677966
 21
20.24473677145423
 31
0.0
  0
LINE
  5
18D
330
2
100
AcDbEntity
  8
GAIKEI
  6
Continuous
 62
     1
100
AcDbLine
 10
26.45168952677966
 20
21.72473677145422
 30
0.0
 11
26.45168952677966
 21
21.37473677145422
 31
0.0
  0
LINE
  5
18E
330
2
100
AcDbEntity
  8
GAIKEI
  6
Continuous
 62
     1
100
AcDbLine
 10
26.45168952677966
 20
22.17473677145424
 30
0.0
 11
26.45168952677966
 21
21.82473677145424
 31
0.0
  0
LINE
  5
18F
330
2
100
AcDbEntity
  8
GAIKEI
  6
Continuous
100
AcDbLine
 10
26.40168952677971
 20
28.89473677145429
 30
0.0
 11
26.40168952677971
 21
28.57473677145427
 31
0.0
  0
LINE
  5
190
330
2
100
AcDbEntity
  8
GAIKEI
  6
Continuous
 62
     1
100
AcDbLine
 10
26.3516895267797
 20
20.06473677145422
 30
0.0
 11
26.3516895267797
 21
20.24473677145423
 31
0.0
  0
LINE
  5
191
330
2
100
AcDbEntity
  8
GAIKEI
  6
Continuous
 62
     1
100
AcDbLine
 10
26.3516895267797
 20
21.72473677145422
 30
0.0
 11
26.3516895267797
 21
21.37473677145422
 31
0.0
  0
LINE
  5
192
330
2
100
AcDbEntity
  8
GAIKEI
  6
Continuous
 62
     1
100
AcDbLine
 10
26.3516895267797
 20
22.17473677145424
 30
0.0
 11
26.3516895267797
 21
21.82473677145424
 31
0.0
  0
LINE
  5
193
330
2
100
AcDbEntity
  8
GAIKEI
  6
Continuous
 62
     1
100
AcDbLine
 10
26.20168952677966
 20
21.82473677145424
 30
0.0
 11
26.20168952677966
 21
21.72473677145422
 31
0.0
  0
LINE
  5
194
330
2
100
AcDbEntity
  8
GAIKEI
  6
Continuous
 62
     1
100
AcDbLine
 10
26.17074941911966
 20
20.40495891141424
 30
0.0
 11
26.17074941911966
 21
20.08293528315423
 31
0.0
  0
LINE
  5
195
330
2
100
AcDbEntity
  8
GAIKEI
  6
Continuous
 62
     1
100
AcDbLine
 10
25.93980931143966
 20
20.40495891141424
 30
0.0
 11
25.93980931143966
 21
20.08293528315423
 31
0.0
  0
LINE
  5
196
330
2
100
AcDbEntity
  8
GAIKEI
  6
Continuous
 62
     1
100
AcDbLine
 10
25.80168952677968
 20
20.56473677145422
 30
0.0
 11
25.80168952677968
 21
20.49473677145423
 31
0.0
  0
LINE
  5
197
330
2
100
AcDbEntity
  8
GAIKEI
  6
Continuous
 62
     1
100
AcDbLine
 10
28.88980931143965
 20
23.59473677145434
 30
0.0
 11
29.12074941911965
 21
23.19473677145433
 31
0.0
  0
LINE
  5
198
330
2
100
AcDbEntity
  8
GAIKEI
  6
Continuous
 62
     1
100
AcDbLine
 10
29.68980931143966
 20
28.09293528315428
 30
0.0
 11
29.73980931143967
 21
28.07473677145427
 31
0.0
  0
LINE
  5
199
330
2
100
AcDbEntity
  8
GAIKEI
  6
Continuous
 62
     1
100
AcDbLine
 10
26.8635697421397
 20
21.77473677145423
 30
0.0
 11
26.63262963445971
 21
22.17473677145424
 31
0.0
  0
LINE
  5
19A
330
2
100
AcDbEntity
  8
GAIKEI
  6
Continuous
 62
     1
100
AcDbLine
 10
25.93980931143966
 20
21.77473677145423
 30
0.0
 11
26.17074941911966
 21
21.37473677145422
 31
0.0
  0
LINE
  5
19B
330
2
100
AcDbEntity
  8
GAIKEI
  6
Continuous
 62
     1
100
AcDbLine
 10
27.66897554651968
 20
20.67765369743424
 30
0.0
 11
27.4511199325197
 21
21.01312192461421
 31
0.0
  0
LINE
  5
19C
330
2
100
AcDbEntity
  8
GAIKEI
  6
Continuous
100
AcDbLine
 10
27.95168952677966
 20
29.12473677145428
 30
0.0
 11
28.82842073473966
 21
29.12473677145428
 31
0.0
  0
LINE
  5
19D
330
2
100
AcDbEntity
  8
GAIKEI
  6
Continuous
100
AcDbLine
 10
26.40169363033965
 20
28.89473677145426
 30
0.0
 11
28.82842073473966
 21
28.89473677145429
 31
0.0
  0
LINE
  5
19E
330
2
100
AcDbEntity
  8
GAIKEI
  6
Continuous
 62
     1
100
AcDbLine
 10
29.55168952677968
 20
28.50473677145428
 30
0.0
 11
30.75168952677967
 21
28.50473677145428
 31
0.0
  0
LINE
  5
19F
330
2
100
AcDbEntity
  8
GAIKEI
  6
Continuous
100
AcDbLine
 10
28.21168952677965
 20
28.29473677145429
 30
0.0
 11
28.56168952677967
 21
28.29473677145429
 31
0.0
  0
LINE
  5
1A0
330
2
100
AcDbEntity
  8
GAIKEI
  6
Continuous
 62
     1
100
AcDbLine
 10
30.1016895267797
 20
28.25473677145428
 30
0.0
 11
30.20168952677966
 21
28.25473677145428
 31
0.0
  0
LINE
  5
1A1
330
2
100
AcDbEntity
  8
GAIKEI
  6
Continuous
 62
     1
100
AcDbLine
 10
30.1016895267797
 20
28.07473677145427
 30
0.0
 11
29.73982195511968
 21
28.07473677145427
 31
0.0
  0
LINE
  5
1A2
330
2
100
AcDbEntity
  8
GAIKEI
  6
Continuous
 62
     1
100
AcDbLine
 10
30.56355709845969
 20
28.07473677145427
 30
0.0
 11
30.20168952677966
 21
28.07473677145427
 31
0.0
  0
LINE
  5
1A3
330
2
100
AcDbEntity
  8
GAIKEI
  6
Continuous
 62
     1
100
AcDbLine
 10
28.21168952677965
 20
27.22480909379431
 30
0.0
 11
28.56168952677967
 21
27.22480909379428
 31
0.0
  0
LINE
  5
1A4
330
2
100
AcDbEntity
  8
GAIKEI
  6
Continuous
 62
     1
100
AcDbLine
 10
29.78606682971963
 20
27.12480909379428
 30
0.0
 11
30.24794704507968
 21
27.12480909379428
 31
0.0
  0
LINE
  5
1A5
330
2
100
AcDbEntity
  8
GAIKEI
  6
Continuous
 62
     1
100
AcDbLine
 10
29.96700693739967
 20
26.77480909379426
 30
0.0
 11
29.8170069373997
 21
26.77480909379429
 31
0.0
  0
LINE
  5
1A6
330
2
100
AcDbEntity
  8
GAIKEI
  6
Continuous
 62
     1
100
AcDbLine
 10
30.21700693739968
 20
26.77480909379426
 30
0.0
 11
30.0670069373997
 21
26.77480909379426
 31
0.0
  0
LINE
  5
1A7
330
2
100
AcDbEntity
  8
GAIKEI
  6
Continuous
 62
     1
100
AcDbLine
 10
30.0670069373997
 20
26.67480909379427
 30
0.0
 11
30.21700693739968
 21
26.67480909379427
 31
0.0
  0
LINE
  5
1A8
330
2
100
AcDbEntity
  8
GAIKEI
  6
Continuous
 62
     1
100
AcDbLine
 10
29.8170069373997
 20
26.67480909379427
 30
0.0
 11
29.96700693739967
 21
26.67480909379427
 31
0.0
  0
LINE
  5
1A9
330
2
100
AcDbEntity
  8
GAIKEI
  6
Continuous
 62
     1
100
AcDbLine
 10
29.78606682971963
 20
26.32480909379427
 30
0.0
 11
30.24794704507968
 21
26.32480909379427
 31
0.0
  0
LINE
  5
1AA
330
2
100
AcDbEntity
  8
GAIKEI
  6
Continuous
 62
     1
100
AcDbLine
 10
28.21168952677965
 20
26.22480909379428
 30
0.0
 11
28.56168952677967
 21
26.22480909379431
 31
0.0
  0
LINE
  5
1AB
330
2
100
AcDbEntity
  8
GAIKEI
  6
Continuous
 62
     1
100
AcDbLine
 10
29.58262963445969
 20
23.99473677145434
 30
0.0
 11
29.12074941911965
 21
23.99473677145423
 31
0.0
  0
LINE
  5
1AC
330
2
100
AcDbEntity
  8
GAIKEI
  6
Continuous
 62
     1
100
AcDbLine
 10
29.12074941911965
 20
23.19473677145433
 30
0.0
 11
29.58262963445969
 21
23.19473677145433
 31
0.0
  0
LINE
  5
1AD
330
2
100
AcDbEntity
  8
GAIKEI
  6
Continuous
 62
     1
100
AcDbLine
 10
25.93980931143966
 20
20.40495891141424
 30
0.0
 11
25.80168952677968
 21
20.49473677145423
 31
0.0
  0
LINE
  5
1AE
330
2
100
AcDbEntity
  8
GAIKEI
  6
Continuous
 62
     1
100
AcDbLine
 10
25.93980931143966
 20
20.08293528315423
 30
0.0
 11
25.98980931143967
 21
20.06473677145422
 31
0.0
  0
LINE
  5
1AF
330
2
100
AcDbEntity
  8
GAIKEI
  6
Continuous
 62
     1
100
AcDbLine
 10
26.17074941911966
 20
22.17473677145424
 30
0.0
 11
26.63262963445971
 21
22.17473677145424
 31
0.0
  0
LINE
  5
1B0
330
2
100
AcDbEntity
  8
GAIKEI
  6
Continuous
 62
     1
100
AcDbLine
 10
26.3516895267797
 20
21.82473677145424
 30
0.0
 11
26.20168952677966
 21
21.82473677145424
 31
0.0
  0
LINE
  5
1B1
330
2
100
AcDbEntity
  8
GAIKEI
  6
Continuous
 62
     1
100
AcDbLine
 10
26.60168952677969
 20
21.82473677145424
 30
0.0
 11
26.45168952677966
 21
21.82473677145424
 31
0.0
  0
LINE
  5
1B2
330
2
100
AcDbEntity
  8
GAIKEI
  6
Continuous
 62
     1
100
AcDbLine
 10
26.45168952677966
 20
21.72473677145422
 30
0.0
 11
26.60168952677969
 21
21.72473677145422
 31
0.0
  0
LINE
  5
1B3
330
2
100
AcDbEntity
  8
GAIKEI
  6
Continuous
 62
     1
100
AcDbLine
 10
26.20168952677966
 20
21.72473677145422
 30
0.0
 11
26.3516895267797
 21
21.72473677145422
 31
0.0
  0
LINE
  5
1B4
330
2
100
AcDbEntity
  8
GAIKEI
  6
Continuous
 62
     1
100
AcDbLine
 10
26.17074941911966
 20
21.37473677145422
 30
0.0
 11
26.63262963445971
 21
21.37473677145422
 31
0.0
  0
LINE
  5
1B5
330
2
100
AcDbEntity
  8
GAIKEI
  6
Continuous
 62
     1
100
AcDbLine
 10
27.4269696245197
 20
20.79473677145424
 30
0.0
 11
27.11483628651968
 21
20.79473677145424
 31
0.0
  0
LINE
  5
1B6
330
2
100
AcDbEntity
  8
GAIKEI
  6
Continuous
100
AcDbLine
 10
25.50168952677967
 20
20.56473677145422
 30
0.0
 11
27.4269696245197
 21
20.56473677145422
 31
0.0
  0
LINE
  5
1B7
330
2
100
AcDbEntity
  8
GAIKEI
  6
Continuous
 62
     1
100
AcDbLine
 10
25.80168952677968
 20
20.49473677145423
 30
0.0
 11
27.00168952677967
 21
20.49473677145423
 31
0.0
  0
LINE
  5
1B8
330
2
100
AcDbEntity
  8
GAIKEI
  6
Continuous
 62
     1
100
AcDbLine
 10
26.3516895267797
 20
20.24473677145423
 30
0.0
 11
26.45168952677966
 21
20.24473677145423
 31
0.0
  0
LINE
  5
1B9
330
2
100
AcDbEntity
  8
GAIKEI
  6
Continuous
 62
     1
100
AcDbLine
 10
26.3516895267797
 20
20.06473677145422
 30
0.0
 11
25.98982195511968
 21
20.06473677145422
 31
0.0
  0
LINE
  5
1BA
330
2
100
AcDbEntity
  8
GAIKEI
  6
Continuous
 62
     1
100
AcDbLine
 10
26.81355709845969
 20
20.06473677145422
 30
0.0
 11
26.45168952677966
 21
20.06473677145422
 31
0.0
  0
LINE
  5
1BB
330
2
100
AcDbEntity
  8
GAIKEI
  6
Continuous
100
AcDbLine
 10
11.10168952678555
 20
34.47467563313637
 30
0.0
 11
10.39906775307509
 21
34.43785278630085
 31
0.0
  0
LINE
  5
1BC
330
2
100
AcDbEntity
  8
GAIKEI
  6
Continuous
100
AcDbLine
 10
9.59907762268665
 20
34.39592708012919
 30
0.0
 11
9.396455934135417
 21
34.3853081273914
 31
0.0
  0
LINE
  5
1BD
330
2
100
AcDbEntity
  8
GAIKEI
  6
Continuous
 62
     1
100
AcDbLine
 10
11.50031788636238
 20
34.46562768272741
 30
0.0
 11
11.67506038382879
 21
34.47473671730524
 31
0.0
  0
LINE
  5
1BE
330
2
100
AcDbEntity
  8
GAIKEI
  6
Continuous
 62
     1
100
AcDbLine
 10
9.481689526774573
 20
33.8247367714572
 30
0.0
 11
10.20365687024048
 21
33.82473677145723
 31
0.0
  0
LINE
  5
1BF
330
2
100
AcDbEntity
  8
GAIKEI
  6
Continuous
 62
     1
100
AcDbLine
 10
10.18592704660773
 20
33.67473677145432
 30
0.0
 11
10.19625867368916
 21
33.67473677146856
 31
0.0
  0
LINE
  5
1C0
330
2
100
AcDbEntity
  8
GAIKEI
  6
Continuous
 62
     1
100
AcDbLine
 10
10.20494117297124
 20
33.86170470312678
 30
0.0
 11
9.350465557695542
 21
33.88407993456423
 31
0.0
  0
LINE
  5
1C1
330
2
100
AcDbEntity
  8
GAIKEI
  6
Continuous
 62
   251
100
AcDbLine
 10
9.201689526791881
 20
11.95272231436513
 30
0.0
 11
9.201689526777727
 21
13.87186538541994
 31
0.0
  0
LINE
  5
1C2
330
2
100
AcDbEntity
  8
GAIKEI
  6
Continuous
100
AcDbLine
 10
9.301689526793779
 20
9.664028357160532
 30
0.0
 11
9.301689526779625
 21
10.01631639893554
 31
0.0
  0
LINE
  5
1C3
330
2
100
AcDbEntity
  8
GAIKEI
  6
Continuous
 62
   251
100
AcDbLine
 10
9.351689526780603
 20
11.95272231435092
 30
0.0
 11
9.351689526780546
 21
13.87186538541994
 31
0.0
  0
LINE
  5
1C4
330
2
100
AcDbEntity
  8
GAIKEI
  6
Continuous
100
AcDbLine
 10
9.401689526781581
 20
10.20473677145185
 30
0.0
 11
9.401689526781524
 21
12.85973677146563
 31
0.0
  0
LINE
  5
1C5
330
2
100
AcDbEntity
  8
GAIKEI
  6
Continuous
100
AcDbLine
 10
9.401689526781524
 20
12.98973677144553
 30
0.0
 11
9.401689526781524
 21
33.74473677146415
 31
0.0
  0
LINE
  5
1C6
330
2
100
AcDbEntity
  8
GAIKEI
  6
Continuous
 62
     1
100
AcDbLine
 10
10.20326834910435
 20
33.82564017513963
 30
0.0
 11
10.20365267025249
 21
33.81265916048355
 31
0.0
  0
LINE
  5
1C7
330
2
100
AcDbEntity
  8
GAIKEI
  6
Continuous
 62
     1
100
AcDbLine
 10
9.876689526790528
 20
33.87030027498628
 30
0.0
 11
9.876689526790585
 21
33.82473677145723
 31
0.0
  0
LINE
  5
1C8
330
2
100
AcDbEntity
  8
GAIKEI
  6
Continuous
 62
     1
100
AcDbLine
 10
9.876689526776431
 20
10.07851861988751
 30
0.0
 11
9.876689526790585
 21
10.12473677145885
 31
0.0
  0
LINE
  5
1C9
330
2
100
AcDbEntity
  8
GAIKEI
  6
Continuous
 62
     1
100
AcDbLine
 10
10.1266895267953
 20
33.86375379459156
 30
0.0
 11
10.12668952679536
 21
33.8247367714572
 31
0.0
  0
LINE
  5
1CA
330
2
100
AcDbEntity
  8
GAIKEI
  6
Continuous
 62
     1
100
AcDbLine
 10
10.1266895267812
 20
10.08637439636683
 30
0.0
 11
10.12668952679536
 21
10.12473677145885
 31
0.0
  0
LINE
  5
1CB
330
2
100
AcDbEntity
  8
GAIKEI
  6
Continuous
 62
     1
100
AcDbLine
 10
10.17312761356481
 20
10.20473677146603
 30
0.0
 11
10.17312761356481
 21
10.22473677146072
 31
0.0
  0
LINE
  5
1CC
330
2
100
AcDbEntity
  8
GAIKEI
  6
Continuous
 62
     1
100
AcDbLine
 10
10.17312761356476
 20
33.72473677145533
 30
0.0
 11
10.17312761356481
 21
33.74473677145
 31
0.0
  0
LINE
  5
1CD
330
2
100
AcDbEntity
  8
GAIKEI
  6
Continuous
 62
     1
100
AcDbLine
 10
10.20365687022632
 20
10.13681437458362
 30
0.0
 11
10.20365687024048
 21
33.81265916025729
 31
0.0
  0
LINE
  5
1CE
330
2
100
AcDbEntity
  8
GAIKEI
  6
Continuous
 62
     1
100
AcDbLine
 10
10.2934949471055
 20
9.637594804411151
 30
0.0
 11
10.29349494713381
 21
34.31187873850496
 31
0.0
  0
LINE
  5
1CF
330
2
100
AcDbEntity
  8
GAIKEI
  6
Continuous
 62
     1
100
AcDbLine
 10
11.47860820009089
 20
9.583705802645226
 30
0.0
 11
11.47860820023231
 21
34.36576774027077
 31
0.0
  0
LINE
  5
1D0
330
2
100
AcDbEntity
  8
GAIKEI
  6
Continuous
 62
     1
100
AcDbLine
 10
11.69038009260293
 20
9.573888883610322
 30
0.0
 11
11.69038009260293
 21
34.37558465930579
 31
0.0
  0
LINE
  5
1D1
330
2
100
AcDbEntity
  8
GAIKEI
  6
Continuous
 62
     1
100
AcDbLine
 10
11.77864084438829
 20
9.626567026361925
 30
0.0
 11
11.77864084438823
 21
34.32290651655416
 31
0.0
  0
LINE
  5
1D2
330
2
100
AcDbEntity
  8
GAIKEI
  6
Continuous
 62
     1
100
AcDbLine
 10
11.79157184203006
 20
34.37454678867638
 30
0.0
 11
11.79157184201585
 21
9.574926754225543
 31
0.0
  0
LINE
  5
1D3
330
2
100
AcDbEntity
  8
GAIKEI
  6
Continuous
 62
     1
100
AcDbLine
 10
10.20273699214385
 20
10.11938109551181
 30
0.0
 11
10.20140840525289
 21
10.10845402742882
 31
0.0
  0
LINE
  5
1D4
330
2
100
AcDbEntity
  8
GAIKEI
  6
Continuous
 62
   251
100
AcDbLine
 10
9.201689526777727
 20
13.87186538541994
 30
0.0
 11
9.351689526780546
 21
13.87186538541994
 31
0.0
  0
LINE
  5
1D5
330
2
100
AcDbEntity
  8
GAIKEI
  6
Continuous
 62
   251
100
AcDbLine
 10
9.3516895267947
 20
12.98973677145963
 30
0.0
 11
9.401689526781524
 21
12.98973677144553
 31
0.0
  0
LINE
  5
1D6
330
2
100
AcDbEntity
  8
GAIKEI
  6
Continuous
 62
   251
100
AcDbLine
 10
9.351689526780546
 20
12.85973677146563
 30
0.0
 11
9.401689526781524
 21
12.85973677146563
 31
0.0
  0
LINE
  5
1D7
330
2
100
AcDbEntity
  8
GAIKEI
  6
Continuous
 62
   251
100
AcDbLine
 10
9.201689526791881
 20
11.95272231436513
 30
0.0
 11
9.351689526780603
 21
11.95272231435092
 31
0.0
  0
LINE
  5
1D8
330
2
100
AcDbEntity
  8
GAIKEI
  6
Continuous
 62
     1
100
AcDbLine
 10
9.350465557667291
 20
10.06539360835182
 30
0.0
 11
10.19698539859644
 21
10.08756051050454
 31
0.0
  0
LINE
  5
1D9
330
2
100
AcDbEntity
  8
GAIKEI
  6
Continuous
 62
     1
100
AcDbLine
 10
10.18592704660773
 20
10.27473677146173
 30
0.0
 11
10.19625867368916
 21
10.27473677144763
 31
0.0
  0
LINE
  5
1DA
330
2
100
AcDbEntity
  8
GAIKEI
  6
Continuous
 62
     1
100
AcDbLine
 10
10.20365687022632
 20
10.13681437458362
 30
0.0
 11
10.20546228385547
 21
10.13681436273254
 31
0.0
  0
LINE
  5
1DB
330
2
100
AcDbEntity
  8
GAIKEI
  6
Continuous
 62
     1
100
AcDbLine
 10
10.20365687041027
 20
10.12473677145885
 30
0.0
 11
9.481690829774379
 21
10.12473677145885
 31
0.0
  0
LINE
  5
1DC
330
2
100
AcDbEntity
  8
GAIKEI
  6
Continuous
 62
     1
100
AcDbLine
 10
11.67506038381464
 20
9.474736825596721
 30
0.0
 11
11.50031788636238
 21
9.483845860188637
 31
0.0
  0
LINE
  5
1DD
330
2
100
AcDbEntity
  8
GAIKEI
  6
Continuous
100
AcDbLine
 10
9.396455934135531
 20
9.564165415524627
 30
0.0
 11
9.599072537683809
 21
9.553546729281237
 31
0.0
  0
LINE
  5
1DE
330
2
100
AcDbEntity
  8
GAIKEI
  6
Continuous
100
AcDbLine
 10
10.3990729220398
 20
9.51162048572263
 30
0.0
 11
11.1016895267856
 21
9.474797909779738
 31
0.0
  0
ARC
  5
1DF
330
2
100
AcDbEntity
  8
GAIKEI
  6
Continuous
100
AcDbCircle
 10
32.03543534421965
 20
25.33758168349431
 30
0.0
 40
0.2750000000078134
100
AcDbArc
 50
212.999999996926
 51
33.00000000306167
  0
ARC
  5
1E0
330
2
100
AcDbEntity
  8
GAIKEI
  6
Continuous
100
AcDbCircle
 10
29.35168952677969
 20
23.59473677145434
 30
0.0
 40
4.200000000006035
100
AcDbArc
 50
32.99999999989335
 51
77.99999999993379
  0
ARC
  5
1E1
330
2
100
AcDbEntity
  8
GAIKEI
  6
Continuous
100
AcDbCircle
 10
29.35168952677969
 20
23.59473677145434
 30
0.0
 40
3.475000000000009
100
AcDbArc
 50
33.00000000000041
 51
68.91664331840184
  0
ARC
  5
1E2
330
2
100
AcDbEntity
  8
GAIKEI
  6
Continuous
100
AcDbCircle
 10
29.35168952677969
 20
23.59473677145434
 30
0.0
 40
2.925000000000038
100
AcDbArc
 50
33.00000000000041
 51
68.20106959660297
  0
ARC
  5
1E3
330
2
100
AcDbEntity
  8
GAIKEI
  6
Continuous
100
AcDbCircle
 10
31.44168952677967
 20
28.75900084015427
 30
0.0
 40
0.300000000005708
100
AcDbArc
 50
315.0000000000046
 51
322.0143891912149
  0
ARC
  5
1E4
330
2
100
AcDbEntity
  8
GAIKEI
  6
Continuous
100
AcDbCircle
 10
31.75168952677967
 20
28.2204727027343
 30
0.0
 40
0.2999999999915435
100
AcDbArc
 50
134.9999999973009
 51
180.0
  0
LINE
  5
1E5
330
2
100
AcDbEntity
  8
GAIKEI
  6
Continuous
100
AcDbLine
 10
27.55223660255968
 20
20.60184254081423
 30
0.0
 11
33.70740363573964
 21
24.59905474955423
 31
0.0
  0
LINE
  5
1E6
330
2
100
AcDbEntity
  8
GAIKEI
  6
Continuous
100
AcDbLine
 10
31.53955749243972
 20
28.4326047370943
 30
0.0
 11
31.65382156113969
 21
28.54686880579428
 31
0.0
  0
LINE
  5
1E7
330
2
100
AcDbEntity
  8
GAIKEI
  6
Continuous
100
AcDbLine
 10
31.27020940749969
 20
27.32995538863429
 30
0.0
 11
31.45168952677966
 21
28.1837522221343
 31
0.0
  0
LINE
  5
1E8
330
2
100
AcDbEntity
  8
GAIKEI
  6
Continuous
 62
     1
100
AcDbLine
 10
30.99086714073968
 20
26.01575334959426
 30
0.0
 11
31.11136873975965
 21
26.58266880055427
 31
0.0
  0
LINE
  5
1E9
330
2
100
AcDbEntity
  8
GAIKEI
  6
Continuous
100
AcDbLine
 10
31.45168952677966
 20
28.1837522221343
 30
0.0
 11
31.45168952677966
 21
28.2204727027343
 31
0.0
  0
LINE
  5
1EA
330
2
100
AcDbEntity
  8
GAIKEI
  6
Continuous
100
AcDbLine
 10
32.87410591215968
 20
25.88222071851431
 30
0.0
 11
33.70740363573964
 21
24.59905474955423
 31
0.0
  0
LINE
  5
1EB
330
2
100
AcDbEntity
  8
GAIKEI
  6
Continuous
100
AcDbLine
 10
29.13404113373963
 20
29.70045863617429
 30
0.0
 11
37.49281612531968
 21
33.13897511689424
 31
0.0
  0
LINE
  5
1EC
330
2
100
AcDbEntity
  8
GAIKEI
  6
Continuous
100
AcDbLine
 10
26.40169363033965
 20
28.57473677145427
 30
0.0
 11
37.57975001831971
 21
28.57473677145424
 31
0.0
  0
SPLINE
  5
1ED
330
2
100
AcDbEntity
  8
GAIKEI
  6
Continuous
100
AcDbSpline
210
0.0
220
0.0
230
1.0
 70
     8
 71
     3
 72
     9
 73
     5
 74
     3
 42
0.0000000001
 43
0.0000000001
 44
0.00000001
 40
0.0
 40
0.0
 40
0.0
 40
0.0
 40
0.0924767185226722
 40
0.1849515983897559
 40
0.1849515983897559
 40
0.1849515983897559
 40
0.1849515983897559
 10
37.49281612531968
 20
33.13897511689428
 30
0.0
 10
37.52203539202759
 20
33.14935408105995
 30
0.0
 10
37.58047334929512
 20
33.17011178378846
 30
0.0
 10
37.64241177839472
 20
33.1731951256568
 30
0.0
 10
37.67338068651969
 20
33.17473677145429
 30
0.0
 11
37.49281612531968
 21
33.13897511689428
 31
0.0
 11
37.58134906365808
 21
33.16569332188769
 31
0.0
 11
37.67338068651969
 21
33.17473677145429
 31
0.0
  0
SPLINE
  5
1EE
330
2
100
AcDbEntity
  8
GAIKEI
  6
Continuous
100
AcDbSpline
210
0.0
220
0.0
230
1.0
 70
     8
 71
     3
 72
    23
 73
    19
 74
    17
 42
0.0000000001
 43
0.0000000001
 44
0.00000001
 40
0.0
 40
0.0
 40
0.0
 40
0.0
 40
0.0494853186459302
 40
0.0989705072645139
 40
0.1222759430500912
 40
0.1455810540629148
 40
0.1672073987971603
 40
0.1888345809351018
 40
0.2083056772640376
 40
0.2277735696947184
 40
0.2446761897961592
 40
0.2615881138567398
 40
0.2756457974512849
 40
0.2896762718340677
 40
0.3006808288094204
 40
0.3117592675905707
 40
0.3261624473446216
 40
0.340408705783877
 40
0.340408705783877
 40
0.340408705783877
 40
0.340408705783877
 10
37.65445253473968
 20
28.89473677145429
 30
0.0
 10
37.65428211212046
 20
28.87824085500663
 30
0.0
 10
37.65394127593462
 20
28.84524906530283
 30
0.0
 10
37.6516069499159
 20
28.80454073412338
 30
0.0
 10
37.64888456724231
 20
28.7726237833019
 30
0.0
 10
37.64645936807121
 20
28.7500056305417
 30
0.0
 10
37.64360238939841
 20
28.72800226661786
 30
0.0
 10
37.64039555120493
 20
28.70733895806959
 30
0.0
 10
37.63676853867671
 20
28.6874761204457
 30
0.0
 10
37.63286567590358
 20
28.66927261728793
 30
0.0
 10
37.62856027852368
 20
28.65203740900899
 30
0.0
 10
37.62406206076092
 20
28.63672266461413
 30
0.0
 10
37.61917685622726
 20
28.62253020945278
 30
0.0
 10
37.61421119434898
 20
28.61048508900882
 30
0.0
 10
37.60887728337787
 20
28.59964231520184
 30
0.0
 10
37.60242229388275
 20
28.58945187872484
 30
0.0
 10
37.5939410655278
 20
28.57850626751653
 30
0.0
 10
37.58446306133862
 20
28.57598867775834
 30
0.0
 10
37.57975001831971
 20
28.57473677145424
 30
0.0
 11
37.65445253473968
 21
28.89473677145429
 31
0.0
 11
37.65355412521194
 21
28.8452596169233
 31
0.0
 11
37.65079633335978
 21
28.79585133325426
 31
0.0
 11
37.64880052398473
 21
28.77263151236005
 31
0.0
 11
37.64631044781976
 21
28.74945981153428
 31
0.0
 11
37.64351373766829
 21
28.72801506398764
 31
0.0
 11
37.64018562363975
 21
28.70664549071424
 31
0.0
 11
37.63667091389243
 21
28.68749423997304
 31
0.0
 11
37.63257267425968
 21
28.66846260147421
 31
0.0
 11
37.62844983884884
 21
28.6520705061019
 31
0.0
 11
37.62365905577974
 21
28.63585133325421
 31
0.0
 11
37.61904399949515
 21
28.6225727897162
 31
0.0
 11
37.61366425107974
 21
28.60961468371434
 31
0.0
 11
37.60872796675983
 21
28.59977937159442
 31
0.0
 11
37.60283436541965
 21
28.59039868623426
 31
0.0
 11
37.59305787387666
 21
28.57982174333589
 31
0.0
 11
37.57975001831971
 21
28.57473677145424
 31
0.0
  0
CIRCLE
  5
1EF
330
2
100
AcDbEntity
  8
GAIKEI
  6
Continuous
 62
     1
100
AcDbCircle
 10
38.55168952677968
 20
29.68473677145428
 30
0.0
 40
0.6000000000000001
  0
CIRCLE
  5
1F0
330
2
100
AcDbEntity
  8
GAIKEI
  6
Continuous
 62
     1
100
AcDbCircle
 10
38.55168952677968
 20
30.9847367714543
 30
0.0
 40
0.6000000000000001
  0
CIRCLE
  5
1F1
330
2
100
AcDbEntity
  8
GAIKEI
  6
Continuous
 62
     1
100
AcDbCircle
 10
38.55168952677968
 20
32.2847367714543
 30
0.0
 40
0.6000000000000001
  0
ARC
  5
1F2
330
2
100
AcDbEntity
  8
GAIKEI
  6
Continuous
100
AcDbCircle
 10
38.75168952677967
 20
29.52473677145429
 30
0.0
 40
0.5000000000000227
100
AcDbArc
 50
270.0
 51
0.0
  0
ARC
  5
1F3
330
2
100
AcDbEntity
  8
GAIKEI
  6
Continuous
100
AcDbCircle
 10
38.75168952677967
 20
32.67473677145429
 30
0.0
 40
0.5
100
AcDbArc
 50
0.0
 51
90.0
  0
ARC
  5
1F4
330
2
100
AcDbEntity
  8
GAIKEI
  6
Continuous
100
AcDbCircle
 10
38.21168952677965
 20
29.43473677145431
 30
0.0
 40
0.5000000000000109
100
AcDbArc
 50
235.2486960393159
 51
269.9999999999968
  0
ARC
  5
1F5
330
2
100
AcDbEntity
  8
GAIKEI
  6
Continuous
 62
     1
100
AcDbCircle
 10
38.55168952677968
 20
29.68473677145428
 30
0.0
 40
0.4118802153600616
100
AcDbArc
 50
103.79474827099
 51
136.2052517290009
  0
ARC
  5
1F6
330
2
100
AcDbEntity
  8
GAIKEI
  6
Continuous
 62
     1
100
AcDbCircle
 10
38.55168952677968
 20
29.68473677145428
 30
0.0
 40
0.4118802153599779
100
AcDbArc
 50
343.7947482709991
 51
16.20525172900087
  0
ARC
  5
1F7
330
2
100
AcDbEntity
  8
GAIKEI
  6
Continuous
 62
     1
100
AcDbCircle
 10
38.55168952677968
 20
29.68473677145428
 30
0.0
 40
0.4118802153600196
100
AcDbArc
 50
223.7947482709991
 51
256.20525172901
  0
ARC
  5
1F8
330
2
100
AcDbEntity
  8
GAIKEI
  6
Continuous
 62
     1
100
AcDbCircle
 10
38.55168952677968
 20
29.68473677145428
 30
0.0
 40
0.4118802153600279
100
AcDbArc
 50
43.7947482709991
 51
76.20525172900659
  0
ARC
  5
1F9
330
2
100
AcDbEntity
  8
GAIKEI
  6
Continuous
 62
     1
100
AcDbCircle
 10
38.55168952677968
 20
29.68473677145428
 30
0.0
 40
0.4118802153599623
100
AcDbArc
 50
163.7947482709857
 51
196.2052517290009
  0
ARC
  5
1FA
330
2
100
AcDbEntity
  8
GAIKEI
  6
Continuous
 62
     1
100
AcDbCircle
 10
38.55168952677968
 20
29.68473677145428
 30
0.0
 40
0.4118802153600671
100
AcDbArc
 50
283.7947482709934
 51
316.2052517290038
  0
ARC
  5
1FB
330
2
100
AcDbEntity
  8
GAIKEI
  6
Continuous
 62
     1
100
AcDbCircle
 10
38.55168952677968
 20
30.9847367714543
 30
0.0
 40
0.4118802153600396
100
AcDbArc
 50
103.79474827099
 51
136.2052517290037
  0
ARC
  5
1FC
330
2
100
AcDbEntity
  8
GAIKEI
  6
Continuous
 62
     1
100
AcDbCircle
 10
38.55168952677968
 20
30.9847367714543
 30
0.0
 40
0.4118802153599842
100
AcDbArc
 50
343.7947482709865
 51
16.20525172900087
  0
ARC
  5
1FD
330
2
100
AcDbEntity
  8
GAIKEI
  6
Continuous
 62
     1
100
AcDbCircle
 10
38.55168952677968
 20
30.9847367714543
 30
0.0
 40
0.4118802153600436
100
AcDbArc
 50
223.7947482710089
 51
256.2052517290133
  0
ARC
  5
1FE
330
2
100
AcDbEntity
  8
GAIKEI
  6
Continuous
 62
     1
100
AcDbCircle
 10
38.55168952677968
 20
30.9847367714543
 30
0.0
 40
0.4118802153600202
100
AcDbArc
 50
43.79474827099566
 51
76.20525172900659
  0
ARC
  5
1FF
330
2
100
AcDbEntity
  8
GAIKEI
  6
Continuous
 62
     1
100
AcDbCircle
 10
38.55168952677968
 20
30.9847367714543
 30
0.0
 40
0.4118802153599559
100
AcDbArc
 50
163.7947482709991
 51
196.2052517290143
  0
ARC
  5
200
330
2
100
AcDbEntity
  8
GAIKEI
  6
Continuous
 62
     1
100
AcDbCircle
 10
38.55168952677968
 20
30.9847367714543
 30
0.0
 40
0.4118802153600892
100
AcDbArc
 50
283.7947482709901
 51
316.2052517290003
  0
ARC
  5
201
330
2
100
AcDbEntity
  8
GAIKEI
  6
Continuous
 62
     1
100
AcDbCircle
 10
38.55168952677968
 20
32.2847367714543
 30
0.0
 40
0.4118802153600396
100
AcDbArc
 50
103.79474827099
 51
136.2052517290009
  0
ARC
  5
202
330
2
100
AcDbEntity
  8
GAIKEI
  6
Continuous
 62
     1
100
AcDbCircle
 10
38.55168952677968
 20
32.2847367714543
 30
0.0
 40
0.4118802153599779
100
AcDbArc
 50
343.7947482709991
 51
16.20525172900087
  0
ARC
  5
203
330
2
100
AcDbEntity
  8
GAIKEI
  6
Continuous
 62
     1
100
AcDbCircle
 10
38.55168952677968
 20
32.2847367714543
 30
0.0
 40
0.4118802153600355
100
AcDbArc
 50
223.7947482710089
 51
256.20525172901
  0
ARC
  5
204
330
2
100
AcDbEntity
  8
GAIKEI
  6
Continuous
 62
     1
100
AcDbCircle
 10
38.55168952677968
 20
32.2847367714543
 30
0.0
 40
0.4118802153600361
100
AcDbArc
 50
43.79474827099626
 51
76.20525172900659
  0
ARC
  5
205
330
2
100
AcDbEntity
  8
GAIKEI
  6
Continuous
 62
     1
100
AcDbCircle
 10
38.55168952677968
 20
32.2847367714543
 30
0.0
 40
0.4118802153599496
100
AcDbArc
 50
163.7947482709991
 51
196.2052517290143
  0
ARC
  5
206
330
2
100
AcDbEntity
  8
GAIKEI
  6
Continuous
 62
     1
100
AcDbCircle
 10
38.55168952677968
 20
32.2847367714543
 30
0.0
 40
0.4118802153600892
100
AcDbArc
 50
283.7947482709901
 51
316.2052517289905
  0
LINE
  5
207
330
2
100
AcDbEntity
  8
GAIKEI
  6
Continuous
100
AcDbLine
 10
39.65168952677965
 20
23.98473677145424
 30
0.0
 11
39.33168952677966
 21
23.98473677145424
 31
0.0
  0
LINE
  5
208
330
2
100
AcDbEntity
  8
GAIKEI
  6
Continuous
100
AcDbLine
 10
39.65168952677965
 20
37.98473677145427
 30
0.0
 11
39.33168952677966
 21
37.98473677145427
 31
0.0
  0
LINE
  5
209
330
2
100
AcDbEntity
  8
GAIKEI
  6
Continuous
100
AcDbLine
 10
39.65168952677965
 20
23.98474066711424
 30
0.0
 11
39.65168952677965
 21
37.98473287577428
 31
0.0
  0
LINE
  5
20A
330
2
100
AcDbEntity
  8
GAIKEI
  6
Continuous
100
AcDbLine
 10
39.33168952677966
 20
23.98474066711424
 30
0.0
 11
39.33168952677966
 21
37.98473287577423
 31
0.0
  0
LINE
  5
20B
330
2
100
AcDbEntity
  8
GAIKEI
  6
Continuous
100
AcDbLine
 10
39.32518952677964
 20
25.26534405737428
 30
0.0
 11
39.32518952677964
 21
29.13016728517425
 31
0.0
  0
LINE
  5
20C
330
2
100
AcDbEntity
  8
GAIKEI
  6
Continuous
100
AcDbLine
 10
39.25168952677967
 20
32.67473677145429
 30
0.0
 11
39.25168952677967
 21
29.52473677145429
 31
0.0
  0
LINE
  5
20D
330
2
100
AcDbEntity
  8
GAIKEI
  6
Continuous
 62
     1
100
AcDbLine
 10
39.01356974213968
 20
32.28473677145428
 30
0.0
 11
38.78262963445968
 21
32.68473677145428
 31
0.0
  0
LINE
  5
20E
330
2
100
AcDbEntity
  8
GAIKEI
  6
Continuous
 62
     1
100
AcDbLine
 10
38.78262963445968
 20
29.28473677145428
 30
0.0
 11
39.01356974213968
 21
29.68473677145428
 31
0.0
  0
LINE
  5
20F
330
2
100
AcDbEntity
  8
GAIKEI
  6
Continuous
 62
     1
100
AcDbLine
 10
38.75168952677967
 20
32.23473677145427
 30
0.0
 11
38.75168952677967
 21
32.33473677145429
 31
0.0
  0
LINE
  5
210
330
2
100
AcDbEntity
  8
GAIKEI
  6
Continuous
 62
     1
100
AcDbLine
 10
38.75168952677967
 20
30.93473677145431
 30
0.0
 11
38.75168952677967
 21
31.03473677145428
 31
0.0
  0
LINE
  5
211
330
2
100
AcDbEntity
  8
GAIKEI
  6
Continuous
 62
     1
100
AcDbLine
 10
38.75168952677967
 20
29.6347367714543
 30
0.0
 11
38.75168952677967
 21
29.7347367714543
 31
0.0
  0
LINE
  5
212
330
2
100
AcDbEntity
  8
GAIKEI
  6
Continuous
 62
     1
100
AcDbLine
 10
38.60168952677964
 20
29.63473677145427
 30
0.0
 11
38.6016895267797
 21
29.28473677145431
 31
0.0
  0
LINE
  5
213
330
2
100
AcDbEntity
  8
GAIKEI
  6
Continuous
 62
     1
100
AcDbLine
 10
38.60168952677964
 20
30.08473677145429
 30
0.0
 11
38.60168952677964
 21
29.7347367714543
 31
0.0
  0
LINE
  5
214
330
2
100
AcDbEntity
  8
GAIKEI
  6
Continuous
 62
     1
100
AcDbLine
 10
38.60168952677964
 20
30.93473677145428
 30
0.0
 11
38.60168952677964
 21
30.58473677145429
 31
0.0
  0
LINE
  5
215
330
2
100
AcDbEntity
  8
GAIKEI
  6
Continuous
 62
     1
100
AcDbLine
 10
38.60168952677964
 20
31.38473677145427
 30
0.0
 11
38.60168952677964
 21
31.03473677145428
 31
0.0
  0
LINE
  5
216
330
2
100
AcDbEntity
  8
GAIKEI
  6
Continuous
 62
     1
100
AcDbLine
 10
38.60168952677964
 20
32.23473677145427
 30
0.0
 11
38.60168952677964
 21
31.88473677145427
 31
0.0
  0
LINE
  5
217
330
2
100
AcDbEntity
  8
GAIKEI
  6
Continuous
 62
     1
100
AcDbLine
 10
38.60168952677964
 20
32.68473677145428
 30
0.0
 11
38.60168952677964
 21
32.33473677145429
 31
0.0
  0
LINE
  5
218
330
2
100
AcDbEntity
  8
GAIKEI
  6
Continuous
 62
     1
100
AcDbLine
 10
38.50168952677967
 20
29.63473677145427
 30
0.0
 11
38.50168952677967
 21
29.28473677145431
 31
0.0
  0
LINE
  5
219
330
2
100
AcDbEntity
  8
GAIKEI
  6
Continuous
 62
     1
100
AcDbLine
 10
38.50168952677967
 20
30.08473677145429
 30
0.0
 11
38.50168952677967
 21
29.7347367714543
 31
0.0
  0
LINE
  5
21A
330
2
100
AcDbEntity
  8
GAIKEI
  6
Continuous
 62
     1
100
AcDbLine
 10
38.50168952677967
 20
30.93473677145428
 30
0.0
 11
38.50168952677967
 21
30.58473677145429
 31
0.0
  0
LINE
  5
21B
330
2
100
AcDbEntity
  8
GAIKEI
  6
Continuous
 62
     1
100
AcDbLine
 10
38.50168952677967
 20
31.38473677145427
 30
0.0
 11
38.50168952677967
 21
31.03473677145428
 31
0.0
  0
LINE
  5
21C
330
2
100
AcDbEntity
  8
GAIKEI
  6
Continuous
 62
     1
100
AcDbLine
 10
38.50168952677967
 20
32.23473677145427
 30
0.0
 11
38.50168952677967
 21
31.88473677145427
 31
0.0
  0
LINE
  5
21D
330
2
100
AcDbEntity
  8
GAIKEI
  6
Continuous
 62
     1
100
AcDbLine
 10
38.50168952677967
 20
32.68473677145428
 30
0.0
 11
38.50168952677967
 21
32.33473677145429
 31
0.0
  0
LINE
  5
21E
330
2
100
AcDbEntity
  8
GAIKEI
  6
Continuous
 62
     1
100
AcDbLine
 10
38.35168952677964
 20
29.73473677145427
 30
0.0
 11
38.35168952677964
 21
29.63473677145427
 31
0.0
  0
LINE
  5
21F
330
2
100
AcDbEntity
  8
GAIKEI
  6
Continuous
 62
     1
100
AcDbLine
 10
38.35168952677964
 20
31.03473677145428
 30
0.0
 11
38.35168952677964
 21
30.93473677145428
 31
0.0
  0
LINE
  5
220
330
2
100
AcDbEntity
  8
GAIKEI
  6
Continuous
 62
     1
100
AcDbLine
 10
38.35168952677964
 20
32.33473677145429
 30
0.0
 11
38.35168952677964
 21
32.23473677145427
 31
0.0
  0
LINE
  5
221
330
2
100
AcDbEntity
  8
GAIKEI
  6
Continuous
100
AcDbLine
 10
37.75168952677967
 20
33.17473677145429
 30
0.0
 11
37.75168952677967
 21
29.02473677145429
 31
0.0
  0
LINE
  5
222
330
2
100
AcDbEntity
  8
GAIKEI
  6
Continuous
100
AcDbLine
 10
37.65445253473968
 20
28.89473677145426
 30
0.0
 11
37.65445253473968
 21
29.02473677145429
 31
0.0
  0
LINE
  5
223
330
2
100
AcDbEntity
  8
GAIKEI
  6
Continuous
 62
     1
100
AcDbLine
 10
39.01356974213968
 20
30.98473677145427
 30
0.0
 11
38.78262963445968
 21
31.38473677145427
 31
0.0
  0
LINE
  5
224
330
2
100
AcDbEntity
  8
GAIKEI
  6
Continuous
 62
     1
100
AcDbLine
 10
38.08980931143969
 20
32.28473677145428
 30
0.0
 11
38.32074941911969
 21
31.88473677145427
 31
0.0
  0
LINE
  5
225
330
2
100
AcDbEntity
  8
GAIKEI
  6
Continuous
 62
     1
100
AcDbLine
 10
39.01356974213968
 20
29.68473677145428
 30
0.0
 11
38.78262963445968
 21
30.08473677145429
 31
0.0
  0
LINE
  5
226
330
2
100
AcDbEntity
  8
GAIKEI
  6
Continuous
 62
     1
100
AcDbLine
 10
38.08980931143969
 20
30.9847367714543
 30
0.0
 11
38.32074941911969
 21
30.58473677145429
 31
0.0
  0
LINE
  5
227
330
2
100
AcDbEntity
  8
GAIKEI
  6
Continuous
 62
     1
100
AcDbLine
 10
38.08980931143969
 20
29.68473677145428
 30
0.0
 11
38.32074941911969
 21
29.28473677145428
 31
0.0
  0
LINE
  5
228
330
2
100
AcDbEntity
  8
GAIKEI
  6
Continuous
 62
     1
100
AcDbLine
 10
38.78262963445968
 20
30.58473677145429
 30
0.0
 11
39.01356974213968
 21
30.98473677145427
 31
0.0
  0
LINE
  5
229
330
2
100
AcDbEntity
  8
GAIKEI
  6
Continuous
 62
     1
100
AcDbLine
 10
38.32074941911969
 20
30.08473677145429
 30
0.0
 11
38.08980931143969
 21
29.68473677145428
 31
0.0
  0
LINE
  5
22A
330
2
100
AcDbEntity
  8
GAIKEI
  6
Continuous
 62
     1
100
AcDbLine
 10
38.78262963445968
 20
31.88473677145427
 30
0.0
 11
39.01356974213968
 21
32.28473677145428
 31
0.0
  0
LINE
  5
22B
330
2
100
AcDbEntity
  8
GAIKEI
  6
Continuous
 62
     1
100
AcDbLine
 10
38.32074941911969
 20
31.38473677145427
 30
0.0
 11
38.08980931143969
 21
30.9847367714543
 31
0.0
  0
LINE
  5
22C
330
2
100
AcDbEntity
  8
GAIKEI
  6
Continuous
 62
     1
100
AcDbLine
 10
38.32074941911969
 20
32.68473677145428
 30
0.0
 11
38.08980931143969
 21
32.28473677145428
 31
0.0
  0
LINE
  5
22D
330
2
100
AcDbEntity
  8
GAIKEI
  6
Continuous
100
AcDbLine
 10
37.67338068651964
 20
33.17473677145429
 30
0.0
 11
38.75168952677967
 21
33.17473677145429
 31
0.0
  0
LINE
  5
22E
330
2
100
AcDbEntity
  8
GAIKEI
  6
Continuous
100
AcDbLine
 10
39.33168952677966
 20
33.03473677145431
 30
0.0
 11
39.09789196819969
 21
33.03473677145428
 31
0.0
  0
LINE
  5
22F
330
2
100
AcDbEntity
  8
GAIKEI
  6
Continuous
 62
     1
100
AcDbLine
 10
38.32074941911969
 20
32.68473677145428
 30
0.0
 11
38.78262963445968
 21
32.68473677145428
 31
0.0
  0
LINE
  5
230
330
2
100
AcDbEntity
  8
GAIKEI
  6
Continuous
 62
     1
100
AcDbLine
 10
38.50168952677967
 20
32.33473677145429
 30
0.0
 11
38.35168952677964
 21
32.33473677145429
 31
0.0
  0
LINE
  5
231
330
2
100
AcDbEntity
  8
GAIKEI
  6
Continuous
 62
     1
100
AcDbLine
 10
38.75168952677967
 20
32.33473677145429
 30
0.0
 11
38.60168952677964
 21
32.33473677145429
 31
0.0
  0
LINE
  5
232
330
2
100
AcDbEntity
  8
GAIKEI
  6
Continuous
 62
     1
100
AcDbLine
 10
38.60168952677964
 20
32.23473677145427
 30
0.0
 11
38.75168952677967
 21
32.23473677145427
 31
0.0
  0
LINE
  5
233
330
2
100
AcDbEntity
  8
GAIKEI
  6
Continuous
 62
     1
100
AcDbLine
 10
38.35168952677964
 20
32.23473677145427
 30
0.0
 11
38.50168952677967
 21
32.23473677145427
 31
0.0
  0
LINE
  5
234
330
2
100
AcDbEntity
  8
GAIKEI
  6
Continuous
 62
     1
100
AcDbLine
 10
38.32074941911969
 20
31.88473677145427
 30
0.0
 11
38.78262963445968
 21
31.88473677145427
 31
0.0
  0
LINE
  5
235
330
2
100
AcDbEntity
  8
GAIKEI
  6
Continuous
 62
     1
100
AcDbLine
 10
38.32074941911969
 20
31.38473677145427
 30
0.0
 11
38.78262963445968
 21
31.38473677145427
 31
0.0
  0
LINE
  5
236
330
2
100
AcDbEntity
  8
GAIKEI
  6
Continuous
 62
     1
100
AcDbLine
 10
38.50168952677967
 20
31.03473677145428
 30
0.0
 11
38.35168952677964
 21
31.03473677145428
 31
0.0
  0
LINE
  5
237
330
2
100
AcDbEntity
  8
GAIKEI
  6
Continuous
 62
     1
100
AcDbLine
 10
38.75168952677967
 20
31.03473677145428
 30
0.0
 11
38.60168952677964
 21
31.03473677145428
 31
0.0
  0
LINE
  5
238
330
2
100
AcDbEntity
  8
GAIKEI
  6
Continuous
 62
     1
100
AcDbLine
 10
38.60168952677964
 20
30.93473677145428
 30
0.0
 11
38.75168952677967
 21
30.93473677145431
 31
0.0
  0
LINE
  5
239
330
2
100
AcDbEntity
  8
GAIKEI
  6
Continuous
 62
     1
100
AcDbLine
 10
38.35168952677964
 20
30.93473677145428
 30
0.0
 11
38.50168952677967
 21
30.93473677145428
 31
0.0
  0
LINE
  5
23A
330
2
100
AcDbEntity
  8
GAIKEI
  6
Continuous
 62
     1
100
AcDbLine
 10
38.32074941911969
 20
30.58473677145429
 30
0.0
 11
38.78262963445968
 21
30.58473677145429
 31
0.0
  0
LINE
  5
23B
330
2
100
AcDbEntity
  8
GAIKEI
  6
Continuous
 62
     1
100
AcDbLine
 10
38.32074941911969
 20
30.08473677145429
 30
0.0
 11
38.78262963445968
 21
30.08473677145429
 31
0.0
  0
LINE
  5
23C
330
2
100
AcDbEntity
  8
GAIKEI
  6
Continuous
 62
     1
100
AcDbLine
 10
38.50168952677967
 20
29.7347367714543
 30
0.0
 11
38.35168952677964
 21
29.73473677145427
 31
0.0
  0
LINE
  5
23D
330
2
100
AcDbEntity
  8
GAIKEI
  6
Continuous
 62
     1
100
AcDbLine
 10
38.75168952677967
 20
29.7347367714543
 30
0.0
 11
38.60168952677964
 21
29.7347367714543
 31
0.0
  0
LINE
  5
23E
330
2
100
AcDbEntity
  8
GAIKEI
  6
Continuous
 62
     1
100
AcDbLine
 10
38.60168952677964
 20
29.63473677145427
 30
0.0
 11
38.75168952677967
 21
29.6347367714543
 31
0.0
  0
LINE
  5
23F
330
2
100
AcDbEntity
  8
GAIKEI
  6
Continuous
 62
     1
100
AcDbLine
 10
38.35168952677964
 20
29.63473677145427
 30
0.0
 11
38.50168952677967
 21
29.63473677145427
 31
0.0
  0
LINE
  5
240
330
2
100
AcDbEntity
  8
GAIKEI
  6
Continuous
 62
     1
100
AcDbLine
 10
38.32074941911969
 20
29.28473677145428
 30
0.0
 11
38.78262963445968
 21
29.28473677145428
 31
0.0
  0
LINE
  5
241
330
2
100
AcDbEntity
  8
GAIKEI
  6
Continuous
100
AcDbLine
 10
39.33168952677966
 20
29.13016728517425
 30
0.0
 11
39.32518952677964
 21
29.13016728517425
 31
0.0
  0
LINE
  5
242
330
2
100
AcDbEntity
  8
GAIKEI
  6
Continuous
100
AcDbLine
 10
38.75168952677967
 20
29.02473677145429
 30
0.0
 11
37.65445253473968
 21
29.02473677145429
 31
0.0
  0
LINE
  5
243
330
2
100
AcDbEntity
  8
GAIKEI
  6
Continuous
100
AcDbLine
 10
38.21168952677965
 20
28.93473677145428
 30
0.0
 11
39.32518952677964
 21
28.93473677145428
 31
0.0
  0
LINE
  5
244
330
2
100
AcDbEntity
  8
GAIKEI
  6
Continuous
100
AcDbLine
 10
39.33168952677966
 20
25.26534405737428
 30
0.0
 11
39.32518952677964
 21
25.26534405737428
 31
0.0
  0
LINE
  5
245
330
2
100
AcDbEntity
  8
WAKU
 62
     1
100
AcDbLine
 10
-61.71223883476841
 20
-15.8310681181137
 30
0.0
 11
63.28776116523158
 21
-15.8310681181137
 31
0.0
  0
LINE
  5
247
330
2
100
AcDbEntity
  8
WAKU
 62
     1
100
AcDbLine
 10
-61.71223883476841
 20
-20.8310681181137
 30
0.0
 11
63.28776116523158
 21
-20.8310681181137
 31
0.0
  0
LINE
  5
248
330
2
100
AcDbEntity
  8
WAKU
 62
     1
100
AcDbLine
 10
-61.71223883476841
 20
-25.83106811811371
 30
0.0
 11
63.28776116523158
 21
-25.83106811811371
 31
0.0
  0
LINE
  5
249
330
2
100
AcDbEntity
  8
WAKU
 62
     1
100
AcDbLine
 10
-61.71223883476841
 20
-30.83106811811371
 30
0.0
 11
63.28776116523158
 21
-30.83106811811371
 31
0.0
  0
LINE
  5
24A
330
2
100
AcDbEntity
  8
WAKU
 62
     1
100
AcDbLine
 10
-61.71223883476841
 20
-35.83106811811371
 30
0.0
 11
63.28776116523158
 21
-35.83106811811371
 31
0.0
  0
LINE
  5
24B
330
2
100
AcDbEntity
  8
WAKU
 62
     1
100
AcDbLine
 10
-61.71223883476841
 20
-40.8310681181137
 30
0.0
 11
63.28776116523158
 21
-40.8310681181137
 31
0.0
  0
LINE
  5
24C
330
2
100
AcDbEntity
  8
WAKU
 62
     4
100
AcDbLine
 10
63.28776116523158
 20
-10.8310681181137
 30
0.0
 11
-61.71223883476841
 21
-10.8310681181137
 31
0.0
  0
LINE
  5
24D
330
2
100
AcDbEntity
  8
WAKU
 62
     4
100
AcDbLine
 10
-61.71223883476841
 20
-45.8310681181137
 30
0.0
 11
63.28776116523158
 21
-45.8310681181137
 31
0.0
  0
TEXT
  5
24E
330
2
100
AcDbEntity
  8
MOJI1
100
AcDbText
 10
-19.21223883476841
 20
-19.8310681181137
 30
0.0
 40
3.0
  1
１２０Ｗ／６０Ｗ（連続プログラム／ＲＭＳ）
100
AcDbText
  0
TEXT
  5
24F
330
2
100
AcDbEntity
  8
MOJI1
100
AcDbText
 10
-59.21223883476841
 20
-24.83106811811371
 30
0.0
 40
3.0
  1
入力インピーダンス
100
AcDbText
  0
LINE
  5
250
330
2
100
AcDbEntity
  8
WAKU
 62
     4
100
AcDbLine
 10
-61.71223883476841
 20
-10.8310681181137
 30
0.0
 11
-61.71223883476841
 21
-45.8310681181137
 31
0.0
  0
TEXT
  5
251
330
2
100
AcDbEntity
  8
MOJI1
100
AcDbText
 10
-59.21223883476841
 20
-39.83106811811371
 30
0.0
 40
3.0
  1
使用スピーカー
100
AcDbText
  0
TEXT
  5
252
330
2
100
AcDbEntity
  8
MOJI1
100
AcDbText
 10
-59.21223883476841
 20
-14.8310681181137
 30
0.0
 40
3.0
  1
形　式
100
AcDbText
  0
TEXT
  5
253
330
2
100
AcDbEntity
  8
MOJI1
100
AcDbText
 10
-59.21223883476841
 20
-19.8310681181137
 30
0.0
 40
3.0
  1
許容入力
100
AcDbText
  0
TEXT
  5
254
330
2
100
AcDbEntity
  8
MOJI1
100
AcDbText
 10
-59.21223883476841
 20
-34.83106811811371
 30
0.0
 40
3.0
  1
出力音圧レベル
100
AcDbText
  0
TEXT
  5
255
330
2
100
AcDbEntity
  8
MOJI1
100
AcDbText
 10
-59.21223883476841
 20
-29.83106811811371
 30
0.0
 40
3.0
  1
周波数特性
100
AcDbText
  0
LINE
  5
256
330
2
100
AcDbEntity
  8
WAKU
 62
     4
100
AcDbLine
 10
-21.71223883476841
 20
-45.8310681181137
 30
0.0
 11
-21.71223883476841
 21
-10.8310681181137
 31
0.0
  0
TEXT
  5
257
330
2
100
AcDbEntity
  8
MOJI1
100
AcDbText
 10
-19.21223883476841
 20
-39.83106811811371
 30
0.0
 40
3.0
  1
１２ｃｍ　コーン形
100
AcDbText
  0
TEXT
  5
258
330
2
100
AcDbEntity
  8
MOJI1
100
AcDbText
 10
-19.21223883476841
 20
-14.8310681181137
 30
0.0
 40
3.0
  1
フルレンジバスレフ形
100
AcDbText
  0
TEXT
  5
259
330
2
100
AcDbEntity
  8
MOJI1
100
AcDbText
 10
-19.21223883476841
 20
-29.83106811811371
 30
0.0
 40
3.0
  1
５０Ｈｚ～１６ｋＨｚ
100
AcDbText
  0
TEXT
  5
25A
330
2
100
AcDbEntity
  8
MOJI1
100
AcDbText
 10
-19.21223883476841
 20
-24.83106811811371
 30
0.0
 40
3.0
  1
８Ω
100
AcDbText
  0
LINE
  5
25B
330
2
100
AcDbEntity
  8
WAKU
 62
     4
100
AcDbLine
 10
63.28776116523158
 20
-45.8310681181137
 30
0.0
 11
63.28776116523158
 21
-10.8310681181137
 31
0.0
  0
ENDSEC
  0
SECTION
  2
OBJECTS
  0
DICTIONARY
  5
7
330
0
100
AcDbDictionary
281
     1
  3
ACAD_COLOR
350
2A
  3
ACAD_GROUP
350
26
  3
ACAD_LAYOUT
350
B
  3
ACAD_MATERIAL
350
29
  3
ACAD_MLINESTYLE
350
27
  3
ACAD_PLOTSETTINGS
350
28
  3
ACAD_PLOTSTYLENAME
350
6
  3
ACDBHEADERROUNDTRIPXREC
350
516
  3
AcDbVariableDictionary
350
511
  0
DICTIONARY
  5
2A
102
{ACAD_REACTORS
330
7
102
}
330
7
100
AcDbDictionary
281
     1
  0
DICTIONARY
  5
26
102
{ACAD_REACTORS
330
7
102
}
330
7
100
AcDbDictionary
281
     1
  0
DICTIONARY
  5
B
102
{ACAD_REACTORS
330
7
102
}
330
7
100
AcDbDictionary
281
     1
  3
Model
350
A
  3
レイアウト1
350
F
  0
DICTIONARY
  5
29
102
{ACAD_REACTORS
330
7
102
}
330
7
100
AcDbDictionary
281
     1
  0
DICTIONARY
  5
27
102
{ACAD_REACTORS
330
7
102
}
330
7
100
AcDbDictionary
281
     1
  3
Standard
350
2C
  0
DICTIONARY
  5
28
102
{ACAD_REACTORS
330
7
102
}
330
7
100
AcDbDictionary
281
     1
  0
ACDBDICTIONARYWDFLT
  5
6
102
{ACAD_REACTORS
330
7
102
}
330
7
100
AcDbDictionary
281
     1
  3
Normal
350
5
100
AcDbDictionaryWithDefault
340
5
  0
DICTIONARY
  5
516
102
{ACAD_REACTORS
330
7
102
}
330
7
100
AcDbDictionary
281
     1
  3
COLORDICT
350
518
  3
MATERIALDICT
350
517
  0
DICTIONARY
  5
511
102
{ACAD_REACTORS
330
7
102
}
330
7
100
AcDbDictionary
281
     1
  3
DIMASSOC
350
513
  3
HIDETEXT
350
512
  3
PROJECTNAME
350
514
  0
LAYOUT
  5
A
102
{ACAD_XDICTIONARY
360
519
102
}
102
{ACAD_REACTORS
330
B
102
}
330
B
100
AcDbPlotSettings
  1

  2
none_device
  4
ANSI_A_(8.50_x_11.00_Inches)
  6

 40
6.349999904632568
 41
19.04999923706055
 42
6.350006103515625
 43
19.04998779296875
 44
215.8999938964844
 45
279.3999938964844
 46
0.0
 47
0.0
 48
0.0
 49
0.0
140
0.0
141
0.0
142
1.0
143
78.436453180766
 70
 11952
 72
     0
 73
     1
 74
     0
  7

 75
     0
147
0.0127491741332998
148
0.0
149
0.0
100
AcDbLayout
  1
Model
 70
     1
 71
     0
 10
0.0
 20
0.0
 11
12.0
 21
9.0
 12
0.0
 22
0.0
 32
0.0
 14
0.0
 24
0.0
 34
0.0
 15
0.0
 25
0.0
 35
0.0
146
0.0
 13
0.0
 23
0.0
 33
0.0
 16
1.0
 26
0.0
 36
0.0
 17
0.0
 27
1.0
 37
0.0
 76
     0
330
2
  0
LAYOUT
  5
F
102
{ACAD_XDICTIONARY
360
51B
102
}
102
{ACAD_REACTORS
330
B
102
}
330
B
100
AcDbPlotSettings
  1

  2
None
  4

  6

 40
0.0
 41
0.0
 42
0.0
 43
0.0
 44
0.0
 45
0.0
 46
0.0
 47
0.0
 48
0.0
 49
0.0
140
0.0
141
0.0
142
1.0
143
1.0
 70
   688
 72
     0
 73
     0
 74
     5
  7
tmsacad.ctb
 75
    16
147
1.0
148
0.0
149
0.0
100
AcDbLayout
  1
レイアウト1
 70
     1
 71
     1
 10
0.0
 20
0.0
 11
12.0
 21
9.0
 12
0.0
 22
0.0
 32
0.0
 14
0.0
 24
0.0
 34
0.0
 15
0.0
 25
0.0
 35
0.0
146
0.0
 13
0.0
 23
0.0
 33
0.0
 16
1.0
 26
0.0
 36
0.0
 17
0.0
 27
1.0
 37
0.0
 76
     0
330
C
  0
MLINESTYLE
  5
2C
102
{ACAD_REACTORS
330
27
102
}
330
27
100
AcDbMlineStyle
  2
STANDARD
 70
     0
  3

 62
   256
 51
90.0
 52
90.0
 71
     2
 49
0.5
 62
   256
  6
BYLAYER
 49
-0.5
 62
   256
  6
BYLAYER
  0
ACDBPLACEHOLDER
  5
5
102
{ACAD_REACTORS
330
6
102
}
330
6
  0
XRECORD
  5
518
102
{ACAD_REACTORS
330
516
102
}
330
516
100
AcDbXrecord
280
     1
340
2A
  0
XRECORD
  5
517
102
{ACAD_REACTORS
330
516
102
}
330
516
100
AcDbXrecord
280
     1
340
29
  0
DICTIONARYVAR
  5
513
102
{ACAD_REACTORS
330
511
102
}
330
511
100
DictionaryVariables
280
     0
  1
1
  0
DICTIONARYVAR
  5
512
102
{ACAD_REACTORS
330
511
102
}
330
511
100
DictionaryVariables
280
     0
  1
1
  0
DICTIONARYVAR
  5
514
102
{ACAD_REACTORS
330
511
102
}
330
511
100
DictionaryVariables
280
     0
  1

  0
DICTIONARY
  5
519
330
A
100
AcDbDictionary
280
     1
281
     1
  3
ACAD_XREC_ROUNDTRIP
360
51A
  0
DICTIONARY
  5
51B
330
F
100
AcDbDictionary
280
     1
281
     1
  3
ACAD_XREC_ROUNDTRIP
360
51C
  0
XRECORD
  5
51A
102
{ACAD_REACTORS
330
519
102
}
330
519
100
AcDbXrecord
280
     1
102
SHADEPLOT
 70
     0
102
SHADEPLOTRESLEVEL
 70
     2
102
SHADEPLOTCUSTOMDPI
 70
   300
  0
XRECORD
  5
51C
102
{ACAD_REACTORS
330
51B
102
}
330
51B
100
AcDbXrecord
280
     1
102
SHADEPLOT
 70
     0
102
SHADEPLOTRESLEVEL
 70
     2
102
SHADEPLOTCUSTOMDPI
 70
   300
  0
ENDSEC
  0
EOF
