  0
SECTION
  2
HEADER
  9
$ACADVER
  1
AC1015
  9
$ACADMAINTVER
 70
    20
  9
$DWGCODEPAGE
  3
ANSI_932
  9
$INSBASE
 10
129.499999944041
 20
246.5008351249345
 30
0.0
  9
$EXTMIN
 10
-62.85003571637208
 20
-58.58335814134147
 30
-0.0015258207003583
  9
$EXTMAX
 10
62.18353327617933
 20
54.44123881245173
 30
0.0000000349246037
  9
$LIMMIN
 10
0.0
 20
0.0
  9
$LIMMAX
 10
420.0
 20
297.0
  9
$ORTHOMODE
 70
     1
  9
$REGENMODE
 70
     0
  9
$FILLMODE
 70
     1
  9
$QTEXTMODE
 70
     0
  9
$MIRRTEXT
 70
     0
  9
$LTSCALE
 40
1.0
  9
$ATTMODE
 70
     1
  9
$TEXTSIZE
 40
2.5
  9
$TRACEWID
 40
1.0
  9
$TEXTSTYLE
  7
Standard
  9
$CLAYER
  8
SUNPO
  9
$CELTYPE
  6
ByLayer
  9
$CECOLOR
 62
   256
  9
$CELTSCALE
 40
1.0
  9
$DISPSILH
 70
     0
  9
$DIMSCALE
 40
1.0
  9
$DIMASZ
 40
2.0
  9
$DIMEXO
 40
2.0
  9
$DIMDLI
 40
8.0
  9
$DIMRND
 40
0.0
  9
$DIMDLE
 40
0.0
  9
$DIMEXE
 40
2.0
  9
$DIMTP
 40
0.0
  9
$DIMTM
 40
0.0
  9
$DIMTXT
 40
2.5
  9
$DIMCEN
 40
0.0
  9
$DIMTSZ
 40
0.0
  9
$DIMTOL
 70
     0
  9
$DIMLIM
 70
     0
  9
$DIMTIH
 70
     0
  9
$DIMTOH
 70
     0
  9
$DIMSE1
 70
     0
  9
$DIMSE2
 70
     0
  9
$DIMTAD
 70
     3
  9
$DIMZIN
 70
     0
  9
$DIMBLK
  1

  9
$DIMASO
 70
     1
  9
$DIMSHO
 70
     1
  9
$DIMPOST
  1

  9
$DIMAPOST
  1

  9
$DIMALT
 70
     0
  9
$DIMALTD
 70
     2
  9
$DIMALTF
 40
25.4
  9
$DIMLFAC
 40
1.0
  9
$DIMTOFL
 70
     1
  9
$DIMTVP
 40
0.0
  9
$DIMTIX
 70
     0
  9
$DIMSOXD
 70
     0
  9
$DIMSAH
 70
     1
  9
$DIMBLK1
  1
OPEN30
  9
$DIMBLK2
  1
OPEN30
  9
$DIMSTYLE
  2
STANDARD
  9
$DIMCLRD
 70
     0
  9
$DIMCLRE
 70
     0
  9
$DIMCLRT
 70
     0
  9
$DIMTFAC
 40
1.0
  9
$DIMGAP
 40
0.5
  9
$DIMJUST
 70
     0
  9
$DIMSD1
 70
     0
  9
$DIMSD2
 70
     0
  9
$DIMTOLJ
 70
     1
  9
$DIMTZIN
 70
     0
  9
$DIMALTZ
 70
     0
  9
$DIMALTTZ
 70
     0
  9
$DIMUPT
 70
     0
  9
$DIMDEC
 70
     4
  9
$DIMTDEC
 70
     4
  9
$DIMALTU
 70
     2
  9
$DIMALTTD
 70
     2
  9
$DIMTXSTY
  7
Standard
  9
$DIMAUNIT
 70
     0
  9
$DIMADEC
 70
     0
  9
$DIMALTRND
 40
0.0
  9
$DIMAZIN
 70
     0
  9
$DIMDSEP
 70
    46
  9
$DIMATFIT
 70
     3
  9
$DIMFRAC
 70
     0
  9
$DIMLDRBLK
  1
OPEN30
  9
$DIMLUNIT
 70
     2
  9
$DIMLWD
 70
    -2
  9
$DIMLWE
 70
    -2
  9
$DIMTMOVE
 70
     0
  9
$LUNITS
 70
     2
  9
$LUPREC
 70
     4
  9
$SKETCHINC
 40
1.0
  9
$FILLETRAD
 40
0.0
  9
$AUNITS
 70
     0
  9
$AUPREC
 70
     0
  9
$MENU
  1
.
  9
$ELEVATION
 40
0.0
  9
$PELEVATION
 40
0.0
  9
$THICKNESS
 40
0.0
  9
$LIMCHECK
 70
     0
  9
$CHAMFERA
 40
0.0
  9
$CHAMFERB
 40
0.0
  9
$CHAMFERC
 40
0.0
  9
$CHAMFERD
 40
0.0
  9
$SKPOLY
 70
     0
  9
$TDCREATE
 40
2454349.434269746
  9
$TDUCREATE
 40
2454349.059269746
  9
$TDUPDATE
 40
2455456.591826886
  9
$TDUUPDATE
 40
2455456.216826886
  9
$TDINDWG
 40
0.2173929514
  9
$TDUSRTIMER
 40
0.2173929514
  9
$USRTIMER
 70
     1
  9
$ANGBASE
 50
0.0
  9
$ANGDIR
 70
     0
  9
$PDMODE
 70
     0
  9
$PDSIZE
 40
0.0
  9
$PLINEWID
 40
0.0
  9
$SPLFRAME
 70
     0
  9
$SPLINETYPE
 70
     6
  9
$SPLINESEGS
 70
     8
  9
$HANDSEED
  5
28E
  9
$SURFTAB1
 70
     6
  9
$SURFTAB2
 70
     6
  9
$SURFTYPE
 70
     6
  9
$SURFU
 70
     6
  9
$SURFV
 70
     6
  9
$UCSBASE
  2

  9
$UCSNAME
  2

  9
$UCSORG
 10
0.0
 20
0.0
 30
0.0
  9
$UCSXDIR
 10
1.0
 20
0.0
 30
0.0
  9
$UCSYDIR
 10
0.0
 20
1.0
 30
0.0
  9
$UCSORTHOREF
  2

  9
$UCSORTHOVIEW
 70
     0
  9
$UCSORGTOP
 10
0.0
 20
0.0
 30
0.0
  9
$UCSORGBOTTOM
 10
0.0
 20
0.0
 30
0.0
  9
$UCSORGLEFT
 10
0.0
 20
0.0
 30
0.0
  9
$UCSORGRIGHT
 10
0.0
 20
0.0
 30
0.0
  9
$UCSORGFRONT
 10
0.0
 20
0.0
 30
0.0
  9
$UCSORGBACK
 10
0.0
 20
0.0
 30
0.0
  9
$PUCSBASE
  2

  9
$PUCSNAME
  2

  9
$PUCSORG
 10
0.0
 20
0.0
 30
0.0
  9
$PUCSXDIR
 10
1.0
 20
0.0
 30
0.0
  9
$PUCSYDIR
 10
0.0
 20
1.0
 30
0.0
  9
$PUCSORTHOREF
  2

  9
$PUCSORTHOVIEW
 70
     0
  9
$PUCSORGTOP
 10
0.0
 20
0.0
 30
0.0
  9
$PUCSORGBOTTOM
 10
0.0
 20
0.0
 30
0.0
  9
$PUCSORGLEFT
 10
0.0
 20
0.0
 30
0.0
  9
$PUCSORGRIGHT
 10
0.0
 20
0.0
 30
0.0
  9
$PUCSORGFRONT
 10
0.0
 20
0.0
 30
0.0
  9
$PUCSORGBACK
 10
0.0
 20
0.0
 30
0.0
  9
$USERI1
 70
     0
  9
$USERI2
 70
     0
  9
$USERI3
 70
     0
  9
$USERI4
 70
     0
  9
$USERI5
 70
     0
  9
$USERR1
 40
0.0
  9
$USERR2
 40
0.0
  9
$USERR3
 40
0.0
  9
$USERR4
 40
0.0
  9
$USERR5
 40
0.0
  9
$WORLDVIEW
 70
     1
  9
$SHADEDGE
 70
     3
  9
$SHADEDIF
 70
    70
  9
$TILEMODE
 70
     1
  9
$MAXACTVP
 70
    64
  9
$PINSBASE
 10
0.0
 20
0.0
 30
0.0
  9
$PLIMCHECK
 70
     0
  9
$PEXTMIN
 10
0.0
 20
0.0
 30
0.0
  9
$PEXTMAX
 10
0.0
 20
0.0
 30
0.0
  9
$PLIMMIN
 10
0.0
 20
0.0
  9
$PLIMMAX
 10
12.0
 20
9.0
  9
$UNITMODE
 70
     0
  9
$VISRETAIN
 70
     1
  9
$PLINEGEN
 70
     0
  9
$PSLTSCALE
 70
     1
  9
$TREEDEPTH
 70
  3020
  9
$CMLSTYLE
  2
Standard
  9
$CMLJUST
 70
     0
  9
$CMLSCALE
 40
20.0
  9
$PROXYGRAPHICS
 70
     1
  9
$MEASUREMENT
 70
     1
  9
$CELWEIGHT
370
    -1
  9
$ENDCAPS
280
     0
  9
$JOINSTYLE
280
     0
  9
$LWDISPLAY
290
     0
  9
$INSUNITS
 70
     4
  9
$HYPERLINKBASE
  1

  9
$STYLESHEET
  1

  9
$XEDIT
290
     1
  9
$CEPSNTYPE
380
     0
  9
$PSTYLEMODE
290
     1
  9
$FINGERPRINTGUID
  2
{FDEAD578-A652-11D2-9A35-0060089B3A3F}
  9
$VERSIONGUID
  2
{14B20C96-9148-4CF8-A749-84877AA90744}
  9
$EXTNAMES
290
     1
  9
$PSVPSCALE
 40
0.0
  9
$OLESTARTUP
290
     0
  0
ENDSEC
  0
SECTION
  2
CLASSES
  0
CLASS
  1
ACDBDICTIONARYWDFLT
  2
AcDbDictionaryWithDefault
  3
ObjectDBX Classes
 90
        0
280
     0
281
     0
  0
CLASS
  1
ACDBPLACEHOLDER
  2
AcDbPlaceHolder
  3
ObjectDBX Classes
 90
        0
280
     0
281
     0
  0
CLASS
  1
LAYOUT
  2
AcDbLayout
  3
ObjectDBX Classes
 90
        0
280
     0
281
     0
  0
CLASS
  1
DICTIONARYVAR
  2
AcDbDictionaryVar
  3
ObjectDBX Classes
 90
        0
280
     0
281
     0
  0
CLASS
  1
DIMASSOC
  2
AcDbDimAssoc
  3
"AcDbDimAssoc|Product Desc:     AcDim ARX App For Dimension|Company:          Autodesk, Inc.|WEB Address:      www.autodesk.com"
 90
    32768
280
     0
281
     0
  0
ENDSEC
  0
SECTION
  2
TABLES
  0
TABLE
  2
VPORT
  5
19
330
0
100
AcDbSymbolTable
 70
     2
  0
VPORT
  5
286
330
19
100
AcDbSymbolTableRecord
100
AcDbViewportTableRecord
  2
*Active
 70
     0
 10
0.0
 20
0.0
 11
1.0
 21
1.0
 12
-0.3332512200963755
 22
-2.071059664444874
 13
0.0
 23
0.0
 14
10.0
 24
10.0
 15
10.0
 25
10.0
 16
0.0
 26
0.0
 36
1.0
 17
0.0
 27
0.0
 37
0.0
 40
113.9216175645376
 41
1.451655629139072
 42
50.0
 43
0.0
 44
0.0
 50
0.0
 51
0.0
 71
     0
 72
  1000
 73
     1
 74
     2
 75
     0
 76
     0
 77
     0
 78
     0
281
     0
 65
     1
110
0.0
120
0.0
130
0.0
111
1.0
121
0.0
131
0.0
112
0.0
122
1.0
132
0.0
 79
     0
146
0.0
  0
ENDTAB
  0
TABLE
  2
LTYPE
  5
14
330
0
100
AcDbSymbolTable
 70
     1
  0
LTYPE
  5
15
330
14
100
AcDbSymbolTableRecord
100
AcDbLinetypeTableRecord
  2
ByBlock
 70
     0
  3

 72
    65
 73
     0
 40
0.0
  0
LTYPE
  5
16
330
14
100
AcDbSymbolTableRecord
100
AcDbLinetypeTableRecord
  2
ByLayer
 70
     0
  3

 72
    65
 73
     0
 40
0.0
  0
LTYPE
  5
8
330
14
100
AcDbSymbolTableRecord
100
AcDbLinetypeTableRecord
  2
Continuous
 70
     0
  3
Solid line
 72
    65
 73
     0
 40
0.0
  0
ENDTAB
  0
TABLE
  2
LAYER
  5
10
330
0
100
AcDbSymbolTable
 70
     7
  0
LAYER
  5
4
330
10
100
AcDbSymbolTableRecord
100
AcDbLayerTableRecord
  2
0
 70
     0
 62
     7
  6
Continuous
370
    -3
390
5
  0
LAYER
  5
235
330
10
100
AcDbSymbolTableRecord
100
AcDbLayerTableRecord
  2
WAKU
 70
     0
 62
     4
  6
Continuous
370
    -3
390
5
  0
LAYER
  5
2E
330
10
100
AcDbSymbolTableRecord
100
AcDbLayerTableRecord
  2
MOJI1
 70
     0
 62
     2
  6
Continuous
370
    -3
390
5
  0
LAYER
  5
30
330
10
100
AcDbSymbolTableRecord
100
AcDbLayerTableRecord
  2
TOUROKU
 70
     0
 62
     1
  6
Continuous
370
    -3
390
5
  0
LAYER
  5
32
330
10
100
AcDbSymbolTableRecord
100
AcDbLayerTableRecord
  2
GAIKEI
 70
     0
 62
     7
  6
Continuous
370
    -3
390
5
  0
LAYER
  5
2B
330
10
100
AcDbSymbolTableRecord
100
AcDbLayerTableRecord
  2
SUNPO
 70
     0
 62
     3
  6
Continuous
370
    -3
390
5
  0
LAYER
  5
12B
330
10
100
AcDbSymbolTableRecord
100
AcDbLayerTableRecord
  2
DEFPOINTS
 70
     0
 62
     7
  6
Continuous
290
     0
370
    -3
390
5
  0
ENDTAB
  0
TABLE
  2
STYLE
  5
11
330
0
100
AcDbSymbolTable
 70
     1
  0
STYLE
  5
12
330
11
100
AcDbSymbolTableRecord
100
AcDbTextStyleTableRecord
  2
Standard
 70
     0
 40
0.0
 41
1.0
 50
0.0
 71
     0
 42
2.5
  3
MONOTXT.shx
  4
BIGFONT.shx
  0
ENDTAB
  0
TABLE
  2
VIEW
  5
17
330
0
100
AcDbSymbolTable
 70
     0
  0
ENDTAB
  0
TABLE
  2
UCS
  5
18
330
0
100
AcDbSymbolTable
 70
     0
  0
ENDTAB
  0
TABLE
  2
APPID
  5
1B
330
0
100
AcDbSymbolTable
 70
     1
  0
APPID
  5
1C
330
1B
100
AcDbSymbolTableRecord
100
AcDbRegAppTableRecord
  2
ACAD
 70
     0
  0
ENDTAB
  0
TABLE
  2
DIMSTYLE
  5
1D
330
0
100
AcDbSymbolTable
 70
     1
100
AcDbDimStyleTable
 71
     1
340
1E
  0
DIMSTYLE
105
1E
102
{ACAD_REACTORS
330
224
330
20A
330
217
330
121
102
}
330
1D
100
AcDbSymbolTableRecord
100
AcDbDimStyleTableRecord
  2
STANDARD
 70
     0
 40
0.0
 41
2.0
 42
2.0
 43
8.0
 44
2.0
 73
     0
 74
     0
 77
     3
140
3.0
141
0.0
173
     1
279
     2
288
     1
340
12
341
1F
343
1F
344
1F
  0
ENDTAB
  0
TABLE
  2
BLOCK_RECORD
  5
1
330
0
100
AcDbSymbolTable
 70
     9
  0
BLOCK_RECORD
  5
2
330
1
100
AcDbSymbolTableRecord
100
AcDbBlockTableRecord
  2
*Model_Space
340
A
  0
BLOCK_RECORD
  5
C
330
1
100
AcDbSymbolTableRecord
100
AcDbBlockTableRecord
  2
*Paper_Space
340
F
  0
BLOCK_RECORD
  5
1F
330
1
100
AcDbSymbolTableRecord
100
AcDbBlockTableRecord
  2
_OPEN30
340
0
102
{BLKREFS
331
21D
331
21E
331
210
331
211
331
127
331
128
331
22A
331
22B
331
256
331
257
331
262
331
263
331
26E
331
26F
331
27A
331
27B
102
}
  0
BLOCK_RECORD
  5
225
330
1
100
AcDbSymbolTableRecord
100
AcDbBlockTableRecord
  2
*D1
340
0
  0
BLOCK_RECORD
  5
20B
330
1
100
AcDbSymbolTableRecord
100
AcDbBlockTableRecord
  2
*D2
340
0
  0
BLOCK_RECORD
  5
218
330
1
100
AcDbSymbolTableRecord
100
AcDbBlockTableRecord
  2
*D3
340
0
  0
BLOCK_RECORD
  5
122
330
1
100
AcDbSymbolTableRecord
100
AcDbBlockTableRecord
  2
*D4
340
0
  0
BLOCK_RECORD
  5
252
330
1
100
AcDbSymbolTableRecord
100
AcDbBlockTableRecord
  2
*D5
340
0
  0
BLOCK_RECORD
  5
25E
330
1
100
AcDbSymbolTableRecord
100
AcDbBlockTableRecord
  2
*D6
340
0
  0
BLOCK_RECORD
  5
26A
330
1
100
AcDbSymbolTableRecord
100
AcDbBlockTableRecord
  2
*D7
340
0
  0
BLOCK_RECORD
  5
276
330
1
100
AcDbSymbolTableRecord
100
AcDbBlockTableRecord
  2
*D8
340
0
  0
ENDTAB
  0
ENDSEC
  0
SECTION
  2
BLOCKS
  0
BLOCK
  5
3
330
2
100
AcDbEntity
  8
0
100
AcDbBlockBegin
  2
*Model_Space
 70
     0
 10
0.0
 20
0.0
 30
0.0
  3
*Model_Space
  1

  0
ENDBLK
  5
9
330
2
100
AcDbEntity
  8
0
100
AcDbBlockEnd
  0
BLOCK
  5
D
330
C
100
AcDbEntity
 67
     1
  8
0
100
AcDbBlockBegin
  2
*Paper_Space
 70
     0
 10
0.0
 20
0.0
 30
0.0
  3
*Paper_Space
  1

  0
ENDBLK
  5
E
330
C
100
AcDbEntity
 67
     1
  8
0
100
AcDbBlockEnd
  0
BLOCK
  5
20
330
1F
100
AcDbEntity
  8
0
100
AcDbBlockBegin
  2
_OPEN30
 70
     0
 10
0.0
 20
0.0
 30
0.0
  3
_OPEN30
  1

  0
LINE
  5
21
330
1F
100
AcDbEntity
  8
0
  6
ByBlock
 62
     0
100
AcDbLine
 10
-1.0
 20
0.26794919
 30
0.0
 11
0.0
 21
0.0
 31
0.0
  0
LINE
  5
22
330
1F
100
AcDbEntity
  8
0
  6
ByBlock
 62
     0
100
AcDbLine
 10
0.0
 20
0.0
 30
0.0
 11
-1.0
 21
-0.26794919
 31
0.0
  0
LINE
  5
23
330
1F
100
AcDbEntity
  8
0
  6
ByBlock
 62
     0
100
AcDbLine
 10
0.0
 20
0.0
 30
0.0
 11
-1.0
 21
0.0
 31
0.0
  0
ENDBLK
  5
24
330
1F
100
AcDbEntity
  8
0
100
AcDbBlockEnd
  0
BLOCK
  5
226
330
225
100
AcDbEntity
  8
0
100
AcDbBlockBegin
  2
*D1
 70
     1
 10
0.0
 20
0.0
 30
0.0
  3
*D1
  1

  0
LINE
  5
227
330
225
100
AcDbEntity
  8
SUNPO
 62
     0
370
    -2
100
AcDbLine
 10
197.2520655663458
 20
213.2982447012623
 30
0.0
 11
197.2520655663458
 21
221.2982447012623
 31
0.0
  0
LINE
  5
228
330
225
100
AcDbEntity
  8
SUNPO
 62
     0
370
    -2
100
AcDbLine
 10
213.4520655663429
 20
213.2982447012623
 30
0.0
 11
213.4520655663429
 21
221.2982447012623
 31
0.0
  0
LINE
  5
229
330
225
100
AcDbEntity
  8
SUNPO
 62
     0
370
    -2
100
AcDbLine
 10
199.2520655663458
 20
219.2982447012623
 30
0.0
 11
211.4520655663429
 21
219.2982447012623
 31
0.0
  0
INSERT
  5
22A
330
225
100
AcDbEntity
  8
SUNPO
 62
     0
370
    -2
100
AcDbBlockReference
  2
_OPEN30
 10
197.2520655663458
 20
219.2982447012623
 30
0.0
 41
2.0
 42
2.0
 43
2.0
 50
180.0
  0
INSERT
  5
22B
330
225
100
AcDbEntity
  8
SUNPO
 62
     0
370
    -2
100
AcDbBlockReference
  2
_OPEN30
 10
213.4520655663429
 20
219.2982447012623
 30
0.0
 41
2.0
 42
2.0
 43
2.0
  0
MTEXT
  5
22C
330
225
100
AcDbEntity
  8
SUNPO
 62
     0
100
AcDbMText
 10
205.3520655663444
 20
221.0482447012623
 30
0.0
 40
2.5
 41
0.0
 71
     5
 72
     1
  1
\A1;162
 73
     1
 44
1.0
1001
ACAD
1000
MTEXTBEGIN
1070
    73
1070
     1
1070
    44
1040
1.0
1070
    74
1070
     0
1000
MTEXTEND
  0
POINT
  5
22D
330
225
100
AcDbEntity
  8
DEFPOINTS
 62
     0
100
AcDbPoint
 10
197.2520655663458
 20
211.2982447012623
 30
0.0
  0
POINT
  5
22E
330
225
100
AcDbEntity
  8
DEFPOINTS
 62
     0
100
AcDbPoint
 10
213.4520655663429
 20
211.2982447012623
 30
0.0
  0
POINT
  5
22F
330
225
100
AcDbEntity
  8
DEFPOINTS
 62
     0
100
AcDbPoint
 10
213.4520655663429
 20
219.2982447012623
 30
0.0
  0
ENDBLK
  5
230
330
225
100
AcDbEntity
  8
0
100
AcDbBlockEnd
  0
BLOCK
  5
20C
330
20B
100
AcDbEntity
  8
0
100
AcDbBlockBegin
  2
*D2
 70
     1
 10
0.0
 20
0.0
 30
0.0
  3
*D2
  1

  0
LINE
  5
20D
330
20B
100
AcDbEntity
  8
SUNPO
 62
     0
370
    -2
100
AcDbLine
 10
153.9463296919706
 20
193.6066788976155
 30
0.0
 11
153.9463296919706
 21
185.6066789213956
 31
0.0
  0
LINE
  5
20E
330
20B
100
AcDbEntity
  8
SUNPO
 62
     0
370
    -2
100
AcDbLine
 10
178.9463295718706
 20
193.6066789213956
 30
0.0
 11
178.9463295718706
 21
185.6066789213956
 31
0.0
  0
LINE
  5
20F
330
20B
100
AcDbEntity
  8
SUNPO
 62
     0
370
    -2
100
AcDbLine
 10
155.9463296919706
 20
187.6066789213956
 30
0.0
 11
176.9463295718706
 21
187.6066789213956
 31
0.0
  0
INSERT
  5
210
330
20B
100
AcDbEntity
  8
SUNPO
 62
     0
370
    -2
100
AcDbBlockReference
  2
_OPEN30
 10
153.9463296919706
 20
187.6066789213956
 30
0.0
 41
2.0
 42
2.0
 43
2.0
 50
180.0
  0
INSERT
  5
211
330
20B
100
AcDbEntity
  8
SUNPO
 62
     0
370
    -2
100
AcDbBlockReference
  2
_OPEN30
 10
178.9463295718706
 20
187.6066789213956
 30
0.0
 41
2.0
 42
2.0
 43
2.0
  0
MTEXT
  5
212
330
20B
100
AcDbEntity
  8
SUNPO
 62
     0
100
AcDbMText
 10
166.4463296319206
 20
189.3566789213956
 30
0.0
 40
2.5
 41
0.0
 71
     5
 72
     1
  1
\A1;250
 73
     1
 44
1.0
1001
ACAD
1000
MTEXTBEGIN
1070
    73
1070
     1
1070
    44
1040
1.0
1070
    74
1070
     0
1000
MTEXTEND
  0
POINT
  5
213
330
20B
100
AcDbEntity
  8
DEFPOINTS
 62
     0
100
AcDbPoint
 10
153.9463296919706
 20
195.6066788976155
 30
0.0
  0
POINT
  5
214
330
20B
100
AcDbEntity
  8
DEFPOINTS
 62
     0
100
AcDbPoint
 10
178.9463295718706
 20
195.6066789213956
 30
0.0
  0
POINT
  5
215
330
20B
100
AcDbEntity
  8
DEFPOINTS
 62
     0
100
AcDbPoint
 10
178.9463295718706
 20
187.6066789213956
 30
0.0
  0
ENDBLK
  5
216
330
20B
100
AcDbEntity
  8
0
100
AcDbBlockEnd
  0
BLOCK
  5
219
330
218
100
AcDbEntity
  8
0
100
AcDbBlockBegin
  2
*D3
 70
     1
 10
0.0
 20
0.0
 30
0.0
  3
*D3
  1

  0
LINE
  5
21A
330
218
100
AcDbEntity
  8
SUNPO
 62
     0
370
    -2
100
AcDbLine
 10
181.3471775197706
 20
196.0009622143756
 30
0.0
 11
189.3471775197706
 21
196.0009622143756
 31
0.0
  0
LINE
  5
21B
330
218
100
AcDbEntity
  8
SUNPO
 62
     0
370
    -2
100
AcDbLine
 10
181.3471775197706
 20
211.3009622143755
 30
0.0
 11
189.3471775197706
 21
211.3009622143755
 31
0.0
  0
LINE
  5
21C
330
218
100
AcDbEntity
  8
SUNPO
 62
     0
370
    -2
100
AcDbLine
 10
187.3471775197706
 20
198.0009622143756
 30
0.0
 11
187.3471775197706
 21
209.3009622143755
 31
0.0
  0
INSERT
  5
21D
330
218
100
AcDbEntity
  8
SUNPO
 62
     0
370
    -2
100
AcDbBlockReference
  2
_OPEN30
 10
187.3471775197706
 20
196.0009622143756
 30
0.0
 41
2.0
 42
2.0
 43
2.0
 50
270.0
  0
INSERT
  5
21E
330
218
100
AcDbEntity
  8
SUNPO
 62
     0
370
    -2
100
AcDbBlockReference
  2
_OPEN30
 10
187.3471775197706
 20
211.3009622143755
 30
0.0
 41
2.0
 42
2.0
 43
2.0
 50
90.0
  0
MTEXT
  5
21F
330
218
100
AcDbEntity
  8
SUNPO
 62
     0
100
AcDbMText
 10
185.5971775197706
 20
203.6509622143756
 30
0.0
 40
2.5
 41
0.0
 71
     5
 72
     1
  1
\A1;153
 11
0.0000000000000001
 21
1.0
 31
0.0
 73
     1
 44
1.0
1001
ACAD
1000
MTEXTBEGIN
1070
    73
1070
     1
1070
    44
1040
1.0
1070
    74
1070
     0
1000
MTEXTEND
  0
POINT
  5
220
330
218
100
AcDbEntity
  8
DEFPOINTS
 62
     0
100
AcDbPoint
 10
179.3471775197706
 20
196.0009622143756
 30
0.0
  0
POINT
  5
221
330
218
100
AcDbEntity
  8
DEFPOINTS
 62
     0
100
AcDbPoint
 10
179.3471775197706
 20
211.3009622143755
 30
0.0
  0
POINT
  5
222
330
218
100
AcDbEntity
  8
DEFPOINTS
 62
     0
100
AcDbPoint
 10
187.3471775197706
 20
211.3009622143755
 30
0.0
  0
ENDBLK
  5
223
330
218
100
AcDbEntity
  8
0
100
AcDbBlockEnd
  0
BLOCK
  5
123
330
122
100
AcDbEntity
  8
0
100
AcDbBlockBegin
  2
*D4
 70
     1
 10
0.0
 20
0.0
 30
0.0
  3
*D4
  1

  0
LINE
  5
124
330
122
100
AcDbEntity
  8
SUNPO
 62
     0
370
    -2
100
AcDbLine
 10
229.9144446354199
 20
219.6609622143757
 30
0.0
 11
237.9144446354199
 21
219.6609622143757
 31
0.0
  0
LINE
  5
125
330
122
100
AcDbEntity
  8
SUNPO
 62
     0
370
    -2
100
AcDbLine
 10
229.9144446354199
 20
205.6609622143758
 30
0.0
 11
237.9144446354199
 21
205.6609622143758
 31
0.0
  0
LINE
  5
126
330
122
100
AcDbEntity
  8
SUNPO
 62
     0
370
    -2
100
AcDbLine
 10
235.9144446354199
 20
217.6609622143757
 30
0.0
 11
235.9144446354199
 21
207.6609622143758
 31
0.0
  0
INSERT
  5
127
330
122
100
AcDbEntity
  8
SUNPO
 62
     0
370
    -2
100
AcDbBlockReference
  2
_OPEN30
 10
235.9144446354199
 20
219.6609622143757
 30
0.0
 41
2.0
 42
2.0
 43
2.0
 50
90.0
  0
INSERT
  5
128
330
122
100
AcDbEntity
  8
SUNPO
 62
     0
370
    -2
100
AcDbBlockReference
  2
_OPEN30
 10
235.9144446354199
 20
205.6609622143758
 30
0.0
 41
2.0
 42
2.0
 43
2.0
 50
270.0
  0
MTEXT
  5
129
330
122
100
AcDbEntity
  8
SUNPO
 62
     0
100
AcDbMText
 10
234.1644446354199
 20
212.6609622143758
 30
0.0
 40
2.5
 41
0.0
 71
     5
 72
     1
  1
\A1;φ140
 11
0.0000000000000001
 21
1.0
 31
0.0
 73
     1
 44
1.0
1001
ACAD
1000
MTEXTBEGIN
1070
    73
1070
     1
1070
    44
1040
1.0
1070
    74
1070
     0
1000
MTEXTEND
  0
POINT
  5
12A
330
122
100
AcDbEntity
  8
DEFPOINTS
 62
     0
100
AcDbPoint
 10
227.9144446354199
 20
219.6609622143757
 30
0.0
  0
POINT
  5
12C
330
122
100
AcDbEntity
  8
DEFPOINTS
 62
     0
100
AcDbPoint
 10
227.9144446354199
 20
205.6609622143758
 30
0.0
  0
POINT
  5
12D
330
122
100
AcDbEntity
  8
DEFPOINTS
 62
     0
100
AcDbPoint
 10
235.9144446354199
 20
205.6609622143758
 30
0.0
  0
ENDBLK
  5
12E
330
122
100
AcDbEntity
  8
0
100
AcDbBlockEnd
  0
BLOCK
  5
25C
330
252
100
AcDbEntity
  8
0
100
AcDbBlockBegin
  2
*D5
 70
     1
 10
0.0
 20
0.0
 30
0.0
  3
*D5
  1

  0
LINE
  5
253
330
252
100
AcDbEntity
  8
SUNPO
 62
     0
370
    -2
100
AcDbLine
 10
2.927075210591254
 20
23.23499755674817
 30
0.0
 11
2.927075210591255
 21
31.23499755674817
 31
0.0
  0
LINE
  5
254
330
252
100
AcDbEntity
  8
SUNPO
 62
     0
370
    -2
100
AcDbLine
 10
19.12707521058834
 20
23.23499755674817
 30
0.0
 11
19.12707521058834
 21
31.23499755674817
 31
0.0
  0
LINE
  5
255
330
252
100
AcDbEntity
  8
SUNPO
 62
     0
370
    -2
100
AcDbLine
 10
4.927075210591254
 20
29.23499755674817
 30
0.0
 11
17.12707521058834
 21
29.23499755674817
 31
0.0
  0
INSERT
  5
256
330
252
100
AcDbEntity
  8
SUNPO
 62
     0
370
    -2
100
AcDbBlockReference
  2
_OPEN30
 10
2.927075210591255
 20
29.23499755674817
 30
0.0
 41
2.0
 42
2.0
 43
2.0
 50
180.0
  0
INSERT
  5
257
330
252
100
AcDbEntity
  8
SUNPO
 62
     0
370
    -2
100
AcDbBlockReference
  2
_OPEN30
 10
19.12707521058834
 20
29.23499755674817
 30
0.0
 41
2.0
 42
2.0
 43
2.0
  0
MTEXT
  5
258
330
252
100
AcDbEntity
  8
SUNPO
 62
     0
100
AcDbMText
 10
11.0270752105898
 20
30.98499755674817
 30
0.0
 40
2.5
 41
0.0
 71
     5
 72
     1
  1
\A1;162
 73
     1
 44
1.0
1001
ACAD
1000
MTEXTBEGIN
1070
    73
1070
     1
1070
    44
1040
1.0
1070
    74
1070
     0
1000
MTEXTEND
  0
POINT
  5
259
330
252
100
AcDbEntity
  8
DEFPOINTS
 62
     0
100
AcDbPoint
 10
2.927075210591254
 20
21.23499755674817
 30
0.0
  0
POINT
  5
25A
330
252
100
AcDbEntity
  8
DEFPOINTS
 62
     0
100
AcDbPoint
 10
19.12707521058834
 20
21.23499755674817
 30
0.0
  0
POINT
  5
25B
330
252
100
AcDbEntity
  8
DEFPOINTS
 62
     0
100
AcDbPoint
 10
19.12707521058834
 20
29.23499755674817
 30
0.0
  0
ENDBLK
  5
25D
330
252
100
AcDbEntity
  8
0
100
AcDbBlockEnd
  0
BLOCK
  5
268
330
25E
100
AcDbEntity
  8
0
100
AcDbBlockBegin
  2
*D6
 70
     1
 10
0.0
 20
0.0
 30
0.0
  3
*D6
  1

  0
LINE
  5
25F
330
25E
100
AcDbEntity
  8
SUNPO
 62
     0
370
    -2
100
AcDbLine
 10
-12.97781283598397
 20
5.937715069861495
 30
0.0
 11
-4.977812835983972
 21
5.937715069861493
 31
0.0
  0
LINE
  5
260
330
25E
100
AcDbEntity
  8
SUNPO
 62
     0
370
    -2
100
AcDbLine
 10
-12.97781283598397
 20
21.23771506986145
 30
0.0
 11
-4.977812835983969
 21
21.23771506986145
 31
0.0
  0
LINE
  5
261
330
25E
100
AcDbEntity
  8
SUNPO
 62
     0
370
    -2
100
AcDbLine
 10
-6.977812835983971
 20
7.937715069861494
 30
0.0
 11
-6.977812835983968
 21
19.23771506986145
 31
0.0
  0
INSERT
  5
262
330
25E
100
AcDbEntity
  8
SUNPO
 62
     0
370
    -2
100
AcDbBlockReference
  2
_OPEN30
 10
-6.977812835983971
 20
5.937715069861494
 30
0.0
 41
2.0
 42
2.0
 43
2.0
 50
270.0
  0
INSERT
  5
263
330
25E
100
AcDbEntity
  8
SUNPO
 62
     0
370
    -2
100
AcDbBlockReference
  2
_OPEN30
 10
-6.977812835983968
 20
21.23771506986145
 30
0.0
 41
2.0
 42
2.0
 43
2.0
 50
90.0
  0
MTEXT
  5
264
330
25E
100
AcDbEntity
  8
SUNPO
 62
     0
100
AcDbMText
 10
-8.727812835983973
 20
13.58771506986147
 30
0.0
 40
2.5
 41
0.0
 71
     5
 72
     1
  1
\A1;153
 11
0.0000000000000001
 21
1.0
 31
0.0
 73
     1
 44
1.0
1001
ACAD
1000
MTEXTBEGIN
1070
    73
1070
     1
1070
    44
1040
1.0
1070
    74
1070
     0
1000
MTEXTEND
  0
POINT
  5
265
330
25E
100
AcDbEntity
  8
DEFPOINTS
 62
     0
100
AcDbPoint
 10
-14.97781283598397
 20
5.937715069861496
 30
0.0
  0
POINT
  5
266
330
25E
100
AcDbEntity
  8
DEFPOINTS
 62
     0
100
AcDbPoint
 10
-14.97781283598397
 20
21.23771506986145
 30
0.0
  0
POINT
  5
267
330
25E
100
AcDbEntity
  8
DEFPOINTS
 62
     0
100
AcDbPoint
 10
-6.977812835983968
 20
21.23771506986145
 30
0.0
  0
ENDBLK
  5
269
330
25E
100
AcDbEntity
  8
0
100
AcDbBlockEnd
  0
BLOCK
  5
274
330
26A
100
AcDbEntity
  8
0
100
AcDbBlockBegin
  2
*D7
 70
     1
 10
0.0
 20
0.0
 30
0.0
  3
*D7
  1

  0
LINE
  5
26B
330
26A
100
AcDbEntity
  8
SUNPO
 62
     0
370
    -2
100
AcDbLine
 10
-40.37866066378398
 20
3.543431753101458
 30
0.0
 11
-40.37866066378398
 21
-4.456568223118495
 31
0.0
  0
LINE
  5
26C
330
26A
100
AcDbEntity
  8
SUNPO
 62
     0
370
    -2
100
AcDbLine
 10
-15.37866078388396
 20
3.543431776881504
 30
0.0
 11
-15.37866078388396
 21
-4.456568223118495
 31
0.0
  0
LINE
  5
26D
330
26A
100
AcDbEntity
  8
SUNPO
 62
     0
370
    -2
100
AcDbLine
 10
-38.37866066378399
 20
-2.456568223118495
 30
0.0
 11
-17.37866078388396
 21
-2.456568223118495
 31
0.0
  0
INSERT
  5
26E
330
26A
100
AcDbEntity
  8
SUNPO
 62
     0
370
    -2
100
AcDbBlockReference
  2
_OPEN30
 10
-40.37866066378398
 20
-2.456568223118495
 30
0.0
 41
2.0
 42
2.0
 43
2.0
 50
180.0
  0
INSERT
  5
26F
330
26A
100
AcDbEntity
  8
SUNPO
 62
     0
370
    -2
100
AcDbBlockReference
  2
_OPEN30
 10
-15.37866078388396
 20
-2.456568223118495
 30
0.0
 41
2.0
 42
2.0
 43
2.0
  0
MTEXT
  5
270
330
26A
100
AcDbEntity
  8
SUNPO
 62
     0
100
AcDbMText
 10
-27.87866072383398
 20
-0.7065682231184951
 30
0.0
 40
2.5
 41
0.0
 71
     5
 72
     1
  1
\A1;250
 73
     1
 44
1.0
1001
ACAD
1000
MTEXTBEGIN
1070
    73
1070
     1
1070
    44
1040
1.0
1070
    74
1070
     0
1000
MTEXTEND
  0
POINT
  5
271
330
26A
100
AcDbEntity
  8
DEFPOINTS
 62
     0
100
AcDbPoint
 10
-40.37866066378398
 20
5.543431753101458
 30
0.0
  0
POINT
  5
272
330
26A
100
AcDbEntity
  8
DEFPOINTS
 62
     0
100
AcDbPoint
 10
-15.37866078388396
 20
5.543431776881504
 30
0.0
  0
POINT
  5
273
330
26A
100
AcDbEntity
  8
DEFPOINTS
 62
     0
100
AcDbPoint
 10
-15.37866078388396
 20
-2.456568223118495
 30
0.0
  0
ENDBLK
  5
275
330
26A
100
AcDbEntity
  8
0
100
AcDbBlockEnd
  0
BLOCK
  5
280
330
276
100
AcDbEntity
  8
0
100
AcDbBlockBegin
  2
*D8
 70
     1
 10
0.0
 20
0.0
 30
0.0
  3
*D8
  1

  0
LINE
  5
277
330
276
100
AcDbEntity
  8
SUNPO
 62
     0
370
    -2
100
AcDbLine
 10
35.58945427966535
 20
29.59771506986158
 30
0.0
 11
43.58945427966535
 21
29.59771506986158
 31
0.0
  0
LINE
  5
278
330
276
100
AcDbEntity
  8
SUNPO
 62
     0
370
    -2
100
AcDbLine
 10
35.58945427966535
 20
15.59771506986166
 30
0.0
 11
43.58945427966534
 21
15.59771506986166
 31
0.0
  0
LINE
  5
279
330
276
100
AcDbEntity
  8
SUNPO
 62
     0
370
    -2
100
AcDbLine
 10
41.58945427966535
 20
27.59771506986158
 30
0.0
 11
41.58945427966535
 21
17.59771506986166
 31
0.0
  0
INSERT
  5
27A
330
276
100
AcDbEntity
  8
SUNPO
 62
     0
370
    -2
100
AcDbBlockReference
  2
_OPEN30
 10
41.58945427966535
 20
29.59771506986158
 30
0.0
 41
2.0
 42
2.0
 43
2.0
 50
90.0
  0
INSERT
  5
27B
330
276
100
AcDbEntity
  8
SUNPO
 62
     0
370
    -2
100
AcDbBlockReference
  2
_OPEN30
 10
41.58945427966535
 20
15.59771506986166
 30
0.0
 41
2.0
 42
2.0
 43
2.0
 50
270.0
  0
MTEXT
  5
27C
330
276
100
AcDbEntity
  8
SUNPO
 62
     0
100
AcDbMText
 10
39.83945427966535
 20
22.59771506986163
 30
0.0
 40
2.5
 41
0.0
 71
     5
 72
     1
  1
\A1;φ140
 11
0.0000000000000001
 21
1.0
 31
0.0
 73
     1
 44
1.0
1001
ACAD
1000
MTEXTBEGIN
1070
    73
1070
     1
1070
    44
1040
1.0
1070
    74
1070
     0
1000
MTEXTEND
  0
POINT
  5
27D
330
276
100
AcDbEntity
  8
DEFPOINTS
 62
     0
100
AcDbPoint
 10
33.58945427966535
 20
29.59771506986158
 30
0.0
  0
POINT
  5
27E
330
276
100
AcDbEntity
  8
DEFPOINTS
 62
     0
100
AcDbPoint
 10
33.58945427966535
 20
15.59771506986166
 30
0.0
  0
POINT
  5
27F
330
276
100
AcDbEntity
  8
DEFPOINTS
 62
     0
100
AcDbPoint
 10
41.58945427966535
 20
15.59771506986166
 30
0.0
  0
ENDBLK
  5
281
330
276
100
AcDbEntity
  8
0
100
AcDbBlockEnd
  0
ENDSEC
  0
SECTION
  2
ENTITIES
  0
TEXT
  5
2D
330
2
100
AcDbEntity
  8
MOJI1
100
AcDbText
 10
-35.82499041171355
 20
50.43758798042034
 30
0.0
 40
4.0
  1
１２ｃｍ　コーン形スピーカー（壁取付金具付）
 41
0.95
100
AcDbText
  0
TEXT
  5
2F
330
2
100
AcDbEntity
  8
TOUROKU
100
AcDbText
 10
22.17495962121387
 20
44.43758798042034
 30
0.0
 40
2.0
  1
ＷＳＭ１０＋ＷＳＱ１４７　ＳＰヨコ
 72
     2
 11
62.17495962121387
 21
44.43758798042034
 31
0.0
100
AcDbText
  0
LINE
  5
31
330
2
100
AcDbEntity
  8
GAIKEI
  6
Continuous
100
AcDbLine
 10
32.95707521058825
 20
16.87832235578153
 30
0.0
 11
32.95057521058823
 21
16.87832235578153
 31
0.0
  0
LINE
  5
33
330
2
100
AcDbEntity
  8
GAIKEI
  6
Continuous
100
AcDbLine
 10
31.83707521058824
 20
20.54771506986154
 30
0.0
 11
32.95057521058823
 21
20.54771506986154
 31
0.0
  0
LINE
  5
34
330
2
100
AcDbEntity
  8
GAIKEI
  6
Continuous
100
AcDbLine
 10
32.37707521058826
 20
20.63771506986154
 30
0.0
 11
31.27983821854826
 21
20.63771506986154
 31
0.0
  0
LINE
  5
35
330
2
100
AcDbEntity
  8
GAIKEI
  6
Continuous
100
AcDbLine
 10
32.95707521058825
 20
20.74314558358151
 30
0.0
 11
32.95057521058823
 21
20.74314558358151
 31
0.0
  0
LINE
  5
36
330
2
100
AcDbEntity
  8
GAIKEI
  6
Continuous
 62
     1
100
AcDbLine
 10
31.94613510292828
 20
20.89771506986153
 30
0.0
 11
32.40801531826827
 21
20.89771506986153
 31
0.0
  0
LINE
  5
37
330
2
100
AcDbEntity
  8
GAIKEI
  6
Continuous
 62
     1
100
AcDbLine
 10
31.97707521058823
 20
21.24771506986153
 30
0.0
 11
32.12707521058826
 21
21.24771506986153
 31
0.0
  0
LINE
  5
38
330
2
100
AcDbEntity
  8
GAIKEI
  6
Continuous
 62
     1
100
AcDbLine
 10
32.22707521058822
 20
21.24771506986153
 30
0.0
 11
32.37707521058826
 21
21.24771506986156
 31
0.0
  0
LINE
  5
39
330
2
100
AcDbEntity
  8
GAIKEI
  6
Continuous
 62
     1
100
AcDbLine
 10
32.37707521058826
 20
21.34771506986155
 30
0.0
 11
32.22707521058822
 21
21.34771506986155
 31
0.0
  0
LINE
  5
3A
330
2
100
AcDbEntity
  8
GAIKEI
  6
Continuous
 62
     1
100
AcDbLine
 10
32.12707521058826
 20
21.34771506986155
 30
0.0
 11
31.97707521058823
 21
21.34771506986152
 31
0.0
  0
LINE
  5
3B
330
2
100
AcDbEntity
  8
GAIKEI
  6
Continuous
 62
     1
100
AcDbLine
 10
31.94613510292828
 20
21.69771506986155
 30
0.0
 11
32.40801531826827
 21
21.69771506986155
 31
0.0
  0
LINE
  5
3C
330
2
100
AcDbEntity
  8
GAIKEI
  6
Continuous
 62
     1
100
AcDbLine
 10
31.94613510292828
 20
22.19771506986154
 30
0.0
 11
32.40801531826827
 21
22.19771506986154
 31
0.0
  0
LINE
  5
3D
330
2
100
AcDbEntity
  8
GAIKEI
  6
Continuous
 62
     1
100
AcDbLine
 10
31.97707521058823
 20
22.54771506986154
 30
0.0
 11
32.12707521058826
 21
22.54771506986154
 31
0.0
  0
LINE
  5
3E
330
2
100
AcDbEntity
  8
GAIKEI
  6
Continuous
 62
     1
100
AcDbLine
 10
32.22707521058822
 20
22.54771506986154
 30
0.0
 11
32.37707521058826
 21
22.54771506986157
 31
0.0
  0
LINE
  5
3F
330
2
100
AcDbEntity
  8
GAIKEI
  6
Continuous
 62
     1
100
AcDbLine
 10
32.37707521058826
 20
22.64771506986154
 30
0.0
 11
32.22707521058822
 21
22.64771506986154
 31
0.0
  0
LINE
  5
40
330
2
100
AcDbEntity
  8
GAIKEI
  6
Continuous
 62
     1
100
AcDbLine
 10
32.12707521058826
 20
22.64771506986154
 30
0.0
 11
31.97707521058823
 21
22.64771506986154
 31
0.0
  0
LINE
  5
41
330
2
100
AcDbEntity
  8
GAIKEI
  6
Continuous
 62
     1
100
AcDbLine
 10
31.94613510292828
 20
22.99771506986153
 30
0.0
 11
32.40801531826827
 21
22.99771506986153
 31
0.0
  0
LINE
  5
42
330
2
100
AcDbEntity
  8
GAIKEI
  6
Continuous
 62
     1
100
AcDbLine
 10
31.94613510292828
 20
23.49771506986153
 30
0.0
 11
32.40801531826827
 21
23.49771506986153
 31
0.0
  0
LINE
  5
43
330
2
100
AcDbEntity
  8
GAIKEI
  6
Continuous
 62
     1
100
AcDbLine
 10
31.97707521058823
 20
23.84771506986152
 30
0.0
 11
32.12707521058826
 21
23.84771506986152
 31
0.0
  0
LINE
  5
44
330
2
100
AcDbEntity
  8
GAIKEI
  6
Continuous
 62
     1
100
AcDbLine
 10
32.22707521058822
 20
23.84771506986152
 30
0.0
 11
32.37707521058826
 21
23.84771506986152
 31
0.0
  0
LINE
  5
45
330
2
100
AcDbEntity
  8
GAIKEI
  6
Continuous
 62
     1
100
AcDbLine
 10
32.37707521058826
 20
23.94771506986154
 30
0.0
 11
32.22707521058822
 21
23.94771506986154
 31
0.0
  0
LINE
  5
46
330
2
100
AcDbEntity
  8
GAIKEI
  6
Continuous
 62
     1
100
AcDbLine
 10
32.12707521058826
 20
23.94771506986154
 30
0.0
 11
31.97707521058823
 21
23.94771506986154
 31
0.0
  0
LINE
  5
47
330
2
100
AcDbEntity
  8
GAIKEI
  6
Continuous
 62
     1
100
AcDbLine
 10
31.94613510292828
 20
24.29771506986154
 30
0.0
 11
32.40801531826827
 21
24.29771506986154
 31
0.0
  0
LINE
  5
48
330
2
100
AcDbEntity
  8
GAIKEI
  6
Continuous
100
AcDbLine
 10
32.95707521058825
 20
24.64771506986156
 30
0.0
 11
32.72327765200828
 21
24.64771506986153
 31
0.0
  0
LINE
  5
49
330
2
100
AcDbEntity
  8
GAIKEI
  6
Continuous
100
AcDbLine
 10
31.29876637032822
 20
24.78771506986155
 30
0.0
 11
32.37707521058826
 21
24.78771506986155
 31
0.0
  0
LINE
  5
4A
330
2
100
AcDbEntity
  8
GAIKEI
  6
Continuous
 62
     1
100
AcDbLine
 10
31.94613510292828
 20
24.29771506986154
 30
0.0
 11
31.71519499524829
 21
23.89771506986154
 31
0.0
  0
LINE
  5
4B
330
2
100
AcDbEntity
  8
GAIKEI
  6
Continuous
 62
     1
100
AcDbLine
 10
31.94613510292828
 20
22.99771506986153
 30
0.0
 11
31.71519499524829
 21
22.59771506986155
 31
0.0
  0
LINE
  5
4C
330
2
100
AcDbEntity
  8
GAIKEI
  6
Continuous
 62
     1
100
AcDbLine
 10
32.40801531826827
 20
23.49771506986153
 30
0.0
 11
32.63895542594827
 21
23.89771506986154
 31
0.0
  0
LINE
  5
4D
330
2
100
AcDbEntity
  8
GAIKEI
  6
Continuous
 62
     1
100
AcDbLine
 10
31.94613510292828
 20
21.69771506986155
 30
0.0
 11
31.71519499524829
 21
21.29771506986154
 31
0.0
  0
LINE
  5
4E
330
2
100
AcDbEntity
  8
GAIKEI
  6
Continuous
 62
     1
100
AcDbLine
 10
32.40801531826827
 20
22.19771506986154
 30
0.0
 11
32.63895542594827
 21
22.59771506986152
 31
0.0
  0
LINE
  5
4F
330
2
100
AcDbEntity
  8
GAIKEI
  6
Continuous
 62
     1
100
AcDbLine
 10
31.71519499524829
 20
21.29771506986154
 30
0.0
 11
31.94613510292828
 21
20.89771506986153
 31
0.0
  0
LINE
  5
50
330
2
100
AcDbEntity
  8
GAIKEI
  6
Continuous
 62
     1
100
AcDbLine
 10
31.71519499524829
 20
22.59771506986155
 30
0.0
 11
31.94613510292828
 21
22.19771506986154
 31
0.0
  0
LINE
  5
51
330
2
100
AcDbEntity
  8
GAIKEI
  6
Continuous
 62
     1
100
AcDbLine
 10
32.63895542594827
 20
21.29771506986154
 30
0.0
 11
32.40801531826827
 21
21.69771506986155
 31
0.0
  0
LINE
  5
52
330
2
100
AcDbEntity
  8
GAIKEI
  6
Continuous
 62
     1
100
AcDbLine
 10
31.71519499524829
 20
23.89771506986154
 30
0.0
 11
31.94613510292828
 21
23.49771506986153
 31
0.0
  0
LINE
  5
53
330
2
100
AcDbEntity
  8
GAIKEI
  6
Continuous
 62
     1
100
AcDbLine
 10
32.63895542594827
 20
22.59771506986152
 30
0.0
 11
32.40801531826827
 21
22.99771506986153
 31
0.0
  0
LINE
  5
54
330
2
100
AcDbEntity
  8
GAIKEI
  6
Continuous
100
AcDbLine
 10
31.27983821854826
 20
20.50771506986152
 30
0.0
 11
31.27983821854826
 21
20.63771506986154
 31
0.0
  0
LINE
  5
55
330
2
100
AcDbEntity
  8
GAIKEI
  6
Continuous
100
AcDbLine
 10
31.37707521058826
 20
24.78771506986155
 30
0.0
 11
31.37707521058826
 21
20.63771506986154
 31
0.0
  0
LINE
  5
56
330
2
100
AcDbEntity
  8
GAIKEI
  6
Continuous
 62
     1
100
AcDbLine
 10
31.97707521058823
 20
23.94771506986154
 30
0.0
 11
31.97707521058823
 21
23.84771506986152
 31
0.0
  0
LINE
  5
57
330
2
100
AcDbEntity
  8
GAIKEI
  6
Continuous
 62
     1
100
AcDbLine
 10
31.97707521058823
 20
22.64771506986154
 30
0.0
 11
31.97707521058823
 21
22.54771506986154
 31
0.0
  0
LINE
  5
58
330
2
100
AcDbEntity
  8
GAIKEI
  6
Continuous
 62
     1
100
AcDbLine
 10
31.97707521058823
 20
21.34771506986152
 30
0.0
 11
31.97707521058823
 21
21.24771506986153
 31
0.0
  0
LINE
  5
59
330
2
100
AcDbEntity
  8
GAIKEI
  6
Continuous
 62
     1
100
AcDbLine
 10
32.12707521058826
 20
24.29771506986154
 30
0.0
 11
32.12707521058826
 21
23.94771506986154
 31
0.0
  0
LINE
  5
5A
330
2
100
AcDbEntity
  8
GAIKEI
  6
Continuous
 62
     1
100
AcDbLine
 10
32.12707521058826
 20
23.84771506986152
 30
0.0
 11
32.12707521058826
 21
23.49771506986153
 31
0.0
  0
LINE
  5
5B
330
2
100
AcDbEntity
  8
GAIKEI
  6
Continuous
 62
     1
100
AcDbLine
 10
32.12707521058826
 20
22.99771506986153
 30
0.0
 11
32.12707521058826
 21
22.64771506986154
 31
0.0
  0
LINE
  5
5C
330
2
100
AcDbEntity
  8
GAIKEI
  6
Continuous
 62
     1
100
AcDbLine
 10
32.12707521058826
 20
22.54771506986154
 30
0.0
 11
32.12707521058826
 21
22.19771506986154
 31
0.0
  0
LINE
  5
5D
330
2
100
AcDbEntity
  8
GAIKEI
  6
Continuous
 62
     1
100
AcDbLine
 10
32.12707521058826
 20
21.69771506986155
 30
0.0
 11
32.12707521058826
 21
21.34771506986155
 31
0.0
  0
LINE
  5
5E
330
2
100
AcDbEntity
  8
GAIKEI
  6
Continuous
 62
     1
100
AcDbLine
 10
32.12707521058826
 20
21.24771506986153
 30
0.0
 11
32.12707521058826
 21
20.89771506986156
 31
0.0
  0
LINE
  5
5F
330
2
100
AcDbEntity
  8
GAIKEI
  6
Continuous
 62
     1
100
AcDbLine
 10
32.22707521058822
 20
24.29771506986154
 30
0.0
 11
32.22707521058822
 21
23.94771506986154
 31
0.0
  0
LINE
  5
60
330
2
100
AcDbEntity
  8
GAIKEI
  6
Continuous
 62
     1
100
AcDbLine
 10
32.22707521058822
 20
23.84771506986152
 30
0.0
 11
32.22707521058822
 21
23.49771506986153
 31
0.0
  0
LINE
  5
61
330
2
100
AcDbEntity
  8
GAIKEI
  6
Continuous
 62
     1
100
AcDbLine
 10
32.22707521058822
 20
22.99771506986153
 30
0.0
 11
32.22707521058822
 21
22.64771506986154
 31
0.0
  0
LINE
  5
62
330
2
100
AcDbEntity
  8
GAIKEI
  6
Continuous
 62
     1
100
AcDbLine
 10
32.22707521058822
 20
22.54771506986154
 30
0.0
 11
32.22707521058822
 21
22.19771506986154
 31
0.0
  0
LINE
  5
63
330
2
100
AcDbEntity
  8
GAIKEI
  6
Continuous
 62
     1
100
AcDbLine
 10
32.22707521058822
 20
21.69771506986155
 30
0.0
 11
32.22707521058822
 21
21.34771506986155
 31
0.0
  0
LINE
  5
64
330
2
100
AcDbEntity
  8
GAIKEI
  6
Continuous
 62
     1
100
AcDbLine
 10
32.22707521058822
 20
21.24771506986153
 30
0.0
 11
32.22707521058828
 21
20.89771506986156
 31
0.0
  0
LINE
  5
65
330
2
100
AcDbEntity
  8
GAIKEI
  6
Continuous
 62
     1
100
AcDbLine
 10
32.37707521058826
 20
21.24771506986156
 30
0.0
 11
32.37707521058826
 21
21.34771506986155
 31
0.0
  0
LINE
  5
66
330
2
100
AcDbEntity
  8
GAIKEI
  6
Continuous
 62
     1
100
AcDbLine
 10
32.37707521058826
 20
22.54771506986157
 30
0.0
 11
32.37707521058826
 21
22.64771506986154
 31
0.0
  0
LINE
  5
67
330
2
100
AcDbEntity
  8
GAIKEI
  6
Continuous
 62
     1
100
AcDbLine
 10
32.37707521058826
 20
23.84771506986152
 30
0.0
 11
32.37707521058826
 21
23.94771506986154
 31
0.0
  0
LINE
  5
68
330
2
100
AcDbEntity
  8
GAIKEI
  6
Continuous
 62
     1
100
AcDbLine
 10
32.40801531826827
 20
20.89771506986153
 30
0.0
 11
32.63895542594827
 21
21.29771506986154
 31
0.0
  0
LINE
  5
69
330
2
100
AcDbEntity
  8
GAIKEI
  6
Continuous
 62
     1
100
AcDbLine
 10
32.63895542594827
 20
23.89771506986154
 30
0.0
 11
32.40801531826827
 21
24.29771506986154
 31
0.0
  0
LINE
  5
6A
330
2
100
AcDbEntity
  8
GAIKEI
  6
Continuous
100
AcDbLine
 10
32.87707521058826
 20
24.28771506986155
 30
0.0
 11
32.87707521058826
 21
21.13771506986154
 31
0.0
  0
LINE
  5
6B
330
2
100
AcDbEntity
  8
GAIKEI
  6
Continuous
100
AcDbLine
 10
32.95057521058823
 20
16.87832235578153
 30
0.0
 11
32.95057521058823
 21
20.74314558358151
 31
0.0
  0
LINE
  5
6C
330
2
100
AcDbEntity
  8
GAIKEI
  6
Continuous
100
AcDbLine
 10
32.95707521058825
 20
15.59771896552149
 30
0.0
 11
32.95707521058825
 21
29.59771117418148
 31
0.0
  0
LINE
  5
6D
330
2
100
AcDbEntity
  8
GAIKEI
  6
Continuous
100
AcDbLine
 10
33.27707521058824
 20
15.59771896552149
 30
0.0
 11
33.27707521058824
 21
29.59771117418154
 31
0.0
  0
LINE
  5
6E
330
2
100
AcDbEntity
  8
GAIKEI
  6
Continuous
100
AcDbLine
 10
33.27707521058824
 20
29.59771506986152
 30
0.0
 11
32.95707521058825
 21
29.59771506986152
 31
0.0
  0
LINE
  5
6F
330
2
100
AcDbEntity
  8
GAIKEI
  6
Continuous
100
AcDbLine
 10
33.27707521058824
 20
15.59771506986149
 30
0.0
 11
32.95707521058825
 21
15.59771506986149
 31
0.0
  0
ARC
  5
70
330
2
100
AcDbEntity
  8
GAIKEI
  6
Continuous
 62
     1
100
AcDbCircle
 10
32.17707521058827
 20
23.89771506986156
 30
0.0
 40
0.4118802153600892
100
AcDbArc
 50
283.7947482709901
 51
316.2052517289905
  0
ARC
  5
71
330
2
100
AcDbEntity
  8
GAIKEI
  6
Continuous
 62
     1
100
AcDbCircle
 10
32.17707521058827
 20
23.89771506986156
 30
0.0
 40
0.4118802153599496
100
AcDbArc
 50
163.7947482709991
 51
196.2052517290143
  0
ARC
  5
72
330
2
100
AcDbEntity
  8
GAIKEI
  6
Continuous
 62
     1
100
AcDbCircle
 10
32.17707521058827
 20
23.89771506986156
 30
0.0
 40
0.4118802153600361
100
AcDbArc
 50
43.79474827099626
 51
76.20525172900659
  0
ARC
  5
73
330
2
100
AcDbEntity
  8
GAIKEI
  6
Continuous
 62
     1
100
AcDbCircle
 10
32.17707521058827
 20
23.89771506986156
 30
0.0
 40
0.4118802153600355
100
AcDbArc
 50
223.7947482710089
 51
256.20525172901
  0
ARC
  5
74
330
2
100
AcDbEntity
  8
GAIKEI
  6
Continuous
 62
     1
100
AcDbCircle
 10
32.17707521058827
 20
23.89771506986156
 30
0.0
 40
0.4118802153599779
100
AcDbArc
 50
343.7947482709991
 51
16.20525172900087
  0
ARC
  5
75
330
2
100
AcDbEntity
  8
GAIKEI
  6
Continuous
 62
     1
100
AcDbCircle
 10
32.17707521058827
 20
23.89771506986156
 30
0.0
 40
0.4118802153600396
100
AcDbArc
 50
103.79474827099
 51
136.2052517290009
  0
ARC
  5
76
330
2
100
AcDbEntity
  8
GAIKEI
  6
Continuous
 62
     1
100
AcDbCircle
 10
32.17707521058827
 20
22.59771506986155
 30
0.0
 40
0.4118802153600892
100
AcDbArc
 50
283.7947482709901
 51
316.2052517290003
  0
ARC
  5
77
330
2
100
AcDbEntity
  8
GAIKEI
  6
Continuous
 62
     1
100
AcDbCircle
 10
32.17707521058827
 20
22.59771506986155
 30
0.0
 40
0.4118802153599559
100
AcDbArc
 50
163.7947482709991
 51
196.2052517290143
  0
ARC
  5
78
330
2
100
AcDbEntity
  8
GAIKEI
  6
Continuous
 62
     1
100
AcDbCircle
 10
32.17707521058827
 20
22.59771506986155
 30
0.0
 40
0.4118802153600202
100
AcDbArc
 50
43.79474827099566
 51
76.20525172900659
  0
ARC
  5
79
330
2
100
AcDbEntity
  8
GAIKEI
  6
Continuous
 62
     1
100
AcDbCircle
 10
32.17707521058827
 20
22.59771506986155
 30
0.0
 40
0.4118802153600436
100
AcDbArc
 50
223.7947482710089
 51
256.2052517290133
  0
ARC
  5
7A
330
2
100
AcDbEntity
  8
GAIKEI
  6
Continuous
 62
     1
100
AcDbCircle
 10
32.17707521058827
 20
22.59771506986155
 30
0.0
 40
0.4118802153599842
100
AcDbArc
 50
343.7947482709865
 51
16.20525172900087
  0
ARC
  5
7B
330
2
100
AcDbEntity
  8
GAIKEI
  6
Continuous
 62
     1
100
AcDbCircle
 10
32.17707521058827
 20
22.59771506986155
 30
0.0
 40
0.4118802153600396
100
AcDbArc
 50
103.79474827099
 51
136.2052517290037
  0
ARC
  5
7C
330
2
100
AcDbEntity
  8
GAIKEI
  6
Continuous
 62
     1
100
AcDbCircle
 10
32.17707521058827
 20
21.29771506986154
 30
0.0
 40
0.4118802153600671
100
AcDbArc
 50
283.7947482709934
 51
316.2052517290038
  0
ARC
  5
7D
330
2
100
AcDbEntity
  8
GAIKEI
  6
Continuous
 62
     1
100
AcDbCircle
 10
32.17707521058827
 20
21.29771506986154
 30
0.0
 40
0.4118802153599623
100
AcDbArc
 50
163.7947482709857
 51
196.2052517290009
  0
ARC
  5
7E
330
2
100
AcDbEntity
  8
GAIKEI
  6
Continuous
 62
     1
100
AcDbCircle
 10
32.17707521058827
 20
21.29771506986154
 30
0.0
 40
0.4118802153600279
100
AcDbArc
 50
43.7947482709991
 51
76.20525172900659
  0
ARC
  5
7F
330
2
100
AcDbEntity
  8
GAIKEI
  6
Continuous
 62
     1
100
AcDbCircle
 10
32.17707521058827
 20
21.29771506986154
 30
0.0
 40
0.4118802153600196
100
AcDbArc
 50
223.7947482709991
 51
256.20525172901
  0
ARC
  5
80
330
2
100
AcDbEntity
  8
GAIKEI
  6
Continuous
 62
     1
100
AcDbCircle
 10
32.17707521058827
 20
21.29771506986154
 30
0.0
 40
0.4118802153599779
100
AcDbArc
 50
343.7947482709991
 51
16.20525172900087
  0
ARC
  5
81
330
2
100
AcDbEntity
  8
GAIKEI
  6
Continuous
 62
     1
100
AcDbCircle
 10
32.17707521058827
 20
21.29771506986154
 30
0.0
 40
0.4118802153600616
100
AcDbArc
 50
103.79474827099
 51
136.2052517290009
  0
ARC
  5
82
330
2
100
AcDbEntity
  8
GAIKEI
  6
Continuous
100
AcDbCircle
 10
31.83707521058824
 20
21.04771506986157
 30
0.0
 40
0.5000000000000109
100
AcDbArc
 50
235.2486960393159
 51
269.9999999999968
  0
ARC
  5
83
330
2
100
AcDbEntity
  8
GAIKEI
  6
Continuous
100
AcDbCircle
 10
32.37707521058826
 20
24.28771506986155
 30
0.0
 40
0.5
100
AcDbArc
 50
0.0
 51
90.0
  0
ARC
  5
84
330
2
100
AcDbEntity
  8
GAIKEI
  6
Continuous
100
AcDbCircle
 10
32.37707521058826
 20
21.13771506986154
 30
0.0
 40
0.5000000000000227
100
AcDbArc
 50
270.0
 51
0.0
  0
CIRCLE
  5
85
330
2
100
AcDbEntity
  8
GAIKEI
  6
Continuous
 62
     1
100
AcDbCircle
 10
32.17707521058827
 20
23.89771506986156
 30
0.0
 40
0.6000000000000001
  0
CIRCLE
  5
86
330
2
100
AcDbEntity
  8
GAIKEI
  6
Continuous
 62
     1
100
AcDbCircle
 10
32.17707521058827
 20
22.59771506986155
 30
0.0
 40
0.6000000000000001
  0
CIRCLE
  5
87
330
2
100
AcDbEntity
  8
GAIKEI
  6
Continuous
 62
     1
100
AcDbCircle
 10
32.17707521058827
 20
21.29771506986154
 30
0.0
 40
0.6000000000000001
  0
SPLINE
  5
88
330
2
100
AcDbEntity
  8
GAIKEI
  6
Continuous
100
AcDbSpline
210
0.0
220
0.0
230
1.0
 70
     8
 71
     3
 72
    23
 73
    19
 74
    17
 42
0.0000000001
 43
0.0000000001
 44
0.00000001
 40
0.0
 40
0.0
 40
0.0
 40
0.0
 40
0.0494853186459302
 40
0.0989705072645139
 40
0.1222759430500912
 40
0.1455810540629148
 40
0.1672073987971603
 40
0.188834580935104
 40
0.2083056772640346
 40
0.2277735696947154
 40
0.2446761897961632
 40
0.2615881138567397
 40
0.2756457974512801
 40
0.289676271834063
 40
0.3006808288094221
 40
0.3117592675905724
 40
0.3261624473446233
 40
0.3404087057838787
 40
0.3404087057838787
 40
0.3404087057838787
 40
0.3404087057838787
 10
31.27983821854826
 20
20.50771506986155
 30
0.0
 10
31.27966779592905
 20
20.49121915341388
 30
0.0
 10
31.27932695974323
 20
20.45822736371008
 30
0.0
 10
31.27699263372452
 20
20.41751903253063
 30
0.0
 10
31.27427025105087
 20
20.38560208170915
 30
0.0
 10
31.27184505187984
 20
20.36298392894889
 30
0.0
 10
31.26898807320697
 20
20.34098056502518
 30
0.0
 10
31.26578123501349
 20
20.32031725647687
 30
0.0
 10
31.26215422248535
 20
20.3004544188529
 30
0.0
 10
31.25825135971215
 20
20.28225091569522
 30
0.0
 10
31.2539459623323
 20
20.26501570741621
 30
0.0
 10
31.24944774456947
 20
20.24970096302138
 30
0.0
 10
31.24456254003593
 20
20.23550850785995
 30
0.0
 10
31.2395968781575
 20
20.22346338741607
 30
0.0
 10
31.23426296718645
 20
20.21262061360909
 30
0.0
 10
31.22780797769133
 20
20.2024301771321
 30
0.0
 10
31.21932674933638
 20
20.19148456592379
 30
0.0
 10
31.20984874514724
 20
20.1889669761656
 30
0.0
 10
31.20513570212831
 20
20.1877150698615
 30
0.0
 11
31.27983821854826
 21
20.50771506986155
 31
0.0
 11
31.27893980902053
 21
20.45823791533056
 31
0.0
 11
31.27618201716837
 21
20.40882963166152
 31
0.0
 11
31.27418620779332
 21
20.38560981076731
 31
0.0
 11
31.27169613162835
 21
20.36243810994154
 31
0.0
 11
31.26889942147688
 21
20.3409933623949
 31
0.0
 11
31.26557130744834
 21
20.31962378912149
 31
0.0
 11
31.26205659770102
 21
20.30047253838029
 31
0.0
 11
31.25795835806826
 21
20.28144089988146
 31
0.0
 11
31.25383552265743
 21
20.26504880450915
 31
0.0
 11
31.24904473958833
 21
20.24882963166147
 31
0.0
 11
31.24442968330374
 21
20.23555108812346
 31
0.0
 11
31.23904993488833
 21
20.2225929821216
 31
0.0
 11
31.23411365056842
 21
20.21275767000168
 31
0.0
 11
31.22822004922824
 21
20.20337698464152
 31
0.0
 11
31.21844355768525
 21
20.19280004174314
 31
0.0
 11
31.20513570212831
 21
20.1877150698615
 31
0.0
  0
SPLINE
  5
89
330
2
100
AcDbEntity
  8
GAIKEI
  6
Continuous
100
AcDbSpline
210
0.0
220
0.0
230
1.0
 70
     8
 71
     3
 72
     9
 73
     5
 74
     3
 42
0.0000000001
 43
0.0000000001
 44
0.00000001
 40
0.0
 40
0.0
 40
0.0
 40
0.0
 40
0.0924767185226722
 40
0.1849515983897559
 40
0.1849515983897559
 40
0.1849515983897559
 40
0.1849515983897559
 10
31.11820180912827
 20
24.75195341530153
 30
0.0
 10
31.14742107583618
 20
24.76233237946718
 30
0.0
 10
31.20585903310374
 20
24.78309008219574
 30
0.0
 10
31.26779746220331
 20
24.78617342406403
 30
0.0
 10
31.29876637032828
 20
24.78771506986155
 30
0.0
 11
31.11820180912827
 21
24.75195341530153
 31
0.0
 11
31.20673474746667
 21
24.77867162029494
 31
0.0
 11
31.29876637032828
 21
24.78771506986155
 31
0.0
  0
LINE
  5
8A
330
2
100
AcDbEntity
  8
GAIKEI
  6
Continuous
100
AcDbLine
 10
20.02707931414824
 20
20.18771506986153
 30
0.0
 11
31.20513570212831
 21
20.1877150698615
 31
0.0
  0
LINE
  5
8B
330
2
100
AcDbEntity
  8
GAIKEI
  6
Continuous
100
AcDbLine
 10
22.75942681754822
 20
21.31343693458155
 30
0.0
 11
31.11820180912827
 21
24.7519534153015
 31
0.0
  0
LINE
  5
8C
330
2
100
AcDbEntity
  8
GAIKEI
  6
Continuous
100
AcDbLine
 10
26.49949159596827
 20
17.49519901692156
 30
0.0
 11
27.33278931954823
 21
16.21203304796148
 31
0.0
  0
LINE
  5
8D
330
2
100
AcDbEntity
  8
GAIKEI
  6
Continuous
100
AcDbLine
 10
25.07707521058825
 20
19.79673052054156
 30
0.0
 11
25.07707521058825
 21
19.83345100114155
 31
0.0
  0
LINE
  5
8E
330
2
100
AcDbEntity
  8
GAIKEI
  6
Continuous
 62
     1
100
AcDbLine
 10
24.61625282454827
 20
17.62873164800152
 30
0.0
 11
24.73675442356825
 21
18.19564709896153
 31
0.0
  0
LINE
  5
8F
330
2
100
AcDbEntity
  8
GAIKEI
  6
Continuous
100
AcDbLine
 10
24.89559509130828
 20
18.94293368704154
 30
0.0
 11
25.07707521058825
 21
19.79673052054156
 31
0.0
  0
LINE
  5
90
330
2
100
AcDbEntity
  8
GAIKEI
  6
Continuous
100
AcDbLine
 10
25.1649431762483
 20
20.04558303550155
 30
0.0
 11
25.27920724494828
 21
20.15984710420153
 31
0.0
  0
LINE
  5
91
330
2
100
AcDbEntity
  8
GAIKEI
  6
Continuous
100
AcDbLine
 10
21.17762228636826
 20
12.21482083922149
 30
0.0
 11
27.33278931954823
 21
16.21203304796148
 31
0.0
  0
ARC
  5
92
330
2
100
AcDbEntity
  8
GAIKEI
  6
Continuous
100
AcDbCircle
 10
25.37707521058826
 20
19.83345100114155
 30
0.0
 40
0.2999999999915435
100
AcDbArc
 50
134.9999999973009
 51
180.0
  0
ARC
  5
93
330
2
100
AcDbEntity
  8
GAIKEI
  6
Continuous
100
AcDbCircle
 10
25.06707521058826
 20
20.37197913856153
 30
0.0
 40
0.300000000005708
100
AcDbArc
 50
315.0000000000046
 51
322.0143891912149
  0
ARC
  5
94
330
2
100
AcDbEntity
  8
GAIKEI
  6
Continuous
100
AcDbCircle
 10
22.97707521058828
 20
15.20771506986159
 30
0.0
 40
2.925000000000038
100
AcDbArc
 50
33.00000000000041
 51
68.20106959660297
  0
ARC
  5
95
330
2
100
AcDbEntity
  8
GAIKEI
  6
Continuous
100
AcDbCircle
 10
22.97707521058828
 20
15.20771506986159
 30
0.0
 40
3.475000000000009
100
AcDbArc
 50
33.00000000000041
 51
68.91664331840184
  0
ARC
  5
96
330
2
100
AcDbEntity
  8
GAIKEI
  6
Continuous
100
AcDbCircle
 10
22.97707521058828
 20
15.20771506986159
 30
0.0
 40
4.200000000006035
100
AcDbArc
 50
32.99999999989335
 51
77.99999999993379
  0
ARC
  5
97
330
2
100
AcDbEntity
  8
GAIKEI
  6
Continuous
100
AcDbCircle
 10
25.66082102802824
 20
16.95055998190156
 30
0.0
 40
0.2750000000078134
100
AcDbArc
 50
212.999999996926
 51
33.00000000306167
  0
LINE
  5
98
330
2
100
AcDbEntity
  8
GAIKEI
  6
Continuous
 62
     1
100
AcDbLine
 10
20.43894278226827
 20
11.67771506986148
 30
0.0
 11
20.07707521058825
 21
11.67771506986148
 31
0.0
  0
LINE
  5
99
330
2
100
AcDbEntity
  8
GAIKEI
  6
Continuous
 62
     1
100
AcDbLine
 10
19.97707521058828
 20
11.67771506986148
 30
0.0
 11
19.61520763892827
 21
11.67771506986148
 31
0.0
  0
LINE
  5
9A
330
2
100
AcDbEntity
  8
GAIKEI
  6
Continuous
 62
     1
100
AcDbLine
 10
19.97707521058828
 20
11.85771506986148
 30
0.0
 11
20.07707521058825
 21
11.85771506986148
 31
0.0
  0
LINE
  5
9B
330
2
100
AcDbEntity
  8
GAIKEI
  6
Continuous
 62
     1
100
AcDbLine
 10
19.42707521058827
 20
12.10771506986148
 30
0.0
 11
20.62707521058826
 21
12.10771506986148
 31
0.0
  0
LINE
  5
9C
330
2
100
AcDbEntity
  8
GAIKEI
  6
Continuous
100
AcDbLine
 10
19.12707521058826
 20
12.17771506986148
 30
0.0
 11
21.05235530832829
 21
12.17771506986148
 31
0.0
  0
LINE
  5
9D
330
2
100
AcDbEntity
  8
GAIKEI
  6
Continuous
 62
     1
100
AcDbLine
 10
21.05235530832829
 20
12.40771506986149
 30
0.0
 11
20.74022197032826
 21
12.40771506986149
 31
0.0
  0
LINE
  5
9E
330
2
100
AcDbEntity
  8
GAIKEI
  6
Continuous
 62
     1
100
AcDbLine
 10
19.79613510292825
 20
12.98771506986148
 30
0.0
 11
20.25801531826829
 21
12.98771506986148
 31
0.0
  0
LINE
  5
9F
330
2
100
AcDbEntity
  8
GAIKEI
  6
Continuous
 62
     1
100
AcDbLine
 10
19.82707521058825
 20
13.33771506986147
 30
0.0
 11
19.97707521058828
 21
13.33771506986147
 31
0.0
  0
LINE
  5
A0
330
2
100
AcDbEntity
  8
GAIKEI
  6
Continuous
 62
     1
100
AcDbLine
 10
20.07707521058825
 20
13.33771506986147
 30
0.0
 11
20.22707521058828
 21
13.33771506986147
 31
0.0
  0
LINE
  5
A1
330
2
100
AcDbEntity
  8
GAIKEI
  6
Continuous
 62
     1
100
AcDbLine
 10
20.22707521058828
 20
13.43771506986149
 30
0.0
 11
20.07707521058825
 21
13.43771506986149
 31
0.0
  0
LINE
  5
A2
330
2
100
AcDbEntity
  8
GAIKEI
  6
Continuous
 62
     1
100
AcDbLine
 10
19.97707521058828
 20
13.43771506986149
 30
0.0
 11
19.82707521058825
 21
13.43771506986149
 31
0.0
  0
LINE
  5
A3
330
2
100
AcDbEntity
  8
GAIKEI
  6
Continuous
 62
     1
100
AcDbLine
 10
19.79613510292825
 20
13.78771506986149
 30
0.0
 11
20.25801531826829
 21
13.78771506986149
 31
0.0
  0
LINE
  5
A4
330
2
100
AcDbEntity
  8
GAIKEI
  6
Continuous
 62
     1
100
AcDbLine
 10
19.56519499524825
 20
11.69591358156148
 30
0.0
 11
19.61519499524826
 21
11.67771506986148
 31
0.0
  0
LINE
  5
A5
330
2
100
AcDbEntity
  8
GAIKEI
  6
Continuous
 62
     1
100
AcDbLine
 10
19.56519499524825
 20
12.0179372098215
 30
0.0
 11
19.42707521058827
 21
12.10771506986148
 31
0.0
  0
LINE
  5
A6
330
2
100
AcDbEntity
  8
GAIKEI
  6
Continuous
 62
     1
100
AcDbLine
 10
22.74613510292823
 20
14.80771506986158
 30
0.0
 11
23.20801531826828
 21
14.80771506986158
 31
0.0
  0
LINE
  5
A7
330
2
100
AcDbEntity
  8
GAIKEI
  6
Continuous
 62
     1
100
AcDbLine
 10
23.20801531826828
 20
15.6077150698616
 30
0.0
 11
22.74613510292823
 21
15.60771506986148
 31
0.0
  0
LINE
  5
A8
330
2
100
AcDbEntity
  8
GAIKEI
  6
Continuous
 62
     1
100
AcDbLine
 10
21.83707521058824
 20
17.83778739220153
 30
0.0
 11
22.18707521058826
 21
17.83778739220156
 31
0.0
  0
LINE
  5
A9
330
2
100
AcDbEntity
  8
GAIKEI
  6
Continuous
 62
     1
100
AcDbLine
 10
23.41145251352822
 20
17.93778739220153
 30
0.0
 11
23.87333272888827
 21
17.93778739220153
 31
0.0
  0
LINE
  5
AA
330
2
100
AcDbEntity
  8
GAIKEI
  6
Continuous
 62
     1
100
AcDbLine
 10
23.44239262120829
 20
18.28778739220152
 30
0.0
 11
23.59239262120826
 21
18.28778739220152
 31
0.0
  0
LINE
  5
AB
330
2
100
AcDbEntity
  8
GAIKEI
  6
Continuous
 62
     1
100
AcDbLine
 10
23.69239262120828
 20
18.28778739220152
 30
0.0
 11
23.84239262120826
 21
18.28778739220152
 31
0.0
  0
LINE
  5
AC
330
2
100
AcDbEntity
  8
GAIKEI
  6
Continuous
 62
     1
100
AcDbLine
 10
23.84239262120826
 20
18.38778739220152
 30
0.0
 11
23.69239262120828
 21
18.38778739220152
 31
0.0
  0
LINE
  5
AD
330
2
100
AcDbEntity
  8
GAIKEI
  6
Continuous
 62
     1
100
AcDbLine
 10
23.59239262120826
 20
18.38778739220152
 30
0.0
 11
23.44239262120829
 21
18.38778739220154
 31
0.0
  0
LINE
  5
AE
330
2
100
AcDbEntity
  8
GAIKEI
  6
Continuous
 62
     1
100
AcDbLine
 10
23.41145251352822
 20
18.73778739220154
 30
0.0
 11
23.87333272888827
 21
18.73778739220154
 31
0.0
  0
LINE
  5
AF
330
2
100
AcDbEntity
  8
GAIKEI
  6
Continuous
 62
     1
100
AcDbLine
 10
21.83707521058824
 20
18.83778739220156
 30
0.0
 11
22.18707521058826
 21
18.83778739220153
 31
0.0
  0
LINE
  5
B0
330
2
100
AcDbEntity
  8
GAIKEI
  6
Continuous
 62
     1
100
AcDbLine
 10
24.18894278226827
 20
19.68771506986152
 30
0.0
 11
23.82707521058825
 21
19.68771506986152
 31
0.0
  0
LINE
  5
B1
330
2
100
AcDbEntity
  8
GAIKEI
  6
Continuous
 62
     1
100
AcDbLine
 10
23.72707521058828
 20
19.68771506986152
 30
0.0
 11
23.36520763892827
 21
19.68771506986152
 31
0.0
  0
LINE
  5
B2
330
2
100
AcDbEntity
  8
GAIKEI
  6
Continuous
 62
     1
100
AcDbLine
 10
23.72707521058828
 20
19.86771506986153
 30
0.0
 11
23.82707521058825
 21
19.86771506986153
 31
0.0
  0
LINE
  5
B3
330
2
100
AcDbEntity
  8
GAIKEI
  6
Continuous
100
AcDbLine
 10
21.83707521058824
 20
19.90771506986155
 30
0.0
 11
22.18707521058826
 21
19.90771506986155
 31
0.0
  0
LINE
  5
B4
330
2
100
AcDbEntity
  8
GAIKEI
  6
Continuous
 62
     1
100
AcDbLine
 10
23.17707521058827
 20
20.11771506986153
 30
0.0
 11
24.37707521058826
 21
20.11771506986153
 31
0.0
  0
LINE
  5
B5
330
2
100
AcDbEntity
  8
GAIKEI
  6
Continuous
100
AcDbLine
 10
20.02707931414824
 20
20.50771506986152
 30
0.0
 11
22.45380641854826
 21
20.50771506986155
 31
0.0
  0
LINE
  5
B6
330
2
100
AcDbEntity
  8
GAIKEI
  6
Continuous
100
AcDbLine
 10
21.57707521058825
 20
20.73771506986154
 30
0.0
 11
22.45380641854826
 21
20.73771506986154
 31
0.0
  0
LINE
  5
B7
330
2
100
AcDbEntity
  8
GAIKEI
  6
Continuous
 62
     1
100
AcDbLine
 10
21.29436123032826
 20
12.29063199584149
 30
0.0
 11
21.07650561632829
 21
12.62610022302147
 31
0.0
  0
LINE
  5
B8
330
2
100
AcDbEntity
  8
GAIKEI
  6
Continuous
 62
     1
100
AcDbLine
 10
19.56519499524825
 20
13.38771506986148
 30
0.0
 11
19.79613510292825
 21
12.98771506986148
 31
0.0
  0
LINE
  5
B9
330
2
100
AcDbEntity
  8
GAIKEI
  6
Continuous
 62
     1
100
AcDbLine
 10
20.48895542594829
 20
13.38771506986148
 30
0.0
 11
20.25801531826829
 21
13.78771506986149
 31
0.0
  0
LINE
  5
BA
330
2
100
AcDbEntity
  8
GAIKEI
  6
Continuous
 62
     1
100
AcDbLine
 10
23.31519499524825
 20
19.70591358156153
 30
0.0
 11
23.36519499524826
 21
19.68771506986152
 31
0.0
  0
LINE
  5
BB
330
2
100
AcDbEntity
  8
GAIKEI
  6
Continuous
 62
     1
100
AcDbLine
 10
22.51519499524824
 20
15.20771506986159
 30
0.0
 11
22.74613510292823
 21
14.80771506986158
 31
0.0
  0
LINE
  5
BC
330
2
100
AcDbEntity
  8
GAIKEI
  6
Continuous
 62
     1
100
AcDbLine
 10
19.42707521058827
 20
12.17771506986148
 30
0.0
 11
19.42707521058827
 21
12.10771506986148
 31
0.0
  0
LINE
  5
BD
330
2
100
AcDbEntity
  8
GAIKEI
  6
Continuous
 62
     1
100
AcDbLine
 10
19.56519499524825
 20
12.0179372098215
 30
0.0
 11
19.56519499524825
 21
11.69591358156148
 31
0.0
  0
LINE
  5
BE
330
2
100
AcDbEntity
  8
GAIKEI
  6
Continuous
 62
     1
100
AcDbLine
 10
19.79613510292825
 20
12.0179372098215
 30
0.0
 11
19.79613510292825
 21
11.69591358156148
 31
0.0
  0
LINE
  5
BF
330
2
100
AcDbEntity
  8
GAIKEI
  6
Continuous
 62
     1
100
AcDbLine
 10
19.82707521058825
 20
13.43771506986149
 30
0.0
 11
19.82707521058825
 21
13.33771506986147
 31
0.0
  0
LINE
  5
C0
330
2
100
AcDbEntity
  8
GAIKEI
  6
Continuous
 62
     1
100
AcDbLine
 10
19.97707521058828
 20
13.78771506986149
 30
0.0
 11
19.97707521058828
 21
13.43771506986149
 31
0.0
  0
LINE
  5
C1
330
2
100
AcDbEntity
  8
GAIKEI
  6
Continuous
 62
     1
100
AcDbLine
 10
19.97707521058828
 20
13.33771506986147
 30
0.0
 11
19.97707521058828
 21
12.98771506986148
 31
0.0
  0
LINE
  5
C2
330
2
100
AcDbEntity
  8
GAIKEI
  6
Continuous
 62
     1
100
AcDbLine
 10
19.97707521058828
 20
11.67771506986148
 30
0.0
 11
19.97707521058828
 21
11.85771506986148
 31
0.0
  0
LINE
  5
C3
330
2
100
AcDbEntity
  8
GAIKEI
  6
Continuous
100
AcDbLine
 10
20.02707521058829
 20
20.50771506986155
 30
0.0
 11
20.02707521058829
 21
20.18771506986153
 31
0.0
  0
LINE
  5
C4
330
2
100
AcDbEntity
  8
GAIKEI
  6
Continuous
 62
     1
100
AcDbLine
 10
20.07707521058825
 20
13.78771506986149
 30
0.0
 11
20.07707521058825
 21
13.43771506986149
 31
0.0
  0
LINE
  5
C5
330
2
100
AcDbEntity
  8
GAIKEI
  6
Continuous
 62
     1
100
AcDbLine
 10
20.07707521058825
 20
13.33771506986147
 30
0.0
 11
20.07707521058825
 21
12.98771506986148
 31
0.0
  0
LINE
  5
C6
330
2
100
AcDbEntity
  8
GAIKEI
  6
Continuous
 62
     1
100
AcDbLine
 10
20.07707521058825
 20
11.67771506986148
 30
0.0
 11
20.07707521058825
 21
11.85771506986148
 31
0.0
  0
LINE
  5
C7
330
2
100
AcDbEntity
  8
GAIKEI
  6
Continuous
 62
     1
100
AcDbLine
 10
20.22707521058828
 20
13.33771506986147
 30
0.0
 11
20.22707521058828
 21
13.43771506986149
 31
0.0
  0
LINE
  5
C8
330
2
100
AcDbEntity
  8
GAIKEI
  6
Continuous
 62
     1
100
AcDbLine
 10
20.25801531826829
 20
12.0179372098215
 30
0.0
 11
20.25801531826829
 21
11.69591358156148
 31
0.0
  0
LINE
  5
C9
330
2
100
AcDbEntity
  8
GAIKEI
  6
Continuous
 62
     1
100
AcDbLine
 10
23.31519499524825
 20
20.02793720982152
 30
0.0
 11
23.17707521058827
 21
20.11771506986153
 31
0.0
  0
LINE
  5
CA
330
2
100
AcDbEntity
  8
GAIKEI
  6
Continuous
 62
     1
100
AcDbLine
 10
23.43895542594828
 20
15.20771506986159
 30
0.0
 11
23.20801531826828
 21
15.6077150698616
 31
0.0
  0
LINE
  5
CB
330
2
100
AcDbEntity
  8
GAIKEI
  6
Continuous
 62
     1
100
AcDbLine
 10
23.18051240586823
 20
18.33778739220153
 30
0.0
 11
23.41145251352822
 21
17.93778739220153
 31
0.0
  0
LINE
  5
CC
330
2
100
AcDbEntity
  8
GAIKEI
  6
Continuous
 62
     1
100
AcDbLine
 10
20.48895542594829
 20
12.0179372098215
 30
0.0
 11
20.48895542594829
 21
11.69591358156148
 31
0.0
  0
LINE
  5
CD
330
2
100
AcDbEntity
  8
GAIKEI
  6
Continuous
 62
     1
100
AcDbLine
 10
20.62707521058826
 20
12.17771506986148
 30
0.0
 11
20.62707521058826
 21
12.10771506986148
 31
0.0
  0
LINE
  5
CE
330
2
100
AcDbEntity
  8
GAIKEI
  6
Continuous
100
AcDbLine
 10
21.57707521058825
 20
20.50771506986152
 30
0.0
 11
21.57707521058825
 21
20.73771506986154
 31
0.0
  0
LINE
  5
CF
330
2
100
AcDbEntity
  8
GAIKEI
  6
Continuous
100
AcDbLine
 10
21.83707521058824
 20
19.90771506986155
 30
0.0
 11
21.83707521058824
 21
16.63859372384149
 31
0.0
  0
LINE
  5
D0
330
2
100
AcDbEntity
  8
GAIKEI
  6
Continuous
 62
     1
100
AcDbLine
 10
22.06707521058826
 20
18.83778739220156
 30
0.0
 11
22.06707521058826
 21
17.83778739220153
 31
0.0
  0
LINE
  5
D1
330
2
100
AcDbEntity
  8
GAIKEI
  6
Continuous
100
AcDbLine
 10
22.18707521058826
 20
20.18771506986155
 30
0.0
 11
22.18707521058826
 21
19.90771506986155
 31
0.0
  0
LINE
  5
D2
330
2
100
AcDbEntity
  8
GAIKEI
  6
Continuous
 62
     1
100
AcDbLine
 10
22.18707521058826
 20
17.83778739220156
 30
0.0
 11
22.18707521058826
 21
18.83778739220153
 31
0.0
  0
LINE
  5
D3
330
2
100
AcDbEntity
  8
GAIKEI
  6
Continuous
100
AcDbLine
 10
22.41173698456828
 20
20.18771506986153
 30
0.0
 11
22.41173698456828
 21
20.50771506986155
 31
0.0
  0
LINE
  5
D4
330
2
100
AcDbEntity
  8
GAIKEI
  6
Continuous
100
AcDbLine
 10
22.45380641854826
 20
20.50771506986155
 30
0.0
 11
22.45380641854826
 21
20.84919858914154
 31
0.0
  0
LINE
  5
D5
330
2
100
AcDbEntity
  8
GAIKEI
  6
Continuous
 62
     1
100
AcDbLine
 10
24.10427283656827
 20
18.33778739220153
 30
0.0
 11
23.87333272888827
 21
18.73778739220154
 31
0.0
  0
LINE
  5
D6
330
2
100
AcDbEntity
  8
GAIKEI
  6
Continuous
 62
     1
100
AcDbLine
 10
23.17707521058827
 20
20.18771506986153
 30
0.0
 11
23.17707521058827
 21
20.11771506986153
 31
0.0
  0
LINE
  5
D7
330
2
100
AcDbEntity
  8
GAIKEI
  6
Continuous
 62
     1
100
AcDbLine
 10
23.31519499524825
 20
20.02793720982152
 30
0.0
 11
23.31519499524825
 21
19.70591358156153
 31
0.0
  0
LINE
  5
D8
330
2
100
AcDbEntity
  8
GAIKEI
  6
Continuous
 62
     1
100
AcDbLine
 10
23.44239262120829
 20
18.38778739220154
 30
0.0
 11
23.44239262120829
 21
18.28778739220152
 31
0.0
  0
LINE
  5
D9
330
2
100
AcDbEntity
  8
GAIKEI
  6
Continuous
 62
     1
100
AcDbLine
 10
23.54613510292825
 20
20.02793720982152
 30
0.0
 11
23.54613510292825
 21
19.70591358156153
 31
0.0
  0
LINE
  5
DA
330
2
100
AcDbEntity
  8
GAIKEI
  6
Continuous
 62
     1
100
AcDbLine
 10
23.59239262120826
 20
18.73778739220154
 30
0.0
 11
23.59239262120826
 21
18.38778739220152
 31
0.0
  0
LINE
  5
DB
330
2
100
AcDbEntity
  8
GAIKEI
  6
Continuous
 62
     1
100
AcDbLine
 10
23.59239262120826
 20
18.28778739220152
 30
0.0
 11
23.59239262120826
 21
17.93778739220153
 31
0.0
  0
LINE
  5
DC
330
2
100
AcDbEntity
  8
GAIKEI
  6
Continuous
 62
     1
100
AcDbLine
 10
23.69239262120828
 20
18.73778739220154
 30
0.0
 11
23.69239262120828
 21
18.38778739220152
 31
0.0
  0
LINE
  5
DD
330
2
100
AcDbEntity
  8
GAIKEI
  6
Continuous
 62
     1
100
AcDbLine
 10
23.69239262120828
 20
18.28778739220152
 30
0.0
 11
23.69239262120828
 21
17.93778739220153
 31
0.0
  0
LINE
  5
DE
330
2
100
AcDbEntity
  8
GAIKEI
  6
Continuous
 62
     1
100
AcDbLine
 10
23.72707521058828
 20
19.68771506986152
 30
0.0
 11
23.72707521058828
 21
19.86771506986153
 31
0.0
  0
LINE
  5
DF
330
2
100
AcDbEntity
  8
GAIKEI
  6
Continuous
 62
     1
100
AcDbLine
 10
23.82707521058825
 20
19.68771506986152
 30
0.0
 11
23.82707521058825
 21
19.86771506986153
 31
0.0
  0
LINE
  5
E0
330
2
100
AcDbEntity
  8
GAIKEI
  6
Continuous
 62
     1
100
AcDbLine
 10
23.84239262120826
 20
18.28778739220152
 30
0.0
 11
23.84239262120826
 21
18.38778739220152
 31
0.0
  0
LINE
  5
E1
330
2
100
AcDbEntity
  8
GAIKEI
  6
Continuous
 62
     1
100
AcDbLine
 10
24.00801531826829
 20
20.02793720982152
 30
0.0
 11
24.00801531826829
 21
19.70591358156153
 31
0.0
  0
LINE
  5
E2
330
2
100
AcDbEntity
  8
GAIKEI
  6
Continuous
 62
     1
100
AcDbLine
 10
24.23895542594829
 20
20.02793720982152
 30
0.0
 11
24.23895542594829
 21
19.70591358156153
 31
0.0
  0
LINE
  5
E3
330
2
100
AcDbEntity
  8
GAIKEI
  6
Continuous
 62
     1
100
AcDbLine
 10
24.37707521058826
 20
20.1877150698615
 30
0.0
 11
24.37707521058826
 21
20.11771506986153
 31
0.0
  0
LINE
  5
E4
330
2
100
AcDbEntity
  8
GAIKEI
  6
Continuous
100
AcDbLine
 10
22.66424502048824
 20
18.54569908302153
 30
0.0
 11
22.49251236254827
 21
17.73776044972152
 31
0.0
  0
LINE
  5
E5
330
2
100
AcDbEntity
  8
GAIKEI
  6
Continuous
 62
     1
100
AcDbLine
 10
19.79613510292825
 20
13.78771506986149
 30
0.0
 11
19.56519499524825
 21
13.38771506986148
 31
0.0
  0
LINE
  5
E6
330
2
100
AcDbEntity
  8
GAIKEI
  6
Continuous
 62
     1
100
AcDbLine
 10
24.23895542594829
 20
20.02793720982152
 30
0.0
 11
24.37707521058826
 21
20.11771506986153
 31
0.0
  0
LINE
  5
E7
330
2
100
AcDbEntity
  8
GAIKEI
  6
Continuous
 62
     1
100
AcDbLine
 10
24.23895542594829
 20
19.70591358156153
 30
0.0
 11
24.18895542594828
 21
19.68771506986155
 31
0.0
  0
LINE
  5
E8
330
2
100
AcDbEntity
  8
GAIKEI
  6
Continuous
 62
     1
100
AcDbLine
 10
23.41145251352822
 20
18.73778739220154
 30
0.0
 11
23.18051240586823
 21
18.33778739220153
 31
0.0
  0
LINE
  5
E9
330
2
100
AcDbEntity
  8
GAIKEI
  6
Continuous
 62
     1
100
AcDbLine
 10
20.25801531826829
 20
12.98771506986148
 30
0.0
 11
20.48895542594829
 21
13.38771506986148
 31
0.0
  0
LINE
  5
EA
330
2
100
AcDbEntity
  8
GAIKEI
  6
Continuous
 62
     1
100
AcDbLine
 10
23.87333272888827
 20
17.93778739220153
 30
0.0
 11
24.10427283656827
 21
18.33778739220153
 31
0.0
  0
LINE
  5
EB
330
2
100
AcDbEntity
  8
GAIKEI
  6
Continuous
 62
     1
100
AcDbLine
 10
22.74613510292823
 20
15.60771506986148
 30
0.0
 11
22.51519499524824
 21
15.20771506986159
 31
0.0
  0
LINE
  5
EC
330
2
100
AcDbEntity
  8
GAIKEI
  6
Continuous
 62
     1
100
AcDbLine
 10
23.20801531826828
 20
14.80771506986158
 30
0.0
 11
23.43895542594828
 21
15.20771506986159
 31
0.0
  0
LINE
  5
ED
330
2
100
AcDbEntity
  8
GAIKEI
  6
Continuous
100
AcDbLine
 10
21.62549523110829
 20
16.47624269546156
 30
0.0
 11
19.13243617558828
 21
14.85723121452148
 31
0.0
  0
LINE
  5
EE
330
2
100
AcDbEntity
  8
GAIKEI
  6
Continuous
 62
     1
100
AcDbLine
 10
20.48895542594829
 20
12.0179372098215
 30
0.0
 11
20.62707521058826
 21
12.10771506986148
 31
0.0
  0
LINE
  5
EF
330
2
100
AcDbEntity
  8
GAIKEI
  6
Continuous
 62
     1
100
AcDbLine
 10
21.07650561632829
 20
12.62610022302147
 30
0.0
 11
20.63447856870829
 21
12.3390445019015
 31
0.0
  0
LINE
  5
F0
330
2
100
AcDbEntity
  8
GAIKEI
  6
Continuous
 62
     1
100
AcDbLine
 10
21.16909425228829
 20
12.48352622648147
 30
0.0
 11
21.05235530832829
 21
12.40771506986149
 31
0.0
  0
LINE
  5
F1
330
2
100
AcDbEntity
  8
GAIKEI
  6
Continuous
 62
     1
100
AcDbLine
 10
20.48895542594829
 20
11.69591358156148
 30
0.0
 11
20.43895542594828
 21
11.67771506986148
 31
0.0
  0
ARC
  5
F2
330
2
100
AcDbEntity
  8
GAIKEI
  6
Continuous
 62
     1
100
AcDbCircle
 10
22.97707521058828
 20
15.20771506986159
 30
0.0
 40
0.4118802153599333
100
AcDbArc
 50
163.7947482710117
 51
196.2052517290143
  0
ARC
  5
F3
330
2
100
AcDbEntity
  8
GAIKEI
  6
Continuous
 62
     1
100
AcDbCircle
 10
22.97707521058828
 20
15.20771506986159
 30
0.0
 40
0.4118802153601554
100
AcDbArc
 50
283.7947482709901
 51
316.2052517289865
  0
ARC
  5
F4
330
2
100
AcDbEntity
  8
GAIKEI
  6
Continuous
 62
     1
100
AcDbCircle
 10
22.97707521058828
 20
15.20771506986159
 30
0.0
 40
0.4118802153599629
100
AcDbArc
 50
103.7947482709934
 51
136.2052517290055
  0
ARC
  5
F5
330
2
100
AcDbEntity
  8
GAIKEI
  6
Continuous
 62
     1
100
AcDbCircle
 10
22.97707521058828
 20
15.20771506986159
 30
0.0
 40
0.4118802153600063
100
AcDbArc
 50
343.7947482709857
 51
16.20525172900087
  0
ARC
  5
F6
330
2
100
AcDbEntity
  8
GAIKEI
  6
Continuous
 62
     1
100
AcDbCircle
 10
22.97707521058828
 20
15.20771506986159
 30
0.0
 40
0.4118802153599728
100
AcDbArc
 50
43.79474827099449
 51
76.20525172900324
  0
ARC
  5
F7
330
2
100
AcDbEntity
  8
GAIKEI
  6
Continuous
 62
     1
100
AcDbCircle
 10
22.97707521058828
 20
15.20771506986159
 30
0.0
 40
0.4118802153601065
100
AcDbArc
 50
223.7947482710135
 51
256.2052517290133
  0
ARC
  5
F8
330
2
100
AcDbEntity
  8
GAIKEI
  6
Continuous
 62
     1
100
AcDbCircle
 10
23.64239262120827
 20
18.33778739220153
 30
0.0
 40
0.4118802153600671
100
AcDbArc
 50
283.7947482709934
 51
316.2052517289905
  0
ARC
  5
F9
330
2
100
AcDbEntity
  8
GAIKEI
  6
Continuous
 62
     1
100
AcDbCircle
 10
23.64239262120827
 20
18.33778739220153
 30
0.0
 40
0.4118802153599587
100
AcDbArc
 50
163.7947482709991
 51
196.2052517290009
  0
ARC
  5
FA
330
2
100
AcDbEntity
  8
GAIKEI
  6
Continuous
 62
     1
100
AcDbCircle
 10
23.64239262120827
 20
18.33778739220153
 30
0.0
 40
0.4118802153600279
100
AcDbArc
 50
43.7947482709991
 51
76.20525172900659
  0
ARC
  5
FB
330
2
100
AcDbEntity
  8
GAIKEI
  6
Continuous
 62
     1
100
AcDbCircle
 10
23.64239262120827
 20
18.33778739220153
 30
0.0
 40
0.4118802153600593
100
AcDbArc
 50
223.7947482710095
 51
256.20525172901
  0
ARC
  5
FC
330
2
100
AcDbEntity
  8
GAIKEI
  6
Continuous
 62
     1
100
AcDbCircle
 10
23.64239262120827
 20
18.33778739220153
 30
0.0
 40
0.4118802153599779
100
AcDbArc
 50
343.7947482709991
 51
16.20525172900087
  0
ARC
  5
FD
330
2
100
AcDbEntity
  8
GAIKEI
  6
Continuous
 62
     1
100
AcDbCircle
 10
23.64239262120827
 20
18.33778739220153
 30
0.0
 40
0.4118802153600402
100
AcDbArc
 50
103.79474827099
 51
136.2052517290009
  0
ARC
  5
FE
330
2
100
AcDbEntity
  8
GAIKEI
  6
Continuous
 62
     1
100
AcDbCircle
 10
20.02707521058829
 20
13.38771506986148
 30
0.0
 40
0.4118802153600671
100
AcDbArc
 50
283.7947482709934
 51
316.2052517290003
  0
ARC
  5
FF
330
2
100
AcDbEntity
  8
GAIKEI
  6
Continuous
 62
     1
100
AcDbCircle
 10
20.02707521058829
 20
13.38771506986148
 30
0.0
 40
0.4118802153599587
100
AcDbArc
 50
163.7947482709991
 51
196.2052517290009
  0
ARC
  5
100
330
2
100
AcDbEntity
  8
GAIKEI
  6
Continuous
 62
     1
100
AcDbCircle
 10
20.02707521058829
 20
13.38771506986148
 30
0.0
 40
0.4118802153600436
100
AcDbArc
 50
43.79474827099968
 51
76.20525172900659
  0
ARC
  5
101
330
2
100
AcDbEntity
  8
GAIKEI
  6
Continuous
 62
     1
100
AcDbCircle
 10
20.02707521058829
 20
13.38771506986148
 30
0.0
 40
0.4118802153599649
100
AcDbArc
 50
223.7947482709945
 51
256.2052517290066
  0
ARC
  5
102
330
2
100
AcDbEntity
  8
GAIKEI
  6
Continuous
 62
     1
100
AcDbCircle
 10
20.02707521058829
 20
13.38771506986148
 30
0.0
 40
0.4118802153599779
100
AcDbArc
 50
343.7947482709991
 51
16.20525172900087
  0
ARC
  5
103
330
2
100
AcDbEntity
  8
GAIKEI
  6
Continuous
 62
     1
100
AcDbCircle
 10
20.02707521058829
 20
13.38771506986148
 30
0.0
 40
0.4118802153600624
100
AcDbArc
 50
103.79474827099
 51
136.2052517289911
  0
ARC
  5
104
330
2
100
AcDbEntity
  8
GAIKEI
  6
Continuous
100
AcDbCircle
 10
20.53621716106824
 20
18.15358383136151
 30
0.0
 40
2.00000000001305
100
AcDbArc
 50
303.0000000000955
 51
347.999999999944
  0
ARC
  5
105
330
2
100
AcDbEntity
  8
GAIKEI
  6
Continuous
100
AcDbCircle
 10
23.64239262120827
 20
18.33778739220153
 30
0.0
 40
0.9999999999999962
100
AcDbArc
 50
77.99999999999703
 51
167.9999999997172
  0
ARC
  5
106
330
2
100
AcDbEntity
  8
GAIKEI
  6
Continuous
 62
     1
100
AcDbCircle
 10
20.08983953368829
 20
13.17771506986147
 30
0.0
 40
1.0
100
AcDbArc
 50
270.0
 51
302.9999999997843
  0
ARC
  5
107
330
2
100
AcDbEntity
  8
GAIKEI
  6
Continuous
100
AcDbCircle
 10
21.05235530832829
 20
12.40771506986149
 30
0.0
 40
0.2299999999999955
100
AcDbArc
 50
270.0
 51
302.9999999954779
  0
CIRCLE
  5
108
330
2
100
AcDbEntity
  8
GAIKEI
  6
Continuous
 62
     1
100
AcDbCircle
 10
23.64239262120827
 20
18.33778739220153
 30
0.0
 40
0.6000000000000001
  0
CIRCLE
  5
109
330
2
100
AcDbEntity
  8
GAIKEI
  6
Continuous
 62
     1
100
AcDbCircle
 10
20.02707521058829
 20
13.38771506986148
 30
0.0
 40
0.6000000000000001
  0
SPLINE
  5
10A
330
2
100
AcDbEntity
  8
GAIKEI
  6
Continuous
 62
     1
100
AcDbSpline
210
0.0
220
0.0
230
1.0
 70
     8
 71
     3
 72
     9
 73
     5
 74
     3
 42
0.0000000001
 43
0.0000000001
 44
0.00000001
 40
0.0
 40
0.0
 40
0.0
 40
0.0
 40
0.0670051028411569
 40
0.1340079952803473
 40
0.1340079952803473
 40
0.1340079952803473
 40
0.1340079952803473
 10
20.25801531826829
 20
11.69591358156148
 30
0.0
 10
20.23599978656372
 20
11.69210423110996
 30
0.0
 10
20.19196944646854
 20
11.68448567564394
 30
0.0
 10
20.14751341116213
 20
11.67997190702635
 30
0.0
 10
20.12528575890832
 20
11.67771506986148
 30
0.0
 11
20.25801531826829
 21
11.69591358156148
 31
0.0
 11
20.19186229425248
 21
11.68526176239032
 31
0.0
 11
20.12528575890832
 21
11.67771506986148
 31
0.0
  0
SPLINE
  5
10B
330
2
100
AcDbEntity
  8
GAIKEI
  6
Continuous
 62
     1
100
AcDbSpline
210
0.0
220
0.0
230
1.0
 70
     8
 71
     3
 72
    11
 73
     7
 74
     5
 42
0.0000000001
 43
0.0000000001
 44
0.00000001
 40
0.0
 40
0.0
 40
0.0
 40
0.0
 40
0.0617780673715296
 40
0.1235739680978482
 40
0.1853698018263539
 40
0.247147803424531
 40
0.247147803424531
 40
0.247147803424531
 40
0.247147803424531
 10
19.5651949952483
 20
12.0179372098215
 30
0.0
 10
19.5829676659946
 20
12.00737080834733
 30
0.0
 10
19.61851814433819
 20
11.98623496827133
 30
0.0
 10
19.68066509606089
 20
11.97345451175545
 30
0.0
 10
19.74281201088871
 20
11.98623500488873
 30
0.0
 10
19.77836245108136
 20
12.0073708204832
 30
0.0
 10
19.7961351029283
 20
12.0179372098215
 30
0.0
 11
19.5651949952483
 21
12.0179372098215
 31
0.0
 11
19.61998229837724
 21
11.98939108416309
 31
0.0
 11
19.68066511604831
 21
11.97771506986146
 31
0.0
 11
19.7413478605319
 21
11.98939110994519
 31
0.0
 11
19.7961351029283
 21
12.0179372098215
 31
0.0
  0
SPLINE
  5
10C
330
2
100
AcDbEntity
  8
GAIKEI
  6
Continuous
 62
     1
100
AcDbSpline
210
0.0
220
0.0
230
1.0
 70
     8
 71
     3
 72
     9
 73
     5
 74
     3
 42
0.0000000001
 43
0.0000000001
 44
0.00000001
 40
0.0
 40
0.0
 40
0.0
 40
0.0
 40
0.0344437913871293
 40
0.0688822648386452
 40
0.0688822648386452
 40
0.0688822648386452
 40
0.0688822648386452
 10
19.7961351029283
 20
11.69591358156148
 30
0.0
 10
19.78527504583405
 20
11.6921450990111
 30
0.0
 10
19.76355660267472
 20
11.684608734877
 30
0.0
 10
19.74103183833256
 20
11.68001283347189
 30
0.0
 10
19.72977032322831
 20
11.67771506986148
 30
0.0
 11
19.7961351029283
 21
11.69591358156148
 31
0.0
 11
19.76335331716234
 21
11.68534337259439
 31
0.0
 11
19.72977032322831
 21
11.67771506986148
 31
0.0
  0
SPLINE
  5
10D
330
2
100
AcDbEntity
  8
GAIKEI
  6
Continuous
 62
     1
100
AcDbSpline
210
0.0
220
0.0
230
1.0
 70
    24
 71
     3
 72
     9
 73
     5
 74
     3
 42
0.0000000001
 43
0.0000000001
 44
0.00000001
 40
0.0
 40
0.0
 40
0.0
 40
0.0
 40
0.0112351496182903
 40
0.022470299236692
 40
0.022470299236692
 40
0.022470299236692
 40
0.022470299236692
 10
19.63155977492829
 20
11.67771506986148
 30
0.0
 10
19.62789410447163
 20
11.67848205007814
 30
0.0
 10
19.62056276355832
 20
11.68001601051145
 30
0.0
 10
19.61323142264501
 20
11.68154997094481
 30
0.0
 10
19.6095657521883
 20
11.68231695116148
 30
0.0
 11
19.63155977492829
 21
11.67771506986148
 31
0.0
 11
19.62056276355832
 21
11.68001601051151
 31
0.0
 11
19.6095657521883
 21
11.68231695116148
 31
0.0
  0
SPLINE
  5
10E
330
2
100
AcDbEntity
  8
GAIKEI
  6
Continuous
 62
     1
100
AcDbSpline
210
0.0
220
0.0
230
1.0
 70
     8
 71
     3
 72
     9
 73
     5
 74
     3
 42
0.0000000001
 43
0.0000000001
 44
0.00000001
 40
0.0
 40
0.0
 40
0.0
 40
0.0
 40
0.0232121034490172
 40
0.0464247620126298
 40
0.0464247620126298
 40
0.0464247620126298
 40
0.0464247620126298
 10
19.6095657521883
 20
11.68231695116148
 30
0.0
 10
19.6020773113392
 20
11.68427822006944
 30
0.0
 10
19.58710025614852
 20
11.68820082397718
 30
0.0
 10
19.57249680504836
 20
11.69334263553011
 30
0.0
 10
19.5651949952483
 20
11.69591358156148
 30
0.0
 11
19.6095657521883
 21
11.68231695116148
 31
0.0
 11
19.58719383109275
 21
11.68850556213439
 31
0.0
 11
19.5651949952483
 21
11.69591358156148
 31
0.0
  0
SPLINE
  5
10F
330
2
100
AcDbEntity
  8
GAIKEI
  6
Continuous
 62
     1
100
AcDbSpline
210
0.0
220
0.0
230
1.0
 70
     8
 71
     3
 72
     9
 73
     5
 74
     3
 42
0.0000000001
 43
0.0000000001
 44
0.00000001
 40
0.0
 40
0.0
 40
0.0
 40
0.0
 40
0.0344437913773933
 40
0.0688822648191114
 40
0.0688822648191114
 40
0.0688822648191114
 40
0.0688822648191114
 10
20.48895542594829
 20
11.69591358156148
 30
0.0
 10
20.47809536885708
 20
11.69214509901255
 30
0.0
 10
20.45637692570366
 20
11.68460873488118
 30
0.0
 10
20.43385216136892
 20
11.68001283347331
 30
0.0
 10
20.42259064626831
 20
11.67771506986148
 30
0.0
 11
20.48895542594829
 21
11.69591358156148
 31
0.0
 11
20.45617364019165
 21
11.6853433725972
 31
0.0
 11
20.42259064626831
 21
11.67771506986148
 31
0.0
  0
SPLINE
  5
110
330
2
100
AcDbEntity
  8
GAIKEI
  6
Continuous
 62
     1
100
AcDbSpline
210
0.0
220
0.0
230
1.0
 70
     8
 71
     3
 72
     9
 73
     5
 74
     3
 42
0.0000000001
 43
0.0000000001
 44
0.00000001
 40
0.0
 40
0.0
 40
0.0
 40
0.0
 40
0.0670029080996751
 40
0.1340079953029023
 40
0.1340079953029023
 40
0.1340079953029023
 40
0.1340079953029023
 10
19.92886466228828
 20
11.67771506986148
 30
0.0
 10
19.90663700481428
 20
11.67997190737557
 30
0.0
 10
19.86218096945043
 20
11.68448567563737
 30
0.0
 10
19.81815062944579
 20
11.69210423170091
 30
0.0
 10
19.7961351029283
 20
11.69591358156148
 30
0.0
 11
19.92886466228828
 21
11.67771506986148
 31
0.0
 11
19.86228811137022
 21
11.6852617640389
 31
0.0
 11
19.7961351029283
 21
11.69591358156148
 31
0.0
  0
SPLINE
  5
111
330
2
100
AcDbEntity
  8
GAIKEI
  6
Continuous
 62
     1
100
AcDbSpline
210
0.0
220
0.0
230
1.0
 70
     8
 71
     3
 72
     9
 73
     5
 74
     3
 42
0.0000000001
 43
0.0000000001
 44
0.00000001
 40
0.0
 40
0.0
 40
0.0
 40
0.0
 40
0.1176157418806345
 40
0.23515775763744
 40
0.23515775763744
 40
0.23515775763744
 40
0.23515775763744
 10
19.7961351029283
 20
12.0179372098215
 30
0.0
 10
19.83383690032136
 20
12.00663579528333
 30
0.0
 10
19.90921686634195
 20
11.98404006981724
 30
0.0
 10
19.98779730708332
 20
11.97982295589707
 30
0.0
 10
20.02707521058829
 20
11.97771506986146
 30
0.0
 11
19.7961351029283
 21
12.0179372098215
 31
0.0
 11
19.91004111804301
 21
11.98863051015348
 31
0.0
 11
20.02707521058829
 21
11.97771506986146
 31
0.0
  0
SPLINE
  5
112
330
2
100
AcDbEntity
  8
GAIKEI
  6
Continuous
 62
     1
100
AcDbSpline
210
0.0
220
0.0
230
1.0
 70
     8
 71
     3
 72
     9
 73
     5
 74
     3
 42
0.0000000001
 43
0.0000000001
 44
0.00000001
 40
0.0
 40
0.0
 40
0.0
 40
0.0
 40
0.1175431990327939
 40
0.2351577691255426
 40
0.2351577691255426
 40
0.2351577691255426
 40
0.2351577691255426
 10
20.02707521058829
 20
11.97771506986146
 30
0.0
 10
20.06635351476859
 20
11.97982295740092
 30
0.0
 10
20.14493396989437
 20
11.98404003208335
 30
0.0
 10
20.22031391086372
 20
12.00663585812609
 30
0.0
 10
20.25801531826829
 20
12.0179372098215
 30
0.0
 11
20.02707521058829
 21
11.97771506986146
 31
0.0
 11
20.14411047928541
 21
11.98863064159866
 31
0.0
 11
20.25801531826829
 21
12.0179372098215
 31
0.0
  0
SPLINE
  5
113
330
2
100
AcDbEntity
  8
GAIKEI
  6
Continuous
 62
     1
100
AcDbSpline
210
0.0
220
0.0
230
1.0
 70
     8
 71
     3
 72
    11
 73
     7
 74
     5
 42
0.0000000001
 43
0.0000000001
 44
0.00000001
 40
0.0
 40
0.0
 40
0.0
 40
0.0
 40
0.0617780673802328
 40
0.1235739681155999
 40
0.1853698018343095
 40
0.247147803422512
 40
0.247147803422512
 40
0.247147803422512
 40
0.247147803422512
 10
20.25801531826829
 20
12.0179372098215
 30
0.0
 10
20.27578798901862
 20
12.00737080834915
 30
0.0
 10
20.31133846737043
 20
11.98623496827682
 30
0.0
 10
20.37348541909455
 20
11.97345451175258
 30
0.0
 10
20.43563233391765
 20
11.98623500489469
 30
0.0
 10
20.47118277410433
 20
12.00737082048516
 30
0.0
 10
20.48895542594829
 20
12.0179372098215
 30
0.0
 11
20.25801531826829
 21
12.0179372098215
 31
0.0
 11
20.31280262140859
 21
11.98939108416607
 31
0.0
 11
20.37348543908831
 21
11.97771506986146
 31
0.0
 11
20.43416818356121
 21
11.98939110994888
 31
0.0
 11
20.48895542594829
 21
12.0179372098215
 31
0.0
  0
SPLINE
  5
114
330
2
100
AcDbEntity
  8
GAIKEI
  6
Continuous
 62
     1
100
AcDbSpline
210
0.0
220
0.0
230
1.0
 70
     8
 71
     3
 72
     9
 73
     5
 74
     3
 42
0.0000000001
 43
0.0000000001
 44
0.00000001
 40
0.0
 40
0.0
 40
0.0
 40
0.0
 40
0.0344385020329518
 40
0.0688822649150192
 40
0.0688822649150192
 40
0.0688822649150192
 40
0.0688822649150192
 10
20.32438009794828
 20
11.67771506986148
 30
0.0
 10
20.31311857339941
 20
11.68001283506586
 30
0.0
 10
20.29059380883547
 20
11.68460873585005
 30
0.0
 10
20.26887536613401
 20
11.69214510141739
 30
0.0
 10
20.25801531826829
 20
11.69591358156148
 30
0.0
 11
20.32438009794828
 21
11.67771506986148
 31
0.0
 11
20.29079707618433
 21
11.68534337910819
 31
0.0
 11
20.25801531826829
 21
11.69591358156148
 31
0.0
  0
SPLINE
  5
115
330
2
100
AcDbEntity
  8
GAIKEI
  6
Continuous
 62
     1
100
AcDbSpline
210
0.0
220
0.0
230
1.0
 70
     8
 71
     3
 72
     9
 73
     5
 74
     3
 42
0.0000000001
 43
0.0000000001
 44
0.00000001
 40
0.0
 40
0.0
 40
0.0
 40
0.0
 40
0.0670051028411434
 40
0.1340079952803401
 40
0.1340079952803401
 40
0.1340079952803401
 40
0.1340079952803401
 10
24.00801531826829
 20
19.70591358156153
 30
0.0
 10
23.98599978656372
 20
19.70210423111001
 30
0.0
 10
23.94196944646856
 20
19.6944856756441
 30
0.0
 10
23.89751341116204
 20
19.68997190702643
 30
0.0
 10
23.87528575890832
 20
19.68771506986155
 30
0.0
 11
24.00801531826829
 21
19.70591358156153
 31
0.0
 11
23.94186229425248
 21
19.69526176239046
 31
0.0
 11
23.87528575890832
 21
19.68771506986155
 31
0.0
  0
SPLINE
  5
116
330
2
100
AcDbEntity
  8
GAIKEI
  6
Continuous
 62
     1
100
AcDbSpline
210
0.0
220
0.0
230
1.0
 70
     8
 71
     3
 72
    11
 73
     7
 74
     5
 42
0.0000000001
 43
0.0000000001
 44
0.00000001
 40
0.0
 40
0.0
 40
0.0
 40
0.0
 40
0.0617780673715296
 40
0.1235739680978321
 40
0.1853698018263324
 40
0.2471478034244833
 40
0.2471478034244833
 40
0.2471478034244833
 40
0.2471478034244833
 10
23.3151949952483
 20
20.02793720982152
 30
0.0
 10
23.33296766599457
 20
20.01737080834727
 30
0.0
 10
23.36851814433825
 20
19.99623496827135
 30
0.0
 10
23.43066509606089
 20
19.98345451175561
 30
0.0
 10
23.49281201088877
 20
19.99623500488886
 30
0.0
 10
23.52836245108139
 20
20.01737082048325
 30
0.0
 10
23.5461351029283
 20
20.02793720982152
 30
0.0
 11
23.3151949952483
 21
20.02793720982152
 31
0.0
 11
23.36998229837724
 21
19.99939108416311
 31
0.0
 11
23.43066511604832
 21
19.98771506986156
 31
0.0
 11
23.4913478605319
 21
19.99939110994526
 31
0.0
 11
23.5461351029283
 21
20.02793720982152
 31
0.0
  0
SPLINE
  5
117
330
2
100
AcDbEntity
  8
GAIKEI
  6
Continuous
 62
     1
100
AcDbSpline
210
0.0
220
0.0
230
1.0
 70
     8
 71
     3
 72
     9
 73
     5
 74
     3
 42
0.0000000001
 43
0.0000000001
 44
0.00000001
 40
0.0
 40
0.0
 40
0.0
 40
0.0
 40
0.034443791387255
 40
0.0688822648386537
 40
0.0688822648386537
 40
0.0688822648386537
 40
0.0688822648386537
 10
23.5461351029283
 20
19.70591358156153
 30
0.0
 10
23.53527504583403
 20
19.70214509901115
 30
0.0
 10
23.51355660267464
 20
19.69460873487702
 30
0.0
 10
23.49103183833256
 20
19.69001283347191
 30
0.0
 10
23.47977032322831
 20
19.6877150698615
 30
0.0
 11
23.5461351029283
 21
19.70591358156153
 31
0.0
 11
23.51335331716223
 21
19.69534337259438
 31
0.0
 11
23.47977032322831
 21
19.6877150698615
 31
0.0
  0
SPLINE
  5
118
330
2
100
AcDbEntity
  8
GAIKEI
  6
Continuous
 62
     1
100
AcDbSpline
210
0.0
220
0.0
230
1.0
 70
    24
 71
     3
 72
     9
 73
     5
 74
     3
 42
0.0000000001
 43
0.0000000001
 44
0.00000001
 40
0.0
 40
0.0
 40
0.0
 40
0.0
 40
0.0112351496182903
 40
0.0224702992366861
 40
0.0224702992366861
 40
0.0224702992366861
 40
0.0224702992366861
 10
23.38155977492829
 20
19.68771506986155
 30
0.0
 10
23.37789410447164
 20
19.68848205007822
 30
0.0
 10
23.37056276355836
 20
19.69001601051161
 30
0.0
 10
23.36323142264502
 20
19.69154997094486
 30
0.0
 10
23.3595657521883
 20
19.69231695116153
 30
0.0
 11
23.38155977492829
 21
19.68771506986155
 31
0.0
 11
23.37056276355832
 21
19.69001601051153
 31
0.0
 11
23.3595657521883
 21
19.69231695116153
 31
0.0
  0
SPLINE
  5
119
330
2
100
AcDbEntity
  8
GAIKEI
  6
Continuous
 62
     1
100
AcDbSpline
210
0.0
220
0.0
230
1.0
 70
     8
 71
     3
 72
     9
 73
     5
 74
     3
 42
0.0000000001
 43
0.0000000001
 44
0.00000001
 40
0.0
 40
0.0
 40
0.0
 40
0.0
 40
0.0232121034490096
 40
0.0464247620126313
 40
0.0464247620126313
 40
0.0464247620126313
 40
0.0464247620126313
 10
23.3595657521883
 20
19.69231695116153
 30
0.0
 10
23.3520773113392
 20
19.69427822006946
 30
0.0
 10
23.33710025614855
 20
19.69820082397717
 30
0.0
 10
23.3224968050483
 20
19.7033426355301
 30
0.0
 10
23.3151949952483
 20
19.70591358156153
 30
0.0
 11
23.3595657521883
 21
19.69231695116153
 31
0.0
 11
23.33719383109275
 21
19.69850556213441
 31
0.0
 11
23.3151949952483
 21
19.70591358156153
 31
0.0
  0
SPLINE
  5
11A
330
2
100
AcDbEntity
  8
GAIKEI
  6
Continuous
 62
     1
100
AcDbSpline
210
0.0
220
0.0
230
1.0
 70
     8
 71
     3
 72
     9
 73
     5
 74
     3
 42
0.0000000001
 43
0.0000000001
 44
0.00000001
 40
0.0
 40
0.0
 40
0.0
 40
0.0
 40
0.034443791377402
 40
0.0688822648191075
 40
0.0688822648191075
 40
0.0688822648191075
 40
0.0688822648191075
 10
24.23895542594829
 20
19.70591358156153
 30
0.0
 10
24.22809536885703
 20
19.70214509901251
 30
0.0
 10
24.20637692570372
 20
19.69460873488117
 30
0.0
 10
24.18385216136892
 20
19.69001283347342
 30
0.0
 10
24.17259064626831
 20
19.68771506986155
 30
0.0
 11
24.23895542594829
 21
19.70591358156153
 31
0.0
 11
24.20617364019165
 21
19.69534337259722
 31
0.0
 11
24.17259064626831
 21
19.68771506986155
 31
0.0
  0
SPLINE
  5
11B
330
2
100
AcDbEntity
  8
GAIKEI
  6
Continuous
 62
     1
100
AcDbSpline
210
0.0
220
0.0
230
1.0
 70
     8
 71
     3
 72
     9
 73
     5
 74
     3
 42
0.0000000001
 43
0.0000000001
 44
0.00000001
 40
0.0
 40
0.0
 40
0.0
 40
0.0
 40
0.0670029080996751
 40
0.1340079953028978
 40
0.1340079953028978
 40
0.1340079953028978
 40
0.1340079953028978
 10
23.67886466228828
 20
19.68771506986155
 30
0.0
 10
23.65663700481426
 20
19.68997190737565
 30
0.0
 10
23.61218096945049
 20
19.69448567563751
 30
0.0
 10
23.56815062944577
 20
19.70210423170096
 30
0.0
 10
23.5461351029283
 20
19.70591358156153
 30
0.0
 11
23.67886466228828
 21
19.68771506986155
 31
0.0
 11
23.61228811137022
 21
19.69526176403897
 31
0.0
 11
23.5461351029283
 21
19.70591358156153
 31
0.0
  0
SPLINE
  5
11C
330
2
100
AcDbEntity
  8
GAIKEI
  6
Continuous
 62
     1
100
AcDbSpline
210
0.0
220
0.0
230
1.0
 70
     8
 71
     3
 72
     9
 73
     5
 74
     3
 42
0.0000000001
 43
0.0000000001
 44
0.00000001
 40
0.0
 40
0.0
 40
0.0
 40
0.0
 40
0.1176157418806203
 40
0.2351577576374259
 40
0.2351577576374259
 40
0.2351577576374259
 40
0.2351577576374259
 10
23.5461351029283
 20
20.02793720982152
 30
0.0
 10
23.58383690032136
 20
20.01663579528335
 30
0.0
 10
23.65921686634201
 20
19.99404006981734
 30
0.0
 10
23.7377973070833
 20
19.98982295589715
 30
0.0
 10
23.77707521058829
 20
19.98771506986154
 30
0.0
 11
23.5461351029283
 21
20.02793720982152
 31
0.0
 11
23.66004111804301
 21
19.99863051015356
 31
0.0
 11
23.77707521058829
 21
19.98771506986154
 31
0.0
  0
SPLINE
  5
11D
330
2
100
AcDbEntity
  8
GAIKEI
  6
Continuous
 62
     1
100
AcDbSpline
210
0.0
220
0.0
230
1.0
 70
     8
 71
     3
 72
     9
 73
     5
 74
     3
 42
0.0000000001
 43
0.0000000001
 44
0.00000001
 40
0.0
 40
0.0
 40
0.0
 40
0.0
 40
0.1175431990327913
 40
0.2351577691255329
 40
0.2351577691255329
 40
0.2351577691255329
 40
0.2351577691255329
 10
23.77707521058829
 20
19.98771506986154
 30
0.0
 10
23.81635351476859
 20
19.98982295740094
 30
0.0
 10
23.8949339698944
 20
19.99404003208352
 30
0.0
 10
23.97031391086375
 20
20.01663585812616
 30
0.0
 10
24.00801531826829
 20
20.02793720982152
 30
0.0
 11
23.77707521058829
 21
19.98771506986154
 31
0.0
 11
23.89411047928541
 21
19.99863064159871
 31
0.0
 11
24.00801531826829
 21
20.02793720982152
 31
0.0
  0
SPLINE
  5
11E
330
2
100
AcDbEntity
  8
GAIKEI
  6
Continuous
 62
     1
100
AcDbSpline
210
0.0
220
0.0
230
1.0
 70
     8
 71
     3
 72
    11
 73
     7
 74
     5
 42
0.0000000001
 43
0.0000000001
 44
0.00000001
 40
0.0
 40
0.0
 40
0.0
 40
0.0
 40
0.061778067380143
 40
0.1235739681155101
 40
0.1853698018343207
 40
0.2471478034224596
 40
0.2471478034224596
 40
0.2471478034224596
 40
0.2471478034224596
 10
24.00801531826829
 20
20.02793720982152
 30
0.0
 10
24.02578798901857
 20
20.01737080834917
 30
0.0
 10
24.06133846737046
 20
19.99623496827689
 30
0.0
 10
24.12348541909449
 20
19.98345451175271
 30
0.0
 10
24.18563233391768
 20
19.99623500489471
 30
0.0
 10
24.22118277410437
 20
20.01737082048518
 30
0.0
 10
24.23895542594829
 20
20.02793720982152
 30
0.0
 11
24.00801531826829
 21
20.02793720982152
 31
0.0
 11
24.06280262140854
 21
19.99939108416618
 31
0.0
 11
24.12348543908826
 21
19.98771506986156
 31
0.0
 11
24.18416818356127
 21
19.99939110994893
 31
0.0
 11
24.23895542594829
 21
20.02793720982152
 31
0.0
  0
SPLINE
  5
11F
330
2
100
AcDbEntity
  8
GAIKEI
  6
Continuous
 62
     1
100
AcDbSpline
210
0.0
220
0.0
230
1.0
 70
     8
 71
     3
 72
     9
 73
     5
 74
     3
 42
0.0000000001
 43
0.0000000001
 44
0.00000001
 40
0.0
 40
0.0
 40
0.0
 40
0.0
 40
0.0344385020330136
 40
0.0688822649150094
 40
0.0688822649150094
 40
0.0688822649150094
 40
0.0688822649150094
 10
24.07438009794828
 20
19.68771506986155
 30
0.0
 10
24.06311857339935
 20
19.69001283506597
 30
0.0
 10
24.0405938088355
 20
19.69460873585018
 30
0.0
 10
24.01887536613396
 20
19.70214510141744
 30
0.0
 10
24.00801531826829
 20
19.70591358156153
 30
0.0
 11
24.07438009794828
 21
19.68771506986155
 31
0.0
 11
24.04079707618428
 21
19.69534337910829
 31
0.0
 11
24.00801531826829
 21
19.70591358156153
 31
0.0
  0
SPLINE
  5
120
330
2
100
AcDbEntity
  8
GAIKEI
  6
Continuous
100
AcDbSpline
210
0.0
220
0.0
230
1.0
 70
     8
 71
     3
 72
    21
 73
    17
 74
    15
 42
0.0000000001
 43
0.0000000001
 44
0.00000001
 40
0.0
 40
0.0
 40
0.0
 40
0.0
 40
0.0660401604112985
 40
0.1320802350025159
 40
0.1650419253206296
 40
0.1980036873263681
 40
0.230880616457771
 40
0.26375742771891
 40
0.2965303259980593
 40
0.3293031413909208
 40
0.3619599347262026
 40
0.3946166529532959
 40
0.4271532872220312
 40
0.4596898252652592
 40
0.5243914512798332
 40
0.5890927609036796
 40
0.5890927609036796
 40
0.5890927609036796
 40
0.5890927609036796
 10
22.45380641854831
 20
20.84919858914154
 30
0.0
 10
22.45462145332013
 20
20.87122606726879
 30
0.0
 10
22.45625153648459
 20
20.9152809939527
 30
0.0
 10
22.46726871443866
 20
20.9694372930631
 30
0.0
 10
22.47978819154531
 20
21.01161509513173
 30
0.0
 10
22.49123697106853
 20
21.04252451176833
 30
0.0
 10
22.50463879481811
 20
21.07260038208335
 30
0.0
 10
22.51993884302101
 20
21.10168778687449
 30
0.0
 10
22.53708406237121
 20
21.1296859198647
 30
0.0
 10
22.55597940625936
 20
21.15644454277722
 30
0.0
 10
22.57656640459484
 20
21.18187557597082
 30
0.0
 10
22.59872919351156
 20
21.20583599164882
 30
0.0
 10
22.62239464915911
 20
21.22826570325458
 30
0.0
 10
22.65574697215197
 20
21.25582710990901
 30
0.0
 10
22.70050905151834
 20
21.28647045639386
 30
0.0
 10
22.73978759205505
 20
21.30444812755667
 30
0.0
 10
22.75942681754827
 20
21.31343693458155
 30
0.0
 11
22.45380641854831
 21
20.84919858914154
 31
0.0
 11
22.45804822405069
 21
20.91510238253528
 31
0.0
 11
22.4707154384883
 21
20.97991621820148
 31
0.0
 11
22.4801343904868
 21
21.01150350056676
 31
0.0
 11
22.49157492358825
 21
21.0424161515615
 31
0.0
 11
22.5049597854109
 21
21.07244510387733
 31
0.0
 11
22.52026634116828
 21
21.10154139408146
 31
0.0
 11
22.53738249652883
 21
21.12948956256497
 31
0.0
 11
22.55628857390832
 21
21.1562592787015
 31
0.0
 11
22.57683763916822
 21
21.18164041547743
 31
0.0
 11
22.59901246628829
 21
21.20561411618152
 31
0.0
 11
22.6226362480715
 21
21.22798708075013
 31
0.0
 11
22.64769181322833
 21
21.24874388698157
 31
0.0
 11
22.70138662870698
 21
21.28484329696897
 31
0.0
 11
22.75942681754827
 21
21.31343693458155
 31
0.0
  0
DIMENSION
  5
121
330
2
100
AcDbEntity
  8
SUNPO
100
AcDbDimension
  2
*D8
 10
41.58945427966535
 20
15.59771506986166
 30
0.0
 11
39.83945427966535
 21
22.59771506986163
 31
0.0
 70
    33
  1
φ140
 71
     5
 42
13.99999999999991
  3
STANDARD
100
AcDbAlignedDimension
 13
33.58945427966535
 23
29.59771506986158
 33
0.0
 14
33.58945427966535
 24
15.59771506986166
 34
0.0
1001
ACAD
1000
DSTYLE
1002
{
1070
    40
1040
1.0
1070
   140
1040
2.5
1070
   147
1040
0.5
1070
   172
1070
     1
1070
   279
1070
     0
1070
   288
1070
     0
1002
}
  0
LINE
  5
12F
330
2
100
AcDbEntity
  8
GAIKEI
  6
Continuous
 62
     1
100
AcDbLine
 10
-30.67866072384399
 20
23.97151039370706
 30
0.0
 11
-30.67866072384399
 21
24.29824190766706
 31
0.0
  0
LINE
  5
130
330
2
100
AcDbEntity
  8
GAIKEI
  6
Continuous
100
AcDbLine
 10
-32.22964056878399
 20
21.31396377238707
 30
0.0
 11
-30.222876241384
 21
24.75248025310708
 31
0.0
  0
LINE
  5
131
330
2
100
AcDbEntity
  8
GAIKEI
  6
Continuous
100
AcDbLine
 10
-29.91171786684399
 20
24.75248025310708
 30
0.0
 11
-31.91848219426399
 21
21.31396377238707
 31
0.0
  0
LINE
  5
132
330
2
100
AcDbEntity
  8
GAIKEI
  6
Continuous
100
AcDbLine
 10
-29.858660723844
 20
21.23824190766709
 30
0.0
 11
-29.858660723844
 21
24.78824190766707
 31
0.0
  0
LINE
  5
133
330
2
100
AcDbEntity
  8
GAIKEI
  6
Continuous
100
AcDbLine
 10
-29.82866072384402
 20
21.23824190766709
 30
0.0
 11
-29.82866072384402
 21
24.64824190766706
 31
0.0
  0
LINE
  5
134
330
2
100
AcDbEntity
  8
GAIKEI
  6
Continuous
100
AcDbLine
 10
-29.50866072384398
 20
24.64824190766706
 30
0.0
 11
-29.50866072384398
 21
21.23824190766709
 31
0.0
  0
LINE
  5
135
330
2
100
AcDbEntity
  8
GAIKEI
  6
Continuous
 62
     1
100
AcDbLine
 10
-29.34866072384401
 20
21.23824190766709
 30
0.0
 11
-29.34866072384401
 21
21.65323774806708
 31
0.0
  0
LINE
  5
136
330
2
100
AcDbEntity
  8
GAIKEI
  6
Continuous
 62
     1
100
AcDbLine
 10
-29.34866072384401
 20
23.54324606726706
 30
0.0
 11
-29.34866072384401
 21
24.25323774806708
 31
0.0
  0
LINE
  5
137
330
2
100
AcDbEntity
  8
GAIKEI
  6
Continuous
 62
     1
100
AcDbLine
 10
-29.22866072400402
 20
21.54824190766706
 30
0.0
 11
-29.228660420784
 21
21.23824190766709
 31
0.0
  0
LINE
  5
138
330
2
100
AcDbEntity
  8
GAIKEI
  6
Continuous
 62
     1
100
AcDbLine
 10
-29.22866072400402
 20
24.14824190766706
 30
0.0
 11
-29.22866072398401
 21
23.64824190766706
 31
0.0
  0
LINE
  5
139
330
2
100
AcDbEntity
  8
GAIKEI
  6
Continuous
 62
     1
100
AcDbLine
 10
-29.22866072400402
 20
22.84824190766707
 30
0.0
 11
-29.22866072398401
 21
22.34824190766707
 31
0.0
  0
LINE
  5
13A
330
2
100
AcDbEntity
  8
GAIKEI
  6
Continuous
 62
     1
100
AcDbLine
 10
-29.17866072384399
 20
24.09824190808706
 30
0.0
 11
-29.17866072384399
 21
23.69824190748707
 31
0.0
  0
LINE
  5
13B
330
2
100
AcDbEntity
  8
GAIKEI
  6
Continuous
 62
     1
100
AcDbLine
 10
-29.17866072384399
 20
22.79824190808708
 30
0.0
 11
-29.17866072384399
 21
22.39824190748706
 31
0.0
  0
LINE
  5
13C
330
2
100
AcDbEntity
  8
GAIKEI
  6
Continuous
 62
     1
100
AcDbLine
 10
-29.17866072384399
 20
21.49824190808707
 30
0.0
 11
-29.17866072384399
 21
21.23824190766709
 31
0.0
  0
LINE
  5
13D
330
2
100
AcDbEntity
  8
GAIKEI
  6
Continuous
 62
     1
100
AcDbLine
 10
-27.87866072384398
 20
28.79824190766706
 30
0.0
 11
-27.87866072384398
 21
29.49824190766705
 31
0.0
  0
LINE
  5
13E
330
2
100
AcDbEntity
  8
GAIKEI
  6
Continuous
 62
     1
100
AcDbLine
 10
-29.178666903184
 20
23.69824812332709
 30
0.0
 11
-29.228668448104
 21
23.6482496771871
 31
0.0
  0
LINE
  5
13F
330
2
100
AcDbEntity
  8
GAIKEI
  6
Continuous
 62
     1
100
AcDbLine
 10
-29.178666903184
 20
22.39824812332708
 30
0.0
 11
-29.228668448104
 21
22.34824967718708
 31
0.0
  0
LINE
  5
140
330
2
100
AcDbEntity
  8
GAIKEI
  6
Continuous
 62
     1
100
AcDbLine
 10
-26.57865454448401
 20
24.09823569198707
 30
0.0
 11
-26.52865299958401
 21
24.14823413814707
 31
0.0
  0
LINE
  5
141
330
2
100
AcDbEntity
  8
GAIKEI
  6
Continuous
 62
     1
100
AcDbLine
 10
-25.89866072384402
 20
21.54824190766706
 30
0.0
 11
-25.92866072384399
 21
21.54824190766706
 31
0.0
  0
LINE
  5
142
330
2
100
AcDbEntity
  8
GAIKEI
  6
Continuous
 62
     1
100
AcDbLine
 10
-26.40866072384401
 20
21.54824190766706
 30
0.0
 11
-26.52866072384401
 21
21.54824190766706
 31
0.0
  0
LINE
  5
143
330
2
100
AcDbEntity
  8
GAIKEI
  6
Continuous
 62
     1
100
AcDbLine
 10
-29.858660723844
 20
21.54824190766706
 30
0.0
 11
-29.82866072384402
 21
21.54824190766706
 31
0.0
  0
LINE
  5
144
330
2
100
AcDbEntity
  8
GAIKEI
  6
Continuous
 62
     1
100
AcDbLine
 10
-29.34866072384401
 20
21.54824190766706
 30
0.0
 11
-29.22866072400402
 21
21.54824190766706
 31
0.0
  0
LINE
  5
145
330
2
100
AcDbEntity
  8
GAIKEI
  6
Continuous
 62
     1
100
AcDbLine
 10
-25.89866072384402
 20
22.34824190766707
 30
0.0
 11
-25.92866072384399
 21
22.34824190766707
 31
0.0
  0
LINE
  5
146
330
2
100
AcDbEntity
  8
GAIKEI
  6
Continuous
 62
     1
100
AcDbLine
 10
-26.24866072384398
 20
22.34824190766707
 30
0.0
 11
-26.52866072384401
 21
22.34824190766707
 31
0.0
  0
LINE
  5
147
330
2
100
AcDbEntity
  8
GAIKEI
  6
Continuous
 62
     1
100
AcDbLine
 10
-29.858660723844
 20
22.34824190766707
 30
0.0
 11
-29.82866072384402
 21
22.34824190766707
 31
0.0
  0
LINE
  5
148
330
2
100
AcDbEntity
  8
GAIKEI
  6
Continuous
 62
     1
100
AcDbLine
 10
-29.50866072384398
 20
22.34824190766707
 30
0.0
 11
-29.22866072398401
 21
22.34824190766707
 31
0.0
  0
LINE
  5
149
330
2
100
AcDbEntity
  8
GAIKEI
  6
Continuous
 62
     1
100
AcDbLine
 10
-34.77866072384401
 20
22.59824190766707
 30
0.0
 11
-34.07866072384397
 21
22.59824190766707
 31
0.0
  0
LINE
  5
14A
330
2
100
AcDbEntity
  8
GAIKEI
  6
Continuous
 62
     1
100
AcDbLine
 10
-21.67866072384399
 20
22.59824190766707
 30
0.0
 11
-20.978660723844
 21
22.59824190766707
 31
0.0
  0
LINE
  5
14B
330
2
100
AcDbEntity
  8
GAIKEI
  6
Continuous
 62
     1
100
AcDbLine
 10
-25.89866072384402
 20
22.84824190766707
 30
0.0
 11
-25.92866072384399
 21
22.84824190766707
 31
0.0
  0
LINE
  5
14C
330
2
100
AcDbEntity
  8
GAIKEI
  6
Continuous
 62
     1
100
AcDbLine
 10
-26.24866072384398
 20
22.84824190766707
 30
0.0
 11
-26.52866072384401
 21
22.84824190766707
 31
0.0
  0
LINE
  5
14D
330
2
100
AcDbEntity
  8
GAIKEI
  6
Continuous
 62
     1
100
AcDbLine
 10
-29.858660723844
 20
22.84824190766707
 30
0.0
 11
-29.82866072384402
 21
22.84824190766707
 31
0.0
  0
LINE
  5
14E
330
2
100
AcDbEntity
  8
GAIKEI
  6
Continuous
 62
     1
100
AcDbLine
 10
-29.50866072384398
 20
22.84824190766707
 30
0.0
 11
-29.22866072400402
 21
22.84824190766707
 31
0.0
  0
LINE
  5
14F
330
2
100
AcDbEntity
  8
GAIKEI
  6
Continuous
 62
     1
100
AcDbLine
 10
-29.17866690808401
 20
21.49823569688706
 30
0.0
 11
-29.22866845422399
 21
21.54823414426707
 31
0.0
  0
LINE
  5
150
330
2
100
AcDbEntity
  8
GAIKEI
  6
Continuous
 62
     1
100
AcDbLine
 10
-29.17866690808401
 20
22.79823569688705
 30
0.0
 11
-29.22866845422399
 21
22.84823414426705
 31
0.0
  0
LINE
  5
151
330
2
100
AcDbEntity
  8
GAIKEI
  6
Continuous
 62
     1
100
AcDbLine
 10
-29.17866690808401
 20
24.09823569688706
 30
0.0
 11
-29.22866845422399
 21
24.14823414426706
 31
0.0
  0
LINE
  5
152
330
2
100
AcDbEntity
  8
GAIKEI
  6
Continuous
 62
     1
100
AcDbLine
 10
-26.57866072384403
 20
21.23824190766709
 30
0.0
 11
-26.57866072384403
 21
21.49824190784707
 31
0.0
  0
LINE
  5
153
330
2
100
AcDbEntity
  8
GAIKEI
  6
Continuous
 62
     1
100
AcDbLine
 10
-26.57866072384403
 20
22.39824190722709
 30
0.0
 11
-26.57866072384403
 21
22.79824190784708
 31
0.0
  0
LINE
  5
154
330
2
100
AcDbEntity
  8
GAIKEI
  6
Continuous
 62
     1
100
AcDbLine
 10
-26.57866072384403
 20
23.69824190722707
 30
0.0
 11
-26.57866072384403
 21
24.09824190784707
 31
0.0
  0
LINE
  5
155
330
2
100
AcDbEntity
  8
GAIKEI
  6
Continuous
 62
     1
100
AcDbLine
 10
-26.52866072384401
 20
22.34824190766707
 30
0.0
 11
-26.52866072384401
 21
22.84824190766707
 31
0.0
  0
LINE
  5
156
330
2
100
AcDbEntity
  8
GAIKEI
  6
Continuous
 62
     1
100
AcDbLine
 10
-26.528660723684
 20
23.64824190766706
 30
0.0
 11
-26.52866072370401
 21
24.14824190766706
 31
0.0
  0
LINE
  5
157
330
2
100
AcDbEntity
  8
GAIKEI
  6
Continuous
 62
     1
100
AcDbLine
 10
-26.52866083392402
 20
21.23824190766709
 30
0.0
 11
-26.52866072384401
 21
21.54824190766706
 31
0.0
  0
LINE
  5
158
330
2
100
AcDbEntity
  8
GAIKEI
  6
Continuous
 62
     1
100
AcDbLine
 10
-26.40866072384401
 20
21.23824190766709
 30
0.0
 11
-26.40866072384401
 21
21.65323774806708
 31
0.0
  0
LINE
  5
159
330
2
100
AcDbEntity
  8
GAIKEI
  6
Continuous
 62
     1
100
AcDbLine
 10
-26.40866072384401
 20
23.54324606726706
 30
0.0
 11
-26.40866072384401
 21
24.25323774806708
 31
0.0
  0
LINE
  5
15A
330
2
100
AcDbEntity
  8
GAIKEI
  6
Continuous
100
AcDbLine
 10
-26.24866072384398
 20
21.23824190766709
 30
0.0
 11
-26.24866072384398
 21
24.64824190766706
 31
0.0
  0
LINE
  5
15B
330
2
100
AcDbEntity
  8
GAIKEI
  6
Continuous
100
AcDbLine
 10
-25.92866072384399
 20
24.64824190766706
 30
0.0
 11
-25.92866072384399
 21
21.23824190766709
 31
0.0
  0
LINE
  5
15C
330
2
100
AcDbEntity
  8
GAIKEI
  6
Continuous
100
AcDbLine
 10
-25.89866072384402
 20
24.78824190766707
 30
0.0
 11
-25.89866072384402
 21
21.23824190766709
 31
0.0
  0
LINE
  5
15D
330
2
100
AcDbEntity
  8
GAIKEI
  6
Continuous
100
AcDbLine
 10
-25.62866072384398
 20
24.84824190766707
 30
0.0
 11
-25.62866072384398
 21
24.89824190766706
 31
0.0
  0
LINE
  5
15E
330
2
100
AcDbEntity
  8
GAIKEI
  6
Continuous
 62
     1
100
AcDbLine
 10
-26.57865454448401
 20
22.79823569198709
 30
0.0
 11
-26.52865299958401
 21
22.84823413814706
 31
0.0
  0
LINE
  5
15F
330
2
100
AcDbEntity
  8
GAIKEI
  6
Continuous
 62
     1
100
AcDbLine
 10
-26.57865454448401
 20
21.49823569198708
 30
0.0
 11
-26.52865299958401
 21
21.54823413814705
 31
0.0
  0
LINE
  5
160
330
2
100
AcDbEntity
  8
GAIKEI
  6
Continuous
 62
     1
100
AcDbLine
 10
-25.89866072384402
 20
23.64824190766706
 30
0.0
 11
-25.92866072384399
 21
23.64824190766706
 31
0.0
  0
LINE
  5
161
330
2
100
AcDbEntity
  8
GAIKEI
  6
Continuous
 62
     1
100
AcDbLine
 10
-26.40866072384401
 20
23.64824190766706
 30
0.0
 11
-26.528660723684
 21
23.64824190766706
 31
0.0
  0
LINE
  5
162
330
2
100
AcDbEntity
  8
GAIKEI
  6
Continuous
 62
     1
100
AcDbLine
 10
-29.858660723844
 20
23.64824190766706
 30
0.0
 11
-29.82866072384402
 21
23.64824190766706
 31
0.0
  0
LINE
  5
163
330
2
100
AcDbEntity
  8
GAIKEI
  6
Continuous
 62
     1
100
AcDbLine
 10
-29.34866072384401
 20
23.64824190766706
 30
0.0
 11
-29.22866072398401
 21
23.64824190766706
 31
0.0
  0
LINE
  5
164
330
2
100
AcDbEntity
  8
GAIKEI
  6
Continuous
 62
     1
100
AcDbLine
 10
-25.89866072384402
 20
24.14824190766706
 30
0.0
 11
-25.92866072384399
 21
24.14824190766706
 31
0.0
  0
LINE
  5
165
330
2
100
AcDbEntity
  8
GAIKEI
  6
Continuous
 62
     1
100
AcDbLine
 10
-26.40866072384401
 20
24.14824190766706
 30
0.0
 11
-26.52866072370401
 21
24.14824190766706
 31
0.0
  0
LINE
  5
166
330
2
100
AcDbEntity
  8
GAIKEI
  6
Continuous
 62
     1
100
AcDbLine
 10
-29.858660723844
 20
24.14824190766706
 30
0.0
 11
-29.82866072384402
 21
24.14824190766706
 31
0.0
  0
LINE
  5
167
330
2
100
AcDbEntity
  8
GAIKEI
  6
Continuous
 62
     1
100
AcDbLine
 10
-29.34866072384401
 20
24.14824190766706
 30
0.0
 11
-29.22866072400402
 21
24.14824190766706
 31
0.0
  0
LINE
  5
168
330
2
100
AcDbEntity
  8
GAIKEI
  6
Continuous
 62
     1
100
AcDbLine
 10
-30.48797583094401
 20
24.29824190766706
 30
0.0
 11
-30.67866072384399
 21
24.29824190766706
 31
0.0
  0
LINE
  5
169
330
2
100
AcDbEntity
  8
GAIKEI
  6
Continuous
 62
     1
100
AcDbLine
 10
-25.269345616724
 20
24.29824190766706
 30
0.0
 11
-25.07866072384402
 21
24.29824190766706
 31
0.0
  0
LINE
  5
16A
330
2
100
AcDbEntity
  8
GAIKEI
  6
Continuous
100
AcDbLine
 10
-29.858660723844
 20
24.64824190766706
 30
0.0
 11
-29.50866072384398
 21
24.64824190766706
 31
0.0
  0
LINE
  5
16B
330
2
100
AcDbEntity
  8
GAIKEI
  6
Continuous
100
AcDbLine
 10
-26.24866072384398
 20
24.64824190766706
 30
0.0
 11
-25.89866072384402
 21
24.64824190766706
 31
0.0
  0
LINE
  5
16C
330
2
100
AcDbEntity
  8
GAIKEI
  6
Continuous
100
AcDbLine
 10
-30.17952652558401
 20
24.78824190766707
 30
0.0
 11
-29.868368151064
 21
24.78824190766707
 31
0.0
  0
LINE
  5
16D
330
2
100
AcDbEntity
  8
GAIKEI
  6
Continuous
100
AcDbLine
 10
-29.86750234930403
 20
24.78824190766707
 30
0.0
 11
-29.858660723844
 21
24.78824190766707
 31
0.0
  0
LINE
  5
16E
330
2
100
AcDbEntity
  8
GAIKEI
  6
Continuous
100
AcDbLine
 10
-25.89866072384402
 20
24.78824190766707
 30
0.0
 11
-25.88981909836397
 21
24.78824190766707
 31
0.0
  0
LINE
  5
16F
330
2
100
AcDbEntity
  8
GAIKEI
  6
Continuous
100
AcDbLine
 10
-25.88895329662401
 20
24.78824190766707
 30
0.0
 11
-25.577794922084
 21
24.78824190766707
 31
0.0
  0
LINE
  5
170
330
2
100
AcDbEntity
  8
GAIKEI
  6
Continuous
100
AcDbLine
 10
-25.77866072384401
 20
25.04824190766707
 30
0.0
 11
-29.92866072384399
 21
25.04824190766707
 31
0.0
  0
LINE
  5
171
330
2
100
AcDbEntity
  8
GAIKEI
  6
Continuous
 62
     1
100
AcDbLine
 10
-26.578654539604
 20
22.39824811844707
 30
0.0
 11
-26.52865299346402
 21
22.34824967106707
 31
0.0
  0
LINE
  5
172
330
2
100
AcDbEntity
  8
GAIKEI
  6
Continuous
 62
     1
100
AcDbLine
 10
-26.578654539604
 20
23.69824811844706
 30
0.0
 11
-26.52865299346402
 21
23.64824967106705
 31
0.0
  0
LINE
  5
173
330
2
100
AcDbEntity
  8
GAIKEI
  6
Continuous
 62
     1
100
AcDbLine
 10
-25.07866072384402
 20
24.29824190766706
 30
0.0
 11
-25.07866072384402
 21
23.97151039370706
 31
0.0
  0
LINE
  5
174
330
2
100
AcDbEntity
  8
GAIKEI
  6
Continuous
100
AcDbLine
 10
-23.83883925342397
 20
21.31396377238707
 30
0.0
 11
-25.84560358082402
 21
24.75248025310708
 31
0.0
  0
LINE
  5
175
330
2
100
AcDbEntity
  8
GAIKEI
  6
Continuous
100
AcDbLine
 10
-25.53444520630402
 20
24.75248025310708
 30
0.0
 11
-23.52768087888401
 21
21.31396377238707
 31
0.0
  0
ARC
  5
176
330
2
100
AcDbEntity
  8
GAIKEI
  6
Continuous
 62
     1
100
AcDbCircle
 10
-27.87866072384398
 20
22.59824190766707
 30
0.0
 40
5.999999999999959
100
AcDbArc
 50
82.49999999999777
 51
97.50000000000222
  0
ARC
  5
177
330
2
100
AcDbEntity
  8
GAIKEI
  6
Continuous
 62
     1
100
AcDbCircle
 10
-28.58350216182399
 20
27.95204415908708
 30
0.0
 40
0.5999999999996211
100
AcDbArc
 50
97.50000000081016
 51
277.4999999999987
  0
ARC
  5
178
330
2
100
AcDbEntity
  8
GAIKEI
  6
Continuous
 62
     1
100
AcDbCircle
 10
-27.87866072384398
 20
22.59824190766707
 30
0.0
 40
4.799999999999911
100
AcDbArc
 50
82.50000000000122
 51
97.49999999990022
  0
ARC
  5
179
330
2
100
AcDbEntity
  8
GAIKEI
  6
Continuous
 62
     1
100
AcDbCircle
 10
-27.17381928584402
 20
27.95204415908708
 30
0.0
 40
0.6000000000030364
100
AcDbArc
 50
262.499999998904
 51
82.50000000108185
  0
ARC
  5
17A
330
2
100
AcDbEntity
  8
GAIKEI
  6
Continuous
 62
     1
100
AcDbCircle
 10
-27.87866072384398
 20
22.59824190766707
 30
0.0
 40
5.99999999999995
100
AcDbArc
 50
172.500000000001
 51
187.499999999999
  0
ARC
  5
17B
330
2
100
AcDbEntity
  8
GAIKEI
  6
Continuous
 62
     1
100
AcDbCircle
 10
-33.23246297526399
 20
21.89340046966706
 30
0.0
 40
0.5999999999970119
100
AcDbArc
 50
187.4999999989147
 51
7.499999999998992
  0
ARC
  5
17C
330
2
100
AcDbEntity
  8
GAIKEI
  6
Continuous
 62
     1
100
AcDbCircle
 10
-27.87866072384398
 20
22.59824190766707
 30
0.0
 40
4.799999999999913
100
AcDbArc
 50
172.500000000001
 51
187.5000000001367
  0
ARC
  5
17D
330
2
100
AcDbEntity
  8
GAIKEI
  6
Continuous
 62
     1
100
AcDbCircle
 10
-33.23246297526399
 20
23.30308334564708
 30
0.0
 40
0.6000000000004175
100
AcDbArc
 50
352.500000000796
 51
172.499999999193
  0
ARC
  5
17E
330
2
100
AcDbEntity
  8
GAIKEI
  6
Continuous
 62
     1
100
AcDbCircle
 10
-27.87866072384398
 20
22.59824190766707
 30
0.0
 40
5.999999999999952
100
AcDbArc
 50
352.500000000001
 51
7.499999999998992
  0
ARC
  5
17F
330
2
100
AcDbEntity
  8
GAIKEI
  6
Continuous
 62
     1
100
AcDbCircle
 10
-22.52485847242397
 20
23.30308334564708
 30
0.0
 40
0.5999999999996172
100
AcDbArc
 50
7.500000000806936
 51
187.499999999999
  0
ARC
  5
180
330
2
100
AcDbEntity
  8
GAIKEI
  6
Continuous
 62
     1
100
AcDbCircle
 10
-27.87866072384398
 20
22.59824190766707
 30
0.0
 40
4.799999999999907
100
AcDbArc
 50
352.500000000001
 51
7.49999999990042
  0
ARC
  5
181
330
2
100
AcDbEntity
  8
GAIKEI
  6
Continuous
 62
     1
100
AcDbCircle
 10
-22.52485847242397
 20
21.89340046966706
 30
0.0
 40
0.6000000000030359
100
AcDbArc
 50
172.4999999989038
 51
352.5000000010853
  0
ARC
  5
182
330
2
100
AcDbEntity
  8
GAIKEI
  6
Continuous
100
AcDbCircle
 10
-29.92866072384399
 20
24.84824190766707
 30
0.0
 40
0.2
100
AcDbArc
 50
90.0
 51
197.5137082068983
  0
ARC
  5
183
330
2
100
AcDbEntity
  8
GAIKEI
  6
Continuous
 62
     1
100
AcDbCircle
 10
-29.34866072384401
 20
21.81324190766708
 30
0.0
 40
0.1599999999999994
100
AcDbArc
 50
180.0
 51
270.0
  0
ARC
  5
184
330
2
100
AcDbEntity
  8
GAIKEI
  6
Continuous
 62
     1
100
AcDbCircle
 10
-29.34866072384401
 20
23.38324190766707
 30
0.0
 40
0.1599999999999909
100
AcDbArc
 50
90.0
 51
180.0
  0
ARC
  5
185
330
2
100
AcDbEntity
  8
GAIKEI
  6
Continuous
 62
     1
100
AcDbCircle
 10
-29.34866072384401
 20
24.41324190766707
 30
0.0
 40
0.1599999999999994
100
AcDbArc
 50
180.0
 51
270.0
  0
ARC
  5
186
330
2
100
AcDbEntity
  8
GAIKEI
  6
Continuous
 62
     1
100
AcDbCircle
 10
-26.40866072384401
 20
21.81324190766708
 30
0.0
 40
0.1600000000000193
100
AcDbArc
 50
270.0
 51
0.0
  0
ARC
  5
187
330
2
100
AcDbEntity
  8
GAIKEI
  6
Continuous
 62
     1
100
AcDbCircle
 10
-26.40866072384401
 20
23.38324190766707
 30
0.0
 40
0.1599999999999994
100
AcDbArc
 50
0.0
 51
90.0
  0
ARC
  5
188
330
2
100
AcDbEntity
  8
GAIKEI
  6
Continuous
 62
     1
100
AcDbCircle
 10
-26.40866072384401
 20
24.41324190766707
 30
0.0
 40
0.160000000000008
100
AcDbArc
 50
270.0
 51
0.0
  0
ARC
  5
189
330
2
100
AcDbEntity
  8
GAIKEI
  6
Continuous
100
AcDbCircle
 10
-25.82866072384403
 20
24.84824190766707
 30
0.0
 40
0.2000000000000365
100
AcDbArc
 50
342.5300486916245
 51
0.0
  0
ARC
  5
18A
330
2
100
AcDbEntity
  8
GAIKEI
  6
Continuous
100
AcDbCircle
 10
-25.77866072384401
 20
24.89824190766706
 30
0.0
 40
0.15
100
AcDbArc
 50
0.0
 51
90.0
  0
ARC
  5
18B
330
2
100
AcDbEntity
  8
GAIKEI
  6
Continuous
100
AcDbCircle
 10
-27.87866072384398
 20
22.59824190766707
 30
0.0
 40
6.999999999999997
100
AcDbArc
 50
348.7926039374016
 51
191.2073960625984
  0
SPLINE
  5
18C
330
2
100
AcDbEntity
  8
GAIKEI
  6
Continuous
 62
     1
100
AcDbSpline
210
0.0
220
0.0
230
1.0
 70
     8
 71
     3
 72
     9
 73
     5
 74
     3
 42
0.0000000001
 43
0.0000000001
 44
0.00000001
 40
0.0
 40
0.0
 40
0.0
 40
0.0
 40
0.0582090978218663
 40
0.1164207786516267
 40
0.1164207786516267
 40
0.1164207786516267
 40
0.1164207786516267
 10
-30.67866072384399
 20
24.18329473740707
 30
0.0
 10
-30.67639911324548
 20
24.20257430323014
 30
0.0
 10
-30.67187577190862
 20
24.24113428753984
 30
0.0
 10
-30.66426679489129
 20
24.27920575385968
 30
0.0
 10
-30.66046221212398
 20
24.29824190766706
 30
0.0
 11
-30.67866072384399
 21
24.18329473740707
 31
0.0
 11
-30.67110450745392
 21
24.2410113095016
 31
0.0
 11
-30.66046221212398
 21
24.29824190766706
 31
0.0
  0
SPLINE
  5
18D
330
2
100
AcDbEntity
  8
GAIKEI
  6
Continuous
 62
     1
100
AcDbSpline
210
0.0
220
0.0
230
1.0
 70
    24
 71
     3
 72
     9
 73
     5
 74
     3
 42
0.0000000001
 43
0.0000000001
 44
0.00000001
 40
0.0
 40
0.0
 40
0.0
 40
0.0
 40
0.0173933305319351
 40
0.034786661063877
 40
0.034786661063877
 40
0.034786661063877
 40
0.034786661063877
 10
-30.67455237044399
 20
23.97864586988706
 30
0.0
 10
-30.67523709601062
 20
23.98440307122377
 30
0.0
 10
-30.67660654714399
 20
23.99591747389707
 30
0.0
 10
-30.67797599827733
 20
24.00743187657037
 30
0.0
 10
-30.67866072384399
 20
24.01318907790707
 30
0.0
 11
-30.67455237044399
 21
23.97864586988706
 31
0.0
 11
-30.67660654714396
 21
23.99591747389707
 31
0.0
 11
-30.67866072384399
 21
24.01318907790707
 31
0.0
  0
SPLINE
  5
18E
330
2
100
AcDbEntity
  8
GAIKEI
  6
Continuous
 62
     1
100
AcDbSpline
210
0.0
220
0.0
230
1.0
 70
     8
 71
     3
 72
     9
 73
     5
 74
     3
 42
0.0000000001
 43
0.0000000001
 44
0.00000001
 40
0.0
 40
0.0
 40
0.0
 40
0.0
 40
0.0582116986984344
 40
0.1164207786235662
 40
0.1164207786235662
 40
0.1164207786235662
 40
0.1164207786235662
 10
-25.09685923556399
 20
24.29824190766706
 30
0.0
 10
-25.09305465196411
 20
24.27920574795198
 30
0.0
 10
-25.08544567561913
 20
24.24113428151267
 30
0.0
 10
-25.08092233392588
 20
24.20257429727247
 30
0.0
 10
-25.07866072384397
 20
24.18329473740707
 30
0.0
 11
-25.09685923556399
 21
24.29824190766706
 31
0.0
 11
-25.08621693795308
 21
24.24101129175077
 31
0.0
 11
-25.07866072384397
 21
24.18329473740707
 31
0.0
  0
SPLINE
  5
18F
330
2
100
AcDbEntity
  8
GAIKEI
  6
Continuous
 62
     1
100
AcDbSpline
210
0.0
220
0.0
230
1.0
 70
    24
 71
     3
 72
     9
 73
     5
 74
     3
 42
0.0000000001
 43
0.0000000001
 44
0.00000001
 40
0.0
 40
0.0
 40
0.0
 40
0.0
 40
0.0173916426916085
 40
0.0347832853832451
 40
0.0347832853832451
 40
0.0347832853832451
 40
0.0347832853832451
 10
-25.07866072384397
 20
24.01318907790707
 30
0.0
 10
-25.07934537321731
 20
24.00743243408709
 30
0.0
 10
-25.08071467196399
 20
23.99591914644708
 30
0.0
 10
-25.08208397071067
 20
23.98440585880706
 30
0.0
 10
-25.08276862008401
 20
23.97864921498706
 30
0.0
 11
-25.07866072384397
 21
24.01318907790707
 31
0.0
 11
-25.08071467196399
 21
23.99591914644708
 31
0.0
 11
-25.08276862008401
 21
23.97864921498706
 31
0.0
  0
SPLINE
  5
190
330
2
100
AcDbEntity
  8
GAIKEI
  6
Continuous
 62
     1
100
AcDbSpline
210
0.0
220
0.0
230
1.0
 70
     8
 71
     3
 72
     9
 73
     5
 74
     3
 42
0.0000000001
 43
0.0000000001
 44
0.00000001
 40
0.0
 40
0.0
 40
0.0
 40
0.0
 40
0.040763508322671
 40
0.0815495854202952
 40
0.0815495854202952
 40
0.0815495854202952
 40
0.0815495854202952
 10
-23.52768087888396
 20
21.31396377238707
 30
0.0
 10
-23.52155110780538
 20
21.30180424252433
 30
0.0
 10
-23.50928819019256
 20
21.27747844274202
 30
0.0
 10
-23.50148415975283
 20
21.25137819529408
 30
0.0
 10
-23.497581074024
 20
21.23832445654707
 30
0.0
 11
-23.52768087888396
 21
21.31396377238707
 31
0.0
 11
-23.5104056795349
 21
21.27704181217098
 31
0.0
 11
-23.497581074024
 21
21.23832445654707
 31
0.0
  0
SPLINE
  5
191
330
2
100
AcDbEntity
  8
GAIKEI
  6
Continuous
100
AcDbSpline
210
0.0
220
0.0
230
1.0
 70
     8
 71
     3
 72
     9
 73
     5
 74
     3
 42
0.0000000001
 43
0.0000000001
 44
0.00000001
 40
0.0
 40
0.0
 40
0.0
 40
0.0
 40
0.0286233352747862
 40
0.0578755066549133
 40
0.0578755066549133
 40
0.0578755066549133
 40
0.0578755066549133
 10
-25.577794922084
 20
24.78824190766707
 30
0.0
 10
-25.56847002607148
 20
24.78500151004193
 30
0.0
 10
-25.54961538226107
 20
24.7784495092717
 30
0.0
 10
-25.53953842347392
 20
24.76119915315522
 30
0.0
 10
-25.53444520630396
 20
24.75248025310708
 30
0.0
 11
-25.577794922084
 21
24.78824190766707
 31
0.0
 11
-25.55196723184841
 21
24.77590392257113
 31
0.0
 11
-25.53444520630396
 21
24.75248025310708
 31
0.0
  0
SPLINE
  5
192
330
2
100
AcDbEntity
  8
GAIKEI
  6
Continuous
100
AcDbSpline
210
0.0
220
0.0
230
1.0
 70
     8
 71
     3
 72
     9
 73
     5
 74
     3
 42
0.0000000001
 43
0.0000000001
 44
0.00000001
 40
0.0
 40
0.0
 40
0.0
 40
0.0
 40
0.0292521713898567
 40
0.0578755066733213
 40
0.0578755066733213
 40
0.0578755066733213
 40
0.0578755066733213
 10
-30.222876241384
 20
24.75248025310708
 30
0.0
 10
-30.21778302421234
 20
24.76119915315863
 30
0.0
 10
-30.20770606542175
 20
24.77844950928167
 30
0.0
 10
-30.18885142160136
 20
24.78500151004531
 30
0.0
 10
-30.17952652558401
 20
24.78824190766707
 30
0.0
 11
-30.222876241384
 21
24.75248025310708
 31
0.0
 11
-30.2053542158325
 21
24.77590392257801
 31
0.0
 11
-30.17952652558401
 21
24.78824190766707
 31
0.0
  0
SPLINE
  5
193
330
2
100
AcDbEntity
  8
GAIKEI
  6
Continuous
 62
     1
100
AcDbSpline
210
0.0
220
0.0
230
1.0
 70
     8
 71
     3
 72
     9
 73
     5
 74
     3
 42
0.0000000001
 43
0.0000000001
 44
0.00000001
 40
0.0
 40
0.0
 40
0.0
 40
0.0
 40
0.0407860771026593
 40
0.0815495854278096
 40
0.0815495854278096
 40
0.0815495854278096
 40
0.0815495854278096
 10
-32.25974037366396
 20
21.23832445654707
 30
0.0
 10
-32.25583728793206
 20
21.2513781952949
 30
0.0
 10
-32.2480332574865
 20
21.27747844274381
 30
0.0
 10
-32.23577033986612
 20
21.30180424252518
 30
0.0
 10
-32.22964056878399
 20
21.31396377238707
 30
0.0
 11
-32.25974037366396
 21
21.23832445654707
 31
0.0
 11
-32.2469157681434
 21
21.27704181217308
 31
0.0
 11
-32.22964056878399
 21
21.31396377238707
 31
0.0
  0
SPLINE
  5
194
330
2
100
AcDbEntity
  8
GAIKEI
  6
Continuous
100
AcDbSpline
210
0.0
220
0.0
230
1.0
 70
     8
 71
     3
 72
     9
 73
     5
 74
     3
 42
0.0000000001
 43
0.0000000001
 44
0.00000001
 40
0.0
 40
0.0
 40
0.0
 40
0.0
 40
0.0286233352793092
 40
0.0578755066602463
 40
0.0578755066602463
 40
0.0578755066602463
 40
0.0578755066602463
 10
-29.868368151064
 20
24.78824190766707
 30
0.0
 10
-29.87769304708067
 20
24.78500151004596
 30
0.0
 10
-29.8965476908981
 20
24.77844950928423
 30
0.0
 10
-29.9066246496781
 20
24.76119915315903
 30
0.0
 10
-29.91171786684399
 20
24.75248025310708
 30
0.0
 11
-29.868368151064
 21
24.78824190766707
 31
0.0
 11
-29.89419584130818
 21
24.77590392257861
 31
0.0
 11
-29.91171786684399
 21
24.75248025310708
 31
0.0
  0
SPLINE
  5
195
330
2
100
AcDbEntity
  8
GAIKEI
  6
Continuous
100
AcDbSpline
210
0.0
220
0.0
230
1.0
 70
     8
 71
     3
 72
     9
 73
     5
 74
     3
 42
0.0000000001
 43
0.0000000001
 44
0.00000001
 40
0.0
 40
0.0
 40
0.0
 40
0.0
 40
0.0407635083248247
 40
0.0815495854260809
 40
0.0815495854260809
 40
0.0815495854260809
 40
0.0815495854260809
 10
-31.91848219426399
 20
21.31396377238707
 30
0.0
 10
-31.92461196533932
 20
21.30180424252225
 30
0.0
 10
-31.93687488294583
 20
21.2774784427354
 30
0.0
 10
-31.94467891340526
 20
21.251378195292
 30
0.0
 10
-31.94858199914401
 20
21.23832445654707
 30
0.0
 11
-31.91848219426399
 21
21.31396377238707
 31
0.0
 11
-31.9357573936098
 21
21.27704181216708
 31
0.0
 11
-31.94858199914401
 21
21.23832445654707
 31
0.0
  0
SPLINE
  5
196
330
2
100
AcDbEntity
  8
GAIKEI
  6
Continuous
100
AcDbSpline
210
0.0
220
0.0
230
1.0
 70
     8
 71
     3
 72
     9
 73
     5
 74
     3
 42
0.0000000001
 43
0.0000000001
 44
0.00000001
 40
0.0
 40
0.0
 40
0.0
 40
0.0
 40
0.0292521713898567
 40
0.0578755066733726
 40
0.0578755066733726
 40
0.0578755066733726
 40
0.0578755066733726
 10
-25.84560358082396
 20
24.75248025310708
 30
0.0
 10
-25.85069679799563
 20
24.76119915315863
 30
0.0
 10
-25.86077375678625
 20
24.77844950928167
 30
0.0
 10
-25.87962840060664
 20
24.78500151004534
 30
0.0
 10
-25.88895329662401
 20
24.78824190766707
 30
0.0
 11
-25.84560358082396
 21
24.75248025310708
 31
0.0
 11
-25.86312560637546
 21
24.77590392257801
 31
0.0
 11
-25.88895329662401
 21
24.78824190766707
 31
0.0
  0
SPLINE
  5
197
330
2
100
AcDbEntity
  8
GAIKEI
  6
Continuous
 62
     1
100
AcDbSpline
210
0.0
220
0.0
230
1.0
 70
     8
 71
     3
 72
     9
 73
     5
 74
     3
 42
0.0000000001
 43
0.0000000001
 44
0.00000001
 40
0.0
 40
0.0
 40
0.0
 40
0.0
 40
0.0407860771026593
 40
0.0815495854278096
 40
0.0815495854278096
 40
0.0815495854278096
 40
0.0815495854278096
 10
-23.808739448544
 20
21.23832445654707
 30
0.0
 10
-23.81264253427594
 20
21.2513781952949
 30
0.0
 10
-23.8204465647215
 20
21.27747844274381
 30
0.0
 10
-23.83270948234181
 20
21.30180424252518
 30
0.0
 10
-23.83883925342397
 20
21.31396377238707
 30
0.0
 11
-23.808739448544
 21
21.23832445654707
 31
0.0
 11
-23.82156405406457
 21
21.27704181217308
 31
0.0
 11
-23.83883925342397
 21
21.31396377238707
 31
0.0
  0
SPLINE
  5
198
330
2
100
AcDbEntity
  8
GAIKEI
  6
Continuous
100
AcDbSpline
210
0.0
220
0.0
230
1.0
 70
     8
 71
     3
 72
    11
 73
     7
 74
     5
 42
0.0000000001
 43
0.0000000001
 44
0.00000001
 40
0.0
 40
0.0
 40
0.0
 40
0.0
 40
3.772141640686762
 40
7.544283281372897
 40
11.31642493392896
 40
15.08856658648577
 40
15.08856658648577
 40
15.08856658648577
 40
15.08856658648577
 10
-15.37866078388396
 20
21.13199836284144
 30
0.0
 10
-15.37867217274657
 20
19.87461781600692
 30
0.0
 10
-15.37869493547174
 20
17.35985672233784
 30
0.0
 10
-15.37873531051005
 20
13.58771507776481
 30
0.0
 10
-15.3786949354718
 20
9.815573429235087
 30
0.0
 10
-15.3786721727466
 20
7.300812327652749
 30
0.0
 10
-15.37866078388396
 20
6.043431776861496
 30
0.0
 11
-15.37866078388396
 21
21.13199836284144
 31
0.0
 11
-15.37869598396349
 21
17.35985672231885
 31
0.0
 11
-15.37872186216396
 21
13.58771508172145
 31
0.0
 11
-15.37869598396355
 21
9.815573429254129
 31
0.0
 11
-15.37866078388396
 21
6.043431776861496
 31
0.0
  0
SPLINE
  5
199
330
2
100
AcDbEntity
  8
GAIKEI
  6
Continuous
100
AcDbSpline
210
0.0
220
0.0
230
1.0
 70
     8
 71
     3
 72
    19
 73
    15
 74
    13
 42
0.0000000001
 43
0.0000000001
 44
0.00000001
 40
0.0
 40
0.0
 40
0.0
 40
0.0
 40
1.879085388097908
 40
3.758170776195989
 40
4.704013381554188
 40
5.649855986911219
 40
6.597065062449511
 40
7.544274137987912
 40
8.491483978486334
 40
9.438693818984591
 40
10.38453840622158
 40
11.33038299345985
 40
13.209474813788
 40
15.08856663411586
 40
15.08856663411586
 40
15.08856663411586
 40
15.08856663411586
 10
-40.37866066378398
 20
6.043431753081506
 30
0.0
 10
-40.3786573556448
 20
6.669793549108504
 30
0.0
 10
-40.37865075412568
 20
7.922517141162586
 30
0.0
 10
-40.37862879316992
 20
9.490521601538034
 30
0.0
 10
-40.3786147790002
 20
10.74744513439722
 30
0.0
 10
-40.37860624190722
 20
11.69374322977802
 30
0.0
 10
-40.37860087024563
 20
12.64049681524264
 30
0.0
 10
-40.37859895817939
 20
13.58770614576815
 30
0.0
 10
-40.37860087018048
 20
14.53491573128031
 30
0.0
 10
-40.3786062417879
 20
15.48167048734498
 30
0.0
 10
-40.37861477884357
 20
16.42797015896568
 30
0.0
 10
-40.37862879301016
 20
17.68489715715498
 30
0.0
 10
-40.37865075406699
 20
19.25290656631037
 30
0.0
 10
-40.37865735562525
 20
20.50563444651783
 30
0.0
 10
-40.37866066378398
 20
21.13199838662149
 30
0.0
 11
-40.37866066378398
 21
6.043431753081506
 31
0.0
 11
-40.37864800819659
 21
7.922517141136836
 31
0.0
 11
-40.37862561624393
 21
9.801602529101501
 31
0.0
 11
-40.37861510446089
 21
10.74744513440129
 31
0.0
 11
-40.37860676338397
 21
11.69328773972154
 31
0.0
 11
-40.37860143727567
 21
12.64049681524489
 31
0.0
 11
-40.37859958552394
 21
13.58770589078148
 31
0.0
 11
-40.37860143721178
 21
14.53491573127809
 31
0.0
 11
-40.37860676326397
 21
15.4821255717614
 31
0.0
 11
-40.37861510430832
 21
16.42797015896161
 31
0.0
 11
-40.37862561608398
 21
17.37381474614148
 31
0.0
 11
-40.37864800812633
 21
19.2529065663362
 31
0.0
 11
-40.37866066378398
 21
21.13199838662149
 31
0.0
  0
SPLINE
  5
19A
330
2
100
AcDbEntity
  8
GAIKEI
  6
Continuous
100
AcDbSpline
210
0.0
220
0.0
230
1.0
 70
     8
 71
     3
 72
    11
 73
     7
 74
     5
 42
0.0000000001
 43
0.0000000001
 44
0.00000001
 40
0.0
 40
0.0
 40
0.0
 40
0.0
 40
0.0388733373772839
 40
0.0777486277016825
 40
0.1164664381513145
 40
0.1551773802129672
 40
0.1551773802129672
 40
0.1551773802129672
 40
0.1551773802129672
 10
-40.37866066970394
 20
21.13810125626145
 30
0.0
 10
-40.37718532656945
 20
21.15115648958968
 30
0.0
 10
-40.37423455211893
 20
21.17726760902391
 30
0.0
 10
-40.35135160859897
 20
21.21024488779611
 30
0.0
 10
-40.3185157567712
 20
21.23325718521124
 30
0.0
 10
-40.29251022548504
 20
21.23622920086979
 30
0.0
 10
-40.27950861170398
 20
21.23771506986145
 30
0.0
 11
-40.37866066970394
 21
21.13810125626145
 31
0.0
 11
-40.37115353503719
 21
21.17624282741724
 31
0.0
 11
-40.34964854702394
 21
21.20862837942144
 31
0.0
 11
-40.31747732518908
 21
21.23017093317281
 31
0.0
 11
-40.27950861170398
 21
21.23771506986145
 31
0.0
  0
SPLINE
  5
19B
330
2
100
AcDbEntity
  8
GAIKEI
  6
Continuous
100
AcDbSpline
210
0.0
220
0.0
230
1.0
 70
    24
 71
     3
 72
     9
 73
     5
 74
     3
 42
0.0000000001
 43
0.0000000001
 44
0.00000001
 40
0.0
 40
0.0
 40
0.0
 40
0.0
 40
0.00305143482001
 40
0.00610286964002
 40
0.00610286964002
 40
0.00610286964002
 40
0.00610286964002
 10
-40.37866066970394
 20
6.037328883441489
 30
0.0
 10
-40.37866066871728
 20
6.038346028381539
 30
0.0
 10
-40.37866066674394
 20
6.040380318261497
 30
0.0
 10
-40.37866066477064
 20
6.042414608141541
 30
0.0
 10
-40.37866066378398
 20
6.043431753081506
 30
0.0
 11
-40.37866066970394
 21
6.037328883441489
 31
0.0
 11
-40.37866066674399
 21
6.040380318261441
 31
0.0
 11
-40.37866066378398
 21
6.043431753081506
 31
0.0
  0
SPLINE
  5
19C
330
2
100
AcDbEntity
  8
GAIKEI
  6
Continuous
100
AcDbSpline
210
0.0
220
0.0
230
1.0
 70
    24
 71
     3
 72
     9
 73
     5
 74
     3
 42
0.0000000001
 43
0.0000000001
 44
0.00000001
 40
0.0
 40
0.0
 40
0.0
 40
0.0
 40
0.0030514348199816
 40
0.0061028696399632
 40
0.0061028696399632
 40
0.0061028696399632
 40
0.0061028696399632
 10
-40.37866066378398
 20
21.13199838662149
 30
0.0
 10
-40.37866066477064
 20
21.13301553156151
 30
0.0
 10
-40.37866066674394
 20
21.13504982144147
 30
0.0
 10
-40.37866066871728
 20
21.13708411132146
 30
0.0
 10
-40.37866066970394
 20
21.13810125626145
 30
0.0
 11
-40.37866066378398
 21
21.13199838662149
 31
0.0
 11
-40.37866066674399
 21
21.13504982144144
 31
0.0
 11
-40.37866066970394
 21
21.13810125626145
 31
0.0
  0
SPLINE
  5
19D
330
2
100
AcDbEntity
  8
GAIKEI
  6
Continuous
100
AcDbSpline
210
0.0
220
0.0
230
1.0
 70
     8
 71
     3
 72
    11
 73
     7
 74
     5
 42
0.0000000001
 43
0.0000000001
 44
0.00000001
 40
0.0
 40
0.0
 40
0.0
 40
0.0
 40
0.0387109420561918
 40
0.0774287525001752
 40
0.1163040428245738
 40
0.1551773802019134
 40
0.1551773802019134
 40
0.1551773802019134
 40
0.1551773802019134
 10
-40.27950861170398
 20
5.937715069861496
 30
0.0
 10
-40.29251022548225
 20
5.939200938854099
 30
0.0
 10
-40.31851575676262
 20
5.942172954514461
 30
0.0
 10
-40.35135160860372
 20
5.965185251903051
 30
0.0
 10
-40.37423455211805
 20
5.998162530680275
 30
0.0
 10
-40.37718532656913
 20
6.024273650113713
 30
0.0
 10
-40.37866066970394
 20
6.037328883441489
 30
0.0
 11
-40.27950861170398
 21
5.937715069861496
 31
0.0
 11
-40.31747732518397
 21
5.945259206547859
 31
0.0
 11
-40.34964854702394
 21
5.966801760281441
 31
0.0
 11
-40.37115353503719
 21
5.999187312285641
 31
0.0
 11
-40.37866066970394
 21
6.037328883441489
 31
0.0
  0
SPLINE
  5
19E
330
2
100
AcDbEntity
  8
GAIKEI
  6
Continuous
100
AcDbSpline
210
0.0
220
0.0
230
1.0
 70
     8
 71
     3
 72
    11
 73
     7
 74
     5
 42
0.0000000001
 43
0.0000000001
 44
0.00000001
 40
0.0
 40
0.0
 40
0.0
 40
0.0
 40
0.0388733373773396
 40
0.0777486277017383
 40
0.1164664381457217
 40
0.1551773802019692
 40
0.1551773802019692
 40
0.1551773802019692
 40
0.1551773802019692
 10
-15.37866077798395
 20
6.037328883441489
 30
0.0
 10
-15.38013612111874
 20
6.024273650113684
 30
0.0
 10
-15.38308689556987
 20
5.998162530680247
 30
0.0
 10
-15.40596983908418
 20
5.965185251903108
 30
0.0
 10
-15.43880569092528
 20
5.942172954514433
 30
0.0
 10
-15.46481122220569
 20
5.939200938854099
 30
0.0
 10
-15.47781283598397
 20
5.937715069861496
 30
0.0
 11
-15.37866077798395
 21
6.037328883441489
 31
0.0
 11
-15.3861679126507
 21
5.999187312285641
 31
0.0
 11
-15.40767290066395
 21
5.966801760281441
 31
0.0
 11
-15.43984412250393
 21
5.945259206547859
 31
0.0
 11
-15.47781283598397
 21
5.937715069861496
 31
0.0
  0
SPLINE
  5
19F
330
2
100
AcDbEntity
  8
GAIKEI
  6
Continuous
100
AcDbSpline
210
0.0
220
0.0
230
1.0
 70
    24
 71
     3
 72
     9
 73
     5
 74
     3
 42
0.0000000001
 43
0.0000000001
 44
0.00000001
 40
0.0
 40
0.0
 40
0.0
 40
0.0
 40
0.0030514467100048
 40
0.0061028934200095
 40
0.0061028934200095
 40
0.0061028934200095
 40
0.0061028934200095
 10
-15.37866077798395
 20
21.13810125626145
 30
0.0
 10
-15.37866077896729
 20
21.13708410735808
 30
0.0
 10
-15.37866078093395
 20
21.13504980955145
 30
0.0
 10
-15.37866078290062
 20
21.13301551174479
 30
0.0
 10
-15.37866078388396
 20
21.13199836284144
 30
0.0
 11
-15.37866077798395
 21
21.13810125626145
 31
0.0
 11
-15.37866078093395
 21
21.13504980955145
 31
0.0
 11
-15.37866078388396
 21
21.13199836284144
 31
0.0
  0
SPLINE
  5
1A0
330
2
100
AcDbEntity
  8
GAIKEI
  6
Continuous
100
AcDbSpline
210
0.0
220
0.0
230
1.0
 70
    24
 71
     3
 72
     9
 73
     5
 74
     3
 42
0.0000000001
 43
0.0000000001
 44
0.00000001
 40
0.0
 40
0.0
 40
0.0
 40
0.0
 40
0.0030514467100616
 40
0.0061028934200095
 40
0.0061028934200095
 40
0.0061028934200095
 40
0.0061028934200095
 10
-15.37866078388396
 20
6.043431776861496
 30
0.0
 10
-15.37866078290065
 20
6.042414627958123
 30
0.0
 10
-15.37866078093387
 20
6.040380330151492
 30
0.0
 10
-15.37866077896726
 20
6.038346032344804
 30
0.0
 10
-15.37866077798395
 20
6.037328883441489
 30
0.0
 11
-15.37866078388396
 21
6.043431776861496
 31
0.0
 11
-15.37866078093395
 21
6.040380330151435
 31
0.0
 11
-15.37866077798395
 21
6.037328883441489
 31
0.0
  0
SPLINE
  5
1A1
330
2
100
AcDbEntity
  8
GAIKEI
  6
Continuous
100
AcDbSpline
210
0.0
220
0.0
230
1.0
 70
     8
 71
     3
 72
    11
 73
     7
 74
     5
 42
0.0000000001
 43
0.0000000001
 44
0.00000001
 40
0.0
 40
0.0
 40
0.0
 40
0.0
 40
0.0387109420616527
 40
0.0774287525113319
 40
0.116304042835762
 40
0.1551773802130348
 40
0.1551773802130348
 40
0.1551773802130348
 40
0.1551773802130348
 10
-15.47781283598397
 20
21.23771506986145
 30
0.0
 10
-15.46481122220291
 20
21.23622920086976
 30
0.0
 10
-15.43880569091675
 20
21.23325718521124
 30
0.0
 10
-15.40596983908895
 20
21.21024488779608
 30
0.0
 10
-15.38308689556891
 20
21.17726760902394
 30
0.0
 10
-15.38013612111842
 20
21.15115648958971
 30
0.0
 10
-15.37866077798395
 20
21.13810125626145
 30
0.0
 11
-15.47781283598397
 21
21.23771506986145
 31
0.0
 11
-15.43984412249887
 21
21.23017093317281
 31
0.0
 11
-15.40767290066395
 21
21.20862837942144
 31
0.0
 11
-15.38616791265065
 21
21.17624282741724
 31
0.0
 11
-15.37866077798395
 21
21.13810125626145
 31
0.0
  0
SPLINE
  5
1A2
330
2
100
AcDbEntity
  8
GAIKEI
  6
Continuous
 62
     1
100
AcDbSpline
210
0.0
220
0.0
230
1.0
 70
     8
 71
     3
 72
     9
 73
     5
 74
     3
 42
0.0000000001
 43
0.0000000001
 44
0.00000001
 40
0.0
 40
0.0
 40
0.0
 40
0.0
 40
0.038220207523271
 40
0.0764356549597231
 40
0.0764356549597231
 40
0.0764356549597231
 40
0.0764356549597231
 10
-39.74658444588397
 20
19.83771509336145
 30
0.0
 10
-39.74340831696492
 20
19.82423711005097
 30
0.0
 10
-39.73705644010872
 20
19.79728283162154
 30
0.0
 10
-39.71010881019325
 20
19.79090418651139
 30
0.0
 10
-39.69663582952398
 20
19.78771506986146
 30
0.0
 11
-39.74658444588397
 21
19.83771509336145
 31
0.0
 11
-39.73190647202279
 21
19.8024256949875
 31
0.0
 11
-39.69663582952398
 21
19.78771506986146
 31
0.0
  0
SPLINE
  5
1A3
330
2
100
AcDbEntity
  8
GAIKEI
  6
Continuous
 62
     1
100
AcDbSpline
210
0.0
220
0.0
230
1.0
 70
     8
 71
     3
 72
     9
 73
     5
 74
     3
 42
0.0000000001
 43
0.0000000001
 44
0.00000001
 40
0.0
 40
0.0
 40
0.0
 40
0.0
 40
0.0382154474454478
 40
0.0764356549782013
 40
0.0764356549782013
 40
0.0764356549782013
 40
0.0764356549782013
 10
-39.69663582952398
 20
19.93771506986144
 30
0.0
 10
-39.71010881019669
 20
19.93452595320966
 30
0.0
 10
-39.73705644011923
 20
19.92814730809582
 30
0.0
 10
-39.74340831696841
 20
19.90119302965692
 30
0.0
 10
-39.74658444588397
 20
19.88771504634144
 30
0.0
 11
-39.69663582952398
 21
19.93771506986144
 31
0.0
 11
-39.73190647202967
 21
19.92300444472852
 31
0.0
 11
-39.74658444588397
 21
19.88771504634144
 31
0.0
  0
SPLINE
  5
1A4
330
2
100
AcDbEntity
  8
GAIKEI
  6
Continuous
 62
     1
100
AcDbSpline
210
0.0
220
0.0
230
1.0
 70
     8
 71
     3
 72
     9
 73
     5
 74
     3
 42
0.0000000001
 43
0.0000000001
 44
0.00000001
 40
0.0
 40
0.0
 40
0.0
 40
0.0
 40
0.0382202075327535
 40
0.0764356549782537
 40
0.0764356549782537
 40
0.0764356549782537
 40
0.0764356549782537
 10
-16.01073700180393
 20
19.88771504634144
 30
0.0
 10
-16.01391313071946
 20
19.90119302965689
 30
0.0
 10
-16.02026500756867
 20
19.92814730809587
 30
0.0
 10
-16.04721263749127
 20
19.93452595320968
 30
0.0
 10
-16.06068561816397
 20
19.93771506986144
 30
0.0
 11
-16.01073700180393
 21
19.88771504634144
 31
0.0
 11
-16.02541497565823
 21
19.92300444472852
 31
0.0
 11
-16.06068561816397
 21
19.93771506986144
 31
0.0
  0
SPLINE
  5
1A5
330
2
100
AcDbEntity
  8
GAIKEI
  6
Continuous
 62
     1
100
AcDbSpline
210
0.0
220
0.0
230
1.0
 70
     8
 71
     3
 72
     9
 73
     5
 74
     3
 42
0.0000000001
 43
0.0000000001
 44
0.00000001
 40
0.0
 40
0.0
 40
0.0
 40
0.0
 40
0.0382154474365046
 40
0.0764356549597755
 40
0.0764356549597755
 40
0.0764356549597755
 40
0.0764356549597755
 10
-16.06068561816397
 20
19.78771506986146
 30
0.0
 10
-16.04721263749471
 20
19.79090418651137
 30
0.0
 10
-16.02026500757918
 20
19.79728283162151
 30
0.0
 10
-16.01391313072295
 20
19.82423711005094
 30
0.0
 10
-16.01073700180393
 20
19.83771509336145
 30
0.0
 11
-16.06068561816397
 21
19.78771506986146
 31
0.0
 11
-16.02541497566511
 21
19.8024256949875
 31
0.0
 11
-16.01073700180393
 21
19.83771509336145
 31
0.0
  0
SPLINE
  5
1A6
330
2
100
AcDbEntity
  8
GAIKEI
  6
Continuous
 62
     1
100
AcDbSpline
210
0.0
220
0.0
230
1.0
 70
     8
 71
     3
 72
     9
 73
     5
 74
     3
 42
0.0000000001
 43
0.0000000001
 44
0.00000001
 40
0.0
 40
0.0
 40
0.0
 40
0.0
 40
0.0382202075327535
 40
0.0764356549782756
 40
0.0764356549782756
 40
0.0764356549782756
 40
0.0764356549782756
 10
-16.01073700180393
 20
7.337715046341429
 30
0.0
 10
-16.01391313071949
 20
7.351193029656798
 30
0.0
 10
-16.02026500756867
 20
7.378147308095861
 30
0.0
 10
-16.04721263749124
 20
7.384525953209731
 30
0.0
 10
-16.06068561816397
 20
7.387715069861485
 30
0.0
 11
-16.01073700180393
 21
7.337715046341429
 31
0.0
 11
-16.02541497565823
 21
7.373004444728508
 31
0.0
 11
-16.06068561816397
 21
7.387715069861485
 31
0.0
  0
SPLINE
  5
1A7
330
2
100
AcDbEntity
  8
GAIKEI
  6
Continuous
 62
     1
100
AcDbSpline
210
0.0
220
0.0
230
1.0
 70
     8
 71
     3
 72
     9
 73
     5
 74
     3
 42
0.0000000001
 43
0.0000000001
 44
0.00000001
 40
0.0
 40
0.0
 40
0.0
 40
0.0
 40
0.038215451909429
 40
0.0764356556111729
 40
0.0764356556111729
 40
0.0764356556111729
 40
0.0764356556111729
 10
-16.06068561816397
 20
7.237715069861508
 30
0.0
 10
-16.04721263568643
 20
7.24090418697159
 30
0.0
 10
-16.02026500507855
 20
7.247282832309849
 30
0.0
 10
-16.01391312965964
 20
7.274237111255274
 30
0.0
 10
-16.01073700180393
 20
7.287715093361441
 30
0.0
 11
-16.06068561816397
 21
7.237715069861508
 31
0.0
 11
-16.02541497189008
 21
7.252425697556247
 31
0.0
 11
-16.01073700180393
 21
7.287715093361441
 31
0.0
  0
SPLINE
  5
1A8
330
2
100
AcDbEntity
  8
GAIKEI
  6
Continuous
 62
     1
100
AcDbSpline
210
0.0
220
0.0
230
1.0
 70
     8
 71
     3
 72
     9
 73
     5
 74
     3
 42
0.0000000001
 43
0.0000000001
 44
0.00000001
 40
0.0
 40
0.0
 40
0.0
 40
0.0
 40
0.038220207523271
 40
0.0764356549597012
 40
0.0764356549597012
 40
0.0764356549597012
 40
0.0764356549597012
 10
-39.74658444588397
 20
7.287715093361441
 30
0.0
 10
-39.74340831696498
 20
7.274237110050904
 30
0.0
 10
-39.73705644010869
 20
7.247282831621589
 30
0.0
 10
-39.71010881019325
 20
7.240904186511414
 30
0.0
 10
-39.69663582952398
 20
7.237715069861508
 30
0.0
 11
-39.74658444588397
 21
7.287715093361441
 31
0.0
 11
-39.73190647202279
 21
7.252425694987493
 31
0.0
 11
-39.69663582952398
 21
7.237715069861508
 31
0.0
  0
SPLINE
  5
1A9
330
2
100
AcDbEntity
  8
GAIKEI
  6
Continuous
 62
     1
100
AcDbSpline
210
0.0
220
0.0
230
1.0
 70
     8
 71
     3
 72
     9
 73
     5
 74
     3
 42
0.0000000001
 43
0.0000000001
 44
0.00000001
 40
0.0
 40
0.0
 40
0.0
 40
0.0
 40
0.0382154474454697
 40
0.0764356549782231
 40
0.0764356549782231
 40
0.0764356549782231
 40
0.0764356549782231
 10
-39.69663582952398
 20
7.387715069861485
 30
0.0
 10
-39.71010881019669
 20
7.384525953209703
 30
0.0
 10
-39.73705644011918
 20
7.378147308095833
 30
0.0
 10
-39.74340831696844
 20
7.351193029656855
 30
0.0
 10
-39.74658444588397
 20
7.337715046341429
 30
0.0
 11
-39.69663582952398
 21
7.387715069861485
 31
0.0
 11
-39.73190647202967
 21
7.373004444728508
 31
0.0
 11
-39.74658444588397
 21
7.337715046341429
 31
0.0
  0
SPLINE
  5
1AA
330
2
100
AcDbEntity
  8
GAIKEI
  6
Continuous
 62
     1
100
AcDbSpline
210
0.0
220
0.0
230
1.0
 70
     8
 71
     3
 72
    13
 73
     9
 74
     7
 42
0.0000000001
 43
0.0000000001
 44
0.00000001
 40
0.0
 40
0.0
 40
0.0
 40
0.0
 40
2.592993760517994
 40
5.185987552038881
 40
6.500896023647317
 40
7.815804495258641
 40
10.40878073930458
 40
13.00175695232374
 40
13.00175695232374
 40
13.00175695232374
 40
13.00175695232374
 10
-15.991882171844
 20
7.086887862681464
 30
0.0
 10
-15.98652292607636
 20
7.951203086644312
 30
0.0
 10
-15.97580444925731
 20
9.679833544986422
 30
0.0
 10
-15.97026323819091
 20
11.84679644731199
 30
0.0
 10
-15.96899715885604
 20
13.58773313956467
 30
0.0
 10
-15.97026330248212
 20
15.32866398261234
 30
0.0
 10
-15.97580454422348
 20
17.49561518640954
 30
0.0
 10
-15.98652296265177
 20
19.22423394654564
 30
0.0
 10
-15.99188217922398
 20
20.08854332140146
 30
0.0
 11
-15.991882171844
 21
7.086887862681464
 31
0.0
 11
-15.97737895501438
 21
9.679841062964328
 31
0.0
 11
-15.97022327088405
 21
12.27282498100152
 31
0.0
 11
-15.96931590892467
 21
13.58773313955777
 31
0.0
 11
-15.9702233221841
 21
14.9026412980815
 31
0.0
 11
-15.97737903077797
 21
17.49560766850942
 31
0.0
 11
-15.99188217922398
 21
20.08854332140146
 31
0.0
  0
SPLINE
  5
1AB
330
2
100
AcDbEntity
  8
GAIKEI
  6
Continuous
 62
     1
100
AcDbSpline
210
0.0
220
0.0
230
1.0
 70
     8
 71
     3
 72
     9
 73
     5
 74
     3
 42
0.0000000001
 43
0.0000000001
 44
0.00000001
 40
0.0
 40
0.0
 40
0.0
 40
0.0
 40
0.3011422183075693
 40
0.6021985085645283
 40
0.6021985085645283
 40
0.6021985085645283
 40
0.6021985085645283
 10
-15.44165849266397
 20
6.643025639601489
 30
0.0
 10
-15.43642062498838
 20
6.542742471928704
 30
0.0
 10
-15.42594636428296
 20
6.342204752966068
 30
0.0
 10
-15.40049412976634
 20
6.14301323741995
 30
0.0
 10
-15.38776981846399
 20
6.043431692041451
 30
0.0
 11
-15.44165849266397
 21
6.643025639601489
 31
0.0
 11
-15.42219931752766
 21
6.34251278413501
 31
0.0
 11
-15.38776981846399
 21
6.043431692041451
 31
0.0
  0
SPLINE
  5
1AC
330
2
100
AcDbEntity
  8
GAIKEI
  6
Continuous
 62
     1
100
AcDbSpline
210
0.0
220
0.0
230
1.0
 70
     8
 71
     3
 72
     9
 73
     5
 74
     3
 42
0.0000000001
 43
0.0000000001
 44
0.00000001
 40
0.0
 40
0.0
 40
0.0
 40
0.0
 40
3.284577726453002
 40
6.944752819104254
 40
6.944752819104254
 40
6.944752819104254
 40
6.944752819104254
 10
-15.44165849266397
 20
20.53240450012146
 30
0.0
 10
-15.44909977648092
 20
19.43756807219955
 30
0.0
 10
-15.46483324823464
 20
17.12269870303777
 30
0.0
 10
-15.46691670967044
 20
14.80777607870439
 30
0.0
 10
-15.468014770384
 20
13.5877150697778
 30
0.0
 11
-15.44165849266397
 21
20.53240450012146
 31
0.0
 11
-15.46092897184184
 21
17.24788330368011
 31
0.0
 11
-15.468014770384
 21
13.5877150697778
 31
0.0
  0
SPLINE
  5
1AD
330
2
100
AcDbEntity
  8
GAIKEI
  6
Continuous
 62
     1
100
AcDbSpline
210
0.0
220
0.0
230
1.0
 70
     8
 71
     3
 72
     9
 73
     5
 74
     3
 42
0.0000000001
 43
0.0000000001
 44
0.00000001
 40
0.0
 40
0.0
 40
0.0
 40
0.0
 40
3.662119202409646
 40
6.944752815495762
 40
6.944752815495762
 40
6.944752815495762
 40
6.944752815495762
 10
-15.46801321940398
 20
13.5877150697778
 30
0.0
 10
-15.46691460718699
 20
12.36700602004933
 30
0.0
 10
-15.46483120593035
 20
10.05208339158807
 30
0.0
 10
-15.44909613021235
 20
7.73721403694418
 30
0.0
 10
-15.44165849266397
 20
6.643025639601489
 30
0.0
 11
-15.46801321940398
 21
13.5877150697778
 31
0.0
 11
-15.46092127468159
 21
9.925602734373342
 31
0.0
 11
-15.44165849266397
 21
6.643025639601489
 31
0.0
  0
SPLINE
  5
1AE
330
2
100
AcDbEntity
  8
GAIKEI
  6
Continuous
 62
     1
100
AcDbSpline
210
0.0
220
0.0
230
1.0
 70
     8
 71
     3
 72
     9
 73
     5
 74
     3
 42
0.0000000001
 43
0.0000000001
 44
0.00000001
 40
0.0
 40
0.0
 40
0.0
 40
0.0
 40
0.301056283647617
 40
0.6021985065180149
 40
0.6021985065180149
 40
0.6021985065180149
 40
0.6021985065180149
 10
-15.38776981846399
 20
21.13199844766149
 30
0.0
 10
-15.4004941093483
 20
21.0324169023219
 30
0.0
 10
-15.42594630349526
 20
20.83322538315738
 30
0.0
 10
-15.43642060465913
 20
20.63268766783441
 30
0.0
 10
-15.44165849266397
 20
20.53240450012146
 30
0.0
 11
-15.38776981846399
 21
21.13199844766149
 31
0.0
 11
-15.42219927661369
 21
20.83291735751101
 31
0.0
 11
-15.44165849266397
 21
20.53240450012146
 31
0.0
  0
SPLINE
  5
1AF
330
2
100
AcDbEntity
  8
GAIKEI
  6
Continuous
 62
     1
100
AcDbSpline
210
0.0
220
0.0
230
1.0
 70
     8
 71
     3
 72
    23
 73
    19
 74
    17
 42
0.0000000001
 43
0.0000000001
 44
0.00000001
 40
0.0
 40
0.0
 40
0.0
 40
0.0
 40
0.0071312508317553
 40
0.0142690761398131
 40
0.0186520812270321
 40
0.023036981837415
 40
0.0282247546535031
 40
0.0334139841356523
 40
0.0395695925478443
 40
0.0457263255258789
 40
0.0528487044278867
 40
0.0599715555973121
 40
0.0680677198977323
 40
0.0761642918881946
 40
0.0852956215315885
 40
0.0944269579419804
 40
0.1180219827210122
 40
0.1416177280346711
 40
0.1416177280346711
 40
0.1416177280346711
 40
0.1416177280346711
 10
-39.71658306734395
 20
20.20993188230148
 30
0.0
 10
-39.71896884646355
 20
20.2097504026921
 30
0.0
 10
-39.72374260178768
 20
20.20938726557321
 30
0.0
 10
-39.72951336638118
 20
20.2067888093826
 30
0.0
 10
-39.73393856054696
 20
20.2038659382442
 30
0.0
 10
-39.73748828139833
 20
20.20084030393721
 30
0.0
 10
-39.74087372683511
 20
20.19725719596573
 30
0.0
 10
-39.74424402179449
 20
20.19288745249395
 30
0.0
 10
-39.74738152308493
 20
20.18795960788304
 30
0.0
 10
-39.7504023698229
 20
20.18222230580847
 30
0.0
 10
-39.75312929082802
 20
20.17598579158843
 30
0.0
 10
-39.75565829390982
 20
20.16897667844802
 30
0.0
 10
-39.75786933246229
 20
20.1615214439021
 30
0.0
 10
-39.75984015484221
 20
20.15331019058164
 30
0.0
 10
-39.76149158701759
 20
20.14467698565415
 30
0.0
 10
-39.76352681598107
 20
20.13087119038567
 30
0.0
 10
-39.76514187654988
 20
20.11214092732354
 30
0.0
 10
-39.76534014503693
 20
20.09640916053277
 30
0.0
 10
-39.76543928118394
 20
20.08854315704144
 30
0.0
 11
-39.71658306734395
 21
20.20993188230148
 31
0.0
 11
-39.72365073239195
 21
20.20898163184023
 31
0.0
 11
-39.73022781718396
 21
20.20620845082141
 31
0.0
 11
-39.73388576693151
 21
20.20379388439938
 31
0.0
 11
-39.73723381502384
 21
20.2009622907014
 31
0.0
 11
-39.74080731481877
 21
20.19720156181916
 31
0.0
 11
-39.7439886592839
 21
20.19310190976142
 31
0.0
 11
-39.74730797306433
 21
20.1879179279004
 31
0.0
 11
-39.750190115924
 21
20.18247746732146
 31
0.0
 11
-39.75305636298924
 21
20.17595727507944
 31
0.0
 11
-39.75548688716396
 21
20.16926193644139
 31
0.0
 11
-39.75780045048924
 21
20.16150337344953
 31
0.0
 11
-39.75970188980392
 21
20.15363323968148
 31
0.0
 11
-39.76142753717505
 21
20.14466644976659
 31
0.0
 11
-39.76277273152391
 21
20.13563474138152
 31
0.0
 11
-39.76485312760036
 21
20.11213161077973
 31
0.0
 11
-39.76543928118394
 21
20.08854315704144
 31
0.0
  0
SPLINE
  5
1B0
330
2
100
AcDbEntity
  8
GAIKEI
  6
Continuous
 62
     1
100
AcDbSpline
210
0.0
220
0.0
230
1.0
 70
     8
 71
     3
 72
    19
 73
    15
 74
    13
 42
0.0000000001
 43
0.0000000001
 44
0.00000001
 40
0.0
 40
0.0
 40
0.0
 40
0.0
 40
0.0221756432471898
 40
0.044351109667284
 40
0.0541176476854585
 40
0.0638840477282361
 40
0.0728738781155677
 40
0.081864350000404
 40
0.0903221214826978
 40
0.098777271306453
 40
0.1065625476481689
 40
0.1143608987986068
 40
0.1279180421015631
 40
0.1414479061687994
 40
0.1414479061687994
 40
0.1414479061687994
 40
0.1414479061687994
 10
-15.99188217830397
 20
20.08854315734146
 30
0.0
 10
-15.99196927087439
 20
20.09593571579831
 30
0.0
 10
-15.9921434544043
 20
20.11072077377367
 30
0.0
 10
-15.99358298741941
 20
20.12872279647365
 30
0.0
 10
-15.99546599183074
 20
20.142500167051
 30
0.0
 10
-15.99716550035032
 20
20.15185838757003
 30
0.0
 10
-15.99926205886507
 20
20.16087082167457
 30
0.0
 10
-16.0017546935556
 20
20.1693293459586
 30
0.0
 10
-16.00474604493948
 20
20.17743857256983
 30
0.0
 10
-16.00821614415628
 20
20.18491059060457
 30
0.0
 10
-16.0122622477559
 20
20.19186213588597
 30
0.0
 10
-16.01816600854767
 20
20.19952956272488
 30
0.0
 10
-16.02709797320656
 20
20.2077432432242
 30
0.0
 10
-16.03619463735052
 20
20.20920283040849
 30
0.0
 10
-16.04073839140397
 20
20.20993188266146
 30
0.0
 11
-15.99188217830397
 21
20.08854315734146
 31
0.0
 11
-15.99239484731208
 21
20.11071286373363
 31
0.0
 11
-15.994198597224
 21
20.1328148500615
 31
0.0
 11
-15.99553650094918
 21
20.1424893153129
 31
0.0
 11
-15.99729301802398
 21
20.15209645934152
 31
0.0
 11
-15.99934615847485
 21
20.160848696946
 31
0.0
 11
-16.00190312138397
 21
20.16946789198152
 31
0.0
 11
-16.00485216573594
 21
20.17739487329925
 31
0.0
 11
-16.00843270242404
 21
20.18505446278147
 31
0.0
 11
-16.01239336691697
 21
20.19175697415193
 31
0.0
 11
-16.017151493764
 21
20.19793552592154
 31
0.0
 11
-16.02764638025405
 21
20.20651769535658
 31
0.0
 11
-16.04073839140397
 21
20.20993188266146
 31
0.0
  0
SPLINE
  5
1B1
330
2
100
AcDbEntity
  8
GAIKEI
  6
Continuous
 62
     1
100
AcDbSpline
210
0.0
220
0.0
230
1.0
 70
     8
 71
     3
 72
    19
 73
    15
 74
    13
 42
0.0000000001
 43
0.0000000001
 44
0.00000001
 40
0.0
 40
0.0
 40
0.0
 40
0.0
 40
0.0221835688708591
 40
0.0443669609037099
 40
0.0541357864494123
 40
0.0639044797777428
 40
0.0728956772192835
 40
0.0818875232721566
 40
0.0903441634626681
 40
0.0987981573416725
 40
0.1065803706016454
 40
0.1143756382696326
 40
0.1279286336804184
 40
0.1414544306416867
 40
0.1414544306416867
 40
0.1414544306416867
 40
0.1414544306416867
 10
-39.76543928192399
 20
7.086887087341494
 30
0.0
 10
-39.76535212970944
 20
7.079491885792208
 30
0.0
 10
-39.76517782689427
 20
7.064701541635599
 30
0.0
 10
-39.76373716151579
 20
7.046693520132237
 30
0.0
 10
-39.76185289178289
 20
7.032912114966677
 30
0.0
 10
-39.76015271610339
 20
7.023552005216544
 30
0.0
 10
-39.75805586141809
 20
7.014537921476716
 30
0.0
 10
-39.75556322523323
 20
7.006078836500051
 30
0.0
 10
-39.75257200852169
 20
6.99796987919754
 30
0.0
 10
-39.74910205409015
 20
6.990499721538867
 30
0.0
 10
-39.74505559353318
 20
6.983551186552375
 30
0.0
 10
-39.73915155953083
 20
6.975888197330391
 30
0.0
 10
-39.7302194038358
 20
6.967680785533417
 30
0.0
 10
-39.72112529637596
 20
6.966223690264286
 30
0.0
 10
-39.71658280720396
 20
6.965495880761466
 30
0.0
 11
-39.76543928192399
 21
7.086887087341494
 31
0.0
 11
-39.76492622524342
 21
7.064709462172459
 31
0.0
 11
-39.76312106612403
 21
7.042599638901492
 31
0.0
 11
-39.76178239491407
 21
7.032922970500123
 31
0.0
 11
-39.76002518362401
 21
7.023313622101511
 31
0.0
 11
-39.75797176148962
 21
7.014560046411133
 31
0.0
 11
-39.75541451446401
 21
7.005939502301487
 31
0.0
 11
-39.75246579016653
 21
6.998013608958956
 31
0.0
 11
-39.74888503070406
 21
6.990355399661439
 31
0.0
 11
-39.74492446591847
 21
6.983656387495955
 31
0.0
 11
-39.74016637250401
 21
6.977481702281409
 31
0.0
 11
-39.72967173136538
 21
6.96890578646844
 31
0.0
 11
-39.71658280720396
 21
6.965495880761466
 31
0.0
  0
SPLINE
  5
1B2
330
2
100
AcDbEntity
  8
GAIKEI
  6
Continuous
 62
     1
100
AcDbSpline
210
0.0
220
0.0
230
1.0
 70
     8
 71
     3
 72
     9
 73
     5
 74
     3
 42
0.0000000001
 43
0.0000000001
 44
0.00000001
 40
0.0
 40
0.0
 40
0.0
 40
0.0
 40
0.30114222287027
 40
0.60219850651644
 40
0.60219850651644
 40
0.60219850651644
 40
0.60219850651644
 10
-40.31566296682399
 20
20.53240450012146
 30
0.0
 10
-40.32090085482337
 20
20.63268766783472
 30
0.0
 10
-40.33137515597625
 20
20.83322538315784
 30
0.0
 10
-40.35682735012085
 20
21.03241690232215
 30
0.0
 10
-40.36955164100397
 20
21.13199844766149
 30
0.0
 11
-40.31566296682399
 21
20.53240450012146
 31
0.0
 11
-40.33512218286
 21
20.8329173575118
 31
0.0
 11
-40.36955164100397
 21
21.13199844766149
 31
0.0
  0
SPLINE
  5
1B3
330
2
100
AcDbEntity
  8
GAIKEI
  6
Continuous
 62
     1
100
AcDbSpline
210
0.0
220
0.0
230
1.0
 70
     8
 71
     3
 72
     9
 73
     5
 74
     3
 42
0.0000000001
 43
0.0000000001
 44
0.00000001
 40
0.0
 40
0.0
 40
0.0
 40
0.0
 40
3.284574511496432
 40
6.569149206120899
 40
6.569149206120899
 40
6.569149206120899
 40
6.569149206120899
 10
-40.31566296682399
 20
6.643025639601489
 30
0.0
 10
-40.30822409158076
 20
7.737860892863125
 30
0.0
 10
-40.29334636067929
 20
9.927531460526552
 30
0.0
 10
-40.29065323968083
 20
12.11725091490169
 30
0.0
 10
-40.28930668914398
 20
13.21211067264147
 30
0.0
 11
-40.31566296682399
 21
6.643025639601489
 31
0.0
 11
-40.29639250340006
 21
9.927543621122254
 31
0.0
 11
-40.28930668914398
 21
13.21211067264147
 31
0.0
  0
SPLINE
  5
1B4
330
2
100
AcDbEntity
  8
GAIKEI
  6
Continuous
 62
     1
100
AcDbSpline
210
0.0
220
0.0
230
1.0
 70
     8
 71
     3
 72
     9
 73
     5
 74
     3
 42
0.0000000001
 43
0.0000000001
 44
0.00000001
 40
0.0
 40
0.0
 40
0.0
 40
0.0
 40
3.282620167026742
 40
6.565240153007229
 40
6.565240153007229
 40
6.565240153007229
 40
6.565240153007229
 10
-40.28930825356394
 20
13.96722852634144
 30
0.0
 10
-40.29065801840869
 20
15.06143676645891
 30
0.0
 10
-40.2933575680236
 20
17.24985318628325
 30
0.0
 10
-40.30822782736061
 20
19.43822074899086
 30
0.0
 10
-40.31566296682399
 20
20.53240450012146
 30
0.0
 11
-40.28930825356394
 21
13.96722852634144
 31
0.0
 11
-40.29640023569647
 21
17.24984103239234
 31
0.0
 11
-40.31566296682399
 21
20.53240450012146
 31
0.0
  0
SPLINE
  5
1B5
330
2
100
AcDbEntity
  8
GAIKEI
  6
Continuous
 62
     1
100
AcDbSpline
210
0.0
220
0.0
230
1.0
 70
     8
 71
     3
 72
     9
 73
     5
 74
     3
 42
0.0000000001
 43
0.0000000001
 44
0.00000001
 40
0.0
 40
0.0
 40
0.0
 40
0.0
 40
0.3010562902554646
 40
0.6021985085620394
 40
0.6021985085620394
 40
0.6021985085620394
 40
0.6021985085620394
 10
-40.36955164100397
 20
6.043431692041451
 30
0.0
 10
-40.35682732971188
 20
6.143013237420603
 30
0.0
 10
-40.33137509521594
 20
6.342204752968257
 30
0.0
 10
-40.32090083450322
 20
6.542742471929358
 30
0.0
 10
-40.31566296682399
 20
6.643025639601489
 30
0.0
 11
-40.36955164100397
 21
6.043431692041451
 31
0.0
 11
-40.33512214196423
 21
6.34251278413626
 31
0.0
 11
-40.31566296682399
 21
6.643025639601489
 31
0.0
  0
SPLINE
  5
1B6
330
2
100
AcDbEntity
  8
GAIKEI
  6
Continuous
 62
     1
100
AcDbSpline
210
0.0
220
0.0
230
1.0
 70
     8
 71
     3
 72
    23
 73
    19
 74
    17
 42
0.0000000001
 43
0.0000000001
 44
0.00000001
 40
0.0
 40
0.0
 40
0.0
 40
0.0
 40
0.0076094353646899
 40
0.0152269801751028
 40
0.0199785271113049
 40
0.0247324155217731
 40
0.0303982163651537
 40
0.0360655755948326
 40
0.0426936269397824
 40
0.0493225848621839
 40
0.0568475856986005
 40
0.0643729071335853
 40
0.0727959582716895
 40
0.0812193322150339
 40
0.0905397053325788
 40
0.0998600695882155
 40
0.1207386818529257
 40
0.1416174295599755
 40
0.1416174295599755
 40
0.1416174295599755
 40
0.1416174295599755
 10
-16.04073846282398
 20
6.965495146801515
 30
0.0
 10
-16.03819164940128
 20
6.965703778525352
 30
0.0
 10
-16.03309531101928
 20
6.966121275091609
 30
0.0
 10
-16.02697899801472
 20
6.969073841758927
 30
0.0
 10
-16.02232066172851
 20
6.972373775572606
 30
0.0
 10
-16.01858617618239
 20
6.975805031939728
 30
0.0
 10
-16.01505390431501
 20
6.979852797011233
 30
0.0
 10
-16.01159031258419
 20
6.984746638275936
 30
0.0
 10
-16.00841598874251
 20
6.990207527849918
 30
0.0
 10
-16.00542720713551
 20
6.996463507768254
 30
0.0
 10
-16.00277328173701
 20
7.003191166770335
 30
0.0
 10
-16.0003654953519
 20
7.010640296048421
 30
0.0
 10
-15.99829479036808
 20
7.018500020199667
 30
0.0
 10
-15.9964941415977
 20
7.027037318091572
 30
0.0
 10
-15.99501699620202
 20
7.035939891860209
 30
0.0
 10
-15.99337704201926
 20
7.049012548397286
 30
0.0
 10
-15.99211397038587
 20
7.066007599478979
 30
0.0
 10
-15.99195943785554
 20
7.079927862045963
 30
0.0
 10
-15.991882170964
 20
7.086888015901479
 30
0.0
 11
-16.04073846282398
 21
6.965495146801515
 31
0.0
 11
-16.03320657120184
 21
6.966578774716992
 31
0.0
 11
-16.02626152036402
 21
6.96970819798156
 31
0.0
 11
-16.02238280170934
 21
6.972452780489163
 31
0.0
 11
-16.01886830166404
 21
6.97565398958153
 31
0.0
 11
-16.01512997113161
 21
6.979911474686957
 31
0.0
 11
-16.011841135704
 21
6.984526939881448
 31
0.0
 11
-16.00849541067361
 21
6.990248581741013
 31
0.0
 11
-16.00562250534398
 21
6.996222650361403
 31
0.0
 11
-16.00284797592098
 21
7.003217478594706
 31
0.0
 11
-16.000520117424
 21
7.010373702181425
 31
0.0
 11
-15.99836282898286
 21
7.018515808525933
 31
0.0
 11
-15.99661278998394
 21
7.026755383221427
 31
0.0
 11
-15.99507796088551
 21
7.035948514025278
 31
0.0
 11
-15.99390491838397
 21
7.045194765201472
 31
0.0
 11
-15.9923334879752
 21
7.06601415660549
 31
0.0
 11
-15.991882170964
 21
7.086888015901479
 31
0.0
  0
SPLINE
  5
1B7
330
2
100
AcDbEntity
  8
GAIKEI
  6
Continuous
 62
     1
100
AcDbSpline
210
0.0
220
0.0
230
1.0
 70
     8
 71
     3
 72
     9
 73
     5
 74
     3
 42
0.0000000001
 43
0.0000000001
 44
0.00000001
 40
0.0
 40
0.0
 40
0.0
 40
0.0
 40
0.0657980327453462
 40
0.1332113198906357
 40
0.1332113198906357
 40
0.1332113198906357
 40
0.1332113198906357
 10
-15.44165849266397
 20
20.53240450012146
 30
0.0
 10
-15.45113718345567
 20
20.55393267175646
 30
0.0
 10
-15.47032726759943
 20
20.59751749108977
 30
0.0
 10
-15.51759720241068
 20
20.6040133265636
 30
0.0
 10
-15.54151875978397
 20
20.60730061888148
 30
0.0
 11
-15.44165849266397
 21
20.53240450012146
 31
0.0
 11
-15.47694532574542
 21
20.58794026322772
 31
0.0
 11
-15.54151875978397
 21
20.60730061888148
 31
0.0
  0
SPLINE
  5
1B8
330
2
100
AcDbEntity
  8
GAIKEI
  6
Continuous
 62
     1
100
AcDbSpline
210
0.0
220
0.0
230
1.0
 70
     8
 71
     3
 72
     9
 73
     5
 74
     3
 42
0.0000000001
 43
0.0000000001
 44
0.00000001
 40
0.0
 40
0.0
 40
0.0
 40
0.0
 40
0.065798017889874
 40
0.1332113187411734
 40
0.1332113187411734
 40
0.1332113187411734
 40
0.1332113187411734
 10
-15.44165849266397
 20
6.643025639601489
 30
0.0
 10
-15.45113718068828
 20
6.621497473219022
 30
0.0
 10
-15.47032726339637
 20
6.577912655055456
 30
0.0
 10
-15.51759719761867
 20
6.571416815580818
 30
0.0
 10
-15.54151875976401
 20
6.568129520541504
 30
0.0
 11
-15.44165849266397
 21
6.643025639601489
 31
0.0
 11
-15.47694531467459
 21
6.587489887061508
 31
0.0
 11
-15.54151875976401
 21
6.568129520541504
 31
0.0
  0
SPLINE
  5
1B9
330
2
100
AcDbEntity
  8
GAIKEI
  6
Continuous
 62
     1
100
AcDbSpline
210
0.0
220
0.0
230
1.0
 70
     8
 71
     3
 72
     9
 73
     5
 74
     3
 42
0.0000000001
 43
0.0000000001
 44
0.00000001
 40
0.0
 40
0.0
 40
0.0
 40
0.0
 40
0.0657980327351851
 40
0.1332113198787033
 40
0.1332113198787033
 40
0.1332113198787033
 40
0.1332113198787033
 10
-40.31566296682399
 20
6.643025639601489
 30
0.0
 10
-40.30618427602445
 20
6.621497467978514
 30
0.0
 10
-40.28699419186347
 20
6.577912648666853
 30
0.0
 10
-40.23972425706995
 20
6.571416813157441
 30
0.0
 10
-40.21580269970399
 20
6.568129520821457
 30
0.0
 11
-40.31566296682399
 21
6.643025639601489
 31
0.0
 11
-40.28037613372839
 21
6.587489876516258
 31
0.0
 11
-40.21580269970399
 21
6.568129520821457
 31
0.0
  0
SPLINE
  5
1BA
330
2
100
AcDbEntity
  8
GAIKEI
  6
Continuous
 62
     1
100
AcDbSpline
210
0.0
220
0.0
230
1.0
 70
     8
 71
     3
 72
     9
 73
     5
 74
     3
 42
0.0000000001
 43
0.0000000001
 44
0.00000001
 40
0.0
 40
0.0
 40
0.0
 40
0.0
 40
0.0657980243399255
 40
0.1332113193399805
 40
0.1332113193399805
 40
0.1332113193399805
 40
0.1332113193399805
 10
-40.31566296682399
 20
20.53240450012146
 30
0.0
 10
-40.30618427765563
 20
20.55393266883053
 30
0.0
 10
-40.28699419442633
 20
20.59751748762756
 30
0.0
 10
-40.23972425984647
 20
20.60401332521661
 30
0.0
 10
-40.21580269970399
 20
20.60730061900148
 30
0.0
 11
-40.31566296682399
 21
20.53240450012146
 31
0.0
 11
-40.28037614013965
 21
20.58794025733374
 31
0.0
 11
-40.21580269970399
 21
20.60730061900148
 31
0.0
  0
SPLINE
  5
1BB
330
2
100
AcDbEntity
  8
GAIKEI
  6
Continuous
 62
     1
100
AcDbSpline
210
0.0
220
0.0
230
1.0
 70
     8
 71
     3
 72
    13
 73
     9
 74
     7
 42
0.0000000001
 43
0.0000000001
 44
0.00000001
 40
0.0
 40
0.0
 40
0.0
 40
0.0
 40
2.592976402469097
 40
5.185952835964959
 40
6.500861402826434
 40
7.81576996968484
 40
10.40876399864773
 40
13.00175799660792
 40
13.00175799660792
 40
13.00175799660792
 40
13.00175799660792
 10
-39.765439280284
 20
20.08854331736149
 30
0.0
 10
-39.77079849718706
 20
19.22423387935643
 30
0.0
 10
-39.78151691627699
 20
17.49561499292184
 30
0.0
 10
-39.78705815772341
 20
15.32866363107223
 30
0.0
 10
-39.78832430068763
 20
13.58773266137419
 30
0.0
 10
-39.78705822029798
 20
11.84679582647459
 30
0.0
 10
-39.78151700709168
 20
9.679832734108146
 30
0.0
 10
-39.7707985275386
 20
7.951202117484825
 30
0.0
 10
-39.76543928040399
 20
7.086886814381443
 30
0.0
 11
-39.765439280284
 21
20.08854331736149
 31
0.0
 11
-39.77994242949842
 21
17.49560747502085
 31
0.0
 11
-39.78709813782399
 21
14.90264091514154
 31
0.0
 11
-39.78800555057109
 21
13.58773266136728
 31
0.0
 11
-39.78709818782391
 21
12.27282440756158
 31
0.0
 11
-39.77994250108213
 21
9.679840252088695
 31
0.0
 11
-39.76543928040399
 21
7.086886814381443
 31
0.0
  0
SPLINE
  5
1BC
330
2
100
AcDbEntity
  8
GAIKEI
  6
Continuous
 62
     1
100
AcDbSpline
210
0.0
220
0.0
230
1.0
 70
     8
 71
     3
 72
     9
 73
     5
 74
     3
 42
0.0000000001
 43
0.0000000001
 44
0.00000001
 40
0.0
 40
0.0
 40
0.0
 40
0.0
 40
0.0405615529192738
 40
0.0811231077807221
 40
0.0811231077807221
 40
0.0811231077807221
 40
0.0811231077807221
 10
-39.765439280284
 20
20.08854331736149
 30
0.0
 10
-39.76533699739554
 20
20.07502317305105
 30
0.0
 10
-39.76513245161326
 20
20.04798288365677
 30
0.0
 10
-39.76503063320797
 20
20.02094201232254
 30
0.0
 10
-39.76497973400399
 20
20.00742157628145
 30
0.0
 11
-39.765439280284
 21
20.08854331736149
 31
0.0
 11
-39.76515812346134
 21
20.04798273887582
 31
0.0
 11
-39.76497973400399
 21
20.00742157628145
 31
0.0
  0
SPLINE
  5
1BD
330
2
100
AcDbEntity
  8
GAIKEI
  6
Continuous
 62
     1
100
AcDbSpline
210
0.0
220
0.0
230
1.0
 70
    24
 71
     3
 72
     9
 73
     5
 74
     3
 42
0.0000000001
 43
0.0000000001
 44
0.00000001
 40
0.0
 40
0.0
 40
0.0
 40
0.0
 40
0.01281389986425
 40
0.0256277997284999
 40
0.0256277997284999
 40
0.0256277997284999
 40
0.0256277997284999
 10
-40.28930668914398
 20
13.21211067264147
 30
0.0
 10
-40.28930504939398
 20
13.21638197228151
 30
0.0
 10
-40.28930176989397
 20
13.22492457156153
 30
0.0
 10
-40.28929849039397
 20
13.23346717084146
 30
0.0
 10
-40.28929685064395
 20
13.23773847048147
 30
0.0
 11
-40.28930668914398
 21
13.21211067264147
 31
0.0
 11
-40.28930176989399
 21
13.22492457156147
 31
0.0
 11
-40.28929685064395
 21
13.23773847048147
 31
0.0
  0
SPLINE
  5
1BE
330
2
100
AcDbEntity
  8
GAIKEI
  6
Continuous
 62
     1
100
AcDbSpline
210
0.0
220
0.0
230
1.0
 70
    24
 71
     3
 72
     9
 73
     5
 74
     3
 42
0.0000000001
 43
0.0000000001
 44
0.00000001
 40
0.0
 40
0.0
 40
0.0
 40
0.0
 40
0.1749816397063726
 40
0.3499632794127453
 40
0.3499632794127453
 40
0.3499632794127453
 40
0.3499632794127453
 10
-40.28929685064395
 20
13.23773847048147
 30
0.0
 10
-40.28928605648395
 20
13.29606568271813
 30
0.0
 10
-40.28926446816396
 20
13.4127201071916
 30
0.0
 10
-40.28924287984401
 20
13.52937453166475
 30
0.0
 10
-40.28923208568397
 20
13.58770174390145
 30
0.0
 11
-40.28929685064395
 21
13.23773847048147
 31
0.0
 11
-40.28926446816399
 21
13.41272010719149
 31
0.0
 11
-40.28923208568397
 21
13.58770174390145
 31
0.0
  0
SPLINE
  5
1BF
330
2
100
AcDbEntity
  8
GAIKEI
  6
Continuous
 62
     1
100
AcDbSpline
210
0.0
220
0.0
230
1.0
 70
    24
 71
     3
 72
     9
 73
     5
 74
     3
 42
0.0000000001
 43
0.0000000001
 44
0.00000001
 40
0.0
 40
0.0
 40
0.0
 40
0.0
 40
0.1749949712263555
 40
0.3499899424527678
 40
0.3499899424527678
 40
0.3499899424527678
 40
0.3499899424527678
 10
-40.28923208568397
 20
13.58770174390145
 30
0.0
 10
-40.28924288023398
 20
13.64603339997811
 30
0.0
 10
-40.28926446933406
 20
13.76269671213146
 30
0.0
 10
-40.28928605843396
 20
13.87936002428478
 30
0.0
 10
-40.28929685298396
 20
13.93769168036147
 30
0.0
 11
-40.28923208568397
 21
13.58770174390145
 31
0.0
 11
-40.28926446933394
 21
13.76269671213146
 31
0.0
 11
-40.28929685298396
 21
13.93769168036147
 31
0.0
  0
SPLINE
  5
1C0
330
2
100
AcDbEntity
  8
GAIKEI
  6
Continuous
 62
     1
100
AcDbSpline
210
0.0
220
0.0
230
1.0
 70
    24
 71
     3
 72
     9
 73
     5
 74
     3
 42
0.0000000001
 43
0.0000000001
 44
0.00000001
 40
0.0
 40
0.0
 40
0.0
 40
0.0
 40
0.014768424090082
 40
0.0295368481801639
 40
0.0295368481801639
 40
0.0295368481801639
 40
0.0295368481801639
 10
-40.28929685298396
 20
13.93769168036147
 30
0.0
 10
-40.28929875308063
 20
13.94261448802479
 30
0.0
 10
-40.28930255327395
 20
13.95246010335148
 30
0.0
 10
-40.28930635346728
 20
13.96230571867809
 30
0.0
 10
-40.28930825356394
 20
13.96722852634144
 30
0.0
 11
-40.28929685298396
 21
13.93769168036147
 31
0.0
 11
-40.28930255327395
 21
13.95246010335148
 31
0.0
 11
-40.28930825356394
 21
13.96722852634144
 31
0.0
  0
ARC
  5
1C1
330
2
100
AcDbEntity
  8
GAIKEI
  6
Continuous
 62
     1
100
AcDbCircle
 10
-16.12866072384401
 20
19.78771506986146
 30
0.0
 40
0.05
100
AcDbArc
 50
180.0
 51
270.0
  0
ARC
  5
1C2
330
2
100
AcDbEntity
  8
GAIKEI
  6
Continuous
 62
     1
100
AcDbCircle
 10
-16.12866072384401
 20
7.387715069861485
 30
0.0
 40
0.05
100
AcDbArc
 50
90.0
 51
180.0
  0
ARC
  5
1C3
330
2
100
AcDbEntity
  8
GAIKEI
  6
Continuous
 62
     1
100
AcDbCircle
 10
-39.62866072384401
 20
7.387715069861485
 30
0.0
 40
0.05
100
AcDbArc
 50
0.0
 51
90.0
  0
ARC
  5
1C4
330
2
100
AcDbEntity
  8
GAIKEI
  6
Continuous
 62
     1
100
AcDbCircle
 10
-39.62866072384401
 20
19.78771506986146
 30
0.0
 40
0.05
100
AcDbArc
 50
270.0
 51
0.0
  0
LINE
  5
1C5
330
2
100
AcDbEntity
  8
GAIKEI
  6
Continuous
100
AcDbLine
 10
-15.47781283598402
 20
21.23771506986145
 30
0.0
 11
-40.27950861170398
 21
21.23771506986145
 31
0.0
  0
LINE
  5
1C6
330
2
100
AcDbEntity
  8
GAIKEI
  6
Continuous
100
AcDbLine
 10
-15.47781283598402
 20
5.937715069861496
 30
0.0
 11
-40.27950861170398
 21
5.937715069861496
 31
0.0
  0
LINE
  5
1C7
330
2
100
AcDbEntity
  8
GAIKEI
  6
Continuous
 62
     1
100
AcDbLine
 10
-39.74658444588403
 20
19.88771504634144
 30
0.0
 11
-39.74658444588403
 21
19.83771509336145
 31
0.0
  0
LINE
  5
1C8
330
2
100
AcDbEntity
  8
GAIKEI
  6
Continuous
 62
     1
100
AcDbLine
 10
-39.74658444588403
 20
7.337715046341486
 30
0.0
 11
-39.74658444588403
 21
7.287715093361441
 31
0.0
  0
LINE
  5
1C9
330
2
100
AcDbEntity
  8
GAIKEI
  6
Continuous
 62
     1
100
AcDbLine
 10
-39.72866072384397
 20
7.437715069861496
 30
0.0
 11
-39.72866072384397
 21
19.73771506986145
 31
0.0
  0
LINE
  5
1CA
330
2
100
AcDbEntity
  8
GAIKEI
  6
Continuous
 62
     1
100
AcDbLine
 10
-39.578660723844
 20
7.287715069861462
 30
0.0
 11
-39.578660723844
 21
7.387715069861485
 31
0.0
  0
LINE
  5
1CB
330
2
100
AcDbEntity
  8
GAIKEI
  6
Continuous
 62
     1
100
AcDbLine
 10
-39.578660723844
 20
19.78771506986146
 30
0.0
 11
-39.578660723844
 21
19.88771506986148
 31
0.0
  0
LINE
  5
1CC
330
2
100
AcDbEntity
  8
GAIKEI
  6
Continuous
 62
     1
100
AcDbLine
 10
-16.06068561816403
 20
7.237715069861508
 30
0.0
 11
-39.69663582952398
 21
7.237715069861508
 31
0.0
  0
LINE
  5
1CD
330
2
100
AcDbEntity
  8
GAIKEI
  6
Continuous
 62
     1
100
AcDbLine
 10
-16.17866072384402
 20
7.287715069861462
 30
0.0
 11
-39.578660723844
 21
7.287715069861462
 31
0.0
  0
LINE
  5
1CE
330
2
100
AcDbEntity
  8
GAIKEI
  6
Continuous
 62
     1
100
AcDbLine
 10
-16.06068561816403
 20
7.387715069861485
 30
0.0
 11
-16.17866072384402
 21
7.387715069861485
 31
0.0
  0
LINE
  5
1CF
330
2
100
AcDbEntity
  8
GAIKEI
  6
Continuous
 62
     1
100
AcDbLine
 10
-39.578660723844
 20
7.387715069861485
 30
0.0
 11
-39.69663582952398
 21
7.387715069861485
 31
0.0
  0
LINE
  5
1D0
330
2
100
AcDbEntity
  8
GAIKEI
  6
Continuous
 62
     1
100
AcDbLine
 10
-16.02866072384398
 20
7.437715069861496
 30
0.0
 11
-16.12866072384401
 21
7.437715069861496
 31
0.0
  0
LINE
  5
1D1
330
2
100
AcDbEntity
  8
GAIKEI
  6
Continuous
 62
     1
100
AcDbLine
 10
-39.62866072384401
 20
7.437715069861496
 30
0.0
 11
-39.72866072384397
 21
7.437715069861496
 31
0.0
  0
LINE
  5
1D2
330
2
100
AcDbEntity
  8
GAIKEI
  6
Continuous
 62
     1
100
AcDbLine
 10
-39.62866072384401
 20
19.73771506986145
 30
0.0
 11
-39.72866072384397
 21
19.73771506986145
 31
0.0
  0
LINE
  5
1D3
330
2
100
AcDbEntity
  8
GAIKEI
  6
Continuous
 62
     1
100
AcDbLine
 10
-16.12866072384401
 20
19.73771506986145
 30
0.0
 11
-16.02866072384398
 21
19.73771506986145
 31
0.0
  0
LINE
  5
1D4
330
2
100
AcDbEntity
  8
GAIKEI
  6
Continuous
 62
     1
100
AcDbLine
 10
-39.69663582952398
 20
19.78771506986146
 30
0.0
 11
-39.578660723844
 21
19.78771506986146
 31
0.0
  0
LINE
  5
1D5
330
2
100
AcDbEntity
  8
GAIKEI
  6
Continuous
 62
     1
100
AcDbLine
 10
-16.17866072384402
 20
19.78771506986146
 30
0.0
 11
-16.06068561816403
 21
19.78771506986146
 31
0.0
  0
LINE
  5
1D6
330
2
100
AcDbEntity
  8
GAIKEI
  6
Continuous
 62
     1
100
AcDbLine
 10
-39.578660723844
 20
19.88771506986148
 30
0.0
 11
-16.17866072384402
 21
19.88771506986148
 31
0.0
  0
LINE
  5
1D7
330
2
100
AcDbEntity
  8
GAIKEI
  6
Continuous
 62
     1
100
AcDbLine
 10
-39.69663582952398
 20
19.93771506986144
 30
0.0
 11
-16.06068561816403
 21
19.93771506986144
 31
0.0
  0
LINE
  5
1D8
330
2
100
AcDbEntity
  8
GAIKEI
  6
Continuous
 62
     1
100
AcDbLine
 10
-16.17866072384402
 20
7.287715069861462
 30
0.0
 11
-16.17866072384402
 21
7.387715069861485
 31
0.0
  0
LINE
  5
1D9
330
2
100
AcDbEntity
  8
GAIKEI
  6
Continuous
 62
     1
100
AcDbLine
 10
-16.17866072384402
 20
19.78771506986146
 30
0.0
 11
-16.17866072384402
 21
19.88771506986148
 31
0.0
  0
LINE
  5
1DA
330
2
100
AcDbEntity
  8
GAIKEI
  6
Continuous
 62
     1
100
AcDbLine
 10
-16.02866072384398
 20
19.73771506986145
 30
0.0
 11
-16.02866072384398
 21
7.437715069861496
 31
0.0
  0
LINE
  5
1DB
330
2
100
AcDbEntity
  8
GAIKEI
  6
Continuous
 62
     1
100
AcDbLine
 10
-16.01073700180399
 20
19.88771504634144
 30
0.0
 11
-16.01073700180399
 21
19.83771509336145
 31
0.0
  0
LINE
  5
1DC
330
2
100
AcDbEntity
  8
GAIKEI
  6
Continuous
 62
     1
100
AcDbLine
 10
-16.01073700180399
 20
7.337715046341486
 30
0.0
 11
-16.01073700180399
 21
7.287715093361441
 31
0.0
  0
LINE
  5
1DD
330
2
100
AcDbEntity
  8
GAIKEI
  6
Continuous
 62
     1
100
AcDbLine
 10
-40.21580283738399
 20
6.568127038861462
 30
0.0
 11
-15.54151862234403
 21
6.568127043061451
 31
0.0
  0
LINE
  5
1DE
330
2
100
AcDbEntity
  8
GAIKEI
  6
Continuous
 62
     1
100
AcDbLine
 10
-39.71658284856398
 20
6.965488973381468
 30
0.0
 11
-16.040738431764
 21
6.965488532341453
 31
0.0
  0
LINE
  5
1DF
330
2
100
AcDbEntity
  8
GAIKEI
  6
Continuous
 62
     1
100
AcDbLine
 10
-15.54151863758403
 20
20.60730282168146
 30
0.0
 11
-40.21580282190399
 21
20.6073028220215
 31
0.0
  0
LINE
  5
1E0
330
2
100
AcDbEntity
  8
GAIKEI
  6
Continuous
 62
     1
100
AcDbLine
 10
-16.040738366124
 20
20.2099402943615
 30
0.0
 11
-39.71658309978398
 21
20.20994029438146
 31
0.0
  0
CIRCLE
  5
1E1
330
2
100
AcDbEntity
  8
GAIKEI
  6
Continuous
 62
     1
100
AcDbCircle
 10
3.627075210588202
 20
13.58771506986147
 30
0.0
 40
0.2150000000000038
  0
CIRCLE
  5
1E2
330
2
100
AcDbEntity
  8
GAIKEI
  6
Continuous
 62
     1
100
AcDbCircle
 10
3.627075210588202
 20
13.58771506986147
 30
0.0
 40
0.35
  0
ARC
  5
1E3
330
2
100
AcDbEntity
  8
GAIKEI
  6
Continuous
 62
     1
100
AcDbCircle
 10
3.537075210588227
 20
13.67771506986145
 30
0.0
 40
0.05
100
AcDbArc
 50
270.0
 51
0.0
  0
ARC
  5
1E4
330
2
100
AcDbEntity
  8
GAIKEI
  6
Continuous
 62
     1
100
AcDbCircle
 10
3.537075210588227
 20
13.49771506986144
 30
0.0
 40
0.05
100
AcDbArc
 50
0.0
 51
90.0
  0
ARC
  5
1E5
330
2
100
AcDbEntity
  8
GAIKEI
  6
Continuous
 62
     1
100
AcDbCircle
 10
3.717075210588234
 20
13.67771506986145
 30
0.0
 40
0.05
100
AcDbArc
 50
180.0
 51
270.0
  0
ARC
  5
1E6
330
2
100
AcDbEntity
  8
GAIKEI
  6
Continuous
 62
     1
100
AcDbCircle
 10
3.717075210588234
 20
13.49771506986144
 30
0.0
 40
0.05
100
AcDbArc
 50
90.0
 51
180.0
  0
ARC
  5
1E7
330
2
100
AcDbEntity
  8
GAIKEI
  6
Continuous
100
AcDbCircle
 10
27.92707521058821
 20
13.58771506986147
 30
0.0
 40
25.00000000000001
100
AcDbArc
 50
163.8070040030005
 51
196.1929961039992
  0
ARC
  5
1E8
330
2
100
AcDbEntity
  8
GAIKEI
  6
Continuous
100
AcDbCircle
 10
5.91217924102824
 20
8.83701762584144
 30
0.0
 40
3.000000000000085
100
AcDbArc
 50
229.1388161180009
 51
254.3717327024021
  0
ARC
  5
1E9
330
2
100
AcDbEntity
  8
GAIKEI
  6
Continuous
 62
     1
100
AcDbCircle
 10
54.72707521058822
 20
13.58771506986147
 30
0.0
 40
50.00000000000285
100
AcDbArc
 50
171.1991788112339
 51
188.800821188766
  0
ARC
  5
1EA
330
2
100
AcDbEntity
  8
GAIKEI
  6
Continuous
100
AcDbCircle
 10
5.91217924102824
 20
18.33841251388145
 30
0.0
 40
2.999999999999923
100
AcDbArc
 50
105.6282760902977
 51
130.8611920313984
  0
ARC
  5
1EB
330
2
100
AcDbEntity
  8
GAIKEI
  6
Continuous
100
AcDbCircle
 10
4.014913538628206
 20
6.643759124321491
 30
0.0
 40
0.1000000000098085
100
AcDbArc
 50
196.1927568933305
 51
229.140913633871
  0
ARC
  5
1EC
330
2
100
AcDbEntity
  8
GAIKEI
  6
Continuous
100
AcDbCircle
 10
4.014913538628206
 20
20.53167101538145
 30
0.0
 40
0.1000000000000502
100
AcDbArc
 50
130.8593268935254
 51
163.8072698456992
  0
ARC
  5
1ED
330
2
100
AcDbEntity
  8
GAIKEI
  6
Continuous
100
AcDbCircle
 10
5.130936998848198
 20
6.044230387421464
 30
0.0
 40
0.0999999999999883
100
AcDbArc
 50
254.3698442856395
 51
268.0000000058297
  0
ARC
  5
1EE
330
2
100
AcDbEntity
  8
GAIKEI
  6
Continuous
100
AcDbCircle
 10
5.13093699857518
 20
21.13119975223913
 30
0.0
 40
0.1000000000505152
100
AcDbArc
 50
91.99999983659393
 51
105.630419585421
  0
ARC
  5
1EF
330
2
100
AcDbEntity
  8
GAIKEI
  6
Continuous
100
AcDbCircle
 10
3.848448086748248
 20
32.12490958840147
 30
0.0
 40
25.99999999999994
100
AcDbArc
 50
285.6411407096013
 51
305.8770161580995
  0
ARC
  5
1F0
330
2
100
AcDbEntity
  8
GAIKEI
  6
Continuous
100
AcDbCircle
 10
-0.7349570508717989
 20
48.49538292744148
 30
0.0
 40
43.00000000000008
100
AcDbArc
 50
278.2254046246003
 51
285.6411577785303
  0
ARC
  5
1F1
330
2
100
AcDbEntity
  8
GAIKEI
  6
Continuous
100
AcDbCircle
 10
-0.7349570508717989
 20
-21.31995278771853
 30
0.0
 40
43.00000000000003
100
AcDbArc
 50
74.35884222189961
 51
81.77459537539959
  0
ARC
  5
1F2
330
2
100
AcDbEntity
  8
GAIKEI
  6
Continuous
100
AcDbCircle
 10
3.848448086748248
 20
-4.949479448678516
 30
0.0
 40
25.99999999999992
100
AcDbArc
 50
54.12298384219883
 51
74.35885929111226
  0
ARC
  5
1F3
330
2
100
AcDbEntity
  8
GAIKEI
  6
Continuous
100
AcDbCircle
 10
19.02707521058824
 20
16.03668929732146
 30
0.0
 40
0.1
100
AcDbArc
 50
0.0
 51
54.12321919181394
  0
ARC
  5
1F4
330
2
100
AcDbEntity
  8
GAIKEI
  6
Continuous
100
AcDbCircle
 10
19.02707521058824
 20
11.13874084240149
 30
0.0
 40
0.0999999999977483
100
AcDbArc
 50
305.8767808862354
 51
0.0
  0
ARC
  5
1F5
330
2
100
AcDbEntity
  8
GAIKEI
  6
Continuous
 62
     1
100
AcDbCircle
 10
54.72707521058822
 20
13.58771506986147
 30
0.0
 40
49.90000000004471
100
AcDbArc
 50
171.1814170882425
 51
188.8185829117574
  0
LINE
  5
1F6
330
2
100
AcDbEntity
  8
GAIKEI
  6
Continuous
 62
   251
100
AcDbLine
 10
2.827075210588191
 20
12.62771506986149
 30
0.0
 11
2.827075210588191
 21
14.54685814092147
 31
0.0
  0
LINE
  5
1F7
330
2
100
AcDbEntity
  8
GAIKEI
  6
Continuous
 62
     1
100
AcDbLine
 10
3.477075210588225
 20
13.54771506986145
 30
0.0
 11
3.477075210588225
 21
13.62771506986144
 31
0.0
  0
LINE
  5
1F8
330
2
100
AcDbEntity
  8
GAIKEI
  6
Continuous
 62
     1
100
AcDbLine
 10
3.587075210588238
 20
13.43771506986149
 30
0.0
 11
3.587075210588238
 21
13.49771506986144
 31
0.0
  0
LINE
  5
1F9
330
2
100
AcDbEntity
  8
GAIKEI
  6
Continuous
 62
     1
100
AcDbLine
 10
3.587075210588238
 20
13.67771506986145
 30
0.0
 11
3.587075210588238
 21
13.73771506986145
 31
0.0
  0
LINE
  5
1FA
330
2
100
AcDbEntity
  8
GAIKEI
  6
Continuous
 62
     1
100
AcDbLine
 10
3.667075210588222
 20
13.73771506986145
 30
0.0
 11
3.667075210588222
 21
13.67771506986145
 31
0.0
  0
LINE
  5
1FB
330
2
100
AcDbEntity
  8
GAIKEI
  6
Continuous
 62
     1
100
AcDbLine
 10
3.667075210588222
 20
13.49771506986144
 30
0.0
 11
3.667075210588222
 21
13.43771506986149
 31
0.0
  0
LINE
  5
1FC
330
2
100
AcDbEntity
  8
GAIKEI
  6
Continuous
 62
     1
100
AcDbLine
 10
3.777075210588236
 20
13.62771506986144
 30
0.0
 11
3.777075210588236
 21
13.54771506986145
 31
0.0
  0
LINE
  5
1FD
330
2
100
AcDbEntity
  8
GAIKEI
  6
Continuous
100
AcDbLine
 10
5.315765776408227
 20
5.937715069861496
 30
0.0
 11
5.127447049188219
 21
5.944291304721502
 31
0.0
  0
LINE
  5
1FE
330
2
100
AcDbEntity
  8
GAIKEI
  6
Continuous
100
AcDbLine
 10
5.404026528208191
 20
6.021549021301439
 30
0.0
 11
5.304197006368212
 21
6.01281506986146
 31
0.0
  0
LINE
  5
1FF
330
2
100
AcDbEntity
  8
GAIKEI
  6
Continuous
 62
   251
100
AcDbLine
 10
2.827075210588191
 20
12.62771506986149
 30
0.0
 11
2.945514010375006
 21
12.62771506986149
 31
0.0
  0
LINE
  5
200
330
2
100
AcDbEntity
  8
GAIKEI
  6
Continuous
 62
     1
100
AcDbLine
 10
3.667075210588222
 20
13.43771506986149
 30
0.0
 11
3.587075210588238
 21
13.43771506986149
 31
0.0
  0
LINE
  5
201
330
2
100
AcDbEntity
  8
GAIKEI
  6
Continuous
 62
     1
100
AcDbLine
 10
3.777075210588236
 20
13.54771506986145
 30
0.0
 11
3.717075210588234
 21
13.54771506986145
 31
0.0
  0
LINE
  5
202
330
2
100
AcDbEntity
  8
GAIKEI
  6
Continuous
 62
     1
100
AcDbLine
 10
3.537075210588227
 20
13.54771506986145
 30
0.0
 11
3.477075210588225
 21
13.54771506986145
 31
0.0
  0
LINE
  5
203
330
2
100
AcDbEntity
  8
GAIKEI
  6
Continuous
 62
     1
100
AcDbLine
 10
3.477075210588225
 20
13.62771506986144
 30
0.0
 11
3.537075210588227
 21
13.62771506986144
 31
0.0
  0
LINE
  5
204
330
2
100
AcDbEntity
  8
GAIKEI
  6
Continuous
 62
     1
100
AcDbLine
 10
3.717075210588234
 20
13.62771506986144
 30
0.0
 11
3.777075210588236
 21
13.62771506986144
 31
0.0
  0
LINE
  5
205
330
2
100
AcDbEntity
  8
GAIKEI
  6
Continuous
 62
     1
100
AcDbLine
 10
3.587075210588238
 20
13.73771506986145
 30
0.0
 11
3.667075210588222
 21
13.73771506986145
 31
0.0
  0
LINE
  5
206
330
2
100
AcDbEntity
  8
GAIKEI
  6
Continuous
100
AcDbLine
 10
19.12707521058826
 20
16.03668929732146
 30
0.0
 11
19.12707521058826
 21
11.13874084240149
 31
0.0
  0
LINE
  5
207
330
2
100
AcDbEntity
  8
GAIKEI
  6
Continuous
 62
   251
100
AcDbLine
 10
2.827075210588191
 20
14.54685814092147
 30
0.0
 11
2.94548109473493
 21
14.54685814092147
 31
0.0
  0
LINE
  5
208
330
2
100
AcDbEntity
  8
GAIKEI
  6
Continuous
100
AcDbLine
 10
5.404026528208191
 20
21.15388111842145
 30
0.0
 11
5.304197006368212
 21
21.16261506986143
 31
0.0
  0
LINE
  5
209
330
2
100
AcDbEntity
  8
GAIKEI
  6
Continuous
100
AcDbLine
 10
5.315765776408227
 20
21.23771506986145
 30
0.0
 11
5.127447049188219
 21
21.2311388350015
 31
0.0
  0
DIMENSION
  5
20A
330
2
100
AcDbEntity
  8
SUNPO
100
AcDbDimension
  2
*D7
 10
-15.37866078388396
 20
-2.456568223118495
 30
0.0
 11
-27.87866072383398
 21
-0.7065682231184951
 31
0.0
 70
    33
  1
250
 71
     5
 42
24.99999987990003
  3
STANDARD
100
AcDbAlignedDimension
 13
-40.37866066378398
 23
5.543431753101458
 33
0.0
 14
-15.37866078388396
 24
5.543431776881504
 34
0.0
1001
ACAD
1000
DSTYLE
1002
{
1070
    40
1040
1.0
1070
   140
1040
2.5
1070
   147
1040
0.5
1070
   172
1070
     1
1070
   279
1070
     0
1070
   288
1070
     0
1002
}
  0
DIMENSION
  5
217
330
2
100
AcDbEntity
  8
SUNPO
100
AcDbDimension
  2
*D6
 10
-6.977812835983968
 20
21.23771506986145
 30
0.0
 11
-8.727812835983973
 21
13.58771506986147
 31
0.0
 70
    33
  1
153
 71
     5
 42
15.29999999999995
  3
STANDARD
100
AcDbAlignedDimension
 13
-14.97781283598397
 23
5.937715069861496
 33
0.0
 14
-14.97781283598397
 24
21.23771506986145
 34
0.0
1001
ACAD
1000
DSTYLE
1002
{
1070
    40
1040
1.0
1070
   140
1040
2.5
1070
   147
1040
0.5
1070
   172
1070
     1
1070
   279
1070
     0
1070
   288
1070
     0
1002
}
  0
DIMENSION
  5
224
330
2
100
AcDbEntity
  8
SUNPO
100
AcDbDimension
  2
*D5
 10
19.12707521058834
 20
29.23499755674817
 30
0.0
 11
11.0270752105898
 21
30.98499755674817
 31
0.0
 70
    33
  1
162
 71
     5
 42
16.19999999999709
  3
STANDARD
100
AcDbAlignedDimension
 13
2.927075210591254
 23
21.23499755674817
 33
0.0
 14
19.12707521058834
 24
21.23499755674817
 34
0.0
1001
ACAD
1000
DSTYLE
1002
{
1070
    40
1040
1.0
1070
   140
1040
2.5
1070
   147
1040
0.5
1070
   172
1070
     1
1070
   279
1070
     0
1070
   288
1070
     0
1002
}
  0
TEXT
  5
231
330
2
100
AcDbEntity
  8
MOJI1
100
AcDbText
 10
-20.32499041171343
 20
-47.56241201957965
 30
0.0
 40
3.0
  1
９１ｄＢ（１Ｗ／１ｍ）
100
AcDbText
  0
TEXT
  5
232
330
2
100
AcDbEntity
  8
MOJI1
100
AcDbText
 10
-20.32499041171343
 20
-57.56241201957966
 30
0.0
 40
3.0
  1
取付金具付
100
AcDbText
  0
TEXT
  5
233
330
2
100
AcDbEntity
  8
MOJI1
100
AcDbText
 10
-60.32499041171343
 20
-57.56241201957966
 30
0.0
 40
3.0
  1
備　考
100
AcDbText
  0
LINE
  5
234
330
2
100
AcDbEntity
  8
WAKU
 62
     4
100
AcDbLine
 10
62.17500958828657
 20
-58.56241201957965
 30
0.0
 11
62.17500958828657
 21
-23.56241201957965
 31
0.0
  0
TEXT
  5
236
330
2
100
AcDbEntity
  8
MOJI1
100
AcDbText
 10
-20.32499041171343
 20
-37.56241201957966
 30
0.0
 40
3.0
  1
８Ω
100
AcDbText
  0
TEXT
  5
237
330
2
100
AcDbEntity
  8
MOJI1
100
AcDbText
 10
-20.32499041171343
 20
-42.56241201957965
 30
0.0
 40
3.0
  1
５０Ｈｚ～１６ｋＨｚ
100
AcDbText
  0
TEXT
  5
238
330
2
100
AcDbEntity
  8
MOJI1
100
AcDbText
 10
-20.32499041171343
 20
-27.56241201957966
 30
0.0
 40
3.0
  1
フルレンジバスレフ形
100
AcDbText
  0
TEXT
  5
239
330
2
100
AcDbEntity
  8
MOJI1
100
AcDbText
 10
-20.32499041171343
 20
-52.56241201957966
 30
0.0
 40
3.0
  1
１２ｃｍ　コーン形
100
AcDbText
  0
LINE
  5
23A
330
2
100
AcDbEntity
  8
WAKU
 62
     4
100
AcDbLine
 10
-22.82499041171343
 20
-58.56241201957965
 30
0.0
 11
-22.82499041171343
 21
-23.56241201957965
 31
0.0
  0
TEXT
  5
23B
330
2
100
AcDbEntity
  8
MOJI1
100
AcDbText
 10
-60.32499041171343
 20
-42.56241201957965
 30
0.0
 40
3.0
  1
周波数特性
100
AcDbText
  0
TEXT
  5
23C
330
2
100
AcDbEntity
  8
MOJI1
100
AcDbText
 10
-60.32499041171343
 20
-47.56241201957965
 30
0.0
 40
3.0
  1
出力音圧レベル
100
AcDbText
  0
TEXT
  5
23D
330
2
100
AcDbEntity
  8
MOJI1
100
AcDbText
 10
-60.32499041171343
 20
-32.56241201957966
 30
0.0
 40
3.0
  1
許容入力
100
AcDbText
  0
TEXT
  5
23E
330
2
100
AcDbEntity
  8
MOJI1
100
AcDbText
 10
-60.32499041171343
 20
-27.56241201957966
 30
0.0
 40
3.0
  1
形　式
100
AcDbText
  0
TEXT
  5
23F
330
2
100
AcDbEntity
  8
MOJI1
100
AcDbText
 10
-60.32499041171343
 20
-52.56241201957966
 30
0.0
 40
3.0
  1
使用スピーカー
100
AcDbText
  0
LINE
  5
240
330
2
100
AcDbEntity
  8
WAKU
 62
     4
100
AcDbLine
 10
-62.82499041171343
 20
-23.56241201957965
 30
0.0
 11
-62.82499041171343
 21
-58.56241201957965
 31
0.0
  0
TEXT
  5
241
330
2
100
AcDbEntity
  8
MOJI1
100
AcDbText
 10
-60.32499041171343
 20
-37.56241201957966
 30
0.0
 40
3.0
  1
入力インピーダンス
100
AcDbText
  0
TEXT
  5
242
330
2
100
AcDbEntity
  8
MOJI1
100
AcDbText
 10
-20.32499041171343
 20
-32.56241201957966
 30
0.0
 40
3.0
  1
１２０Ｗ／６０Ｗ（連続プログラム／ＲＭＳ）
100
AcDbText
  0
LINE
  5
243
330
2
100
AcDbEntity
  8
WAKU
 62
     4
100
AcDbLine
 10
-62.82499041171343
 20
-58.56241201957965
 30
0.0
 11
62.17500958828657
 21
-58.56241201957965
 31
0.0
  0
LINE
  5
244
330
2
100
AcDbEntity
  8
WAKU
 62
     4
100
AcDbLine
 10
62.17500958828657
 20
-23.56241201957965
 30
0.0
 11
-62.82499041171343
 21
-23.56241201957965
 31
0.0
  0
LINE
  5
245
330
2
100
AcDbEntity
  8
WAKU
 62
     1
100
AcDbLine
 10
-62.82499041171343
 20
-53.56241201957965
 30
0.0
 11
62.17500958828657
 21
-53.56241201957965
 31
0.0
  0
LINE
  5
246
330
2
100
AcDbEntity
  8
WAKU
 62
     1
100
AcDbLine
 10
-62.82499041171343
 20
-48.56241201957965
 30
0.0
 11
62.17500958828657
 21
-48.56241201957965
 31
0.0
  0
LINE
  5
247
330
2
100
AcDbEntity
  8
WAKU
 62
     1
100
AcDbLine
 10
-62.82499041171343
 20
-43.56241201957965
 30
0.0
 11
62.17500958828657
 21
-43.56241201957965
 31
0.0
  0
LINE
  5
248
330
2
100
AcDbEntity
  8
WAKU
 62
     1
100
AcDbLine
 10
-62.82499041171343
 20
-38.56241201957966
 30
0.0
 11
62.17500958828657
 21
-38.56241201957966
 31
0.0
  0
LINE
  5
249
330
2
100
AcDbEntity
  8
WAKU
 62
     1
100
AcDbLine
 10
-62.82499041171343
 20
-33.56241201957966
 30
0.0
 11
62.17500958828657
 21
-33.56241201957966
 31
0.0
  0
LINE
  5
24A
330
2
100
AcDbEntity
  8
WAKU
 62
     1
100
AcDbLine
 10
-62.82499041171343
 20
-28.56241201957966
 30
0.0
 11
62.17500958828657
 21
-28.56241201957966
 31
0.0
  0
ENDSEC
  0
SECTION
  2
OBJECTS
  0
DICTIONARY
  5
7
330
0
100
AcDbDictionary
281
     1
  3
ACAD_COLOR
350
2A
  3
ACAD_GROUP
350
26
  3
ACAD_LAYOUT
350
B
  3
ACAD_MATERIAL
350
29
  3
ACAD_MLINESTYLE
350
27
  3
ACAD_PLOTSETTINGS
350
28
  3
ACAD_PLOTSTYLENAME
350
6
  3
ACDBHEADERROUNDTRIPXREC
350
287
  3
AcDbVariableDictionary
350
282
  0
DICTIONARY
  5
2A
102
{ACAD_REACTORS
330
7
102
}
330
7
100
AcDbDictionary
281
     1
  0
DICTIONARY
  5
26
102
{ACAD_REACTORS
330
7
102
}
330
7
100
AcDbDictionary
281
     1
  0
DICTIONARY
  5
B
102
{ACAD_REACTORS
330
7
102
}
330
7
100
AcDbDictionary
281
     1
  3
Model
350
A
  3
レイアウト1
350
F
  0
DICTIONARY
  5
29
102
{ACAD_REACTORS
330
7
102
}
330
7
100
AcDbDictionary
281
     1
  0
DICTIONARY
  5
27
102
{ACAD_REACTORS
330
7
102
}
330
7
100
AcDbDictionary
281
     1
  3
Standard
350
2C
  0
DICTIONARY
  5
28
102
{ACAD_REACTORS
330
7
102
}
330
7
100
AcDbDictionary
281
     1
  0
ACDBDICTIONARYWDFLT
  5
6
102
{ACAD_REACTORS
330
7
102
}
330
7
100
AcDbDictionary
281
     1
  3
Normal
350
5
100
AcDbDictionaryWithDefault
340
5
  0
DICTIONARY
  5
287
102
{ACAD_REACTORS
330
7
102
}
330
7
100
AcDbDictionary
281
     1
  3
COLORDICT
350
289
  3
MATERIALDICT
350
288
  0
DICTIONARY
  5
282
102
{ACAD_REACTORS
330
7
102
}
330
7
100
AcDbDictionary
281
     1
  3
DIMASSOC
350
284
  3
HIDETEXT
350
283
  3
PROJECTNAME
350
285
  0
LAYOUT
  5
A
102
{ACAD_XDICTIONARY
360
28A
102
}
102
{ACAD_REACTORS
330
B
102
}
330
B
100
AcDbPlotSettings
  1

  2
none_device
  4
ANSI_A_(8.50_x_11.00_Inches)
  6

 40
6.349999904632568
 41
19.04999923706055
 42
6.350006103515625
 43
19.04998779296875
 44
215.8999938964844
 45
279.3999938964844
 46
0.0
 47
0.0
 48
0.0
 49
0.0
140
0.0
141
0.0
142
1.0
143
78.436453180766
 70
 11952
 72
     0
 73
     1
 74
     0
  7

 75
     0
147
0.0127491741332998
148
0.0
149
0.0
100
AcDbLayout
  1
Model
 70
     1
 71
     0
 10
0.0
 20
0.0
 11
12.0
 21
9.0
 12
0.0
 22
0.0
 32
0.0
 14
0.0
 24
0.0
 34
0.0
 15
0.0
 25
0.0
 35
0.0
146
0.0
 13
0.0
 23
0.0
 33
0.0
 16
1.0
 26
0.0
 36
0.0
 17
0.0
 27
1.0
 37
0.0
 76
     0
330
2
  0
LAYOUT
  5
F
102
{ACAD_XDICTIONARY
360
28C
102
}
102
{ACAD_REACTORS
330
B
102
}
330
B
100
AcDbPlotSettings
  1

  2
None
  4

  6

 40
0.0
 41
0.0
 42
0.0
 43
0.0
 44
0.0
 45
0.0
 46
0.0
 47
0.0
 48
0.0
 49
0.0
140
0.0
141
0.0
142
1.0
143
1.0
 70
   688
 72
     0
 73
     0
 74
     5
  7
tmsacad.ctb
 75
    16
147
1.0
148
0.0
149
0.0
100
AcDbLayout
  1
レイアウト1
 70
     1
 71
     1
 10
0.0
 20
0.0
 11
12.0
 21
9.0
 12
0.0
 22
0.0
 32
0.0
 14
0.0
 24
0.0
 34
0.0
 15
0.0
 25
0.0
 35
0.0
146
0.0
 13
0.0
 23
0.0
 33
0.0
 16
1.0
 26
0.0
 36
0.0
 17
0.0
 27
1.0
 37
0.0
 76
     0
330
C
  0
MLINESTYLE
  5
2C
102
{ACAD_REACTORS
330
27
102
}
330
27
100
AcDbMlineStyle
  2
STANDARD
 70
     0
  3

 62
   256
 51
90.0
 52
90.0
 71
     2
 49
0.5
 62
   256
  6
BYLAYER
 49
-0.5
 62
   256
  6
BYLAYER
  0
ACDBPLACEHOLDER
  5
5
102
{ACAD_REACTORS
330
6
102
}
330
6
  0
XRECORD
  5
289
102
{ACAD_REACTORS
330
287
102
}
330
287
100
AcDbXrecord
280
     1
340
2A
  0
XRECORD
  5
288
102
{ACAD_REACTORS
330
287
102
}
330
287
100
AcDbXrecord
280
     1
340
29
  0
DICTIONARYVAR
  5
284
102
{ACAD_REACTORS
330
282
102
}
330
282
100
DictionaryVariables
280
     0
  1
1
  0
DICTIONARYVAR
  5
283
102
{ACAD_REACTORS
330
282
102
}
330
282
100
DictionaryVariables
280
     0
  1
1
  0
DICTIONARYVAR
  5
285
102
{ACAD_REACTORS
330
282
102
}
330
282
100
DictionaryVariables
280
     0
  1

  0
DICTIONARY
  5
28A
330
A
100
AcDbDictionary
280
     1
281
     1
  3
ACAD_XREC_ROUNDTRIP
360
28B
  0
DICTIONARY
  5
28C
330
F
100
AcDbDictionary
280
     1
281
     1
  3
ACAD_XREC_ROUNDTRIP
360
28D
  0
XRECORD
  5
28B
102
{ACAD_REACTORS
330
28A
102
}
330
28A
100
AcDbXrecord
280
     1
102
SHADEPLOT
 70
     0
102
SHADEPLOTRESLEVEL
 70
     2
102
SHADEPLOTCUSTOMDPI
 70
   300
  0
XRECORD
  5
28D
102
{ACAD_REACTORS
330
28C
102
}
330
28C
100
AcDbXrecord
280
     1
102
SHADEPLOT
 70
     0
102
SHADEPLOTRESLEVEL
 70
     2
102
SHADEPLOTCUSTOMDPI
 70
   300
  0
ENDSEC
  0
EOF
