  0
SECTION
  2
HEADER
  9
$ACADVER
  1
AC1015
  9
$ACADMAINTVER
 70
    20
  9
$DWGCODEPAGE
  3
ANSI_932
  9
$INSBASE
 10
0.4999999440410648
 20
120.5008351249346
 30
0.0
  9
$EXTMIN
 10
-62.75390534516645
 20
-60.87194762154479
 30
-25.17395016641117
  9
$EXTMAX
 10
62.27966364738495
 20
52.15264933224841
 30
0.0000000349246037
  9
$LIMMIN
 10
0.0
 20
0.0
  9
$LIMMAX
 10
420.0
 20
297.0
  9
$ORTHOMODE
 70
     0
  9
$REGENMODE
 70
     0
  9
$FILLMODE
 70
     1
  9
$QTEXTMODE
 70
     0
  9
$MIRRTEXT
 70
     0
  9
$LTSCALE
 40
1.0
  9
$ATTMODE
 70
     1
  9
$TEXTSIZE
 40
2.5
  9
$TRACEWID
 40
1.0
  9
$TEXTSTYLE
  7
Standard
  9
$CLAYER
  8
0
  9
$CELTYPE
  6
ByLayer
  9
$CECOLOR
 62
   256
  9
$CELTSCALE
 40
1.0
  9
$DISPSILH
 70
     0
  9
$DIMSCALE
 40
1.0
  9
$DIMASZ
 40
2.0
  9
$DIMEXO
 40
2.0
  9
$DIMDLI
 40
8.0
  9
$DIMRND
 40
0.0
  9
$DIMDLE
 40
0.0
  9
$DIMEXE
 40
2.0
  9
$DIMTP
 40
0.0
  9
$DIMTM
 40
0.0
  9
$DIMTXT
 40
2.5
  9
$DIMCEN
 40
0.0
  9
$DIMTSZ
 40
0.0
  9
$DIMTOL
 70
     0
  9
$DIMLIM
 70
     0
  9
$DIMTIH
 70
     0
  9
$DIMTOH
 70
     0
  9
$DIMSE1
 70
     0
  9
$DIMSE2
 70
     0
  9
$DIMTAD
 70
     3
  9
$DIMZIN
 70
     0
  9
$DIMBLK
  1

  9
$DIMASO
 70
     1
  9
$DIMSHO
 70
     1
  9
$DIMPOST
  1

  9
$DIMAPOST
  1

  9
$DIMALT
 70
     0
  9
$DIMALTD
 70
     2
  9
$DIMALTF
 40
25.4
  9
$DIMLFAC
 40
1.0
  9
$DIMTOFL
 70
     1
  9
$DIMTVP
 40
0.0
  9
$DIMTIX
 70
     0
  9
$DIMSOXD
 70
     0
  9
$DIMSAH
 70
     1
  9
$DIMBLK1
  1
OPEN30
  9
$DIMBLK2
  1
OPEN30
  9
$DIMSTYLE
  2
STANDARD
  9
$DIMCLRD
 70
     0
  9
$DIMCLRE
 70
     0
  9
$DIMCLRT
 70
     0
  9
$DIMTFAC
 40
1.0
  9
$DIMGAP
 40
0.5
  9
$DIMJUST
 70
     0
  9
$DIMSD1
 70
     0
  9
$DIMSD2
 70
     0
  9
$DIMTOLJ
 70
     1
  9
$DIMTZIN
 70
     0
  9
$DIMALTZ
 70
     0
  9
$DIMALTTZ
 70
     0
  9
$DIMUPT
 70
     0
  9
$DIMDEC
 70
     4
  9
$DIMTDEC
 70
     4
  9
$DIMALTU
 70
     2
  9
$DIMALTTD
 70
     2
  9
$DIMTXSTY
  7
Standard
  9
$DIMAUNIT
 70
     0
  9
$DIMADEC
 70
     0
  9
$DIMALTRND
 40
0.0
  9
$DIMAZIN
 70
     0
  9
$DIMDSEP
 70
    46
  9
$DIMATFIT
 70
     3
  9
$DIMFRAC
 70
     0
  9
$DIMLDRBLK
  1
OPEN30
  9
$DIMLUNIT
 70
     2
  9
$DIMLWD
 70
    -2
  9
$DIMLWE
 70
    -2
  9
$DIMTMOVE
 70
     0
  9
$LUNITS
 70
     2
  9
$LUPREC
 70
     4
  9
$SKETCHINC
 40
1.0
  9
$FILLETRAD
 40
0.0
  9
$AUNITS
 70
     0
  9
$AUPREC
 70
     0
  9
$MENU
  1
.
  9
$ELEVATION
 40
0.0
  9
$PELEVATION
 40
0.0
  9
$THICKNESS
 40
0.0
  9
$LIMCHECK
 70
     0
  9
$CHAMFERA
 40
0.0
  9
$CHAMFERB
 40
0.0
  9
$CHAMFERC
 40
0.0
  9
$CHAMFERD
 40
0.0
  9
$SKPOLY
 70
     0
  9
$TDCREATE
 40
2454349.434269746
  9
$TDUCREATE
 40
2454349.059269746
  9
$TDUPDATE
 40
2455456.594821678
  9
$TDUUPDATE
 40
2455456.219821678
  9
$TDINDWG
 40
0.3664212500
  9
$TDUSRTIMER
 40
0.3664212500
  9
$USRTIMER
 70
     1
  9
$ANGBASE
 50
0.0
  9
$ANGDIR
 70
     0
  9
$PDMODE
 70
     0
  9
$PDSIZE
 40
0.0
  9
$PLINEWID
 40
0.0
  9
$SPLFRAME
 70
     0
  9
$SPLINETYPE
 70
     6
  9
$SPLINESEGS
 70
     8
  9
$HANDSEED
  5
320
  9
$SURFTAB1
 70
     6
  9
$SURFTAB2
 70
     6
  9
$SURFTYPE
 70
     6
  9
$SURFU
 70
     6
  9
$SURFV
 70
     6
  9
$UCSBASE
  2

  9
$UCSNAME
  2

  9
$UCSORG
 10
0.0
 20
0.0
 30
0.0
  9
$UCSXDIR
 10
1.0
 20
0.0
 30
0.0
  9
$UCSYDIR
 10
0.0
 20
1.0
 30
0.0
  9
$UCSORTHOREF
  2

  9
$UCSORTHOVIEW
 70
     0
  9
$UCSORGTOP
 10
0.0
 20
0.0
 30
0.0
  9
$UCSORGBOTTOM
 10
0.0
 20
0.0
 30
0.0
  9
$UCSORGLEFT
 10
0.0
 20
0.0
 30
0.0
  9
$UCSORGRIGHT
 10
0.0
 20
0.0
 30
0.0
  9
$UCSORGFRONT
 10
0.0
 20
0.0
 30
0.0
  9
$UCSORGBACK
 10
0.0
 20
0.0
 30
0.0
  9
$PUCSBASE
  2

  9
$PUCSNAME
  2

  9
$PUCSORG
 10
0.0
 20
0.0
 30
0.0
  9
$PUCSXDIR
 10
1.0
 20
0.0
 30
0.0
  9
$PUCSYDIR
 10
0.0
 20
1.0
 30
0.0
  9
$PUCSORTHOREF
  2

  9
$PUCSORTHOVIEW
 70
     0
  9
$PUCSORGTOP
 10
0.0
 20
0.0
 30
0.0
  9
$PUCSORGBOTTOM
 10
0.0
 20
0.0
 30
0.0
  9
$PUCSORGLEFT
 10
0.0
 20
0.0
 30
0.0
  9
$PUCSORGRIGHT
 10
0.0
 20
0.0
 30
0.0
  9
$PUCSORGFRONT
 10
0.0
 20
0.0
 30
0.0
  9
$PUCSORGBACK
 10
0.0
 20
0.0
 30
0.0
  9
$USERI1
 70
     0
  9
$USERI2
 70
     0
  9
$USERI3
 70
     0
  9
$USERI4
 70
     0
  9
$USERI5
 70
     0
  9
$USERR1
 40
0.0
  9
$USERR2
 40
0.0
  9
$USERR3
 40
0.0
  9
$USERR4
 40
0.0
  9
$USERR5
 40
0.0
  9
$WORLDVIEW
 70
     1
  9
$SHADEDGE
 70
     3
  9
$SHADEDIF
 70
    70
  9
$TILEMODE
 70
     1
  9
$MAXACTVP
 70
    64
  9
$PINSBASE
 10
0.0
 20
0.0
 30
0.0
  9
$PLIMCHECK
 70
     0
  9
$PEXTMIN
 10
0.0
 20
0.0
 30
0.0
  9
$PEXTMAX
 10
0.0
 20
0.0
 30
0.0
  9
$PLIMMIN
 10
0.0
 20
0.0
  9
$PLIMMAX
 10
12.0
 20
9.0
  9
$UNITMODE
 70
     0
  9
$VISRETAIN
 70
     1
  9
$PLINEGEN
 70
     0
  9
$PSLTSCALE
 70
     1
  9
$TREEDEPTH
 70
  3020
  9
$CMLSTYLE
  2
Standard
  9
$CMLJUST
 70
     0
  9
$CMLSCALE
 40
20.0
  9
$PROXYGRAPHICS
 70
     1
  9
$MEASUREMENT
 70
     1
  9
$CELWEIGHT
370
    -1
  9
$ENDCAPS
280
     0
  9
$JOINSTYLE
280
     0
  9
$LWDISPLAY
290
     0
  9
$INSUNITS
 70
     4
  9
$HYPERLINKBASE
  1

  9
$STYLESHEET
  1

  9
$XEDIT
290
     1
  9
$CEPSNTYPE
380
     0
  9
$PSTYLEMODE
290
     1
  9
$FINGERPRINTGUID
  2
{FDEAD578-A652-11D2-9A35-0060089B3A3F}
  9
$VERSIONGUID
  2
{6407FCA0-023D-47DF-B273-113621E8CC0B}
  9
$EXTNAMES
290
     1
  9
$PSVPSCALE
 40
0.0
  9
$OLESTARTUP
290
     0
  0
ENDSEC
  0
SECTION
  2
CLASSES
  0
CLASS
  1
ACDBDICTIONARYWDFLT
  2
AcDbDictionaryWithDefault
  3
ObjectDBX Classes
 90
        0
280
     0
281
     0
  0
CLASS
  1
ACDBPLACEHOLDER
  2
AcDbPlaceHolder
  3
ObjectDBX Classes
 90
        0
280
     0
281
     0
  0
CLASS
  1
LAYOUT
  2
AcDbLayout
  3
ObjectDBX Classes
 90
        0
280
     0
281
     0
  0
CLASS
  1
DICTIONARYVAR
  2
AcDbDictionaryVar
  3
ObjectDBX Classes
 90
        0
280
     0
281
     0
  0
CLASS
  1
DIMASSOC
  2
AcDbDimAssoc
  3
"AcDbDimAssoc|Product Desc:     AcDim ARX App For Dimension|Company:          Autodesk, Inc.|WEB Address:      www.autodesk.com"
 90
    32768
280
     0
281
     0
  0
ENDSEC
  0
SECTION
  2
TABLES
  0
TABLE
  2
VPORT
  5
19
330
0
100
AcDbSymbolTable
 70
     2
  0
VPORT
  5
318
330
19
100
AcDbSymbolTableRecord
100
AcDbViewportTableRecord
  2
*Active
 70
     0
 10
0.0
 20
0.0
 11
1.0
 21
1.0
 12
-0.2371208488907577
 22
-4.359649144648187
 13
0.0
 23
0.0
 14
10.0
 24
10.0
 15
10.0
 25
10.0
 16
0.0
 26
0.0
 36
1.0
 17
0.0
 27
0.0
 37
0.0
 40
113.9216175645376
 41
1.451655629139072
 42
50.0
 43
0.0
 44
0.0
 50
0.0
 51
0.0
 71
     0
 72
  1000
 73
     1
 74
     2
 75
     0
 76
     0
 77
     0
 78
     0
281
     0
 65
     1
110
0.0
120
0.0
130
0.0
111
1.0
121
0.0
131
0.0
112
0.0
122
1.0
132
0.0
 79
     0
146
0.0
  0
ENDTAB
  0
TABLE
  2
LTYPE
  5
14
330
0
100
AcDbSymbolTable
 70
     1
  0
LTYPE
  5
15
330
14
100
AcDbSymbolTableRecord
100
AcDbLinetypeTableRecord
  2
ByBlock
 70
     0
  3

 72
    65
 73
     0
 40
0.0
  0
LTYPE
  5
16
330
14
100
AcDbSymbolTableRecord
100
AcDbLinetypeTableRecord
  2
ByLayer
 70
     0
  3

 72
    65
 73
     0
 40
0.0
  0
LTYPE
  5
8
330
14
100
AcDbSymbolTableRecord
100
AcDbLinetypeTableRecord
  2
Continuous
 70
     0
  3
Solid line
 72
    65
 73
     0
 40
0.0
  0
ENDTAB
  0
TABLE
  2
LAYER
  5
10
330
0
100
AcDbSymbolTable
 70
     7
  0
LAYER
  5
4
330
10
100
AcDbSymbolTableRecord
100
AcDbLayerTableRecord
  2
0
 70
     0
 62
     7
  6
Continuous
370
    -3
390
5
  0
LAYER
  5
2D8
330
10
100
AcDbSymbolTableRecord
100
AcDbLayerTableRecord
  2
WAKU
 70
     0
 62
     4
  6
Continuous
370
    -3
390
5
  0
LAYER
  5
2D
330
10
100
AcDbSymbolTableRecord
100
AcDbLayerTableRecord
  2
MOJI1
 70
     0
 62
     2
  6
Continuous
370
    -3
390
5
  0
LAYER
  5
2F
330
10
100
AcDbSymbolTableRecord
100
AcDbLayerTableRecord
  2
TOUROKU
 70
     0
 62
     1
  6
Continuous
370
    -3
390
5
  0
LAYER
  5
5A
330
10
100
AcDbSymbolTableRecord
100
AcDbLayerTableRecord
  2
GAIKEI
 70
     0
 62
     7
  6
Continuous
370
    -3
390
5
  0
LAYER
  5
31
330
10
100
AcDbSymbolTableRecord
100
AcDbLayerTableRecord
  2
SUNPO
 70
     0
 62
     3
  6
Continuous
370
    -3
390
5
  0
LAYER
  5
3B
330
10
100
AcDbSymbolTableRecord
100
AcDbLayerTableRecord
  2
DEFPOINTS
 70
     0
 62
     7
  6
Continuous
290
     0
370
    -3
390
5
  0
ENDTAB
  0
TABLE
  2
STYLE
  5
11
330
0
100
AcDbSymbolTable
 70
     1
  0
STYLE
  5
12
330
11
100
AcDbSymbolTableRecord
100
AcDbTextStyleTableRecord
  2
Standard
 70
     0
 40
0.0
 41
1.0
 50
0.0
 71
     0
 42
2.5
  3
MONOTXT.shx
  4
BIGFONT.shx
  0
ENDTAB
  0
TABLE
  2
VIEW
  5
17
330
0
100
AcDbSymbolTable
 70
     0
  0
ENDTAB
  0
TABLE
  2
UCS
  5
18
330
0
100
AcDbSymbolTable
 70
     0
  0
ENDTAB
  0
TABLE
  2
APPID
  5
1B
330
0
100
AcDbSymbolTable
 70
     1
  0
APPID
  5
1C
330
1B
100
AcDbSymbolTableRecord
100
AcDbRegAppTableRecord
  2
ACAD
 70
     0
  0
ENDTAB
  0
TABLE
  2
DIMSTYLE
  5
1D
330
0
100
AcDbSymbolTable
 70
     1
100
AcDbDimStyleTable
 71
     1
340
1E
  0
DIMSTYLE
105
1E
102
{ACAD_REACTORS
330
4C
330
3F
330
30
102
}
330
1D
100
AcDbSymbolTableRecord
100
AcDbDimStyleTableRecord
  2
STANDARD
 70
     0
 40
0.0
 41
2.0
 42
2.0
 43
8.0
 44
2.0
 73
     0
 74
     0
 77
     3
140
3.0
141
0.0
173
     1
279
     2
288
     1
340
12
341
1F
343
1F
344
1F
  0
ENDTAB
  0
TABLE
  2
BLOCK_RECORD
  5
1
330
0
100
AcDbSymbolTable
 70
     7
  0
BLOCK_RECORD
  5
2
330
1
100
AcDbSymbolTableRecord
100
AcDbBlockTableRecord
  2
*Model_Space
340
A
  0
BLOCK_RECORD
  5
C
330
1
100
AcDbSymbolTableRecord
100
AcDbBlockTableRecord
  2
*Paper_Space
340
F
  0
BLOCK_RECORD
  5
1F
330
1
100
AcDbSymbolTableRecord
100
AcDbBlockTableRecord
  2
_OPEN30
340
0
102
{BLKREFS
331
52
331
53
331
45
331
46
331
37
331
38
331
2F4
331
2F5
331
300
331
301
331
30C
331
30D
102
}
  0
BLOCK_RECORD
  5
4D
330
1
100
AcDbSymbolTableRecord
100
AcDbBlockTableRecord
  2
*D1
340
0
  0
BLOCK_RECORD
  5
40
330
1
100
AcDbSymbolTableRecord
100
AcDbBlockTableRecord
  2
*D2
340
0
  0
BLOCK_RECORD
  5
32
330
1
100
AcDbSymbolTableRecord
100
AcDbBlockTableRecord
  2
*D3
340
0
  0
BLOCK_RECORD
  5
2F0
330
1
100
AcDbSymbolTableRecord
100
AcDbBlockTableRecord
  2
*D4
340
0
  0
BLOCK_RECORD
  5
2FC
330
1
100
AcDbSymbolTableRecord
100
AcDbBlockTableRecord
  2
*D5
340
0
  0
BLOCK_RECORD
  5
308
330
1
100
AcDbSymbolTableRecord
100
AcDbBlockTableRecord
  2
*D6
340
0
  0
ENDTAB
  0
ENDSEC
  0
SECTION
  2
BLOCKS
  0
BLOCK
  5
3
330
2
100
AcDbEntity
  8
0
100
AcDbBlockBegin
  2
*Model_Space
 70
     0
 10
0.0
 20
0.0
 30
0.0
  3
*Model_Space
  1

  0
ENDBLK
  5
9
330
2
100
AcDbEntity
  8
0
100
AcDbBlockEnd
  0
BLOCK
  5
D
330
C
100
AcDbEntity
 67
     1
  8
0
100
AcDbBlockBegin
  2
*Paper_Space
 70
     0
 10
0.0
 20
0.0
 30
0.0
  3
*Paper_Space
  1

  0
ENDBLK
  5
E
330
C
100
AcDbEntity
 67
     1
  8
0
100
AcDbBlockEnd
  0
BLOCK
  5
20
330
1F
100
AcDbEntity
  8
0
100
AcDbBlockBegin
  2
_OPEN30
 70
     0
 10
0.0
 20
0.0
 30
0.0
  3
_OPEN30
  1

  0
LINE
  5
21
330
1F
100
AcDbEntity
  8
0
  6
ByBlock
 62
     0
100
AcDbLine
 10
-1.0
 20
0.26794919
 30
0.0
 11
0.0
 21
0.0
 31
0.0
  0
LINE
  5
22
330
1F
100
AcDbEntity
  8
0
  6
ByBlock
 62
     0
100
AcDbLine
 10
0.0
 20
0.0
 30
0.0
 11
-1.0
 21
-0.26794919
 31
0.0
  0
LINE
  5
23
330
1F
100
AcDbEntity
  8
0
  6
ByBlock
 62
     0
100
AcDbLine
 10
0.0
 20
0.0
 30
0.0
 11
-1.0
 21
0.0
 31
0.0
  0
ENDBLK
  5
24
330
1F
100
AcDbEntity
  8
0
100
AcDbBlockEnd
  0
BLOCK
  5
4E
330
4D
100
AcDbEntity
  8
0
100
AcDbBlockBegin
  2
*D1
 70
     1
 10
0.0
 20
0.0
 30
0.0
  3
*D1
  1

  0
LINE
  5
4F
330
4D
100
AcDbEntity
  8
SUNPO
 62
     0
370
    -2
100
AcDbLine
 10
21.4477378466504
 20
81.04210905420922
 30
0.0
 11
21.4477378466504
 21
94.84148626811697
 31
0.0
  0
LINE
  5
50
330
4D
100
AcDbEntity
  8
SUNPO
 62
     0
370
    -2
100
AcDbLine
 10
41.4477378466604
 20
81.04210905420922
 30
0.0
 11
41.4477378466604
 21
94.84148626811697
 31
0.0
  0
LINE
  5
51
330
4D
100
AcDbEntity
  8
SUNPO
 62
     0
370
    -2
100
AcDbLine
 10
23.4477378466504
 20
92.84148626811697
 30
0.0
 11
39.4477378466604
 21
92.84148626811697
 31
0.0
  0
INSERT
  5
52
330
4D
100
AcDbEntity
  8
SUNPO
 62
     0
370
    -2
100
AcDbBlockReference
  2
_OPEN30
 10
21.4477378466504
 20
92.84148626811697
 30
0.0
 41
2.0
 42
2.0
 43
2.0
 50
180.0
  0
INSERT
  5
53
330
4D
100
AcDbEntity
  8
SUNPO
 62
     0
370
    -2
100
AcDbBlockReference
  2
_OPEN30
 10
41.4477378466604
 20
92.84148626811697
 30
0.0
 41
2.0
 42
2.0
 43
2.0
  0
MTEXT
  5
54
330
4D
100
AcDbEntity
  8
SUNPO
 62
     0
100
AcDbMText
 10
31.4477378466554
 20
94.59148626811696
 30
0.0
 40
2.5
 41
0.0
 71
     5
 72
     1
  1
\A1;φ200
 73
     1
 44
1.0
1001
ACAD
1000
MTEXTBEGIN
1070
    73
1070
     1
1070
    44
1040
1.0
1070
    74
1070
     0
1000
MTEXTEND
  0
POINT
  5
55
330
4D
100
AcDbEntity
  8
DEFPOINTS
 62
     0
100
AcDbPoint
 10
21.4477378466504
 20
79.04210905420922
 30
0.0
  0
POINT
  5
56
330
4D
100
AcDbEntity
  8
DEFPOINTS
 62
     0
100
AcDbPoint
 10
41.4477378466604
 20
79.04210905420922
 30
0.0
  0
POINT
  5
57
330
4D
100
AcDbEntity
  8
DEFPOINTS
 62
     0
100
AcDbPoint
 10
41.4477378466604
 20
92.84148626811697
 30
0.0
  0
ENDBLK
  5
58
330
4D
100
AcDbEntity
  8
0
100
AcDbBlockEnd
  0
BLOCK
  5
41
330
40
100
AcDbEntity
  8
0
100
AcDbBlockBegin
  2
*D2
 70
     1
 10
0.0
 20
0.0
 30
0.0
  3
*D2
  1

  0
LINE
  5
42
330
40
100
AcDbEntity
  8
SUNPO
 62
     0
370
    -2
100
AcDbLine
 10
106.6132125837561
 20
86.3372323204047
 30
0.0
 11
114.613212583756
 21
86.3372323204047
 31
0.0
  0
LINE
  5
43
330
40
100
AcDbEntity
  8
SUNPO
 62
     0
370
    -2
100
AcDbLine
 10
106.6132125837561
 20
66.3372323204247
 30
0.0
 11
114.613212583756
 21
66.3372323204247
 31
0.0
  0
LINE
  5
44
330
40
100
AcDbEntity
  8
SUNPO
 62
     0
370
    -2
100
AcDbLine
 10
112.613212583756
 20
84.33723232040469
 30
0.0
 11
112.613212583756
 21
68.3372323204247
 31
0.0
  0
INSERT
  5
45
330
40
100
AcDbEntity
  8
SUNPO
 62
     0
370
    -2
100
AcDbBlockReference
  2
_OPEN30
 10
112.613212583756
 20
86.3372323204047
 30
0.0
 41
2.0
 42
2.0
 43
2.0
 50
90.0
  0
INSERT
  5
46
330
40
100
AcDbEntity
  8
SUNPO
 62
     0
370
    -2
100
AcDbBlockReference
  2
_OPEN30
 10
112.613212583756
 20
66.3372323204247
 30
0.0
 41
2.0
 42
2.0
 43
2.0
 50
270.0
  0
MTEXT
  5
47
330
40
100
AcDbEntity
  8
SUNPO
 62
     0
100
AcDbMText
 10
110.863212583756
 20
76.33723232041472
 30
0.0
 40
2.5
 41
0.0
 71
     5
 72
     1
  1
\A1;200
 11
0.0000000000000001
 21
1.0
 31
0.0
 73
     1
 44
1.0
1001
ACAD
1000
MTEXTBEGIN
1070
    73
1070
     1
1070
    44
1040
1.0
1070
    74
1070
     0
1000
MTEXTEND
  0
POINT
  5
48
330
40
100
AcDbEntity
  8
DEFPOINTS
 62
     0
100
AcDbPoint
 10
104.6132125837561
 20
86.3372323204047
 30
0.0
  0
POINT
  5
49
330
40
100
AcDbEntity
  8
DEFPOINTS
 62
     0
100
AcDbPoint
 10
104.6132125837561
 20
66.3372323204247
 30
0.0
  0
POINT
  5
4A
330
40
100
AcDbEntity
  8
DEFPOINTS
 62
     0
100
AcDbPoint
 10
112.613212583756
 20
66.3372323204247
 30
0.0
  0
ENDBLK
  5
4B
330
40
100
AcDbEntity
  8
0
100
AcDbBlockEnd
  0
BLOCK
  5
33
330
32
100
AcDbEntity
  8
0
100
AcDbBlockBegin
  2
*D3
 70
     1
 10
0.0
 20
0.0
 30
0.0
  3
*D3
  1

  0
LINE
  5
34
330
32
100
AcDbEntity
  8
SUNPO
 62
     0
370
    -2
100
AcDbLine
 10
53.46369123715613
 20
78.48723232041468
 30
0.0
 11
53.46369123715613
 21
94.82627526832695
 31
0.0
  0
LINE
  5
35
330
32
100
AcDbEntity
  8
SUNPO
 62
     0
370
    -2
100
AcDbLine
 10
104.4632125837561
 20
88.33867003203303
 30
0.0
 11
104.4632125837561
 21
94.82627526832695
 31
0.0
  0
LINE
  5
36
330
32
100
AcDbEntity
  8
SUNPO
 62
     0
370
    -2
100
AcDbLine
 10
55.46369123715613
 20
92.82627526832696
 30
0.0
 11
102.4632125837561
 21
92.82627526832696
 31
0.0
  0
INSERT
  5
37
330
32
100
AcDbEntity
  8
SUNPO
 62
     0
370
    -2
100
AcDbBlockReference
  2
_OPEN30
 10
53.46369123715613
 20
92.82627526832696
 30
0.0
 41
2.0
 42
2.0
 43
2.0
 50
180.0
  0
INSERT
  5
38
330
32
100
AcDbEntity
  8
SUNPO
 62
     0
370
    -2
100
AcDbBlockReference
  2
_OPEN30
 10
104.4632125837561
 20
92.82627526832696
 30
0.0
 41
2.0
 42
2.0
 43
2.0
  0
MTEXT
  5
39
330
32
100
AcDbEntity
  8
SUNPO
 62
     0
100
AcDbMText
 10
78.96345191045611
 20
94.57627526832695
 30
0.0
 40
2.5
 41
0.0
 71
     5
 72
     1
  1
\A1;510
 73
     1
 44
1.0
1001
ACAD
1000
MTEXTBEGIN
1070
    73
1070
     1
1070
    44
1040
1.0
1070
    74
1070
     0
1000
MTEXTEND
  0
POINT
  5
3A
330
32
100
AcDbEntity
  8
DEFPOINTS
 62
     0
100
AcDbPoint
 10
53.46369123715613
 20
76.48723232041468
 30
0.0
  0
POINT
  5
3C
330
32
100
AcDbEntity
  8
DEFPOINTS
 62
     0
100
AcDbPoint
 10
104.4632125837561
 20
86.33867003203304
 30
0.0
  0
POINT
  5
3D
330
32
100
AcDbEntity
  8
DEFPOINTS
 62
     0
100
AcDbPoint
 10
104.4632125837561
 20
92.82627526832696
 30
0.0
  0
ENDBLK
  5
3E
330
32
100
AcDbEntity
  8
0
100
AcDbBlockEnd
  0
BLOCK
  5
2FA
330
2F0
100
AcDbEntity
  8
0
100
AcDbBlockBegin
  2
*D4
 70
     1
 10
0.0
 20
0.0
 30
0.0
  3
*D4
  1

  0
LINE
  5
2F1
330
2F0
100
AcDbEntity
  8
SUNPO
 62
     0
370
    -2
100
AcDbLine
 10
-43.79612470925292
 20
14.67830378060006
 30
0.0
 11
-43.79612470925292
 21
28.47768099450781
 31
0.0
  0
LINE
  5
2F2
330
2F0
100
AcDbEntity
  8
SUNPO
 62
     0
370
    -2
100
AcDbLine
 10
-23.79612470924292
 20
14.67830378060006
 30
0.0
 11
-23.79612470924292
 21
28.47768099450781
 31
0.0
  0
LINE
  5
2F3
330
2F0
100
AcDbEntity
  8
SUNPO
 62
     0
370
    -2
100
AcDbLine
 10
-41.79612470925292
 20
26.47768099450781
 30
0.0
 11
-25.79612470924292
 21
26.47768099450781
 31
0.0
  0
INSERT
  5
2F4
330
2F0
100
AcDbEntity
  8
SUNPO
 62
     0
370
    -2
100
AcDbBlockReference
  2
_OPEN30
 10
-43.79612470925292
 20
26.47768099450781
 30
0.0
 41
2.0
 42
2.0
 43
2.0
 50
180.0
  0
INSERT
  5
2F5
330
2F0
100
AcDbEntity
  8
SUNPO
 62
     0
370
    -2
100
AcDbBlockReference
  2
_OPEN30
 10
-23.79612470924292
 20
26.47768099450781
 30
0.0
 41
2.0
 42
2.0
 43
2.0
  0
MTEXT
  5
2F6
330
2F0
100
AcDbEntity
  8
SUNPO
 62
     0
100
AcDbMText
 10
-33.79612470924792
 20
28.22768099450781
 30
0.0
 40
2.5
 41
0.0
 71
     5
 72
     1
  1
\A1;φ200
 73
     1
 44
1.0
1001
ACAD
1000
MTEXTBEGIN
1070
    73
1070
     1
1070
    44
1040
1.0
1070
    74
1070
     0
1000
MTEXTEND
  0
POINT
  5
2F7
330
2F0
100
AcDbEntity
  8
DEFPOINTS
 62
     0
100
AcDbPoint
 10
-43.79612470925292
 20
12.67830378060006
 30
0.0
  0
POINT
  5
2F8
330
2F0
100
AcDbEntity
  8
DEFPOINTS
 62
     0
100
AcDbPoint
 10
-23.79612470924292
 20
12.67830378060006
 30
0.0
  0
POINT
  5
2F9
330
2F0
100
AcDbEntity
  8
DEFPOINTS
 62
     0
100
AcDbPoint
 10
-23.79612470924292
 20
26.47768099450781
 30
0.0
  0
ENDBLK
  5
2FB
330
2F0
100
AcDbEntity
  8
0
100
AcDbBlockEnd
  0
BLOCK
  5
306
330
2FC
100
AcDbEntity
  8
0
100
AcDbBlockBegin
  2
*D5
 70
     1
 10
0.0
 20
0.0
 30
0.0
  3
*D5
  1

  0
LINE
  5
2FD
330
2FC
100
AcDbEntity
  8
SUNPO
 62
     0
370
    -2
100
AcDbLine
 10
41.36935002785276
 20
19.97342704679553
 30
0.0
 11
49.36935002785276
 21
19.97342704679553
 31
0.0
  0
LINE
  5
2FE
330
2FC
100
AcDbEntity
  8
SUNPO
 62
     0
370
    -2
100
AcDbLine
 10
41.36935002785276
 20
-0.0265729531844562
 30
0.0
 11
49.36935002785276
 21
-0.0265729531844585
 31
0.0
  0
LINE
  5
2FF
330
2FC
100
AcDbEntity
  8
SUNPO
 62
     0
370
    -2
100
AcDbLine
 10
47.36935002785276
 20
17.97342704679553
 30
0.0
 11
47.36935002785275
 21
1.973427046815542
 31
0.0
  0
INSERT
  5
300
330
2FC
100
AcDbEntity
  8
SUNPO
 62
     0
370
    -2
100
AcDbBlockReference
  2
_OPEN30
 10
47.36935002785276
 20
19.97342704679553
 30
0.0
 41
2.0
 42
2.0
 43
2.0
 50
90.0
  0
INSERT
  5
301
330
2FC
100
AcDbEntity
  8
SUNPO
 62
     0
370
    -2
100
AcDbBlockReference
  2
_OPEN30
 10
47.36935002785275
 20
-0.0265729531844579
 30
0.0
 41
2.0
 42
2.0
 43
2.0
 50
270.0
  0
MTEXT
  5
302
330
2FC
100
AcDbEntity
  8
SUNPO
 62
     0
100
AcDbMText
 10
45.61935002785276
 20
9.973427046805543
 30
0.0
 40
2.5
 41
0.0
 71
     5
 72
     1
  1
\A1;200
 11
0.0000000000000001
 21
1.0
 31
0.0
 73
     1
 44
1.0
1001
ACAD
1000
MTEXTBEGIN
1070
    73
1070
     1
1070
    44
1040
1.0
1070
    74
1070
     0
1000
MTEXTEND
  0
POINT
  5
303
330
2FC
100
AcDbEntity
  8
DEFPOINTS
 62
     0
100
AcDbPoint
 10
39.36935002785276
 20
19.97342704679553
 30
0.0
  0
POINT
  5
304
330
2FC
100
AcDbEntity
  8
DEFPOINTS
 62
     0
100
AcDbPoint
 10
39.36935002785276
 20
-0.0265729531844556
 30
0.0
  0
POINT
  5
305
330
2FC
100
AcDbEntity
  8
DEFPOINTS
 62
     0
100
AcDbPoint
 10
47.36935002785275
 20
-0.0265729531844579
 30
0.0
  0
ENDBLK
  5
307
330
2FC
100
AcDbEntity
  8
0
100
AcDbBlockEnd
  0
BLOCK
  5
312
330
308
100
AcDbEntity
  8
0
100
AcDbBlockBegin
  2
*D6
 70
     1
 10
0.0
 20
0.0
 30
0.0
  3
*D6
  1

  0
LINE
  5
309
330
308
100
AcDbEntity
  8
SUNPO
 62
     0
370
    -2
100
AcDbLine
 10
-11.78017131874719
 20
12.12342704680551
 30
0.0
 11
-11.78017131874719
 21
28.46246999471779
 31
0.0
  0
LINE
  5
30A
330
308
100
AcDbEntity
  8
SUNPO
 62
     0
370
    -2
100
AcDbLine
 10
39.21935002785279
 20
21.97486475842388
 30
0.0
 11
39.21935002785279
 21
28.46246999471779
 31
0.0
  0
LINE
  5
30B
330
308
100
AcDbEntity
  8
SUNPO
 62
     0
370
    -2
100
AcDbLine
 10
-9.780171318747191
 20
26.4624699947178
 30
0.0
 11
37.21935002785278
 21
26.4624699947178
 31
0.0
  0
INSERT
  5
30C
330
308
100
AcDbEntity
  8
SUNPO
 62
     0
370
    -2
100
AcDbBlockReference
  2
_OPEN30
 10
-11.78017131874719
 20
26.4624699947178
 30
0.0
 41
2.0
 42
2.0
 43
2.0
 50
180.0
  0
INSERT
  5
30D
330
308
100
AcDbEntity
  8
SUNPO
 62
     0
370
    -2
100
AcDbBlockReference
  2
_OPEN30
 10
39.21935002785279
 20
26.4624699947178
 30
0.0
 41
2.0
 42
2.0
 43
2.0
  0
MTEXT
  5
30E
330
308
100
AcDbEntity
  8
SUNPO
 62
     0
100
AcDbMText
 10
13.71958935455279
 20
28.2124699947178
 30
0.0
 40
2.5
 41
0.0
 71
     5
 72
     1
  1
\A1;510
 73
     1
 44
1.0
1001
ACAD
1000
MTEXTBEGIN
1070
    73
1070
     1
1070
    44
1040
1.0
1070
    74
1070
     0
1000
MTEXTEND
  0
POINT
  5
30F
330
308
100
AcDbEntity
  8
DEFPOINTS
 62
     0
100
AcDbPoint
 10
-11.78017131874719
 20
10.12342704680551
 30
0.0
  0
POINT
  5
310
330
308
100
AcDbEntity
  8
DEFPOINTS
 62
     0
100
AcDbPoint
 10
39.21935002785279
 20
19.97486475842388
 30
0.0
  0
POINT
  5
311
330
308
100
AcDbEntity
  8
DEFPOINTS
 62
     0
100
AcDbPoint
 10
39.21935002785279
 20
26.4624699947178
 30
0.0
  0
ENDBLK
  5
313
330
308
100
AcDbEntity
  8
0
100
AcDbBlockEnd
  0
ENDSEC
  0
SECTION
  2
ENTITIES
  0
TEXT
  5
2C
330
2
100
AcDbEntity
  8
MOJI1
100
AcDbText
 10
-35.7438626118624
 20
48.13702985132522
 30
0.0
 40
4.0
  1
スピーカー取付金具(壁取付）
100
AcDbText
  0
TEXT
  5
2E
330
2
100
AcDbEntity
  8
TOUROKU
100
AcDbText
 10
46.256087421065
 20
42.13702985132522
 30
0.0
 40
2.0
  1
ＷＳＱ１４９Ｋ
 72
     2
 11
62.256087421065
 21
42.13702985132522
 31
0.0
100
AcDbText
  0
DIMENSION
  5
30
330
2
100
AcDbEntity
  8
SUNPO
100
AcDbDimension
  2
*D6
 10
39.21935002785279
 20
26.4624699947178
 30
0.0
 11
13.71958935455279
 21
28.2124699947178
 31
0.0
 70
    32
  1
510
 71
     5
 42
50.99952134659997
  3
STANDARD
100
AcDbAlignedDimension
 13
-11.78017131874719
 23
10.12342704680551
 33
0.0
 14
39.21935002785279
 24
19.97486475842388
 34
0.0
100
AcDbRotatedDimension
1001
ACAD
1000
DSTYLE
1002
{
1070
    40
1040
1.0
1070
   140
1040
2.5
1070
   147
1040
0.5
1070
   172
1070
     1
1070
   279
1070
     0
1070
   288
1070
     0
1002
}
  0
DIMENSION
  5
3F
330
2
100
AcDbEntity
  8
SUNPO
100
AcDbDimension
  2
*D5
 10
47.36935002785275
 20
-0.0265729531844579
 30
0.0
 11
45.61935002785276
 21
9.973427046805543
 31
0.0
 70
    33
  1
200
 71
     5
 42
19.99999999997999
  3
STANDARD
100
AcDbAlignedDimension
 13
39.36935002785276
 23
19.97342704679553
 33
0.0
 14
39.36935002785276
 24
-0.0265729531844556
 34
0.0
1001
ACAD
1000
DSTYLE
1002
{
1070
    40
1040
1.0
1070
   140
1040
2.5
1070
   147
1040
0.5
1070
   172
1070
     1
1070
   279
1070
     0
1070
   288
1070
     0
1002
}
  0
DIMENSION
  5
4C
330
2
100
AcDbEntity
  8
SUNPO
100
AcDbDimension
  2
*D4
 10
-23.79612470924292
 20
26.47768099450781
 30
0.0
 11
-33.79612470924792
 21
28.22768099450781
 31
0.0
 70
    32
  1
φ200
 71
     5
 42
20.00000000001
  3
STANDARD
100
AcDbAlignedDimension
 13
-43.79612470925292
 23
12.67830378060006
 33
0.0
 14
-23.79612470924292
 24
12.67830378060006
 34
0.0
100
AcDbRotatedDimension
1001
ACAD
1000
DSTYLE
1002
{
1070
    40
1040
1.0
1070
   140
1040
2.5
1070
   147
1040
0.5
1070
   172
1070
     1
1070
   279
1070
     0
1070
   288
1070
     0
1002
}
  0
LINE
  5
59
330
2
100
AcDbEntity
  8
GAIKEI
  6
Continuous
100
AcDbLine
 10
-7.730171318747238
 20
-4.571361953404476
 30
0.0
 11
-7.730171318747238
 21
-3.771361953404465
 31
0.0
  0
LINE
  5
5B
330
2
100
AcDbEntity
  8
GAIKEI
  6
Continuous
100
AcDbLine
 10
-8.350171318747243
 20
-5.671361953404471
 30
0.0
 11
-8.030171318747193
 21
-5.671361953404471
 31
0.0
  0
LINE
  5
5C
330
2
100
AcDbEntity
  8
GAIKEI
  6
Continuous
100
AcDbLine
 10
-2.630171318747215
 20
-4.571361953404476
 30
0.0
 11
-7.730171318747238
 21
-4.571361953404476
 31
0.0
  0
LINE
  5
5D
330
2
100
AcDbEntity
  8
GAIKEI
  6
Continuous
 62
     1
100
AcDbLine
 10
-7.730171318747238
 20
-4.251361953404455
 30
0.0
 11
-2.630171318747215
 21
-4.251361953404455
 31
0.0
  0
LINE
  5
5E
330
2
100
AcDbEntity
  8
GAIKEI
  6
Continuous
100
AcDbLine
 10
-11.78017131874719
 20
6.308638046595518
 30
0.0
 11
-11.78017131874719
 21
8.808638046595518
 31
0.0
  0
LINE
  5
5F
330
2
100
AcDbEntity
  8
GAIKEI
  6
Continuous
100
AcDbLine
 10
-11.46017131874725
 20
6.308638046595518
 30
0.0
 11
-11.46017131874725
 21
8.808638046595518
 31
0.0
  0
LINE
  5
60
330
2
100
AcDbEntity
  8
GAIKEI
  6
Continuous
100
AcDbLine
 10
-11.32017131874721
 20
5.988638046595525
 30
0.0
 11
-11.32017131874721
 21
8.812142340795531
 31
0.0
  0
LINE
  5
61
330
2
100
AcDbEntity
  8
GAIKEI
  6
Continuous
 62
     1
100
AcDbLine
 10
-11.05517131874723
 20
5.988638046595525
 30
0.0
 11
-11.05517131874723
 21
5.888638046595531
 31
0.0
  0
LINE
  5
62
330
2
100
AcDbEntity
  8
GAIKEI
  6
Continuous
 62
     1
100
AcDbLine
 10
-10.87299164176721
 20
5.742894305015511
 30
0.0
 11
-10.87299164176721
 21
5.225035070015508
 31
0.0
  0
LINE
  5
63
330
2
100
AcDbEntity
  8
GAIKEI
  6
Continuous
 62
     1
100
AcDbLine
 10
-10.52658148026722
 20
5.742894305015511
 30
0.0
 11
-10.52658148026722
 21
5.225035070015508
 31
0.0
  0
LINE
  5
64
330
2
100
AcDbEntity
  8
GAIKEI
  6
Continuous
 62
     1
100
AcDbLine
 10
-10.25017131874722
 20
5.188638046595542
 30
0.0
 11
-10.25017131874722
 21
5.368638046595521
 31
0.0
  0
LINE
  5
65
330
2
100
AcDbEntity
  8
GAIKEI
  6
Continuous
 62
     1
100
AcDbLine
 10
-10.11017131874723
 20
5.188638046595542
 30
0.0
 11
-10.11017131874723
 21
5.368638046595521
 31
0.0
  0
LINE
  5
66
330
2
100
AcDbEntity
  8
GAIKEI
  6
Continuous
 62
     1
100
AcDbLine
 10
-9.833761157227229
 20
5.742894305015511
 30
0.0
 11
-9.833761157227229
 21
5.225035070015508
 31
0.0
  0
LINE
  5
67
330
2
100
AcDbEntity
  8
GAIKEI
  6
Continuous
 62
     1
100
AcDbLine
 10
-9.487350995727183
 20
5.742894305015511
 30
0.0
 11
-9.487350995727183
 21
5.225035070015508
 31
0.0
  0
LINE
  5
68
330
2
100
AcDbEntity
  8
GAIKEI
  6
Continuous
 62
     1
100
AcDbLine
 10
-9.305171318747227
 20
5.988638046595525
 30
0.0
 11
-9.305171318747227
 21
5.888638046595531
 31
0.0
  0
LINE
  5
69
330
2
100
AcDbEntity
  8
GAIKEI
  6
Continuous
100
AcDbLine
 10
-8.350171318747243
 20
-5.671361953404471
 30
0.0
 11
-8.350171318747243
 21
1.62863804659554
 31
0.0
  0
LINE
  5
6A
330
2
100
AcDbEntity
  8
GAIKEI
  6
Continuous
100
AcDbLine
 10
-8.330171318747204
 20
4.908899284435534
 30
0.0
 11
-8.330171318747204
 21
4.928638046595523
 31
0.0
  0
LINE
  5
6B
330
2
100
AcDbEntity
  8
GAIKEI
  6
Continuous
100
AcDbLine
 10
-8.330171318747204
 20
4.12863804659554
 30
0.0
 11
-8.330171318747204
 21
5.908638046595513
 31
0.0
  0
LINE
  5
6C
330
2
100
AcDbEntity
  8
GAIKEI
  6
Continuous
 62
     7
100
AcDbLine
 10
-8.327671318747206
 20
5.948638046595533
 30
0.0
 11
-8.327671318747206
 21
5.988638046595525
 31
0.0
  0
LINE
  5
6D
330
2
100
AcDbEntity
  8
GAIKEI
  6
Continuous
100
AcDbLine
 10
-8.030171318747193
 20
-5.671361953404471
 30
0.0
 11
-8.030171318747193
 21
-3.571361953404476
 31
0.0
  0
LINE
  5
6E
330
2
100
AcDbEntity
  8
GAIKEI
  6
Continuous
 62
     1
100
AcDbLine
 10
-8.010171318747211
 20
5.908638046595513
 30
0.0
 11
-8.010171318747211
 21
5.728638046595506
 31
0.0
  0
LINE
  5
6F
330
2
100
AcDbEntity
  8
GAIKEI
  6
Continuous
 62
     1
100
AcDbLine
 10
-7.712671318747197
 20
5.948638046595533
 30
0.0
 11
-7.712671318747197
 21
5.988638046595525
 31
0.0
  0
LINE
  5
70
330
2
100
AcDbEntity
  8
GAIKEI
  6
Continuous
 62
     1
100
AcDbLine
 10
-7.630171318747215
 20
5.928638046595523
 30
0.0
 11
-7.630171318747215
 21
5.988638046595525
 31
0.0
  0
LINE
  5
71
330
2
100
AcDbEntity
  8
GAIKEI
  6
Continuous
 62
     1
100
AcDbLine
 10
-7.088461695607179
 20
-0.5713619534044767
 30
0.0
 11
-6.68431650718719
 21
-1.271361953404465
 31
0.0
  0
LINE
  5
72
330
2
100
AcDbEntity
  8
GAIKEI
  6
Continuous
 62
     1
100
AcDbLine
 10
-6.605171318747238
 20
3.298638046595527
 30
0.0
 11
-6.605171318747238
 21
3.158638046595513
 31
0.0
  0
LINE
  5
73
330
2
100
AcDbEntity
  8
GAIKEI
  6
Continuous
 62
     1
100
AcDbLine
 10
-6.350171318747243
 20
3.828638046595528
 30
0.0
 11
-6.350171318747243
 21
3.298638046595527
 31
0.0
  0
LINE
  5
74
330
2
100
AcDbEntity
  8
GAIKEI
  6
Continuous
 62
     1
100
AcDbLine
 10
-6.350171318747243
 20
3.158638046595513
 30
0.0
 11
-6.350171318747243
 21
2.62863804659554
 31
0.0
  0
LINE
  5
75
330
2
100
AcDbEntity
  8
GAIKEI
  6
Continuous
 62
     1
100
AcDbLine
 10
-6.210171318747256
 20
2.62863804659554
 30
0.0
 11
-6.210171318747256
 21
3.158638046595513
 31
0.0
  0
LINE
  5
76
330
2
100
AcDbEntity
  8
GAIKEI
  6
Continuous
 62
     1
100
AcDbLine
 10
-6.210171318747256
 20
3.298638046595527
 30
0.0
 11
-6.210171318747256
 21
3.828638046595528
 31
0.0
  0
LINE
  5
77
330
2
100
AcDbEntity
  8
GAIKEI
  6
Continuous
 62
     1
100
AcDbLine
 10
-5.955171318747204
 20
3.158638046595513
 30
0.0
 11
-5.955171318747204
 21
3.298638046595527
 31
0.0
  0
LINE
  5
78
330
2
100
AcDbEntity
  8
GAIKEI
  6
Continuous
 62
     1
100
AcDbLine
 10
-5.471880941887206
 20
-0.5713619534044767
 30
0.0
 11
-5.876026130307195
 21
0.1286380465955403
 31
0.0
  0
LINE
  5
79
330
2
100
AcDbEntity
  8
GAIKEI
  6
Continuous
 62
     1
100
AcDbLine
 10
-6.972991641767237
 20
3.228638046595506
 30
0.0
 11
-6.626581480267191
 21
2.62863804659554
 31
0.0
  0
LINE
  5
7A
330
2
100
AcDbEntity
  8
GAIKEI
  6
Continuous
100
AcDbLine
 10
-4.930171318747227
 20
4.396574144735524
 30
0.0
 11
-4.930171318747227
 21
5.988638046595525
 31
0.0
  0
LINE
  5
7B
330
2
100
AcDbEntity
  8
GAIKEI
  6
Continuous
 62
     1
100
AcDbLine
 10
-4.847671318747188
 20
5.948638046595533
 30
0.0
 11
-4.847671318747188
 21
5.988638046595525
 31
0.0
  0
LINE
  5
7C
330
2
100
AcDbEntity
  8
GAIKEI
  6
Continuous
 62
     1
100
AcDbLine
 10
-4.550171318747231
 20
4.273725463995532
 30
0.0
 11
-4.550171318747231
 21
5.908638046595513
 31
0.0
  0
LINE
  5
7D
330
2
100
AcDbEntity
  8
GAIKEI
  6
Continuous
100
AcDbLine
 10
-4.232671318747179
 20
5.948638046595533
 30
0.0
 11
-4.232671318747179
 21
5.988638046595525
 31
0.0
  0
LINE
  5
7E
330
2
100
AcDbEntity
  8
GAIKEI
  6
Continuous
100
AcDbLine
 10
-4.230171318747238
 20
5.908638046595513
 30
0.0
 11
-4.230171318747238
 21
4.074805507615508
 31
0.0
  0
LINE
  5
7F
330
2
100
AcDbEntity
  8
GAIKEI
  6
Continuous
 62
     1
100
AcDbLine
 10
-5.587350995727206
 20
3.228638046595506
 30
0.0
 11
-5.933761157227195
 21
3.828638046595528
 31
0.0
  0
LINE
  5
80
330
2
100
AcDbEntity
  8
GAIKEI
  6
Continuous
100
AcDbLine
 10
-3.776211385947249
 20
3.320332653355535
 30
0.0
 11
-2.630171318747215
 21
-2.071361953404476
 31
0.0
  0
LINE
  5
81
330
2
100
AcDbEntity
  8
GAIKEI
  6
Continuous
 62
     1
100
AcDbLine
 10
-3.255171318747215
 20
5.988638046595525
 30
0.0
 11
-3.255171318747215
 21
5.888638046595531
 31
0.0
  0
LINE
  5
82
330
2
100
AcDbEntity
  8
GAIKEI
  6
Continuous
 62
     1
100
AcDbLine
 10
-3.072991641767202
 20
5.742894305015511
 30
0.0
 11
-3.072991641767202
 21
5.225035070015508
 31
0.0
  0
LINE
  5
83
330
2
100
AcDbEntity
  8
GAIKEI
  6
Continuous
 62
     1
100
AcDbLine
 10
-2.726581480267213
 20
5.742894305015511
 30
0.0
 11
-2.726581480267213
 21
5.225035070015508
 31
0.0
  0
LINE
  5
84
330
2
100
AcDbEntity
  8
GAIKEI
  6
Continuous
100
AcDbLine
 10
-2.630171318747215
 20
-4.571361953404476
 30
0.0
 11
-2.630171318747215
 21
-2.071361953404476
 31
0.0
  0
LINE
  5
85
330
2
100
AcDbEntity
  8
GAIKEI
  6
Continuous
 62
     1
100
AcDbLine
 10
-2.450171318747209
 20
5.188638046595542
 30
0.0
 11
-2.450171318747209
 21
5.368638046595521
 31
0.0
  0
LINE
  5
86
330
2
100
AcDbEntity
  8
GAIKEI
  6
Continuous
 62
     1
100
AcDbLine
 10
-2.310171318747222
 20
5.188638046595542
 30
0.0
 11
-2.310171318747222
 21
5.368638046595521
 31
0.0
  0
LINE
  5
87
330
2
100
AcDbEntity
  8
GAIKEI
  6
Continuous
 62
     1
100
AcDbLine
 10
-2.033761157227218
 20
5.742894305015511
 30
0.0
 11
-2.033761157227218
 21
5.225035070015508
 31
0.0
  0
LINE
  5
88
330
2
100
AcDbEntity
  8
GAIKEI
  6
Continuous
 62
     1
100
AcDbLine
 10
-1.687350995727229
 20
5.742894305015511
 30
0.0
 11
-1.687350995727229
 21
5.225035070015508
 31
0.0
  0
LINE
  5
89
330
2
100
AcDbEntity
  8
GAIKEI
  6
Continuous
 62
     1
100
AcDbLine
 10
-1.505171318747215
 20
5.988638046595525
 30
0.0
 11
-1.505171318747215
 21
5.888638046595531
 31
0.0
  0
LINE
  5
8A
330
2
100
AcDbEntity
  8
GAIKEI
  6
Continuous
 62
     1
100
AcDbLine
 10
-6.626581480267191
 20
3.828638046595528
 30
0.0
 11
-6.972991641767237
 21
3.228638046595506
 31
0.0
  0
LINE
  5
8B
330
2
100
AcDbEntity
  8
GAIKEI
  6
Continuous
 62
     1
100
AcDbLine
 10
-11.05517131874723
 20
5.888638046595531
 30
0.0
 11
-10.87299164176721
 21
5.742894305015511
 31
0.0
  0
LINE
  5
8C
330
2
100
AcDbEntity
  8
GAIKEI
  6
Continuous
 62
     1
100
AcDbLine
 10
-5.933761157227195
 20
2.62863804659554
 30
0.0
 11
-5.587350995727206
 21
3.228638046595506
 31
0.0
  0
LINE
  5
8D
330
2
100
AcDbEntity
  8
GAIKEI
  6
Continuous
 62
     1
100
AcDbLine
 10
-6.68431650718719
 20
0.1286380465955403
 30
0.0
 11
-7.088461695607179
 21
-0.5713619534044767
 31
0.0
  0
LINE
  5
8E
330
2
100
AcDbEntity
  8
GAIKEI
  6
Continuous
 62
     1
100
AcDbLine
 10
-9.305171318747227
 20
5.888638046595531
 30
0.0
 11
-9.487350995727183
 21
5.742894305015511
 31
0.0
  0
LINE
  5
8F
330
2
100
AcDbEntity
  8
GAIKEI
  6
Continuous
 62
     1
100
AcDbLine
 10
-5.876026130307195
 20
-1.271361953404465
 30
0.0
 11
-5.471880941887206
 21
-0.5713619534044767
 31
0.0
  0
LINE
  5
90
330
2
100
AcDbEntity
  8
GAIKEI
  6
Continuous
100
AcDbLine
 10
-7.930171318747227
 20
-3.571361953404476
 30
0.0
 11
-8.350171318747243
 21
-3.571361953404476
 31
0.0
  0
LINE
  5
91
330
2
100
AcDbEntity
  8
GAIKEI
  6
Continuous
 62
     1
100
AcDbLine
 10
-10.87299164176721
 20
5.225035070015508
 30
0.0
 11
-10.77299164176725
 21
5.188638046595542
 31
0.0
  0
LINE
  5
92
330
2
100
AcDbEntity
  8
GAIKEI
  6
Continuous
 62
     1
100
AcDbLine
 10
-3.255171318747215
 20
5.888638046595531
 30
0.0
 11
-3.072991641767202
 21
5.742894305015511
 31
0.0
  0
LINE
  5
93
330
2
100
AcDbEntity
  8
GAIKEI
  6
Continuous
 62
     1
100
AcDbLine
 10
-1.505171318747215
 20
5.888638046595531
 30
0.0
 11
-1.687350995727229
 21
5.742894305015511
 31
0.0
  0
LINE
  5
94
330
2
100
AcDbEntity
  8
GAIKEI
  6
Continuous
 62
     1
100
AcDbLine
 10
-6.68431650718719
 20
-1.271361953404465
 30
0.0
 11
-5.876026130307195
 21
-1.271361953404465
 31
0.0
  0
LINE
  5
95
330
2
100
AcDbEntity
  8
GAIKEI
  6
Continuous
 62
     1
100
AcDbLine
 10
-9.487350995727183
 20
5.225035070015508
 30
0.0
 11
-9.587350995727206
 21
5.188638046595542
 31
0.0
  0
LINE
  5
96
330
2
100
AcDbEntity
  8
GAIKEI
  6
Continuous
100
AcDbLine
 10
39.21982868125281
 20
-0.0113619534044744
 30
0.0
 11
38.89982868125276
 21
-0.0113619534044744
 31
0.0
  0
LINE
  5
97
330
2
100
AcDbEntity
  8
GAIKEI
  6
Continuous
 62
     1
100
AcDbLine
 10
-5.876026130307195
 20
0.1286380465955403
 30
0.0
 11
-6.68431650718719
 21
0.1286380465955403
 31
0.0
  0
LINE
  5
98
330
2
100
AcDbEntity
  8
GAIKEI
  6
Continuous
100
AcDbLine
 10
38.24765199447279
 20
0.5886380465955199
 30
0.0
 11
39.21982868125281
 21
0.5886380465955199
 31
0.0
  0
LINE
  5
99
330
2
100
AcDbEntity
  8
GAIKEI
  6
Continuous
 62
     1
100
AcDbLine
 10
-3.072991641767202
 20
5.225035070015508
 30
0.0
 11
-2.972991641767237
 21
5.188638046595542
 31
0.0
  0
LINE
  5
9A
330
2
100
AcDbEntity
  8
GAIKEI
  6
Continuous
 62
     1
100
AcDbLine
 10
-1.687350995727229
 20
5.225035070015508
 30
0.0
 11
-1.787350995727251
 21
5.188638046595542
 31
0.0
  0
LINE
  5
9B
330
2
100
AcDbEntity
  8
GAIKEI
  6
Continuous
100
AcDbLine
 10
-8.350171318747243
 20
1.62863804659554
 30
0.0
 11
-8.00017131874722
 21
1.62863804659554
 31
0.0
  0
LINE
  5
9C
330
2
100
AcDbEntity
  8
GAIKEI
  6
Continuous
 62
     1
100
AcDbLine
 10
39.21982868125281
 20
2.188638046595542
 30
0.0
 11
38.20243483877277
 21
2.188638046595542
 31
0.0
  0
LINE
  5
9D
330
2
100
AcDbEntity
  8
GAIKEI
  6
Continuous
 62
     1
100
AcDbLine
 10
-6.626581480267191
 20
2.62863804659554
 30
0.0
 11
-5.933761157227195
 21
2.62863804659554
 31
0.0
  0
LINE
  5
9E
330
2
100
AcDbEntity
  8
GAIKEI
  6
Continuous
 62
     1
100
AcDbLine
 10
-6.605171318747238
 20
3.158638046595513
 30
0.0
 11
-6.350171318747243
 21
3.158638046595513
 31
0.0
  0
LINE
  5
9F
330
2
100
AcDbEntity
  8
GAIKEI
  6
Continuous
 62
     1
100
AcDbLine
 10
-6.210171318747256
 20
3.158638046595513
 30
0.0
 11
-5.955171318747204
 21
3.158638046595513
 31
0.0
  0
LINE
  5
A0
330
2
100
AcDbEntity
  8
GAIKEI
  6
Continuous
 62
     1
100
AcDbLine
 10
-5.955171318747204
 20
3.298638046595527
 30
0.0
 11
-6.210171318747256
 21
3.298638046595527
 31
0.0
  0
LINE
  5
A1
330
2
100
AcDbEntity
  8
GAIKEI
  6
Continuous
 62
     1
100
AcDbLine
 10
-6.350171318747243
 20
3.298638046595527
 30
0.0
 11
-6.605171318747238
 21
3.298638046595527
 31
0.0
  0
LINE
  5
A2
330
2
100
AcDbEntity
  8
GAIKEI
  6
Continuous
 62
     1
100
AcDbLine
 10
-6.626581480267191
 20
3.828638046595528
 30
0.0
 11
-5.933761157227195
 21
3.828638046595528
 31
0.0
  0
LINE
  5
A3
330
2
100
AcDbEntity
  8
GAIKEI
  6
Continuous
100
AcDbLine
 10
-7.993439117387197
 20
4.12863804659554
 30
0.0
 11
-8.330171318747204
 21
4.12863804659554
 31
0.0
  0
LINE
  5
A4
330
2
100
AcDbEntity
  8
GAIKEI
  6
Continuous
 62
     1
100
AcDbLine
 10
35.9198286812528
 20
5.188638046595542
 30
0.0
 11
35.52707571067276
 21
5.188638046595542
 31
0.0
  0
LINE
  5
A5
330
2
100
AcDbEntity
  8
GAIKEI
  6
Continuous
 62
     1
100
AcDbLine
 10
-1.787418348167193
 20
5.188638046595542
 30
0.0
 11
-2.310171318747222
 21
5.188638046595542
 31
0.0
  0
LINE
  5
A6
330
2
100
AcDbEntity
  8
GAIKEI
  6
Continuous
 62
     1
100
AcDbLine
 10
-2.450171318747209
 20
5.188638046595542
 30
0.0
 11
-2.972924289327238
 21
5.188638046595542
 31
0.0
  0
LINE
  5
A7
330
2
100
AcDbEntity
  8
GAIKEI
  6
Continuous
 62
     1
100
AcDbLine
 10
-9.587418348167261
 20
5.188638046595542
 30
0.0
 11
-10.11017131874723
 21
5.188638046595542
 31
0.0
  0
LINE
  5
A8
330
2
100
AcDbEntity
  8
GAIKEI
  6
Continuous
 62
     1
100
AcDbLine
 10
-10.25017131874722
 20
5.188638046595542
 30
0.0
 11
-10.77292428932719
 21
5.188638046595542
 31
0.0
  0
LINE
  5
A9
330
2
100
AcDbEntity
  8
GAIKEI
  6
Continuous
 62
     1
100
AcDbLine
 10
-10.25017131874722
 20
5.368638046595521
 30
0.0
 11
-10.11017131874723
 21
5.368638046595521
 31
0.0
  0
LINE
  5
AA
330
2
100
AcDbEntity
  8
GAIKEI
  6
Continuous
 62
     1
100
AcDbLine
 10
-2.450171318747209
 20
5.368638046595521
 30
0.0
 11
-2.310171318747222
 21
5.368638046595521
 31
0.0
  0
LINE
  5
AB
330
2
100
AcDbEntity
  8
GAIKEI
  6
Continuous
 62
     1
100
AcDbLine
 10
-8.320465351627206
 20
5.728638046595506
 30
0.0
 11
-7.830171318747204
 21
5.728638046595506
 31
0.0
  0
LINE
  5
AC
330
2
100
AcDbEntity
  8
GAIKEI
  6
Continuous
 62
     1
100
AcDbLine
 10
35.61548085517279
 20
5.888638046595531
 30
0.0
 11
35.24482868125279
 21
5.888638046595531
 31
0.0
  0
LINE
  5
AD
330
2
100
AcDbEntity
  8
GAIKEI
  6
Continuous
 62
     1
100
AcDbLine
 10
-1.505171318747215
 20
5.888638046595531
 30
0.0
 11
-3.255171318747215
 21
5.888638046595531
 31
0.0
  0
LINE
  5
AE
330
2
100
AcDbEntity
  8
GAIKEI
  6
Continuous
 62
     1
100
AcDbLine
 10
-9.305171318747227
 20
5.888638046595531
 30
0.0
 11
-11.05517131874723
 21
5.888638046595531
 31
0.0
  0
LINE
  5
AF
330
2
100
AcDbEntity
  8
GAIKEI
  6
Continuous
 62
     1
100
AcDbLine
 10
-8.327671318747206
 20
5.948638046595533
 30
0.0
 11
-7.712671318747197
 21
5.948638046595533
 31
0.0
  0
LINE
  5
B0
330
2
100
AcDbEntity
  8
GAIKEI
  6
Continuous
 62
     1
100
AcDbLine
 10
-4.847671318747188
 20
5.948638046595533
 30
0.0
 11
-4.232671318747179
 21
5.948638046595533
 31
0.0
  0
LINE
  5
B1
330
2
100
AcDbEntity
  8
GAIKEI
  6
Continuous
100
AcDbLine
 10
-11.46017131874725
 20
5.988638046595525
 30
0.0
 11
35.57200259429277
 21
5.988638046595525
 31
0.0
  0
LINE
  5
B2
330
2
100
AcDbEntity
  8
GAIKEI
  6
Continuous
100
AcDbLine
 10
-11.46017131874725
 20
6.308638046595518
 30
0.0
 11
-11.32017131874721
 21
6.308638046595518
 31
0.0
  0
LINE
  5
B3
330
2
100
AcDbEntity
  8
GAIKEI
  6
Continuous
 62
     1
100
AcDbLine
 10
35.21982868125281
 20
6.308638046595518
 30
0.0
 11
35.43287215951278
 21
6.308638046595518
 31
0.0
  0
LINE
  5
B4
330
2
100
AcDbEntity
  8
GAIKEI
  6
Continuous
 62
     1
100
AcDbLine
 10
35.39808955081276
 20
6.388638046595531
 30
0.0
 11
35.23337879085278
 21
6.388638046595531
 31
0.0
  0
LINE
  5
B5
330
2
100
AcDbEntity
  8
GAIKEI
  6
Continuous
 62
     1
100
AcDbLine
 10
-11.78017131874719
 20
6.388638046595531
 30
0.0
 11
-11.46017131874725
 21
6.388638046595531
 31
0.0
  0
LINE
  5
B6
330
2
100
AcDbEntity
  8
GAIKEI
  6
Continuous
 62
     1
100
AcDbLine
 10
36.27341851973279
 20
6.888638046595531
 30
0.0
 11
36.96623884277278
 21
6.888638046595531
 31
0.0
  0
LINE
  5
B7
330
2
100
AcDbEntity
  8
GAIKEI
  6
Continuous
 62
     1
100
AcDbLine
 10
36.29482868125279
 20
7.418638046595532
 30
0.0
 11
36.54982868125279
 21
7.418638046595532
 31
0.0
  0
LINE
  5
B8
330
2
100
AcDbEntity
  8
GAIKEI
  6
Continuous
 62
     1
100
AcDbLine
 10
36.68982868125278
 20
7.418638046595532
 30
0.0
 11
36.94482868125277
 21
7.418638046595532
 31
0.0
  0
LINE
  5
B9
330
2
100
AcDbEntity
  8
GAIKEI
  6
Continuous
 62
     1
100
AcDbLine
 10
36.94482868125277
 20
7.558638046595518
 30
0.0
 11
36.68982868125278
 21
7.558638046595518
 31
0.0
  0
LINE
  5
BA
330
2
100
AcDbEntity
  8
GAIKEI
  6
Continuous
 62
     1
100
AcDbLine
 10
36.54982868125279
 20
7.558638046595518
 30
0.0
 11
36.29482868125279
 21
7.558638046595518
 31
0.0
  0
LINE
  5
BB
330
2
100
AcDbEntity
  8
GAIKEI
  6
Continuous
 62
     1
100
AcDbLine
 10
36.27341851973279
 20
8.088638046595519
 30
0.0
 11
36.96623884277278
 21
8.088638046595519
 31
0.0
  0
LINE
  5
BC
330
2
100
AcDbEntity
  8
GAIKEI
  6
Continuous
100
AcDbLine
 10
-11.78017131874719
 20
8.808638046595518
 30
0.0
 11
-11.46017131874725
 21
8.808638046595518
 31
0.0
  0
LINE
  5
BD
330
2
100
AcDbEntity
  8
GAIKEI
  6
Continuous
100
AcDbLine
 10
-11.32017131874721
 20
8.812142340795531
 30
0.0
 11
36.03801259269278
 21
15.83996939531553
 31
0.0
  0
LINE
  5
BE
330
2
100
AcDbEntity
  8
GAIKEI
  6
Continuous
 62
     1
100
AcDbLine
 10
36.27341851973279
 20
13.38863804659553
 30
0.0
 11
36.96623884277278
 21
13.38863804659553
 31
0.0
  0
LINE
  5
BF
330
2
100
AcDbEntity
  8
GAIKEI
  6
Continuous
 62
     1
100
AcDbLine
 10
36.29482868125279
 20
13.91863804659553
 30
0.0
 11
36.54982868125279
 21
13.91863804659553
 31
0.0
  0
LINE
  5
C0
330
2
100
AcDbEntity
  8
GAIKEI
  6
Continuous
 62
     1
100
AcDbLine
 10
36.68982868125278
 20
13.91863804659553
 30
0.0
 11
36.94482868125277
 21
13.91863804659553
 31
0.0
  0
LINE
  5
C1
330
2
100
AcDbEntity
  8
GAIKEI
  6
Continuous
 62
     1
100
AcDbLine
 10
36.94482868125277
 20
14.05863804659555
 30
0.0
 11
36.68982868125278
 21
14.05863804659555
 31
0.0
  0
LINE
  5
C2
330
2
100
AcDbEntity
  8
GAIKEI
  6
Continuous
 62
     1
100
AcDbLine
 10
36.54982868125279
 20
14.05863804659555
 30
0.0
 11
36.29482868125279
 21
14.05863804659555
 31
0.0
  0
LINE
  5
C3
330
2
100
AcDbEntity
  8
GAIKEI
  6
Continuous
 62
     1
100
AcDbLine
 10
35.4270083582328
 20
5.225035070015508
 30
0.0
 11
35.52700835823277
 21
5.188638046595542
 31
0.0
  0
LINE
  5
C4
330
2
100
AcDbEntity
  8
GAIKEI
  6
Continuous
 62
     1
100
AcDbLine
 10
36.27341851973279
 20
14.58863804659552
 30
0.0
 11
36.96623884277278
 21
14.58863804659552
 31
0.0
  0
LINE
  5
C5
330
2
100
AcDbEntity
  8
GAIKEI
  6
Continuous
 62
     1
100
AcDbLine
 10
36.33546708383278
 20
15.28863804659551
 30
0.0
 11
36.36982868125278
 21
15.28863804659551
 31
0.0
  0
LINE
  5
C6
330
2
100
AcDbEntity
  8
GAIKEI
  6
Continuous
 62
     1
100
AcDbLine
 10
38.06320435423277
 20
17.78863804659551
 30
0.0
 11
39.21982868125281
 21
17.78863804659551
 31
0.0
  0
LINE
  5
C7
330
2
100
AcDbEntity
  8
GAIKEI
  6
Continuous
100
AcDbLine
 10
38.24638022215277
 20
19.38863804659553
 30
0.0
 11
39.21982868125281
 21
19.38863804659553
 31
0.0
  0
LINE
  5
C8
330
2
100
AcDbEntity
  8
GAIKEI
  6
Continuous
100
AcDbLine
 10
39.21982868125281
 20
19.98863804659552
 30
0.0
 11
38.89982868125276
 21
19.98863804659552
 31
0.0
  0
LINE
  5
C9
330
2
100
AcDbEntity
  8
GAIKEI
  6
Continuous
 62
     1
100
AcDbLine
 10
35.24482868125279
 20
5.888638046595531
 30
0.0
 11
35.4270083582328
 21
5.742894305015511
 31
0.0
  0
LINE
  5
CA
330
2
100
AcDbEntity
  8
GAIKEI
  6
Continuous
 62
     1
100
AcDbLine
 10
36.61982868125278
 20
15.78863804659551
 30
0.0
 11
37.63019165233277
 21
17.53863804659551
 31
0.0
  0
LINE
  5
CB
330
2
100
AcDbEntity
  8
GAIKEI
  6
Continuous
 62
     1
100
AcDbLine
 10
36.27341851973279
 20
14.58863804659552
 30
0.0
 11
35.9270083582328
 21
13.98863804659552
 31
0.0
  0
LINE
  5
CC
330
2
100
AcDbEntity
  8
GAIKEI
  6
Continuous
100
AcDbLine
 10
36.24865970915278
 20
15.58208649903554
 30
0.0
 11
37.78855820707275
 21
19.08963307761553
 31
0.0
  0
LINE
  5
CD
330
2
100
AcDbEntity
  8
GAIKEI
  6
Continuous
 62
     1
100
AcDbLine
 10
36.96623884277278
 20
13.38863804659553
 30
0.0
 11
37.31264900427277
 21
13.98863804659552
 31
0.0
  0
LINE
  5
CE
330
2
100
AcDbEntity
  8
GAIKEI
  6
Continuous
 62
     1
100
AcDbLine
 10
36.27341851973279
 20
8.088638046595519
 30
0.0
 11
35.9270083582328
 21
7.488638046595525
 31
0.0
  0
LINE
  5
CF
330
2
100
AcDbEntity
  8
GAIKEI
  6
Continuous
 62
     1
100
AcDbLine
 10
37.76942213687278
 20
2.438638046595542
 30
0.0
 11
35.71982868125281
 21
5.988638046595525
 31
0.0
  0
LINE
  5
D0
330
2
100
AcDbEntity
  8
GAIKEI
  6
Continuous
 62
     1
100
AcDbLine
 10
36.96623884277278
 20
6.888638046595531
 30
0.0
 11
37.31264900427277
 21
7.488638046595525
 31
0.0
  0
LINE
  5
D1
330
2
100
AcDbEntity
  8
GAIKEI
  6
Continuous
 62
     1
100
AcDbLine
 10
35.9270083582328
 20
7.488638046595525
 30
0.0
 11
36.27341851973279
 21
6.888638046595531
 31
0.0
  0
LINE
  5
D2
330
2
100
AcDbEntity
  8
GAIKEI
  6
Continuous
 62
     1
100
AcDbLine
 10
37.31264900427277
 20
7.488638046595525
 30
0.0
 11
36.96623884277278
 21
8.088638046595519
 31
0.0
  0
LINE
  5
D3
330
2
100
AcDbEntity
  8
GAIKEI
  6
Continuous
100
AcDbLine
 10
37.78911696633282
 20
0.8892749908955295
 30
0.0
 11
35.34016952761277
 21
6.521854099955533
 31
0.0
  0
LINE
  5
D4
330
2
100
AcDbEntity
  8
GAIKEI
  6
Continuous
 62
     1
100
AcDbLine
 10
35.21982868125281
 20
6.308638046595518
 30
0.0
 11
35.21982868125281
 21
5.988638046595525
 31
0.0
  0
LINE
  5
D5
330
2
100
AcDbEntity
  8
GAIKEI
  6
Continuous
 62
     1
100
AcDbLine
 10
35.24482868125279
 20
5.988638046595525
 30
0.0
 11
35.24482868125279
 21
5.888638046595531
 31
0.0
  0
LINE
  5
D6
330
2
100
AcDbEntity
  8
GAIKEI
  6
Continuous
 62
     1
100
AcDbLine
 10
35.4270083582328
 20
5.742894305015511
 30
0.0
 11
35.4270083582328
 21
5.225035070015508
 31
0.0
  0
LINE
  5
D7
330
2
100
AcDbEntity
  8
GAIKEI
  6
Continuous
 62
     1
100
AcDbLine
 10
35.71982868125281
 20
5.988638046595525
 30
0.0
 11
35.71982868125281
 21
6.308638046595518
 31
0.0
  0
LINE
  5
D8
330
2
100
AcDbEntity
  8
GAIKEI
  6
Continuous
 62
     1
100
AcDbLine
 10
35.77341851973279
 20
5.525381418075539
 30
0.0
 11
35.77341851973279
 21
5.225035070015508
 31
0.0
  0
LINE
  5
D9
330
2
100
AcDbEntity
  8
GAIKEI
  6
Continuous
 62
     1
100
AcDbLine
 10
36.29482868125279
 20
14.05863804659555
 30
0.0
 11
36.29482868125279
 21
13.91863804659553
 31
0.0
  0
LINE
  5
DA
330
2
100
AcDbEntity
  8
GAIKEI
  6
Continuous
 62
     1
100
AcDbLine
 10
36.29482868125279
 20
7.558638046595518
 30
0.0
 11
36.29482868125279
 21
7.418638046595532
 31
0.0
  0
LINE
  5
DB
330
2
100
AcDbEntity
  8
GAIKEI
  6
Continuous
 62
     1
100
AcDbLine
 10
36.54982868125279
 20
14.58863804659552
 30
0.0
 11
36.54982868125279
 21
14.05863804659555
 31
0.0
  0
LINE
  5
DC
330
2
100
AcDbEntity
  8
GAIKEI
  6
Continuous
 62
     1
100
AcDbLine
 10
36.54982868125279
 20
13.91863804659553
 30
0.0
 11
36.54982868125279
 21
13.38863804659553
 31
0.0
  0
LINE
  5
DD
330
2
100
AcDbEntity
  8
GAIKEI
  6
Continuous
 62
     1
100
AcDbLine
 10
36.54982868125279
 20
8.088638046595519
 30
0.0
 11
36.54982868125279
 21
7.558638046595518
 31
0.0
  0
LINE
  5
DE
330
2
100
AcDbEntity
  8
GAIKEI
  6
Continuous
 62
     1
100
AcDbLine
 10
36.54982868125279
 20
7.418638046595532
 30
0.0
 11
36.54982868125279
 21
6.888638046595531
 31
0.0
  0
LINE
  5
DF
330
2
100
AcDbEntity
  8
GAIKEI
  6
Continuous
 62
     1
100
AcDbLine
 10
36.61982868125278
 20
15.53863804659551
 30
0.0
 11
36.61982868125278
 21
15.78863804659551
 31
0.0
  0
LINE
  5
E0
330
2
100
AcDbEntity
  8
GAIKEI
  6
Continuous
 62
     1
100
AcDbLine
 10
36.68982868125278
 20
6.888638046595531
 30
0.0
 11
36.68982868125278
 21
7.418638046595532
 31
0.0
  0
LINE
  5
E1
330
2
100
AcDbEntity
  8
GAIKEI
  6
Continuous
 62
     1
100
AcDbLine
 10
36.68982868125278
 20
7.558638046595518
 30
0.0
 11
36.68982868125278
 21
8.088638046595519
 31
0.0
  0
LINE
  5
E2
330
2
100
AcDbEntity
  8
GAIKEI
  6
Continuous
 62
     1
100
AcDbLine
 10
36.68982868125278
 20
13.38863804659553
 30
0.0
 11
36.68982868125278
 21
13.91863804659553
 31
0.0
  0
LINE
  5
E3
330
2
100
AcDbEntity
  8
GAIKEI
  6
Continuous
 62
     1
100
AcDbLine
 10
36.68982868125278
 20
14.05863804659555
 30
0.0
 11
36.68982868125278
 21
14.58863804659552
 31
0.0
  0
LINE
  5
E4
330
2
100
AcDbEntity
  8
GAIKEI
  6
Continuous
 62
     1
100
AcDbLine
 10
36.94482868125277
 20
7.418638046595532
 30
0.0
 11
36.94482868125277
 21
7.558638046595518
 31
0.0
  0
LINE
  5
E5
330
2
100
AcDbEntity
  8
GAIKEI
  6
Continuous
 62
     1
100
AcDbLine
 10
36.94482868125277
 20
13.91863804659553
 30
0.0
 11
36.94482868125277
 21
14.05863804659555
 31
0.0
  0
LINE
  5
E6
330
2
100
AcDbEntity
  8
GAIKEI
  6
Continuous
 62
     1
100
AcDbLine
 10
35.9270083582328
 20
13.98863804659552
 30
0.0
 11
36.27341851973279
 21
13.38863804659553
 31
0.0
  0
LINE
  5
E7
330
2
100
AcDbEntity
  8
GAIKEI
  6
Continuous
100
AcDbLine
 10
38.89982868125276
 20
-0.0113619534044744
 30
0.0
 11
38.89982868125276
 21
0.5886380465955199
 31
0.0
  0
LINE
  5
E8
330
2
100
AcDbEntity
  8
GAIKEI
  6
Continuous
 62
     1
100
AcDbLine
 10
38.89982868125276
 20
2.188638046595542
 30
0.0
 11
38.89982868125276
 21
17.78863804659551
 31
0.0
  0
LINE
  5
E9
330
2
100
AcDbEntity
  8
GAIKEI
  6
Continuous
100
AcDbLine
 10
38.89982868125276
 20
19.38863804659553
 30
0.0
 11
38.89982868125276
 21
19.98863804659552
 31
0.0
  0
LINE
  5
EA
330
2
100
AcDbEntity
  8
GAIKEI
  6
Continuous
 62
     1
100
AcDbLine
 10
37.31264900427277
 20
13.98863804659552
 30
0.0
 11
36.96623884277278
 21
14.58863804659552
 31
0.0
  0
LINE
  5
EB
330
2
100
AcDbEntity
  8
GAIKEI
  6
Continuous
100
AcDbLine
 10
36.03801259269278
 20
15.83996939531553
 30
0.0
 11
36.0881751577528
 21
15.50194059021552
 31
0.0
  0
LINE
  5
EC
330
2
100
AcDbEntity
  8
GAIKEI
  6
Continuous
100
AcDbLine
 10
39.21982868125281
 20
-0.0113619534044744
 30
0.0
 11
39.21982868125281
 21
19.98863804659552
 31
0.0
  0
ARC
  5
ED
330
2
100
AcDbEntity
  8
GAIKEI
  6
Continuous
 62
     1
100
AcDbCircle
 10
-6.280171318747193
 20
-0.5713619534044767
 30
0.0
 40
0.7082903768600001
100
AcDbArc
 50
158.7749291368996
 51
201.2250708631003
  0
ARC
  5
EE
330
2
100
AcDbEntity
  8
GAIKEI
  6
Continuous
 62
     1
100
AcDbCircle
 10
-6.280171318747193
 20
-0.5713619534044767
 30
0.0
 40
0.7082903768600001
100
AcDbArc
 50
38.77492913689887
 51
81.22507086310141
  0
ARC
  5
EF
330
2
100
AcDbEntity
  8
GAIKEI
  6
Continuous
 62
     1
100
AcDbCircle
 10
-6.280171318747193
 20
-0.5713619534044767
 30
0.0
 40
0.7082903768600001
100
AcDbArc
 50
218.7749291368989
 51
261.2250708630981
  0
ARC
  5
F0
330
2
100
AcDbEntity
  8
GAIKEI
  6
Continuous
 62
     1
100
AcDbCircle
 10
-6.280171318747193
 20
-0.5713619534044767
 30
0.0
 40
0.7082903768600001
100
AcDbArc
 50
338.7749291368996
 51
21.22507086310037
  0
ARC
  5
F1
330
2
100
AcDbEntity
  8
GAIKEI
  6
Continuous
 62
     1
100
AcDbCircle
 10
-6.280171318747193
 20
-0.5713619534044767
 30
0.0
 40
0.7082903768600001
100
AcDbArc
 50
98.77492913689856
 51
141.2250708631011
  0
ARC
  5
F2
330
2
100
AcDbEntity
  8
GAIKEI
  6
Continuous
 62
     1
100
AcDbCircle
 10
-6.280171318747193
 20
-0.5713619534044767
 30
0.0
 40
0.7082903768600001
100
AcDbArc
 50
278.7749291368986
 51
321.2250708631011
  0
CIRCLE
  5
F3
330
2
100
AcDbEntity
  8
GAIKEI
  6
Continuous
 62
     1
100
AcDbCircle
 10
-6.280171318747193
 20
3.228638046595506
 30
0.0
 40
0.875
  0
ARC
  5
F4
330
2
100
AcDbEntity
  8
GAIKEI
  6
Continuous
 62
     1
100
AcDbCircle
 10
-6.280171318747193
 20
3.228638046595506
 30
0.0
 40
0.59282032302
100
AcDbArc
 50
276.7812850702006
 51
83.21871492979944
  0
ARC
  5
F5
330
2
100
AcDbEntity
  8
GAIKEI
  6
Continuous
 62
     1
100
AcDbCircle
 10
-6.280171318747193
 20
3.228638046595506
 30
0.0
 40
0.59282032302
100
AcDbArc
 50
96.78128507020057
 51
263.2187149297994
  0
CIRCLE
  5
F6
330
2
100
AcDbEntity
  8
GAIKEI
  6
Continuous
 62
     1
100
AcDbCircle
 10
36.61982868125278
 20
13.98863804659552
 30
0.0
 40
0.875
  0
ARC
  5
F7
330
2
100
AcDbEntity
  8
GAIKEI
  6
Continuous
 62
     1
100
AcDbCircle
 10
36.61982868125278
 20
13.98863804659552
 30
0.0
 40
0.59282032302
100
AcDbArc
 50
276.7812850702006
 51
83.21871492979944
  0
ARC
  5
F8
330
2
100
AcDbEntity
  8
GAIKEI
  6
Continuous
 62
     1
100
AcDbCircle
 10
36.61982868125278
 20
13.98863804659552
 30
0.0
 40
0.59282032302
100
AcDbArc
 50
96.78128507020057
 51
263.2187149297994
  0
CIRCLE
  5
F9
330
2
100
AcDbEntity
  8
GAIKEI
  6
Continuous
 62
     1
100
AcDbCircle
 10
36.61982868125278
 20
7.488638046595525
 30
0.0
 40
0.875
  0
ARC
  5
FA
330
2
100
AcDbEntity
  8
GAIKEI
  6
Continuous
 62
     1
100
AcDbCircle
 10
36.61982868125278
 20
7.488638046595525
 30
0.0
 40
0.59282032302
100
AcDbArc
 50
276.7812850702006
 51
83.21871492979944
  0
ARC
  5
FB
330
2
100
AcDbEntity
  8
GAIKEI
  6
Continuous
 62
     1
100
AcDbCircle
 10
36.61982868125278
 20
7.488638046595525
 30
0.0
 40
0.59282032302
100
AcDbArc
 50
96.78128507020057
 51
263.2187149297994
  0
ARC
  5
FC
330
2
100
AcDbEntity
  8
GAIKEI
  6
Continuous
100
AcDbCircle
 10
-6.280171318747193
 20
-0.5713619534044767
 30
0.0
 40
4.25
100
AcDbArc
 50
72.00000000000129
 51
79.36633313089863
  0
ARC
  5
FD
330
2
100
AcDbEntity
  8
GAIKEI
  6
Continuous
100
AcDbCircle
 10
-6.280171318747193
 20
-0.5713619534044767
 30
0.0
 40
4.25
100
AcDbArc
 50
100.6334558400991
 51
101.9999999999996
  0
ARC
  5
FE
330
2
100
AcDbEntity
  8
GAIKEI
  6
Continuous
100
AcDbCircle
 10
-7.070235743847206
 20
3.145598929395532
 30
0.0
 40
0.45
100
AcDbArc
 50
101.9999999999996
 51
281.9999999999995
  0
ARC
  5
FF
330
2
100
AcDbEntity
  8
GAIKEI
  6
Continuous
100
AcDbCircle
 10
-6.280171318747193
 20
-0.5713619534044767
 30
0.0
 40
3.35
100
AcDbArc
 50
72.00000000000129
 51
78.08629789109916
  0
ARC
  5
100
330
2
100
AcDbEntity
  8
GAIKEI
  6
Continuous
100
AcDbCircle
 10
-5.105906740127238
 20
3.042652808515526
 30
0.0
 40
0.45
100
AcDbArc
 50
252.0000000000013
 51
72.00000000000129
  0
ARC
  5
101
330
2
100
AcDbEntity
  8
GAIKEI
  6
Continuous
100
AcDbCircle
 10
-7.070235743847206
 20
3.145598929395532
 30
0.0
 40
1.35
100
AcDbArc
 50
101.9999999999996
 51
234.4643260382985
  0
ARC
  5
102
330
2
100
AcDbEntity
  8
GAIKEI
  6
Continuous
100
AcDbCircle
 10
-6.280171318747193
 20
-0.5713619534044767
 30
0.0
 40
5.15
100
AcDbArc
 50
71.85414672420042
 51
101.9999999999996
  0
ARC
  5
103
330
2
100
AcDbEntity
  8
GAIKEI
  6
Continuous
100
AcDbCircle
 10
-5.096710646927249
 20
3.039651870755506
 30
0.0
 40
1.35
100
AcDbArc
 50
11.9999999999996
 51
71.85414672420042
  0
ARC
  5
104
330
2
100
AcDbEntity
  8
GAIKEI
  6
Continuous
100
AcDbCircle
 10
-7.930171318747227
 20
-3.771361953404465
 30
0.0
 40
0.2
100
AcDbArc
 50
0.0
 51
90.0
  0
ARC
  5
105
330
2
100
AcDbEntity
  8
GAIKEI
  6
Continuous
100
AcDbCircle
 10
-8.00017131874722
 20
1.843592851615539
 30
0.0
 40
0.25
100
AcDbArc
 50
4.019178933199304
 51
54.46432603829851
  0
ARC
  5
106
330
2
100
AcDbEntity
  8
GAIKEI
  6
Continuous
100
AcDbCircle
 10
-8.00017131874722
 20
1.87863804659554
 30
0.0
 40
0.25
100
AcDbArc
 50
270.0
 51
355.9808210668007
  0
ARC
  5
107
330
2
100
AcDbEntity
  8
GAIKEI
  6
Continuous
 62
     1
100
AcDbCircle
 10
-7.830171318747204
 20
5.928638046595523
 30
0.0
 40
0.2
100
AcDbArc
 50
270.0
 51
0.0
  0
ARC
  5
108
330
2
100
AcDbEntity
  8
GAIKEI
  6
Continuous
100
AcDbCircle
 10
-3.830171318747204
 20
5.908638046595513
 30
0.0
 40
0.4
100
AcDbArc
 50
168.4340567890994
 51
180.0
  0
ARC
  5
109
330
2
100
AcDbEntity
  8
GAIKEI
  6
Continuous
 62
     7
100
AcDbCircle
 10
-8.730171318747238
 20
5.908638046595513
 30
0.0
 40
0.4
100
AcDbArc
 50
0.0
 51
11.54631364540017
  0
ARC
  5
10A
330
2
100
AcDbEntity
  8
GAIKEI
  6
Continuous
 62
     1
100
AcDbCircle
 10
-3.830171318747204
 20
5.908638046595513
 30
0.0
 40
0.7200000000000001
100
AcDbArc
 50
176.7611434061013
 51
180.0
  0
ARC
  5
10B
330
2
100
AcDbEntity
  8
GAIKEI
  6
Continuous
 62
     1
100
AcDbCircle
 10
-8.730171318747238
 20
5.908638046595513
 30
0.0
 40
0.7200000000000001
100
AcDbArc
 50
0.0
 51
3.196575903099267
  0
ARC
  5
10C
330
2
100
AcDbEntity
  8
GAIKEI
  6
Continuous
100
AcDbCircle
 10
38.24638022215277
 20
18.88863804659553
 30
0.0
 40
0.5
100
AcDbArc
 50
90.0
 51
156.2973540490001
  0
ARC
  5
10D
330
2
100
AcDbEntity
  8
GAIKEI
  6
Continuous
100
AcDbCircle
 10
38.24765199447279
 20
1.088638046595519
 30
0.0
 40
0.5
100
AcDbArc
 50
203.4985656759999
 51
270.0
  0
ARC
  5
10E
330
2
100
AcDbEntity
  8
GAIKEI
  6
Continuous
100
AcDbCircle
 10
35.79083769405281
 20
15.78308153005554
 30
0.0
 40
0.5
100
AcDbArc
 50
311.5432886858987
 51
336.2973540490001
  0
CIRCLE
  5
10F
330
2
100
AcDbEntity
  8
GAIKEI
  6
Continuous
 62
     1
100
AcDbCircle
 10
36.11982868125279
 20
10.73863804659552
 30
0.0
 40
0.35
  0
ARC
  5
110
330
2
100
AcDbEntity
  8
GAIKEI
  6
Continuous
 62
     1
100
AcDbCircle
 10
38.06320435423277
 20
17.28863804659551
 30
0.0
 40
0.5
100
AcDbArc
 50
90.0
 51
150.0
  0
ARC
  5
111
330
2
100
AcDbEntity
  8
GAIKEI
  6
Continuous
 62
     1
100
AcDbCircle
 10
38.20243483877277
 20
2.688638046595542
 30
0.0
 40
0.5
100
AcDbArc
 50
210.0
 51
270.0
  0
ARC
  5
112
330
2
100
AcDbEntity
  8
GAIKEI
  6
Continuous
 62
     1
100
AcDbCircle
 10
35.46982868125281
 20
6.308638046595518
 30
0.0
 40
0.25
100
AcDbArc
 50
0.0
 51
180.0
  0
ARC
  5
113
330
2
100
AcDbEntity
  8
GAIKEI
  6
Continuous
 62
     1
100
AcDbCircle
 10
36.33546708383278
 20
15.53863804659551
 30
0.0
 40
0.25
100
AcDbArc
 50
188.4409377896009
 51
270.0
  0
ARC
  5
114
330
2
100
AcDbEntity
  8
GAIKEI
  6
Continuous
 62
     1
100
AcDbCircle
 10
36.36982868125278
 20
15.53863804659551
 30
0.0
 40
0.25
100
AcDbArc
 50
270.0
 51
0.0
  0
ARC
  5
115
330
2
100
AcDbEntity
  8
GAIKEI
  6
Continuous
100
AcDbCircle
 10
-11.46017131874725
 20
6.308638046595518
 30
0.0
 40
0.3200000000000001
100
AcDbArc
 50
180.0
 51
270.0
  0
SPLINE
  5
116
330
2
100
AcDbEntity
  8
GAIKEI
  6
Continuous
 62
     1
100
AcDbSpline
210
0.0
220
0.0
230
1.0
 70
     8
 71
     3
 72
     9
 73
     5
 74
     3
 42
0.0000000001
 43
0.0000000001
 44
0.0000000001
 12
-0.9991117299870831
 22
0.042139660679913
 32
0.0
 13
-0.9838409914073823
 23
0.1790444180267539
 33
0.0
 40
0.0
 40
0.0
 40
0.0
 40
0.0
 40
0.1371568751764991
 40
0.278458800831776
 40
0.278458800831776
 40
0.278458800831776
 40
0.278458800831776
 10
-2.450171318747209
 20
5.192732423975542
 30
0.0
 10
-2.49584966635961
 20
5.194659005368833
 30
0.0
 10
-2.588453240760344
 20
5.20239044265952
 30
0.0
 10
-2.680241938059062
 20
5.216601963000528
 30
0.0
 10
-2.726581480267213
 20
5.225035070015536
 30
0.0
 11
-2.450171318747209
 21
5.192732423975542
 31
0.0
 11
-2.586877073547213
 21
5.203847504395525
 31
0.0
 11
-2.726581480267213
 21
5.225035070015536
 31
0.0
  0
SPLINE
  5
117
330
2
100
AcDbEntity
  8
GAIKEI
  6
Continuous
 62
     1
100
AcDbSpline
210
0.0
220
0.0
230
1.0
 70
     8
 71
     3
 72
    10
 73
     6
 74
     4
 42
0.0000000001
 43
0.0000000001
 44
0.0000000001
 12
-1.0
 22
0.0
 32
0.0
 13
-0.9284766908775157
 23
0.3713906763734628
 33
0.0
 40
0.0
 40
0.0
 40
0.0
 40
0.0
 40
0.1128007364070463
 40
0.2299785175800455
 40
0.3562436870342841
 40
0.3562436870342841
 40
0.3562436870342841
 40
0.3562436870342841
 10
-2.380171318747215
 20
5.668638046595532
 30
0.0
 10
-2.417771564216231
 20
5.668638046595532
 30
0.0
 10
-2.494542495510629
 20
5.67451051238865
 30
0.0
 10
-2.610760204395475
 20
5.700364246877157
 30
0.0
 10
-2.687503391364558
 20
5.727263069453528
 30
0.0
 10
-2.726581480267213
 20
5.742894305015539
 30
0.0
 11
-2.380171318747215
 21
5.668638046595532
 31
0.0
 11
-2.492661599527195
 21
5.677001231635529
 31
0.0
 11
-2.607175762147221
 21
5.701843513335518
 31
0.0
 11
-2.726581480267213
 21
5.742894305015539
 31
0.0
  0
SPLINE
  5
118
330
2
100
AcDbEntity
  8
GAIKEI
  6
Continuous
 62
     1
100
AcDbSpline
210
0.0
220
0.0
230
1.0
 70
     8
 71
     3
 72
    10
 73
     6
 74
     4
 42
0.0000000001
 43
0.0000000001
 44
0.0000000001
 12
-0.9284766908775157
 22
-0.3713906763734628
 32
0.0
 13
-1.0
 23
0.0
 33
0.0
 40
0.0
 40
0.0
 40
0.0
 40
0.0
 40
0.1268488518966382
 40
0.2441913279773099
 40
0.3562441639408227
 40
0.3562441639408227
 40
0.3562441639408227
 40
0.3562441639408227
 10
-2.033761157227218
 20
5.742894305015539
 30
0.0
 10
-2.07301989131075
 20
5.727190811381177
 30
0.0
 10
-2.150006051595795
 20
5.700223694153265
 30
0.0
 10
-2.266245575548097
 20
5.674455183809058
 30
0.0
 10
-2.342820373426043
 20
5.668638046595532
 30
0.0
 10
-2.380171318747215
 20
5.668638046595532
 30
0.0
 11
-2.033761157227218
 21
5.742894305015539
 31
0.0
 11
-2.1537293965672
 21
5.701684442395531
 31
0.0
 11
-2.268422910427204
 21
5.676892214355518
 31
0.0
 11
-2.380171318747215
 21
5.668638046595532
 31
0.0
  0
SPLINE
  5
119
330
2
100
AcDbEntity
  8
GAIKEI
  6
Continuous
 62
     1
100
AcDbSpline
210
0.0
220
0.0
230
1.0
 70
     8
 71
     3
 72
     9
 73
     5
 74
     3
 42
0.0000000001
 43
0.0000000001
 44
0.0000000001
 12
-0.9838409913992657
 22
-0.1790444180713546
 32
0.0
 13
-0.9991117299862807
 23
-0.0421396606989351
 33
0.0
 40
0.0
 40
0.0
 40
0.0
 40
0.0
 40
0.1412978915594374
 40
0.2784588002210186
 40
0.2784588002210186
 40
0.2784588002210186
 40
0.2784588002210186
 10
-2.033761157227218
 20
5.225035070015536
 30
0.0
 10
-2.080099376465369
 20
5.216602203759208
 30
0.0
 10
-2.171888056455991
 20
5.202390614107187
 30
0.0
 10
-2.264491627834104
 20
5.194659062026261
 30
0.0
 10
-2.310171318747222
 20
5.192732423975542
 30
0.0
 11
-2.033761157227218
 21
5.225035070015536
 31
0.0
 11
-2.173461555787241
 21
5.203847979575527
 31
0.0
 11
-2.310171318747222
 21
5.192732423975542
 31
0.0
  0
SPLINE
  5
11A
330
2
100
AcDbEntity
  8
GAIKEI
  6
Continuous
 62
     1
100
AcDbSpline
210
0.0
220
0.0
230
1.0
 70
     8
 71
     3
 72
    10
 73
     6
 74
     4
 42
0.0000000001
 43
0.0000000001
 44
0.0000000001
 12
-0.9396926207776525
 22
-0.3420201433483517
 32
0.0
 13
-0.9858736458469969
 23
0.1674907592207707
 33
0.0
 40
0.0
 40
0.0
 40
0.0
 40
0.0
 40
0.0912210247054542
 40
0.1772435401328732
 40
0.249807495992678
 40
0.249807495992678
 40
0.249807495992678
 40
0.249807495992678
 10
-2.726581480267213
 20
5.225035070015536
 30
0.0
 10
-2.755154721525713
 20
5.214635260700148
 30
0.0
 10
-2.812011901894742
 20
5.197636632562733
 30
0.0
 10
-2.895367736554085
 20
5.188627354296372
 30
0.0
 10
-2.948312518547027
 20
5.193475310575863
 30
0.0
 10
-2.972158815787224
 20
5.197526574595542
 30
0.0
 11
-2.726581480267213
 21
5.225035070015536
 31
0.0
 11
-2.81428489028724
 21
5.199947479075547
 31
0.0
 11
-2.899866714527206
 21
5.191251243095535
 31
0.0
 11
-2.972158815787224
 21
5.197526574595542
 31
0.0
  0
SPLINE
  5
11B
330
2
100
AcDbEntity
  8
GAIKEI
  6
Continuous
 62
     1
100
AcDbSpline
210
0.0
220
0.0
230
1.0
 70
     8
 71
     3
 72
     8
 73
     4
 74
     2
 42
0.0000000001
 43
0.0000000001
 44
0.0000000001
 12
-0.9858736459332366
 22
0.1674907587131523
 32
0.0
 13
-0.9807652747352763
 23
0.1951908703639547
 33
0.0
 40
0.0
 40
0.0
 40
0.0
 40
0.0
 40
0.0134392808120482
 40
0.0134392808120482
 40
0.0134392808120482
 40
0.0134392808120482
 10
-2.972158815787224
 20
5.197526574595542
 30
0.0
 10
-2.976575293378189
 20
5.198276893042134
 30
0.0
 10
-2.980981472494576
 20
5.199090404209272
 30
0.0
 10
-2.985375065807204
 20
5.199964812515531
 30
0.0
 11
-2.972158815787224
 21
5.197526574595542
 31
0.0
 11
-2.985375065807204
 21
5.199964812515531
 31
0.0
  0
SPLINE
  5
11C
330
2
100
AcDbEntity
  8
GAIKEI
  6
Continuous
 62
     1
100
AcDbSpline
210
0.0
220
0.0
230
1.0
 70
     8
 71
     3
 72
     8
 73
     4
 74
     2
 42
0.0000000001
 43
0.0000000001
 44
0.0000000001
 12
-0.9807652747030958
 22
0.1951908705256498
 32
0.0
 13
-0.9396926207771484
 23
0.3420201433497368
 33
0.0
 40
0.0
 40
0.0
 40
0.0
 40
0.0
 40
0.0911327723383347
 40
0.0911327723383347
 40
0.0911327723383347
 40
0.0911327723383347
 10
-2.985375065807204
 20
5.199964812515531
 30
0.0
 10
-3.015168351972825
 20
5.205894240904243
 30
0.0
 10
-3.044446043874771
 20
5.214645322062537
 30
0.0
 10
-3.072991641767202
 20
5.225035070015536
 30
0.0
 11
-2.985375065807204
 21
5.199964812515531
 31
0.0
 11
-3.072991641767202
 21
5.225035070015536
 31
0.0
  0
SPLINE
  5
11D
330
2
100
AcDbEntity
  8
GAIKEI
  6
Continuous
 62
     1
100
AcDbSpline
210
0.0
220
0.0
230
1.0
 70
     8
 71
     3
 72
    12
 73
     8
 74
     6
 42
0.0000000001
 43
0.0000000001
 44
0.0000000001
 12
0.7808688094379372
 22
-0.6246950475607908
 32
0.0
 13
0.7808688094379372
 23
0.6246950475607908
 33
0.0
 40
0.0
 40
0.0
 40
0.0
 40
0.0
 40
0.0859933811509866
 40
0.1580181419691642
 40
0.2250873070091625
 40
0.297111758359993
 40
0.3831051828292851
 40
0.3831051828292851
 40
0.3831051828292851
 40
0.3831051828292851
 10
-3.072991641767202
 20
5.742894305015539
 30
0.0
 10
-3.050608458714229
 20
5.724987758572865
 30
0.0
 10
-3.007100734879927
 20
5.694683625899756
 30
0.0
 10
-2.935801570321174
 20
5.66775912627007
 30
0.0
 10
-2.863771386704428
 20
5.667759181705719
 30
0.0
 10
-2.792472329119554
 20
5.6946836687341
 30
0.0
 10
-2.748964674595491
 20
5.724987749552624
 30
0.0
 10
-2.726581480267213
 20
5.742894305015539
 30
0.0
 11
-3.072991641767202
 21
5.742894305015539
 31
0.0
 11
-3.001315948687192
 21
5.695381605415548
 31
0.0
 11
-2.933321010747192
 21
5.67162756185553
 31
0.0
 11
-2.866251845707211
 21
5.671627609075528
 31
0.0
 11
-2.798257212127225
 21
5.695381585515519
 31
0.0
 11
-2.726581480267213
 21
5.742894305015539
 31
0.0
  0
SPLINE
  5
11E
330
2
100
AcDbEntity
  8
GAIKEI
  6
Continuous
 62
     1
100
AcDbSpline
210
0.0
220
0.0
230
1.0
 70
     8
 71
     3
 72
    12
 73
     8
 74
     6
 42
0.0000000001
 43
0.0000000001
 44
0.0000000001
 12
0.7808688094379372
 22
-0.6246950475607908
 32
0.0
 13
0.7808688094379372
 23
0.6246950475607908
 33
0.0
 40
0.0
 40
0.0
 40
0.0
 40
0.0
 40
0.0859933811509866
 40
0.1580181419691642
 40
0.2250873070091625
 40
0.2971117583600467
 40
0.3831051828292914
 40
0.3831051828292914
 40
0.3831051828292914
 40
0.3831051828292914
 10
-2.033761157227218
 20
5.742894305015539
 30
0.0
 10
-2.011377974174244
 20
5.724987758572865
 30
0.0
 10
-1.967870250339942
 20
5.694683625899756
 30
0.0
 10
-1.896571085781182
 20
5.667759126270084
 30
0.0
 10
-1.824540902164443
 20
5.667759181705719
 30
0.0
 10
-1.753241844579555
 20
5.694683668734057
 30
0.0
 10
-1.709734190055492
 20
5.724987749552624
 30
0.0
 10
-1.687350995727229
 20
5.742894305015539
 30
0.0
 11
-2.033761157227218
 21
5.742894305015539
 31
0.0
 11
-1.962085464147207
 21
5.695381605415548
 31
0.0
 11
-1.894090526207207
 21
5.67162756185553
 31
0.0
 11
-1.827021361167226
 21
5.671627609075528
 31
0.0
 11
-1.759026727587183
 21
5.695381585515519
 31
0.0
 11
-1.687350995727229
 21
5.742894305015539
 31
0.0
  0
SPLINE
  5
11F
330
2
100
AcDbEntity
  8
GAIKEI
  6
Continuous
 62
     1
100
AcDbSpline
210
0.0
220
0.0
230
1.0
 70
     8
 71
     3
 72
     9
 73
     5
 74
     3
 42
0.0000000001
 43
0.0000000001
 44
0.0000000001
 12
-0.9396926207900964
 22
-0.3420201433141623
 32
0.0
 13
-0.9858976385094733
 23
-0.1673494738009171
 33
0.0
 40
0.0
 40
0.0
 40
0.0
 40
0.0
 40
0.0912210247053995
 40
0.1046362146902796
 40
0.1046362146902796
 40
0.1046362146902796
 40
0.1046362146902796
 10
-1.687350995727229
 20
5.225035070015536
 30
0.0
 10
-1.71592423698609
 20
5.2146352607012
 30
0.0
 10
-1.74953647464919
 20
5.204590744599912
 30
0.0
 10
-1.783838696325098
 20
5.198264120677166
 30
0.0
 10
-1.78824736436718
 20
5.197515779015532
 30
0.0
 11
-1.687350995727229
 21
5.225035070015536
 31
0.0
 11
-1.775054405747198
 21
5.199947479075547
 31
0.0
 11
-1.78824736436718
 21
5.197515779015532
 31
0.0
  0
SPLINE
  5
120
330
2
100
AcDbEntity
  8
GAIKEI
  6
Continuous
 62
     1
100
AcDbSpline
210
0.0
220
0.0
230
1.0
 70
     8
 71
     3
 72
    10
 73
     6
 74
     4
 42
0.0000000001
 43
0.0000000001
 44
0.0000000001
 12
-0.9858976385211761
 22
-0.1673494737319728
 32
0.0
 13
-0.9396926207942337
 23
0.3420201433027952
 33
0.0
 40
0.0
 40
0.0
 40
0.0
 40
0.0
 40
0.0726594266151981
 40
0.1586106013056036
 40
0.2497433736439382
 40
0.2497433736439382
 40
0.2497433736439382
 40
0.2497433736439382
 10
-1.78824736436718
 20
5.197515779015532
 30
0.0
 10
-1.812125616739258
 20
5.193462606746962
 30
0.0
 10
-1.865080746494598
 20
5.188627784589598
 30
0.0
 10
-1.948411118675721
 20
5.197659169239017
 30
0.0
 10
-2.005215559334267
 20
5.214645322063958
 30
0.0
 10
-2.033761157227218
 20
5.225035070015536
 30
0.0
 11
-1.78824736436718
 21
5.197515779015532
 31
0.0
 11
-1.860636229987221
 21
5.191251243095535
 31
0.0
 11
-1.946144581267219
 21
5.199964812515531
 31
0.0
 11
-2.033761157227218
 21
5.225035070015536
 31
0.0
  0
SPLINE
  5
121
330
2
100
AcDbEntity
  8
GAIKEI
  6
Continuous
 62
     1
100
AcDbSpline
210
0.0
220
0.0
230
1.0
 70
     8
 71
     3
 72
     9
 73
     5
 74
     3
 42
0.0000000001
 43
0.0000000001
 44
0.0000000001
 12
-0.9991117299870831
 22
0.042139660679913
 32
0.0
 13
-0.9838409914073823
 23
0.1790444180267539
 33
0.0
 40
0.0
 40
0.0
 40
0.0
 40
0.0
 40
0.1371568751764991
 40
0.278458800831776
 40
0.278458800831776
 40
0.278458800831776
 40
0.278458800831776
 10
-10.25017131874722
 20
5.192732423975542
 30
0.0
 10
-10.29584966635962
 20
5.194659005368833
 30
0.0
 10
-10.38845324076035
 20
5.20239044265952
 30
0.0
 10
-10.48024193805907
 20
5.216601963000528
 30
0.0
 10
-10.52658148026722
 20
5.225035070015536
 30
0.0
 11
-10.25017131874722
 21
5.192732423975542
 31
0.0
 11
-10.38687707354722
 21
5.203847504395525
 31
0.0
 11
-10.52658148026722
 21
5.225035070015536
 31
0.0
  0
SPLINE
  5
122
330
2
100
AcDbEntity
  8
GAIKEI
  6
Continuous
 62
     1
100
AcDbSpline
210
0.0
220
0.0
230
1.0
 70
     8
 71
     3
 72
    10
 73
     6
 74
     4
 42
0.0000000001
 43
0.0000000001
 44
0.0000000001
 12
-1.0
 22
0.0
 32
0.0
 13
-0.9284766908775157
 23
0.3713906763734628
 33
0.0
 40
0.0
 40
0.0
 40
0.0
 40
0.0
 40
0.1128007364070463
 40
0.2299785175800455
 40
0.3562436870342841
 40
0.3562436870342841
 40
0.3562436870342841
 40
0.3562436870342841
 10
-10.18017131874723
 20
5.668638046595532
 30
0.0
 10
-10.21777156421624
 20
5.668638046595532
 30
0.0
 10
-10.29454249551064
 20
5.67451051238865
 30
0.0
 10
-10.41076020439548
 20
5.700364246877157
 30
0.0
 10
-10.48750339136457
 20
5.727263069453528
 30
0.0
 10
-10.52658148026722
 20
5.742894305015539
 30
0.0
 11
-10.18017131874723
 21
5.668638046595532
 31
0.0
 11
-10.29266159952721
 21
5.677001231635529
 31
0.0
 11
-10.40717576214723
 21
5.701843513335518
 31
0.0
 11
-10.52658148026722
 21
5.742894305015539
 31
0.0
  0
SPLINE
  5
123
330
2
100
AcDbEntity
  8
GAIKEI
  6
Continuous
 62
     1
100
AcDbSpline
210
0.0
220
0.0
230
1.0
 70
     8
 71
     3
 72
    10
 73
     6
 74
     4
 42
0.0000000001
 43
0.0000000001
 44
0.0000000001
 12
-0.9284766908775157
 22
-0.3713906763734628
 32
0.0
 13
-1.0
 23
0.0
 33
0.0
 40
0.0
 40
0.0
 40
0.0
 40
0.0
 40
0.1268488518966382
 40
0.2441913279773099
 40
0.3562441639408227
 40
0.3562441639408227
 40
0.3562441639408227
 40
0.3562441639408227
 10
-9.833761157227229
 20
5.742894305015539
 30
0.0
 10
-9.873019891310761
 20
5.727190811381177
 30
0.0
 10
-9.950006051595813
 20
5.700223694153265
 30
0.0
 10
-10.06624557554811
 20
5.674455183809058
 30
0.0
 10
-10.14282037342605
 20
5.668638046595532
 30
0.0
 10
-10.18017131874723
 20
5.668638046595532
 30
0.0
 11
-9.833761157227229
 21
5.742894305015539
 31
0.0
 11
-9.953729396567212
 21
5.701684442395531
 31
0.0
 11
-10.06842291042721
 21
5.676892214355518
 31
0.0
 11
-10.18017131874723
 21
5.668638046595532
 31
0.0
  0
SPLINE
  5
124
330
2
100
AcDbEntity
  8
GAIKEI
  6
Continuous
 62
     1
100
AcDbSpline
210
0.0
220
0.0
230
1.0
 70
     8
 71
     3
 72
     9
 73
     5
 74
     3
 42
0.0000000001
 43
0.0000000001
 44
0.0000000001
 12
-0.9838409913992657
 22
-0.1790444180713546
 32
0.0
 13
-0.9991117299862807
 23
-0.0421396606989351
 33
0.0
 40
0.0
 40
0.0
 40
0.0
 40
0.0
 40
0.1412978915593812
 40
0.2784588002210191
 40
0.2784588002210191
 40
0.2784588002210191
 40
0.2784588002210191
 10
-9.833761157227229
 20
5.225035070015536
 30
0.0
 10
-9.880099376465366
 20
5.216602203759222
 30
0.0
 10
-9.971888056455966
 20
5.202390614107187
 30
0.0
 10
-10.06449162783409
 20
5.194659062026261
 30
0.0
 10
-10.11017131874723
 20
5.192732423975542
 30
0.0
 11
-9.833761157227229
 21
5.225035070015536
 31
0.0
 11
-9.973461555787196
 21
5.203847979575527
 31
0.0
 11
-10.11017131874723
 21
5.192732423975542
 31
0.0
  0
SPLINE
  5
125
330
2
100
AcDbEntity
  8
GAIKEI
  6
Continuous
 62
     1
100
AcDbSpline
210
0.0
220
0.0
230
1.0
 70
     8
 71
     3
 72
    10
 73
     6
 74
     4
 42
0.0000000001
 43
0.0000000001
 44
0.0000000001
 12
-0.9396926207776525
 22
-0.3420201433483517
 32
0.0
 13
-0.9858736458469969
 23
0.1674907592207707
 33
0.0
 40
0.0
 40
0.0
 40
0.0
 40
0.0
 40
0.0912210247053995
 40
0.1772435401328751
 40
0.2498074959926232
 40
0.2498074959926232
 40
0.2498074959926232
 40
0.2498074959926232
 10
-10.52658148026722
 20
5.225035070015536
 30
0.0
 10
-10.5551547215257
 20
5.214635260700163
 30
0.0
 10
-10.61201190189474
 20
5.197636632562719
 30
0.0
 10
-10.69536773655404
 20
5.188627354296372
 30
0.0
 10
-10.748312518547
 20
5.193475310575877
 30
0.0
 10
-10.77215881578718
 20
5.197526574595542
 30
0.0
 11
-10.52658148026722
 21
5.225035070015536
 31
0.0
 11
-10.61428489028719
 21
5.199947479075547
 31
0.0
 11
-10.69986671452721
 21
5.191251243095535
 31
0.0
 11
-10.77215881578718
 21
5.197526574595542
 31
0.0
  0
SPLINE
  5
126
330
2
100
AcDbEntity
  8
GAIKEI
  6
Continuous
 62
     1
100
AcDbSpline
210
0.0
220
0.0
230
1.0
 70
     8
 71
     3
 72
     8
 73
     4
 74
     2
 42
0.0000000001
 43
0.0000000001
 44
0.0000000001
 12
-0.9858736459332366
 22
0.1674907587131523
 32
0.0
 13
-0.9807652747352763
 23
0.1951908703639547
 33
0.0
 40
0.0
 40
0.0
 40
0.0
 40
0.0
 40
0.0134392808121041
 40
0.0134392808121041
 40
0.0134392808121041
 40
0.0134392808121041
 10
-10.77215881578718
 20
5.197526574595542
 30
0.0
 10
-10.77657529337816
 20
5.198276893042134
 30
0.0
 10
-10.78098147249457
 20
5.199090404209272
 30
0.0
 10
-10.78537506580721
 20
5.199964812515531
 30
0.0
 11
-10.77215881578718
 21
5.197526574595542
 31
0.0
 11
-10.78537506580721
 21
5.199964812515531
 31
0.0
  0
SPLINE
  5
127
330
2
100
AcDbEntity
  8
GAIKEI
  6
Continuous
 62
     1
100
AcDbSpline
210
0.0
220
0.0
230
1.0
 70
     8
 71
     3
 72
     8
 73
     4
 74
     2
 42
0.0000000001
 43
0.0000000001
 44
0.0000000001
 12
-0.9807652747030958
 22
0.1951908705256498
 32
0.0
 13
-0.9396926207771484
 23
0.3420201433497368
 33
0.0
 40
0.0
 40
0.0
 40
0.0
 40
0.0
 40
0.0911327723383347
 40
0.0911327723383347
 40
0.0911327723383347
 40
0.0911327723383347
 10
-10.78537506580721
 20
5.199964812515531
 30
0.0
 10
-10.81516835197283
 20
5.205894240904243
 30
0.0
 10
-10.84444604387478
 20
5.214645322062537
 30
0.0
 10
-10.87299164176721
 20
5.225035070015536
 30
0.0
 11
-10.78537506580721
 21
5.199964812515531
 31
0.0
 11
-10.87299164176721
 21
5.225035070015536
 31
0.0
  0
SPLINE
  5
128
330
2
100
AcDbEntity
  8
GAIKEI
  6
Continuous
 62
     1
100
AcDbSpline
210
0.0
220
0.0
230
1.0
 70
     8
 71
     3
 72
    12
 73
     8
 74
     6
 42
0.0000000001
 43
0.0000000001
 44
0.0000000001
 12
0.7808688094379372
 22
-0.6246950475607908
 32
0.0
 13
0.7808688094379372
 23
0.6246950475607908
 33
0.0
 40
0.0
 40
0.0
 40
0.0
 40
0.0
 40
0.0859933811509866
 40
0.1580181419691642
 40
0.2250873070091625
 40
0.297111758359993
 40
0.3831051828292851
 40
0.3831051828292851
 40
0.3831051828292851
 40
0.3831051828292851
 10
-10.87299164176721
 20
5.742894305015539
 30
0.0
 10
-10.85060845871424
 20
5.724987758572865
 30
0.0
 10
-10.80710073487992
 20
5.694683625899756
 30
0.0
 10
-10.7358015703212
 20
5.66775912627007
 30
0.0
 10
-10.66377138670445
 20
5.667759181705719
 30
0.0
 10
-10.59247232911956
 20
5.6946836687341
 30
0.0
 10
-10.5489646745955
 20
5.724987749552624
 30
0.0
 10
-10.52658148026722
 20
5.742894305015539
 30
0.0
 11
-10.87299164176721
 21
5.742894305015539
 31
0.0
 11
-10.8013159486872
 21
5.695381605415548
 31
0.0
 11
-10.7333210107472
 21
5.67162756185553
 31
0.0
 11
-10.66625184570722
 21
5.671627609075528
 31
0.0
 11
-10.59825721212724
 21
5.695381585515519
 31
0.0
 11
-10.52658148026722
 21
5.742894305015539
 31
0.0
  0
SPLINE
  5
129
330
2
100
AcDbEntity
  8
GAIKEI
  6
Continuous
 62
     1
100
AcDbSpline
210
0.0
220
0.0
230
1.0
 70
     8
 71
     3
 72
    12
 73
     8
 74
     6
 42
0.0000000001
 43
0.0000000001
 44
0.0000000001
 12
0.7808688094379372
 22
-0.6246950475607908
 32
0.0
 13
0.7808688094379372
 23
0.6246950475607908
 33
0.0
 40
0.0
 40
0.0
 40
0.0
 40
0.0
 40
0.0859933811509866
 40
0.1580181419691642
 40
0.2250873070091625
 40
0.2971117583600467
 40
0.3831051828293388
 40
0.3831051828293388
 40
0.3831051828293388
 40
0.3831051828293388
 10
-9.833761157227229
 20
5.742894305015539
 30
0.0
 10
-9.811377974174256
 20
5.724987758572865
 30
0.0
 10
-9.76787025033996
 20
5.694683625899756
 30
0.0
 10
-9.696571085781194
 20
5.667759126270084
 30
0.0
 10
-9.624540902164454
 20
5.667759181705719
 30
0.0
 10
-9.553241844579552
 20
5.694683668734072
 30
0.0
 10
-9.509734190055461
 20
5.724987749552624
 30
0.0
 10
-9.487350995727183
 20
5.742894305015539
 30
0.0
 11
-9.833761157227229
 21
5.742894305015539
 31
0.0
 11
-9.762085464147219
 21
5.695381605415548
 31
0.0
 11
-9.694090526207219
 21
5.67162756185553
 31
0.0
 11
-9.627021361167237
 21
5.671627609075528
 31
0.0
 11
-9.559026727587195
 21
5.695381585515519
 31
0.0
 11
-9.487350995727183
 21
5.742894305015539
 31
0.0
  0
SPLINE
  5
12A
330
2
100
AcDbEntity
  8
GAIKEI
  6
Continuous
 62
     1
100
AcDbSpline
210
0.0
220
0.0
230
1.0
 70
     8
 71
     3
 72
     9
 73
     5
 74
     3
 42
0.0000000001
 43
0.0000000001
 44
0.0000000001
 12
-0.9396926207900964
 22
-0.3420201433141623
 32
0.0
 13
-0.9858976385094733
 23
-0.1673494738009171
 33
0.0
 40
0.0
 40
0.0
 40
0.0
 40
0.0
 40
0.0912210247054542
 40
0.1046362146903901
 40
0.1046362146903901
 40
0.1046362146903901
 40
0.1046362146903901
 10
-9.487350995727183
 20
5.225035070015536
 30
0.0
 10
-9.515924236986059
 20
5.2146352607012
 30
0.0
 10
-9.549536474649194
 20
5.204590744599883
 30
0.0
 10
-9.583838696325145
 20
5.198264120677166
 30
0.0
 10
-9.588247364367248
 20
5.197515779015532
 30
0.0
 11
-9.487350995727183
 21
5.225035070015536
 31
0.0
 11
-9.575054405747209
 21
5.199947479075547
 31
0.0
 11
-9.588247364367248
 21
5.197515779015532
 31
0.0
  0
SPLINE
  5
12B
330
2
100
AcDbEntity
  8
GAIKEI
  6
Continuous
 62
     1
100
AcDbSpline
210
0.0
220
0.0
230
1.0
 70
     8
 71
     3
 72
    10
 73
     6
 74
     4
 42
0.0000000001
 43
0.0000000001
 44
0.0000000001
 12
-0.9858976385211761
 22
-0.1673494737319728
 32
0.0
 13
-0.9396926207942337
 23
0.3420201433027952
 33
0.0
 40
0.0
 40
0.0
 40
0.0
 40
0.0
 40
0.0726594266151415
 40
0.1586106013055469
 40
0.2497433736438816
 40
0.2497433736438816
 40
0.2497433736438816
 40
0.2497433736438816
 10
-9.588247364367248
 20
5.197515779015532
 30
0.0
 10
-9.612125616739305
 20
5.193462606746962
 30
0.0
 10
-9.665080746494652
 20
5.188627784589584
 30
0.0
 10
-9.748411118675711
 20
5.197659169239045
 30
0.0
 10
-9.805215559334278
 20
5.214645322063958
 30
0.0
 10
-9.833761157227229
 20
5.225035070015536
 30
0.0
 11
-9.588247364367248
 21
5.197515779015532
 31
0.0
 11
-9.660636229987233
 21
5.191251243095535
 31
0.0
 11
-9.74614458126723
 21
5.199964812515531
 31
0.0
 11
-9.833761157227229
 21
5.225035070015536
 31
0.0
  0
SPLINE
  5
12C
330
2
100
AcDbEntity
  8
GAIKEI
  6
Continuous
 62
     1
100
AcDbSpline
210
0.0
220
0.0
230
1.0
 70
     8
 71
     3
 72
     8
 73
     4
 74
     2
 42
0.0000000001
 43
0.0000000001
 44
0.0000000001
 12
-0.9930611172683299
 22
0.1175993935774176
 32
0.0
 13
-0.9838409913965579
 23
0.1790444180862344
 33
0.0
 40
0.0
 40
0.0
 40
0.0
 40
0.0
 40
0.1413984802431709
 40
0.1413984802431709
 40
0.1413984802431709
 40
0.1413984802431709
 10
35.91321886177281
 20
5.203836141255521
 30
0.0
 10
35.8664130841827
 20
5.209378933098648
 30
0.0
 10
35.81978972672759
 20
5.216596200477724
 30
0.0
 10
35.77341851973279
 20
5.225035070015536
 30
0.0
 11
35.91321886177281
 21
5.203836141255521
 31
0.0
 11
35.77341851973279
 21
5.225035070015536
 31
0.0
  0
SPLINE
  5
12D
330
2
100
AcDbEntity
  8
GAIKEI
  6
Continuous
 62
     1
100
AcDbSpline
210
0.0
220
0.0
230
1.0
 70
     8
 71
     3
 72
    10
 73
     6
 74
     4
 42
0.0000000001
 43
0.0000000001
 44
0.0000000001
 12
-0.9396926207776525
 22
-0.3420201433483517
 32
0.0
 13
-0.9858736458469969
 23
0.1674907592207707
 33
0.0
 40
0.0
 40
0.0
 40
0.0
 40
0.0
 40
0.0912210247054542
 40
0.1772435401328732
 40
0.249807495992678
 40
0.249807495992678
 40
0.249807495992678
 40
0.249807495992678
 10
35.77341851973279
 20
5.225035070015536
 30
0.0
 10
35.74484527847429
 20
5.214635260700148
 30
0.0
 10
35.68798809810524
 20
5.197636632562733
 30
0.0
 10
35.60463226344592
 20
5.188627354296372
 30
0.0
 10
35.55168748145297
 20
5.193475310575863
 30
0.0
 10
35.52784118421278
 20
5.197526574595542
 30
0.0
 11
35.77341851973279
 21
5.225035070015536
 31
0.0
 11
35.68571510971276
 21
5.199947479075547
 31
0.0
 11
35.6001332854728
 21
5.191251243095535
 31
0.0
 11
35.52784118421278
 21
5.197526574595542
 31
0.0
  0
SPLINE
  5
12E
330
2
100
AcDbEntity
  8
GAIKEI
  6
Continuous
 62
     1
100
AcDbSpline
210
0.0
220
0.0
230
1.0
 70
     8
 71
     3
 72
     8
 73
     4
 74
     2
 42
0.0000000001
 43
0.0000000001
 44
0.0000000001
 12
-0.9858736459332366
 22
0.1674907587131523
 32
0.0
 13
-0.9807652747352763
 23
0.1951908703639547
 33
0.0
 40
0.0
 40
0.0
 40
0.0
 40
0.0
 40
0.0134392808120482
 40
0.0134392808120482
 40
0.0134392808120482
 40
0.0134392808120482
 10
35.52784118421278
 20
5.197526574595542
 30
0.0
 10
35.52342470662181
 20
5.198276893042134
 30
0.0
 10
35.51901852750543
 20
5.199090404209272
 30
0.0
 10
35.51462493419279
 20
5.199964812515531
 30
0.0
 11
35.52784118421278
 21
5.197526574595542
 31
0.0
 11
35.51462493419279
 21
5.199964812515531
 31
0.0
  0
SPLINE
  5
12F
330
2
100
AcDbEntity
  8
GAIKEI
  6
Continuous
 62
     1
100
AcDbSpline
210
0.0
220
0.0
230
1.0
 70
     8
 71
     3
 72
     8
 73
     4
 74
     2
 42
0.0000000001
 43
0.0000000001
 44
0.0000000001
 12
-0.9807652747030958
 22
0.1951908705256498
 32
0.0
 13
-0.9396926207771484
 23
0.3420201433497368
 33
0.0
 40
0.0
 40
0.0
 40
0.0
 40
0.0
 40
0.0911327723383347
 40
0.0911327723383347
 40
0.0911327723383347
 40
0.0911327723383347
 10
35.51462493419279
 20
5.199964812515531
 30
0.0
 10
35.48483164802718
 20
5.205894240904243
 30
0.0
 10
35.45555395612523
 20
5.214645322062537
 30
0.0
 10
35.4270083582328
 20
5.225035070015536
 30
0.0
 11
35.51462493419279
 21
5.199964812515531
 31
0.0
 11
35.4270083582328
 21
5.225035070015536
 31
0.0
  0
SPLINE
  5
130
330
2
100
AcDbEntity
  8
GAIKEI
  6
Continuous
 62
     1
100
AcDbSpline
210
0.0
220
0.0
230
1.0
 70
     8
 71
     3
 72
    11
 73
     7
 74
     5
 42
0.0000000001
 43
0.0000000001
 44
0.0000000001
 12
0.7808688094496428
 22
-0.6246950475461586
 32
0.0
 13
0.8930374180469238
 23
0.4499824107318905
 33
0.0
 40
0.0
 40
0.0
 40
0.0
 40
0.0
 40
0.0859933811509866
 40
0.1580181419691105
 40
0.2250873070091657
 40
0.2950905922204924
 40
0.2950905922204924
 40
0.2950905922204924
 40
0.2950905922204924
 10
35.4270083582328
 20
5.742894305015539
 30
0.0
 10
35.44939154128611
 20
5.724987758573277
 30
0.0
 10
35.49289574965988
 20
5.69468181522491
 30
0.0
 10
35.5642083100614
 20
5.667764215265094
 30
0.0
 10
35.63550430061737
 20
5.667741296519579
 30
0.0
 10
35.67908549159947
 20
5.683957685629351
 30
0.0
 10
35.69992400929277
 20
5.694457767975535
 30
0.0
 11
35.4270083582328
 21
5.742894305015539
 31
0.0
 11
35.49868405131281
 21
5.695381605415548
 31
0.0
 11
35.56667898925275
 21
5.67162756185553
 31
0.0
 11
35.63374815429279
 21
5.671627609075528
 31
0.0
 11
35.69992400929277
 21
5.694457767975535
 31
0.0
  0
SPLINE
  5
131
330
2
100
AcDbEntity
  8
GAIKEI
  6
Continuous
 62
     7
100
AcDbSpline
210
0.0
220
0.0
230
1.0
 70
     8
 71
     3
 72
    11
 73
     7
 74
     5
 42
0.0000000001
 43
0.0000000001
 44
0.0000000001
 12
-1.0
 22
0.0
 32
0.0
 13
0.0
 23
1.0
 33
0.0
 40
0.0
 40
0.0
 40
0.0
 40
0.0
 40
0.0046966646837715
 40
0.0106056488111764
 40
0.0192434807011446
 40
0.0308530956842106
 40
0.0308530956842106
 40
0.0308530956842106
 40
0.0308530956842106
 10
-8.320465351627206
 20
5.728638046595534
 30
0.0
 10
-8.322030906521796
 20
5.728638046595534
 30
0.0
 10
-8.325676909020053
 20
5.730108405155334
 30
0.0
 10
-8.328530427573682
 20
5.736216217828285
 30
0.0
 10
-8.329967380697304
 20
5.744780944735751
 30
0.0
 10
-8.330171318747204
 20
5.751563094174528
 30
0.0
 10
-8.330171318747204
 20
5.755432965835552
 30
0.0
 11
-8.320465351627206
 21
5.728638046595534
 31
0.0
 11
-8.324853530547215
 21
5.730312126915521
 31
0.0
 11
-8.327901721227192
 21
5.735374204255549
 31
0.0
 11
-8.329638793407184
 21
5.743835570575527
 31
0.0
 11
-8.330171318747204
 21
5.755432965835552
 31
0.0
  0
SPLINE
  5
132
330
2
100
AcDbEntity
  8
GAIKEI
  6
Continuous
 62
     1
100
AcDbSpline
210
0.0
220
0.0
230
1.0
 70
     8
 71
     3
 72
     8
 73
     4
 74
     0
 42
0.0000000001
 43
0.0000000001
 40
0.0
 40
0.0
 40
0.0
 40
0.0
 40
1.0
 40
1.0
 40
1.0
 40
1.0
 10
-31.76408122835295
 20
5.084938109135521
 30
-25.1735
 10
-31.74727879819295
 20
5.084938109135521
 30
-25.1735
 10
-31.73658632097295
 20
5.07509425303553
 30
-25.1735
 10
-31.73183416185293
 20
5.055576265075529
 30
-25.1735
  0
SPLINE
  5
133
330
2
100
AcDbEntity
  8
GAIKEI
  6
Continuous
 62
     1
100
AcDbSpline
210
0.0
220
0.0
230
1.0
 70
     8
 71
     3
 72
     8
 73
     4
 74
     0
 42
0.0000000001
 43
0.0000000001
 40
0.6332588448
 40
0.6332588448
 40
0.6332588448
 40
0.6332588448
 40
1.0
 40
1.0
 40
1.0
 40
1.0
 10
-31.77612521717293
 20
5.08289201935554
 30
-25.1735
 10
-31.77245296515298
 20
5.084253288615514
 30
-25.1735
 10
-31.76843830287294
 20
5.084938109135521
 30
-25.1735
 10
-31.76408122835295
 20
5.084938109135521
 30
-25.1735
  0
SPLINE
  5
134
330
2
100
AcDbEntity
  8
GAIKEI
  6
Continuous
 62
     1
100
AcDbSpline
210
0.0
220
0.0
230
1.0
 70
     8
 71
     3
 72
     8
 73
     4
 74
     0
 42
0.0000000001
 43
0.0000000001
 40
0.0
 40
0.0
 40
0.0
 40
0.0
 40
0.1557564339
 40
0.1557564339
 40
0.1557564339
 40
0.1557564339
 10
-31.76560877619295
 20
4.974958479615537
 30
-25.1735
 10
-31.76941545267295
 20
4.974958479615537
 30
-25.1735
 10
-31.77292155229293
 20
4.975394930255532
 30
-25.1735
 10
-31.77612835837294
 20
4.976268472835528
 30
-25.1735
  0
SPLINE
  5
135
330
2
100
AcDbEntity
  8
GAIKEI
  6
Continuous
 62
     1
100
AcDbSpline
210
0.0
220
0.0
230
1.0
 70
     8
 71
     3
 72
     8
 73
     4
 74
     0
 42
0.0000000001
 43
0.0000000001
 40
0.0
 40
0.0
 40
0.0
 40
0.0
 40
1.0
 40
1.0
 40
1.0
 40
1.0
 10
-31.73285244761297
 20
5.006356984595527
 30
-25.1735
 10
-31.73828362283297
 20
4.985311500935523
 30
-25.1735
 10
-31.74914573487297
 20
4.974958479615537
 30
-25.1735
 10
-31.76560877619295
 20
4.974958479615537
 30
-25.1735
  0
SPLINE
  5
136
330
2
100
AcDbEntity
  8
GAIKEI
  6
Continuous
 62
     1
100
AcDbSpline
210
0.0
220
0.0
230
1.0
 70
     8
 71
     3
 72
     8
 73
     4
 74
     0
 42
0.0000000001
 43
0.0000000001
 40
0.0
 40
0.0
 40
0.0
 40
0.0
 40
1.0
 40
1.0
 40
1.0
 40
1.0
 10
-31.71040698857297
 20
4.953018478955527
 30
-25.1735
 10
-31.69619261083295
 20
4.966132955835519
 30
-25.1735
 10
-31.68736707029296
 20
4.983953729495539
 30
-25.1735
 10
-31.68431209383295
 20
5.006356984595527
 30
-25.1735
  0
SPLINE
  5
137
330
2
100
AcDbEntity
  8
GAIKEI
  6
Continuous
 62
     1
100
AcDbSpline
210
0.0
220
0.0
230
1.0
 70
     8
 71
     3
 72
     8
 73
     4
 74
     0
 42
0.0000000001
 43
0.0000000001
 40
0.0
 40
0.0
 40
0.0
 40
0.0
 40
1.0
 40
1.0
 40
1.0
 40
1.0
 10
-31.76662706193293
 20
4.933376675215527
 30
-25.1735
 10
-31.74354492483292
 20
4.933376675215527
 30
-25.1735
 10
-31.72470580397294
 20
4.93982609813554
 30
-25.1735
 10
-31.71040698857297
 20
4.953018478955527
 30
-25.1735
  0
SPLINE
  5
138
330
2
100
AcDbEntity
  8
GAIKEI
  6
Continuous
 62
     1
100
AcDbSpline
210
0.0
220
0.0
230
1.0
 70
     8
 71
     3
 72
     8
 73
     4
 74
     0
 42
0.0000000001
 43
0.0000000001
 40
0.8094124928000001
 40
0.8094124928000001
 40
0.8094124928000001
 40
0.8094124928000001
 40
1.0
 40
1.0
 40
1.0
 40
1.0
 10
-31.77612532893295
 20
4.933799703315514
 30
-25.1735
 10
-31.77302862063295
 20
4.933518467955536
 30
-25.1735
 10
-31.76986174821298
 20
4.933376675215527
 30
-25.1735
 10
-31.76662706193293
 20
4.933376675215527
 30
-25.1735
  0
SPLINE
  5
139
330
2
100
AcDbEntity
  8
GAIKEI
  6
Continuous
 62
     1
100
AcDbSpline
210
0.0
220
0.0
230
1.0
 70
     8
 71
     3
 72
     8
 73
     4
 74
     0
 42
0.0000000001
 43
0.0000000001
 40
0.0
 40
0.0
 40
0.0
 40
0.0
 40
0.1363785994
 40
0.1363785994
 40
0.1363785994
 40
0.1363785994
 10
-31.76560877619295
 20
5.126519918655532
 30
-25.1735
 10
-31.76921960451295
 20
5.126519918655532
 30
-25.1735
 10
-31.77272626489298
 20
5.126358928355529
 30
-25.1735
 10
-31.77612821951294
 20
5.126037714235536
 30
-25.1735
  0
SPLINE
  5
13A
330
2
100
AcDbEntity
  8
GAIKEI
  6
Continuous
 62
     1
100
AcDbSpline
210
0.0
220
0.0
230
1.0
 70
     8
 71
     3
 72
     8
 73
     4
 74
     0
 42
0.0000000001
 43
0.0000000001
 40
0.0
 40
0.0
 40
0.0
 40
0.0
 40
1.0
 40
1.0
 40
1.0
 40
1.0
 10
-31.70858227071295
 20
5.107001930695531
 30
-25.1735
 10
-31.72249947843295
 20
5.119900778155539
 30
-25.1735
 10
-31.74150823411293
 20
5.126519918655532
 30
-25.1735
 10
-31.76560877619295
 20
5.126519918655532
 30
-25.1735
  0
SPLINE
  5
13B
330
2
100
AcDbEntity
  8
GAIKEI
  6
Continuous
 62
     1
100
AcDbSpline
210
0.0
220
0.0
230
1.0
 70
     8
 71
     3
 72
     8
 73
     4
 74
     0
 42
0.0000000001
 43
0.0000000001
 40
0.0
 40
0.0
 40
0.0
 40
0.0
 40
1.0
 40
1.0
 40
1.0
 40
1.0
 10
-31.68329380807296
 20
5.055576265075529
 30
-25.1735
 10
-31.68634878453293
 20
5.076961189715518
 30
-25.1735
 10
-31.69466506299296
 20
5.094103083235523
 30
-25.1735
 10
-31.70858227071295
 20
5.107001930695531
 30
-25.1735
  0
LINE
  5
13C
330
2
100
AcDbEntity
  8
GAIKEI
  6
Continuous
100
AcDbLine
 10
-34.59612470923298
 20
-5.671361953404471
 30
0.0
 11
-32.99612470923296
 21
-5.671361953404471
 31
0.0
  0
LINE
  5
13D
330
2
100
AcDbEntity
  8
GAIKEI
  6
Continuous
 62
     1
100
AcDbLine
 10
-34.24612470923296
 20
-5.271361953404465
 30
0.0
 11
-33.34612470923298
 21
-5.271361953404465
 31
0.0
  0
LINE
  5
13E
330
2
100
AcDbEntity
  8
GAIKEI
  6
Continuous
100
AcDbLine
 10
-42.29612470923291
 20
-4.571361953404476
 30
0.0
 11
-36.61612470923297
 21
-4.571361953404476
 31
0.0
  0
LINE
  5
13F
330
2
100
AcDbEntity
  8
GAIKEI
  6
Continuous
100
AcDbLine
 10
-30.97612470923298
 20
-4.571361953404476
 30
0.0
 11
-25.29612470923292
 21
-4.571361953404476
 31
0.0
  0
LINE
  5
140
330
2
100
AcDbEntity
  8
GAIKEI
  6
Continuous
 62
     1
100
AcDbLine
 10
-33.34612470923298
 20
-4.471361953404482
 30
0.0
 11
-34.24612470923296
 21
-4.471361953404482
 31
0.0
  0
LINE
  5
141
330
2
100
AcDbEntity
  8
GAIKEI
  6
Continuous
100
AcDbLine
 10
-42.29612470923291
 20
-4.251361953404455
 30
0.0
 11
-36.61612470923297
 21
-4.251361953404455
 31
0.0
  0
LINE
  5
142
330
2
100
AcDbEntity
  8
GAIKEI
  6
Continuous
100
AcDbLine
 10
-30.97612470923298
 20
-4.251361953404455
 30
0.0
 11
-25.29612470923292
 21
-4.251361953404455
 31
0.0
  0
LINE
  5
143
330
2
100
AcDbEntity
  8
GAIKEI
  6
Continuous
100
AcDbLine
 10
-31.38583067633295
 20
-3.571361953404476
 30
0.0
 11
-31.99612470923296
 21
-3.571361953404476
 31
0.0
  0
LINE
  5
144
330
2
100
AcDbEntity
  8
GAIKEI
  6
Continuous
100
AcDbLine
 10
-35.59612470923298
 20
-3.571361953404476
 30
0.0
 11
-36.20641874211299
 21
-3.571361953404476
 31
0.0
  0
LINE
  5
145
330
2
100
AcDbEntity
  8
GAIKEI
  6
Continuous
 62
     1
100
AcDbLine
 10
-38.62612470923295
 20
14.86363804659552
 30
0.0
 11
-38.84612470923298
 21
14.58863804659552
 31
0.0
  0
LINE
  5
146
330
2
100
AcDbEntity
  8
GAIKEI
  6
Continuous
100
AcDbLine
 10
-42.29612470923291
 20
-4.571361953404476
 30
0.0
 11
-42.29612470923291
 21
-4.251361953404455
 31
0.0
  0
LINE
  5
147
330
2
100
AcDbEntity
  8
GAIKEI
  6
Continuous
 62
     1
100
AcDbLine
 10
-34.04612470923292
 20
-2.171361953404471
 30
0.0
 11
-33.54612470923291
 21
-2.171361953404471
 31
0.0
  0
LINE
  5
148
330
2
100
AcDbEntity
  8
GAIKEI
  6
Continuous
 62
     1
100
AcDbLine
 10
-33.05731187833294
 20
-1.771361953404465
 30
0.0
 11
-34.53493754011294
 21
-1.771361953404465
 31
0.0
  0
LINE
  5
149
330
2
100
AcDbEntity
  8
GAIKEI
  6
Continuous
 62
     1
100
AcDbLine
 10
-36.75252173265295
 20
-1.321917303344463
 30
0.0
 11
-37.32972768579293
 21
-1.321917303344463
 31
0.0
  0
LINE
  5
14A
330
2
100
AcDbEntity
  8
GAIKEI
  6
Continuous
 62
     1
100
AcDbLine
 10
-36.67952555495293
 20
-1.321917303344463
 30
0.0
 11
-36.25272386349298
 21
-1.321917303344463
 31
0.0
  0
LINE
  5
14B
330
2
100
AcDbEntity
  8
GAIKEI
  6
Continuous
 62
     1
100
AcDbLine
 10
-31.37612470923296
 20
-1.271361953404465
 30
0.0
 11
-30.77612470923293
 21
-1.271361953404465
 31
0.0
  0
LINE
  5
14C
330
2
100
AcDbEntity
  8
GAIKEI
  6
Continuous
 62
     1
100
AcDbLine
 10
-37.39112470923294
 20
-1.146361953404465
 30
0.0
 11
-37.36612470923296
 21
-1.146361953404465
 31
0.0
  0
LINE
  5
14D
330
2
100
AcDbEntity
  8
GAIKEI
  6
Continuous
 62
     1
100
AcDbLine
 10
-36.92613589885298
 20
13.70114924855554
 30
0.0
 11
-36.98863833141297
 21
13.63865168373553
 31
0.0
  0
LINE
  5
14E
330
2
100
AcDbEntity
  8
GAIKEI
  6
Continuous
 62
     1
100
AcDbLine
 10
-33.04612470923292
 20
-0.9713619534044823
 30
0.0
 11
-34.54612470923291
 21
-0.9713619534044823
 31
0.0
  0
LINE
  5
14F
330
2
100
AcDbEntity
  8
GAIKEI
  6
Continuous
 62
     1
100
AcDbLine
 10
-36.75252173265295
 20
-0.9466396283844744
 30
0.0
 11
-37.32972768579293
 21
-0.9466396283844744
 31
0.0
  0
LINE
  5
150
330
2
100
AcDbEntity
  8
GAIKEI
  6
Continuous
 62
     1
100
AcDbLine
 10
-36.67952555495293
 20
-0.9466396283844744
 30
0.0
 11
-36.25272386349298
 21
-0.9466396283844744
 31
0.0
  0
LINE
  5
151
330
2
100
AcDbEntity
  8
GAIKEI
  6
Continuous
 62
     1
100
AcDbLine
 10
-31.37612470923296
 20
-0.5713619534044767
 30
0.0
 11
-30.81252173265295
 21
-0.5713619534044767
 31
0.0
  0
LINE
  5
152
330
2
100
AcDbEntity
  8
GAIKEI
  6
Continuous
 62
     1
100
AcDbLine
 10
-36.75252173265295
 20
-0.1960842784244789
 30
0.0
 11
-37.32972768579293
 21
-0.1960842784244789
 31
0.0
  0
LINE
  5
153
330
2
100
AcDbEntity
  8
GAIKEI
  6
Continuous
 62
     1
100
AcDbLine
 10
-36.67952555495293
 20
-0.1960842784244789
 30
0.0
 11
-36.25272386349298
 21
-0.1960842784244789
 31
0.0
  0
LINE
  5
154
330
2
100
AcDbEntity
  8
GAIKEI
  6
Continuous
 62
     1
100
AcDbLine
 10
-33.54612470923291
 20
-0.171361953404471
 30
0.0
 11
-34.04612470923292
 21
-0.171361953404471
 31
0.0
  0
LINE
  5
155
330
2
100
AcDbEntity
  8
GAIKEI
  6
Continuous
 62
     1
100
AcDbLine
 10
-37.39112470923294
 20
0.0036380465955403
 30
0.0
 11
-37.36612470923296
 21
0.0036380465955403
 31
0.0
  0
LINE
  5
156
330
2
100
AcDbEntity
  8
GAIKEI
  6
Continuous
 62
     1
100
AcDbLine
 10
-39.32612470923294
 20
6.899965017315537
 30
0.0
 11
-39.32612470923294
 21
8.077311075875513
 31
0.0
  0
LINE
  5
157
330
2
100
AcDbEntity
  8
GAIKEI
  6
Continuous
 62
     1
100
AcDbLine
 10
-39.32612470923294
 20
13.39996501731554
 30
0.0
 11
-39.32612470923294
 21
14.57731107587551
 31
0.0
  0
LINE
  5
158
330
2
100
AcDbEntity
  8
GAIKEI
  6
Continuous
 62
     1
100
AcDbLine
 10
-31.37612470923296
 20
0.1286380465955403
 30
0.0
 11
-30.77612470923293
 21
0.1286380465955403
 31
0.0
  0
LINE
  5
159
330
2
100
AcDbEntity
  8
GAIKEI
  6
Continuous
 62
     1
100
AcDbLine
 10
-36.75252173265295
 20
0.1791933965355383
 30
0.0
 11
-37.32972768579293
 21
0.1791933965355383
 31
0.0
  0
LINE
  5
15A
330
2
100
AcDbEntity
  8
GAIKEI
  6
Continuous
 62
     1
100
AcDbLine
 10
-36.67952555495293
 20
0.1791933965355383
 30
0.0
 11
-36.25272386349298
 21
0.1791933965355383
 31
0.0
  0
LINE
  5
15B
330
2
100
AcDbEntity
  8
GAIKEI
  6
Continuous
100
AcDbLine
 10
-38.14612470923293
 20
0.5886380465955199
 30
0.0
 11
-37.20786913107293
 21
0.5886380465955199
 31
0.0
  0
LINE
  5
15C
330
2
100
AcDbEntity
  8
GAIKEI
  6
Continuous
100
AcDbLine
 10
-30.38438028737295
 20
0.5886380465955199
 30
0.0
 11
-29.44612470923295
 21
0.5886380465955199
 31
0.0
  0
LINE
  5
15D
330
2
100
AcDbEntity
  8
GAIKEI
  6
Continuous
 62
     1
100
AcDbLine
 10
-37.36612470923296
 20
-1.221917303344469
 30
0.0
 11
-37.32972768579293
 21
-1.321917303344463
 31
0.0
  0
LINE
  5
15E
330
2
100
AcDbEntity
  8
GAIKEI
  6
Continuous
 62
     1
100
AcDbLine
 10
-38.62612470923295
 20
6.613638046595525
 30
0.0
 11
-38.62612470923295
 21
8.363638046595525
 31
0.0
  0
LINE
  5
15F
330
2
100
AcDbEntity
  8
GAIKEI
  6
Continuous
 62
     1
100
AcDbLine
 10
-38.62612470923295
 20
13.11363804659552
 30
0.0
 11
-38.62612470923295
 21
14.86363804659552
 31
0.0
  0
LINE
  5
160
330
2
100
AcDbEntity
  8
GAIKEI
  6
Continuous
 62
     1
100
AcDbLine
 10
-38.52612470923293
 20
2.188638046595542
 30
0.0
 11
-38.52612470923293
 21
17.78863804659551
 31
0.0
  0
LINE
  5
161
330
2
100
AcDbEntity
  8
GAIKEI
  6
Continuous
100
AcDbLine
 10
-38.20612470923294
 20
2.188638046595542
 30
0.0
 11
-38.20612470923294
 21
5.988638046595525
 31
0.0
  0
LINE
  5
162
330
2
100
AcDbEntity
  8
GAIKEI
  6
Continuous
 62
     1
100
AcDbLine
 10
-38.20612470923294
 20
6.308638046595518
 30
0.0
 11
-38.20612470923294
 21
6.388638046595531
 31
0.0
  0
LINE
  5
163
330
2
100
AcDbEntity
  8
GAIKEI
  6
Continuous
100
AcDbLine
 10
-38.20612470923294
 20
15.83996939531553
 30
0.0
 11
-38.20612470923294
 21
17.78863804659551
 31
0.0
  0
LINE
  5
164
330
2
100
AcDbEntity
  8
GAIKEI
  6
Continuous
100
AcDbLine
 10
-38.14612470923293
 20
0.5886380465955199
 30
0.0
 11
-38.14612470923293
 21
5.988638046595525
 31
0.0
  0
LINE
  5
165
330
2
100
AcDbEntity
  8
GAIKEI
  6
Continuous
 62
     1
100
AcDbLine
 10
-38.14612470923293
 20
6.308638046595518
 30
0.0
 11
-38.14612470923293
 21
6.388638046595531
 31
0.0
  0
LINE
  5
166
330
2
100
AcDbEntity
  8
GAIKEI
  6
Continuous
100
AcDbLine
 10
-38.14612470923293
 20
15.83996939531553
 30
0.0
 11
-38.14612470923293
 21
19.38863804659553
 31
0.0
  0
LINE
  5
167
330
2
100
AcDbEntity
  8
GAIKEI
  6
Continuous
 62
     1
100
AcDbLine
 10
-38.62612470923295
 20
8.363638046595525
 30
0.0
 11
-38.84612470923298
 21
8.088638046595519
 31
0.0
  0
LINE
  5
168
330
2
100
AcDbEntity
  8
GAIKEI
  6
Continuous
100
AcDbLine
 10
-36.18755120423293
 20
1.62863804659554
 30
0.0
 11
-31.40469821421294
 21
1.62863804659554
 31
0.0
  0
LINE
  5
169
330
2
100
AcDbEntity
  8
GAIKEI
  6
Continuous
100
AcDbLine
 10
-31.37612470923296
 20
1.861115449115516
 30
0.0
 11
-31.69612470923295
 21
1.861115449115516
 31
0.0
  0
LINE
  5
16A
330
2
100
AcDbEntity
  8
GAIKEI
  6
Continuous
100
AcDbLine
 10
-35.89612470923294
 20
1.861115449115516
 30
0.0
 11
-36.21612470923293
 21
1.861115449115516
 31
0.0
  0
LINE
  5
16B
330
2
100
AcDbEntity
  8
GAIKEI
  6
Continuous
100
AcDbLine
 10
-39.69188589841292
 20
2.188638046595542
 30
0.0
 11
-38.20612470923294
 21
2.188638046595542
 31
0.0
  0
LINE
  5
16C
330
2
100
AcDbEntity
  8
GAIKEI
  6
Continuous
100
AcDbLine
 10
-29.38612470923295
 20
2.188638046595542
 30
0.0
 11
-27.90036352003296
 21
2.188638046595542
 31
0.0
  0
LINE
  5
16D
330
2
100
AcDbEntity
  8
GAIKEI
  6
Continuous
 62
     1
100
AcDbLine
 10
-36.31612470923295
 20
2.353638046595506
 30
0.0
 11
-36.53612470923292
 21
2.62863804659554
 31
0.0
  0
LINE
  5
16E
330
2
100
AcDbEntity
  8
GAIKEI
  6
Continuous
 62
     1
100
AcDbLine
 10
-36.67952555495293
 20
-1.321917303344463
 30
0.0
 11
-36.71594622319299
 21
-1.221852339744486
 31
0.0
  0
LINE
  5
16F
330
2
100
AcDbEntity
  8
GAIKEI
  6
Continuous
 62
     1
100
AcDbLine
 10
-36.75252173265295
 20
0.1791933965355383
 30
0.0
 11
-36.71612470923293
 21
0.0791933965355156
 31
0.0
  0
LINE
  5
170
330
2
100
AcDbEntity
  8
GAIKEI
  6
Continuous
 62
     1
100
AcDbLine
 10
-36.21612470923293
 20
0.078638046595529
 30
0.0
 11
-36.25272386349298
 21
0.1791933965355383
 31
0.0
  0
LINE
  5
171
330
2
100
AcDbEntity
  8
GAIKEI
  6
Continuous
 62
     1
100
AcDbLine
 10
-38.04612470923292
 20
5.988638046595525
 30
0.0
 11
-38.04612470923292
 21
6.388638046595531
 31
0.0
  0
LINE
  5
172
330
2
100
AcDbEntity
  8
GAIKEI
  6
Continuous
 62
     1
100
AcDbLine
 10
-37.82612470923294
 20
0.5886380465955199
 30
0.0
 11
-37.82612470923294
 21
5.988638046595525
 31
0.0
  0
LINE
  5
173
330
2
100
AcDbEntity
  8
GAIKEI
  6
Continuous
 62
     1
100
AcDbLine
 10
-37.82612470923294
 20
15.83996939531553
 30
0.0
 11
-37.82612470923294
 21
19.38863804659553
 31
0.0
  0
LINE
  5
174
330
2
100
AcDbEntity
  8
GAIKEI
  6
Continuous
100
AcDbLine
 10
-37.52612470923293
 20
8.808638046595518
 30
0.0
 11
-37.52612470923293
 21
15.79593244765553
 31
0.0
  0
LINE
  5
175
330
2
100
AcDbEntity
  8
GAIKEI
  6
Continuous
 62
     1
100
AcDbLine
 10
-37.36612470923296
 20
-1.221911791704485
 30
0.0
 11
-37.36612470923296
 21
0.0791878848955321
 31
0.0
  0
LINE
  5
176
330
2
100
AcDbEntity
  8
GAIKEI
  6
Continuous
 62
     1
100
AcDbLine
 10
-37.01612470923294
 20
2.639965017315546
 30
0.0
 11
-37.01612470923294
 21
3.817311075875522
 31
0.0
  0
LINE
  5
177
330
2
100
AcDbEntity
  8
GAIKEI
  6
Continuous
 62
     1
100
AcDbLine
 10
-30.66611351959295
 20
14.27612684465552
 30
0.0
 11
-30.60361108703296
 21
14.33862440945552
 31
0.0
  0
LINE
  5
178
330
2
100
AcDbEntity
  8
GAIKEI
  6
Continuous
 62
     1
100
AcDbLine
 10
-36.21612470923293
 20
2.353638046595506
 30
0.0
 11
-36.31612470923295
 21
2.353638046595506
 31
0.0
  0
LINE
  5
179
330
2
100
AcDbEntity
  8
GAIKEI
  6
Continuous
 62
     1
100
AcDbLine
 10
-31.37612470923296
 20
2.353638046595506
 30
0.0
 11
-31.27612470923293
 21
2.353638046595506
 31
0.0
  0
LINE
  5
17A
330
2
100
AcDbEntity
  8
GAIKEI
  6
Continuous
 62
     1
100
AcDbLine
 10
-37.01203033185294
 20
2.62863804659554
 30
0.0
 11
-36.46186845079296
 21
2.62863804659554
 31
0.0
  0
LINE
  5
17B
330
2
100
AcDbEntity
  8
GAIKEI
  6
Continuous
 62
     1
100
AcDbLine
 10
-31.13038096765297
 20
2.62863804659554
 30
0.0
 11
-30.58021908659294
 21
2.62863804659554
 31
0.0
  0
LINE
  5
17C
330
2
100
AcDbEntity
  8
GAIKEI
  6
Continuous
 62
     1
100
AcDbLine
 10
-32.24612470923296
 20
2.728638046595506
 30
0.0
 11
-32.32612470923295
 21
2.728638046595506
 31
0.0
  0
LINE
  5
17D
330
2
100
AcDbEntity
  8
GAIKEI
  6
Continuous
 62
     1
100
AcDbLine
 10
-35.26612470923294
 20
2.728638046595506
 30
0.0
 11
-35.34612470923298
 21
2.728638046595506
 31
0.0
  0
LINE
  5
17E
330
2
100
AcDbEntity
  8
GAIKEI
  6
Continuous
100
AcDbLine
 10
-31.69612470923295
 20
2.87863804659554
 30
0.0
 11
-31.77612470923293
 21
2.87863804659554
 31
0.0
  0
LINE
  5
17F
330
2
100
AcDbEntity
  8
GAIKEI
  6
Continuous
 62
     1
100
AcDbLine
 10
-32.32612470923295
 20
2.87863804659554
 30
0.0
 11
-32.91362470923298
 21
2.87863804659554
 31
0.0
  0
LINE
  5
180
330
2
100
AcDbEntity
  8
GAIKEI
  6
Continuous
100
AcDbLine
 10
-35.89612470923294
 20
2.87863804659554
 30
0.0
 11
-35.81612470923295
 21
2.87863804659554
 31
0.0
  0
LINE
  5
181
330
2
100
AcDbEntity
  8
GAIKEI
  6
Continuous
 62
     1
100
AcDbLine
 10
-35.26612470923294
 20
2.87863804659554
 30
0.0
 11
-34.67862470923297
 21
2.87863804659554
 31
0.0
  0
LINE
  5
182
330
2
100
AcDbEntity
  8
GAIKEI
  6
Continuous
 62
     1
100
AcDbLine
 10
-36.46186845079296
 20
3.228638046595506
 30
0.0
 11
-36.97972768579297
 21
3.228638046595506
 31
0.0
  0
LINE
  5
183
330
2
100
AcDbEntity
  8
GAIKEI
  6
Continuous
 62
     1
100
AcDbLine
 10
-31.13038096765297
 20
3.228638046595506
 30
0.0
 11
-30.61252173265297
 21
3.228638046595506
 31
0.0
  0
LINE
  5
184
330
2
100
AcDbEntity
  8
GAIKEI
  6
Continuous
 62
     1
100
AcDbLine
 10
-38.62612470923295
 20
6.613638046595525
 30
0.0
 11
-38.84612470923298
 21
6.888638046595531
 31
0.0
  0
LINE
  5
185
330
2
100
AcDbEntity
  8
GAIKEI
  6
Continuous
 62
     1
100
AcDbLine
 10
-36.98862470925292
 20
14.33863804659552
 30
0.0
 11
-36.98862470925292
 21
13.63863804659553
 31
0.0
  0
LINE
  5
186
330
2
100
AcDbEntity
  8
GAIKEI
  6
Continuous
100
AcDbLine
 10
-36.94612470923295
 20
4.788638046595508
 30
0.0
 11
-36.94612470923295
 21
3.828638046595528
 31
0.0
  0
LINE
  5
187
330
2
100
AcDbEntity
  8
GAIKEI
  6
Continuous
 62
     1
100
AcDbLine
 10
-36.92612470923297
 20
14.27613804675553
 30
0.0
 11
-36.92612470923297
 21
13.70113804649554
 31
0.0
  0
LINE
  5
188
330
2
100
AcDbEntity
  8
GAIKEI
  6
Continuous
 62
     1
100
AcDbLine
 10
-36.71612470923293
 20
-1.221911791704485
 30
0.0
 11
-36.71612470923293
 21
0.0791878848955321
 31
0.0
  0
LINE
  5
189
330
2
100
AcDbEntity
  8
GAIKEI
  6
Continuous
100
AcDbLine
 10
-36.59612470923298
 20
9.888638046595531
 30
0.0
 11
-36.59612470923298
 21
8.808638046595518
 31
0.0
  0
LINE
  5
18A
330
2
100
AcDbEntity
  8
GAIKEI
  6
Continuous
 62
     1
100
AcDbLine
 10
-36.59612470923298
 20
5.988638046595525
 30
0.0
 11
-36.59612470923298
 21
5.838638046595519
 31
0.0
  0
LINE
  5
18B
330
2
100
AcDbEntity
  8
GAIKEI
  6
Continuous
 62
     1
100
AcDbLine
 10
-36.31612470923295
 20
2.353638046595506
 30
0.0
 11
-36.31612470923295
 21
4.103638046595506
 31
0.0
  0
LINE
  5
18C
330
2
100
AcDbEntity
  8
GAIKEI
  6
Continuous
100
AcDbLine
 10
-36.21612470923293
 20
-3.851361953404477
 30
0.0
 11
-36.21612470923293
 21
4.578637246695535
 31
0.0
  0
LINE
  5
18D
330
2
100
AcDbEntity
  8
GAIKEI
  6
Continuous
 62
     1
100
AcDbLine
 10
-36.09612470923298
 20
5.838638046595519
 30
0.0
 11
-36.09612470923298
 21
5.988638046595525
 31
0.0
  0
LINE
  5
18E
330
2
100
AcDbEntity
  8
GAIKEI
  6
Continuous
100
AcDbLine
 10
-35.89612470923294
 20
4.578637246695535
 30
0.0
 11
-35.89612470923294
 21
1.695335018795532
 31
0.0
  0
LINE
  5
18F
330
2
100
AcDbEntity
  8
GAIKEI
  6
Continuous
100
AcDbLine
 10
-35.89612470923294
 20
-3.851361953404477
 30
0.0
 11
-35.89612470923294
 21
-3.598156872644466
 31
0.0
  0
LINE
  5
190
330
2
100
AcDbEntity
  8
GAIKEI
  6
Continuous
 62
     1
100
AcDbLine
 10
-35.89362470923294
 20
5.948638046595533
 30
0.0
 11
-35.89362470923294
 21
5.988638046595525
 31
0.0
  0
LINE
  5
191
330
2
100
AcDbEntity
  8
GAIKEI
  6
Continuous
100
AcDbLine
 10
-35.86799970923295
 20
3.582388046595525
 30
0.0
 11
-35.88299970923293
 21
3.578638046595528
 31
0.0
  0
LINE
  5
192
330
2
100
AcDbEntity
  8
GAIKEI
  6
Continuous
100
AcDbLine
 10
-31.69612470923295
 20
3.578638046595528
 30
0.0
 11
-31.77612470923293
 21
3.578638046595528
 31
0.0
  0
LINE
  5
193
330
2
100
AcDbEntity
  8
GAIKEI
  6
Continuous
 62
     1
100
AcDbLine
 10
-32.32612470923295
 20
3.578638046595528
 30
0.0
 11
-32.91362470923298
 21
3.578638046595528
 31
0.0
  0
LINE
  5
194
330
2
100
AcDbEntity
  8
GAIKEI
  6
Continuous
100
AcDbLine
 10
-35.89612470923294
 20
3.578638046595528
 30
0.0
 11
-35.81612470923295
 21
3.578638046595528
 31
0.0
  0
LINE
  5
195
330
2
100
AcDbEntity
  8
GAIKEI
  6
Continuous
 62
     1
100
AcDbLine
 10
-35.26612470923294
 20
3.578638046595528
 30
0.0
 11
-34.67862470923297
 21
3.578638046595528
 31
0.0
  0
LINE
  5
196
330
2
100
AcDbEntity
  8
GAIKEI
  6
Continuous
100
AcDbLine
 10
-35.89612470923294
 20
3.660513046595525
 30
0.0
 11
-35.81612470923295
 21
3.660513046595525
 31
0.0
  0
LINE
  5
197
330
2
100
AcDbEntity
  8
GAIKEI
  6
Continuous
 62
     1
100
AcDbLine
 10
-32.24612470923296
 20
3.728638046595506
 30
0.0
 11
-32.32612470923295
 21
3.728638046595506
 31
0.0
  0
LINE
  5
198
330
2
100
AcDbEntity
  8
GAIKEI
  6
Continuous
 62
     1
100
AcDbLine
 10
-35.26612470923294
 20
3.728638046595506
 30
0.0
 11
-35.34612470923298
 21
3.728638046595506
 31
0.0
  0
LINE
  5
199
330
2
100
AcDbEntity
  8
GAIKEI
  6
Continuous
100
AcDbLine
 10
-35.89612470923294
 20
3.785513046595525
 30
0.0
 11
-35.81612470923295
 21
3.785513046595525
 31
0.0
  0
LINE
  5
19A
330
2
100
AcDbEntity
  8
GAIKEI
  6
Continuous
 62
     1
100
AcDbLine
 10
-36.46186845079296
 20
3.828638046595528
 30
0.0
 11
-37.01203033185294
 21
3.828638046595528
 31
0.0
  0
LINE
  5
19B
330
2
100
AcDbEntity
  8
GAIKEI
  6
Continuous
 62
     1
100
AcDbLine
 10
-31.13038096765297
 20
3.828638046595528
 30
0.0
 11
-30.58021908659294
 21
3.828638046595528
 31
0.0
  0
LINE
  5
19C
330
2
100
AcDbEntity
  8
GAIKEI
  6
Continuous
100
AcDbLine
 10
-35.89612470923294
 20
3.848013046595525
 30
0.0
 11
-35.81612470923295
 21
3.848013046595525
 31
0.0
  0
LINE
  5
19D
330
2
100
AcDbEntity
  8
GAIKEI
  6
Continuous
100
AcDbLine
 10
-35.88362470923295
 20
3.926138046595525
 30
0.0
 11
-35.81612470923295
 21
3.926138046595525
 31
0.0
  0
LINE
  5
19E
330
2
100
AcDbEntity
  8
GAIKEI
  6
Continuous
 62
     1
100
AcDbLine
 10
-35.49512219665297
 20
3.928638046595523
 30
0.0
 11
-35.39612470923294
 21
3.928638046595523
 31
0.0
  0
LINE
  5
19F
330
2
100
AcDbEntity
  8
GAIKEI
  6
Continuous
 62
     1
100
AcDbLine
 10
-32.19612470923295
 20
3.928638046595523
 30
0.0
 11
-32.09712722179296
 21
3.928638046595523
 31
0.0
  0
LINE
  5
1A0
330
2
100
AcDbEntity
  8
GAIKEI
  6
Continuous
 62
     1
100
AcDbLine
 10
-36.21612470923293
 20
4.103638046595506
 30
0.0
 11
-36.31612470923295
 21
4.103638046595506
 31
0.0
  0
LINE
  5
1A1
330
2
100
AcDbEntity
  8
GAIKEI
  6
Continuous
 62
     1
100
AcDbLine
 10
-31.37612470923296
 20
4.103638046595506
 30
0.0
 11
-31.27612470923293
 21
4.103638046595506
 31
0.0
  0
LINE
  5
1A2
330
2
100
AcDbEntity
  8
GAIKEI
  6
Continuous
100
AcDbLine
 10
-35.80740888033296
 20
4.12863804659554
 30
0.0
 11
-34.69612470923295
 21
4.12863804659554
 31
0.0
  0
LINE
  5
1A3
330
2
100
AcDbEntity
  8
GAIKEI
  6
Continuous
100
AcDbLine
 10
-32.89612470923294
 20
4.12863804659554
 30
0.0
 11
-31.78484053811292
 21
4.12863804659554
 31
0.0
  0
LINE
  5
1A4
330
2
100
AcDbEntity
  8
GAIKEI
  6
Continuous
 62
     1
100
AcDbLine
 10
-36.94612470923295
 20
4.138638046595531
 30
0.0
 11
-36.21612470923293
 21
4.138638046595531
 31
0.0
  0
LINE
  5
1A5
330
2
100
AcDbEntity
  8
GAIKEI
  6
Continuous
100
AcDbLine
 10
-35.89612470923294
 20
4.138638046595531
 30
0.0
 11
-35.81612470923295
 21
4.138638046595531
 31
0.0
  0
LINE
  5
1A6
330
2
100
AcDbEntity
  8
GAIKEI
  6
Continuous
 62
     1
100
AcDbLine
 10
-34.61613590051297
 20
3.51612684629552
 30
0.0
 11
-34.67863833343296
 21
3.578624411475516
 31
0.0
  0
LINE
  5
1A7
330
2
100
AcDbEntity
  8
GAIKEI
  6
Continuous
100
AcDbLine
 10
-35.81612470923295
 20
1.628993842515512
 30
0.0
 11
-35.81612470923295
 21
5.728638046595506
 31
0.0
  0
LINE
  5
1A8
330
2
100
AcDbEntity
  8
GAIKEI
  6
Continuous
 62
     1
100
AcDbLine
 10
-35.81612470923295
 20
5.729640559175521
 30
0.0
 11
-35.81612470923295
 21
5.908638046595513
 31
0.0
  0
LINE
  5
1A9
330
2
100
AcDbEntity
  8
GAIKEI
  6
Continuous
 62
     1
100
AcDbLine
 10
-35.49612470923296
 20
5.908638046595513
 30
0.0
 11
-35.49612470923296
 21
5.728638046595506
 31
0.0
  0
LINE
  5
1AA
330
2
100
AcDbEntity
  8
GAIKEI
  6
Continuous
100
AcDbLine
 10
-35.49612470923296
 20
1.62863804659554
 30
0.0
 11
-35.49612470923296
 21
4.109963582675533
 31
0.0
  0
LINE
  5
1AB
330
2
100
AcDbEntity
  8
GAIKEI
  6
Continuous
 62
     1
100
AcDbLine
 10
-35.49299970923295
 20
3.957388046595525
 30
0.0
 11
-35.49299970923295
 21
3.928638046595523
 31
0.0
  0
LINE
  5
1AC
330
2
100
AcDbEntity
  8
GAIKEI
  6
Continuous
 62
     1
100
AcDbLine
 10
-35.27862470923293
 20
5.948638046595533
 30
0.0
 11
-35.27862470923293
 21
5.988638046595525
 31
0.0
  0
LINE
  5
1AD
330
2
100
AcDbEntity
  8
GAIKEI
  6
Continuous
 62
     1
100
AcDbLine
 10
-35.26612470923294
 20
2.728643905195525
 30
0.0
 11
-35.26612470923294
 21
3.728632187995515
 31
0.0
  0
LINE
  5
1AE
330
2
100
AcDbEntity
  8
GAIKEI
  6
Continuous
 62
     1
100
AcDbLine
 10
-35.19612470923295
 20
5.928638046595523
 30
0.0
 11
-35.19612470923295
 21
5.988638046595525
 31
0.0
  0
LINE
  5
1AF
330
2
100
AcDbEntity
  8
GAIKEI
  6
Continuous
100
AcDbLine
 10
-35.09612470923298
 20
-4.071361953404476
 30
0.0
 11
-35.09612470923298
 21
-5.171361953404471
 31
0.0
  0
LINE
  5
1B0
330
2
100
AcDbEntity
  8
GAIKEI
  6
Continuous
 62
     1
100
AcDbLine
 10
-37.36612470923296
 20
0.0791933965355156
 30
0.0
 11
-37.32972768579293
 21
0.1791933965355383
 31
0.0
  0
LINE
  5
1B1
330
2
100
AcDbEntity
  8
GAIKEI
  6
Continuous
100
AcDbLine
 10
-36.21612470923293
 20
4.578638046595528
 30
0.0
 11
-35.89612470923294
 21
4.578638046595528
 31
0.0
  0
LINE
  5
1B2
330
2
100
AcDbEntity
  8
GAIKEI
  6
Continuous
100
AcDbLine
 10
-31.69612470923295
 20
4.578638046595528
 30
0.0
 11
-31.37612470923296
 21
4.578638046595528
 31
0.0
  0
LINE
  5
1B3
330
2
100
AcDbEntity
  8
GAIKEI
  6
Continuous
100
AcDbLine
 10
-35.81612470923295
 20
4.888638046595531
 30
0.0
 11
-36.84612470923298
 21
4.888638046595531
 31
0.0
  0
LINE
  5
1B4
330
2
100
AcDbEntity
  8
GAIKEI
  6
Continuous
 62
     1
100
AcDbLine
 10
-31.68431209383295
 20
5.006356984595527
 30
0.0
 11
-31.73285244761297
 21
5.006356984595527
 31
0.0
  0
LINE
  5
1B5
330
2
100
AcDbEntity
  8
GAIKEI
  6
Continuous
 62
     1
100
AcDbLine
 10
-31.73183416185293
 20
5.055576265075529
 30
0.0
 11
-31.68329380807296
 21
5.055576265075529
 31
0.0
  0
LINE
  5
1B6
330
2
100
AcDbEntity
  8
GAIKEI
  6
Continuous
 62
     1
100
AcDbLine
 10
-33.20745167995295
 20
5.188638046595542
 30
0.0
 11
-34.38479773849292
 21
5.188638046595542
 31
0.0
  0
LINE
  5
1B7
330
2
100
AcDbEntity
  8
GAIKEI
  6
Continuous
100
AcDbLine
 10
-30.84612470923298
 20
5.388638046595531
 30
0.0
 11
-31.77612470923293
 21
5.388638046595531
 31
0.0
  0
LINE
  5
1B8
330
2
100
AcDbEntity
  8
GAIKEI
  6
Continuous
 62
     1
100
AcDbLine
 10
-34.67112470923292
 20
5.888638046595531
 30
0.0
 11
-34.39612470923294
 21
5.668638046595532
 31
0.0
  0
LINE
  5
1B9
330
2
100
AcDbEntity
  8
GAIKEI
  6
Continuous
 62
     1
100
AcDbLine
 10
-32.97611351793296
 20
2.94114924689552
 30
0.0
 11
-32.91361108503293
 21
2.878651681715524
 31
0.0
  0
LINE
  5
1BA
330
2
100
AcDbEntity
  8
GAIKEI
  6
Continuous
 62
     1
100
AcDbLine
 10
-34.67862470925297
 20
3.578638046595528
 30
0.0
 11
-34.67862470925297
 21
2.87863804659554
 31
0.0
  0
LINE
  5
1BB
330
2
100
AcDbEntity
  8
GAIKEI
  6
Continuous
 62
     1
100
AcDbLine
 10
-34.67112470923292
 20
5.988638046595525
 30
0.0
 11
-34.67112470923292
 21
5.888638046595531
 31
0.0
  0
LINE
  5
1BC
330
2
100
AcDbEntity
  8
GAIKEI
  6
Continuous
 62
     1
100
AcDbLine
 10
-34.61612470923296
 20
3.516138046755543
 30
0.0
 11
-34.61612470923296
 21
2.941138046495524
 31
0.0
  0
LINE
  5
1BD
330
2
100
AcDbEntity
  8
GAIKEI
  6
Continuous
 62
     1
100
AcDbLine
 10
-34.54612470923291
 20
-0.6713619534044711
 30
0.0
 11
-34.54612470923291
 21
-1.671361953404471
 31
0.0
  0
LINE
  5
1BE
330
2
100
AcDbEntity
  8
GAIKEI
  6
Continuous
 62
     1
100
AcDbLine
 10
-34.54612470923291
 20
-4.971361953404482
 30
0.0
 11
-34.54612470923291
 21
-4.771361953404465
 31
0.0
  0
LINE
  5
1BF
330
2
100
AcDbEntity
  8
GAIKEI
  6
Continuous
 62
     1
100
AcDbLine
 10
-34.39612470923294
 20
5.742894305015511
 30
0.0
 11
-34.39612470923294
 21
5.192732423975542
 31
0.0
  0
LINE
  5
1C0
330
2
100
AcDbEntity
  8
GAIKEI
  6
Continuous
100
AcDbLine
 10
-33.89612470923294
 20
5.188638046595542
 30
0.0
 11
-33.89612470923294
 21
4.928638046595523
 31
0.0
  0
LINE
  5
1C1
330
2
100
AcDbEntity
  8
GAIKEI
  6
Continuous
 62
     1
100
AcDbLine
 10
-33.79612470923291
 20
5.742894305015511
 30
0.0
 11
-33.79612470923291
 21
5.225035070015508
 31
0.0
  0
LINE
  5
1C2
330
2
100
AcDbEntity
  8
GAIKEI
  6
Continuous
 62
     1
100
AcDbLine
 10
-33.79612470923291
 20
18.78863804659551
 30
0.0
 11
-33.79612470923291
 21
19.88863804659553
 31
0.0
  0
LINE
  5
1C3
330
2
100
AcDbEntity
  8
GAIKEI
  6
Continuous
100
AcDbLine
 10
-33.69612470923295
 20
5.188638046595542
 30
0.0
 11
-33.69612470923295
 21
4.928638046595523
 31
0.0
  0
LINE
  5
1C4
330
2
100
AcDbEntity
  8
GAIKEI
  6
Continuous
 62
     1
100
AcDbLine
 10
-36.67952555495293
 20
0.1791933965355383
 30
0.0
 11
-36.71594799459297
 21
0.0791235660355199
 31
0.0
  0
LINE
  5
1C5
330
2
100
AcDbEntity
  8
GAIKEI
  6
Continuous
 62
     1
100
AcDbLine
 10
-36.75252173265295
 20
-1.321917303344463
 30
0.0
 11
-36.71612470923293
 21
-1.221917303344469
 31
0.0
  0
LINE
  5
1C6
330
2
100
AcDbEntity
  8
GAIKEI
  6
Continuous
100
AcDbLine
 10
-35.89612470923294
 20
3.910513046595525
 30
0.0
 11
-35.86799970923295
 21
3.957388046595525
 31
0.0
  0
LINE
  5
1C7
330
2
100
AcDbEntity
  8
GAIKEI
  6
Continuous
 62
     1
100
AcDbLine
 10
-36.31612470923295
 20
4.103638046595506
 30
0.0
 11
-36.53612470923292
 21
3.828638046595528
 31
0.0
  0
LINE
  5
1C8
330
2
100
AcDbEntity
  8
GAIKEI
  6
Continuous
 62
     1
100
AcDbLine
 10
-28.96612470923293
 20
13.11363804659552
 30
0.0
 11
-28.74612470923296
 21
13.38863804659553
 31
0.0
  0
LINE
  5
1C9
330
2
100
AcDbEntity
  8
GAIKEI
  6
Continuous
 62
     1
100
AcDbLine
 10
-35.81573995149296
 20
5.728638046595506
 30
0.0
 11
-35.39612470923294
 21
5.728638046595506
 31
0.0
  0
LINE
  5
1CA
330
2
100
AcDbEntity
  8
GAIKEI
  6
Continuous
 62
     1
100
AcDbLine
 10
-32.19612470923295
 20
5.728638046595506
 30
0.0
 11
-31.77650946695292
 21
5.728638046595506
 31
0.0
  0
LINE
  5
1CB
330
2
100
AcDbEntity
  8
GAIKEI
  6
Continuous
 62
     1
100
AcDbLine
 10
-32.92112470923291
 20
5.888638046595531
 30
0.0
 11
-34.67112470923292
 21
5.888638046595531
 31
0.0
  0
LINE
  5
1CC
330
2
100
AcDbEntity
  8
GAIKEI
  6
Continuous
 62
     1
100
AcDbLine
 10
-35.89362470923294
 20
5.948638046595533
 30
0.0
 11
-35.27862470923293
 21
5.948638046595533
 31
0.0
  0
LINE
  5
1CD
330
2
100
AcDbEntity
  8
GAIKEI
  6
Continuous
 62
     1
100
AcDbLine
 10
-32.31362470923296
 20
5.948638046595533
 30
0.0
 11
-31.69862470923295
 21
5.948638046595533
 31
0.0
  0
LINE
  5
1CE
330
2
100
AcDbEntity
  8
GAIKEI
  6
Continuous
100
AcDbLine
 10
-38.52612470923293
 20
5.988638046595525
 30
0.0
 11
-29.06612470923295
 21
5.988638046595525
 31
0.0
  0
LINE
  5
1CF
330
2
100
AcDbEntity
  8
GAIKEI
  6
Continuous
 62
     1
100
AcDbLine
 10
-29.38612470923295
 20
6.308638046595518
 30
0.0
 11
-29.54612470923292
 21
6.308638046595518
 31
0.0
  0
LINE
  5
1D0
330
2
100
AcDbEntity
  8
GAIKEI
  6
Continuous
 62
     1
100
AcDbLine
 10
-38.20612470923294
 20
6.308638046595518
 30
0.0
 11
-38.04612470923292
 21
6.308638046595518
 31
0.0
  0
LINE
  5
1D1
330
2
100
AcDbEntity
  8
GAIKEI
  6
Continuous
 62
     1
100
AcDbLine
 10
-38.22612470923298
 20
6.388638046595531
 30
0.0
 11
-38.04612470923292
 21
6.388638046595531
 31
0.0
  0
LINE
  5
1D2
330
2
100
AcDbEntity
  8
GAIKEI
  6
Continuous
 62
     1
100
AcDbLine
 10
-29.54612470923292
 20
6.388638046595531
 30
0.0
 11
-29.36612470923297
 21
6.388638046595531
 31
0.0
  0
LINE
  5
1D3
330
2
100
AcDbEntity
  8
GAIKEI
  6
Continuous
 62
     1
100
AcDbLine
 10
-38.52612470923293
 20
6.613638046595525
 30
0.0
 11
-38.62612470923295
 21
6.613638046595525
 31
0.0
  0
LINE
  5
1D4
330
2
100
AcDbEntity
  8
GAIKEI
  6
Continuous
 62
     1
100
AcDbLine
 10
-29.06612470923295
 20
6.613638046595525
 30
0.0
 11
-28.96612470923293
 21
6.613638046595525
 31
0.0
  0
LINE
  5
1D5
330
2
100
AcDbEntity
  8
GAIKEI
  6
Continuous
 62
     1
100
AcDbLine
 10
-33.19612470923295
 20
5.192732423975542
 30
0.0
 11
-33.19612470923295
 21
5.742894305015511
 31
0.0
  0
LINE
  5
1D6
330
2
100
AcDbEntity
  8
GAIKEI
  6
Continuous
 62
     1
100
AcDbLine
 10
-33.04612470923292
 20
-4.971361953404482
 30
0.0
 11
-33.04612470923292
 21
-4.771361953404465
 31
0.0
  0
LINE
  5
1D7
330
2
100
AcDbEntity
  8
GAIKEI
  6
Continuous
 62
     1
100
AcDbLine
 10
-33.04612470923292
 20
-1.671361953404471
 30
0.0
 11
-33.04612470923292
 21
-0.6713619534044711
 31
0.0
  0
LINE
  5
1D8
330
2
100
AcDbEntity
  8
GAIKEI
  6
Continuous
 62
     1
100
AcDbLine
 10
-32.97612470923298
 20
2.941138046435526
 30
0.0
 11
-32.97612470923298
 21
3.516138046695516
 31
0.0
  0
LINE
  5
1D9
330
2
100
AcDbEntity
  8
GAIKEI
  6
Continuous
 62
     1
100
AcDbLine
 10
-32.92112470923291
 20
5.988638046595525
 30
0.0
 11
-32.92112470923291
 21
5.888638046595531
 31
0.0
  0
LINE
  5
1DA
330
2
100
AcDbEntity
  8
GAIKEI
  6
Continuous
 62
     1
100
AcDbLine
 10
-32.91362470919296
 20
2.87863804659554
 30
0.0
 11
-32.91362470919296
 21
3.578638046595528
 31
0.0
  0
LINE
  5
1DB
330
2
100
AcDbEntity
  8
GAIKEI
  6
Continuous
 62
     1
100
AcDbLine
 10
-36.21612470923293
 20
-1.221361953404482
 30
0.0
 11
-36.25272386349298
 21
-1.321917303344463
 31
0.0
  0
LINE
  5
1DC
330
2
100
AcDbEntity
  8
GAIKEI
  6
Continuous
 62
     1
100
AcDbLine
 10
-32.92112470923291
 20
5.888638046595531
 30
0.0
 11
-33.19612470923295
 21
5.668638046595532
 31
0.0
  0
LINE
  5
1DD
330
2
100
AcDbEntity
  8
GAIKEI
  6
Continuous
 62
     1
100
AcDbLine
 10
-39.32203033185294
 20
6.888638046595531
 30
0.0
 11
-38.77186845079297
 21
6.888638046595531
 31
0.0
  0
LINE
  5
1DE
330
2
100
AcDbEntity
  8
GAIKEI
  6
Continuous
 62
     1
100
AcDbLine
 10
-28.82038096765297
 20
6.888638046595531
 30
0.0
 11
-28.27021908659293
 21
6.888638046595531
 31
0.0
  0
LINE
  5
1DF
330
2
100
AcDbEntity
  8
GAIKEI
  6
Continuous
 62
     1
100
AcDbLine
 10
-38.77186845079297
 20
7.488638046595525
 30
0.0
 11
-39.28972768579297
 21
7.488638046595525
 31
0.0
  0
LINE
  5
1E0
330
2
100
AcDbEntity
  8
GAIKEI
  6
Continuous
 62
     1
100
AcDbLine
 10
-28.82038096765297
 20
7.488638046595525
 30
0.0
 11
-28.30252173265296
 21
7.488638046595525
 31
0.0
  0
LINE
  5
1E1
330
2
100
AcDbEntity
  8
GAIKEI
  6
Continuous
 62
     1
100
AcDbLine
 10
-38.62612470923295
 20
13.11363804659552
 30
0.0
 11
-38.84612470923298
 21
13.38863804659553
 31
0.0
  0
LINE
  5
1E2
330
2
100
AcDbEntity
  8
GAIKEI
  6
Continuous
 62
     1
100
AcDbLine
 10
-31.27612470923293
 20
4.103638046595506
 30
0.0
 11
-31.05612470923296
 21
3.828638046595528
 31
0.0
  0
LINE
  5
1E3
330
2
100
AcDbEntity
  8
GAIKEI
  6
Continuous
100
AcDbLine
 10
-32.49612470923296
 20
-4.071361953404476
 30
0.0
 11
-32.49612470923296
 21
-5.171361953404471
 31
0.0
  0
LINE
  5
1E4
330
2
100
AcDbEntity
  8
GAIKEI
  6
Continuous
 62
     1
100
AcDbLine
 10
-32.39612470923294
 20
5.988638046595525
 30
0.0
 11
-32.39612470923294
 21
5.928638046595523
 31
0.0
  0
LINE
  5
1E5
330
2
100
AcDbEntity
  8
GAIKEI
  6
Continuous
 62
     1
100
AcDbLine
 10
-32.32612470923295
 20
2.728643905195525
 30
0.0
 11
-32.32612470923295
 21
3.728632187995515
 31
0.0
  0
LINE
  5
1E6
330
2
100
AcDbEntity
  8
GAIKEI
  6
Continuous
 62
     1
100
AcDbLine
 10
-32.31362470923296
 20
5.948638046595533
 30
0.0
 11
-32.31362470923296
 21
5.988638046595525
 31
0.0
  0
LINE
  5
1E7
330
2
100
AcDbEntity
  8
GAIKEI
  6
Continuous
100
AcDbLine
 10
-32.09612470923298
 20
1.62863804659554
 30
0.0
 11
-32.09612470923298
 21
4.109963582675533
 31
0.0
  0
LINE
  5
1E8
330
2
100
AcDbEntity
  8
GAIKEI
  6
Continuous
 62
     1
100
AcDbLine
 10
-32.09612470923298
 20
5.728638046595506
 30
0.0
 11
-32.09612470923298
 21
5.908638046595513
 31
0.0
  0
LINE
  5
1E9
330
2
100
AcDbEntity
  8
GAIKEI
  6
Continuous
 62
     1
100
AcDbLine
 10
-31.77612470923293
 20
5.908638046595513
 30
0.0
 11
-31.77612470923293
 21
5.729640559175521
 31
0.0
  0
LINE
  5
1EA
330
2
100
AcDbEntity
  8
GAIKEI
  6
Continuous
100
AcDbLine
 10
-31.77612470923293
 20
1.628993842515512
 30
0.0
 11
-31.77612470923293
 21
5.728638046595506
 31
0.0
  0
LINE
  5
1EB
330
2
100
AcDbEntity
  8
GAIKEI
  6
Continuous
 62
     1
100
AcDbLine
 10
-31.69862470923295
 20
5.948638046595533
 30
0.0
 11
-31.69862470923295
 21
5.988638046595525
 31
0.0
  0
LINE
  5
1EC
330
2
100
AcDbEntity
  8
GAIKEI
  6
Continuous
100
AcDbLine
 10
-31.69612470923295
 20
-3.851361953404477
 30
0.0
 11
-31.69612470923295
 21
-3.598156872644466
 31
0.0
  0
LINE
  5
1ED
330
2
100
AcDbEntity
  8
GAIKEI
  6
Continuous
100
AcDbLine
 10
-31.69612470923295
 20
1.695335018795532
 30
0.0
 11
-31.69612470923295
 21
4.578637246695535
 31
0.0
  0
LINE
  5
1EE
330
2
100
AcDbEntity
  8
GAIKEI
  6
Continuous
 62
     1
100
AcDbLine
 10
-31.49612470923296
 20
5.988638046595525
 30
0.0
 11
-31.49612470923296
 21
5.838638046595519
 31
0.0
  0
LINE
  5
1EF
330
2
100
AcDbEntity
  8
GAIKEI
  6
Continuous
 62
     1
100
AcDbLine
 10
-34.61613589885292
 20
2.941149248555518
 30
0.0
 11
-34.67863833141291
 21
2.87865168373554
 31
0.0
  0
LINE
  5
1F0
330
2
100
AcDbEntity
  8
GAIKEI
  6
Continuous
100
AcDbLine
 10
-35.81612470923295
 20
3.603138046595518
 30
0.0
 11
-35.86799970923295
 21
3.582388046595525
 31
0.0
  0
LINE
  5
1F1
330
2
100
AcDbEntity
  8
GAIKEI
  6
Continuous
 62
     1
100
AcDbLine
 10
-38.77186845079297
 20
8.088638046595519
 30
0.0
 11
-39.32203033185294
 21
8.088638046595519
 31
0.0
  0
LINE
  5
1F2
330
2
100
AcDbEntity
  8
GAIKEI
  6
Continuous
 62
     1
100
AcDbLine
 10
-28.82038096765297
 20
8.088638046595519
 30
0.0
 11
-28.27021908659293
 21
8.088638046595519
 31
0.0
  0
LINE
  5
1F3
330
2
100
AcDbEntity
  8
GAIKEI
  6
Continuous
 62
     1
100
AcDbLine
 10
-38.52612470923293
 20
8.363638046595525
 30
0.0
 11
-38.62612470923295
 21
8.363638046595525
 31
0.0
  0
LINE
  5
1F4
330
2
100
AcDbEntity
  8
GAIKEI
  6
Continuous
 62
     1
100
AcDbLine
 10
-29.06612470923295
 20
8.363638046595525
 30
0.0
 11
-28.96612470923293
 21
8.363638046595525
 31
0.0
  0
LINE
  5
1F5
330
2
100
AcDbEntity
  8
GAIKEI
  6
Continuous
100
AcDbLine
 10
-29.36612470923297
 20
8.808638046595518
 30
0.0
 11
-38.22612470923298
 21
8.808638046595518
 31
0.0
  0
LINE
  5
1F6
330
2
100
AcDbEntity
  8
GAIKEI
  6
Continuous
100
AcDbLine
 10
-29.38612470923295
 20
8.812142340795531
 30
0.0
 11
-29.76612470923294
 21
8.812142340795531
 31
0.0
  0
LINE
  5
1F7
330
2
100
AcDbEntity
  8
GAIKEI
  6
Continuous
100
AcDbLine
 10
-37.82612470923294
 20
8.812142340795531
 30
0.0
 11
-38.20612470923294
 21
8.812142340795531
 31
0.0
  0
LINE
  5
1F8
330
2
100
AcDbEntity
  8
GAIKEI
  6
Continuous
100
AcDbLine
 10
-31.37612470923296
 20
-3.851361953404477
 30
0.0
 11
-31.37612470923296
 21
4.578637246695535
 31
0.0
  0
LINE
  5
1F9
330
2
100
AcDbEntity
  8
GAIKEI
  6
Continuous
 62
     1
100
AcDbLine
 10
-31.27612470923293
 20
4.103638046595506
 30
0.0
 11
-31.27612470923293
 21
2.353638046595506
 31
0.0
  0
LINE
  5
1FA
330
2
100
AcDbEntity
  8
GAIKEI
  6
Continuous
 62
     1
100
AcDbLine
 10
-30.99612470923296
 20
5.838638046595519
 30
0.0
 11
-30.99612470923296
 21
5.988638046595525
 31
0.0
  0
LINE
  5
1FB
330
2
100
AcDbEntity
  8
GAIKEI
  6
Continuous
100
AcDbLine
 10
-30.99612470923296
 20
8.808638046595518
 30
0.0
 11
-30.99612470923296
 21
9.888638046595531
 31
0.0
  0
LINE
  5
1FC
330
2
100
AcDbEntity
  8
GAIKEI
  6
Continuous
 62
     1
100
AcDbLine
 10
-30.77612470923293
 20
0.1286380465955403
 30
0.0
 11
-30.77612470923293
 21
-1.271361953404465
 31
0.0
  0
LINE
  5
1FD
330
2
100
AcDbEntity
  8
GAIKEI
  6
Continuous
 62
     1
100
AcDbLine
 10
-30.66612470923292
 20
13.70113804643551
 30
0.0
 11
-30.66612470923292
 21
14.27613804669553
 31
0.0
  0
LINE
  5
1FE
330
2
100
AcDbEntity
  8
GAIKEI
  6
Continuous
100
AcDbLine
 10
-30.64612470923294
 20
3.828638046595528
 30
0.0
 11
-30.64612470923294
 21
5.188638046595542
 31
0.0
  0
LINE
  5
1FF
330
2
100
AcDbEntity
  8
GAIKEI
  6
Continuous
 62
     1
100
AcDbLine
 10
-30.60362470919296
 20
13.63863804659553
 30
0.0
 11
-30.60362470919296
 21
14.33863804659552
 31
0.0
  0
LINE
  5
200
330
2
100
AcDbEntity
  8
GAIKEI
  6
Continuous
 62
     1
100
AcDbLine
 10
-30.57612470923294
 20
3.817311075875522
 30
0.0
 11
-30.57612470923294
 21
2.639965017315546
 31
0.0
  0
LINE
  5
201
330
2
100
AcDbEntity
  8
GAIKEI
  6
Continuous
 62
     1
100
AcDbLine
 10
-32.97611351959296
 20
3.516126844655531
 30
0.0
 11
-32.91361108703296
 21
3.578624409455528
 31
0.0
  0
LINE
  5
202
330
2
100
AcDbEntity
  8
GAIKEI
  6
Continuous
 62
     1
100
AcDbLine
 10
-42.59612470923298
 20
9.988638046595525
 30
0.0
 11
-43.69612470923295
 21
9.988638046595525
 31
0.0
  0
LINE
  5
203
330
2
100
AcDbEntity
  8
GAIKEI
  6
Continuous
 62
     1
100
AcDbLine
 10
-24.99612470923296
 20
9.988638046595525
 30
0.0
 11
-23.89612470923294
 21
9.988638046595525
 31
0.0
  0
LINE
  5
204
330
2
100
AcDbEntity
  8
GAIKEI
  6
Continuous
 62
     1
100
AcDbLine
 10
-36.92613590051292
 20
14.27612684629554
 30
0.0
 11
-36.98863833343296
 21
14.33862441147553
 31
0.0
  0
LINE
  5
205
330
2
100
AcDbEntity
  8
GAIKEI
  6
Continuous
100
AcDbLine
 10
-30.06612470923295
 20
8.808638046595518
 30
0.0
 11
-30.06612470923295
 21
15.79593244765553
 31
0.0
  0
LINE
  5
206
330
2
100
AcDbEntity
  8
GAIKEI
  6
Continuous
 62
     1
100
AcDbLine
 10
-29.76612470923294
 20
0.5886380465955199
 30
0.0
 11
-29.76612470923294
 21
5.988638046595525
 31
0.0
  0
LINE
  5
207
330
2
100
AcDbEntity
  8
GAIKEI
  6
Continuous
 62
     1
100
AcDbLine
 10
-29.76612470923294
 20
15.83996939531553
 30
0.0
 11
-29.76612470923294
 21
19.38863804659553
 31
0.0
  0
LINE
  5
208
330
2
100
AcDbEntity
  8
GAIKEI
  6
Continuous
 62
     1
100
AcDbLine
 10
-29.54612470923292
 20
5.988638046595525
 30
0.0
 11
-29.54612470923292
 21
6.388638046595531
 31
0.0
  0
LINE
  5
209
330
2
100
AcDbEntity
  8
GAIKEI
  6
Continuous
100
AcDbLine
 10
-29.44612470923295
 20
0.5886380465955199
 30
0.0
 11
-29.44612470923295
 21
5.988638046595525
 31
0.0
  0
LINE
  5
20A
330
2
100
AcDbEntity
  8
GAIKEI
  6
Continuous
 62
     1
100
AcDbLine
 10
-29.44612470923295
 20
6.308638046595518
 30
0.0
 11
-29.44612470923295
 21
6.388638046595531
 31
0.0
  0
LINE
  5
20B
330
2
100
AcDbEntity
  8
GAIKEI
  6
Continuous
100
AcDbLine
 10
-29.44612470923295
 20
15.83996939531553
 30
0.0
 11
-29.44612470923295
 21
19.38863804659553
 31
0.0
  0
LINE
  5
20C
330
2
100
AcDbEntity
  8
GAIKEI
  6
Continuous
 62
     1
100
AcDbLine
 10
-29.38612470923295
 20
6.388638046595531
 30
0.0
 11
-29.38612470923295
 21
6.308638046595518
 31
0.0
  0
LINE
  5
20D
330
2
100
AcDbEntity
  8
GAIKEI
  6
Continuous
100
AcDbLine
 10
-29.38612470923295
 20
2.188638046595542
 30
0.0
 11
-29.38612470923295
 21
5.988638046595525
 31
0.0
  0
LINE
  5
20E
330
2
100
AcDbEntity
  8
GAIKEI
  6
Continuous
100
AcDbLine
 10
-29.38612470923295
 20
15.83996939531553
 30
0.0
 11
-29.38612470923295
 21
17.78863804659551
 31
0.0
  0
LINE
  5
20F
330
2
100
AcDbEntity
  8
GAIKEI
  6
Continuous
 62
     1
100
AcDbLine
 10
-28.96612470923293
 20
6.613638046595525
 30
0.0
 11
-28.74612470923296
 21
6.888638046595531
 31
0.0
  0
LINE
  5
210
330
2
100
AcDbEntity
  8
GAIKEI
  6
Continuous
 62
     1
100
AcDbLine
 10
-31.27612470923293
 20
2.353638046595506
 30
0.0
 11
-31.05612470923296
 21
2.62863804659554
 31
0.0
  0
LINE
  5
211
330
2
100
AcDbEntity
  8
GAIKEI
  6
Continuous
 62
     1
100
AcDbLine
 10
-29.06612470923295
 20
2.188638046595542
 30
0.0
 11
-29.06612470923295
 21
17.78863804659551
 31
0.0
  0
LINE
  5
212
330
2
100
AcDbEntity
  8
GAIKEI
  6
Continuous
 62
     1
100
AcDbLine
 10
-28.96612470923293
 20
14.86363804659552
 30
0.0
 11
-28.96612470923293
 21
13.11363804659552
 31
0.0
  0
LINE
  5
213
330
2
100
AcDbEntity
  8
GAIKEI
  6
Continuous
 62
     1
100
AcDbLine
 10
-28.96612470923293
 20
8.363638046595525
 30
0.0
 11
-28.96612470923293
 21
6.613638046595525
 31
0.0
  0
LINE
  5
214
330
2
100
AcDbEntity
  8
GAIKEI
  6
Continuous
 62
     1
100
AcDbLine
 10
-28.26612470923294
 20
14.57731107587551
 30
0.0
 11
-28.26612470923294
 21
13.39996501731554
 31
0.0
  0
LINE
  5
215
330
2
100
AcDbEntity
  8
GAIKEI
  6
Continuous
 62
     1
100
AcDbLine
 10
-28.26612470923294
 20
8.077311075875513
 30
0.0
 11
-28.26612470923294
 21
6.899965017315537
 31
0.0
  0
LINE
  5
216
330
2
100
AcDbEntity
  8
GAIKEI
  6
Continuous
100
AcDbLine
 10
-32.49612470923296
 20
11.38863804659553
 30
0.0
 11
-35.09612470923298
 21
11.38863804659553
 31
0.0
  0
LINE
  5
217
330
2
100
AcDbEntity
  8
GAIKEI
  6
Continuous
 62
     1
100
AcDbLine
 10
-28.96612470923293
 20
8.363638046595525
 30
0.0
 11
-28.74612470923296
 21
8.088638046595519
 31
0.0
  0
LINE
  5
218
330
2
100
AcDbEntity
  8
GAIKEI
  6
Continuous
 62
     1
100
AcDbLine
 10
-38.52612470923293
 20
13.11363804659552
 30
0.0
 11
-38.62612470923295
 21
13.11363804659552
 31
0.0
  0
LINE
  5
219
330
2
100
AcDbEntity
  8
GAIKEI
  6
Continuous
 62
     1
100
AcDbLine
 10
-29.06612470923295
 20
13.11363804659552
 30
0.0
 11
-28.96612470923293
 21
13.11363804659552
 31
0.0
  0
LINE
  5
21A
330
2
100
AcDbEntity
  8
GAIKEI
  6
Continuous
 62
     1
100
AcDbLine
 10
-39.32203033185294
 20
13.38863804659553
 30
0.0
 11
-38.77186845079297
 21
13.38863804659553
 31
0.0
  0
LINE
  5
21B
330
2
100
AcDbEntity
  8
GAIKEI
  6
Continuous
 62
     1
100
AcDbLine
 10
-28.82038096765297
 20
13.38863804659553
 30
0.0
 11
-28.27021908659293
 21
13.38863804659553
 31
0.0
  0
LINE
  5
21C
330
2
100
AcDbEntity
  8
GAIKEI
  6
Continuous
 62
     1
100
AcDbLine
 10
-30.06612470923295
 20
13.63863804659553
 30
0.0
 11
-30.60362470923292
 21
13.63863804659553
 31
0.0
  0
LINE
  5
21D
330
2
100
AcDbEntity
  8
GAIKEI
  6
Continuous
 62
     1
100
AcDbLine
 10
-37.52612470923293
 20
13.63863804659553
 30
0.0
 11
-36.98862470923297
 21
13.63863804659553
 31
0.0
  0
LINE
  5
21E
330
2
100
AcDbEntity
  8
GAIKEI
  6
Continuous
 62
     1
100
AcDbLine
 10
-38.77186845079297
 20
13.98863804659552
 30
0.0
 11
-39.28972768579297
 21
13.98863804659552
 31
0.0
  0
LINE
  5
21F
330
2
100
AcDbEntity
  8
GAIKEI
  6
Continuous
 62
     1
100
AcDbLine
 10
-28.82038096765297
 20
13.98863804659552
 30
0.0
 11
-28.30252173265296
 21
13.98863804659552
 31
0.0
  0
LINE
  5
220
330
2
100
AcDbEntity
  8
GAIKEI
  6
Continuous
 62
     1
100
AcDbLine
 10
-30.06612470923295
 20
14.33863804659552
 30
0.0
 11
-30.60362470923292
 21
14.33863804659552
 31
0.0
  0
LINE
  5
221
330
2
100
AcDbEntity
  8
GAIKEI
  6
Continuous
 62
     1
100
AcDbLine
 10
-37.52612470923293
 20
14.33863804659552
 30
0.0
 11
-36.98862470923297
 21
14.33863804659552
 31
0.0
  0
LINE
  5
222
330
2
100
AcDbEntity
  8
GAIKEI
  6
Continuous
 62
     1
100
AcDbLine
 10
-30.66611351793296
 20
13.70114924689551
 30
0.0
 11
-30.60361108503298
 21
13.63865168171554
 31
0.0
  0
LINE
  5
223
330
2
100
AcDbEntity
  8
GAIKEI
  6
Continuous
100
AcDbLine
 10
-25.29612470923292
 20
-4.251361953404455
 30
0.0
 11
-25.29612470923292
 21
-4.571361953404476
 31
0.0
  0
LINE
  5
224
330
2
100
AcDbEntity
  8
GAIKEI
  6
Continuous
 62
     1
100
AcDbLine
 10
-38.77186845079297
 20
14.58863804659552
 30
0.0
 11
-39.32203033185294
 21
14.58863804659552
 31
0.0
  0
LINE
  5
225
330
2
100
AcDbEntity
  8
GAIKEI
  6
Continuous
 62
     1
100
AcDbLine
 10
-28.82038096765297
 20
14.58863804659552
 30
0.0
 11
-28.27021908659293
 21
14.58863804659552
 31
0.0
  0
LINE
  5
226
330
2
100
AcDbEntity
  8
GAIKEI
  6
Continuous
 62
     1
100
AcDbLine
 10
-38.52612470923293
 20
14.86363804659552
 30
0.0
 11
-38.62612470923295
 21
14.86363804659552
 31
0.0
  0
LINE
  5
227
330
2
100
AcDbEntity
  8
GAIKEI
  6
Continuous
 62
     1
100
AcDbLine
 10
-29.06612470923295
 20
14.86363804659552
 30
0.0
 11
-28.96612470923293
 21
14.86363804659552
 31
0.0
  0
LINE
  5
228
330
2
100
AcDbEntity
  8
GAIKEI
  6
Continuous
 62
     1
100
AcDbLine
 10
-28.96612470923293
 20
14.86363804659552
 30
0.0
 11
-28.74612470923296
 21
14.58863804659552
 31
0.0
  0
LINE
  5
229
330
2
100
AcDbEntity
  8
GAIKEI
  6
Continuous
100
AcDbLine
 10
-29.06612470923295
 20
15.78863804659551
 30
0.0
 11
-29.21186448533297
 21
15.78863804659551
 31
0.0
  0
LINE
  5
22A
330
2
100
AcDbEntity
  8
GAIKEI
  6
Continuous
100
AcDbLine
 10
-38.38038493311297
 20
15.78863804659551
 30
0.0
 11
-38.52612470923293
 21
15.78863804659551
 31
0.0
  0
LINE
  5
22B
330
2
100
AcDbEntity
  8
GAIKEI
  6
Continuous
100
AcDbLine
 10
-38.20612470923294
 20
15.83996939531553
 30
0.0
 11
-37.82612470923294
 21
15.83996939531553
 31
0.0
  0
LINE
  5
22C
330
2
100
AcDbEntity
  8
GAIKEI
  6
Continuous
100
AcDbLine
 10
-29.76612470923294
 20
15.83996939531553
 30
0.0
 11
-29.38612470923295
 21
15.83996939531553
 31
0.0
  0
LINE
  5
22D
330
2
100
AcDbEntity
  8
GAIKEI
  6
Continuous
100
AcDbLine
 10
-39.69188589841292
 20
17.78863804659551
 30
0.0
 11
-38.20612470923294
 21
17.78863804659551
 31
0.0
  0
LINE
  5
22E
330
2
100
AcDbEntity
  8
GAIKEI
  6
Continuous
100
AcDbLine
 10
-29.38612470923295
 20
17.78863804659551
 30
0.0
 11
-27.90036352003296
 21
17.78863804659551
 31
0.0
  0
LINE
  5
22F
330
2
100
AcDbEntity
  8
GAIKEI
  6
Continuous
100
AcDbLine
 10
-38.14612470923293
 20
19.38863804659553
 30
0.0
 11
-37.20786913107293
 21
19.38863804659553
 31
0.0
  0
LINE
  5
230
330
2
100
AcDbEntity
  8
GAIKEI
  6
Continuous
100
AcDbLine
 10
-30.38438028737295
 20
19.38863804659553
 30
0.0
 11
-29.44612470923295
 21
19.38863804659553
 31
0.0
  0
ARC
  5
231
330
2
100
AcDbEntity
  8
GAIKEI
  6
Continuous
100
AcDbCircle
 10
-36.84612470923298
 20
4.788638046595508
 30
0.0
 40
0.1
100
AcDbArc
 50
90.0
 51
180.0
  0
ARC
  5
232
330
2
100
AcDbEntity
  8
GAIKEI
  6
Continuous
 62
     1
100
AcDbCircle
 10
-37.39112470923294
 20
-0.5713619534044767
 30
0.0
 40
0.5750000000000001
100
AcDbArc
 50
90.0
 51
270.0
  0
ARC
  5
233
330
2
100
AcDbEntity
  8
GAIKEI
  6
Continuous
100
AcDbCircle
 10
-30.84612470923298
 20
5.188638046595542
 30
0.0
 40
0.2
100
AcDbArc
 50
0.0
 51
90.0
  0
ARC
  5
234
330
2
100
AcDbEntity
  8
GAIKEI
  6
Continuous
 62
     1
100
AcDbCircle
 10
-35.34612470923298
 20
2.578638046595528
 30
0.0
 40
0.15
100
AcDbArc
 50
90.0
 51
179.999998089301
  0
ARC
  5
235
330
2
100
AcDbEntity
  8
GAIKEI
  6
Continuous
 62
     1
100
AcDbCircle
 10
-35.34612470923298
 20
3.87863804659554
 30
0.0
 40
0.15
100
AcDbArc
 50
180.0000019106989
 51
270.0
  0
ARC
  5
236
330
2
100
AcDbEntity
  8
GAIKEI
  6
Continuous
 62
     1
100
AcDbCircle
 10
-32.24612470923296
 20
2.578638046595528
 30
0.0
 40
0.15
100
AcDbArc
 50
0.000001910698938
 51
90.0
  0
ARC
  5
237
330
2
100
AcDbEntity
  8
GAIKEI
  6
Continuous
 62
     1
100
AcDbCircle
 10
-32.24612470923296
 20
3.87863804659554
 30
0.0
 40
0.15
100
AcDbArc
 50
270.0
 51
359.9999980893011
  0
ARC
  5
238
330
2
100
AcDbEntity
  8
GAIKEI
  6
Continuous
100
AcDbCircle
 10
-32.89612470923294
 20
4.928638046595523
 30
0.0
 40
0.8
100
AcDbArc
 50
180.0
 51
270.0
  0
ARC
  5
239
330
2
100
AcDbEntity
  8
GAIKEI
  6
Continuous
100
AcDbCircle
 10
-34.69612470923295
 20
4.928638046595523
 30
0.0
 40
0.8
100
AcDbArc
 50
270.0
 51
0.0
  0
ARC
  5
23A
330
2
100
AcDbEntity
  8
GAIKEI
  6
Continuous
 62
     1
100
AcDbCircle
 10
-32.19612470923295
 20
4.12863804659554
 30
0.0
 40
0.2
100
AcDbArc
 50
180.0
 51
270.0
  0
ARC
  5
23B
330
2
100
AcDbEntity
  8
GAIKEI
  6
Continuous
 62
     1
100
AcDbCircle
 10
-35.39612470923294
 20
4.12863804659554
 30
0.0
 40
0.2
100
AcDbArc
 50
270.0
 51
0.0
  0
ARC
  5
23C
330
2
100
AcDbEntity
  8
GAIKEI
  6
Continuous
 62
     1
100
AcDbCircle
 10
-32.19612470923295
 20
5.928638046595523
 30
0.0
 40
0.2
100
AcDbArc
 50
180.0
 51
270.0
  0
ARC
  5
23D
330
2
100
AcDbEntity
  8
GAIKEI
  6
Continuous
 62
     1
100
AcDbCircle
 10
-35.39612470923294
 20
5.928638046595523
 30
0.0
 40
0.2
100
AcDbArc
 50
270.0
 51
0.0
  0
ARC
  5
23E
330
2
100
AcDbEntity
  8
GAIKEI
  6
Continuous
 62
     1
100
AcDbCircle
 10
-33.79612470923291
 20
1.228638046595534
 30
0.0
 40
0.75
100
AcDbArc
 50
32.30235216939853
 51
147.6976478306015
  0
ARC
  5
23F
330
2
100
AcDbEntity
  8
GAIKEI
  6
Continuous
 62
     1
100
AcDbCircle
 10
-36.21612470923293
 20
5.908638046595513
 30
0.0
 40
0.4
100
AcDbArc
 50
0.0
 51
5.76157843999821
  0
ARC
  5
240
330
2
100
AcDbEntity
  8
GAIKEI
  6
Continuous
 62
     1
100
AcDbCircle
 10
-31.37612470923296
 20
5.908638046595513
 30
0.0
 40
0.4
100
AcDbArc
 50
174.2384215600018
 51
180.0
  0
ARC
  5
241
330
2
100
AcDbEntity
  8
GAIKEI
  6
Continuous
 62
     1
100
AcDbCircle
 10
-31.37612470923296
 20
5.908638046595513
 30
0.0
 40
0.7200000000000001
100
AcDbArc
 50
176.8034240969007
 51
180.0
  0
ARC
  5
242
330
2
100
AcDbEntity
  8
GAIKEI
  6
Continuous
 62
     1
100
AcDbCircle
 10
-36.21612470923293
 20
5.908638046595513
 30
0.0
 40
0.7200000000000001
100
AcDbArc
 50
0.0
 51
3.196575903099267
  0
ARC
  5
243
330
2
100
AcDbEntity
  8
GAIKEI
  6
Continuous
100
AcDbCircle
 10
-33.79612470923291
 20
9.988638046595525
 30
0.0
 40
8.599999999999999
100
AcDbArc
 50
79.99999999999824
 51
100.0000000000017
  0
ARC
  5
244
330
2
100
AcDbEntity
  8
GAIKEI
  6
Continuous
100
AcDbCircle
 10
-35.18531013055292
 20
17.86710007069553
 30
0.0
 40
0.6000000000000001
100
AcDbArc
 50
100.0000000000017
 51
279.9999999999987
  0
ARC
  5
245
330
2
100
AcDbEntity
  8
GAIKEI
  6
Continuous
100
AcDbCircle
 10
-33.79612470923291
 20
9.988638046595525
 30
0.0
 40
7.4
100
AcDbArc
 50
79.99999999999824
 51
100.0000000000017
  0
ARC
  5
246
330
2
100
AcDbEntity
  8
GAIKEI
  6
Continuous
100
AcDbCircle
 10
-32.40693928789295
 20
17.86710007069553
 30
0.0
 40
0.6000000000000001
100
AcDbArc
 50
259.9999999999982
 51
79.99999999999824
  0
ARC
  5
247
330
2
100
AcDbEntity
  8
GAIKEI
  6
Continuous
100
AcDbCircle
 10
-33.79612470923291
 20
9.988638046595525
 30
0.0
 40
10.0
100
AcDbArc
 50
70.05155641120042
 51
109.9484435887994
  0
ARC
  5
248
330
2
100
AcDbEntity
  8
GAIKEI
  6
Continuous
100
AcDbCircle
 10
-33.79612470923291
 20
9.988638046595525
 30
0.0
 40
10.0
100
AcDbArc
 50
250.0515564112004
 51
255.9913470373992
  0
ARC
  5
249
330
2
100
AcDbEntity
  8
GAIKEI
  6
Continuous
100
AcDbCircle
 10
-33.79612470923291
 20
9.988638046595525
 30
0.0
 40
10.0
100
AcDbArc
 50
284.0086529626008
 51
289.9484435887995
  0
ARC
  5
24A
330
2
100
AcDbEntity
  8
GAIKEI
  6
Continuous
 62
     1
100
AcDbCircle
 10
-36.34612470923298
 20
5.838638046595519
 30
0.0
 40
0.25
100
AcDbArc
 50
180.0
 51
0.0
  0
ARC
  5
24B
330
2
100
AcDbEntity
  8
GAIKEI
  6
Continuous
 62
     1
100
AcDbCircle
 10
-31.24612470923296
 20
5.838638046595519
 30
0.0
 40
0.25
100
AcDbArc
 50
180.0
 51
0.0
  0
ARC
  5
24C
330
2
100
AcDbEntity
  8
GAIKEI
  6
Continuous
100
AcDbCircle
 10
-35.09612470923298
 20
9.888638046595531
 30
0.0
 40
1.5
100
AcDbArc
 50
90.0
 51
180.0
  0
ARC
  5
24D
330
2
100
AcDbEntity
  8
GAIKEI
  6
Continuous
100
AcDbCircle
 10
-32.49612470923296
 20
9.888638046595531
 30
0.0
 40
1.5
100
AcDbArc
 50
0.0
 51
90.0
  0
ARC
  5
24E
330
2
100
AcDbEntity
  8
GAIKEI
  6
Continuous
 62
     1
100
AcDbCircle
 10
-33.54612470923291
 20
-1.671361953404471
 30
0.0
 40
0.5
100
AcDbArc
 50
270.0
 51
0.0
  0
ARC
  5
24F
330
2
100
AcDbEntity
  8
GAIKEI
  6
Continuous
 62
     1
100
AcDbCircle
 10
-34.04612470923292
 20
-1.671361953404471
 30
0.0
 40
0.5
100
AcDbArc
 50
180.0
 51
270.0
  0
ARC
  5
250
330
2
100
AcDbEntity
  8
GAIKEI
  6
Continuous
 62
     1
100
AcDbCircle
 10
-33.54612470923291
 20
-0.6713619534044711
 30
0.0
 40
0.5
100
AcDbArc
 50
0.0
 51
90.0
  0
ARC
  5
251
330
2
100
AcDbEntity
  8
GAIKEI
  6
Continuous
 62
     1
100
AcDbCircle
 10
-34.04612470923292
 20
-0.6713619534044711
 30
0.0
 40
0.5
100
AcDbArc
 50
90.0
 51
180.0
  0
ARC
  5
252
330
2
100
AcDbEntity
  8
GAIKEI
  6
Continuous
100
AcDbCircle
 10
-35.59612470923298
 20
-4.071361953404476
 30
0.0
 40
0.5
100
AcDbArc
 50
0.0
 51
90.0
  0
ARC
  5
253
330
2
100
AcDbEntity
  8
GAIKEI
  6
Continuous
100
AcDbCircle
 10
-31.99612470923296
 20
-4.071361953404476
 30
0.0
 40
0.5
100
AcDbArc
 50
90.0
 51
180.0
  0
ARC
  5
254
330
2
100
AcDbEntity
  8
GAIKEI
  6
Continuous
 62
     1
100
AcDbCircle
 10
-34.24612470923296
 20
-4.971361953404482
 30
0.0
 40
0.3
100
AcDbArc
 50
180.0
 51
270.0
  0
ARC
  5
255
330
2
100
AcDbEntity
  8
GAIKEI
  6
Continuous
 62
     1
100
AcDbCircle
 10
-34.24612470923296
 20
-4.771361953404465
 30
0.0
 40
0.3
100
AcDbArc
 50
90.0
 51
180.0
  0
ARC
  5
256
330
2
100
AcDbEntity
  8
GAIKEI
  6
Continuous
 62
     1
100
AcDbCircle
 10
-33.34612470923298
 20
-4.971361953404482
 30
0.0
 40
0.3
100
AcDbArc
 50
270.0
 51
0.0
  0
ARC
  5
257
330
2
100
AcDbEntity
  8
GAIKEI
  6
Continuous
 62
     1
100
AcDbCircle
 10
-33.34612470923298
 20
-4.771361953404465
 30
0.0
 40
0.3
100
AcDbArc
 50
0.0
 51
90.0
  0
ARC
  5
258
330
2
100
AcDbEntity
  8
GAIKEI
  6
Continuous
100
AcDbCircle
 10
-36.61612470923297
 20
-3.851361953404477
 30
0.0
 40
0.4
100
AcDbArc
 50
270.0
 51
0.0
  0
ARC
  5
259
330
2
100
AcDbEntity
  8
GAIKEI
  6
Continuous
100
AcDbCircle
 10
-30.97612470923298
 20
-3.851361953404477
 30
0.0
 40
0.4
100
AcDbArc
 50
180.0
 51
270.0
  0
ARC
  5
25A
330
2
100
AcDbEntity
  8
GAIKEI
  6
Continuous
100
AcDbCircle
 10
-32.99612470923296
 20
-5.171361953404471
 30
0.0
 40
0.5
100
AcDbArc
 50
270.0
 51
0.0
  0
ARC
  5
25B
330
2
100
AcDbEntity
  8
GAIKEI
  6
Continuous
100
AcDbCircle
 10
-34.59612470923298
 20
-5.171361953404471
 30
0.0
 40
0.5
100
AcDbArc
 50
180.0
 51
270.0
  0
ARC
  5
25C
330
2
100
AcDbEntity
  8
GAIKEI
  6
Continuous
100
AcDbCircle
 10
-30.97612470923298
 20
-3.851361953404477
 30
0.0
 40
0.7200000000000001
100
AcDbArc
 50
180.0
 51
270.0
  0
ARC
  5
25D
330
2
100
AcDbEntity
  8
GAIKEI
  6
Continuous
100
AcDbCircle
 10
-36.61612470923297
 20
-3.851361953404477
 30
0.0
 40
0.7200000000000001
100
AcDbArc
 50
270.0
 51
0.0
  0
ARC
  5
25E
330
2
100
AcDbEntity
  8
GAIKEI
  6
Continuous
100
AcDbCircle
 10
-29.38612470923295
 20
6.308638046595518
 30
0.0
 40
0.3200000000000001
100
AcDbArc
 50
270.0
 51
0.0
  0
ARC
  5
25F
330
2
100
AcDbEntity
  8
GAIKEI
  6
Continuous
100
AcDbCircle
 10
-38.20612470923294
 20
6.308638046595518
 30
0.0
 40
0.3200000000000001
100
AcDbArc
 50
180.0
 51
270.0
  0
ARC
  5
260
330
2
100
AcDbEntity
  8
GAIKEI
  6
Continuous
 62
     1
100
AcDbCircle
 10
-29.36612470923297
 20
6.688638046595542
 30
0.0
 40
0.3
100
AcDbArc
 50
270.0
 51
0.0
  0
ARC
  5
261
330
2
100
AcDbEntity
  8
GAIKEI
  6
Continuous
100
AcDbCircle
 10
-29.36612470923297
 20
8.508638046595535
 30
0.0
 40
0.3
100
AcDbArc
 50
0.0
 51
90.0
  0
ARC
  5
262
330
2
100
AcDbEntity
  8
GAIKEI
  6
Continuous
100
AcDbCircle
 10
-38.22612470923298
 20
8.508638046595535
 30
0.0
 40
0.3
100
AcDbArc
 50
90.0
 51
180.0
  0
ARC
  5
263
330
2
100
AcDbEntity
  8
GAIKEI
  6
Continuous
 62
     1
100
AcDbCircle
 10
-38.22612470923298
 20
6.688638046595542
 30
0.0
 40
0.3
100
AcDbArc
 50
180.0
 51
270.0
  0
ARC
  5
264
330
2
100
AcDbEntity
  8
GAIKEI
  6
Continuous
100
AcDbCircle
 10
-41.67458673331293
 20
8.599452625255537
 30
0.0
 40
0.6000000000000001
100
AcDbArc
 50
189.9999999999985
 51
10.00000000000184
  0
ARC
  5
265
330
2
100
AcDbEntity
  8
GAIKEI
  6
Continuous
100
AcDbCircle
 10
-41.67458673331293
 20
11.37782346793551
 30
0.0
 40
0.6000000000000001
100
AcDbArc
 50
349.9999999999982
 51
169.9999999999981
  0
ARC
  5
266
330
2
100
AcDbEntity
  8
GAIKEI
  6
Continuous
100
AcDbCircle
 10
-25.91766268513294
 20
8.599452625255537
 30
0.0
 40
0.6000000000000001
100
AcDbArc
 50
169.9999999999981
 51
350.0000045674995
  0
ARC
  5
267
330
2
100
AcDbEntity
  8
GAIKEI
  6
Continuous
100
AcDbCircle
 10
-25.91766268513294
 20
11.37782346793551
 30
0.0
 40
0.6000000000000001
100
AcDbArc
 50
10.00000000000184
 51
189.9999999999985
  0
ARC
  5
268
330
2
100
AcDbEntity
  8
GAIKEI
  6
Continuous
100
AcDbCircle
 10
-33.79612470923291
 20
9.988638046595525
 30
0.0
 40
8.599999999999999
100
AcDbArc
 50
350.0000003186997
 51
10.00000000000184
  0
ARC
  5
269
330
2
100
AcDbEntity
  8
GAIKEI
  6
Continuous
100
AcDbCircle
 10
-33.79612470923291
 20
9.988638046595525
 30
0.0
 40
7.4
100
AcDbArc
 50
349.9999999999982
 51
10.00000000000184
  0
ARC
  5
26A
330
2
100
AcDbEntity
  8
GAIKEI
  6
Continuous
100
AcDbCircle
 10
-33.79612470923291
 20
9.988638046595525
 30
0.0
 40
7.4
100
AcDbArc
 50
169.9999999999981
 51
189.9999999999985
  0
ARC
  5
26B
330
2
100
AcDbEntity
  8
GAIKEI
  6
Continuous
100
AcDbCircle
 10
-33.79612470923291
 20
9.988638046595525
 30
0.0
 40
8.599999999999999
100
AcDbArc
 50
169.9999999999981
 51
189.9999999999985
  0
ARC
  5
26C
330
2
100
AcDbEntity
  8
GAIKEI
  6
Continuous
100
AcDbCircle
 10
-27.90036352003296
 20
3.188638046595542
 30
0.0
 40
1.0
100
AcDbArc
 50
270.0
 51
310.9260633096011
  0
ARC
  5
26D
330
2
100
AcDbEntity
  8
GAIKEI
  6
Continuous
100
AcDbCircle
 10
-27.90036352003296
 20
16.78863804659551
 30
0.0
 40
1.0
100
AcDbArc
 50
49.07393669039883
 51
90.0
  0
ARC
  5
26E
330
2
100
AcDbEntity
  8
GAIKEI
  6
Continuous
100
AcDbCircle
 10
-33.79612470923291
 20
9.988638046595525
 30
0.0
 40
10.0
100
AcDbArc
 50
310.9260633096011
 51
49.07393669039883
  0
ARC
  5
26F
330
2
100
AcDbEntity
  8
GAIKEI
  6
Continuous
100
AcDbCircle
 10
-39.69188589841292
 20
16.78863804659551
 30
0.0
 40
1.0
100
AcDbArc
 50
90.0
 51
130.9260633096011
  0
ARC
  5
270
330
2
100
AcDbEntity
  8
GAIKEI
  6
Continuous
100
AcDbCircle
 10
-39.69188589841292
 20
3.188638046595542
 30
0.0
 40
1.0
100
AcDbArc
 50
229.0739366903989
 51
270.0
  0
ARC
  5
271
330
2
100
AcDbEntity
  8
GAIKEI
  6
Continuous
100
AcDbCircle
 10
-33.79612470923291
 20
9.988638046595525
 30
0.0
 40
10.0
100
AcDbArc
 50
130.9260633096011
 51
229.0739366903989
  0
SPLINE
  5
272
330
2
100
AcDbEntity
  8
GAIKEI
  6
Continuous
 62
     1
100
AcDbSpline
210
0.0
220
0.0
230
1.0
 70
     8
 71
     3
 72
    12
 73
     8
 74
     6
 42
0.0000000001
 43
0.0000000001
 44
0.0000000001
 12
0.0000000001040931
 22
1.0
 32
0.0
 13
-0.3420201433464278
 23
0.9396926207783527
 33
0.0
 40
0.0
 40
0.0
 40
0.0
 40
0.0
 40
0.0372962852021724
 40
0.0747568221926024
 40
0.1126692129765956
 40
0.1515436087801862
 40
0.192135617890835
 40
0.192135617890835
 40
0.192135617890835
 40
0.192135617890835
 10
-36.21612470923293
 20
-1.134278465904458
 30
0.0
 10
-36.21612470923164
 20
-1.121846370837062
 30
0.0
 10
-36.21717206559375
 20
-1.09691530864265
 30
0.0
 10
-36.22180833135914
 20
-1.059608991651657
 30
0.0
 10
-36.22934485231615
 20
-1.022246080102036
 30
0.0
 10
-36.23964247916231
 20
-0.9844738423632861
 30
0.0
 10
-36.2480961019014
 20
-0.9593542988590826
 30
0.0
 10
-36.25272386349298
 20
-0.9466396283844744
 30
0.0
 11
-36.21612470923293
 21
-1.134278465904458
 31
0.0
 11
-36.21767474773293
 21
-1.097014404524486
 31
0.0
 11
-36.22225178703298
 21
-1.059834537084469
 31
0.0
 11
-36.22968877013295
 21
-1.02265872966447
 31
0.0
 11
-36.23984646083295
 21
-0.9851348710044476
 31
0.0
 11
-36.25272386349298
 21
-0.9466396283844744
 31
0.0
  0
SPLINE
  5
273
330
2
100
AcDbEntity
  8
GAIKEI
  6
Continuous
 62
     1
100
AcDbSpline
210
0.0
220
0.0
230
1.0
 70
     8
 71
     3
 72
     8
 73
     4
 74
     2
 42
0.0000000001
 43
0.0000000001
 44
0.0000000001
 12
0.0
 22
1.0
 32
0.0
 13
0.0300669721321859
 23
0.999547886390043
 33
0.0
 40
0.0
 40
0.0
 40
0.0
 40
0.0
 40
0.0134264923934086
 40
0.0134264923934086
 40
0.0134264923934086
 40
0.0134264923934086
 10
-36.71612470923293
 20
-1.134278465904458
 30
0.0
 10
-36.71612470923293
 20
-1.129802968439989
 30
0.0
 10
-36.71605698471049
 20
-1.125326971515619
 30
0.0
 10
-36.71592242005295
 20
-1.120853497484461
 30
0.0
 11
-36.71612470923293
 21
-1.134278465904458
 31
0.0
 11
-36.71592242005295
 21
-1.120853497484461
 31
0.0
  0
SPLINE
  5
274
330
2
100
AcDbEntity
  8
GAIKEI
  6
Continuous
 62
     1
100
AcDbSpline
210
0.0
220
0.0
230
1.0
 70
     8
 71
     3
 72
    12
 73
     8
 74
     6
 42
0.0000000001
 43
0.0000000001
 44
0.0000000001
 12
0.030066971977876
 22
0.9995478863946846
 32
0.0
 13
0.3420201433636096
 23
0.9396926207720991
 33
0.0
 40
0.0
 40
0.0
 40
0.0
 40
0.0
 40
0.0238771602465138
 40
0.0613376972369439
 40
0.099250088020937
 40
0.1381244838245277
 40
0.1787164929351764
 40
0.1787164929351764
 40
0.1787164929351764
 40
0.1787164929351764
 10
-36.71592242005295
 20
-1.120853497484461
 30
0.0
 10
-36.71568311541694
 20
-1.112898042465289
 30
0.0
 10
-36.71452532213893
 20
-1.092474743178428
 30
0.0
 10
-36.71044103656661
 20
-1.059608129591026
 30
0.0
 10
-36.70290458016591
 20
-1.022246319610076
 30
0.0
 10
-36.69260693503817
 20
-0.9844737699225163
 30
0.0
 10
-36.68415331654474
 20
-0.9593542988590115
 30
0.0
 10
-36.67952555495293
 20
-0.9466396283844744
 30
0.0
 11
-36.71592242005295
 21
-1.120853497484461
 31
0.0
 11
-36.71457467071298
 21
-1.097014404524486
 31
0.0
 11
-36.70999763141293
 21
-1.059834537084469
 31
0.0
 11
-36.70256064831296
 21
-1.02265872966447
 31
0.0
 11
-36.69240295761296
 21
-0.9851348710044476
 31
0.0
 11
-36.67952555495293
 21
-0.9466396283844744
 31
0.0
  0
SPLINE
  5
275
330
2
100
AcDbEntity
  8
GAIKEI
  6
Continuous
 62
     1
100
AcDbSpline
210
0.0
220
0.0
230
1.0
 70
     8
 71
     3
 72
    12
 73
     8
 74
     6
 42
0.0000000001
 43
0.0000000001
 44
0.0000000001
 12
-0.3420201432687804
 22
0.9396926208066142
 32
0.0
 13
-0.0300669548236925
 23
0.9995478869106923
 33
0.0
 40
0.0
 40
0.0
 40
0.0
 40
0.0
 40
0.0405925472575979
 40
0.0794752534778257
 40
0.1173881033016305
 40
0.1548446123815492
 40
0.1787164880374435
 40
0.1787164880374435
 40
0.1787164880374435
 40
0.1787164880374435
 10
-36.67952555495293
 20
-1.321917303344463
 30
0.0
 10
-36.68415337789582
 20
-1.309202464305229
 30
0.0
 10
-36.6926079294181
 20
-1.284080194418493
 30
0.0
 10
-36.7029061309316
 20
-1.246304564449843
 30
0.0
 10
-36.71044226318034
 20
-1.208941072371828
 30
0.0
 10
-36.71452567160555
 20
-1.176077333252777
 30
0.0
 10
-36.71568316863731
 20
-1.155657132693931
 30
0.0
 10
-36.71592242017295
 20
-1.147703438404448
 30
0.0
 11
-36.67952555495293
 21
-1.321917303344463
 31
0.0
 11
-36.69240311401296
 21
-1.283421545584474
 31
0.0
 11
-36.70256268539294
 21
-1.245889586504461
 31
0.0
 11
-36.70999912537297
 21
-1.208713202304465
 31
0.0
 11
-36.71457510719296
 21
-1.171537263004466
 31
0.0
 11
-36.71592242017295
 21
-1.147703438404448
 31
0.0
  0
SPLINE
  5
276
330
2
100
AcDbEntity
  8
GAIKEI
  6
Continuous
 62
     1
100
AcDbSpline
210
0.0
220
0.0
230
1.0
 70
     8
 71
     3
 72
     8
 73
     4
 74
     2
 42
0.0000000001
 43
0.0000000001
 44
0.0000000001
 12
-0.030066954923589
 22
0.9995478869076872
 32
0.0
 13
0.0
 23
1.0
 33
0.0
 40
0.0
 40
0.0
 40
0.0
 40
0.0
 40
0.0134264964711308
 40
0.0134264964711308
 40
0.0134264964711308
 40
0.0134264964711308
 10
-36.71592242017295
 20
-1.147703438404448
 30
0.0
 10
-36.71605698479434
 20
-1.143229963012345
 30
0.0
 10
-36.71612470923293
 20
-1.138753964728167
 30
0.0
 10
-36.71612470923293
 20
-1.134278465904458
 30
0.0
 11
-36.71592242017295
 21
-1.147703438404448
 31
0.0
 11
-36.71612470923293
 21
-1.134278465904458
 31
0.0
  0
SPLINE
  5
277
330
2
100
AcDbEntity
  8
GAIKEI
  6
Continuous
 62
     1
100
AcDbSpline
210
0.0
220
0.0
230
1.0
 70
     8
 71
     3
 72
    12
 73
     8
 74
     6
 42
0.0000000001
 43
0.0000000001
 44
0.0000000001
 12
0.3420201433521754
 22
0.9396926207762607
 32
0.0
 13
0.0000000001040931
 23
1.0
 33
0.0
 40
0.0
 40
0.0
 40
0.0
 40
0.0
 40
0.0405925472575979
 40
0.0794752534778257
 40
0.1173881033016305
 40
0.1548446123815492
 40
0.1921356197125407
 40
0.1921356197125407
 40
0.1921356197125407
 40
0.1921356197125407
 10
-36.25272386349298
 20
-1.321917303344463
 30
0.0
 10
-36.24809604054895
 20
-1.309202464305641
 30
0.0
 10
-36.23964148478342
 20
-1.284080121974639
 30
0.0
 10
-36.22934330155073
 20
-1.246304803998413
 30
0.0
 10
-36.22180710475806
 20
-1.208940210407334
 30
0.0
 10
-36.21717178511929
 20
-1.171636757006908
 30
0.0
 10
-36.21612470923422
 20
-1.146708801681455
 30
0.0
 10
-36.21612470923293
 20
-1.134278465904458
 30
0.0
 11
-36.25272386349298
 21
-1.321917303344463
 31
0.0
 11
-36.23984630443294
 21
-1.283421545584474
 31
0.0
 11
-36.22968673305297
 21
-1.245889586504461
 31
0.0
 11
-36.22225029307293
 21
-1.208713202304465
 31
0.0
 11
-36.21767431125295
 21
-1.171537263004466
 31
0.0
 11
-36.21612470923293
 21
-1.134278465904458
 31
0.0
  0
SPLINE
  5
278
330
2
100
AcDbEntity
  8
GAIKEI
  6
Continuous
 62
     1
100
AcDbSpline
210
0.0
220
0.0
230
1.0
 70
     8
 71
     3
 72
    12
 73
     8
 74
     6
 42
0.0000000001
 43
0.0000000001
 44
0.0000000001
 12
0.3420201433220874
 22
0.939692620787212
 32
0.0
 13
0.0000000001040931
 23
1.0
 33
0.0
 40
0.0
 40
0.0
 40
0.0
 40
0.0
 40
0.0405925463848491
 40
0.0794752518155864
 40
0.1173881008509928
 40
0.1548446091317186
 40
0.1921356115985534
 40
0.1921356115985534
 40
0.1921356115985534
 40
0.1921356115985534
 10
-36.25272386349298
 20
-0.1960842784244505
 30
0.0
 10
-36.24809604064886
 20
-0.183369439658847
 30
0.0
 10
-36.23964148502079
 20
-0.1582470978662371
 30
0.0
 10
-36.22934330196276
 20
-0.1204717806931228
 30
0.0
 10
-36.22180710515299
 20
-0.0831071879095191
 30
0.0
 10
-36.21717178570392
 20
-0.0458037366729229
 30
0.0
 10
-36.21612470923422
 20
-0.020875783260081
 30
0.0
 10
-36.21612470923293
 20
-0.008445449104471
 30
0.0
 11
-36.25272386349298
 21
-0.1960842784244505
 31
0.0
 11
-36.23984630467294
 21
-0.157588521504465
 31
0.0
 11
-36.22968673343297
 21
-0.1200565632044572
 31
0.0
 11
-36.22225029347294
 21
-0.0828801798044765
 31
0.0
 11
-36.21767431153296
 21
-0.0457042413244722
 31
0.0
 11
-36.21612470923293
 21
-0.008445449104471
 31
0.0
  0
SPLINE
  5
279
330
2
100
AcDbEntity
  8
GAIKEI
  6
Continuous
 62
     1
100
AcDbSpline
210
0.0
220
0.0
230
1.0
 70
     8
 71
     3
 72
    12
 73
     8
 74
     6
 42
0.0000000001
 43
0.0000000001
 44
0.0000000001
 12
-0.3420201432687804
 22
0.9396926208066142
 32
0.0
 13
-0.0300669548236925
 23
0.9995478869106923
 33
0.0
 40
0.0
 40
0.0
 40
0.0
 40
0.0
 40
0.0405925472575979
 40
0.0794752534777983
 40
0.1173881033016031
 40
0.15484461238155
 40
0.1787164880374159
 40
0.1787164880374159
 40
0.1787164880374159
 40
0.1787164880374159
 10
-36.67952555495293
 20
-0.1960842784244505
 30
0.0
 10
-36.68415337789582
 20
-0.183369439385217
 30
0.0
 10
-36.6926079294181
 20
-0.1582471694984946
 30
0.0
 10
-36.7029061309316
 20
-0.1204715395298308
 30
0.0
 10
-36.71044226318035
 20
-0.0831080474518302
 30
0.0
 10
-36.71452567160554
 20
-0.0502443083328075
 30
0.0
 10
-36.71568316863731
 20
-0.0298241077739334
 30
0.0
 10
-36.71592242017295
 20
-0.0218704134844643
 30
0.0
 11
-36.67952555495293
 21
-0.1960842784244505
 31
0.0
 11
-36.69240311401296
 21
-0.1575885206644614
 31
0.0
 11
-36.70256268539294
 21
-0.1200565615844766
 31
0.0
 11
-36.70999912537297
 21
-0.0828801773844816
 31
0.0
 11
-36.71457510719296
 21
-0.0457042380844541
 31
0.0
 11
-36.71592242017295
 21
-0.0218704134844643
 31
0.0
  0
SPLINE
  5
27A
330
2
100
AcDbEntity
  8
GAIKEI
  6
Continuous
 62
     1
100
AcDbSpline
210
0.0
220
0.0
230
1.0
 70
     8
 71
     3
 72
     8
 73
     4
 74
     2
 42
0.0000000001
 43
0.0000000001
 44
0.0000000001
 12
-0.030066954923589
 22
0.9995478869076872
 32
0.0
 13
0.0
 23
1.0
 33
0.0
 40
0.0
 40
0.0
 40
0.0
 40
0.0
 40
0.0134264964711308
 40
0.0134264964711308
 40
0.0134264964711308
 40
0.0134264964711308
 10
-36.71592242017295
 20
-0.0218704134844643
 30
0.0
 10
-36.71605698479434
 20
-0.0173969380923609
 30
0.0
 10
-36.71612470923293
 20
-0.0129209398081827
 30
0.0
 10
-36.71612470923293
 20
-0.0084454409844739
 30
0.0
 11
-36.71592242017295
 21
-0.0218704134844643
 31
0.0
 11
-36.71612470923293
 21
-0.0084454409844739
 31
0.0
  0
SPLINE
  5
27B
330
2
100
AcDbEntity
  8
GAIKEI
  6
Continuous
 62
     1
100
AcDbSpline
210
0.0
220
0.0
230
1.0
 70
     8
 71
     3
 72
     8
 73
     4
 74
     2
 42
0.0000000001
 43
0.0000000001
 44
0.0000000001
 12
0.0
 22
1.0
 32
0.0
 13
0.0300669721321859
 23
0.999547886390043
 33
0.0
 40
0.0
 40
0.0
 40
0.0
 40
0.0
 40
0.0134264923934086
 40
0.0134264923934086
 40
0.0134264923934086
 40
0.0134264923934086
 10
-36.71612470923293
 20
-0.0084454409844739
 30
0.0
 10
-36.71612470923293
 20
-0.0039699435200049
 30
0.0
 10
-36.71605698471049
 20
0.000506053404365
 30
0.0
 10
-36.71592242005295
 20
0.0049795274355233
 30
0.0
 11
-36.71612470923293
 21
-0.0084454409844739
 31
0.0
 11
-36.71592242005295
 21
0.0049795274355233
 31
0.0
  0
SPLINE
  5
27C
330
2
100
AcDbEntity
  8
GAIKEI
  6
Continuous
 62
     1
100
AcDbSpline
210
0.0
220
0.0
230
1.0
 70
     8
 71
     3
 72
    12
 73
     8
 74
     6
 42
0.0000000001
 43
0.0000000001
 44
0.0000000001
 12
0.030066971977876
 22
0.9995478863946846
 32
0.0
 13
0.3420201433636096
 23
0.9396926207720991
 33
0.0
 40
0.0
 40
0.0
 40
0.0
 40
0.0
 40
0.0238771602465422
 40
0.0613376972369723
 40
0.0992500880209654
 40
0.1381244838245286
 40
0.1787164929352043
 40
0.1787164929352043
 40
0.1787164929352043
 40
0.1787164929352043
 10
-36.71592242005295
 20
0.0049795274355233
 30
0.0
 10
-36.71568311541694
 20
0.0129349824547092
 30
0.0
 10
-36.71452532213893
 20
0.0333582817415845
 30
0.0
 10
-36.71044103656661
 20
0.0662248953289861
 30
0.0
 10
-36.70290458016591
 20
0.1035867053099366
 30
0.0
 10
-36.69260693503816
 20
0.1413592549974965
 30
0.0
 10
-36.68415331654475
 20
0.1664787260610012
 30
0.0
 10
-36.67952555495293
 20
0.1791933965355383
 30
0.0
 11
-36.71592242005295
 21
0.0049795274355233
 31
0.0
 11
-36.71457467071298
 21
0.0288186203955263
 31
0.0
 11
-36.70999763141293
 21
0.0659984878355431
 31
0.0
 11
-36.70256064831296
 21
0.1031742952555419
 31
0.0
 11
-36.69240295761296
 21
0.1406981539155367
 31
0.0
 11
-36.67952555495293
 21
0.1791933965355383
 31
0.0
  0
SPLINE
  5
27D
330
2
100
AcDbEntity
  8
GAIKEI
  6
Continuous
 62
     1
100
AcDbSpline
210
0.0
220
0.0
230
1.0
 70
     8
 71
     3
 72
    12
 73
     8
 74
     6
 42
0.0000000001
 43
0.0000000001
 44
0.0000000001
 12
0.0000000001040931
 22
1.0
 32
0.0
 13
-0.3420201432845993
 23
0.9396926208008563
 33
0.0
 40
0.0
 40
0.0
 40
0.0
 40
0.0
 40
0.0372962900671886
 40
0.0747568278543565
 40
0.1126692194267179
 40
0.1515436160338566
 40
0.1921356260046534
 40
0.1921356260046534
 40
0.1921356260046534
 40
0.1921356260046534
 10
-36.21612470923293
 20
-0.008445449104471
 30
0.0
 10
-36.21612470923164
 20
0.0039866475845969
 30
0.0
 10
-36.21717206504698
 20
0.0289177116887203
 30
0.0
 10
-36.22180833095133
 20
0.0662240308488578
 30
0.0
 10
-36.22934485191936
 20
0.1035869432042915
 30
0.0
 10
-36.23964247888056
 20
0.1413591817630646
 30
0.0
 10
-36.24809610180417
 20
0.1664787257911939
 30
0.0
 10
-36.25272386349298
 20
0.1791933965355383
 30
0.0
 11
-36.21612470923293
 21
-0.008445449104471
 31
0.0
 11
-36.21767474747298
 21
0.0288186171555367
 31
0.0
 11
-36.22225178663297
 21
0.0659984854155482
 31
0.0
 11
-36.22968876975296
 21
0.1031742936355329
 31
0.0
 11
-36.23984646057295
 21
0.140698153095542
 31
0.0
 11
-36.25272386349298
 21
0.1791933965355383
 31
0.0
  0
SPLINE
  5
27E
330
2
100
AcDbEntity
  8
GAIKEI
  6
Continuous
 62
     1
100
AcDbSpline
210
0.0
220
0.0
230
1.0
 70
     8
 71
     3
 72
    12
 73
     8
 74
     6
 42
0.0000000001
 43
0.0000000001
 44
0.0000000001
 12
0.179044418050321
 22
0.9838409914030936
 32
0.0
 13
0.0000000000529718
 23
1.0
 33
0.0
 40
0.0
 40
0.0
 40
0.0
 40
0.0
 40
0.0780610337454738
 40
0.1538093585002794
 40
0.2285330816965931
 40
0.3030256414458359
 40
0.3775593459812652
 40
0.3775593459812652
 40
0.3775593459812652
 40
0.3775593459812652
 10
-36.25272386349298
 20
-0.9466396283844744
 30
0.0
 10
-36.24806506603986
 20
-0.92103974677444
 30
0.0
 10
-36.23956612939782
 20
-0.8704706019501742
 30
0.0
 10
-36.22929159426919
 20
-0.7949755895402291
 30
0.0
 10
-36.22178042523034
 20
-0.7203471905789201
 30
0.0
 10
-36.21716551821761
 20
-0.645888047756813
 30
0.0
 10
-36.21612470923424
 20
-0.5962065216829445
 30
0.0
 10
-36.21612470923293
 20
-0.5713619535044643
 30
0.0
 11
-36.25272386349298
 21
-0.9466396283844744
 31
0.0
 11
-36.23984630443294
 21
-0.8696481128644677
 31
0.0
 11
-36.22968673305297
 21
-0.794584194684461
 31
0.0
 11
-36.22225029307293
 21
-0.7202314262844709
 31
0.0
 11
-36.21767431125295
 21
-0.6458795477044533
 31
0.0
 11
-36.21612470923293
 21
-0.5713619535044643
 31
0.0
  0
SPLINE
  5
27F
330
2
100
AcDbEntity
  8
GAIKEI
  6
Continuous
 62
     1
100
AcDbSpline
210
0.0
220
0.0
230
1.0
 70
     8
 71
     3
 72
    12
 73
     8
 74
     6
 42
0.0000000001
 43
0.0000000001
 44
0.0000000001
 12
-0.179044418081683
 22
0.983840991397386
 32
0.0
 13
-0.0150420968766954
 23
0.9998868612605889
 33
0.0
 40
0.0
 40
0.0
 40
0.0
 40
0.0
 40
0.0780610337454738
 40
0.1538093585002794
 40
0.2285330816965931
 40
0.3030256414458359
 40
0.3506935774671164
 40
0.3506935774671164
 40
0.3506935774671164
 40
0.3506935774671164
 10
-36.67952555495293
 20
-0.9466396283844744
 30
0.0
 10
-36.68418435240687
 20
-0.9210397467745963
 30
0.0
 10
-36.69268328803558
 20
-0.8704706365052174
 30
0.0
 10
-36.70295782758711
 20
-0.7949754731095311
 30
0.0
 10
-36.7104689807428
 20
-0.7203476164104785
 30
0.0
 10
-36.71452982546376
 20
-0.6548270497755056
 30
0.0
 10
-36.71568332376246
 20
-0.6141181679148389
 30
0.0
 10
-36.71592233233298
 20
-0.5982306536044746
 30
0.0
 11
-36.67952555495293
 21
-0.9466396283844744
 31
0.0
 11
-36.69240311401296
 21
-0.8696481128644677
 31
0.0
 11
-36.70256268539294
 21
-0.794584194684461
 31
0.0
 11
-36.70999912537297
 21
-0.7202314262844709
 31
0.0
 11
-36.71457510719296
 21
-0.6458795477044533
 31
0.0
 11
-36.71592233233298
 21
-0.5982306536044746
 31
0.0
  0
SPLINE
  5
280
330
2
100
AcDbEntity
  8
GAIKEI
  6
Continuous
 62
     1
100
AcDbSpline
210
0.0
220
0.0
230
1.0
 70
     8
 71
     3
 72
     8
 73
     4
 74
     2
 42
0.0000000001
 43
0.0000000001
 44
0.0000000001
 12
-0.0150420965047539
 22
0.9998868612661842
 32
0.0
 13
0.0
 23
1.0
 33
0.0
 40
0.0
 40
0.0
 40
0.0
 40
0.0
 40
0.0268694622475763
 40
0.0268694622475763
 40
0.0268694622475763
 40
0.0268694622475763
 10
-36.71592233233298
 20
-0.5982306536044746
 30
0.0
 10
-36.71605705668104
 20
-0.5892751795142602
 30
0.0
 10
-36.71612470923293
 20
-0.5803184409203226
 30
0.0
 10
-36.71612470923293
 20
-0.5713619535044643
 30
0.0
 11
-36.71592233233298
 21
-0.5982306536044746
 31
0.0
 11
-36.71612470923293
 21
-0.5713619535044643
 31
0.0
  0
SPLINE
  5
281
330
2
100
AcDbEntity
  8
GAIKEI
  6
Continuous
 62
     1
100
AcDbSpline
210
0.0
220
0.0
230
1.0
 70
     8
 71
     3
 72
     8
 73
     4
 74
     2
 42
0.0000000001
 43
0.0000000001
 44
0.0000000001
 12
0.0
 22
1.0
 32
0.0
 13
0.0150421041535686
 23
0.999886861151117
 33
0.0
 40
0.0
 40
0.0
 40
0.0
 40
0.0
 40
0.0268694603885313
 40
0.0268694603885313
 40
0.0268694603885313
 40
0.0268694603885313
 10
-36.71612470923293
 20
-0.5713619535044643
 30
0.0
 10
-36.71612470923293
 20
-0.5624054667082845
 30
0.0
 10
-36.71605705662017
 20
-0.5534487287340255
 30
0.0
 10
-36.71592233221293
 20
-0.5444932552644559
 30
0.0
 11
-36.71612470923293
 21
-0.5713619535044643
 31
0.0
 11
-36.71592233221293
 21
-0.5444932552644559
 31
0.0
  0
SPLINE
  5
282
330
2
100
AcDbEntity
  8
GAIKEI
  6
Continuous
 62
     1
100
AcDbSpline
210
0.0
220
0.0
230
1.0
 70
     8
 71
     3
 72
    12
 73
     8
 74
     6
 42
0.0000000001
 43
0.0000000001
 44
0.0000000001
 12
0.0150421040907206
 22
0.9998868611520626
 32
0.0
 13
0.1790444180509368
 23
0.9838409914029815
 33
0.0
 40
0.0
 40
0.0
 40
0.0
 40
0.0
 40
0.0476784746075941
 40
0.1221789407419185
 40
0.1969015701586134
 40
0.2726335882110934
 40
0.3506935800112501
 40
0.3506935800112501
 40
0.3506935800112501
 40
0.3506935800112501
 10
-36.71592233221293
 20
-0.5444932552644559
 30
0.0
 10
-36.71568327068695
 20
-0.5286022284911525
 30
0.0
 10
-36.71452947834965
 20
-0.4878872010117732
 30
0.0
 10
-36.71046776234781
 20
-0.4223608886321415
 30
0.0
 10
-36.70295627051029
 20
-0.3477362486962221
 30
0.0
 10
-36.69268227627097
 20
-0.2722472236987414
 30
0.0
 10
-36.68418429022124
 20
-0.2216838183316412
 30
0.0
 10
-36.67952555495293
 20
-0.1960842784244505
 30
0.0
 11
-36.71592233221293
 21
-0.5444932552644559
 31
0.0
 11
-36.71457467071298
 21
-0.4968338307044747
 31
0.0
 11
-36.70999763141293
 21
-0.4224740958644589
 31
0.0
 11
-36.70256064831296
 21
-0.3481224810244612
 31
0.0
 11
-36.69240295761296
 21
-0.2730747636844626
 31
0.0
 11
-36.67952555495293
 21
-0.1960842784244505
 31
0.0
  0
SPLINE
  5
283
330
2
100
AcDbEntity
  8
GAIKEI
  6
Continuous
 62
     1
100
AcDbSpline
210
0.0
220
0.0
230
1.0
 70
     8
 71
     3
 72
    12
 73
     8
 74
     6
 42
0.0000000001
 43
0.0000000001
 44
0.0000000001
 12
0.0000000000529718
 22
1.0
 32
0.0
 13
-0.1790444180412725
 23
0.9838409914047401
 33
0.0
 40
0.0
 40
0.0
 40
0.0
 40
0.0
 40
0.074544239935114
 40
0.1490447060682092
 40
0.2237673354849041
 40
0.2994993535373841
 40
0.3775593453375408
 40
0.3775593453375408
 40
0.3775593453375408
 40
0.3775593453375408
 10
-36.21612470923293
 20
-0.5713619535044643
 30
0.0
 10
-36.21612470923162
 20
-0.5465138735260951
 30
0.0
 10
-36.21716579540061
 20
-0.4968261976828075
 30
0.0
 10
-36.22178164361287
 20
-0.4223613145088337
 30
0.0
 10
-36.22929315134841
 20
-0.3477361322857035
 30
0.0
 10
-36.23956714116183
 20
-0.2722472582523778
 30
0.0
 10
-36.24806512822492
 20
-0.2216838183316838
 30
0.0
 10
-36.25272386349298
 20
-0.1960842784244505
 30
0.0
 11
-36.21612470923293
 21
-0.5713619535044643
 31
0.0
 11
-36.21767474775294
 21
-0.4968338307044747
 31
0.0
 11
-36.22225178703298
 21
-0.4224740958644589
 31
0.0
 11
-36.22968877013295
 21
-0.3481224810244612
 31
0.0
 11
-36.23984646083295
 21
-0.2730747636844626
 31
0.0
 11
-36.25272386349298
 21
-0.1960842784244505
 31
0.0
  0
SPLINE
  5
284
330
2
100
AcDbEntity
  8
GAIKEI
  6
Continuous
 62
     1
100
AcDbSpline
210
0.0
220
0.0
230
1.0
 70
     8
 71
     3
 72
     9
 73
     5
 74
     3
 42
0.0000000001
 43
0.0000000001
 44
0.0000000001
 12
0.3399831319209427
 22
-0.9404315339296248
 32
0.0
 13
0.3399047194774524
 23
-0.9404598777603192
 33
0.0
 40
0.0
 40
0.0
 40
0.0
 40
0.0
 40
0.0060276985812631
 40
0.0120442596999672
 40
0.0120442596999672
 40
0.0120442596999672
 40
0.0120442596999672
 10
-28.27021908659293
 20
14.58863804659552
 30
0.0
 10
-28.26953598131229
 20
14.58674850065458
 30
0.0
 10
-28.26817110951243
 20
14.58297287242807
 30
0.0
 10
-28.2668063950727
 20
14.57919718732029
 30
0.0
 10
-28.26612470923294
 20
14.57731107587554
 30
0.0
 11
-28.27021908659293
 21
14.58863804659552
 31
0.0
 11
-28.26816988681293
 21
14.58296936681552
 31
0.0
 11
-28.26612470923294
 21
14.57731107587554
 31
0.0
  0
SPLINE
  5
285
330
2
100
AcDbEntity
  8
GAIKEI
  6
Continuous
 62
     1
100
AcDbSpline
210
0.0
220
0.0
230
1.0
 70
     8
 71
     3
 72
     9
 73
     5
 74
     3
 42
0.0000000001
 43
0.0000000001
 44
0.0000000001
 12
-0.3399047194774524
 22
-0.9404598777603192
 32
0.0
 13
-0.3399831319209427
 23
-0.9404315339296248
 33
0.0
 40
0.0
 40
0.0
 40
0.0
 40
0.0
 40
0.0060164146593151
 40
0.0120442596999936
 40
0.0120442596999936
 40
0.0120442596999936
 40
0.0120442596999936
 10
-28.26612470923294
 20
13.39996501731554
 30
0.0
 10
-28.26680637847862
 20
13.39807895178386
 30
0.0
 10
-28.26817109293248
 20
13.39430326668116
 30
0.0
 10
-28.26953596471438
 20
13.39052763844816
 30
0.0
 10
-28.27021908659293
 20
13.38863804659553
 30
0.0
 11
-28.26612470923294
 21
13.39996501731554
 31
0.0
 11
-28.26816983703293
 21
13.39430686411555
 31
0.0
 11
-28.27021908659293
 21
13.38863804659553
 31
0.0
  0
SPLINE
  5
286
330
2
100
AcDbEntity
  8
GAIKEI
  6
Continuous
 62
     1
100
AcDbSpline
210
0.0
220
0.0
230
1.0
 70
     8
 71
     3
 72
    11
 73
     7
 74
     5
 42
0.0000000001
 43
0.0000000001
 44
0.0000000001
 12
0.2056468718611044
 22
-0.9786262637461465
 32
0.0
 13
-0.2056468718611044
 23
-0.9786262637461465
 33
0.0
 40
0.0
 40
0.0
 40
0.0
 40
0.0
 40
0.1539644491531349
 40
0.3024513861020863
 40
0.4508122997923242
 40
0.604625533828412
 40
0.604625533828412
 40
0.604625533828412
 40
0.604625533828412
 10
-28.30252173265296
 20
13.98863804659552
 30
0.0
 10
-28.29196763020424
 20
13.93841349538736
 30
0.0
 10
-28.27493729047816
 20
13.83887726698123
 30
0.0
 10
-28.26568873126169
 20
13.68854084935388
 30
0.0
 10
-28.27495972860535
 20
13.53825724577174
 30
0.0
 10
-28.29197799584284
 20
13.43881327010868
 30
0.0
 10
-28.30252173265296
 20
13.38863804659553
 30
0.0
 11
-28.30252173265296
 21
13.98863804659552
 31
0.0
 11
-28.27743414171294
 21
13.83673128445554
 31
0.0
 11
-28.26873790573296
 21
13.68849921665554
 31
0.0
 11
-28.27745147513292
 21
13.54039440775551
 31
0.0
 11
-28.30252173265296
 21
13.38863804659553
 31
0.0
  0
SPLINE
  5
287
330
2
100
AcDbEntity
  8
GAIKEI
  6
Continuous
 62
     1
100
AcDbSpline
210
0.0
220
0.0
230
1.0
 70
     8
 71
     3
 72
    12
 73
     8
 74
     6
 42
0.0000000001
 43
0.0000000001
 44
0.0000000001
 12
0.419313934695547
 22
0.9078412990000723
 32
0.0
 13
-0.419313934695547
 23
0.9078412990000723
 33
0.0
 40
0.0
 40
0.0
 40
0.0
 40
0.0
 40
0.1329273168318638
 40
0.2530696879727163
 40
0.3692368894527078
 40
0.4893787305772839
 40
0.6223061172382095
 40
0.6223061172382095
 40
0.6223061172382095
 40
0.6223061172382095
 10
-28.82038096765297
 20
13.38863804659553
 30
0.0
 10
-28.80180154223653
 20
13.4288636825906
 30
0.0
 10
-28.77067684418789
 20
13.50762665737137
 30
0.0
 10
-28.74516917559425
 20
13.62877543729438
 30
0.0
 10
-28.7451692269607
 20
13.74850094114251
 30
0.0
 10
-28.77067689343872
 20
13.86964955538116
 30
0.0
 10
-28.80180153247644
 20
13.94841238946921
 30
0.0
 10
-28.82038096765297
 20
13.98863804659552
 30
0.0
 11
-28.82038096765297
 21
13.38863804659553
 31
0.0
 11
-28.77286826803294
 21
13.51278398867555
 31
0.0
 11
-28.74911422449293
 21
13.63055467585553
 31
0.0
 11
-28.74911427169298
 21
13.74672187733551
 31
0.0
 11
-28.77286824815292
 21
13.86449203735554
 31
0.0
 11
-28.82038096765297
 21
13.98863804659552
 31
0.0
  0
SPLINE
  5
288
330
2
100
AcDbEntity
  8
GAIKEI
  6
Continuous
 62
     1
100
AcDbSpline
210
0.0
220
0.0
230
1.0
 70
     8
 71
     3
 72
    11
 73
     7
 74
     5
 42
0.0000000001
 43
0.0000000001
 44
0.0000000001
 12
0.2056468718611044
 22
-0.9786262637461465
 32
0.0
 13
-0.2056468718611044
 23
-0.9786262637461465
 33
0.0
 40
0.0
 40
0.0
 40
0.0
 40
0.0
 40
0.1539644491531349
 40
0.3024513861020863
 40
0.4508122997922958
 40
0.6046255338284116
 40
0.6046255338284116
 40
0.6046255338284116
 40
0.6046255338284116
 10
-28.30252173265296
 20
14.58863804659552
 30
0.0
 10
-28.29196763020424
 20
14.53841349538736
 30
0.0
 10
-28.27493729047816
 20
14.43887726698125
 30
0.0
 10
-28.26568873126169
 20
14.28854084935388
 30
0.0
 10
-28.27495972860535
 20
14.13825724577175
 30
0.0
 10
-28.29197799584284
 20
14.03881327010869
 30
0.0
 10
-28.30252173265296
 20
13.98863804659552
 30
0.0
 11
-28.30252173265296
 21
14.58863804659552
 31
0.0
 11
-28.27743414171294
 21
14.43673128445553
 31
0.0
 11
-28.26873790573296
 21
14.28849921665554
 31
0.0
 11
-28.27745147513292
 21
14.14039440775553
 31
0.0
 11
-28.30252173265296
 21
13.98863804659552
 31
0.0
  0
SPLINE
  5
289
330
2
100
AcDbEntity
  8
GAIKEI
  6
Continuous
 62
     1
100
AcDbSpline
210
0.0
220
0.0
230
1.0
 70
     8
 71
     3
 72
    12
 73
     8
 74
     6
 42
0.0000000001
 43
0.0000000001
 44
0.0000000001
 12
0.419313934695547
 22
0.9078412990000723
 32
0.0
 13
-0.419313934695547
 23
0.9078412990000723
 33
0.0
 40
0.0
 40
0.0
 40
0.0
 40
0.0
 40
0.1329273168318372
 40
0.2530696879727175
 40
0.3692368894527375
 40
0.4893787305772858
 40
0.6223061172382114
 40
0.6223061172382114
 40
0.6223061172382114
 40
0.6223061172382114
 10
-28.82038096765297
 20
13.98863804659552
 30
0.0
 10
-28.80180154223654
 20
14.0288636825906
 30
0.0
 10
-28.77067684418788
 20
14.10762665737133
 30
0.0
 10
-28.74516917559425
 20
14.22877543729437
 30
0.0
 10
-28.7451692269607
 20
14.3485009411425
 30
0.0
 10
-28.77067689343873
 20
14.46964955538116
 30
0.0
 10
-28.80180153247644
 20
14.5484123894692
 30
0.0
 10
-28.82038096765297
 20
14.58863804659552
 30
0.0
 11
-28.82038096765297
 21
13.98863804659552
 31
0.0
 11
-28.77286826803294
 21
14.11278398867551
 31
0.0
 11
-28.74911422449293
 21
14.23055467585553
 31
0.0
 11
-28.74911427169298
 21
14.34672187733554
 31
0.0
 11
-28.77286824815292
 21
14.46449203735554
 31
0.0
 11
-28.82038096765297
 21
14.58863804659552
 31
0.0
  0
SPLINE
  5
28A
330
2
100
AcDbEntity
  8
GAIKEI
  6
Continuous
 62
     1
100
AcDbSpline
210
0.0
220
0.0
230
1.0
 70
     8
 71
     3
 72
     9
 73
     5
 74
     3
 42
0.0000000001
 43
0.0000000001
 44
0.0000000001
 12
0.3399831319209427
 22
-0.9404315339296248
 32
0.0
 13
0.3399047194774524
 23
-0.9404598777603192
 33
0.0
 40
0.0
 40
0.0
 40
0.0
 40
0.0
 40
0.0060276985812631
 40
0.0120442596999672
 40
0.0120442596999672
 40
0.0120442596999672
 40
0.0120442596999672
 10
-28.27021908659293
 20
8.088638046595519
 30
0.0
 10
-28.26953598131229
 20
8.086748500654579
 30
0.0
 10
-28.26817110951243
 20
8.082972872428086
 30
0.0
 10
-28.2668063950727
 20
8.079197187320289
 30
0.0
 10
-28.26612470923294
 20
8.077311075875542
 30
0.0
 11
-28.27021908659293
 21
8.088638046595519
 31
0.0
 11
-28.26816988681293
 21
8.082969366815518
 31
0.0
 11
-28.26612470923294
 21
8.077311075875542
 31
0.0
  0
SPLINE
  5
28B
330
2
100
AcDbEntity
  8
GAIKEI
  6
Continuous
 62
     1
100
AcDbSpline
210
0.0
220
0.0
230
1.0
 70
     8
 71
     3
 72
     9
 73
     5
 74
     3
 42
0.0000000001
 43
0.0000000001
 44
0.0000000001
 12
-0.3399047194774524
 22
-0.9404598777603192
 32
0.0
 13
-0.3399831319209427
 23
-0.9404315339296248
 33
0.0
 40
0.0
 40
0.0
 40
0.0
 40
0.0
 40
0.0060164146593151
 40
0.0120442596999936
 40
0.0120442596999936
 40
0.0120442596999936
 40
0.0120442596999936
 10
-28.26612470923294
 20
6.899965017315537
 30
0.0
 10
-28.26680637847862
 20
6.898078951783858
 30
0.0
 10
-28.26817109293248
 20
6.894303266681163
 30
0.0
 10
-28.26953596471438
 20
6.890527638448162
 30
0.0
 10
-28.27021908659293
 20
6.888638046595531
 30
0.0
 11
-28.26612470923294
 21
6.899965017315537
 31
0.0
 11
-28.26816983703293
 21
6.894306864115549
 31
0.0
 11
-28.27021908659293
 21
6.888638046595531
 31
0.0
  0
SPLINE
  5
28C
330
2
100
AcDbEntity
  8
GAIKEI
  6
Continuous
 62
     1
100
AcDbSpline
210
0.0
220
0.0
230
1.0
 70
     8
 71
     3
 72
    11
 73
     7
 74
     5
 42
0.0000000001
 43
0.0000000001
 44
0.0000000001
 12
0.2056468718611044
 22
-0.9786262637461465
 32
0.0
 13
-0.2056468718611044
 23
-0.9786262637461465
 33
0.0
 40
0.0
 40
0.0
 40
0.0
 40
0.0
 40
0.1539644491531349
 40
0.3024513861020863
 40
0.4508122997923242
 40
0.604625533828412
 40
0.604625533828412
 40
0.604625533828412
 40
0.604625533828412
 10
-28.30252173265296
 20
7.488638046595525
 30
0.0
 10
-28.29196763020424
 20
7.438413495387365
 30
0.0
 10
-28.27493729047816
 20
7.338877266981228
 30
0.0
 10
-28.26568873126169
 20
7.188540849353884
 30
0.0
 10
-28.27495972860535
 20
7.03825724577176
 30
0.0
 10
-28.29197799584284
 20
6.938813270108681
 30
0.0
 10
-28.30252173265296
 20
6.888638046595531
 30
0.0
 11
-28.30252173265296
 21
7.488638046595525
 31
0.0
 11
-28.27743414171294
 21
7.336731284455538
 31
0.0
 11
-28.26873790573296
 21
7.188499216655543
 31
0.0
 11
-28.27745147513292
 21
7.040394407755513
 31
0.0
 11
-28.30252173265296
 21
6.888638046595531
 31
0.0
  0
SPLINE
  5
28D
330
2
100
AcDbEntity
  8
GAIKEI
  6
Continuous
 62
     1
100
AcDbSpline
210
0.0
220
0.0
230
1.0
 70
     8
 71
     3
 72
    12
 73
     8
 74
     6
 42
0.0000000001
 43
0.0000000001
 44
0.0000000001
 12
0.419313934695547
 22
0.9078412990000723
 32
0.0
 13
-0.419313934695547
 23
0.9078412990000723
 33
0.0
 40
0.0
 40
0.0
 40
0.0
 40
0.0
 40
0.1329273168318638
 40
0.2530696879727163
 40
0.3692368894527078
 40
0.4893787305772839
 40
0.6223061172382095
 40
0.6223061172382095
 40
0.6223061172382095
 40
0.6223061172382095
 10
-28.82038096765297
 20
6.888638046595531
 30
0.0
 10
-28.80180154223653
 20
6.928863682590602
 30
0.0
 10
-28.77067684418789
 20
7.007626657371375
 30
0.0
 10
-28.74516917559425
 20
7.128775437294379
 30
0.0
 10
-28.7451692269607
 20
7.248500941142509
 30
0.0
 10
-28.77067689343872
 20
7.369649555381158
 30
0.0
 10
-28.80180153247644
 20
7.448412389469211
 30
0.0
 10
-28.82038096765297
 20
7.488638046595525
 30
0.0
 11
-28.82038096765297
 21
6.888638046595531
 31
0.0
 11
-28.77286826803294
 21
7.01278398867555
 31
0.0
 11
-28.74911422449293
 21
7.130554675855535
 31
0.0
 11
-28.74911427169298
 21
7.246721877335517
 31
0.0
 11
-28.77286824815292
 21
7.364492037355546
 31
0.0
 11
-28.82038096765297
 21
7.488638046595525
 31
0.0
  0
SPLINE
  5
28E
330
2
100
AcDbEntity
  8
GAIKEI
  6
Continuous
 62
     1
100
AcDbSpline
210
0.0
220
0.0
230
1.0
 70
     8
 71
     3
 72
    11
 73
     7
 74
     5
 42
0.0000000001
 43
0.0000000001
 44
0.0000000001
 12
0.2056468718611044
 22
-0.9786262637461465
 32
0.0
 13
-0.2056468718611044
 23
-0.9786262637461465
 33
0.0
 40
0.0
 40
0.0
 40
0.0
 40
0.0
 40
0.1539644491531349
 40
0.3024513861020863
 40
0.4508122997922958
 40
0.6046255338284116
 40
0.6046255338284116
 40
0.6046255338284116
 40
0.6046255338284116
 10
-28.30252173265296
 20
8.088638046595519
 30
0.0
 10
-28.29196763020424
 20
8.038413495387359
 30
0.0
 10
-28.27493729047816
 20
7.938877266981236
 30
0.0
 10
-28.26568873126169
 20
7.788540849353864
 30
0.0
 10
-28.27495972860535
 20
7.638257245771768
 30
0.0
 10
-28.29197799584284
 20
7.53881327010869
 30
0.0
 10
-28.30252173265296
 20
7.488638046595525
 30
0.0
 11
-28.30252173265296
 21
8.088638046595519
 31
0.0
 11
-28.27743414171294
 21
7.936731284455532
 31
0.0
 11
-28.26873790573296
 21
7.788499216655537
 31
0.0
 11
-28.27745147513292
 21
7.640394407755536
 31
0.0
 11
-28.30252173265296
 21
7.488638046595525
 31
0.0
  0
SPLINE
  5
28F
330
2
100
AcDbEntity
  8
GAIKEI
  6
Continuous
 62
     1
100
AcDbSpline
210
0.0
220
0.0
230
1.0
 70
     8
 71
     3
 72
    12
 73
     8
 74
     6
 42
0.0000000001
 43
0.0000000001
 44
0.0000000001
 12
0.419313934695547
 22
0.9078412990000723
 32
0.0
 13
-0.419313934695547
 23
0.9078412990000723
 33
0.0
 40
0.0
 40
0.0
 40
0.0
 40
0.0
 40
0.1329273168318372
 40
0.2530696879727175
 40
0.3692368894527375
 40
0.4893787305772858
 40
0.6223061172382114
 40
0.6223061172382114
 40
0.6223061172382114
 40
0.6223061172382114
 10
-28.82038096765297
 20
7.488638046595525
 30
0.0
 10
-28.80180154223654
 20
7.528863682590596
 30
0.0
 10
-28.77067684418788
 20
7.607626657371341
 30
0.0
 10
-28.74516917559425
 20
7.728775437294373
 30
0.0
 10
-28.7451692269607
 20
7.848500941142503
 30
0.0
 10
-28.77067689343873
 20
7.969649555381167
 30
0.0
 10
-28.80180153247644
 20
8.048412389469206
 30
0.0
 10
-28.82038096765297
 20
8.088638046595519
 30
0.0
 11
-28.82038096765297
 21
7.488638046595525
 31
0.0
 11
-28.77286826803294
 21
7.612783988675516
 31
0.0
 11
-28.74911422449293
 21
7.730554675855529
 31
0.0
 11
-28.74911427169298
 21
7.846721877335539
 31
0.0
 11
-28.77286824815292
 21
7.96449203735554
 31
0.0
 11
-28.82038096765297
 21
8.088638046595519
 31
0.0
  0
SPLINE
  5
290
330
2
100
AcDbEntity
  8
GAIKEI
  6
Continuous
 62
     1
100
AcDbSpline
210
0.0
220
0.0
230
1.0
 70
     8
 71
     3
 72
     9
 73
     5
 74
     3
 42
0.0000000001
 43
0.0000000001
 44
0.0000000001
 12
-0.3399831319209427
 22
0.9404315339296248
 32
0.0
 13
-0.3399047194774524
 23
0.9404598777603192
 33
0.0
 40
0.0
 40
0.0
 40
0.0
 40
0.0
 40
0.0060276986000802
 40
0.0120442597067951
 40
0.0120442597067951
 40
0.0120442597067951
 40
0.0120442597067951
 10
-39.32203033185294
 20
6.888638046595531
 30
0.0
 10
-39.32271343713572
 20
6.890527592542383
 30
0.0
 10
-39.32407830891469
 20
6.894303220778809
 30
0.0
 10
-39.32544302339454
 20
6.898078905874555
 30
0.0
 10
-39.32612470923294
 20
6.899965017315537
 30
0.0
 11
-39.32203033185294
 21
6.888638046595531
 31
0.0
 11
-39.32407953163295
 21
6.894306726395541
 31
0.0
 11
-39.32612470923294
 21
6.899965017315537
 31
0.0
  0
SPLINE
  5
291
330
2
100
AcDbEntity
  8
GAIKEI
  6
Continuous
 62
     1
100
AcDbSpline
210
0.0
220
0.0
230
1.0
 70
     8
 71
     3
 72
     9
 73
     5
 74
     3
 42
0.0000000001
 43
0.0000000001
 44
0.0000000001
 12
0.3399047194774524
 22
0.9404598777603192
 32
0.0
 13
0.3399831319209427
 23
0.9404315339296248
 33
0.0
 40
0.0
 40
0.0
 40
0.0
 40
0.0
 40
0.0060164146661166
 40
0.0120442597067683
 40
0.0120442597067683
 40
0.0120442597067683
 40
0.0120442597067683
 10
-39.32612470923294
 20
8.077311075875542
 30
0.0
 10
-39.3254430399865
 20
8.079197141409352
 30
0.0
 10
-39.32407832550529
 20
8.082972826504615
 30
0.0
 10
-39.3227134537315
 20
8.086748454742902
 30
0.0
 10
-39.32203033185294
 20
8.088638046595519
 30
0.0
 11
-39.32612470923294
 21
8.077311075875542
 31
0.0
 11
-39.32407958141295
 21
8.08296922907553
 31
0.0
 11
-39.32203033185294
 21
8.088638046595519
 31
0.0
  0
SPLINE
  5
292
330
2
100
AcDbEntity
  8
GAIKEI
  6
Continuous
 62
     1
100
AcDbSpline
210
0.0
220
0.0
230
1.0
 70
     8
 71
     3
 72
    11
 73
     7
 74
     5
 42
0.0000000001
 43
0.0000000001
 44
0.0000000001
 12
-0.2056468718611044
 22
0.9786262637461465
 32
0.0
 13
0.2056468718611044
 23
0.9786262637461465
 33
0.0
 40
0.0
 40
0.0
 40
0.0
 40
0.0
 40
0.1539644491728671
 40
0.3024513861218219
 40
0.4508122997920888
 40
0.6046255338281672
 40
0.6046255338281672
 40
0.6046255338281672
 40
0.6046255338281672
 10
-39.28972768579297
 20
7.488638046595525
 30
0.0
 10
-39.30028178824304
 20
7.538862597810123
 30
0.0
 10
-39.31731212796546
 20
7.638398826223493
 30
0.0
 10
-39.32656068718499
 20
7.788735243850481
 30
0.0
 10
-39.317289689839
 20
7.93901884742587
 30
0.0
 10
-39.30027142260309
 20
8.038462823082369
 30
0.0
 10
-39.28972768579297
 20
8.088638046595519
 30
0.0
 11
-39.28972768579297
 21
7.488638046595525
 31
0.0
 11
-39.31481527673293
 21
7.640544808755521
 31
0.0
 11
-39.32351151271297
 21
7.788776876555516
 31
0.0
 11
-39.31479794331295
 21
7.936881685435537
 31
0.0
 11
-39.28972768579297
 21
8.088638046595519
 31
0.0
  0
SPLINE
  5
293
330
2
100
AcDbEntity
  8
GAIKEI
  6
Continuous
 62
     1
100
AcDbSpline
210
0.0
220
0.0
230
1.0
 70
     8
 71
     3
 72
    12
 73
     8
 74
     6
 42
0.0000000001
 43
0.0000000001
 44
0.0000000001
 12
-0.419313934695547
 22
-0.9078412990000723
 32
0.0
 13
0.419313934695547
 23
-0.9078412990000723
 33
0.0
 40
0.0
 40
0.0
 40
0.0
 40
0.0
 40
0.1329273168318169
 40
0.2530696879726972
 40
0.3692368894526888
 40
0.4893787305772482
 40
0.6223061172381801
 40
0.6223061172381801
 40
0.6223061172381801
 40
0.6223061172381801
 10
-38.77186845079297
 20
8.088638046595519
 30
0.0
 10
-38.79044787620939
 20
8.048412410600462
 30
0.0
 10
-38.82157257425799
 20
7.969649435819675
 30
0.0
 10
-38.8470802428516
 20
7.848500655896685
 30
0.0
 10
-38.84708019148528
 20
7.728775152048541
 30
0.0
 10
-38.82157252500709
 20
7.607626537809935
 30
0.0
 10
-38.7904478859695
 20
7.528863703721839
 30
0.0
 10
-38.77186845079297
 20
7.488638046595525
 30
0.0
 11
-38.77186845079297
 21
8.088638046595519
 31
0.0
 11
-38.81938115041294
 21
7.964492104515528
 31
0.0
 11
-38.84313519395295
 21
7.846721417335515
 31
0.0
 11
-38.84313514675296
 21
7.730554215855534
 31
0.0
 11
-38.81938117029296
 21
7.612784055835533
 31
0.0
 11
-38.77186845079297
 21
7.488638046595525
 31
0.0
  0
SPLINE
  5
294
330
2
100
AcDbEntity
  8
GAIKEI
  6
Continuous
 62
     1
100
AcDbSpline
210
0.0
220
0.0
230
1.0
 70
     8
 71
     3
 72
    11
 73
     7
 74
     5
 42
0.0000000001
 43
0.0000000001
 44
0.0000000001
 12
-0.2056468718611044
 22
0.9786262637461465
 32
0.0
 13
0.2056468718611044
 23
0.9786262637461465
 33
0.0
 40
0.0
 40
0.0
 40
0.0
 40
0.0
 40
0.1539644491728671
 40
0.3024513861218502
 40
0.4508122997920604
 40
0.6046255338281668
 40
0.6046255338281668
 40
0.6046255338281668
 40
0.6046255338281668
 10
-39.28972768579297
 20
6.888638046595531
 30
0.0
 10
-39.30028178824304
 20
6.938862597810128
 30
0.0
 10
-39.31731212796546
 20
7.038398826223513
 30
0.0
 10
-39.32656068718499
 20
7.188735243850473
 30
0.0
 10
-39.31728968983899
 20
7.339018847425904
 30
0.0
 10
-39.30027142260309
 20
7.438462823082375
 30
0.0
 10
-39.28972768579297
 20
7.488638046595525
 30
0.0
 11
-39.28972768579297
 21
6.888638046595531
 31
0.0
 11
-39.31481527673293
 21
7.040544808755527
 31
0.0
 11
-39.32351151271297
 21
7.18877687655555
 31
0.0
 11
-39.31479794331295
 21
7.336881685435514
 31
0.0
 11
-39.28972768579297
 21
7.488638046595525
 31
0.0
  0
SPLINE
  5
295
330
2
100
AcDbEntity
  8
GAIKEI
  6
Continuous
 62
     1
100
AcDbSpline
210
0.0
220
0.0
230
1.0
 70
     8
 71
     3
 72
    12
 73
     8
 74
     6
 42
0.0000000001
 43
0.0000000001
 44
0.0000000001
 12
-0.419313934695547
 22
-0.9078412990000723
 32
0.0
 13
0.419313934695547
 23
-0.9078412990000723
 33
0.0
 40
0.0
 40
0.0
 40
0.0
 40
0.0
 40
0.1329273168318169
 40
0.2530696879726694
 40
0.3692368894526893
 40
0.4893787305772487
 40
0.6223061172381807
 40
0.6223061172381807
 40
0.6223061172381807
 40
0.6223061172381807
 10
-38.77186845079297
 20
7.488638046595525
 30
0.0
 10
-38.79044787620939
 20
7.448412410600468
 30
0.0
 10
-38.82157257425798
 20
7.369649435819681
 30
0.0
 10
-38.8470802428516
 20
7.248500655896691
 30
0.0
 10
-38.84708019148528
 20
7.128775152048575
 30
0.0
 10
-38.82157252500709
 20
7.00762653780994
 30
0.0
 10
-38.7904478859695
 20
6.928863703721845
 30
0.0
 10
-38.77186845079297
 20
6.888638046595531
 30
0.0
 11
-38.77186845079297
 21
7.488638046595525
 31
0.0
 11
-38.81938115041294
 21
7.364492104515534
 31
0.0
 11
-38.84313519395295
 21
7.24672141733555
 31
0.0
 11
-38.84313514675296
 21
7.130554215855539
 31
0.0
 11
-38.81938117029296
 21
7.012784055835538
 31
0.0
 11
-38.77186845079297
 21
6.888638046595531
 31
0.0
  0
SPLINE
  5
296
330
2
100
AcDbEntity
  8
GAIKEI
  6
Continuous
 62
     1
100
AcDbSpline
210
0.0
220
0.0
230
1.0
 70
     8
 71
     3
 72
     9
 73
     5
 74
     3
 42
0.0000000001
 43
0.0000000001
 44
0.0000000001
 12
-0.3399831319209427
 22
0.9404315339296248
 32
0.0
 13
-0.3399047194774524
 23
0.9404598777603192
 33
0.0
 40
0.0
 40
0.0
 40
0.0
 40
0.0
 40
0.0060276986000802
 40
0.0120442597067951
 40
0.0120442597067951
 40
0.0120442597067951
 40
0.0120442597067951
 10
-39.32203033185294
 20
13.38863804659553
 30
0.0
 10
-39.32271343713572
 20
13.39052759254238
 30
0.0
 10
-39.32407830891469
 20
13.39430322077882
 30
0.0
 10
-39.32544302339454
 20
13.39807890587455
 30
0.0
 10
-39.32612470923294
 20
13.39996501731554
 30
0.0
 11
-39.32203033185294
 21
13.38863804659553
 31
0.0
 11
-39.32407953163295
 21
13.39430672639554
 31
0.0
 11
-39.32612470923294
 21
13.39996501731554
 31
0.0
  0
SPLINE
  5
297
330
2
100
AcDbEntity
  8
GAIKEI
  6
Continuous
 62
     1
100
AcDbSpline
210
0.0
220
0.0
230
1.0
 70
     8
 71
     3
 72
     9
 73
     5
 74
     3
 42
0.0000000001
 43
0.0000000001
 44
0.0000000001
 12
0.3399047194774524
 22
0.9404598777603192
 32
0.0
 13
0.3399831319209427
 23
0.9404315339296248
 33
0.0
 40
0.0
 40
0.0
 40
0.0
 40
0.0
 40
0.0060164146661166
 40
0.0120442597067683
 40
0.0120442597067683
 40
0.0120442597067683
 40
0.0120442597067683
 10
-39.32612470923294
 20
14.57731107587554
 30
0.0
 10
-39.3254430399865
 20
14.57919714140935
 30
0.0
 10
-39.32407832550529
 20
14.58297282650461
 30
0.0
 10
-39.3227134537315
 20
14.5867484547429
 30
0.0
 10
-39.32203033185294
 20
14.58863804659552
 30
0.0
 11
-39.32612470923294
 21
14.57731107587554
 31
0.0
 11
-39.32407958141295
 21
14.58296922907553
 31
0.0
 11
-39.32203033185294
 21
14.58863804659552
 31
0.0
  0
SPLINE
  5
298
330
2
100
AcDbEntity
  8
GAIKEI
  6
Continuous
 62
     1
100
AcDbSpline
210
0.0
220
0.0
230
1.0
 70
     8
 71
     3
 72
    11
 73
     7
 74
     5
 42
0.0000000001
 43
0.0000000001
 44
0.0000000001
 12
-0.2056468718611044
 22
0.9786262637461465
 32
0.0
 13
0.2056468718611044
 23
0.9786262637461465
 33
0.0
 40
0.0
 40
0.0
 40
0.0
 40
0.0
 40
0.1539644491728671
 40
0.3024513861218219
 40
0.4508122997920888
 40
0.6046255338281672
 40
0.6046255338281672
 40
0.6046255338281672
 40
0.6046255338281672
 10
-39.28972768579297
 20
13.98863804659552
 30
0.0
 10
-39.30028178824304
 20
14.03886259781012
 30
0.0
 10
-39.31731212796546
 20
14.13839882622349
 30
0.0
 10
-39.32656068718499
 20
14.28873524385048
 30
0.0
 10
-39.317289689839
 20
14.43901884742586
 30
0.0
 10
-39.30027142260309
 20
14.53846282308237
 30
0.0
 10
-39.28972768579297
 20
14.58863804659552
 30
0.0
 11
-39.28972768579297
 21
13.98863804659552
 31
0.0
 11
-39.31481527673293
 21
14.14054480875552
 31
0.0
 11
-39.32351151271297
 21
14.28877687655552
 31
0.0
 11
-39.31479794331295
 21
14.43688168543554
 31
0.0
 11
-39.28972768579297
 21
14.58863804659552
 31
0.0
  0
SPLINE
  5
299
330
2
100
AcDbEntity
  8
GAIKEI
  6
Continuous
 62
     1
100
AcDbSpline
210
0.0
220
0.0
230
1.0
 70
     8
 71
     3
 72
    12
 73
     8
 74
     6
 42
0.0000000001
 43
0.0000000001
 44
0.0000000001
 12
-0.419313934695547
 22
-0.9078412990000723
 32
0.0
 13
0.419313934695547
 23
-0.9078412990000723
 33
0.0
 40
0.0
 40
0.0
 40
0.0
 40
0.0
 40
0.1329273168318169
 40
0.2530696879726972
 40
0.3692368894526888
 40
0.4893787305772482
 40
0.6223061172381801
 40
0.6223061172381801
 40
0.6223061172381801
 40
0.6223061172381801
 10
-38.77186845079297
 20
14.58863804659552
 30
0.0
 10
-38.79044787620939
 20
14.54841241060046
 30
0.0
 10
-38.82157257425799
 20
14.46964943581967
 30
0.0
 10
-38.8470802428516
 20
14.34850065589668
 30
0.0
 10
-38.84708019148528
 20
14.22877515204852
 30
0.0
 10
-38.82157252500709
 20
14.10762653780995
 30
0.0
 10
-38.7904478859695
 20
14.02886370372184
 30
0.0
 10
-38.77186845079297
 20
13.98863804659552
 30
0.0
 11
-38.77186845079297
 21
14.58863804659552
 31
0.0
 11
-38.81938115041294
 21
14.46449210451553
 31
0.0
 11
-38.84313519395295
 21
14.34672141733551
 31
0.0
 11
-38.84313514675296
 21
14.23055421585553
 31
0.0
 11
-38.81938117029296
 21
14.11278405583553
 31
0.0
 11
-38.77186845079297
 21
13.98863804659552
 31
0.0
  0
SPLINE
  5
29A
330
2
100
AcDbEntity
  8
GAIKEI
  6
Continuous
 62
     1
100
AcDbSpline
210
0.0
220
0.0
230
1.0
 70
     8
 71
     3
 72
    11
 73
     7
 74
     5
 42
0.0000000001
 43
0.0000000001
 44
0.0000000001
 12
-0.2056468718611044
 22
0.9786262637461465
 32
0.0
 13
0.2056468718611044
 23
0.9786262637461465
 33
0.0
 40
0.0
 40
0.0
 40
0.0
 40
0.0
 40
0.1539644491728671
 40
0.3024513861218502
 40
0.4508122997920604
 40
0.6046255338281668
 40
0.6046255338281668
 40
0.6046255338281668
 40
0.6046255338281668
 10
-39.28972768579297
 20
13.38863804659553
 30
0.0
 10
-39.30028178824304
 20
13.43886259781013
 30
0.0
 10
-39.31731212796546
 20
13.53839882622351
 30
0.0
 10
-39.32656068718499
 20
13.68873524385049
 30
0.0
 10
-39.31728968983899
 20
13.83901884742589
 30
0.0
 10
-39.30027142260309
 20
13.93846282308237
 30
0.0
 10
-39.28972768579297
 20
13.98863804659552
 30
0.0
 11
-39.28972768579297
 21
13.38863804659553
 31
0.0
 11
-39.31481527673293
 21
13.54054480875553
 31
0.0
 11
-39.32351151271297
 21
13.68877687655555
 31
0.0
 11
-39.31479794331295
 21
13.83688168543551
 31
0.0
 11
-39.28972768579297
 21
13.98863804659552
 31
0.0
  0
SPLINE
  5
29B
330
2
100
AcDbEntity
  8
GAIKEI
  6
Continuous
 62
     1
100
AcDbSpline
210
0.0
220
0.0
230
1.0
 70
     8
 71
     3
 72
    12
 73
     8
 74
     6
 42
0.0000000001
 43
0.0000000001
 44
0.0000000001
 12
-0.419313934695547
 22
-0.9078412990000723
 32
0.0
 13
0.419313934695547
 23
-0.9078412990000723
 33
0.0
 40
0.0
 40
0.0
 40
0.0
 40
0.0
 40
0.1329273168318169
 40
0.2530696879726694
 40
0.3692368894526893
 40
0.4893787305772487
 40
0.6223061172381807
 40
0.6223061172381807
 40
0.6223061172381807
 40
0.6223061172381807
 10
-38.77186845079297
 20
13.98863804659552
 30
0.0
 10
-38.79044787620939
 20
13.94841241060047
 30
0.0
 10
-38.82157257425798
 20
13.86964943581969
 30
0.0
 10
-38.8470802428516
 20
13.74850065589669
 30
0.0
 10
-38.84708019148528
 20
13.62877515204856
 30
0.0
 10
-38.82157252500709
 20
13.50762653780994
 30
0.0
 10
-38.7904478859695
 20
13.42886370372184
 30
0.0
 10
-38.77186845079297
 20
13.38863804659553
 30
0.0
 11
-38.77186845079297
 21
13.98863804659552
 31
0.0
 11
-38.81938115041294
 21
13.86449210451553
 31
0.0
 11
-38.84313519395295
 21
13.74672141733555
 31
0.0
 11
-38.84313514675296
 21
13.63055421585554
 31
0.0
 11
-38.81938117029296
 21
13.51278405583554
 31
0.0
 11
-38.77186845079297
 21
13.38863804659553
 31
0.0
  0
SPLINE
  5
29C
330
2
100
AcDbEntity
  8
GAIKEI
  6
Continuous
 62
     1
100
AcDbSpline
210
0.0
220
0.0
230
1.0
 70
     8
 71
     3
 72
    11
 73
     7
 74
     5
 42
0.0000000001
 43
0.0000000001
 44
0.0000000001
 12
0.0150341997315779
 22
-0.9998869800324589
 32
0.0
 13
0.1790444180625998
 23
-0.983840991400859
 33
0.0
 40
0.0
 40
0.0
 40
0.0
 40
0.0
 40
0.0869081956412711
 40
0.1736489543207914
 40
0.2609850951967714
 40
0.350678815910038
 40
0.350678815910038
 40
0.350678815910038
 40
0.350678815910038
 10
-37.36612470923296
 20
-0.5982369109644595
 30
0.0
 10
-37.3656891775091
 20
-0.6272030353910623
 30
0.0
 10
-37.36340715624701
 20
-0.6850672936813567
 30
0.0
 10
-37.35594906517214
 20
-0.771769172133773
 30
0.0
 10
-37.34474640370221
 20
-0.858998529218951
 30
0.0
 10
-37.33508073913593
 20
-0.9172248420148179
 30
0.0
 10
-37.32972768579293
 20
-0.9466396283844744
 30
0.0
 11
-37.36612470923296
 21
-0.5982369109644595
 31
0.0
 11
-37.36273359011295
 21
-0.6850789214244628
 31
0.0
 11
-37.35536552917296
 21
-0.7715061792444545
 31
0.0
 11
-37.34432398663296
 21
-0.858141540624473
 31
0.0
 11
-37.32972768579293
 21
-0.9466396283844744
 31
0.0
  0
SPLINE
  5
29D
330
2
100
AcDbEntity
  8
GAIKEI
  6
Continuous
 62
     1
100
AcDbSpline
210
0.0
220
0.0
230
1.0
 70
     8
 71
     3
 72
    11
 73
     7
 74
     5
 42
0.0000000001
 43
0.0000000001
 44
0.0000000001
 12
-0.0300582102610823
 22
-0.9995481499137001
 32
0.0
 13
-0.3420201433819938
 23
-0.9396926207654077
 33
0.0
 40
0.0
 40
0.0
 40
0.0
 40
0.0
 40
0.043553224714877
 40
0.0873904924952729
 40
0.132093256628601
 40
0.1786875683254444
 40
0.1786875683254444
 40
0.1786875683254444
 40
0.1786875683254444
 10
-36.71612470923293
 20
-0.0218829197244759
 30
0.0
 10
-36.7165610865616
 20
-0.0363941014533253
 30
0.0
 10
-36.71886338845109
 20
-0.0654858246907253
 30
0.0
 10
-36.7263594190994
 20
-0.1089272660560283
 30
0.0
 10
-36.737599244751
 20
-0.1525900829141875
 30
0.0
 10
-36.74720966826384
 20
-0.1814895014673965
 30
0.0
 10
-36.75252173265295
 20
-0.1960842784244505
 30
0.0
 11
-36.71612470923293
 21
-0.0218829197244759
 31
0.0
 11
-36.71951582833299
 21
-0.0653039249444589
 31
0.0
 11
-36.72688388927293
 21
-0.1085175538644592
 31
0.0
 11
-36.73792543181298
 21
-0.1518352345444782
 31
0.0
 11
-36.75252173265295
 21
-0.1960842784244505
 31
0.0
  0
SPLINE
  5
29E
330
2
100
AcDbEntity
  8
GAIKEI
  6
Continuous
 62
     1
100
AcDbSpline
210
0.0
220
0.0
230
1.0
 70
     8
 71
     3
 72
    11
 73
     7
 74
     5
 42
0.0000000001
 43
0.0000000001
 44
0.0000000001
 12
0.0300582102610823
 22
-0.9995481499137001
 32
0.0
 13
0.3420201433819938
 23
-0.9396926207654077
 33
0.0
 40
0.0
 40
0.0
 40
0.0
 40
0.0
 40
0.0435532247164305
 40
0.087390492496836
 40
0.13209325663015
 40
0.1786875683270112
 40
0.1786875683270112
 40
0.1786875683270112
 40
0.1786875683270112
 10
-37.36612470923296
 20
-0.0218829197244759
 30
0.0
 10
-37.36568833190427
 20
-0.0363941014538369
 30
0.0
 10
-37.3633860299857
 20
-0.0654858246894889
 30
0.0
 10
-37.35588999934899
 20
-0.1089272660561846
 30
0.0
 10
-37.34465017369422
 20
-0.1525900829141591
 30
0.0
 10
-37.33503975018205
 20
-0.1814895014673823
 30
0.0
 10
-37.32972768579293
 20
-0.1960842784244505
 30
0.0
 11
-37.36612470923296
 21
-0.0218829197244759
 31
0.0
 11
-37.36273359011295
 21
-0.0653039249444589
 31
0.0
 11
-37.35536552917296
 21
-0.1085175538644592
 31
0.0
 11
-37.34432398663296
 21
-0.1518352345444782
 31
0.0
 11
-37.32972768579293
 21
-0.1960842784244505
 31
0.0
  0
SPLINE
  5
29F
330
2
100
AcDbEntity
  8
GAIKEI
  6
Continuous
 62
     1
100
AcDbSpline
210
0.0
220
0.0
230
1.0
 70
     8
 71
     3
 72
    11
 73
     7
 74
     5
 42
0.0000000001
 43
0.0000000001
 44
0.0000000001
 12
-0.3420201433503862
 22
-0.9396926207769119
 32
0.0
 13
-0.0300582102073278
 23
-0.9995481499153166
 33
0.0
 40
0.0
 40
0.0
 40
0.0
 40
0.0
 40
0.0466016861372168
 40
0.0913065993178209
 40
0.1351403077815076
 40
0.1786875713209057
 40
0.1786875713209057
 40
0.1786875713209057
 40
0.1786875713209057
 10
-37.32972768579293
 20
0.1791933965355383
 30
0.0
 10
-37.33504059091727
 20
0.1645963096759004
 30
0.0
 10
-37.34465189247029
 20
0.135693825855725
 30
0.0
 10
-37.35589160579491
 20
0.0920289175501381
 30
0.0
 10
-37.36338653916293
 20
0.048589788593219
 30
0.0
 10
-37.36568839163249
 20
0.0195012334037585
 30
0.0
 10
-37.36612470923296
 20
0.0049920378355353
 30
0.0
 11
-37.32972768579293
 21
0.1791933965355383
 31
0.0
 11
-37.34432606673295
 21
0.1349372735155327
 31
0.0
 11
-37.35536752523297
 21
0.0916173536555221
 31
0.0
 11
-37.36273433289296
 21
0.0484071217355222
 31
0.0
 11
-37.36612470923296
 21
0.0049920378355353
 31
0.0
  0
SPLINE
  5
2A0
330
2
100
AcDbEntity
  8
GAIKEI
  6
Continuous
 62
     1
100
AcDbSpline
210
0.0
220
0.0
230
1.0
 70
     8
 71
     3
 72
    11
 73
     7
 74
     5
 42
0.0000000001
 43
0.0000000001
 44
0.0000000001
 12
0.3420201433503862
 22
-0.9396926207769119
 32
0.0
 13
0.0300582102073278
 23
-0.9995481499153166
 33
0.0
 40
0.0
 40
0.0
 40
0.0
 40
0.0
 40
0.0466016861309488
 40
0.0913065993164808
 40
0.1351403077801771
 40
0.1786875713180174
 40
0.1786875713180174
 40
0.1786875713180174
 40
0.1786875713180174
 10
-36.75252173265295
 20
0.1791933965355383
 30
0.0
 10
-36.74720882752933
 20
0.1645963096778615
 30
0.0
 10
-36.73759752600953
 20
0.1356938258475964
 30
0.0
 10
-36.72635781264503
 20
0.092028917553975
 30
0.0
 10
-36.71886287927622
 20
0.0485897885937732
 30
0.0
 10
-36.71656102683339
 20
0.019501233403247
 30
0.0
 10
-36.71612470923293
 20
0.0049920378355353
 30
0.0
 11
-36.75252173265295
 21
0.1791933965355383
 31
0.0
 11
-36.73792335173295
 21
0.1349372735155327
 31
0.0
 11
-36.72688189321298
 21
0.0916173536555221
 31
0.0
 11
-36.71951508555293
 21
0.0484071217355222
 31
0.0
 11
-36.71612470923293
 21
0.0049920378355353
 31
0.0
  0
SPLINE
  5
2A1
330
2
100
AcDbEntity
  8
GAIKEI
  6
Continuous
 62
     1
100
AcDbSpline
210
0.0
220
0.0
230
1.0
 70
     8
 71
     3
 72
    11
 73
     7
 74
     5
 42
0.0000000001
 43
0.0000000001
 44
0.0000000001
 12
-0.3420201433503862
 22
-0.9396926207769119
 32
0.0
 13
-0.0300582102073278
 23
-0.9995481499153166
 33
0.0
 40
0.0
 40
0.0
 40
0.0
 40
0.0
 40
0.0466016861372168
 40
0.0913065993177934
 40
0.1351403077814801
 40
0.1786875713209065
 40
0.1786875713209065
 40
0.1786875713209065
 40
0.1786875713209065
 10
-37.32972768579293
 20
-0.9466396283844744
 30
0.0
 10
-37.33504059091727
 20
-0.9612367152441123
 30
0.0
 10
-37.34465189247027
 20
-0.9901391990642594
 30
0.0
 10
-37.35589160579492
 20
-1.033804107369874
 30
0.0
 10
-37.36338653916292
 20
-1.077243236326751
 30
0.0
 10
-37.36568839163249
 20
-1.10633179151624
 30
0.0
 10
-37.36612470923296
 20
-1.120840987084477
 30
0.0
 11
-37.32972768579293
 21
-0.9466396283844744
 31
0.0
 11
-37.34432606673295
 21
-0.99089575140448
 31
0.0
 11
-37.35536752523297
 21
-1.034215671264462
 31
0.0
 11
-37.36273433289296
 21
-1.077425903184462
 31
0.0
 11
-37.36612470923296
 21
-1.120840987084477
 31
0.0
  0
SPLINE
  5
2A2
330
2
100
AcDbEntity
  8
GAIKEI
  6
Continuous
 62
     1
100
AcDbSpline
210
0.0
220
0.0
230
1.0
 70
     8
 71
     3
 72
    11
 73
     7
 74
     5
 42
0.0000000001
 43
0.0000000001
 44
0.0000000001
 12
0.3420201433503862
 22
-0.9396926207769119
 32
0.0
 13
0.0300582102073278
 23
-0.9995481499153166
 33
0.0
 40
0.0
 40
0.0
 40
0.0
 40
0.0
 40
0.0466016861309488
 40
0.0913065993164533
 40
0.1351403077801495
 40
0.1786875713180181
 40
0.1786875713180181
 40
0.1786875713180181
 40
0.1786875713180181
 10
-36.75252173265295
 20
-0.9466396283844744
 30
0.0
 10
-36.74720882752933
 20
-0.9612367152421512
 30
0.0
 10
-36.73759752600954
 20
-0.9901391990724164
 30
0.0
 10
-36.72635781264502
 20
-1.033804107366023
 30
0.0
 10
-36.71886287927622
 20
-1.077243236326211
 30
0.0
 10
-36.71656102683339
 20
-1.106331791516765
 30
0.0
 10
-36.71612470923293
 20
-1.120840987084477
 30
0.0
 11
-36.75252173265295
 21
-0.9466396283844744
 31
0.0
 11
-36.73792335173295
 21
-0.99089575140448
 31
0.0
 11
-36.72688189321298
 21
-1.034215671264462
 31
0.0
 11
-36.71951508555293
 21
-1.077425903184462
 31
0.0
 11
-36.71612470923293
 21
-1.120840987084477
 31
0.0
  0
SPLINE
  5
2A3
330
2
100
AcDbEntity
  8
GAIKEI
  6
Continuous
 62
     1
100
AcDbSpline
210
0.0
220
0.0
230
1.0
 70
     8
 71
     3
 72
    11
 73
     7
 74
     5
 42
0.0000000001
 43
0.0000000001
 44
0.0000000001
 12
-0.0300582102610823
 22
-0.9995481499137001
 32
0.0
 13
-0.3420201433819938
 23
-0.9396926207654077
 33
0.0
 40
0.0
 40
0.0
 40
0.0
 40
0.0
 40
0.0435532247149054
 40
0.0873904924953013
 40
0.1320932566286018
 40
0.1786875683254722
 40
0.1786875683254722
 40
0.1786875683254722
 40
0.1786875683254722
 10
-36.71612470923293
 20
-1.14771594464446
 30
0.0
 10
-36.7165610865616
 20
-1.162227126373309
 30
0.0
 10
-36.71886338845109
 20
-1.191318849610738
 30
0.0
 10
-36.7263594190994
 20
-1.234760290975998
 30
0.0
 10
-36.73759924475103
 20
-1.278423107834214
 30
0.0
 10
-36.74720966826384
 20
-1.307322526387395
 30
0.0
 10
-36.75252173265295
 20
-1.321917303344463
 30
0.0
 11
-36.71612470923293
 21
-1.14771594464446
 31
0.0
 11
-36.71951582833299
 21
-1.191136949864471
 31
0.0
 11
-36.72688388927293
 21
-1.234350578784471
 31
0.0
 11
-36.73792543181298
 21
-1.277668259464462
 31
0.0
 11
-36.75252173265295
 21
-1.321917303344463
 31
0.0
  0
SPLINE
  5
2A4
330
2
100
AcDbEntity
  8
GAIKEI
  6
Continuous
 62
     1
100
AcDbSpline
210
0.0
220
0.0
230
1.0
 70
     8
 71
     3
 72
    11
 73
     7
 74
     5
 42
0.0000000001
 43
0.0000000001
 44
0.0000000001
 12
0.0300582102610823
 22
-0.9995481499137001
 32
0.0
 13
0.3420201433819938
 23
-0.9396926207654077
 33
0.0
 40
0.0
 40
0.0
 40
0.0
 40
0.0
 40
0.0435532247164589
 40
0.0873904924968643
 40
0.1320932566301508
 40
0.178687568327039
 40
0.178687568327039
 40
0.178687568327039
 40
0.178687568327039
 10
-37.36612470923296
 20
-1.14771594464446
 30
0.0
 10
-37.36568833190427
 20
-1.162227126373835
 30
0.0
 10
-37.36338602998571
 20
-1.191318849609501
 30
0.0
 10
-37.35588999934901
 20
-1.234760290976197
 30
0.0
 10
-37.34465017369421
 20
-1.278423107834157
 30
0.0
 10
-37.33503975018205
 20
-1.307322526387395
 30
0.0
 10
-37.32972768579293
 20
-1.321917303344463
 30
0.0
 11
-37.36612470923296
 21
-1.14771594464446
 31
0.0
 11
-37.36273359011295
 21
-1.191136949864471
 31
0.0
 11
-37.35536552917296
 21
-1.234350578784471
 31
0.0
 11
-37.34432398663296
 21
-1.277668259464462
 31
0.0
 11
-37.32972768579293
 21
-1.321917303344463
 31
0.0
  0
SPLINE
  5
2A5
330
2
100
AcDbEntity
  8
GAIKEI
  6
Continuous
 62
     1
100
AcDbSpline
210
0.0
220
0.0
230
1.0
 70
     8
 71
     3
 72
    11
 73
     7
 74
     5
 42
0.0000000001
 43
0.0000000001
 44
0.0000000001
 12
-0.1790444180619914
 22
-0.9838409914009695
 32
0.0
 13
-0.0150341997311557
 23
-0.9998869800324653
 33
0.0
 40
0.0
 40
0.0
 40
0.0
 40
0.0
 40
0.0897080287859416
 40
0.1770486014455806
 40
0.2637824842447497
 40
0.3506788172623371
 40
0.3506788172623371
 40
0.3506788172623371
 40
0.3506788172623371
 10
-37.32972768579293
 20
-0.1960842784244505
 30
0.0
 10
-37.33508159306275
 20
-0.2255037570835867
 30
0.0
 10
-37.34474813782495
 20
-0.2837362622789925
 30
0.0
 10
-37.35595066156778
 20
-0.3709696289046747
 30
0.0
 10
-37.36340765680217
 20
-0.4576668106087567
 30
0.0
 10
-37.36568923695747
 20
-0.5155248251788436
 30
0.0
 10
-37.36612470923296
 20
-0.5444869958444656
 30
0.0
 11
-37.32972768579293
 21
-0.1960842784244505
 31
0.0
 11
-37.34432606673295
 21
-0.2845965244844706
 31
0.0
 11
-37.35536752523297
 21
-0.3712363642044636
 31
0.0
 11
-37.36273433289296
 21
-0.4576568280444633
 31
0.0
 11
-37.36612470923296
 21
-0.5444869958444656
 31
0.0
  0
SPLINE
  5
2A6
330
2
100
AcDbEntity
  8
GAIKEI
  6
Continuous
 62
     1
100
AcDbSpline
210
0.0
220
0.0
230
1.0
 70
     8
 71
     3
 72
    11
 73
     7
 74
     5
 42
0.0000000001
 43
0.0000000001
 44
0.0000000001
 12
0.1790444180619914
 22
-0.9838409914009695
 32
0.0
 13
0.0150341997311557
 23
-0.9998869800324653
 33
0.0
 40
0.0
 40
0.0
 40
0.0
 40
0.0
 40
0.0897080287826855
 40
0.1770486014448468
 40
0.2637824842440207
 40
0.3506788172608274
 40
0.3506788172608274
 40
0.3506788172608274
 40
0.3506788172608274
 10
-36.75252173265295
 20
-0.1960842784244505
 30
0.0
 10
-36.74716782538332
 20
-0.2255037570825067
 30
0.0
 10
-36.73750128065666
 20
-0.283736262283341
 30
0.0
 10
-36.72629875687119
 20
-0.3709696289025999
 30
0.0
 10
-36.71884176163719
 20
-0.4576668106085151
 30
0.0
 10
-36.71656018150843
 20
-0.5155248251791136
 30
0.0
 10
-36.71612470923293
 20
-0.5444869958444656
 30
0.0
 11
-36.75252173265295
 21
-0.1960842784244505
 31
0.0
 11
-36.73792335173295
 21
-0.2845965244844706
 31
0.0
 11
-36.72688189321298
 21
-0.3712363642044636
 31
0.0
 11
-36.71951508555293
 21
-0.4576568280444633
 31
0.0
 11
-36.71612470923293
 21
-0.5444869958444656
 31
0.0
  0
SPLINE
  5
2A7
330
2
100
AcDbEntity
  8
GAIKEI
  6
Continuous
 62
     1
100
AcDbSpline
210
0.0
220
0.0
230
1.0
 70
     8
 71
     3
 72
    11
 73
     7
 74
     5
 42
0.0000000001
 43
0.0000000001
 44
0.0000000001
 12
-0.0150341997315779
 22
-0.9998869800324589
 32
0.0
 13
-0.1790444180625998
 23
-0.983840991400859
 33
0.0
 40
0.0
 40
0.0
 40
0.0
 40
0.0
 40
0.0869081956404925
 40
0.173648954320008
 40
0.2609850951959953
 40
0.3506788159092525
 40
0.3506788159092525
 40
0.3506788159092525
 40
0.3506788159092525
 10
-36.71612470923293
 20
-0.5982369109644595
 30
0.0
 10
-36.71656024095678
 20
-0.6272030353908065
 30
0.0
 10
-36.71884226218975
 20
-0.6850672936819962
 30
0.0
 10
-36.7263003532762
 20
-0.7717691721336593
 30
0.0
 10
-36.73750301474304
 20
-0.8589985292189794
 30
0.0
 10
-36.74716867930996
 20
-0.9172248420148179
 30
0.0
 10
-36.75252173265295
 20
-0.9466396283844744
 30
0.0
 11
-36.71612470923293
 21
-0.5982369109644595
 31
0.0
 11
-36.71951582833299
 21
-0.6850789214244628
 31
0.0
 11
-36.72688388927293
 21
-0.7715061792444545
 31
0.0
 11
-36.73792543181298
 21
-0.858141540624473
 31
0.0
 11
-36.75252173265295
 21
-0.9466396283844744
 31
0.0
  0
SPLINE
  5
2A8
330
2
100
AcDbEntity
  8
GAIKEI
  6
Continuous
 62
     1
100
AcDbSpline
210
0.0
220
0.0
230
1.0
 70
     8
 71
     3
 72
     9
 73
     5
 74
     3
 42
0.0000000001
 43
0.0000000001
 44
0.0000000001
 12
-0.3399831319209427
 22
0.9404315339296248
 32
0.0
 13
-0.3399047194774524
 23
0.9404598777603192
 33
0.0
 40
0.0
 40
0.0
 40
0.0
 40
0.0
 40
0.0060276986000802
 40
0.0120442597067951
 40
0.0120442597067951
 40
0.0120442597067951
 40
0.0120442597067951
 10
-37.01203033185294
 20
2.62863804659554
 30
0.0
 10
-37.01271343713572
 20
2.630527592542392
 30
0.0
 10
-37.0140783089147
 20
2.634303220778818
 30
0.0
 10
-37.01544302339454
 20
2.638078905874564
 30
0.0
 10
-37.01612470923294
 20
2.639965017315546
 30
0.0
 11
-37.01203033185294
 21
2.62863804659554
 31
0.0
 11
-37.01407953163295
 21
2.63430672639555
 31
0.0
 11
-37.01612470923294
 21
2.639965017315546
 31
0.0
  0
SPLINE
  5
2A9
330
2
100
AcDbEntity
  8
GAIKEI
  6
Continuous
 62
     1
100
AcDbSpline
210
0.0
220
0.0
230
1.0
 70
     8
 71
     3
 72
     9
 73
     5
 74
     3
 42
0.0000000001
 43
0.0000000001
 44
0.0000000001
 12
0.3399047194774524
 22
0.9404598777603192
 32
0.0
 13
0.3399831319209427
 23
0.9404315339296248
 33
0.0
 40
0.0
 40
0.0
 40
0.0
 40
0.0
 40
0.0060164146661433
 40
0.0120442597067951
 40
0.0120442597067951
 40
0.0120442597067951
 40
0.0120442597067951
 10
-37.01612470923294
 20
3.817311075875522
 30
0.0
 10
-37.01544303998649
 20
3.819197141409347
 30
0.0
 10
-37.01407832550529
 20
3.822972826504596
 30
0.0
 10
-37.01271345373149
 20
3.826748454742912
 30
0.0
 10
-37.01203033185294
 20
3.828638046595528
 30
0.0
 11
-37.01612470923294
 21
3.817311075875522
 31
0.0
 11
-37.01407958141294
 21
3.822969229075539
 31
0.0
 11
-37.01203033185294
 21
3.828638046595528
 31
0.0
  0
SPLINE
  5
2AA
330
2
100
AcDbEntity
  8
GAIKEI
  6
Continuous
 62
     1
100
AcDbSpline
210
0.0
220
0.0
230
1.0
 70
     8
 71
     3
 72
    11
 73
     7
 74
     5
 42
0.0000000001
 43
0.0000000001
 44
0.0000000001
 12
-0.2056468718611044
 22
0.9786262637461465
 32
0.0
 13
0.2056468718611044
 23
0.9786262637461465
 33
0.0
 40
0.0
 40
0.0
 40
0.0
 40
0.0
 40
0.1539644491728763
 40
0.3024513861218278
 40
0.4508122997920946
 40
0.6046255338281731
 40
0.6046255338281731
 40
0.6046255338281731
 40
0.6046255338281731
 10
-36.97972768579297
 20
3.228638046595534
 30
0.0
 10
-36.99028178824304
 20
3.278862597810132
 30
0.0
 10
-37.00731212796555
 20
3.378398826223474
 30
0.0
 10
-37.01656068718496
 20
3.528735243850519
 30
0.0
 10
-37.007289689839
 20
3.679018847425894
 30
0.0
 10
-36.99027142260309
 20
3.778462823082378
 30
0.0
 10
-36.97972768579297
 20
3.828638046595528
 30
0.0
 11
-36.97972768579297
 21
3.228638046595534
 31
0.0
 11
-37.00481527673299
 21
3.38054480875553
 31
0.0
 11
-37.01351151271297
 21
3.528776876555525
 31
0.0
 11
-37.00479794331295
 21
3.676881685435546
 31
0.0
 11
-36.97972768579297
 21
3.828638046595528
 31
0.0
  0
SPLINE
  5
2AB
330
2
100
AcDbEntity
  8
GAIKEI
  6
Continuous
 62
     1
100
AcDbSpline
210
0.0
220
0.0
230
1.0
 70
     8
 71
     3
 72
    12
 73
     8
 74
     6
 42
0.0000000001
 43
0.0000000001
 44
0.0000000001
 12
-0.419313934695547
 22
-0.9078412990000723
 32
0.0
 13
0.419313934695547
 23
-0.9078412990000723
 33
0.0
 40
0.0
 40
0.0
 40
0.0
 40
0.0
 40
0.1329273168318169
 40
0.2530696879726972
 40
0.3692368894526888
 40
0.4893787305772761
 40
0.6223061172381814
 40
0.6223061172381814
 40
0.6223061172381814
 40
0.6223061172381814
 10
-36.46186845079296
 20
3.828638046595528
 30
0.0
 10
-36.48044787620938
 20
3.788412410600471
 30
0.0
 10
-36.51157257425799
 20
3.709649435819684
 30
0.0
 10
-36.53708024285159
 20
3.588500655896709
 30
0.0
 10
-36.53708019148528
 20
3.468775152048536
 30
0.0
 10
-36.5115725250071
 20
3.347626537809929
 30
0.0
 10
-36.48044788596949
 20
3.268863703721848
 30
0.0
 10
-36.46186845079296
 20
3.228638046595534
 30
0.0
 11
-36.46186845079296
 21
3.828638046595528
 31
0.0
 11
-36.50938115041294
 21
3.704492104515537
 31
0.0
 11
-36.53313519395295
 21
3.586721417335525
 31
0.0
 11
-36.53313514675295
 21
3.470554215855543
 31
0.0
 11
-36.50938117029296
 21
3.352784055835513
 31
0.0
 11
-36.46186845079296
 21
3.228638046595534
 31
0.0
  0
SPLINE
  5
2AC
330
2
100
AcDbEntity
  8
GAIKEI
  6
Continuous
 62
     1
100
AcDbSpline
210
0.0
220
0.0
230
1.0
 70
     8
 71
     3
 72
    11
 73
     7
 74
     5
 42
0.0000000001
 43
0.0000000001
 44
0.0000000001
 12
-0.2056468718611044
 22
0.9786262637461465
 32
0.0
 13
0.2056468718611044
 23
0.9786262637461465
 33
0.0
 40
0.0
 40
0.0
 40
0.0
 40
0.0
 40
0.1539644491728763
 40
0.3024513861218278
 40
0.4508122997920663
 40
0.6046255338281728
 40
0.6046255338281728
 40
0.6046255338281728
 40
0.6046255338281728
 10
-36.97972768579297
 20
2.62863804659554
 30
0.0
 10
-36.99028178824304
 20
2.678862597810137
 30
0.0
 10
-37.00731212796555
 20
2.778398826223508
 30
0.0
 10
-37.01656068718498
 20
2.928735243850482
 30
0.0
 10
-37.007289689839
 20
3.079018847425885
 30
0.0
 10
-36.99027142260309
 20
3.178462823082384
 30
0.0
 10
-36.97972768579297
 20
3.228638046595534
 30
0.0
 11
-36.97972768579297
 21
2.62863804659554
 31
0.0
 11
-37.00481527673299
 21
2.780544808755536
 31
0.0
 11
-37.01351151271297
 21
2.928776876555531
 31
0.0
 11
-37.00479794331295
 21
3.076881685435523
 31
0.0
 11
-36.97972768579297
 21
3.228638046595534
 31
0.0
  0
SPLINE
  5
2AD
330
2
100
AcDbEntity
  8
GAIKEI
  6
Continuous
 62
     1
100
AcDbSpline
210
0.0
220
0.0
230
1.0
 70
     8
 71
     3
 72
    12
 73
     8
 74
     6
 42
0.0000000001
 43
0.0000000001
 44
0.0000000001
 12
-0.419313934695547
 22
-0.9078412990000723
 32
0.0
 13
0.419313934695547
 23
-0.9078412990000723
 33
0.0
 40
0.0
 40
0.0
 40
0.0
 40
0.0
 40
0.1329273168318169
 40
0.2530696879726972
 40
0.3692368894527172
 40
0.4893787305772487
 40
0.6223061172381807
 40
0.6223061172381807
 40
0.6223061172381807
 40
0.6223061172381807
 10
-36.46186845079296
 20
3.228638046595534
 30
0.0
 10
-36.48044787620938
 20
3.188412410600477
 30
0.0
 10
-36.51157257425798
 20
3.109649435819704
 30
0.0
 10
-36.5370802428516
 20
2.988500655896686
 30
0.0
 10
-36.53708019148529
 20
2.868775152048556
 30
0.0
 10
-36.51157252500708
 20
2.747626537809935
 30
0.0
 10
-36.4804478859695
 20
2.668863703721854
 30
0.0
 10
-36.46186845079296
 20
2.62863804659554
 30
0.0
 11
-36.46186845079296
 21
3.228638046595534
 31
0.0
 11
-36.50938115041294
 21
3.104492104515543
 31
0.0
 11
-36.53313519395295
 21
2.98672141733553
 31
0.0
 11
-36.53313514675295
 21
2.87055421585552
 31
0.0
 11
-36.50938117029296
 21
2.752784055835547
 31
0.0
 11
-36.46186845079296
 21
2.62863804659554
 31
0.0
  0
SPLINE
  5
2AE
330
2
100
AcDbEntity
  8
GAIKEI
  6
Continuous
 62
     1
100
AcDbSpline
210
0.0
220
0.0
230
1.0
 70
     8
 71
     3
 72
     9
 73
     5
 74
     3
 42
0.0000000001
 43
0.0000000001
 44
0.0000000001
 12
0.3399831319209427
 22
-0.9404315339296248
 32
0.0
 13
0.3399047194774524
 23
-0.9404598777603192
 33
0.0
 40
0.0
 40
0.0
 40
0.0
 40
0.0
 40
0.0060276985812631
 40
0.0120442596999939
 40
0.0120442596999939
 40
0.0120442596999939
 40
0.0120442596999939
 10
-30.58021908659294
 20
3.828638046595528
 30
0.0
 10
-30.57953598131229
 20
3.826748500654588
 30
0.0
 10
-30.57817110951242
 20
3.822972872428096
 30
0.0
 10
-30.5768063950727
 20
3.81919718732027
 30
0.0
 10
-30.57612470923294
 20
3.817311075875522
 30
0.0
 11
-30.58021908659294
 21
3.828638046595528
 31
0.0
 11
-30.57816988681293
 21
3.822969366815527
 31
0.0
 11
-30.57612470923294
 21
3.817311075875522
 31
0.0
  0
SPLINE
  5
2AF
330
2
100
AcDbEntity
  8
GAIKEI
  6
Continuous
 62
     1
100
AcDbSpline
210
0.0
220
0.0
230
1.0
 70
     8
 71
     3
 72
     9
 73
     5
 74
     3
 42
0.0000000001
 43
0.0000000001
 44
0.0000000001
 12
-0.3399047194774524
 22
-0.9404598777603192
 32
0.0
 13
-0.3399831319209427
 23
-0.9404315339296248
 33
0.0
 40
0.0
 40
0.0
 40
0.0
 40
0.0
 40
0.0060164146593418
 40
0.0120442596999936
 40
0.0120442596999936
 40
0.0120442596999936
 40
0.0120442596999936
 10
-30.57612470923294
 20
2.639965017315546
 30
0.0
 10
-30.57680637847862
 20
2.638078951783853
 30
0.0
 10
-30.5781710929325
 20
2.634303266681129
 30
0.0
 10
-30.57953596471438
 20
2.630527638448157
 30
0.0
 10
-30.58021908659294
 20
2.62863804659554
 30
0.0
 11
-30.57612470923294
 21
2.639965017315546
 31
0.0
 11
-30.57816983703293
 21
2.634306864115529
 31
0.0
 11
-30.58021908659294
 21
2.62863804659554
 31
0.0
  0
SPLINE
  5
2B0
330
2
100
AcDbEntity
  8
GAIKEI
  6
Continuous
 62
     1
100
AcDbSpline
210
0.0
220
0.0
230
1.0
 70
     8
 71
     3
 72
    11
 73
     7
 74
     5
 42
0.0000000001
 43
0.0000000001
 44
0.0000000001
 12
0.2056468718611044
 22
-0.9786262637461465
 32
0.0
 13
-0.2056468718611044
 23
-0.9786262637461465
 33
0.0
 40
0.0
 40
0.0
 40
0.0
 40
0.0
 40
0.1539644491531349
 40
0.3024513861020863
 40
0.4508122997923275
 40
0.6046255338284059
 40
0.6046255338284059
 40
0.6046255338284059
 40
0.6046255338284059
 10
-30.61252173265297
 20
3.228638046595534
 30
0.0
 10
-30.60196763020424
 20
3.178413495387374
 30
0.0
 10
-30.58493729047816
 20
3.078877266981265
 30
0.0
 10
-30.57568873126168
 20
2.928540849353879
 30
0.0
 10
-30.58495972860546
 20
2.778257245771769
 30
0.0
 10
-30.60197799584285
 20
2.67881327010869
 30
0.0
 10
-30.61252173265297
 20
2.62863804659554
 30
0.0
 11
-30.61252173265297
 21
3.228638046595534
 31
0.0
 11
-30.58743414171295
 21
3.076731284455547
 31
0.0
 11
-30.57873790573296
 21
2.928499216655552
 31
0.0
 11
-30.58745147513298
 21
2.780394407755522
 31
0.0
 11
-30.61252173265297
 21
2.62863804659554
 31
0.0
  0
SPLINE
  5
2B1
330
2
100
AcDbEntity
  8
GAIKEI
  6
Continuous
 62
     1
100
AcDbSpline
210
0.0
220
0.0
230
1.0
 70
     8
 71
     3
 72
    12
 73
     8
 74
     6
 42
0.0000000001
 43
0.0000000001
 44
0.0000000001
 12
0.419313934695547
 22
0.9078412990000723
 32
0.0
 13
-0.419313934695547
 23
0.9078412990000723
 33
0.0
 40
0.0
 40
0.0
 40
0.0
 40
0.0
 40
0.1329273168318372
 40
0.2530696879727175
 40
0.3692368894527091
 40
0.4893787305772798
 40
0.6223061172382116
 40
0.6223061172382116
 40
0.6223061172382116
 40
0.6223061172382116
 10
-31.13038096765297
 20
2.62863804659554
 30
0.0
 10
-31.11180154223654
 20
2.668863682590611
 30
0.0
 10
-31.08067684418787
 20
2.74762665737137
 30
0.0
 10
-31.0551691755943
 20
2.86877543729436
 30
0.0
 10
-31.05516922696057
 20
2.988500941142532
 30
0.0
 10
-31.08067689343886
 20
3.10964955538111
 30
0.0
 10
-31.11180153247643
 20
3.18841238946922
 30
0.0
 10
-31.13038096765297
 20
3.228638046595534
 30
0.0
 11
-31.13038096765297
 21
2.62863804659554
 31
0.0
 11
-31.08286826803294
 21
2.752783988675531
 31
0.0
 11
-31.05911422449293
 21
2.870554675855544
 31
0.0
 11
-31.05911427169292
 21
2.986721877335526
 31
0.0
 11
-31.08286824815298
 21
3.104492037355527
 31
0.0
 11
-31.13038096765297
 21
3.228638046595534
 31
0.0
  0
SPLINE
  5
2B2
330
2
100
AcDbEntity
  8
GAIKEI
  6
Continuous
 62
     1
100
AcDbSpline
210
0.0
220
0.0
230
1.0
 70
     8
 71
     3
 72
    11
 73
     7
 74
     5
 42
0.0000000001
 43
0.0000000001
 44
0.0000000001
 12
0.2056468718611044
 22
-0.9786262637461465
 32
0.0
 13
-0.2056468718611044
 23
-0.9786262637461465
 33
0.0
 40
0.0
 40
0.0
 40
0.0
 40
0.0
 40
0.1539644491531629
 40
0.3024513861021144
 40
0.4508122997922988
 40
0.6046255338284054
 40
0.6046255338284054
 40
0.6046255338284054
 40
0.6046255338284054
 10
-30.61252173265297
 20
3.828638046595528
 30
0.0
 10
-30.60196763020424
 20
3.778413495387368
 30
0.0
 10
-30.58493729047818
 20
3.678877266981231
 30
0.0
 10
-30.57568873126167
 20
3.528540849353845
 30
0.0
 10
-30.58495972860546
 20
3.378257245771791
 30
0.0
 10
-30.60197799584285
 20
3.278813270108685
 30
0.0
 10
-30.61252173265297
 20
3.228638046595534
 30
0.0
 11
-30.61252173265297
 21
3.828638046595528
 31
0.0
 11
-30.58743414171295
 21
3.676731284455513
 31
0.0
 11
-30.57873790573296
 21
3.528499216655518
 31
0.0
 11
-30.58745147513298
 21
3.380394407755545
 31
0.0
 11
-30.61252173265297
 21
3.228638046595534
 31
0.0
  0
SPLINE
  5
2B3
330
2
100
AcDbEntity
  8
GAIKEI
  6
Continuous
 62
     1
100
AcDbSpline
210
0.0
220
0.0
230
1.0
 70
     8
 71
     3
 72
    12
 73
     8
 74
     6
 42
0.0000000001
 43
0.0000000001
 44
0.0000000001
 12
0.419313934695547
 22
0.9078412990000723
 32
0.0
 13
-0.419313934695547
 23
0.9078412990000723
 33
0.0
 40
0.0
 40
0.0
 40
0.0
 40
0.0
 40
0.1329273168318372
 40
0.2530696879727175
 40
0.3692368894527375
 40
0.4893787305772804
 40
0.6223061172382122
 40
0.6223061172382122
 40
0.6223061172382122
 40
0.6223061172382122
 10
-31.13038096765297
 20
3.228638046595534
 30
0.0
 10
-31.11180154223654
 20
3.268863682590605
 30
0.0
 10
-31.08067684418787
 20
3.347626657371336
 30
0.0
 10
-31.05516917559429
 20
3.468775437294397
 30
0.0
 10
-31.05516922696057
 20
3.588500941142527
 30
0.0
 10
-31.08067689343888
 20
3.709649555381105
 30
0.0
 10
-31.11180153247643
 20
3.788412389469215
 30
0.0
 10
-31.13038096765297
 20
3.828638046595528
 30
0.0
 11
-31.13038096765297
 21
3.228638046595534
 31
0.0
 11
-31.08286826803294
 21
3.352783988675525
 31
0.0
 11
-31.05911422449293
 21
3.470554675855538
 31
0.0
 11
-31.05911427169292
 21
3.586721877335548
 31
0.0
 11
-31.08286824815298
 21
3.704492037355521
 31
0.0
 11
-31.13038096765297
 21
3.828638046595528
 31
0.0
  0
SPLINE
  5
2B4
330
2
100
AcDbEntity
  8
GAIKEI
  6
Continuous
 62
     1
100
AcDbSpline
210
0.0
220
0.0
230
1.0
 70
     8
 71
     3
 72
     9
 73
     5
 74
     3
 42
0.0000000001
 43
0.0000000001
 44
0.0000000001
 12
-0.9404315339296248
 22
-0.3399831319209427
 32
0.0
 13
-0.9404598777603192
 23
-0.3399047194774524
 33
0.0
 40
0.0
 40
0.0
 40
0.0
 40
0.0
 40
0.0060276985880654
 40
0.0120442597067962
 40
0.0120442597067962
 40
0.0120442597067962
 40
0.0120442597067962
 10
-33.19612470923295
 20
5.192732423975542
 30
0.0
 10
-33.19801425517603
 20
5.192049318694131
 30
0.0
 10
-33.20178988339506
 20
5.190684446866953
 30
0.0
 10
-33.2055655685082
 20
5.189319732435308
 30
0.0
 10
-33.20745167995295
 20
5.188638046595542
 30
0.0
 11
-33.19612470923295
 21
5.192732423975542
 31
0.0
 11
-33.20179338901295
 21
5.190683224175529
 31
0.0
 11
-33.20745167995295
 21
5.188638046595542
 31
0.0
  0
SPLINE
  5
2B5
330
2
100
AcDbEntity
  8
GAIKEI
  6
Continuous
 62
     1
100
AcDbSpline
210
0.0
220
0.0
230
1.0
 70
     8
 71
     3
 72
     9
 73
     5
 74
     3
 42
0.0000000001
 43
0.0000000001
 44
0.0000000001
 12
-0.9404598777603192
 22
0.3399047194774524
 32
0.0
 13
-0.9404315339296248
 23
0.3399831319209427
 33
0.0
 40
0.0
 40
0.0
 40
0.0
 40
0.0
 40
0.0060164146781325
 40
0.0120442597256133
 40
0.0120442597256133
 40
0.0120442597256133
 40
0.0120442597256133
 10
-34.38479773849292
 20
5.188638046595542
 30
0.0
 10
-34.38668380403051
 20
5.189319715843353
 30
0.0
 10
-34.3904594891479
 20
5.190684430281692
 30
0.0
 10
-34.39423511737818
 20
5.192049302096222
 30
0.0
 10
-34.39612470923294
 20
5.192732423975542
 30
0.0
 11
-34.38479773849292
 21
5.188638046595542
 31
0.0
 11
-34.39045589171292
 21
5.19068317439553
 31
0.0
 11
-34.39612470923294
 21
5.192732423975542
 31
0.0
  0
SPLINE
  5
2B6
330
2
100
AcDbEntity
  8
GAIKEI
  6
Continuous
 62
     1
100
AcDbSpline
210
0.0
220
0.0
230
1.0
 70
     8
 71
     3
 72
    11
 73
     7
 74
     5
 42
0.0000000001
 43
0.0000000001
 44
0.0000000001
 12
-0.9786262637461465
 22
-0.2056468718611044
 32
0.0
 13
-0.9786262637461465
 23
0.2056468718611044
 33
0.0
 40
0.0
 40
0.0
 40
0.0
 40
0.0
 40
0.1539644491531583
 40
0.3024513861021114
 40
0.4508122997935261
 40
0.6046255338263479
 40
0.6046255338263479
 40
0.6046255338263479
 40
0.6046255338263479
 10
-33.79612470923291
 20
5.225035070015536
 30
0.0
 10
-33.84634926044107
 20
5.214480967566814
 30
0.0
 10
-33.94588548884697
 20
5.197450627843664
 30
0.0
 10
-34.09622190647581
 20
5.188202068614486
 30
0.0
 10
-34.24650551005331
 20
5.197473066004675
 30
0.0
 10
-34.34594948572085
 20
5.214491333205643
 30
0.0
 10
-34.39612470923294
 20
5.225035070015536
 30
0.0
 11
-33.79612470923291
 21
5.225035070015536
 31
0.0
 11
-33.94803147137293
 21
5.199947479075547
 31
0.0
 11
-34.09626353917293
 21
5.191251243095535
 31
0.0
 11
-34.24436834807295
 21
5.199964812515531
 31
0.0
 11
-34.39612470923294
 21
5.225035070015536
 31
0.0
  0
SPLINE
  5
2B7
330
2
100
AcDbEntity
  8
GAIKEI
  6
Continuous
 62
     1
100
AcDbSpline
210
0.0
220
0.0
230
1.0
 70
     8
 71
     3
 72
    12
 73
     8
 74
     6
 42
0.0000000001
 43
0.0000000001
 44
0.0000000001
 12
0.9078412990000723
 22
-0.419313934695547
 32
0.0
 13
0.9078412990000723
 23
0.419313934695547
 33
0.0
 40
0.0
 40
0.0
 40
0.0
 40
0.0
 40
0.1329273168433358
 40
0.2530696879685861
 40
0.3692368894685866
 40
0.4893787305696039
 40
0.6223061172305459
 40
0.6223061172305459
 40
0.6223061172305459
 40
0.6223061172305459
 10
-34.39612470923294
 20
5.742894305015539
 30
0.0
 10
-34.35589907323438
 20
5.7243148795975
 30
0.0
 10
-34.27713609844002
 20
5.693190181595937
 30
0.0
 10
-34.15598731852462
 20
5.667682512936011
 30
0.0
 10
-34.03626181468076
 20
5.667682564357832
 30
0.0
 10
-33.91511320043873
 20
5.693190230793518
 30
0.0
 10
-33.83635036635923
 20
5.724314869839005
 30
0.0
 10
-33.79612470923291
 20
5.742894305015539
 30
0.0
 11
-34.39612470923294
 21
5.742894305015539
 31
0.0
 11
-34.27197876713297
 21
5.695381605415548
 31
0.0
 11
-34.15420807997293
 21
5.67162756185553
 31
0.0
 11
-34.03804087847294
 21
5.671627609075528
 31
0.0
 11
-33.92027071847292
 21
5.695381585515519
 31
0.0
 11
-33.79612470923291
 21
5.742894305015539
 31
0.0
  0
SPLINE
  5
2B8
330
2
100
AcDbEntity
  8
GAIKEI
  6
Continuous
 62
     1
100
AcDbSpline
210
0.0
220
0.0
230
1.0
 70
     8
 71
     3
 72
    11
 73
     7
 74
     5
 42
0.0000000001
 43
0.0000000001
 44
0.0000000001
 12
-0.9786262637461465
 22
-0.2056468718611044
 32
0.0
 13
-0.9786262637461465
 23
0.2056468718611044
 33
0.0
 40
0.0
 40
0.0
 40
0.0
 40
0.0
 40
0.1539644491531583
 40
0.3024513861021114
 40
0.4508122997934694
 40
0.6046255338262912
 40
0.6046255338262912
 40
0.6046255338262912
 40
0.6046255338262912
 10
-33.19612470923295
 20
5.225035070015536
 30
0.0
 10
-33.24634926044111
 20
5.214480967566814
 30
0.0
 10
-33.34588548884702
 20
5.197450627843664
 30
0.0
 10
-33.49622190647581
 20
5.188202068614515
 30
0.0
 10
-33.64650551005333
 20
5.197473066004661
 30
0.0
 10
-33.74594948572083
 20
5.214491333205643
 30
0.0
 10
-33.79612470923291
 20
5.225035070015536
 30
0.0
 11
-33.19612470923295
 21
5.225035070015536
 31
0.0
 11
-33.34803147137296
 21
5.199947479075547
 31
0.0
 11
-33.49626353917296
 21
5.191251243095535
 31
0.0
 11
-33.64436834807293
 21
5.199964812515531
 31
0.0
 11
-33.79612470923291
 21
5.225035070015536
 31
0.0
  0
SPLINE
  5
2B9
330
2
100
AcDbEntity
  8
GAIKEI
  6
Continuous
 62
     1
100
AcDbSpline
210
0.0
220
0.0
230
1.0
 70
     8
 71
     3
 72
    12
 73
     8
 74
     6
 42
0.0000000001
 43
0.0000000001
 44
0.0000000001
 12
0.9078412990000723
 22
-0.419313934695547
 32
0.0
 13
0.9078412990000723
 23
0.419313934695547
 33
0.0
 40
0.0
 40
0.0
 40
0.0
 40
0.0
 40
0.1329273168433358
 40
0.2530696879685304
 40
0.3692368894685308
 40
0.4893787305695481
 40
0.6223061172304902
 40
0.6223061172304902
 40
0.6223061172304902
 40
0.6223061172304902
 10
-33.79612470923291
 20
5.742894305015539
 30
0.0
 10
-33.75589907323436
 20
5.7243148795975
 30
0.0
 10
-33.67713609844001
 20
5.693190181595952
 30
0.0
 10
-33.55598731852464
 20
5.667682512935996
 30
0.0
 10
-33.43626181468079
 20
5.667682564357846
 30
0.0
 10
-33.31511320043876
 20
5.693190230793518
 30
0.0
 10
-33.23635036635927
 20
5.724314869839005
 30
0.0
 10
-33.19612470923295
 20
5.742894305015539
 30
0.0
 11
-33.79612470923291
 21
5.742894305015539
 31
0.0
 11
-33.67197876713294
 21
5.695381605415548
 31
0.0
 11
-33.55420807997297
 21
5.67162756185553
 31
0.0
 11
-33.43804087847298
 21
5.671627609075528
 31
0.0
 11
-33.32027071847296
 21
5.695381585515519
 31
0.0
 11
-33.19612470923295
 21
5.742894305015539
 31
0.0
  0
SPLINE
  5
2BA
330
2
100
AcDbEntity
  8
GAIKEI
  6
Continuous
 62
     1
100
AcDbSpline
210
0.0
220
0.0
230
1.0
 70
     8
 71
     3
 72
    10
 73
     6
 74
     4
 42
0.0000000001
 43
0.0000000001
 44
0.0000000001
 12
0.2056468718887354
 22
-0.9786262637403403
 32
0.0
 13
0.0639832569168999
 23
-0.9979509721596075
 33
0.0
 40
0.0
 40
0.0
 40
0.0
 40
0.0
 40
0.0883168355177051
 40
0.1740907481487797
 40
0.2591927550700674
 40
0.2591927550700674
 40
0.2591927550700674
 40
0.2591927550700674
 10
-30.81252173265295
 20
-0.5713619534044483
 30
0.0
 10
-30.80646770566652
 20
-0.6001716783271292
 30
0.0
 10
-30.79558907986407
 20
-0.6571930219809588
 30
0.0
 10
-30.78320134962481
 20
-0.7427279293242748
 30
0.0
 10
-30.77793974375726
 20
-0.7994768730845295
 30
0.0
 10
-30.77612470923293
 20
-0.8277860832644705
 30
0.0
 11
-30.81252173265295
 21
-0.5713619534044483
 31
0.0
 11
-30.79608855201298
 21
-0.658136454324449
 31
0.0
 11
-30.78390124815297
 21
-0.7430401274644681
 31
0.0
 11
-30.77612470923293
 21
-0.8277860832644705
 31
0.0
  0
SPLINE
  5
2BB
330
2
100
AcDbEntity
  8
GAIKEI
  6
Continuous
 62
     1
100
AcDbSpline
210
0.0
220
0.0
230
1.0
 70
     8
 71
     3
 72
    10
 73
     6
 74
     4
 42
0.0000000001
 43
0.0000000001
 44
0.0000000001
 12
-0.0639832569239243
 22
-0.9979509721591572
 32
0.0
 13
-0.2056468718367778
 23
-0.9786262637512585
 33
0.0
 40
0.0
 40
0.0
 40
0.0
 40
0.0
 40
0.0855361411545029
 40
0.1713645638296896
 40
0.2591927097402777
 40
0.2591927097402777
 40
0.2591927097402777
 40
0.2591927097402777
 10
-30.77612470923293
 20
-1.014937823524462
 30
0.0
 10
-30.77794900286485
 20
-1.043391448597759
 30
0.0
 10
-30.78323401470118
 20
-1.100302243695026
 30
0.0
 10
-30.79564391692212
 20
-1.185833878134573
 30
0.0
 10
-30.80650120483105
 20
-1.242711643309576
 30
0.0
 10
-30.81252173265295
 20
-1.271361953404465
 30
0.0
 11
-30.77612470923293
 21
-1.014937823524462
 31
0.0
 11
-30.78395245307297
 21
-1.100115038024455
 31
0.0
 11
-30.79616930967296
 21
-1.18506953498445
 31
0.0
 11
-30.81252173265295
 21
-1.271361953404465
 31
0.0
  0
SPLINE
  5
2BC
330
2
100
AcDbEntity
  8
GAIKEI
  6
Continuous
 62
     1
100
AcDbSpline
210
0.0
220
0.0
230
1.0
 70
     8
 71
     3
 72
    10
 73
     6
 74
     4
 42
0.0000000001
 43
0.0000000001
 44
0.0000000001
 12
0.2056468718887354
 22
-0.9786262637403403
 32
0.0
 13
0.0639832569168999
 23
-0.9979509721596075
 33
0.0
 40
0.0
 40
0.0
 40
0.0
 40
0.0
 40
0.0883168355177051
 40
0.1740907481487516
 40
0.2591927550700675
 40
0.2591927550700675
 40
0.2591927550700675
 40
0.2591927550700675
 10
-30.81252173265295
 20
0.1286380465955403
 30
0.0
 10
-30.80646770566652
 20
0.0998283216728595
 30
0.0
 10
-30.79558907986408
 20
0.0428069780190441
 30
0.0
 10
-30.7832013496248
 20
-0.042727929324272
 30
0.0
 10
-30.77793974375726
 20
-0.0994768730845266
 30
0.0
 10
-30.77612470923293
 20
-0.1277860832644819
 30
0.0
 11
-30.81252173265295
 21
0.1286380465955403
 31
0.0
 11
-30.79608855201298
 21
0.0418635456755396
 31
0.0
 11
-30.78390124815297
 21
-0.043040127464451
 31
0.0
 11
-30.77612470923293
 21
-0.1277860832644819
 31
0.0
  0
SPLINE
  5
2BD
330
2
100
AcDbEntity
  8
GAIKEI
  6
Continuous
 62
     1
100
AcDbSpline
210
0.0
220
0.0
230
1.0
 70
     8
 71
     3
 72
    10
 73
     6
 74
     4
 42
0.0000000001
 43
0.0000000001
 44
0.0000000001
 12
-0.0639832569239243
 22
-0.9979509721591572
 32
0.0
 13
-0.2056468718367778
 23
-0.9786262637512585
 33
0.0
 40
0.0
 40
0.0
 40
0.0
 40
0.0
 40
0.0855361411545029
 40
0.1713645638296896
 40
0.2591927097402498
 40
0.2591927097402498
 40
0.2591927097402498
 40
0.2591927097402498
 10
-30.77612470923293
 20
-0.314937823524474
 30
0.0
 10
-30.77794900286485
 20
-0.3433914485977709
 30
0.0
 10
-30.78323401470119
 20
-0.4003022436950375
 30
0.0
 10
-30.79564391692211
 20
-0.485833878134585
 30
0.0
 10
-30.80650120483105
 20
-0.5427116433095592
 30
0.0
 10
-30.81252173265295
 20
-0.5713619534044483
 30
0.0
 11
-30.77612470923293
 21
-0.314937823524474
 31
0.0
 11
-30.78395245307297
 21
-0.4001150380244667
 31
0.0
 11
-30.79616930967296
 21
-0.4850695349844614
 31
0.0
 11
-30.81252173265295
 21
-0.5713619534044483
 31
0.0
  0
SPLINE
  5
2BE
330
2
100
AcDbEntity
  8
GAIKEI
  6
Continuous
100
AcDbSpline
210
0.0
220
0.0
230
1.0
 70
     8
 71
     3
 72
    11
 73
     7
 74
     5
 42
0.0000000001
 43
0.0000000001
 44
0.0000000001
 12
-1.0
 22
0.0
 32
0.0
 13
0.0
 23
-1.0
 33
0.0
 40
0.0
 40
0.0
 40
0.0
 40
0.0
 40
0.0106597184203578
 40
0.0187921782747891
 40
0.026075861448786
 40
0.0346800399978407
 40
0.0346800399978407
 40
0.0346800399978407
 40
0.0346800399978407
 10
-35.47222554295297
 20
4.12863804659554
 30
0.0
 10
-35.47577878242642
 20
4.12863804659554
 30
0.0
 10
-35.4820618207015
 20
4.128241395575997
 30
0.0
 10
-35.49045491006302
 20
4.125015550808939
 30
0.0
 10
-35.4955164246072
 20
4.118281770999786
 30
0.0
 10
-35.49612470923296
 20
4.112831642191878
 30
0.0
 10
-35.49612470923296
 20
4.109963582675533
 30
0.0
 11
-35.47222554295297
 21
4.12863804659554
 31
0.0
 11
-35.48283138321295
 21
4.127567649855535
 31
0.0
 11
-35.49025124507295
 21
4.124238602955529
 31
0.0
 11
-35.49466239553294
 21
4.118442587755538
 31
0.0
 11
-35.49612470923296
 21
4.109963582675533
 31
0.0
  0
SPLINE
  5
2BF
330
2
100
AcDbEntity
  8
GAIKEI
  6
Continuous
100
AcDbSpline
210
0.0
220
0.0
230
1.0
 70
     8
 71
     3
 72
    11
 73
     7
 74
     5
 42
0.0000000001
 43
0.0000000001
 44
0.0000000001
 12
0.0
 22
1.0
 32
0.0
 13
-1.0
 23
0.0
 33
0.0
 40
0.0
 40
0.0
 40
0.0
 40
0.0
 40
0.0086041785456541
 40
0.0158878617196854
 40
0.0240203215740648
 40
0.0346800399944792
 40
0.0346800399944792
 40
0.0346800399944792
 40
0.0346800399944792
 10
-32.09612470923293
 20
4.109963582675533
 30
0.0
 10
-32.09612470923293
 20
4.112831642190755
 30
0.0
 10
-32.09673299383169
 20
4.118281771002102
 30
0.0
 10
-32.10179450838506
 20
4.125015550808512
 30
0.0
 10
-32.11018759774353
 20
4.128241395576168
 30
0.0
 10
-32.1164706360195
 20
4.12863804659554
 30
0.0
 10
-32.12002387549296
 20
4.12863804659554
 30
0.0
 11
-32.09612470923293
 21
4.109963582675533
 31
0.0
 11
-32.09758702291293
 21
4.118442587755538
 31
0.0
 11
-32.10199817337298
 21
4.124238602955529
 31
0.0
 11
-32.10941803523292
 21
4.127567649855535
 31
0.0
 11
-32.12002387549296
 21
4.12863804659554
 31
0.0
  0
SPLINE
  5
2C0
330
2
100
AcDbEntity
  8
GAIKEI
  6
Continuous
100
AcDbSpline
210
0.0
220
0.0
230
1.0
 70
     8
 71
     3
 72
    10
 73
     6
 74
     4
 42
0.0000000001
 43
0.0000000001
 44
0.0000000001
 12
1.0
 22
0.0
 32
0.0
 13
0.0
 23
-1.0
 33
0.0
 40
0.0
 40
0.0
 40
0.0
 40
0.0
 40
0.0053267792048842
 40
0.0122005464266379
 40
0.0226157695342367
 40
0.0226157695342367
 40
0.0226157695342367
 40
0.0226157695342367
 10
-31.78484053811292
 20
4.12863804659554
 30
0.0
 10
-31.78306494504462
 20
4.12863804659554
 30
0.0
 10
-31.77883242295823
 20
4.126775077397709
 30
0.0
 10
-31.77642432513994
 20
4.119107388065501
 30
0.0
 10
-31.77612470923293
 20
4.113435323711399
 30
0.0
 10
-31.77612470923293
 20
4.109963582675533
 30
0.0
 11
-31.78484053811292
 21
4.12863804659554
 31
0.0
 11
-31.77992826471296
 21
4.126577913895516
 31
0.0
 11
-31.77704504753297
 21
4.120338063375527
 31
0.0
 11
-31.77612470923293
 21
4.109963582675533
 31
0.0
  0
SPLINE
  5
2C1
330
2
100
AcDbEntity
  8
GAIKEI
  6
Continuous
 62
     1
100
AcDbSpline
210
0.0
220
0.0
230
1.0
 70
     8
 71
     3
 72
     9
 73
     5
 74
     3
 42
0.0000000001
 43
0.0000000001
 44
0.0000000001
 12
0.0
 22
-1.0
 32
0.0
 13
-0.911379226826927
 23
0.4115676188773271
 33
0.0
 40
0.0
 40
0.0
 40
0.0
 40
0.0
 40
0.0007593494399184
 40
0.0009215802215465
 40
0.0009215802215465
 40
0.0009215802215465
 40
0.0009215802215465
 10
-31.77612470923293
 20
5.72964055917555
 30
0.0
 10
-31.77612470923293
 20
5.729387442695582
 30
0.0
 10
-31.77598017157879
 20
5.728787522294851
 30
0.0
 10
-31.77632858510486
 20
5.728907200503371
 30
0.0
 10
-31.77637786969297
 20
5.728929456815535
 30
0.0
 11
-31.77612470923293
 21
5.72964055917555
 31
0.0
 11
-31.77622119465298
 21
5.728887364555532
 31
0.0
 11
-31.77637786969297
 21
5.728929456815535
 31
0.0
  0
SPLINE
  5
2C2
330
2
100
AcDbEntity
  8
GAIKEI
  6
Continuous
 62
     1
100
AcDbSpline
210
0.0
220
0.0
230
1.0
 70
     8
 71
     3
 72
     8
 73
     4
 74
     2
 42
0.0000000001
 43
0.0000000001
 44
0.0000000001
 12
-1.0
 22
0.0
 32
0.0
 13
0.0
 23
1.0
 33
0.0
 40
0.0
 40
0.0
 40
0.0
 40
0.0
 40
0.0010738109664063
 40
0.0010738109664063
 40
0.0010738109664063
 40
0.0010738109664063
 10
-35.81573995149296
 20
5.728638046595534
 30
0.0
 10
-35.81609788848176
 20
5.728638046595534
 30
0.0
 10
-35.81612470923295
 20
5.729282622186744
 30
0.0
 10
-35.81612470923295
 20
5.72964055917555
 30
0.0
 11
-35.81573995149296
 21
5.728638046595534
 31
0.0
 11
-35.81612470923295
 21
5.72964055917555
 31
0.0
  0
SPLINE
  5
2C3
330
2
100
AcDbEntity
  8
GAIKEI
  6
Continuous
100
AcDbSpline
210
0.0
220
0.0
230
1.0
 70
     8
 71
     3
 72
    10
 73
     6
 74
     4
 42
0.0000000001
 43
0.0000000001
 44
0.0000000001
 12
0.0
 22
1.0
 32
0.0
 13
1.0
 23
0.0
 33
0.0
 40
0.0
 40
0.0
 40
0.0
 40
0.0
 40
0.0104152231093619
 40
0.0172889903311155
 40
0.0226157695360521
 40
0.0226157695360521
 40
0.0226157695360521
 40
0.0226157695360521
 10
-35.81612470923295
 20
4.109963582675533
 30
0.0
 10
-35.81612470923295
 20
4.113435323711982
 30
0.0
 10
-35.81582509330008
 20
4.119107388064364
 30
0.0
 10
-35.81341699548878
 20
4.126775077397837
 30
0.0
 10
-35.80918447340128
 20
4.12863804659554
 30
0.0
 10
-35.80740888033296
 20
4.12863804659554
 30
0.0
 11
-35.81612470923295
 21
4.109963582675533
 31
0.0
 11
-35.81520437091297
 21
4.120338063375527
 31
0.0
 11
-35.81232115373297
 21
4.126577913895516
 31
0.0
 11
-35.80740888033296
 21
4.12863804659554
 31
0.0
  0
SPLINE
  5
2C4
330
2
100
AcDbEntity
  8
GAIKEI
  6
Continuous
100
AcDbSpline
210
0.0
220
0.0
230
1.0
 70
     8
 71
     3
 72
    12
 73
     8
 74
     6
 42
0.0000000001
 43
0.0000000001
 44
0.0000000001
 12
-1.0
 22
0.0
 32
0.0
 13
0.0
 23
-1.0
 33
0.0
 40
0.0
 40
0.0
 40
0.0
 40
0.0
 40
0.0098727308925782
 40
0.018010149069816
 40
0.0255455471898956
 40
0.0338019587592546
 40
0.0437612117257433
 40
0.0437612117257433
 40
0.0437612117257433
 40
0.0437612117257433
 10
-35.86932978997294
 20
-3.571361953404448
 30
0.0
 10
-35.87262070027046
 20
-3.571361953404448
 30
0.0
 10
-35.87865042813203
 20
-3.571773560934147
 30
0.0
 10
-35.88685424429161
 20
-3.574671534723137
 30
0.0
 10
-35.89273461466843
 20
-3.580474750389434
 30
0.0
 10
-35.89570690001003
 20
-3.588738519930949
 30
0.0
 10
-35.89612470923294
 20
-3.594837121655636
 30
0.0
 10
-35.89612470923294
 20
-3.598156872644466
 30
0.0
 11
-35.86932978997294
 21
-3.571361953404448
 31
0.0
 11
-35.87915752253298
 21
-3.57230348832445
 31
0.0
 11
-35.88672899581297
 21
-3.575285160164469
 31
0.0
 11
-35.89208885767295
 21
-3.580581772824473
 31
0.0
 11
-35.89516423831293
 21
-3.588244041804472
 31
0.0
 11
-35.89612470923294
 21
-3.598156872644466
 31
0.0
  0
SPLINE
  5
2C5
330
2
100
AcDbEntity
  8
GAIKEI
  6
Continuous
100
AcDbSpline
210
0.0
220
0.0
230
1.0
 70
     8
 71
     3
 72
    15
 73
    11
 74
     9
 42
0.0000000001
 43
0.0000000001
 44
0.0000000001
 12
0.0
 22
-1.0
 32
0.0
 13
1.0
 23
0.0
 33
0.0
 40
0.0
 40
0.0
 40
0.0
 40
0.0
 40
0.0186141715953676
 40
0.0339630819924768
 40
0.0472708449443917
 40
0.0602715305239342
 40
0.0747853128162296
 40
0.0919791836616001
 40
0.1122630045443828
 40
0.1354459398340957
 40
0.1354459398340957
 40
0.1354459398340957
 40
0.1354459398340957
 10
-35.89612470923294
 20
1.695335018795532
 30
0.0
 10
-35.89612470923294
 20
1.689130294930407
 30
0.0
 10
-35.8955422314634
 20
1.677778975388633
 30
0.0
 10
-35.89179055783728
 20
1.662335712271755
 30
0.0
 10
-35.88486808974037
 20
1.650044171911176
 30
0.0
 10
-35.87453921417449
 20
1.640831339899719
 30
0.0
 10
-35.86085377601748
 20
1.634533781294763
 30
0.0
 10
-35.84387074827637
 20
1.630714019497204
 30
0.0
 10
-35.82370264342547
 20
1.628880031961713
 30
0.0
 10
-35.8092088918495
 20
1.62863804659554
 30
0.0
 10
-35.80148124675293
 20
1.62863804659554
 30
0.0
 11
-35.89612470923294
 21
1.695335018795532
 31
0.0
 11
-35.89485151935293
 21
1.676764440675526
 31
0.0
 11
-35.89091488133295
 21
1.661928945015517
 31
0.0
 11
-35.88423246295292
 21
1.650420607195542
 31
0.0
 11
-35.87459597119295
 21
1.641693875155539
 31
0.0
 11
-35.86153767049296
 21
1.635358998735512
 31
0.0
 11
-35.84483413957298
 21
1.631282082075529
 31
0.0
 11
-35.82465734197297
 21
1.629201162035542
 31
0.0
 11
-35.80148124675293
 21
1.62863804659554
 31
0.0
  0
SPLINE
  5
2C6
330
2
100
AcDbEntity
  8
GAIKEI
  6
Continuous
100
AcDbSpline
210
0.0
220
0.0
230
1.0
 70
     8
 71
     3
 72
    12
 73
     8
 74
     6
 42
0.0000000001
 43
0.0000000001
 44
0.0000000001
 12
0.0
 22
1.0
 32
0.0
 13
-1.0
 23
0.0
 33
0.0
 40
0.0
 40
0.0
 40
0.0
 40
0.0
 40
0.0099592529645591
 40
0.0182156645339181
 40
0.0257510626540382
 40
0.0338884808312759
 40
0.0437612117237975
 40
0.0437612117237975
 40
0.0437612117237975
 40
0.0437612117237975
 10
-31.69612470923295
 20
-3.598156872644466
 30
0.0
 10
-31.69612470923295
 20
-3.594837121656283
 30
0.0
 10
-31.69654251842844
 20
-3.588738519929592
 30
0.0
 10
-31.69951480377913
 20
-3.580474750389569
 30
0.0
 10
-31.70539517415387
 20
-3.574671534723108
 30
0.0
 10
-31.71359899031403
 20
-3.571773560934154
 30
0.0
 10
-31.71962871817543
 20
-3.571361953404448
 30
0.0
 10
-31.72291962847294
 20
-3.571361953404448
 30
0.0
 11
-31.69612470923295
 21
-3.598156872644466
 31
0.0
 11
-31.69708518013294
 21
-3.588244041804472
 31
0.0
 11
-31.70016056077293
 21
-3.580581772824473
 31
0.0
 11
-31.70552042263296
 21
-3.575285160164469
 31
0.0
 11
-31.71309189591295
 21
-3.57230348832445
 31
0.0
 11
-31.72291962847294
 21
-3.571361953404448
 31
0.0
  0
SPLINE
  5
2C7
330
2
100
AcDbEntity
  8
GAIKEI
  6
Continuous
100
AcDbSpline
210
0.0
220
0.0
230
1.0
 70
     8
 71
     3
 72
    15
 73
    11
 74
     9
 42
0.0000000001
 43
0.0000000001
 44
0.0000000001
 12
1.0
 22
0.0
 32
0.0
 13
0.0
 23
1.0
 33
0.0
 40
0.0
 40
0.0
 40
0.0
 40
0.0
 40
0.023182935289656
 40
0.0434667561724387
 40
0.0606606270178093
 40
0.0751744093101559
 40
0.0881750948896983
 40
0.1014828578416132
 40
0.1168317682387224
 40
0.1354459398327214
 40
0.1354459398327214
 40
0.1354459398327214
 40
0.1354459398327214
 10
-31.79076817169295
 20
1.62863804659554
 30
0.0
 10
-31.78304052659639
 20
1.62863804659554
 30
0.0
 10
-31.76854677502044
 20
1.628880031961685
 30
0.0
 10
-31.74837867016957
 20
1.630714019497219
 30
0.0
 10
-31.7313956424284
 20
1.634533781294777
 30
0.0
 10
-31.7177102042715
 20
1.640831339899676
 30
0.0
 10
-31.70738132870512
 20
1.650044171911133
 30
0.0
 10
-31.70045886061019
 20
1.662335712271868
 30
0.0
 10
-31.69670718697496
 20
1.677778975387667
 30
0.0
 10
-31.69612470923295
 20
1.689130294930862
 30
0.0
 10
-31.69612470923295
 20
1.695335018795532
 30
0.0
 11
-31.79076817169295
 21
1.62863804659554
 31
0.0
 11
-31.76759207647297
 21
1.629201162035542
 31
0.0
 11
-31.74741527887295
 21
1.631282082075529
 31
0.0
 11
-31.73071174795297
 21
1.635358998735512
 31
0.0
 11
-31.71765344725293
 21
1.641693875155539
 31
0.0
 11
-31.70801695549295
 21
1.650420607195542
 31
0.0
 11
-31.70133453711293
 21
1.661928945015517
 31
0.0
 11
-31.69739789909295
 21
1.676764440675526
 31
0.0
 11
-31.69612470923295
 21
1.695335018795532
 31
0.0
  0
SPLINE
  5
2C8
330
2
100
AcDbEntity
  8
GAIKEI
  6
Continuous
100
AcDbSpline
210
0.0
220
0.0
230
1.0
 70
     8
 71
     3
 72
    13
 73
     9
 74
     7
 42
0.0000000001
 43
0.0000000001
 44
0.0000000001
 12
-1.0
 22
0.0
 32
0.0
 13
0.0
 23
1.0
 33
0.0
 40
0.0
 40
0.0
 40
0.0
 40
0.0
 40
0.009741798870737
 40
0.0192169246215024
 40
0.0302346312295077
 40
0.0438162199684638
 40
0.0604406737710116
 40
0.0803179503572984
 40
0.0803179503572984
 40
0.0803179503572984
 40
0.0803179503572984
 10
-36.18755120423293
 20
1.62863804659554
 30
0.0
 10
-36.19079847052318
 20
1.62863804659554
 30
0.0
 10
-36.19736696104463
 20
1.629729282392744
 30
0.0
 10
-36.20556056171211
 20
1.636227382582376
 30
0.0
 10
-36.21088814146557
 20
1.646494098667687
 30
0.0
 10
-36.21417068104083
 20
1.659896728091695
 30
0.0
 10
-36.21586976156888
 20
1.67653773298133
 30
0.0
 10
-36.21612470923293
 20
1.688709259933432
 30
0.0
 10
-36.21612470923293
 20
1.695335018795532
 30
0.0
 11
-36.18755120423293
 21
1.62863804659554
 31
0.0
 11
-36.19710843175295
 21
1.630525385295527
 31
0.0
 11
-36.20464024935297
 21
1.636274274895527
 31
0.0
 11
-36.21010866663295
 21
1.645839120495537
 31
0.0
 11
-36.21364929485293
 21
1.65895108085553
 31
0.0
 11
-36.21555542927297
 21
1.675465895895541
 31
0.0
 11
-36.21612470923293
 21
1.695335018795532
 31
0.0
  0
SPLINE
  5
2C9
330
2
100
AcDbEntity
  8
GAIKEI
  6
Continuous
100
AcDbSpline
210
0.0
220
0.0
230
1.0
 70
     8
 71
     3
 72
    11
 73
     7
 74
     5
 42
0.0000000001
 43
0.0000000001
 44
0.0000000001
 12
0.0
 22
1.0
 32
0.0
 13
1.0
 23
0.0
 33
0.0
 40
0.0
 40
0.0
 40
0.0
 40
0.0
 40
0.0115793784954182
 40
0.0202037331619302
 40
0.0261530348996987
 40
0.0308524438654623
 40
0.0308524438654623
 40
0.0308524438654623
 40
0.0308524438654623
 10
-36.21612470923293
 20
-3.598156872644466
 30
0.0
 10
-36.21612470923293
 20
-3.594297079812662
 30
0.0
 10
-36.21592187050734
 20
-3.5875289474275
 30
0.0
 10
-36.21448995345762
 20
-3.578967092329186
 30
0.0
 10
-36.21164552654469
 20
-3.572840065019462
 30
0.0
 10
-36.20798521176819
 20
-3.571361953404448
 30
0.0
 10
-36.20641874211293
 20
-3.571361953404448
 30
0.0
 11
-36.21612470923293
 21
-3.598156872644466
 31
0.0
 11
-36.21559547333294
 21
-3.586589594844468
 31
0.0
 11
-36.21386969331297
 21
-3.578139673144448
 31
0.0
 11
-36.21080910505293
 21
-3.573038007664479
 31
0.0
 11
-36.20641874211293
 21
-3.571361953404448
 31
0.0
  0
SPLINE
  5
2CA
330
2
100
AcDbEntity
  8
GAIKEI
  6
Continuous
100
AcDbSpline
210
0.0
220
0.0
230
1.0
 70
     8
 71
     3
 72
    11
 73
     7
 74
     5
 42
0.0000000001
 43
0.0000000001
 44
0.0000000001
 12
1.0
 22
0.0
 32
0.0
 13
0.0
 23
-1.0
 33
0.0
 40
0.0
 40
0.0
 40
0.0
 40
0.0
 40
0.0046994089657635
 40
0.0106487107035028
 40
0.0192730653700262
 40
0.0308524438645299
 40
0.0308524438645299
 40
0.0308524438645299
 40
0.0308524438645299
 10
-31.38583067633295
 20
-3.571361953404448
 30
0.0
 10
-31.38426420667769
 20
-3.571361953404448
 30
0.0
 10
-31.38060389190096
 20
-3.572840065019434
 30
0.0
 10
-31.37775946498943
 20
-3.578967092329278
 30
0.0
 10
-31.37632754793159
 20
-3.587528947426882
 30
0.0
 10
-31.37612470923296
 20
-3.594297079812967
 30
0.0
 10
-31.37612470923296
 20
-3.598156872644466
 30
0.0
 11
-31.38583067633295
 21
-3.571361953404448
 31
0.0
 11
-31.38144031339294
 21
-3.573038007664479
 31
0.0
 11
-31.37837972513296
 21
-3.578139673144448
 31
0.0
 11
-31.37665394511294
 21
-3.586589594844468
 31
0.0
 11
-31.37612470923296
 21
-3.598156872644466
 31
0.0
  0
SPLINE
  5
2CB
330
2
100
AcDbEntity
  8
GAIKEI
  6
Continuous
100
AcDbSpline
210
0.0
220
0.0
230
1.0
 70
     8
 71
     3
 72
    13
 73
     9
 74
     7
 42
0.0000000001
 43
0.0000000001
 44
0.0000000001
 12
0.0
 22
-1.0
 32
0.0
 13
-1.0
 23
0.0
 33
0.0
 40
0.0
 40
0.0
 40
0.0
 40
0.0
 40
0.0198772765857153
 40
0.0365017303882566
 40
0.0500833191272128
 40
0.061101025735218
 40
0.0705761514859835
 40
0.0803179503567204
 40
0.0803179503567204
 40
0.0803179503567204
 40
0.0803179503567204
 10
-31.37612470923296
 20
1.695335018795532
 30
0.0
 10
-31.37612470923296
 20
1.688709259933631
 30
0.0
 10
-31.37637965686935
 20
1.676537732980904
 30
0.0
 10
-31.37807873740657
 20
1.659896728091752
 30
0.0
 10
-31.38136127698003
 20
1.646494098667659
 30
0.0
 10
-31.38668885673383
 20
1.636227382582362
 30
0.0
 10
-31.39488245740123
 20
1.629729282392759
 30
0.0
 10
-31.4014509479227
 20
1.62863804659554
 30
0.0
 10
-31.40469821421294
 20
1.62863804659554
 30
0.0
 11
-31.37612470923296
 21
1.695335018795532
 31
0.0
 11
-31.37669398917296
 21
1.675465895895541
 31
0.0
 11
-31.37860012359295
 21
1.65895108085553
 31
0.0
 11
-31.38214075181293
 21
1.645839120495537
 31
0.0
 11
-31.38760916909291
 21
1.636274274895527
 31
0.0
 11
-31.39514098669292
 21
1.630525385295527
 31
0.0
 11
-31.40469821421294
 21
1.62863804659554
 31
0.0
  0
SPLINE
  5
2CC
330
2
100
AcDbEntity
  8
GAIKEI
  6
Continuous
100
AcDbSpline
210
0.0
220
0.0
230
1.0
 70
     8
 71
     3
 72
    21
 73
    17
 74
    15
 42
0.0000000001
 43
0.0000000001
 44
0.0000000001
 12
0.0
 22
1.0
 32
0.0
 13
-1.0
 23
0.0
 33
0.0
 40
0.0
 40
0.0
 40
0.0
 40
0.0
 40
0.0052790932131575
 40
0.0127262033401303
 40
0.0231788196776582
 40
0.0368376775834808
 40
0.0536752716922444
 40
0.0735553303298234
 40
0.0962731461354658
 40
0.121573151938519
 40
0.1491588858572358
 40
0.1787001260560936
 40
0.2098389289893283
 40
0.2421952615918904
 40
0.2753725128173106
 40
0.308962996935712
 40
0.308962996935712
 40
0.308962996935712
 40
0.308962996935712
 10
-37.52612470923293
 20
15.79593244765553
 30
0.0
 10
-37.52612470923293
 20
15.79769214539325
 30
0.0
 10
-37.52809160689408
 20
15.80184453089389
 30
0.0
 10
-37.53436795152577
 20
15.80650608055043
 30
0.0
 10
-37.54385261071128
 20
15.8111208840146
 30
0.0
 10
-37.55679847310547
 20
15.81552643958389
 30
0.0
 10
-37.57305843941539
 20
15.81975149803
 30
0.0
 10
-37.59248115786617
 20
15.82369859165743
 30
0.0
 10
-37.61482624055441
 20
15.82732141733024
 30
0.0
 10
-37.63982140484096
 20
15.83056498486975
 30
0.0
 10
-37.66715447713392
 20
15.83338619646056
 30
0.0
 10
-37.69648376009304
 20
15.83574682575478
 30
0.0
 10
-37.72744139396939
 20
15.83761573933262
 30
0.0
 10
-37.75963882486468
 20
15.83896836552443
 30
0.0
 10
-37.79267152545401
 20
15.83978705008653
 30
0.0
 10
-37.81492788119348
 20
15.83996939531553
 30
0.0
 10
-37.82612470923294
 20
15.83996939531553
 30
0.0
 11
-37.52612470923293
 21
15.79593244765553
 31
0.0
 11
-37.52801104625297
 21
15.80086302143553
 31
0.0
 11
-37.53364633557294
 21
15.80573159037553
 31
0.0
 11
-37.54295971013295
 21
15.81047692941553
 31
0.0
 11
-37.55583404885295
 21
15.81503936317551
 31
0.0
 11
-37.57210744945292
 21
15.81936151637552
 31
0.0
 11
-37.59157526447296
 21
15.82338903543552
 31
0.0
 11
-37.61399267487298
 21
15.82707127197554
 31
0.0
 11
-37.63907776867296
 21
15.83036191973554
 31
0.0
 11
-37.66651508627297
 21
15.83321959689553
 31
0.0
 11
-37.69595958749295
 21
15.83560836653552
 31
0.0
 11
-37.72704099063293
 21
15.83749818847553
 31
0.0
 11
-37.75936842903298
 21
15.83886529709554
 31
0.0
 11
-37.79253536639294
 21
15.83969250023551
 31
0.0
 11
-37.82612470923294
 21
15.83996939531553
 31
0.0
  0
SPLINE
  5
2CD
330
2
100
AcDbEntity
  8
GAIKEI
  6
Continuous
100
AcDbSpline
210
0.0
220
0.0
230
1.0
 70
     8
 71
     3
 72
    21
 73
    17
 74
    15
 42
0.0000000001
 43
0.0000000001
 44
0.0000000001
 12
-1.0
 22
0.0
 32
0.0
 13
0.0
 23
-1.0
 33
0.0
 40
0.0
 40
0.0
 40
0.0
 40
0.0
 40
0.0335904840983933
 40
0.0667677353238703
 40
0.0991240679263756
 40
0.1302628708596103
 40
0.1598041110585248
 40
0.187389844977185
 40
0.2126898507802946
 40
0.235407666585937
 40
0.2552877252234603
 40
0.2721253193322239
 40
0.2857841772380464
 40
0.2962367935755743
 40
0.3036839037025902
 40
0.308962996922877
 40
0.308962996922877
 40
0.308962996922877
 40
0.308962996922877
 10
-29.76612470923294
 20
15.83996939531553
 30
0.0
 10
-29.77732153726574
 20
15.83996939531553
 30
0.0
 10
-29.79957789299856
 20
15.83978705008633
 30
0.0
 10
-29.83261059358123
 20
15.83896836552445
 30
0.0
 10
-29.86480802447651
 20
15.83761573933262
 30
0.0
 10
-29.89576565835285
 20
15.83574682575478
 30
0.0
 10
-29.92509494131199
 20
15.83338619646055
 30
0.0
 10
-29.95242801360497
 20
15.83056498486978
 30
0.0
 10
-29.97742317789147
 20
15.82732141733021
 30
0.0
 10
-29.99976826057983
 20
15.8236985916575
 30
0.0
 10
-30.01919097903023
 20
15.81975149802987
 30
0.0
 10
-30.03545094534118
 20
15.8155264395842
 30
0.0
 10
-30.04839680773252
 20
15.8111208840138
 30
0.0
 10
-30.05788146692522
 20
15.80650608055245
 30
0.0
 10
-30.06415781154213
 20
15.80184453088785
 30
0.0
 10
-30.06612470923295
 20
15.79769214539563
 30
0.0
 10
-30.06612470923295
 20
15.79593244765553
 30
0.0
 11
-29.76612470923294
 21
15.83996939531553
 31
0.0
 11
-29.79971405205294
 21
15.83969250023551
 31
0.0
 11
-29.83288098941296
 21
15.83886529709554
 31
0.0
 11
-29.86520842781295
 21
15.83749818847553
 31
0.0
 11
-29.89628983095292
 21
15.83560836653552
 31
0.0
 11
-29.92573433217297
 21
15.83321959689553
 31
0.0
 11
-29.95317164977291
 21
15.83036191973554
 31
0.0
 11
-29.97825674357296
 21
15.82707127197554
 31
0.0
 11
-30.00067415397297
 21
15.82338903543552
 31
0.0
 11
-30.02014196899296
 21
15.81936151637552
 31
0.0
 11
-30.03641536959293
 21
15.81503936317551
 31
0.0
 11
-30.04928970831293
 21
15.81047692941553
 31
0.0
 11
-30.05860308287294
 21
15.80573159037553
 31
0.0
 11
-30.06423837219296
 21
15.80086302143553
 31
0.0
 11
-30.06612470923295
 21
15.79593244765553
 31
0.0
  0
SPLINE
  5
2CE
330
2
100
AcDbEntity
  8
GAIKEI
  6
Continuous
100
AcDbSpline
210
0.0
220
0.0
230
1.0
 70
     8
 71
     3
 72
    21
 73
    17
 74
    15
 42
0.0000000001
 43
0.0000000001
 44
0.0000000001
 12
0.0
 22
1.0
 32
0.0
 13
1.0
 23
0.0
 33
0.0
 40
0.0
 40
0.0
 40
0.0
 40
0.0
 40
0.0354975971323393
 40
0.0710049302881136
 40
0.106531239675102
 40
0.1420848000639705
 40
0.1776725026993284
 40
0.2132995096256752
 40
0.2489689985116987
 40
0.2846820093593643
 40
0.3204373999679493
 40
0.3562319107744265
 40
0.3920603341669633
 40
0.4279157789830536
 40
0.4637900158806816
 40
0.4996738866092069
 40
0.4996738866092069
 40
0.4996738866092069
 40
0.4996738866092069
 10
-38.52612470923293
 20
15.52343572995553
 30
0.0
 10
-38.52612470923293
 20
15.53526826233297
 30
0.0
 10
-38.52478006313212
 20
15.55895850966733
 30
0.0
 10
-38.51875485995988
 20
15.59402756788498
 30
0.0
 10
-38.50879728630755
 20
15.6282129101603
 30
0.0
 10
-38.49503284819043
 20
15.66107840730447
 30
0.0
 10
-38.47763499016924
 20
15.69221222443184
 30
0.0
 10
-38.4568228722369
 20
15.72122239295852
 30
0.0
 10
-38.43285857438917
 20
15.74774432039679
 30
0.0
 10
-38.4060437481521
 20
15.77144466821994
 30
0.0
 10
-38.37671583906648
 20
15.79202570344479
 30
0.0
 10
-38.34524364340968
 20
15.80922895747848
 30
0.0
 10
-38.31202332834042
 20
15.82283845097927
 30
0.0
 10
-38.27747096526689
 20
15.83268336660063
 30
0.0
 10
-38.24202661353034
 20
15.83864016313147
 30
0.0
 10
-38.21808599947578
 20
15.83996939531553
 30
0.0
 10
-38.20612470923294
 20
15.83996939531553
 30
0.0
 11
-38.52612470923293
 21
15.52343572995553
 31
0.0
 11
-38.52411261639293
 21
15.55887625597552
 31
0.0
 11
-38.51810164111294
 21
15.59387109679554
 31
0.0
 11
-38.50816737491295
 21
15.62798017203553
 31
0.0
 11
-38.49443474695295
 21
15.66077454023553
 31
0.0
 11
-38.47707645297294
 21
15.69184179323554
 31
0.0
 11
-38.45631078361293
 21
15.72079124225553
 31
0.0
 11
-38.43239887921294
 21
15.74725883121553
 31
0.0
 11
-38.40564144581293
 21
15.77091171479554
 31
0.0
 11
-38.37637497371293
 21
15.79145244429554
 31
0.0
 11
-38.34496750573294
 21
15.80862270809553
 31
0.0
 11
-38.31181400905297
 21
15.82220658017553
 31
0.0
 11
-38.27733140809295
 21
15.83203323545552
 31
0.0
 11
-38.24195334157298
 21
15.83797909807552
 31
0.0
 11
-38.20612470923294
 21
15.83996939531553
 31
0.0
  0
SPLINE
  5
2CF
330
2
100
AcDbEntity
  8
GAIKEI
  6
Continuous
100
AcDbSpline
210
0.0
220
0.0
230
1.0
 70
     8
 71
     3
 72
    21
 73
    17
 74
    15
 42
0.0000000001
 43
0.0000000001
 44
0.0000000001
 12
1.0
 22
0.0
 32
0.0
 13
0.0
 23
-1.0
 33
0.0
 40
0.0
 40
0.0
 40
0.0
 40
0.0
 40
0.0358838707484466
 40
0.0717581076461307
 40
0.1076135524621662
 40
0.1434419758547556
 40
0.1792364866612329
 40
0.2149918772698179
 40
0.2507048881024921
 40
0.2863743770019291
 40
0.3220013839282759
 40
0.3575890865636339
 40
0.3931426469525023
 40
0.4286689563394908
 40
0.4641762894952651
 40
0.4996738866264703
 40
0.4996738866264703
 40
0.4996738866264703
 40
0.4996738866264703
 10
-29.38612470923295
 20
15.83996939531553
 30
0.0
 10
-29.37416341898347
 20
15.83996939531553
 30
0.0
 10
-29.35022280492214
 20
15.83864016313285
 30
0.0
 10
-29.31477845317899
 20
15.83268336660062
 30
0.0
 10
-29.28022609010557
 20
15.82283845097919
 30
0.0
 10
-29.2470057750359
 20
15.80922895747881
 30
0.0
 10
-29.21553357938058
 20
15.79202570344351
 30
0.0
 10
-29.18620567029343
 20
15.77144466822761
 30
0.0
 10
-29.15939084407721
 20
15.74774432038286
 30
0.0
 10
-29.13542654620688
 20
15.72122239296661
 30
0.0
 10
-29.11461442827786
 20
15.69221222443066
 30
0.0
 10
-29.09721657025527
 20
15.66107840730477
 30
0.0
 10
-29.08345213213775
 20
15.62821291016027
 30
0.0
 10
-29.07349455848845
 20
15.59402756788485
 30
0.0
 10
-29.06746935530456
 20
15.5589585096682
 30
0.0
 10
-29.06612470923295
 20
15.53526826233261
 30
0.0
 10
-29.06612470923295
 20
15.52343572995553
 30
0.0
 11
-29.38612470923295
 21
15.83996939531553
 31
0.0
 11
-29.35029607687295
 21
15.83797909807552
 31
0.0
 11
-29.31491801035292
 21
15.83203323545552
 31
0.0
 11
-29.28043540939297
 21
15.82220658017553
 31
0.0
 11
-29.24728191271294
 21
15.80862270809553
 31
0.0
 11
-29.21587444473295
 21
15.79145244429554
 31
0.0
 11
-29.18660797263294
 21
15.77091171479554
 31
0.0
 11
-29.15985053925295
 21
15.74725883121553
 31
0.0
 11
-29.13593863483294
 21
15.72079124225553
 31
0.0
 11
-29.11517296547294
 21
15.69184179323554
 31
0.0
 11
-29.09781467149293
 21
15.66077454023553
 31
0.0
 11
-29.08408204353293
 21
15.62798017203553
 31
0.0
 11
-29.07414777733294
 21
15.59387109679554
 31
0.0
 11
-29.06813680205295
 21
15.55887625597552
 31
0.0
 11
-29.06612470923295
 21
15.52343572995553
 31
0.0
  0
SPLINE
  5
2D0
330
2
100
AcDbEntity
  8
GAIKEI
  6
Continuous
100
AcDbSpline
210
0.0
220
0.0
230
1.0
 70
     8
 71
     3
 72
    21
 73
    17
 74
    15
 42
0.0000000001
 43
0.0000000001
 44
0.0000000001
 12
1.0
 22
0.0
 32
0.0
 13
0.0
 23
1.0
 33
0.0
 40
0.0
 40
0.0
 40
0.0
 40
0.0
 40
0.0333670396718782
 40
0.0663402214008771
 40
0.0985291308405502
 40
0.129550532546517
 40
0.1590326701537631
 40
0.1866196595525095
 40
0.2119771417324016
 40
0.2347989582053703
 40
0.2548152744317256
 40
0.2718045995135792
 40
0.2856136019663619
 40
0.2962002265217361
 40
0.3037572403266135
 40
0.3091269340199292
 40
0.3091269340199292
 40
0.3091269340199292
 40
0.3091269340199292
 10
-37.82612470923294
 20
8.812142340795531
 30
0.0
 10
-37.81500236267565
 20
8.812142340795531
 30
0.0
 10
-37.79288851089306
 20
8.812324291940129
 30
0.0
 10
-37.76005414446866
 20
8.813141535537369
 30
0.0
 10
-37.72801977049626
 20
8.814493059532964
 30
0.0
 10
-37.69717704125481
 20
8.816362990997561
 30
0.0
 10
-37.66790677918294
 20
8.81872893906538
 30
0.0
 10
-37.64057504151144
 20
8.821562073387042
 30
0.0
 10
-37.61552782823634
 20
8.82482630684484
 30
0.0
 10
-37.59308718427343
 20
8.828480182514283
 30
0.0
 10
-37.57353965935501
 20
8.832469720356485
 30
0.0
 10
-37.55714261663135
 20
8.836748530364076
 30
0.0
 10
-37.54406479594234
 20
8.841218598904617
 30
0.0
 10
-37.53446924161281
 20
8.845906721752697
 30
0.0
 10
-37.52811293963089
 20
8.850651474214615
 30
0.0
 10
-37.52612470923293
 20
8.854871635617769
 30
0.0
 10
-37.52612470923293
 20
8.856661533515534
 30
0.0
 11
-37.82612470923294
 21
8.812142340795531
 31
0.0
 11
-37.79275881275294
 21
8.812418544615525
 31
0.0
 11
-37.75979596737295
 21
8.813244097635532
 31
0.0
 11
-37.72763604343294
 21
8.814609814695529
 31
0.0
 11
-37.69667230359295
 21
8.816500364595526
 31
0.0
 11
-37.66728751777293
 21
8.818894273575523
 31
0.0
 11
-37.63985018761298
 21
8.821763924735535
 31
0.0
 11
-37.61470989185295
 21
8.825075636015526
 31
0.0
 11
-37.59219234149294
 21
8.82878982945553
 31
0.0
 11
-37.57259447513297
 21
8.832861260335533
 31
0.0
 11
-37.55617897537297
 21
8.837239448815523
 31
0.0
 11
-37.54316922005296
 21
8.84186922367553
 31
0.0
 11
-37.53374461211297
 21
8.846691400015515
 31
0.0
 11
-37.52803641473292
 21
8.851643666195514
 31
0.0
 11
-37.52612470923293
 21
8.856661533515534
 31
0.0
  0
SPLINE
  5
2D1
330
2
100
AcDbEntity
  8
GAIKEI
  6
Continuous
100
AcDbSpline
210
0.0
220
0.0
230
1.0
 70
     8
 71
     3
 72
    10
 73
     6
 74
     4
 42
0.0000000001
 43
0.0000000001
 44
0.0000000001
 12
-0.9728477543574683
 22
0.2314459911980138
 32
0.0
 13
-0.9979691697871754
 23
0.0636987924084606
 33
0.0
 40
0.0
 40
0.0
 40
0.0
 40
0.0
 40
0.0026161314761095
 40
0.0382846540577471
 40
0.0537702178492139
 40
0.0537702178492139
 40
0.0537702178492139
 40
0.0537702178492139
 10
-29.31282631561294
 20
8.803541268155527
 30
0.0
 10
-29.31367468149015
 20
8.80374309920306
 30
0.0
 10
-29.32610143406397
 20
8.806645406659967
 30
0.0
 10
-29.34381870419677
 20
8.809668893602903
 30
0.0
 10
-29.36080833380606
 20
8.811170274511098
 30
0.0
 10
-29.36595970555294
 20
8.811499078415522
 30
0.0
 11
-29.31282631561294
 21
8.803541268155527
 31
0.0
 11
-29.31537389107297
 21
8.804136249815542
 31
0.0
 11
-29.35053431469294
 21
8.810135259235522
 31
0.0
 11
-29.36595970555294
 21
8.811499078415522
 31
0.0
  0
SPLINE
  5
2D2
330
2
100
AcDbEntity
  8
GAIKEI
  6
Continuous
100
AcDbSpline
210
0.0
220
0.0
230
1.0
 70
     8
 71
     3
 72
     8
 73
     4
 74
     2
 42
0.0000000001
 43
0.0000000001
 44
0.0000000001
 12
-0.9979691698101888
 22
0.0636987920479076
 32
0.0
 13
-1.0
 23
0.0
 33
0.0
 40
0.0
 40
0.0
 40
0.0
 40
0.0
 40
0.0201752610863947
 40
0.0201752610863947
 40
0.0201752610863947
 40
0.0201752610863947
 10
-29.36595970555294
 20
8.811499078415522
 30
0.0
 10
-29.37267113507197
 20
8.811927458335674
 30
0.0
 10
-29.37939962220415
 20
8.812142340795531
 30
0.0
 10
-29.38612470923295
 20
8.812142340795531
 30
0.0
 11
-29.36595970555294
 21
8.811499078415522
 31
0.0
 11
-29.38612470923295
 21
8.812142340795531
 31
0.0
  0
SPLINE
  5
2D3
330
2
100
AcDbEntity
  8
GAIKEI
  6
Continuous
100
AcDbSpline
210
0.0
220
0.0
230
1.0
 70
     8
 71
     3
 72
     8
 73
     4
 74
     2
 42
0.0000000001
 43
0.0000000001
 44
0.0000000001
 12
-1.0
 22
0.0
 32
0.0
 13
-0.9979691698101888
 23
-0.0636987920479076
 33
0.0
 40
0.0
 40
0.0
 40
0.0
 40
0.0
 40
0.020175261066396
 40
0.020175261066396
 40
0.020175261066396
 40
0.020175261066396
 10
-38.20612470923294
 20
8.812142340795531
 30
0.0
 10
-38.21284979625507
 20
8.812142340795531
 30
0.0
 10
-38.21957828338056
 20
8.811927458335247
 30
0.0
 10
-38.22628971289294
 20
8.811499078415522
 30
0.0
 11
-38.20612470923294
 21
8.812142340795531
 31
0.0
 11
-38.22628971289294
 21
8.811499078415522
 31
0.0
  0
SPLINE
  5
2D4
330
2
100
AcDbEntity
  8
GAIKEI
  6
Continuous
100
AcDbSpline
210
0.0
220
0.0
230
1.0
 70
     8
 71
     3
 72
    10
 73
     6
 74
     4
 42
0.0000000001
 43
0.0000000001
 44
0.0000000001
 12
-0.9979691697871754
 22
-0.0636987924084606
 32
0.0
 13
-0.9728477543574683
 23
-0.2314459911980138
 33
0.0
 40
0.0
 40
0.0
 40
0.0
 40
0.0
 40
0.0154855637914668
 40
0.0511540863731605
 40
0.0537702178492146
 40
0.0537702178492146
 40
0.0537702178492146
 40
0.0537702178492146
 10
-38.22628971289294
 20
8.811499078415522
 30
0.0
 10
-38.23144108463983
 20
8.811170274511098
 30
0.0
 10
-38.24843071424912
 20
8.809668893602918
 30
0.0
 10
-38.26614798438192
 20
8.806645406659924
 30
0.0
 10
-38.27857473695575
 20
8.80374309920306
 30
0.0
 10
-38.27942310283294
 20
8.803541268155527
 30
0.0
 11
-38.22628971289294
 21
8.811499078415522
 31
0.0
 11
-38.24171510375294
 21
8.810135259235522
 31
0.0
 11
-38.27687552737297
 21
8.804136249815542
 31
0.0
 11
-38.27942310283294
 21
8.803541268155527
 31
0.0
  0
SPLINE
  5
2D5
330
2
100
AcDbEntity
  8
GAIKEI
  6
Continuous
100
AcDbSpline
210
0.0
220
0.0
230
1.0
 70
     8
 71
     3
 72
    21
 73
    17
 74
    15
 42
0.0000000001
 43
0.0000000001
 44
0.0000000001
 12
0.0
 22
-1.0
 32
0.0
 13
1.0
 23
0.0
 33
0.0
 40
0.0
 40
0.0
 40
0.0
 40
0.0
 40
0.0053696937004391
 40
0.0129267075052736
 40
0.0235133320606478
 40
0.0373223345134305
 40
0.0543116595952842
 40
0.0743279758216952
 40
0.0971497922946077
 40
0.1225072744744998
 40
0.1500942638733028
 40
0.1795764014805489
 40
0.2105978031865157
 40
0.242786712626132
 40
0.2757598943551877
 40
0.3091269340070577
 40
0.3091269340070577
 40
0.3091269340070577
 40
0.3091269340070577
 10
-30.06612470923295
 20
8.856661533515534
 30
0.0
 10
-30.06612470923295
 20
8.854871635615381
 30
0.0
 10
-30.06413647880525
 20
8.850651474220711
 30
0.0
 10
-30.05778017683825
 20
8.845906721750637
 30
0.0
 10
-30.04818462250152
 20
8.841218598905442
 30
0.0
 10
-30.03510680181536
 20
8.83674853036382
 30
0.0
 10
-30.01870975909063
 20
8.832469720356598
 30
0.0
 10
-29.99916223417258
 20
8.82848018251424
 30
0.0
 10
-29.97672159020954
 20
8.824826306844855
 30
0.0
 10
-29.95167437693448
 20
8.821562073387028
 30
0.0
 10
-29.92434263926295
 20
8.81872893906538
 30
0.0
 10
-29.89507237719106
 20
8.816362990997561
 30
0.0
 10
-29.86422964794964
 20
8.814493059532964
 30
0.0
 10
-29.83219527397724
 20
8.813141535537354
 30
0.0
 10
-29.79936090755951
 20
8.81232429194037
 30
0.0
 10
-29.77724705578356
 20
8.812142340795531
 30
0.0
 10
-29.76612470923294
 20
8.812142340795531
 30
0.0
 11
-30.06612470923295
 21
8.856661533515534
 31
0.0
 11
-30.06421300371295
 21
8.851643666195514
 31
0.0
 11
-30.05850480633296
 21
8.846691400015515
 31
0.0
 11
-30.04908019839297
 21
8.84186922367553
 31
0.0
 11
-30.03607044307296
 21
8.837239448815523
 31
0.0
 11
-30.01965494331296
 21
8.832861260335533
 31
0.0
 11
-30.00005707695294
 21
8.82878982945553
 31
0.0
 11
-29.97753952659298
 21
8.825075636015526
 31
0.0
 11
-29.95239923083295
 21
8.821763924735535
 31
0.0
 11
-29.92496190067294
 21
8.818894273575523
 31
0.0
 11
-29.89557711485293
 21
8.816500364595526
 31
0.0
 11
-29.86461337501294
 21
8.814609814695529
 31
0.0
 11
-29.83245345107298
 21
8.813244097635532
 31
0.0
 11
-29.79949060569294
 21
8.812418544615525
 31
0.0
 11
-29.76612470923294
 21
8.812142340795531
 31
0.0
  0
TEXT
  5
2D6
330
2
100
AcDbEntity
  8
MOJI1
100
AcDbText
 10
-20.24386261186219
 20
-49.86297014867478
 30
0.0
 40
3.0
  1
ＷＳ－Ｍ２５０－Ｋ
100
AcDbText
  0
LINE
  5
2D7
330
2
100
AcDbEntity
  8
WAKU
 62
     4
100
AcDbLine
 10
62.25613738813781
 20
-60.86297014867477
 30
0.0
 11
62.25613738813781
 21
-25.86297014867478
 31
0.0
  0
TEXT
  5
2D9
330
2
100
AcDbEntity
  8
MOJI1
100
AcDbText
 10
-20.24386261186219
 20
-39.86297014867478
 30
0.0
 40
3.0
  1
ＷＳ－Ｍ８０－Ｋ、ＷＳ－Ｍ８０－Ｗ
100
AcDbText
  0
TEXT
  5
2DA
330
2
100
AcDbEntity
  8
MOJI1
100
AcDbText
 10
-20.24386261186219
 20
-44.86297014867477
 30
0.0
 40
3.0
  1
ＷＳ－Ｍ２００－Ｋ、ＷＳ－Ｍ２００－Ｗ
100
AcDbText
  0
TEXT
  5
2DB
330
2
100
AcDbEntity
  8
MOJI1
100
AcDbText
 10
-20.24386261186219
 20
-29.86297014867478
 30
0.0
 40
3.0
  1
＜縦／横向き使用の場合　共通＞
100
AcDbText
  0
LINE
  5
2DC
330
2
100
AcDbEntity
  8
WAKU
 62
     4
100
AcDbLine
 10
-22.74386261186219
 20
-60.86297014867477
 30
0.0
 11
-22.74386261186219
 21
-25.86297014867478
 31
0.0
  0
TEXT
  5
2DD
330
2
100
AcDbEntity
  8
MOJI1
100
AcDbText
 10
-60.2438626118622
 20
-29.86297014867478
 30
0.0
 40
3.0
  1
角度調整範囲
100
AcDbText
  0
TEXT
  5
2DE
330
2
100
AcDbEntity
  8
MOJI1
100
AcDbText
 10
-60.2438626118622
 20
-39.86297014867478
 30
0.0
 40
3.0
  1
適合スピーカー
100
AcDbText
  0
LINE
  5
2DF
330
2
100
AcDbEntity
  8
WAKU
 62
     4
100
AcDbLine
 10
-62.7438626118622
 20
-25.86297014867478
 30
0.0
 11
-62.7438626118622
 21
-60.86297014867477
 31
0.0
  0
TEXT
  5
2E0
330
2
100
AcDbEntity
  8
MOJI1
100
AcDbText
 10
-20.24386261186219
 20
-34.86297014867478
 30
0.0
 40
3.0
  1
水平：左右６０°、垂直：下向き０°～３０°
100
AcDbText
  0
LINE
  5
2E1
330
2
100
AcDbEntity
  8
WAKU
 62
     4
100
AcDbLine
 10
-62.7438626118622
 20
-60.86297014867477
 30
0.0
 11
62.25613738813781
 21
-60.86297014867477
 31
0.0
  0
LINE
  5
2E2
330
2
100
AcDbEntity
  8
WAKU
 62
     4
100
AcDbLine
 10
62.25613738813781
 20
-25.86297014867478
 30
0.0
 11
-62.7438626118622
 21
-25.86297014867478
 31
0.0
  0
LINE
  5
2E3
330
2
100
AcDbEntity
  8
WAKU
 62
     1
100
AcDbLine
 10
-62.7438626118622
 20
-55.86297014867477
 30
0.0
 11
62.25613738813781
 21
-55.86297014867477
 31
0.0
  0
LINE
  5
2E4
330
2
100
AcDbEntity
  8
WAKU
 62
     1
100
AcDbLine
 10
-62.7438626118622
 20
-50.86297014867477
 30
0.0
 11
62.25613738813781
 21
-50.86297014867477
 31
0.0
  0
LINE
  5
2E5
330
2
100
AcDbEntity
  8
WAKU
 62
     1
100
AcDbLine
 10
-62.7438626118622
 20
-45.86297014867477
 30
0.0
 11
62.25613738813781
 21
-45.86297014867477
 31
0.0
  0
LINE
  5
2E6
330
2
100
AcDbEntity
  8
WAKU
 62
     1
100
AcDbLine
 10
-62.7438626118622
 20
-40.86297014867477
 30
0.0
 11
62.25613738813781
 21
-40.86297014867477
 31
0.0
  0
LINE
  5
2E7
330
2
100
AcDbEntity
  8
WAKU
 62
     1
100
AcDbLine
 10
-62.7438626118622
 20
-35.86297014867478
 30
0.0
 11
62.25613738813781
 21
-35.86297014867478
 31
0.0
  0
LINE
  5
2E8
330
2
100
AcDbEntity
  8
WAKU
 62
     1
100
AcDbLine
 10
-62.7438626118622
 20
-30.86297014867478
 30
0.0
 11
62.25613738813781
 21
-30.86297014867478
 31
0.0
  0
ENDSEC
  0
SECTION
  2
OBJECTS
  0
DICTIONARY
  5
7
330
0
100
AcDbDictionary
281
     1
  3
ACAD_COLOR
350
2A
  3
ACAD_GROUP
350
26
  3
ACAD_LAYOUT
350
B
  3
ACAD_MATERIAL
350
29
  3
ACAD_MLINESTYLE
350
27
  3
ACAD_PLOTSETTINGS
350
28
  3
ACAD_PLOTSTYLENAME
350
6
  3
ACDBHEADERROUNDTRIPXREC
350
319
  3
AcDbVariableDictionary
350
314
  0
DICTIONARY
  5
2A
102
{ACAD_REACTORS
330
7
102
}
330
7
100
AcDbDictionary
281
     1
  0
DICTIONARY
  5
26
102
{ACAD_REACTORS
330
7
102
}
330
7
100
AcDbDictionary
281
     1
  0
DICTIONARY
  5
B
102
{ACAD_REACTORS
330
7
102
}
330
7
100
AcDbDictionary
281
     1
  3
Model
350
A
  3
レイアウト1
350
F
  0
DICTIONARY
  5
29
102
{ACAD_REACTORS
330
7
102
}
330
7
100
AcDbDictionary
281
     1
  0
DICTIONARY
  5
27
102
{ACAD_REACTORS
330
7
102
}
330
7
100
AcDbDictionary
281
     1
  3
Standard
350
2B
  0
DICTIONARY
  5
28
102
{ACAD_REACTORS
330
7
102
}
330
7
100
AcDbDictionary
281
     1
  0
ACDBDICTIONARYWDFLT
  5
6
102
{ACAD_REACTORS
330
7
102
}
330
7
100
AcDbDictionary
281
     1
  3
Normal
350
5
100
AcDbDictionaryWithDefault
340
5
  0
DICTIONARY
  5
319
102
{ACAD_REACTORS
330
7
102
}
330
7
100
AcDbDictionary
281
     1
  3
COLORDICT
350
31B
  3
MATERIALDICT
350
31A
  0
DICTIONARY
  5
314
102
{ACAD_REACTORS
330
7
102
}
330
7
100
AcDbDictionary
281
     1
  3
DIMASSOC
350
316
  3
HIDETEXT
350
315
  3
PROJECTNAME
350
317
  0
LAYOUT
  5
A
102
{ACAD_XDICTIONARY
360
31C
102
}
102
{ACAD_REACTORS
330
B
102
}
330
B
100
AcDbPlotSettings
  1

  2
10F06M_RICOH_SP-8100
  4
A4
  6

 40
5.873749732971191
 41
5.873747825622558
 42
5.873748779296875
 43
5.873748779296875
 44
209.9733276367187
 45
296.9259948730469
 46
5.429999999999999
 47
0.0
 48
0.0
 49
0.0
140
0.0
141
0.0
142
1.0
143
1.382515355699284
 70
 11956
 72
     1
 73
     0
 74
     1
  7
tmsacad.ctb
 75
     0
147
0.723319271556441
148
0.0256269002562704
149
0.0240539385804368
100
AcDbLayout
  1
Model
 70
     1
 71
     0
 10
0.0
 20
0.0
 11
12.0
 21
9.0
 12
0.0
 22
0.0
 32
0.0
 14
0.0
 24
0.0
 34
0.0
 15
0.0
 25
0.0
 35
0.0
146
0.0
 13
0.0
 23
0.0
 33
0.0
 16
1.0
 26
0.0
 36
0.0
 17
0.0
 27
1.0
 37
0.0
 76
     0
330
2
  0
LAYOUT
  5
F
102
{ACAD_XDICTIONARY
360
31E
102
}
102
{ACAD_REACTORS
330
B
102
}
330
B
100
AcDbPlotSettings
  1

  2
None
  4

  6

 40
0.0
 41
0.0
 42
0.0
 43
0.0
 44
0.0
 45
0.0
 46
0.0
 47
0.0
 48
0.0
 49
0.0
140
0.0
141
0.0
142
1.0
143
1.0
 70
   688
 72
     0
 73
     0
 74
     5
  7
tmsacad.ctb
 75
    16
147
1.0
148
0.0
149
0.0
100
AcDbLayout
  1
レイアウト1
 70
     1
 71
     1
 10
0.0
 20
0.0
 11
12.0
 21
9.0
 12
0.0
 22
0.0
 32
0.0
 14
0.0
 24
0.0
 34
0.0
 15
0.0
 25
0.0
 35
0.0
146
0.0
 13
0.0
 23
0.0
 33
0.0
 16
1.0
 26
0.0
 36
0.0
 17
0.0
 27
1.0
 37
0.0
 76
     0
330
C
  0
MLINESTYLE
  5
2B
102
{ACAD_REACTORS
330
27
102
}
330
27
100
AcDbMlineStyle
  2
STANDARD
 70
     0
  3

 62
   256
 51
90.0
 52
90.0
 71
     2
 49
0.5
 62
   256
  6
BYLAYER
 49
-0.5
 62
   256
  6
BYLAYER
  0
ACDBPLACEHOLDER
  5
5
102
{ACAD_REACTORS
330
6
102
}
330
6
  0
XRECORD
  5
31B
102
{ACAD_REACTORS
330
319
102
}
330
319
100
AcDbXrecord
280
     1
340
2A
  0
XRECORD
  5
31A
102
{ACAD_REACTORS
330
319
102
}
330
319
100
AcDbXrecord
280
     1
340
29
  0
DICTIONARYVAR
  5
316
102
{ACAD_REACTORS
330
314
102
}
330
314
100
DictionaryVariables
280
     0
  1
1
  0
DICTIONARYVAR
  5
315
102
{ACAD_REACTORS
330
314
102
}
330
314
100
DictionaryVariables
280
     0
  1
1
  0
DICTIONARYVAR
  5
317
102
{ACAD_REACTORS
330
314
102
}
330
314
100
DictionaryVariables
280
     0
  1

  0
DICTIONARY
  5
31C
330
A
100
AcDbDictionary
280
     1
281
     1
  3
ACAD_XREC_ROUNDTRIP
360
31D
  0
DICTIONARY
  5
31E
330
F
100
AcDbDictionary
280
     1
281
     1
  3
ACAD_XREC_ROUNDTRIP
360
31F
  0
XRECORD
  5
31D
102
{ACAD_REACTORS
330
31C
102
}
330
31C
100
AcDbXrecord
280
     1
102
SHADEPLOT
 70
     0
102
SHADEPLOTRESLEVEL
 70
     2
102
SHADEPLOTCUSTOMDPI
 70
   300
  0
XRECORD
  5
31F
102
{ACAD_REACTORS
330
31E
102
}
330
31E
100
AcDbXrecord
280
     1
102
SHADEPLOT
 70
     0
102
SHADEPLOTRESLEVEL
 70
     2
102
SHADEPLOTCUSTOMDPI
 70
   300
  0
ENDSEC
  0
EOF
