  0
SECTION
  2
HEADER
  9
$ACADVER
  1
AC1015
  9
$ACADMAINTVER
 70
    20
  9
$DWGCODEPAGE
  3
ANSI_932
  9
$INSBASE
 10
0.0
 20
120.4992141396419
 30
0.0
  9
$EXTMIN
 10
-62.59068696798522
 20
-60.43295679689254
 30
-0.0015258207003583
  9
$EXTMAX
 10
62.48982200197906
 20
52.5776447313483
 30
0.0000000349246037
  9
$LIMMIN
 10
-1101.784450318844
 20
-1579.160531687244
  9
$LIMMAX
 10
-508.2420711400536
 20
-1161.440814074914
  9
$ORTHOMODE
 70
     1
  9
$REGENMODE
 70
     1
  9
$FILLMODE
 70
     1
  9
$QTEXTMODE
 70
     0
  9
$MIRRTEXT
 70
     1
  9
$LTSCALE
 40
1.0
  9
$ATTMODE
 70
     1
  9
$TEXTSIZE
 40
3.0
  9
$TRACEWID
 40
0.5
  9
$TEXTSTYLE
  7
STANDARD
  9
$CLAYER
  8
MOJI1
  9
$CELTYPE
  6
BYLAYER
  9
$CECOLOR
 62
   256
  9
$CELTSCALE
 40
1.0
  9
$DISPSILH
 70
     0
  9
$DIMSCALE
 40
1.0
  9
$DIMASZ
 40
2.0
  9
$DIMEXO
 40
2.0
  9
$DIMDLI
 40
8.0
  9
$DIMRND
 40
0.0
  9
$DIMDLE
 40
0.0
  9
$DIMEXE
 40
2.0
  9
$DIMTP
 40
0.0
  9
$DIMTM
 40
0.0
  9
$DIMTXT
 40
2.5
  9
$DIMCEN
 40
0.0
  9
$DIMTSZ
 40
0.0
  9
$DIMTOL
 70
     0
  9
$DIMLIM
 70
     0
  9
$DIMTIH
 70
     0
  9
$DIMTOH
 70
     0
  9
$DIMSE1
 70
     0
  9
$DIMSE2
 70
     0
  9
$DIMTAD
 70
     3
  9
$DIMZIN
 70
     0
  9
$DIMBLK
  1

  9
$DIMASO
 70
     1
  9
$DIMSHO
 70
     1
  9
$DIMPOST
  1

  9
$DIMAPOST
  1

  9
$DIMALT
 70
     0
  9
$DIMALTD
 70
     2
  9
$DIMALTF
 40
25.4
  9
$DIMLFAC
 40
1.0
  9
$DIMTOFL
 70
     1
  9
$DIMTVP
 40
0.0
  9
$DIMTIX
 70
     0
  9
$DIMSOXD
 70
     0
  9
$DIMSAH
 70
     1
  9
$DIMBLK1
  1
OPEN30
  9
$DIMBLK2
  1
OPEN30
  9
$DIMSTYLE
  2
STANDARD
  9
$DIMCLRD
 70
     0
  9
$DIMCLRE
 70
     0
  9
$DIMCLRT
 70
     0
  9
$DIMTFAC
 40
1.0
  9
$DIMGAP
 40
0.5
  9
$DIMJUST
 70
     0
  9
$DIMSD1
 70
     0
  9
$DIMSD2
 70
     0
  9
$DIMTOLJ
 70
     1
  9
$DIMTZIN
 70
     0
  9
$DIMALTZ
 70
     0
  9
$DIMALTTZ
 70
     0
  9
$DIMUPT
 70
     0
  9
$DIMDEC
 70
     4
  9
$DIMTDEC
 70
     4
  9
$DIMALTU
 70
     2
  9
$DIMALTTD
 70
     2
  9
$DIMTXSTY
  7
STANDARD
  9
$DIMAUNIT
 70
     0
  9
$DIMADEC
 70
     0
  9
$DIMALTRND
 40
0.0
  9
$DIMAZIN
 70
     0
  9
$DIMDSEP
 70
    46
  9
$DIMATFIT
 70
     3
  9
$DIMFRAC
 70
     0
  9
$DIMLDRBLK
  1
OPEN30
  9
$DIMLUNIT
 70
     2
  9
$DIMLWD
 70
    -2
  9
$DIMLWE
 70
    -2
  9
$DIMTMOVE
 70
     0
  9
$LUNITS
 70
     2
  9
$LUPREC
 70
     4
  9
$SKETCHINC
 40
0.1
  9
$FILLETRAD
 40
0.2
  9
$AUNITS
 70
     0
  9
$AUPREC
 70
     0
  9
$MENU
  1
ACAD
  9
$ELEVATION
 40
0.0
  9
$PELEVATION
 40
0.0
  9
$THICKNESS
 40
0.0
  9
$LIMCHECK
 70
     0
  9
$CHAMFERA
 40
0.0
  9
$CHAMFERB
 40
0.0
  9
$CHAMFERC
 40
0.0
  9
$CHAMFERD
 40
0.0
  9
$SKPOLY
 70
     0
  9
$TDCREATE
 40
2451815.565532581
  9
$TDUCREATE
 40
2451815.190532581
  9
$TDUPDATE
 40
2454151.693774769
  9
$TDUUPDATE
 40
2454151.318774769
  9
$TDINDWG
 40
0.9721906829
  9
$TDUSRTIMER
 40
0.9721906829
  9
$USRTIMER
 70
     1
  9
$ANGBASE
 50
0.0
  9
$ANGDIR
 70
     0
  9
$PDMODE
 70
     0
  9
$PDSIZE
 40
0.0
  9
$PLINEWID
 40
0.0
  9
$SPLFRAME
 70
     0
  9
$SPLINETYPE
 70
     6
  9
$SPLINESEGS
 70
     8
  9
$HANDSEED
  5
183
  9
$SURFTAB1
 70
     6
  9
$SURFTAB2
 70
     6
  9
$SURFTYPE
 70
     6
  9
$SURFU
 70
     6
  9
$SURFV
 70
     6
  9
$UCSBASE
  2

  9
$UCSNAME
  2

  9
$UCSORG
 10
0.0
 20
0.0
 30
0.0
  9
$UCSXDIR
 10
1.0
 20
0.0
 30
0.0
  9
$UCSYDIR
 10
0.0
 20
1.0
 30
0.0
  9
$UCSORTHOREF
  2

  9
$UCSORTHOVIEW
 70
     0
  9
$UCSORGTOP
 10
0.0
 20
0.0
 30
0.0
  9
$UCSORGBOTTOM
 10
0.0
 20
0.0
 30
0.0
  9
$UCSORGLEFT
 10
0.0
 20
0.0
 30
0.0
  9
$UCSORGRIGHT
 10
0.0
 20
0.0
 30
0.0
  9
$UCSORGFRONT
 10
0.0
 20
0.0
 30
0.0
  9
$UCSORGBACK
 10
0.0
 20
0.0
 30
0.0
  9
$PUCSBASE
  2

  9
$PUCSNAME
  2

  9
$PUCSORG
 10
0.0
 20
0.0
 30
0.0
  9
$PUCSXDIR
 10
1.0
 20
0.0
 30
0.0
  9
$PUCSYDIR
 10
0.0
 20
1.0
 30
0.0
  9
$PUCSORTHOREF
  2

  9
$PUCSORTHOVIEW
 70
     0
  9
$PUCSORGTOP
 10
0.0
 20
0.0
 30
0.0
  9
$PUCSORGBOTTOM
 10
0.0
 20
0.0
 30
0.0
  9
$PUCSORGLEFT
 10
0.0
 20
0.0
 30
0.0
  9
$PUCSORGRIGHT
 10
0.0
 20
0.0
 30
0.0
  9
$PUCSORGFRONT
 10
0.0
 20
0.0
 30
0.0
  9
$PUCSORGBACK
 10
0.0
 20
0.0
 30
0.0
  9
$USERI1
 70
     0
  9
$USERI2
 70
     0
  9
$USERI3
 70
     0
  9
$USERI4
 70
     0
  9
$USERI5
 70
     0
  9
$USERR1
 40
0.0
  9
$USERR2
 40
0.0
  9
$USERR3
 40
0.0
  9
$USERR4
 40
0.0
  9
$USERR5
 40
0.0
  9
$WORLDVIEW
 70
     1
  9
$SHADEDGE
 70
     3
  9
$SHADEDIF
 70
    70
  9
$TILEMODE
 70
     1
  9
$MAXACTVP
 70
    48
  9
$PINSBASE
 10
0.0
 20
0.0
 30
0.0
  9
$PLIMCHECK
 70
     0
  9
$PEXTMIN
 10
1.000000000000000E+20
 20
1.000000000000000E+20
 30
1.000000000000000E+20
  9
$PEXTMAX
 10
-1.000000000000000E+20
 20
-1.000000000000000E+20
 30
-1.000000000000000E+20
  9
$PLIMMIN
 10
0.0
 20
0.0
  9
$PLIMMAX
 10
12.0
 20
9.0
  9
$UNITMODE
 70
     0
  9
$VISRETAIN
 70
     1
  9
$PLINEGEN
 70
     0
  9
$PSLTSCALE
 70
     1
  9
$TREEDEPTH
 70
  3020
  9
$CMLSTYLE
  2
STANDARD
  9
$CMLJUST
 70
     0
  9
$CMLSCALE
 40
1.0
  9
$PROXYGRAPHICS
 70
     1
  9
$MEASUREMENT
 70
     0
  9
$CELWEIGHT
370
    -1
  9
$ENDCAPS
280
     0
  9
$JOINSTYLE
280
     0
  9
$LWDISPLAY
290
     0
  9
$INSUNITS
 70
     0
  9
$HYPERLINKBASE
  1

  9
$STYLESHEET
  1

  9
$XEDIT
290
     1
  9
$CEPSNTYPE
380
     0
  9
$PSTYLEMODE
290
     1
  9
$FINGERPRINTGUID
  2
{1754B7AB-9B3C-11D4-AD9E-00104B1004F2}
  9
$VERSIONGUID
  2
{9C5DB0D5-6EBB-41CE-80FD-E1803630E796}
  9
$EXTNAMES
290
     1
  9
$PSVPSCALE
 40
0.0
  9
$OLESTARTUP
290
     0
  0
ENDSEC
  0
SECTION
  2
CLASSES
  0
CLASS
  1
ACDBDICTIONARYWDFLT
  2
AcDbDictionaryWithDefault
  3
ObjectDBX Classes
 90
        0
280
     0
281
     0
  0
CLASS
  1
ACDBPLACEHOLDER
  2
AcDbPlaceHolder
  3
ObjectDBX Classes
 90
        0
280
     0
281
     0
  0
CLASS
  1
LAYOUT
  2
AcDbLayout
  3
ObjectDBX Classes
 90
        0
280
     0
281
     0
  0
CLASS
  1
DICTIONARYVAR
  2
AcDbDictionaryVar
  3
ObjectDBX Classes
 90
        0
280
     0
281
     0
  0
CLASS
  1
SORTENTSTABLE
  2
AcDbSortentsTable
  3
ObjectDBX Classes
 90
        0
280
     0
281
     0
  0
ENDSEC
  0
SECTION
  2
TABLES
  0
TABLE
  2
VPORT
  5
21
330
0
100
AcDbSymbolTable
 70
     3
  0
VPORT
  5
17B
330
21
100
AcDbSymbolTableRecord
100
AcDbViewportTableRecord
  2
*Active
 70
     0
 10
0.0
 20
0.0
 11
1.0
 21
1.0
 12
-0.0504324830030818
 22
-3.927656032772119
 13
0.0
 23
0.0
 14
1.0
 24
1.0
 15
0.0
 25
0.0
 16
0.0
 26
0.0
 36
1.0
 17
0.0
 27
0.0
 37
0.0
 40
113.877690542524
 41
1.396927016645326
 42
50.0
 43
0.0
 44
0.0
 50
0.0
 51
0.0
 71
     0
 72
  1000
 73
     1
 74
     0
 75
     0
 76
     1
 77
     0
 78
     0
281
     0
 65
     1
110
0.0
120
0.0
130
0.0
111
1.0
121
0.0
131
0.0
112
0.0
122
1.0
132
0.0
 79
     0
146
0.0
  0
ENDTAB
  0
TABLE
  2
LTYPE
  5
1C
330
0
100
AcDbSymbolTable
 70
     3
  0
LTYPE
  5
1D
330
1C
100
AcDbSymbolTableRecord
100
AcDbLinetypeTableRecord
  2
BYBLOCK
 70
     0
  3

 72
    65
 73
     0
 40
0.0
  0
LTYPE
  5
1E
330
1C
100
AcDbSymbolTableRecord
100
AcDbLinetypeTableRecord
  2
BYLAYER
 70
     0
  3

 72
    65
 73
     0
 40
0.0
  0
LTYPE
  5
B
330
1C
100
AcDbSymbolTableRecord
100
AcDbLinetypeTableRecord
  2
CONTINUOUS
 70
     0
  3
Solid line
 72
    65
 73
     0
 40
0.0
  0
LTYPE
  5
B0
330
1C
100
AcDbSymbolTableRecord
100
AcDbLinetypeTableRecord
  2
PHANTOM
 70
     0
  3
Phantom
 72
    65
 73
     6
 40
2.5
 49
1.25
 74
     0
 49
-0.25
 74
     0
 49
0.25
 74
     0
 49
-0.25
 74
     0
 49
0.25
 74
     0
 49
-0.25
 74
     0
  0
LTYPE
  5
B2
330
1C
100
AcDbSymbolTableRecord
100
AcDbLinetypeTableRecord
  2
S10
 70
     0
  3
- - - - - - - - - 1,-1,1,-1
 72
    65
 73
     4
 40
4.0
 49
1.0
 74
     0
 49
-1.0
 74
     0
 49
1.0
 74
     0
 49
-1.0
 74
     0
  0
ENDTAB
  0
TABLE
  2
LAYER
  5
15
102
{ACAD_XDICTIONARY
360
16
102
}
330
0
100
AcDbSymbolTable
 70
     7
  0
LAYER
  5
7
330
15
100
AcDbSymbolTableRecord
100
AcDbLayerTableRecord
  2
0
 70
     0
 62
     7
  6
CONTINUOUS
370
    -3
390
8
  0
LAYER
  5
122
330
15
100
AcDbSymbolTableRecord
100
AcDbLayerTableRecord
  2
DEFPOINTS
 70
     0
 62
     7
  6
CONTINUOUS
290
     0
370
    -3
390
8
  0
LAYER
  5
3B
330
15
100
AcDbSymbolTableRecord
100
AcDbLayerTableRecord
  2
WAKU
 70
     0
 62
     4
  6
CONTINUOUS
370
    -3
390
8
  0
LAYER
  5
33
330
15
100
AcDbSymbolTableRecord
100
AcDbLayerTableRecord
  2
MOJI1
 70
     0
 62
     2
  6
CONTINUOUS
370
    -3
390
8
  0
LAYER
  5
51
330
15
100
AcDbSymbolTableRecord
100
AcDbLayerTableRecord
  2
GAIKEI
 70
     0
 62
     7
  6
CONTINUOUS
370
    -3
390
8
  0
LAYER
  5
36
330
15
100
AcDbSymbolTableRecord
100
AcDbLayerTableRecord
  2
TOUROKU
 70
     0
 62
     1
  6
CONTINUOUS
370
    -3
390
8
  0
LAYER
  5
118
330
15
100
AcDbSymbolTableRecord
100
AcDbLayerTableRecord
  2
SUNPO
 70
     0
 62
     3
  6
CONTINUOUS
370
    -3
390
8
  0
ENDTAB
  0
TABLE
  2
STYLE
  5
19
330
0
100
AcDbSymbolTable
 70
     1
  0
STYLE
  5
1A
330
19
100
AcDbSymbolTableRecord
100
AcDbTextStyleTableRecord
  2
STANDARD
 70
     0
 40
0.0
 41
1.0
 50
0.0
 71
     0
 42
3.0
  3
MONOTXT.shx
  4
BIGFONT.shx
  0
ENDTAB
  0
TABLE
  2
VIEW
  5
1F
330
0
100
AcDbSymbolTable
 70
     0
  0
ENDTAB
  0
TABLE
  2
UCS
  5
20
330
0
100
AcDbSymbolTable
 70
     0
  0
ENDTAB
  0
TABLE
  2
APPID
  5
23
330
0
100
AcDbSymbolTable
 70
     1
  0
APPID
  5
24
330
23
100
AcDbSymbolTableRecord
100
AcDbRegAppTableRecord
  2
ACAD
 70
     0
  0
ENDTAB
  0
TABLE
  2
DIMSTYLE
  5
25
330
0
100
AcDbSymbolTable
 70
     1
100
AcDbDimStyleTable
 71
     1
340
26
  0
DIMSTYLE
105
26
102
{ACAD_REACTORS
330
117
330
126
330
133
102
}
330
25
100
AcDbSymbolTableRecord
100
AcDbDimStyleTableRecord
  2
STANDARD
 70
     0
 40
0.0
 41
2.0
 42
2.0
 43
8.0
 44
2.0
 73
     0
 74
     0
 77
     3
140
3.0
141
0.0
173
     1
279
     2
288
     1
340
1A
341
27
343
27
344
27
  0
ENDTAB
  0
TABLE
  2
BLOCK_RECORD
  5
1
330
0
100
AcDbSymbolTable
 70
     7
  0
BLOCK_RECORD
  5
2
102
{ACAD_XDICTIONARY
360
3
102
}
330
1
100
AcDbSymbolTableRecord
100
AcDbBlockTableRecord
  2
*MODEL_SPACE
340
D
  0
BLOCK_RECORD
  5
F
102
{ACAD_XDICTIONARY
360
10
102
}
330
1
100
AcDbSymbolTableRecord
100
AcDbBlockTableRecord
  2
*PAPER_SPACE
340
14
  0
BLOCK_RECORD
  5
27
330
1
100
AcDbSymbolTableRecord
100
AcDbBlockTableRecord
  2
_OPEN30
340
0
102
{BLKREFS
331
12C
331
12D
331
11E
331
11F
331
139
331
13A
331
157
331
158
331
163
331
164
331
16F
331
170
102
}
  0
BLOCK_RECORD
  5
119
330
1
100
AcDbSymbolTableRecord
100
AcDbBlockTableRecord
  2
*D1
340
0
  0
BLOCK_RECORD
  5
127
330
1
100
AcDbSymbolTableRecord
100
AcDbBlockTableRecord
  2
*D2
340
0
  0
BLOCK_RECORD
  5
134
330
1
100
AcDbSymbolTableRecord
100
AcDbBlockTableRecord
  2
*D3
340
0
  0
BLOCK_RECORD
  5
153
330
1
100
AcDbSymbolTableRecord
100
AcDbBlockTableRecord
  2
*D4
340
0
  0
BLOCK_RECORD
  5
15F
330
1
100
AcDbSymbolTableRecord
100
AcDbBlockTableRecord
  2
*D5
340
0
  0
BLOCK_RECORD
  5
16B
330
1
100
AcDbSymbolTableRecord
100
AcDbBlockTableRecord
  2
*D6
340
0
  0
ENDTAB
  0
ENDSEC
  0
SECTION
  2
BLOCKS
  0
BLOCK
  5
6
330
2
100
AcDbEntity
  8
0
100
AcDbBlockBegin
  2
*MODEL_SPACE
 70
     0
 10
0.0
 20
0.0
 30
0.0
  3
*MODEL_SPACE
  1

  0
ENDBLK
  5
C
330
2
100
AcDbEntity
  8
0
100
AcDbBlockEnd
  0
BLOCK
  5
12
330
F
100
AcDbEntity
 67
     1
  8
0
100
AcDbBlockBegin
  2
*PAPER_SPACE
 70
     0
 10
0.0
 20
0.0
 30
0.0
  3
*PAPER_SPACE
  1

  0
ENDBLK
  5
13
330
F
100
AcDbEntity
 67
     1
  8
0
100
AcDbBlockEnd
  0
BLOCK
  5
28
330
27
100
AcDbEntity
  8
0
100
AcDbBlockBegin
  2
_OPEN30
 70
     0
 10
0.0
 20
0.0
 30
0.0
  3
_OPEN30
  1

  0
LINE
  5
29
330
27
100
AcDbEntity
  8
0
  6
ByBlock
 62
     0
100
AcDbLine
 10
-1.0
 20
0.26794919
 30
0.0
 11
0.0
 21
0.0
 31
0.0
  0
LINE
  5
2A
330
27
100
AcDbEntity
  8
0
  6
ByBlock
 62
     0
100
AcDbLine
 10
0.0
 20
0.0
 30
0.0
 11
-1.0
 21
-0.26794919
 31
0.0
  0
LINE
  5
2B
330
27
100
AcDbEntity
  8
0
  6
ByBlock
 62
     0
100
AcDbLine
 10
0.0
 20
0.0
 30
0.0
 11
-1.0
 21
0.0
 31
0.0
  0
ENDBLK
  5
2C
330
27
100
AcDbEntity
  8
0
100
AcDbBlockEnd
  0
BLOCK
  5
11A
330
119
100
AcDbEntity
  8
0
100
AcDbBlockBegin
  2
*D1
 70
     1
 10
0.0
 20
0.0
 30
0.0
  3
*D1
  1

  0
LINE
  5
11B
330
119
100
AcDbEntity
  8
SUNPO
 62
     0
370
    -2
100
AcDbLine
 10
76.1312943661214
 20
80.8010890994597
 30
0.0
 11
76.1312943661214
 21
88.8010890994597
 31
0.0
  0
LINE
  5
11C
330
119
100
AcDbEntity
  8
SUNPO
 62
     0
370
    -2
100
AcDbLine
 10
104.0312897884846
 20
80.8010890994597
 30
0.0
 11
104.0312897884846
 21
88.8010890994597
 31
0.0
  0
LINE
  5
11D
330
119
100
AcDbEntity
  8
SUNPO
 62
     0
370
    -2
100
AcDbLine
 10
78.13129436612141
 20
86.80108909945969
 30
0.0
 11
102.0312897884846
 21
86.80108909945969
 31
0.0
  0
INSERT
  5
11E
330
119
100
AcDbEntity
  8
SUNPO
 62
     0
370
    -2
100
AcDbBlockReference
  2
_OPEN30
 10
76.1312943661214
 20
86.80108909945969
 30
0.0
 41
2.0
 42
2.0
 43
2.0
 50
180.0
  0
INSERT
  5
11F
330
119
100
AcDbEntity
  8
SUNPO
 62
     0
370
    -2
100
AcDbBlockReference
  2
_OPEN30
 10
104.0312897884846
 20
86.80108909945969
 30
0.0
 41
2.0
 42
2.0
 43
2.0
  0
MTEXT
  5
120
330
119
100
AcDbEntity
  8
SUNPO
 62
     0
100
AcDbMText
 10
90.081292077303
 20
88.5510890994597
 30
0.0
 40
2.5
 41
0.0
 71
     5
 72
     1
  1
\A1;139.5
 73
     1
 44
1.0
1001
ACAD
1000
MTEXTBEGIN
1070
    73
1070
     1
1070
    44
1040
1.0
1070
    74
1070
     0
1000
MTEXTEND
  0
POINT
  5
121
330
119
100
AcDbEntity
  8
DEFPOINTS
 62
     0
100
AcDbPoint
 10
76.1312943661214
 20
78.8010890994597
 30
0.0
  0
POINT
  5
123
330
119
100
AcDbEntity
  8
DEFPOINTS
 62
     0
100
AcDbPoint
 10
104.0312897884846
 20
78.8010890994597
 30
0.0
  0
POINT
  5
124
330
119
100
AcDbEntity
  8
DEFPOINTS
 62
     0
100
AcDbPoint
 10
104.0312897884846
 20
86.80108909945969
 30
0.0
  0
ENDBLK
  5
125
330
119
100
AcDbEntity
  8
0
100
AcDbBlockEnd
  0
BLOCK
  5
128
330
127
100
AcDbEntity
  8
0
100
AcDbBlockBegin
  2
*D2
 70
     1
 10
0.0
 20
0.0
 30
0.0
  3
*D2
  1

  0
LINE
  5
129
330
127
100
AcDbEntity
  8
SUNPO
 62
     0
370
    -2
100
AcDbLine
 10
53.8390891707588
 20
67.71803207245605
 30
0.0
 11
61.83908917075878
 21
67.71803207245605
 31
0.0
  0
LINE
  5
12A
330
127
100
AcDbEntity
  8
SUNPO
 62
     0
370
    -2
100
AcDbLine
 10
53.8390891707588
 20
80.71803207199602
 30
0.0
 11
61.83908917075879
 21
80.71803207199602
 31
0.0
  0
LINE
  5
12B
330
127
100
AcDbEntity
  8
SUNPO
 62
     0
370
    -2
100
AcDbLine
 10
59.83908917075879
 20
69.71803207245605
 30
0.0
 11
59.83908917075879
 21
78.71803207199602
 31
0.0
  0
INSERT
  5
12C
330
127
100
AcDbEntity
  8
SUNPO
 62
     0
370
    -2
100
AcDbBlockReference
  2
_OPEN30
 10
59.83908917075879
 20
67.71803207245605
 30
0.0
 41
2.0
 42
2.0
 43
2.0
 50
270.0
  0
INSERT
  5
12D
330
127
100
AcDbEntity
  8
SUNPO
 62
     0
370
    -2
100
AcDbBlockReference
  2
_OPEN30
 10
59.83908917075879
 20
80.71803207199602
 30
0.0
 41
2.0
 42
2.0
 43
2.0
 50
90.0
  0
MTEXT
  5
12E
330
127
100
AcDbEntity
  8
SUNPO
 62
     0
100
AcDbMText
 10
58.08908917075878
 20
74.21803207222605
 30
0.0
 40
2.5
 41
0.0
 71
     5
 72
     1
  1
\A1;65
 11
0.0000000000000001
 21
1.0
 31
0.0
 73
     1
 44
1.0
1001
ACAD
1000
MTEXTBEGIN
1070
    73
1070
     1
1070
    44
1040
1.0
1070
    74
1070
     0
1000
MTEXTEND
  0
POINT
  5
12F
330
127
100
AcDbEntity
  8
DEFPOINTS
 62
     0
100
AcDbPoint
 10
51.83908917075879
 20
67.71803207245605
 30
0.0
  0
POINT
  5
130
330
127
100
AcDbEntity
  8
DEFPOINTS
 62
     0
100
AcDbPoint
 10
51.83908917075879
 20
80.71803207199602
 30
0.0
  0
POINT
  5
131
330
127
100
AcDbEntity
  8
DEFPOINTS
 62
     0
100
AcDbPoint
 10
59.83908917075879
 20
80.71803207199602
 30
0.0
  0
ENDBLK
  5
132
330
127
100
AcDbEntity
  8
0
100
AcDbBlockEnd
  0
BLOCK
  5
135
330
134
100
AcDbEntity
  8
0
100
AcDbBlockBegin
  2
*D3
 70
     1
 10
0.0
 20
0.0
 30
0.0
  3
*D3
  1

  0
LINE
  5
136
330
134
100
AcDbEntity
  8
SUNPO
 62
     0
370
    -2
100
AcDbLine
 10
38.46392571833784
 20
80.8010890994597
 30
0.0
 11
38.46392571833784
 21
88.8010890994597
 31
0.0
  0
LINE
  5
137
330
134
100
AcDbEntity
  8
SUNPO
 62
     0
370
    -2
100
AcDbLine
 10
51.86392571833787
 20
80.8010890994597
 30
0.0
 11
51.86392571833787
 21
88.8010890994597
 31
0.0
  0
LINE
  5
138
330
134
100
AcDbEntity
  8
SUNPO
 62
     0
370
    -2
100
AcDbLine
 10
40.46392571833783
 20
86.80108909945969
 30
0.0
 11
49.86392571833786
 21
86.80108909945969
 31
0.0
  0
INSERT
  5
139
330
134
100
AcDbEntity
  8
SUNPO
 62
     0
370
    -2
100
AcDbBlockReference
  2
_OPEN30
 10
38.46392571833784
 20
86.80108909945969
 30
0.0
 41
2.0
 42
2.0
 43
2.0
 50
180.0
  0
INSERT
  5
13A
330
134
100
AcDbEntity
  8
SUNPO
 62
     0
370
    -2
100
AcDbBlockReference
  2
_OPEN30
 10
51.86392571833787
 20
86.80108909945969
 30
0.0
 41
2.0
 42
2.0
 43
2.0
  0
MTEXT
  5
13B
330
134
100
AcDbEntity
  8
SUNPO
 62
     0
100
AcDbMText
 10
45.16392571833785
 20
88.5510890994597
 30
0.0
 40
2.5
 41
0.0
 71
     5
 72
     1
  1
\A1;67
 73
     1
 44
1.0
1001
ACAD
1000
MTEXTBEGIN
1070
    73
1070
     1
1070
    44
1040
1.0
1070
    74
1070
     0
1000
MTEXTEND
  0
POINT
  5
13C
330
134
100
AcDbEntity
  8
DEFPOINTS
 62
     0
100
AcDbPoint
 10
38.46392571833784
 20
78.8010890994597
 30
0.0
  0
POINT
  5
13D
330
134
100
AcDbEntity
  8
DEFPOINTS
 62
     0
100
AcDbPoint
 10
51.86392571833787
 20
78.8010890994597
 30
0.0
  0
POINT
  5
13E
330
134
100
AcDbEntity
  8
DEFPOINTS
 62
     0
100
AcDbPoint
 10
51.86392571833787
 20
86.80108909945969
 30
0.0
  0
ENDBLK
  5
13F
330
134
100
AcDbEntity
  8
0
100
AcDbBlockEnd
  0
BLOCK
  5
15D
330
153
100
AcDbEntity
  8
0
100
AcDbBlockBegin
  2
*D4
 70
     1
 10
0.0
 20
0.0
 30
0.0
  3
*D4
  1

  0
LINE
  5
154
330
153
100
AcDbEntity
  8
SUNPO
 62
     0
370
    -2
100
AcDbLine
 10
-26.12440362472191
 20
14.87859581895695
 30
0.0
 11
-26.12440362472191
 21
22.87859581895695
 31
0.0
  0
LINE
  5
155
330
153
100
AcDbEntity
  8
SUNPO
 62
     0
370
    -2
100
AcDbLine
 10
-12.72440362472187
 20
14.87859581895695
 30
0.0
 11
-12.72440362472187
 21
22.87859581895695
 31
0.0
  0
LINE
  5
156
330
153
100
AcDbEntity
  8
SUNPO
 62
     0
370
    -2
100
AcDbLine
 10
-24.12440362472191
 20
20.87859581895695
 30
0.0
 11
-14.72440362472187
 21
20.87859581895695
 31
0.0
  0
INSERT
  5
157
330
153
100
AcDbEntity
  8
SUNPO
 62
     0
370
    -2
100
AcDbBlockReference
  2
_OPEN30
 10
-26.12440362472191
 20
20.87859581895695
 30
0.0
 41
2.0
 42
2.0
 43
2.0
 50
180.0
  0
INSERT
  5
158
330
153
100
AcDbEntity
  8
SUNPO
 62
     0
370
    -2
100
AcDbBlockReference
  2
_OPEN30
 10
-12.72440362472187
 20
20.87859581895695
 30
0.0
 41
2.0
 42
2.0
 43
2.0
  0
MTEXT
  5
159
330
153
100
AcDbEntity
  8
SUNPO
 62
     0
100
AcDbMText
 10
-19.42440362472189
 20
22.62859581895695
 30
0.0
 40
2.5
 41
0.0
 71
     5
 72
     1
  1
\A1;67
 73
     1
 44
1.0
1001
ACAD
1000
MTEXTBEGIN
1070
    73
1070
     1
1070
    44
1040
1.0
1070
    74
1070
     0
1000
MTEXTEND
  0
POINT
  5
15A
330
153
100
AcDbEntity
  8
DEFPOINTS
 62
     0
100
AcDbPoint
 10
-26.12440362472191
 20
12.87859581895695
 30
0.0
  0
POINT
  5
15B
330
153
100
AcDbEntity
  8
DEFPOINTS
 62
     0
100
AcDbPoint
 10
-12.72440362472187
 20
12.87859581895695
 30
0.0
  0
POINT
  5
15C
330
153
100
AcDbEntity
  8
DEFPOINTS
 62
     0
100
AcDbPoint
 10
-12.72440362472187
 20
20.87859581895695
 30
0.0
  0
ENDBLK
  5
15E
330
153
100
AcDbEntity
  8
0
100
AcDbBlockEnd
  0
BLOCK
  5
169
330
15F
100
AcDbEntity
  8
0
100
AcDbBlockBegin
  2
*D5
 70
     1
 10
0.0
 20
0.0
 30
0.0
  3
*D5
  1

  0
LINE
  5
160
330
15F
100
AcDbEntity
  8
SUNPO
 62
     0
370
    -2
100
AcDbLine
 10
-10.74924017230094
 20
1.795538791953304
 30
0.0
 11
-2.749240172300946
 21
1.795538791953302
 31
0.0
  0
LINE
  5
161
330
15F
100
AcDbEntity
  8
SUNPO
 62
     0
370
    -2
100
AcDbLine
 10
-10.74924017230094
 20
14.79553879149327
 30
0.0
 11
-2.749240172300944
 21
14.79553879149326
 31
0.0
  0
LINE
  5
162
330
15F
100
AcDbEntity
  8
SUNPO
 62
     0
370
    -2
100
AcDbLine
 10
-4.749240172300946
 20
3.795538791953302
 30
0.0
 11
-4.749240172300944
 21
12.79553879149327
 31
0.0
  0
INSERT
  5
163
330
15F
100
AcDbEntity
  8
SUNPO
 62
     0
370
    -2
100
AcDbBlockReference
  2
_OPEN30
 10
-4.749240172300947
 20
1.795538791953303
 30
0.0
 41
2.0
 42
2.0
 43
2.0
 50
270.0
  0
INSERT
  5
164
330
15F
100
AcDbEntity
  8
SUNPO
 62
     0
370
    -2
100
AcDbBlockReference
  2
_OPEN30
 10
-4.749240172300943
 20
14.79553879149327
 30
0.0
 41
2.0
 42
2.0
 43
2.0
 50
90.0
  0
MTEXT
  5
165
330
15F
100
AcDbEntity
  8
SUNPO
 62
     0
100
AcDbMText
 10
-6.499240172300946
 20
8.295538791723284
 30
0.0
 40
2.5
 41
0.0
 71
     5
 72
     1
  1
\A1;65
 11
0.0000000000000001
 21
1.0
 31
0.0
 73
     1
 44
1.0
1001
ACAD
1000
MTEXTBEGIN
1070
    73
1070
     1
1070
    44
1040
1.0
1070
    74
1070
     0
1000
MTEXTEND
  0
POINT
  5
166
330
15F
100
AcDbEntity
  8
DEFPOINTS
 62
     0
100
AcDbPoint
 10
-12.74924017230094
 20
1.795538791953305
 30
0.0
  0
POINT
  5
167
330
15F
100
AcDbEntity
  8
DEFPOINTS
 62
     0
100
AcDbPoint
 10
-12.74924017230094
 20
14.79553879149327
 30
0.0
  0
POINT
  5
168
330
15F
100
AcDbEntity
  8
DEFPOINTS
 62
     0
100
AcDbPoint
 10
-4.749240172300943
 20
14.79553879149327
 30
0.0
  0
ENDBLK
  5
16A
330
15F
100
AcDbEntity
  8
0
100
AcDbBlockEnd
  0
BLOCK
  5
175
330
16B
100
AcDbEntity
  8
0
100
AcDbBlockBegin
  2
*D6
 70
     1
 10
0.0
 20
0.0
 30
0.0
  3
*D6
  1

  0
LINE
  5
16C
330
16B
100
AcDbEntity
  8
SUNPO
 62
     0
370
    -2
100
AcDbLine
 10
11.54296502306167
 20
14.87859581895695
 30
0.0
 11
11.54296502306167
 21
22.87859581895695
 31
0.0
  0
LINE
  5
16D
330
16B
100
AcDbEntity
  8
SUNPO
 62
     0
370
    -2
100
AcDbLine
 10
39.44296044542486
 20
14.87859581895695
 30
0.0
 11
39.44296044542486
 21
22.87859581895695
 31
0.0
  0
LINE
  5
16E
330
16B
100
AcDbEntity
  8
SUNPO
 62
     0
370
    -2
100
AcDbLine
 10
13.54296502306167
 20
20.87859581895695
 30
0.0
 11
37.44296044542486
 21
20.87859581895695
 31
0.0
  0
INSERT
  5
16F
330
16B
100
AcDbEntity
  8
SUNPO
 62
     0
370
    -2
100
AcDbBlockReference
  2
_OPEN30
 10
11.54296502306167
 20
20.87859581895695
 30
0.0
 41
2.0
 42
2.0
 43
2.0
 50
180.0
  0
INSERT
  5
170
330
16B
100
AcDbEntity
  8
SUNPO
 62
     0
370
    -2
100
AcDbBlockReference
  2
_OPEN30
 10
39.44296044542486
 20
20.87859581895695
 30
0.0
 41
2.0
 42
2.0
 43
2.0
  0
MTEXT
  5
171
330
16B
100
AcDbEntity
  8
SUNPO
 62
     0
100
AcDbMText
 10
25.49296273424327
 20
22.62859581895695
 30
0.0
 40
2.5
 41
0.0
 71
     5
 72
     1
  1
\A1;139.5
 73
     1
 44
1.0
1001
ACAD
1000
MTEXTBEGIN
1070
    73
1070
     1
1070
    44
1040
1.0
1070
    74
1070
     0
1000
MTEXTEND
  0
POINT
  5
172
330
16B
100
AcDbEntity
  8
DEFPOINTS
 62
     0
100
AcDbPoint
 10
11.54296502306167
 20
12.87859581895695
 30
0.0
  0
POINT
  5
173
330
16B
100
AcDbEntity
  8
DEFPOINTS
 62
     0
100
AcDbPoint
 10
39.44296044542486
 20
12.87859581895695
 30
0.0
  0
POINT
  5
174
330
16B
100
AcDbEntity
  8
DEFPOINTS
 62
     0
100
AcDbPoint
 10
39.44296044542486
 20
20.87859581895695
 30
0.0
  0
ENDBLK
  5
176
330
16B
100
AcDbEntity
  8
0
100
AcDbBlockEnd
  0
ENDSEC
  0
SECTION
  2
ENTITIES
  0
TEXT
  5
35
330
2
100
AcDbEntity
  8
TOUROKU
100
AcDbText
 10
48.94495402320113
 20
42.57672085913907
 30
0.0
 40
2.0
  1
ＷＶＣＰ１０
 72
     2
 11
62.41162068986779
 21
42.57672085913907
 31
0.0
100
AcDbText
  0
TEXT
  5
37
330
2
100
AcDbEntity
  8
MOJI1
100
AcDbText
 10
-35.58832934305997
 20
48.57672085913906
 30
0.0
 40
4.0
  1
カラーテレビカメラ
100
AcDbText
  0
TEXT
  5
38
330
2
100
AcDbEntity
  8
MOJI1
100
AcDbText
 10
-19.88274811254132
 20
-39.42327914086076
 30
0.0
 40
3.0
  1
７６８（Ｈ）×４９４（Ｖ）
100
AcDbText
  0
TEXT
  5
39
330
2
100
AcDbEntity
  8
MOJI1
100
AcDbText
 10
-59.88274811254155
 20
-39.42327914086098
 30
0.0
 40
3.0
  1
有効画素数
100
AcDbText
  0
LINE
  5
3A
330
2
100
AcDbEntity
  8
WAKU
 62
     4
100
AcDbLine
 10
62.41167065694003
 20
-60.42327914086098
 30
0.0
 11
62.41167065694003
 21
-25.42327914086121
 31
0.0
  0
TEXT
  5
3C
330
2
100
AcDbEntity
  8
MOJI1
100
AcDbText
 10
-19.95213373556885
 20
-29.36699323524516
 30
0.0
 40
3.0
  1
専用電源部より供給
100
AcDbText
  0
TEXT
  5
3D
330
2
100
AcDbEntity
  8
MOJI1
100
AcDbText
 10
-19.95213373556885
 20
-49.36015574890252
 30
0.0
 40
3.0
  1
０．８ルクス（Ｆ１．４）、０．６ルクス（Ｆ１．２）
 41
0.9200000000000001
100
AcDbText
  0
LINE
  5
3E
330
2
100
AcDbEntity
  8
WAKU
 62
     4
100
AcDbLine
 10
-22.38274811254155
 20
-60.42327914086098
 30
0.0
 11
-22.38274811254155
 21
-25.42327914086121
 31
0.0
  0
TEXT
  5
3F
330
2
100
AcDbEntity
  8
MOJI1
100
AcDbText
 10
-19.95213373556885
 20
-54.36015574890252
 30
0.0
 40
3.0
  1
カメラ取付台付
100
AcDbText
  0
TEXT
  5
40
330
2
100
AcDbEntity
  8
MOJI1
100
AcDbText
 10
-19.88274811254132
 20
-44.42327914086075
 30
0.0
 40
3.0
  1
水平：５４０本以上　垂直：３５０本以上
100
AcDbText
  0
TEXT
  5
41
330
2
100
AcDbEntity
  8
MOJI1
100
AcDbText
 10
-19.88274811254155
 20
-34.26742674597853
 30
0.0
 40
3.0
  1
１／３型　インターライン転送方式ＣＣＤ
100
AcDbText
  0
TEXT
  5
42
330
2
100
AcDbEntity
  8
MOJI1
100
AcDbText
 10
-59.88274811254155
 20
-44.42327914086098
 30
0.0
 40
3.0
  1
解像度
100
AcDbText
  0
TEXT
  5
43
330
2
100
AcDbEntity
  8
MOJI1
100
AcDbText
 10
-59.88274811254155
 20
-29.2981601897456
 30
0.0
 40
3.0
  1
電　源
100
AcDbText
  0
TEXT
  5
44
330
2
100
AcDbEntity
  8
MOJI1
100
AcDbText
 10
-59.88274811254155
 20
-34.29474144657428
 30
0.0
 40
3.0
  1
撮像素子
100
AcDbText
  0
TEXT
  5
45
330
2
100
AcDbEntity
  8
MOJI1
100
AcDbText
 10
-59.88274811254155
 20
-54.29132270340295
 30
0.0
 40
3.0
  1
その他
100
AcDbText
  0
TEXT
  5
46
330
2
100
AcDbEntity
  8
MOJI1
100
AcDbText
 10
-59.88274811254155
 20
-49.29132270340295
 30
0.0
 40
3.0
  1
最低照度
100
AcDbText
  0
LINE
  5
47
330
2
100
AcDbEntity
  8
WAKU
 62
     4
100
AcDbLine
 10
-62.58832934305996
 20
-25.42327914086121
 30
0.0
 11
-62.58832934305996
 21
-60.42327914086098
 31
0.0
  0
LINE
  5
48
330
2
100
AcDbEntity
  8
WAKU
 62
     1
100
AcDbLine
 10
62.41167065694003
 20
-55.42327914086121
 30
0.0
 11
-62.58832934305996
 21
-55.42327914086121
 31
0.0
  0
LINE
  5
49
330
2
100
AcDbEntity
  8
WAKU
 62
     4
100
AcDbLine
 10
-62.58832934305996
 20
-60.42327914086098
 30
0.0
 11
62.41167065694003
 21
-60.42327914086098
 31
0.0
  0
LINE
  5
4A
330
2
100
AcDbEntity
  8
WAKU
 62
     1
100
AcDbLine
 10
62.41167065694003
 20
-50.42327914086121
 30
0.0
 11
-62.58832934305996
 21
-50.42327914086121
 31
0.0
  0
LINE
  5
4B
330
2
100
AcDbEntity
  8
WAKU
 62
     1
100
AcDbLine
 10
62.41167065694003
 20
-45.42327914086121
 30
0.0
 11
-62.58832934305996
 21
-45.42327914086121
 31
0.0
  0
LINE
  5
4C
330
2
100
AcDbEntity
  8
WAKU
 62
     1
100
AcDbLine
 10
62.41167065694003
 20
-40.42327914086121
 30
0.0
 11
-62.58832934305996
 21
-40.42327914086121
 31
0.0
  0
LINE
  5
4D
330
2
100
AcDbEntity
  8
WAKU
 62
     1
100
AcDbLine
 10
62.41167065694003
 20
-35.42327914086121
 30
0.0
 11
-62.58832934305996
 21
-35.42327914086121
 31
0.0
  0
LINE
  5
4E
330
2
100
AcDbEntity
  8
WAKU
 62
     1
100
AcDbLine
 10
62.41167065694003
 20
-30.42327914086121
 30
0.0
 11
-62.58832934305996
 21
-30.42327914086121
 31
0.0
  0
LINE
  5
4F
330
2
100
AcDbEntity
  8
WAKU
 62
     4
100
AcDbLine
 10
62.41167065694003
 20
-25.42327914086121
 30
0.0
 11
-62.58832934305996
 21
-25.42327914086121
 31
0.0
  0
LINE
  5
50
330
2
100
AcDbEntity
  8
GAIKEI
  6
Continuous
 62
     1
100
AcDbLine
 10
20.54295861437029
 20
14.79553879152109
 30
0.0
 11
20.54295861437029
 21
13.93553879149333
 31
0.0
  0
LINE
  5
52
330
2
100
AcDbEntity
  8
GAIKEI
  6
Continuous
 62
     1
100
AcDbLine
 10
21.81221861436987
 20
14.15553879149331
 30
0.0
 11
21.79295861436967
 21
13.93553879149333
 31
0.0
  0
LINE
  5
53
330
2
100
AcDbEntity
  8
GAIKEI
  6
Continuous
 62
     1
100
AcDbLine
 10
22.87369861436989
 20
14.15555879149326
 30
0.0
 11
22.89295861436969
 21
13.93553879149333
 31
0.0
  0
LINE
  5
54
330
2
100
AcDbEntity
  8
GAIKEI
  6
Continuous
 62
     1
100
AcDbLine
 10
20.54295861437029
 20
13.93553879149333
 30
0.0
 11
23.68184750326711
 21
13.93553879149333
 31
0.0
  0
LINE
  5
55
330
2
100
AcDbEntity
  8
GAIKEI
  6
Continuous
100
AcDbLine
 10
13.17409960672049
 20
1.795538791465801
 30
0.0
 11
33.04296044542488
 21
1.795538791465801
 31
0.0
  0
LINE
  5
56
330
2
100
AcDbEntity
  8
GAIKEI
  6
Continuous
100
AcDbLine
 10
13.44295861437032
 20
12.79553879152109
 30
0.0
 11
23.94295861437033
 21
12.79553879152109
 31
0.0
  0
LINE
  5
57
330
2
100
AcDbEntity
  8
GAIKEI
  6
Continuous
 62
     1
100
AcDbLine
 10
-18.97267335103416
 20
13.59553879149327
 30
0.0
 11
-19.87613389841053
 21
13.59553879149327
 31
0.0
  0
LINE
  5
58
330
2
100
AcDbEntity
  8
GAIKEI
  6
Continuous
 62
     1
100
AcDbLine
 10
-18.87268858151819
 20
13.69379355084949
 30
0.0
 11
-18.85345754680858
 21
14.79553879149327
 31
0.0
  0
LINE
  5
59
330
2
100
AcDbEntity
  8
GAIKEI
  6
Continuous
 62
     1
100
AcDbLine
 10
-19.97611866792633
 20
13.69379355084949
 30
0.0
 11
-19.99534970263593
 21
14.79553879149327
 31
0.0
  0
LINE
  5
5A
330
2
100
AcDbEntity
  8
GAIKEI
  6
Continuous
100
AcDbLine
 10
-22.76998844032099
 20
14.6587843446967
 30
0.0
 11
-23.32440362472218
 21
12.99553879149327
 31
0.0
  0
LINE
  5
5B
330
2
100
AcDbEntity
  8
GAIKEI
  6
Continuous
100
AcDbLine
 10
-15.52440362472217
 20
12.99553879149327
 30
0.0
 11
-16.07881880912353
 21
14.6587843446967
 31
0.0
  0
LINE
  5
5C
330
2
100
AcDbEntity
  8
GAIKEI
  6
Continuous
100
AcDbLine
 10
-23.32440362472218
 20
12.79553879149327
 30
0.0
 11
-23.32440362472218
 21
12.99553879149327
 31
0.0
  0
LINE
  5
5D
330
2
100
AcDbEntity
  8
GAIKEI
  6
Continuous
100
AcDbLine
 10
-15.52440362472217
 20
12.79553879149327
 30
0.0
 11
-15.52440362472217
 21
12.99553879149327
 31
0.0
  0
LINE
  5
5E
330
2
100
AcDbEntity
  8
GAIKEI
  6
Continuous
 62
     1
100
AcDbLine
 10
-15.52440362472217
 20
12.99553879149327
 30
0.0
 11
-23.32440362472218
 21
12.99553879149327
 31
0.0
  0
LINE
  5
5F
330
2
100
AcDbEntity
  8
GAIKEI
  6
Continuous
100
AcDbLine
 10
-16.26855546873375
 20
14.79553879149327
 30
0.0
 11
-22.58025178071077
 21
14.79553879149327
 31
0.0
  0
LINE
  5
60
330
2
100
AcDbEntity
  8
GAIKEI
  6
Continuous
 62
     7
100
AcDbLine
 10
-13.87776463415278
 20
12.79553879149327
 30
0.0
 11
-24.9710548223234
 21
12.79553879149327
 31
0.0
  0
LINE
  5
61
330
2
100
AcDbEntity
  8
GAIKEI
  6
Continuous
100
AcDbLine
 10
14.11816485786002
 20
14.7317834176367
 30
0.0
 11
13.44295861437032
 21
12.9955387915211
 31
0.0
  0
LINE
  5
62
330
2
100
AcDbEntity
  8
GAIKEI
  6
Continuous
100
AcDbLine
 10
13.44295861437032
 20
12.79553879152109
 30
0.0
 11
13.44295861437032
 21
12.9955387915211
 31
0.0
  0
LINE
  5
63
330
2
100
AcDbEntity
  8
GAIKEI
  6
Continuous
100
AcDbLine
 10
23.46330184037649
 20
14.72230317789992
 30
0.0
 11
23.94295861437033
 21
12.9955387915211
 31
0.0
  0
LINE
  5
64
330
2
100
AcDbEntity
  8
GAIKEI
  6
Continuous
100
AcDbLine
 10
23.94295861437033
 20
12.79553879152109
 30
0.0
 11
23.94295861437033
 21
12.9955387915211
 31
0.0
  0
LINE
  5
65
330
2
100
AcDbEntity
  8
GAIKEI
  6
Continuous
 62
     1
100
AcDbLine
 10
13.44295861437032
 20
12.9955387915211
 30
0.0
 11
23.94295861437033
 21
12.9955387915211
 31
0.0
  0
LINE
  5
66
330
2
100
AcDbEntity
  8
GAIKEI
  6
Continuous
100
AcDbLine
 10
14.21136532501433
 20
14.79553879152109
 30
0.0
 11
17.74295861437028
 21
14.79553879152109
 31
0.0
  0
LINE
  5
67
330
2
100
AcDbEntity
  8
GAIKEI
  6
Continuous
 62
     1
100
AcDbLine
 10
22.41921445416247
 20
13.93553879149333
 30
0.0
 11
22.50256386044211
 21
12.9955387915211
 31
0.0
  0
LINE
  5
68
330
2
100
AcDbEntity
  8
GAIKEI
  6
Continuous
 62
     1
100
AcDbLine
 10
22.50256386044211
 20
12.9955387915211
 30
0.0
 11
22.50256386044211
 21
12.79553879152109
 31
0.0
  0
LINE
  5
69
330
2
100
AcDbEntity
  8
GAIKEI
  6
Continuous
100
AcDbLine
 10
17.74295861437028
 20
14.79553879152109
 30
0.0
 11
23.36695004941347
 21
14.79553879152109
 31
0.0
  0
LINE
  5
6A
330
2
100
AcDbEntity
  8
GAIKEI
  6
Continuous
 62
     1
100
AcDbLine
 10
14.38296502306158
 20
5.625538791493283
 30
0.0
 11
14.46296502306168
 21
5.625538791493283
 31
0.0
  0
LINE
  5
6B
330
2
100
AcDbEntity
  8
GAIKEI
  6
Continuous
 62
     1
100
AcDbLine
 10
14.17296502306109
 20
5.555538791493304
 30
0.0
 11
14.17296502306109
 21
5.475538791493292
 31
0.0
  0
LINE
  5
6C
330
2
100
AcDbEntity
  8
GAIKEI
  6
Continuous
 62
     1
100
AcDbLine
 10
14.02296502306106
 20
5.76553879149371
 30
0.0
 11
14.02296502306106
 21
5.625538791493283
 31
0.0
  0
LINE
  5
6D
330
2
100
AcDbEntity
  8
GAIKEI
  6
Continuous
 62
     1
100
AcDbLine
 10
14.17296502306109
 20
5.915538791493702
 30
0.0
 11
14.31296502306165
 21
5.915538791493702
 31
0.0
  0
LINE
  5
6E
330
2
100
AcDbEntity
  8
GAIKEI
  6
Continuous
 62
     1
100
AcDbLine
 10
14.17296502306109
 20
5.475538791493292
 30
0.0
 11
14.31296502306165
 21
5.475538791493292
 31
0.0
  0
LINE
  5
6F
330
2
100
AcDbEntity
  8
GAIKEI
  6
Continuous
 62
     1
100
AcDbLine
 10
14.38296502306158
 20
5.76553879149371
 30
0.0
 11
14.46296502306168
 21
5.76553879149371
 31
0.0
  0
LINE
  5
70
330
2
100
AcDbEntity
  8
GAIKEI
  6
Continuous
 62
     1
100
AcDbLine
 10
14.02296502306106
 20
5.625538791493283
 30
0.0
 11
14.10296502306127
 21
5.625538791493283
 31
0.0
  0
LINE
  5
71
330
2
100
AcDbEntity
  8
GAIKEI
  6
Continuous
 62
     1
100
AcDbLine
 10
14.17296502306109
 20
5.915538791493702
 30
0.0
 11
14.17296502306109
 21
5.83553879149332
 31
0.0
  0
LINE
  5
72
330
2
100
AcDbEntity
  8
GAIKEI
  6
Continuous
 62
     1
100
AcDbLine
 10
14.31296502306165
 20
5.915538791493702
 30
0.0
 11
14.31296502306165
 21
5.83553879149332
 31
0.0
  0
LINE
  5
73
330
2
100
AcDbEntity
  8
GAIKEI
  6
Continuous
 62
     1
100
AcDbLine
 10
14.02296502306106
 20
5.76553879149371
 30
0.0
 11
14.10296502306127
 21
5.76553879149371
 31
0.0
  0
LINE
  5
74
330
2
100
AcDbEntity
  8
GAIKEI
  6
Continuous
 62
     1
100
AcDbLine
 10
14.31296502306165
 20
5.555538791493304
 30
0.0
 11
14.31296502306165
 21
5.475538791493292
 31
0.0
  0
LINE
  5
75
330
2
100
AcDbEntity
  8
GAIKEI
  6
Continuous
 62
     1
100
AcDbLine
 10
14.46296502306168
 20
5.76553879149371
 30
0.0
 11
14.46296502306168
 21
5.625538791493283
 31
0.0
  0
LINE
  5
76
330
2
100
AcDbEntity
  8
GAIKEI
  6
Continuous
 62
     1
100
AcDbLine
 10
11.54296502306167
 20
3.795538791493271
 30
0.0
 11
11.54296502306167
 21
10.79553879149327
 31
0.0
  0
LINE
  5
77
330
2
100
AcDbEntity
  8
GAIKEI
  6
Continuous
 62
     1
100
AcDbLine
 10
11.64296502306169
 20
10.89553879149326
 30
0.0
 11
11.54296502306167
 21
10.79553879149327
 31
0.0
  0
LINE
  5
78
330
2
100
AcDbEntity
  8
GAIKEI
  6
Continuous
 62
     1
100
AcDbLine
 10
11.64296502306169
 20
3.695538791493277
 30
0.0
 11
11.54296502306167
 21
3.795538791493271
 31
0.0
  0
LINE
  5
79
330
2
100
AcDbEntity
  8
GAIKEI
  6
Continuous
 62
     1
100
AcDbLine
 10
12.76515696181369
 20
2.595538791493268
 30
0.0
 11
12.54295891954589
 21
2.595538791493268
 31
0.0
  0
LINE
  5
7A
330
2
100
AcDbEntity
  8
GAIKEI
  6
Continuous
 62
     1
100
AcDbLine
 10
12.7803692443853
 20
11.99553879149327
 30
0.0
 11
12.54295891954589
 21
11.99553879149327
 31
0.0
  0
LINE
  5
7B
330
2
100
AcDbEntity
  8
GAIKEI
  6
Continuous
 62
     1
100
AcDbLine
 10
-19.27440972823817
 20
12.04316910155187
 30
0.0
 11
-19.27440972823817
 21
11.44282730467687
 31
0.0
  0
LINE
  5
7C
330
2
100
AcDbEntity
  8
GAIKEI
  6
Continuous
 62
     1
100
AcDbLine
 10
-19.57440972823818
 20
12.04316910155187
 30
0.0
 11
-19.57440972823818
 21
11.44282730467687
 31
0.0
  0
LINE
  5
7D
330
2
100
AcDbEntity
  8
GAIKEI
  6
Continuous
 62
     1
100
AcDbLine
 10
-22.25092340011318
 20
4.25689743407112
 30
0.0
 11
-22.67542901534719
 21
3.832391818836754
 31
0.0
  0
LINE
  5
7E
330
2
100
AcDbEntity
  8
GAIKEI
  6
Continuous
 62
     1
100
AcDbLine
 10
-22.46305718917554
 20
4.469029697254711
 30
0.0
 11
-22.88756280440978
 21
4.044524082020529
 31
0.0
  0
LINE
  5
7F
330
2
100
AcDbEntity
  8
GAIKEI
  6
Continuous
 62
     1
100
AcDbLine
 10
-23.57169976730054
 20
7.145538791493265
 30
0.0
 11
-24.17204156417554
 21
7.145538791493265
 31
0.0
  0
LINE
  5
80
330
2
100
AcDbEntity
  8
GAIKEI
  6
Continuous
 62
     1
100
AcDbLine
 10
-23.57169976730054
 20
7.445538791493277
 30
0.0
 11
-24.17204156417554
 21
7.445538791493277
 31
0.0
  0
LINE
  5
81
330
2
100
AcDbEntity
  8
GAIKEI
  6
Continuous
 62
     1
100
AcDbLine
 10
-22.46305108565977
 20
10.12204788573138
 30
0.0
 11
-22.88755670089395
 21
10.54655350096574
 31
0.0
  0
LINE
  5
82
330
2
100
AcDbEntity
  8
GAIKEI
  6
Continuous
 62
     1
100
AcDbLine
 10
-22.25091729659718
 20
10.33418014891497
 30
0.0
 11
-22.67542291183136
 21
10.75868576414952
 31
0.0
  0
LINE
  5
83
330
2
100
AcDbEntity
  8
GAIKEI
  6
Continuous
 62
     1
100
AcDbLine
 10
-19.57440972823818
 20
3.148250278309674
 30
0.0
 11
-19.57440972823818
 21
2.547908481434674
 31
0.0
  0
LINE
  5
84
330
2
100
AcDbEntity
  8
GAIKEI
  6
Continuous
 62
     1
100
AcDbLine
 10
-19.27440972823817
 20
3.148250278309674
 30
0.0
 11
-19.27440972823817
 21
2.547908481434674
 31
0.0
  0
LINE
  5
85
330
2
100
AcDbEntity
  8
GAIKEI
  6
Continuous
 62
     1
100
AcDbLine
 10
-15.96126275558137
 20
10.54655807860246
 30
0.0
 11
-16.38577447433138
 21
10.12205246336828
 31
0.0
  0
LINE
  5
86
330
2
100
AcDbEntity
  8
GAIKEI
  6
Continuous
 62
     1
100
AcDbLine
 10
-16.17339654464396
 20
10.75869034178606
 30
0.0
 11
-16.59789605636317
 21
10.33418320067278
 31
0.0
  0
LINE
  5
87
330
2
100
AcDbEntity
  8
GAIKEI
  6
Continuous
 62
     1
100
AcDbLine
 10
-16.17339654464396
 20
3.832391818836754
 30
0.0
 11
-16.59789605636317
 21
4.25689743407112
 31
0.0
  0
LINE
  5
88
330
2
100
AcDbEntity
  8
GAIKEI
  6
Continuous
 62
     1
100
AcDbLine
 10
-15.96126275558137
 20
4.044524082020529
 30
0.0
 11
-16.38577447433138
 21
4.469029697254711
 31
0.0
  0
LINE
  5
89
330
2
100
AcDbEntity
  8
GAIKEI
  6
Continuous
 62
     1
100
AcDbLine
 10
-14.67677789230058
 20
7.145538791493265
 30
0.0
 11
-15.27711968917557
 21
7.145538791493265
 31
0.0
  0
LINE
  5
8A
330
2
100
AcDbEntity
  8
GAIKEI
  6
Continuous
 62
     1
100
AcDbLine
 10
-14.67677789230058
 20
7.445538791493277
 30
0.0
 11
-15.27711968917557
 21
7.445538791493277
 31
0.0
  0
LINE
  5
8B
330
2
100
AcDbEntity
  8
GAIKEI
  6
Continuous
100
AcDbLine
 10
12.54295891954589
 20
11.99553879149327
 30
0.0
 11
12.54295891954589
 21
1.995548709962278
 31
0.0
  0
LINE
  5
8C
330
2
100
AcDbEntity
  8
GAIKEI
  6
Continuous
100
AcDbLine
 10
12.44295319774025
 20
1.895538791493265
 30
0.0
 11
12.54295891954589
 21
1.995548709962278
 31
0.0
  0
LINE
  5
8D
330
2
100
AcDbEntity
  8
GAIKEI
  6
Continuous
100
AcDbLine
 10
11.7429524345691
 20
1.895538791493265
 30
0.0
 11
11.64295891954586
 21
1.995534595186313
 31
0.0
  0
LINE
  5
8E
330
2
100
AcDbEntity
  8
GAIKEI
  6
Continuous
100
AcDbLine
 10
11.74296044525007
 20
12.69553879149327
 30
0.0
 11
11.64295891954586
 21
12.59554108031163
 31
0.0
  0
LINE
  5
8F
330
2
100
AcDbEntity
  8
GAIKEI
  6
Continuous
100
AcDbLine
 10
11.64295891954586
 20
12.59554108031163
 30
0.0
 11
11.64295891954586
 21
1.995534595186313
 31
0.0
  0
LINE
  5
90
330
2
100
AcDbEntity
  8
GAIKEI
  6
Continuous
100
AcDbLine
 10
12.44295319774025
 20
1.895538791493265
 30
0.0
 11
11.7429524345691
 21
1.895538791493265
 31
0.0
  0
LINE
  5
91
330
2
100
AcDbEntity
  8
GAIKEI
  6
Continuous
100
AcDbLine
 10
12.54295891954589
 20
12.59553650267491
 30
0.0
 11
12.54295891954589
 21
11.99553879149327
 31
0.0
  0
LINE
  5
92
330
2
100
AcDbEntity
  8
GAIKEI
  6
Continuous
100
AcDbLine
 10
12.44295510478989
 20
12.69553879149327
 30
0.0
 11
11.74296044525007
 21
12.69553879149327
 31
0.0
  0
LINE
  5
93
330
2
100
AcDbEntity
  8
GAIKEI
  6
Continuous
100
AcDbLine
 10
12.54295891954589
 20
12.59553650267491
 30
0.0
 11
12.44295510478989
 21
12.69553879149327
 31
0.0
  0
LINE
  5
94
330
2
100
AcDbEntity
  8
GAIKEI
  6
Continuous
 62
     1
100
AcDbLine
 10
-14.26689094494693
 20
8.895538791493265
 30
0.0
 11
-12.8153250714947
 21
8.895538791493265
 31
0.0
  0
LINE
  5
95
330
2
100
AcDbEntity
  8
GAIKEI
  6
Continuous
 62
     1
100
AcDbLine
 10
-12.92440972823814
 20
8.895538791493265
 30
0.0
 11
-12.92615523471798
 21
8.795538791493271
 31
0.0
  0
LINE
  5
96
330
2
100
AcDbEntity
  8
GAIKEI
  6
Continuous
 62
     1
100
AcDbLine
 10
12.84470595542487
 20
8.795538791493271
 30
0.0
 11
12.84296044892508
 21
8.895538791493265
 31
0.0
  0
LINE
  5
97
330
2
100
AcDbEntity
  8
GAIKEI
  6
Continuous
 62
     1
100
AcDbLine
 10
25.6647059519095
 20
8.795538791465801
 30
0.0
 11
25.66362818472405
 21
8.857284032137897
 31
0.0
  0
LINE
  5
98
330
2
100
AcDbEntity
  8
GAIKEI
  6
Continuous
 62
     1
100
AcDbLine
 10
39.2412149389281
 20
8.795538791465801
 30
0.0
 11
39.24296044542487
 21
8.895538791493265
 31
0.0
  0
LINE
  5
99
330
2
100
AcDbEntity
  8
GAIKEI
  6
Continuous
100
AcDbLine
 10
32.04296044542488
 20
12.79553879149327
 30
0.0
 11
13.21149908672871
 21
12.79553879149327
 31
0.0
  0
LINE
  5
9A
330
2
100
AcDbEntity
  8
GAIKEI
  6
Continuous
 62
     1
100
AcDbLine
 10
25.1622774756215
 20
8.95553879149331
 30
0.0
 11
25.56364341520847
 21
8.95553879149331
 31
0.0
  0
LINE
  5
9B
330
2
100
AcDbEntity
  8
GAIKEI
  6
Continuous
 62
     1
100
AcDbLine
 10
12.64296044194489
 20
8.895538791493265
 30
0.0
 11
25.07062596172224
 21
8.895538791493265
 31
0.0
  0
LINE
  5
9C
330
2
100
AcDbEntity
  8
GAIKEI
  6
Continuous
 62
     1
100
AcDbLine
 10
25.65529492910727
 20
8.895538791493265
 30
0.0
 11
39.44296044542486
 21
8.895538791493265
 31
0.0
  0
LINE
  5
9D
330
2
100
AcDbEntity
  8
GAIKEI
  6
Continuous
 62
     1
100
AcDbLine
 10
25.06229270610547
 20
8.857284032137897
 30
0.0
 11
25.06121493891985
 21
8.795538791465801
 31
0.0
  0
LINE
  5
9E
330
2
100
AcDbEntity
  8
GAIKEI
  6
Continuous
100
AcDbLine
 10
-26.12440972823814
 20
8.895538791493265
 30
0.0
 11
-25.96968435707797
 21
11.84787474773495
 31
0.0
  0
LINE
  5
9F
330
2
100
AcDbEntity
  8
GAIKEI
  6
Continuous
100
AcDbLine
 10
-25.9226642217582
 20
8.795538791493271
 30
0.0
 11
-25.60441886653817
 21
8.795538791493271
 31
0.0
  0
LINE
  5
A0
330
2
100
AcDbEntity
  8
GAIKEI
  6
Continuous
 62
     1
100
AcDbLine
 10
-26.12440972823814
 20
8.895538791493265
 30
0.0
 11
-24.58192851152936
 21
8.895538791493265
 31
0.0
  0
LINE
  5
A1
330
2
100
AcDbEntity
  8
GAIKEI
  6
Continuous
100
AcDbLine
 10
-12.87913509939815
 20
11.84787474773495
 30
0.0
 11
-12.72440972823815
 21
8.895538791493265
 31
0.0
  0
LINE
  5
A2
330
2
100
AcDbEntity
  8
GAIKEI
  6
Continuous
 62
     1
100
AcDbLine
 10
-25.9226642217582
 20
8.795538791493271
 30
0.0
 11
-25.92440972823815
 21
8.895538791493265
 31
0.0
  0
LINE
  5
A3
330
2
100
AcDbEntity
  8
GAIKEI
  6
Continuous
 62
     1
100
AcDbLine
 10
-14.23692478850083
 20
8.795538791493271
 30
0.0
 11
-12.79191396872173
 21
8.795538791493271
 31
0.0
  0
LINE
  5
A4
330
2
100
AcDbEntity
  8
GAIKEI
  6
Continuous
 62
     1
100
AcDbLine
 10
12.6429604489451
 20
8.795538791465801
 30
0.0
 11
39.44296044542486
 21
8.795538791465801
 31
0.0
  0
LINE
  5
A5
330
2
100
AcDbEntity
  8
GAIKEI
  6
Continuous
100
AcDbLine
 10
-25.80722024129753
 20
2.743202835250684
 30
0.0
 11
-25.87940972823734
 21
4.120660302965745
 31
0.0
  0
LINE
  5
A6
330
2
100
AcDbEntity
  8
GAIKEI
  6
Continuous
 62
     1
100
AcDbLine
 10
-26.12440972823814
 20
8.795538791493271
 30
0.0
 11
-24.61189466797512
 21
8.795538791493271
 31
0.0
  0
LINE
  5
A7
330
2
100
AcDbEntity
  8
GAIKEI
  6
Continuous
 62
     7
100
AcDbLine
 10
-14.04022874993242
 20
1.795538791493271
 30
0.0
 11
-24.80859070654313
 21
1.795538791493271
 31
0.0
  0
LINE
  5
A8
330
2
100
AcDbEntity
  8
GAIKEI
  6
Continuous
100
AcDbLine
 10
-12.72440972823815
 20
8.795538791493271
 30
0.0
 11
-12.73812142073356
 21
8.533904112765526
 31
0.0
  0
LINE
  5
A9
330
2
100
AcDbEntity
  8
GAIKEI
  6
Continuous
100
AcDbLine
 10
-12.90419403167536
 20
5.365049923278931
 30
0.0
 11
-13.04159921517774
 21
2.743202835250684
 31
0.0
  0
LINE
  5
AA
330
2
100
AcDbEntity
  8
GAIKEI
  6
Continuous
100
AcDbLine
 10
-12.73812142073356
 20
8.533904112765526
 30
0.0
 11
-12.90419403167536
 21
5.365049923278931
 31
0.0
  0
LINE
  5
AB
330
2
100
AcDbEntity
  8
GAIKEI
  6
Continuous
100
AcDbLine
 10
-12.79191396872173
 20
8.795538791493271
 30
0.0
 11
-12.72440972823815
 21
8.795538791493271
 31
0.0
  0
LINE
  5
AC
330
2
100
AcDbEntity
  8
GAIKEI
  6
Continuous
100
AcDbLine
 10
-12.8153250714947
 20
8.895538791493265
 30
0.0
 11
-12.72440972823815
 21
8.895538791493265
 31
0.0
  0
LINE
  5
AD
330
2
100
AcDbEntity
  8
GAIKEI
  6
Continuous
100
AcDbLine
 10
-25.87940972823734
 20
4.120660302965745
 30
0.0
 11
-26.12440972823814
 21
8.795538791493271
 31
0.0
  0
LINE
  5
AE
330
2
100
AcDbEntity
  8
GAIKEI
  6
Continuous
 62
     1
100
AcDbLine
 10
21.81221861437004
 20
14.15553879149331
 30
0.0
 11
22.87369861436989
 21
14.15555879149326
 31
0.0
  0
LINE
  5
AF
330
2
100
AcDbEntity
  8
GAIKEI
  6
PHANTOM
 62
     1
100
AcDbLine
 10
-24.26868556243798
 20
4.695788506220765
 30
0.0
 11
-24.08057320650395
 21
4.763713034522538
 31
0.0
  0
LINE
  5
B1
330
2
100
AcDbEntity
  8
GAIKEI
  6
S10
 62
     1
100
AcDbLine
 10
-24.87217570266878
 20
6.072668911573344
 30
0.0
 11
-24.39670400455552
 21
4.755882420036982
 31
0.0
  0
LINE
  5
B3
330
2
100
AcDbEntity
  8
GAIKEI
  6
S10
 62
     1
100
AcDbLine
 10
-24.62396943291916
 20
6.268611881993294
 30
0.0
 11
-24.81208178885291
 21
6.200687353691151
 31
0.0
  0
LINE
  5
B4
330
2
100
AcDbEntity
  8
GAIKEI
  6
S10
 62
     1
100
AcDbLine
 10
4.882965023061586
 20
12.59553879246851
 30
0.0
 11
11.34296502306151
 21
12.59553879246851
 31
0.0
  0
LINE
  5
B5
330
2
100
AcDbEntity
  8
GAIKEI
  6
S10
 62
     1
100
AcDbLine
 10
11.44296502306153
 20
12.49553879246852
 30
0.0
 11
11.44296502306153
 21
7.295538792468519
 31
0.0
  0
LINE
  5
B6
330
2
100
AcDbEntity
  8
GAIKEI
  6
S10
 62
     1
100
AcDbLine
 10
11.44296502306153
 20
7.295538792468519
 30
0.0
 11
11.44296502306153
 21
2.095538792468516
 31
0.0
  0
LINE
  5
B7
330
2
100
AcDbEntity
  8
GAIKEI
  6
S10
 62
     1
100
AcDbLine
 10
11.34296502306151
 20
1.995538792468522
 30
0.0
 11
4.882965023061586
 21
1.995538792468522
 31
0.0
  0
LINE
  5
B8
330
2
100
AcDbEntity
  8
GAIKEI
  6
S10
 62
     1
100
AcDbLine
 10
2.582965023061575
 20
3.345538792468516
 30
0.0
 11
4.482965023061552
 21
3.345538792468516
 31
0.0
  0
LINE
  5
B9
330
2
100
AcDbEntity
  8
GAIKEI
  6
S10
 62
     1
100
AcDbLine
 10
4.482965023061552
 20
11.24553879246852
 30
0.0
 11
2.582965023061575
 21
11.24553879246852
 31
0.0
  0
LINE
  5
BA
330
2
100
AcDbEntity
  8
GAIKEI
  6
S10
 62
     1
100
AcDbLine
 10
4.482965023061552
 20
12.19553879246852
 30
0.0
 11
4.482965023061552
 21
2.395538792468528
 31
0.0
  0
LINE
  5
BB
330
2
100
AcDbEntity
  8
GAIKEI
  6
PHANTOM
 62
     1
100
AcDbLine
 10
11.44296502306153
 20
10.29553879246852
 30
0.0
 11
11.54296502306149
 21
10.19553879246852
 31
0.0
  0
LINE
  5
BC
330
2
100
AcDbEntity
  8
GAIKEI
  6
PHANTOM
 62
     1
100
AcDbLine
 10
11.54296502306149
 20
10.19553879246852
 30
0.0
 11
11.54296502306149
 21
4.395538792468528
 31
0.0
  0
LINE
  5
BD
330
2
100
AcDbEntity
  8
GAIKEI
  6
PHANTOM
 62
     1
100
AcDbLine
 10
11.54296502306149
 20
4.395538792468528
 30
0.0
 11
11.44296502306153
 21
4.295538792468519
 31
0.0
  0
LINE
  5
BE
330
2
100
AcDbEntity
  8
GAIKEI
  6
S10
 62
     1
100
AcDbLine
 10
2.538243663511565
 20
11.22317811269351
 30
0.0
 11
2.582965023061575
 21
11.24553879246852
 31
0.0
  0
LINE
  5
BF
330
2
100
AcDbEntity
  8
GAIKEI
  6
S10
 62
     1
100
AcDbLine
 10
2.538243663511565
 20
3.367899472243536
 30
0.0
 11
2.582965023061575
 21
3.345538792468516
 31
0.0
  0
LINE
  5
C0
330
2
100
AcDbEntity
  8
GAIKEI
  6
S10
 62
     1
100
AcDbLine
 10
2.482965023061552
 20
11.13373539359374
 30
0.0
 11
2.482965023061552
 21
3.45734219134367
 31
0.0
  0
LINE
  5
C1
330
2
100
AcDbEntity
  8
GAIKEI
  6
S10
 62
     1
100
AcDbLine
 10
-28.09899829138741
 20
7.240090878131667
 30
0.0
 11
-27.02940972823811
 21
7.075538791493286
 31
0.0
  0
LINE
  5
C2
330
2
100
AcDbEntity
  8
GAIKEI
  6
S10
 62
     1
100
AcDbLine
 10
-26.42940972823808
 20
2.635538791493331
 30
0.0
 11
-28.12940972823808
 21
2.635538791493331
 31
0.0
  0
LINE
  5
C3
330
2
100
AcDbEntity
  8
GAIKEI
  6
S10
 62
     1
100
AcDbLine
 10
-28.12940972823808
 20
2.635538791493331
 30
0.0
 11
-28.32882062533818
 21
5.227880453797681
 31
0.0
  0
LINE
  5
C4
330
2
100
AcDbEntity
  8
GAIKEI
  6
S10
 62
     1
100
AcDbLine
 10
-28.32940972823812
 20
5.243219753574265
 30
0.0
 11
-28.32940972823812
 21
7.042416538601557
 31
0.0
  0
LINE
  5
C5
330
2
100
AcDbEntity
  8
GAIKEI
  6
S10
 62
     1
100
AcDbLine
 10
-26.42940972823808
 20
2.635538791493331
 30
0.0
 11
-26.42940972823808
 21
4.635538791493331
 31
0.0
  0
LINE
  5
C6
330
2
100
AcDbEntity
  8
GAIKEI
  6
S10
 62
     1
100
AcDbLine
 10
-27.02940972823811
 20
7.075538791493286
 30
0.0
 11
-26.03426834787152
 21
7.075538791493286
 31
0.0
  0
LINE
  5
C7
330
2
100
AcDbEntity
  8
GAIKEI
  6
S10
 62
     1
100
AcDbLine
 10
-26.42940972823808
 20
4.635538791493331
 30
0.0
 11
-25.94451198710911
 21
5.362885403186936
 31
0.0
  0
LINE
  5
C8
330
2
100
AcDbEntity
  8
GAIKEI
  6
S10
 62
     1
100
AcDbLine
 10
-27.07940972823806
 20
2.235538791493326
 30
0.0
 11
-27.07940972823806
 21
2.635538791493331
 31
0.0
  0
LINE
  5
C9
330
2
100
AcDbEntity
  8
GAIKEI
  6
S10
 62
     1
100
AcDbLine
 10
-27.87940972823808
 20
2.635538791493331
 30
0.0
 11
-27.87940972823808
 21
2.235538791493326
 31
0.0
  0
LINE
  5
CA
330
2
100
AcDbEntity
  8
GAIKEI
  6
S10
 62
     1
100
AcDbLine
 10
-24.77028891021601
 20
5.790500377672486
 30
0.0
 11
-24.95488142635011
 21
5.723846810317922
 31
0.0
  0
LINE
  5
CB
330
2
100
AcDbEntity
  8
GAIKEI
  6
S10
 62
     1
100
AcDbLine
 10
-24.68318331314256
 20
4.971397386582907
 30
0.0
 11
-24.49859079700835
 21
5.038050953937471
 31
0.0
  0
LINE
  5
CC
330
2
100
AcDbEntity
  8
GAIKEI
  6
S10
 62
     1
100
AcDbLine
 10
-25.07940972823806
 20
2.235538791493326
 30
0.0
 11
-25.07940972823715
 21
4.407060318781731
 31
0.0
  0
LINE
  5
CD
330
2
100
AcDbEntity
  8
GAIKEI
  6
S10
 62
     1
100
AcDbLine
 10
-25.87940972823716
 20
4.407060318781915
 30
0.0
 11
-25.87940972823807
 21
2.235538791493326
 31
0.0
  0
ARC
  5
CE
330
2
100
AcDbEntity
  8
GAIKEI
  6
Continuous
 62
     1
100
AcDbCircle
 10
14.38296502306158
 20
5.83553879149332
 30
0.0
 40
0.0699999999998
100
AcDbArc
 50
180.0
 51
270.0
  0
ARC
  5
CF
330
2
100
AcDbEntity
  8
GAIKEI
  6
Continuous
 62
     1
100
AcDbCircle
 10
14.10296502306127
 20
5.83553879149332
 30
0.0
 40
0.0699999999996
100
AcDbArc
 50
270.0
 51
0.0
  0
ARC
  5
D0
330
2
100
AcDbEntity
  8
GAIKEI
  6
Continuous
 62
     1
100
AcDbCircle
 10
14.38296502306158
 20
5.555538791493304
 30
0.0
 40
0.07
100
AcDbArc
 50
90.0
 51
180.0
  0
ARC
  5
D1
330
2
100
AcDbEntity
  8
GAIKEI
  6
Continuous
 62
     1
100
AcDbCircle
 10
14.10296502306127
 20
5.555538791493304
 30
0.0
 40
0.0699999999998
100
AcDbArc
 50
0.0
 51
90.0
  0
ARC
  5
D2
330
2
100
AcDbEntity
  8
GAIKEI
  6
Continuous
 62
     1
100
AcDbCircle
 10
-19.42440972823797
 20
7.295538791493541
 30
0.0
 40
4.7499999999998
100
AcDbArc
 50
91.80964063450032
 51
133.1903553814023
  0
ARC
  5
D3
330
2
100
AcDbEntity
  8
GAIKEI
  6
Continuous
 62
     1
100
AcDbCircle
 10
-19.42440972823797
 20
7.295538791493541
 30
0.0
 40
4.7499999999998
100
AcDbArc
 50
46.80964621244561
 51
88.19035754426453
  0
ARC
  5
D4
330
2
100
AcDbEntity
  8
GAIKEI
  6
Continuous
 62
     1
100
AcDbCircle
 10
-19.42440972823797
 20
7.295538791493541
 30
0.0
 40
4.1500000000004
100
AcDbArc
 50
317.0713765569634
 51
357.9286134396133
  0
ARC
  5
D5
330
2
100
AcDbEntity
  8
GAIKEI
  6
Continuous
 62
     1
100
AcDbCircle
 10
-19.42440972823797
 20
7.295538791493541
 30
0.0
 40
4.750000000000399
100
AcDbArc
 50
316.8096437079819
 51
358.190359948969
  0
ARC
  5
D6
330
2
100
AcDbEntity
  8
GAIKEI
  6
Continuous
 62
     1
100
AcDbCircle
 10
-19.42440972823797
 20
7.295538791493541
 30
0.0
 40
4.1500000000002
100
AcDbArc
 50
272.0713821349276
 51
312.9286209385439
  0
ARC
  5
D7
330
2
100
AcDbEntity
  8
GAIKEI
  6
Continuous
 62
     1
100
AcDbCircle
 10
-19.42440972823797
 20
7.295538791493541
 30
0.0
 40
4.750000000000399
100
AcDbArc
 50
271.8096424557355
 51
313.1903537875452
  0
ARC
  5
D8
330
2
100
AcDbEntity
  8
GAIKEI
  6
Continuous
 62
     1
100
AcDbCircle
 10
-19.42440972823797
 20
7.295538791493541
 30
0.0
 40
4.1500000000004
100
AcDbArc
 50
227.0713774675916
 51
267.9286196863156
  0
ARC
  5
D9
330
2
100
AcDbEntity
  8
GAIKEI
  6
Continuous
 62
     1
100
AcDbCircle
 10
-19.42440972823797
 20
7.295538791493541
 30
0.0
 40
4.750000000000399
100
AcDbArc
 50
226.8096446185977
 51
268.1903593654997
  0
ARC
  5
DA
330
2
100
AcDbEntity
  8
GAIKEI
  6
Continuous
 62
     1
100
AcDbCircle
 10
-19.42440972823797
 20
7.295538791493541
 30
0.0
 40
4.7499999999998
100
AcDbArc
 50
181.8096399512683
 51
223.1903546981597
  0
ARC
  5
DB
330
2
100
AcDbEntity
  8
GAIKEI
  6
Continuous
 62
     1
100
AcDbCircle
 10
-19.42440972823797
 20
7.295538791493541
 30
0.0
 40
4.15
100
AcDbArc
 50
182.071386460635
 51
222.9286218491693
  0
ARC
  5
DC
330
2
100
AcDbEntity
  8
GAIKEI
  6
Continuous
 62
     1
100
AcDbCircle
 10
-19.42440972823797
 20
7.295538791493541
 30
0.0
 40
4.149999999999599
100
AcDbArc
 50
92.07138031368437
 51
132.9286225324084
  0
ARC
  5
DD
330
2
100
AcDbEntity
  8
GAIKEI
  6
Continuous
 62
     1
100
AcDbCircle
 10
-19.42440972823797
 20
7.295538791493541
 30
0.0
 40
4.1499999999998
100
AcDbArc
 50
47.07137906145606
 51
87.92861786507236
  0
ARC
  5
DE
330
2
100
AcDbEntity
  8
GAIKEI
  6
Continuous
 62
     1
100
AcDbCircle
 10
-19.42440972823797
 20
7.295538791493541
 30
0.0
 40
4.1500000000002
100
AcDbArc
 50
2.071386560386664
 51
42.92862344302743
  0
ARC
  5
DF
330
2
100
AcDbEntity
  8
GAIKEI
  6
Continuous
 62
     1
100
AcDbCircle
 10
-19.42440972823797
 20
7.295538791493541
 30
0.0
 40
4.750000000000399
100
AcDbArc
 50
1.809640051004911
 51
43.19035629201811
  0
ARC
  5
E0
330
2
100
AcDbEntity
  8
GAIKEI
  6
Continuous
 62
     1
100
AcDbCircle
 10
-19.42440972823797
 20
7.295538791493541
 30
0.0
 40
4.149999999999599
100
AcDbArc
 50
137.0713781508307
 51
177.9286135393657
  0
ARC
  5
E1
330
2
100
AcDbEntity
  8
GAIKEI
  6
Continuous
 62
     1
100
AcDbCircle
 10
-19.42440972823797
 20
7.295538791493541
 30
0.0
 40
4.75
100
AcDbArc
 50
136.8096453018402
 51
178.1903600487316
  0
ARC
  5
E2
330
2
100
AcDbEntity
  8
GAIKEI
  6
Continuous
100
AcDbCircle
 10
70.44147334604469
 20
7.886640774813088
 30
0.0
 40
57.8073176088798
100
AcDbArc
 50
175.4952227399587
 51
178.9999789698051
  0
ARC
  5
E3
330
2
100
AcDbEntity
  8
GAIKEI
  6
Continuous
100
AcDbCircle
 10
32.04296044542488
 20
-67.24446120850696
 30
0.0
 40
80.04000000000003
100
AcDbArc
 50
86.24429523454457
 51
90.0
  0
ARC
  5
E4
330
2
100
AcDbEntity
  8
GAIKEI
  6
Continuous
100
AcDbCircle
 10
35.45270424438465
 20
8.616512896533293
 30
0.0
 40
4.0
100
AcDbArc
 50
4.000000000009507
 51
24.45843642570486
  0
ARC
  5
E5
330
2
100
AcDbEntity
  8
GAIKEI
  6
Continuous
100
AcDbCircle
 10
32.17576155306486
 20
7.125993994333313
 30
0.0
 40
7.6
100
AcDbArc
 50
24.45843642570486
 51
45.08268183400248
  0
ARC
  5
E6
330
2
100
AcDbEntity
  8
GAIKEI
  6
Continuous
100
AcDbCircle
 10
25.47706374180487
 20
9.772129423885985
 30
0.0
 40
14.0000000000002
100
AcDbArc
 50
327.151843664552
 51
355.9999999999905
  0
ARC
  5
E7
330
2
100
AcDbEntity
  8
GAIKEI
  6
Continuous
100
AcDbCircle
 10
35.37718148404494
 20
11.87332885350571
 30
0.0
 40
9.999999999999801
100
AcDbArc
 50
273.8174562273978
 51
279.1427637094831
  0
ARC
  5
E8
330
2
100
AcDbEntity
  8
GAIKEI
  6
Continuous
100
AcDbCircle
 10
1388.406944915924
 20
32.80942515144591
 30
0.0
 40
1375.973549053381
100
AcDbArc
 50
180.9999932005903
 51
181.2752435616893
  0
ARC
  5
E9
330
2
100
AcDbEntity
  8
GAIKEI
  6
Continuous
100
AcDbCircle
 10
33.04296044542488
 20
46.85553879146576
 30
0.0
 40
45.06
100
AcDbArc
 50
270.0
 51
273.8174562273978
  0
ARC
  5
EA
330
2
100
AcDbEntity
  8
GAIKEI
  6
Continuous
 62
     1
100
AcDbCircle
 10
22.34295861436968
 20
12.79705879149352
 30
0.0
 40
1.4584948397576
100
AcDbArc
 50
68.66036203797836
 51
111.3399238725651
  0
ARC
  5
EB
330
2
100
AcDbEntity
  8
GAIKEI
  6
S10
 62
     1
100
AcDbCircle
 10
-19.42440972823797
 20
7.295538791493541
 30
0.0
 40
6.8000000000002
100
AcDbArc
 50
336.758297147622
 51
0.0
  0
ARC
  5
EC
330
2
100
AcDbEntity
  8
GAIKEI
  6
S10
 62
     1
100
AcDbCircle
 10
-19.42440972823797
 20
7.295538791493541
 30
0.0
 40
6.8
100
AcDbArc
 50
0.0
 51
23.24170285237796
  0
ARC
  5
ED
330
2
100
AcDbEntity
  8
GAIKEI
  6
S10
 62
     1
100
AcDbCircle
 10
-19.42440972823797
 20
7.295538791493541
 30
0.0
 40
5.3
100
AcDbArc
 50
64.9722200611166
 51
180.0
  0
ARC
  5
EE
330
2
100
AcDbEntity
  8
GAIKEI
  6
S10
 62
     1
100
AcDbCircle
 10
-25.79005622985599
 20
-11.37347957912151
 30
0.0
 40
25.0000000000004
100
AcDbArc
 50
60.83736459037582
 51
69.86006976754763
  0
ARC
  5
EF
330
2
100
AcDbEntity
  8
GAIKEI
  6
S10
 62
     1
100
AcDbCircle
 10
-19.42440972823797
 20
7.295538791493541
 30
0.0
 40
5.3
100
AcDbArc
 50
180.0
 51
295.0277799388834
  0
ARC
  5
F0
330
2
100
AcDbEntity
  8
GAIKEI
  6
S10
 62
     1
100
AcDbCircle
 10
-25.79005622985599
 20
25.96455716210851
 30
0.0
 40
25.0000000000002
100
AcDbArc
 50
290.1399302324524
 51
299.1626354096242
  0
ARC
  5
F1
330
2
100
AcDbEntity
  8
GAIKEI
  6
S10
 62
     1
100
AcDbCircle
 10
-26.4794097282381
 20
2.235538791493326
 30
0.0
 40
0.6000000000000001
100
AcDbArc
 50
180.0
 51
0.0
  0
ARC
  5
F2
330
2
100
AcDbEntity
  8
GAIKEI
  6
S10
 62
     1
100
AcDbCircle
 10
-26.4794097282381
 20
2.235538791493326
 30
0.0
 40
1.4
100
AcDbArc
 50
180.0
 51
0.0
  0
CIRCLE
  5
F3
330
2
100
AcDbEntity
  8
GAIKEI
  6
Continuous
 62
     1
100
AcDbCircle
 10
-19.42440972823797
 20
7.295538791493541
 30
0.0
 40
5.299999999999799
  0
CIRCLE
  5
F4
330
2
100
AcDbEntity
  8
GAIKEI
  6
Continuous
 62
     1
100
AcDbCircle
 10
-19.42440972823797
 20
7.295538791493541
 30
0.0
 40
5.399999999999799
  0
CIRCLE
  5
F5
330
2
100
AcDbEntity
  8
GAIKEI
  6
Continuous
 62
     1
100
AcDbCircle
 10
-19.42440972823797
 20
7.295538791493541
 30
0.0
 40
3.6999999999988
  0
CIRCLE
  5
F6
330
2
100
AcDbEntity
  8
GAIKEI
  6
Continuous
 62
     1
100
AcDbCircle
 10
-19.42440972823797
 20
7.295538791493541
 30
0.0
 40
3.599999999999801
  0
CIRCLE
  5
F7
330
2
100
AcDbEntity
  8
GAIKEI
  6
Continuous
 62
     1
100
AcDbCircle
 10
14.24296044542487
 20
5.695538791465807
 30
0.0
 40
0.5
  0
ARC
  5
F8
330
2
100
AcDbEntity
  8
GAIKEI
  6
Continuous
100
AcDbCircle
 10
-22.58025178071077
 20
14.59553879149327
 30
0.0
 40
0.2
100
AcDbArc
 50
90.0
 51
161.5650511770576
  0
ARC
  5
F9
330
2
100
AcDbEntity
  8
GAIKEI
  6
Continuous
100
AcDbCircle
 10
-16.26855546873375
 20
14.59553879149327
 30
0.0
 40
0.2000000000002
100
AcDbArc
 50
18.43494882293888
 51
90.0
  0
ARC
  5
FA
330
2
100
AcDbEntity
  8
GAIKEI
  6
Continuous
 62
     1
100
AcDbCircle
 10
-18.97267335103416
 20
13.69553879149328
 30
0.0
 40
0.1
100
AcDbArc
 50
270.0
 51
358.9999999999721
  0
ARC
  5
FB
330
2
100
AcDbEntity
  8
GAIKEI
  6
Continuous
 62
     1
100
AcDbCircle
 10
-19.87613389841053
 20
13.69553879149328
 30
0.0
 40
0.1000000000002
100
AcDbArc
 50
181.0000000000278
 51
270.0
  0
ARC
  5
FC
330
2
100
AcDbEntity
  8
GAIKEI
  6
Continuous
100
AcDbCircle
 10
23.36695004941347
 20
14.6955387915211
 30
0.0
 40
0.1
100
AcDbArc
 50
15.5241109968518
 51
90.0
  0
ARC
  5
FD
330
2
100
AcDbEntity
  8
GAIKEI
  6
Continuous
100
AcDbCircle
 10
14.21136532501433
 20
14.6955387915211
 30
0.0
 40
0.1
100
AcDbArc
 50
90.0
 51
158.7494944928289
  0
ARC
  5
FE
330
2
100
AcDbEntity
  8
GAIKEI
  6
Continuous
 62
     1
100
AcDbCircle
 10
25.1622774756215
 20
8.855538791493302
 30
0.0
 40
0.1
100
AcDbArc
 50
90.0
 51
178.9999999995031
  0
ARC
  5
FF
330
2
100
AcDbEntity
  8
GAIKEI
  6
Continuous
 62
     1
100
AcDbCircle
 10
25.56364341520847
 20
8.855538791493302
 30
0.0
 40
0.1
100
AcDbArc
 50
1.000000000496903
 51
90.0
  0
ARC
  5
100
330
2
100
AcDbEntity
  8
GAIKEI
  6
Continuous
100
AcDbCircle
 10
-24.9710548223234
 20
11.79553879149327
 30
0.0
 40
1.0
100
AcDbArc
 50
90.0
 51
177.0000000000726
  0
ARC
  5
101
330
2
100
AcDbEntity
  8
GAIKEI
  6
Continuous
100
AcDbCircle
 10
-13.87776463415278
 20
11.79553879149327
 30
0.0
 40
1.0
100
AcDbArc
 50
2.999999999927366
 51
90.0
  0
ARC
  5
102
330
2
100
AcDbEntity
  8
GAIKEI
  6
Continuous
100
AcDbCircle
 10
13.21149908672871
 20
12.39553879149326
 30
0.0
 40
0.4
100
AcDbArc
 50
90.0
 51
175.4952227399316
  0
ARC
  5
103
330
2
100
AcDbEntity
  8
GAIKEI
  6
Continuous
100
AcDbCircle
 10
37.25957816491027
 20
12.22450442946275
 30
0.0
 40
0.4
100
AcDbArc
 50
45.08268183397484
 51
86.24429523451844
  0
ARC
  5
104
330
2
100
AcDbEntity
  8
GAIKEI
  6
Continuous
100
AcDbCircle
 10
13.17409960672049
 20
2.195538791465807
 30
0.0
 40
0.4000000000002001
100
AcDbArc
 50
181.2752435617154
 51
270.0
  0
ARC
  5
105
330
2
100
AcDbEntity
  8
GAIKEI
  6
Continuous
100
AcDbCircle
 10
36.90257345273747
 20
2.39529217169013
 30
0.0
 40
0.4000000000004001
100
AcDbArc
 50
279.1427637095095
 51
327.1518436645607
  0
ARC
  5
106
330
2
100
AcDbEntity
  8
GAIKEI
  6
Continuous
100
AcDbCircle
 10
-14.04022874993242
 20
2.795538791493271
 30
0.0
 40
1.0
100
AcDbArc
 50
270.0
 51
357.0000000000205
  0
ARC
  5
107
330
2
100
AcDbEntity
  8
GAIKEI
  6
Continuous
100
AcDbCircle
 10
-24.80859070654313
 20
2.795538791493271
 30
0.0
 40
0.9999999999997999
100
AcDbArc
 50
251.0343401550686
 51
270.0
  0
ARC
  5
108
330
2
100
AcDbEntity
  8
GAIKEI
  6
Continuous
100
AcDbCircle
 10
-24.80859070654313
 20
2.795538791493271
 30
0.0
 40
0.9999999999997999
100
AcDbArc
 50
182.9999999999795
 51
251.0343401550686
  0
ARC
  5
109
330
2
100
AcDbEntity
  8
GAIKEI
  6
S10
 62
     1
100
AcDbCircle
 10
-24.77811952470191
 20
6.106631175724501
 30
0.0
 40
0.0999999999998
100
AcDbArc
 50
109.8538850265051
 51
199.8538850265762
  0
ARC
  5
10A
330
2
100
AcDbEntity
  8
GAIKEI
  6
S10
 62
     1
100
AcDbCircle
 10
-24.30264782658881
 20
4.789844684187684
 30
0.0
 40
0.0999999999998
100
AcDbArc
 50
199.8538850264115
 51
289.8538850263421
  0
ARC
  5
10B
330
2
100
AcDbEntity
  8
GAIKEI
  6
S10
 62
     1
100
AcDbCircle
 10
-14.09508921485079
 20
9.584281430059505
 30
0.0
 40
1.0000000000002
100
AcDbArc
 50
23.24170285237796
 51
60.83736459037582
  0
ARC
  5
10C
330
2
100
AcDbEntity
  8
GAIKEI
  6
S10
 62
     1
100
AcDbCircle
 10
-14.09508921485079
 20
5.006796152927677
 30
0.0
 40
1.0000000000002
100
AcDbArc
 50
299.1626354096242
 51
336.7582971475979
  0
ARC
  5
10D
330
2
100
AcDbEntity
  8
GAIKEI
  6
S10
 62
     1
100
AcDbCircle
 10
4.882965023061586
 20
12.19553879246852
 30
0.0
 40
0.4
100
AcDbArc
 50
90.0
 51
180.0
  0
ARC
  5
10E
330
2
100
AcDbEntity
  8
GAIKEI
  6
S10
 62
     1
100
AcDbCircle
 10
4.882965023061586
 20
2.395538792468528
 30
0.0
 40
0.4
100
AcDbArc
 50
180.0
 51
270.0
  0
ARC
  5
10F
330
2
100
AcDbEntity
  8
GAIKEI
  6
S10
 62
     1
100
AcDbCircle
 10
11.34296502306151
 20
12.49553879246852
 30
0.0
 40
0.1
100
AcDbArc
 50
0.0
 51
90.0
  0
ARC
  5
110
330
2
100
AcDbEntity
  8
GAIKEI
  6
S10
 62
     1
100
AcDbCircle
 10
11.34296502306151
 20
2.095538792468516
 30
0.0
 40
0.1
100
AcDbArc
 50
270.0
 51
0.0
  0
ARC
  5
111
330
2
100
AcDbEntity
  8
GAIKEI
  6
S10
 62
     1
100
AcDbCircle
 10
2.582965023061575
 20
11.13373539359374
 30
0.0
 40
0.0999999999998
100
AcDbArc
 50
116.5650511771488
 51
180.0
  0
ARC
  5
112
330
2
100
AcDbEntity
  8
GAIKEI
  6
S10
 62
     1
100
AcDbCircle
 10
2.582965023061575
 20
3.45734219134367
 30
0.0
 40
0.1
100
AcDbArc
 50
180.0
 51
243.4349488229677
  0
ARC
  5
113
330
2
100
AcDbEntity
  8
GAIKEI
  6
S10
 62
     1
100
AcDbCircle
 10
-28.12940972823808
 20
5.243219753574265
 30
0.0
 40
0.2
100
AcDbArc
 50
180.0
 51
184.3987053549187
  0
ARC
  5
114
330
2
100
AcDbEntity
  8
GAIKEI
  6
S10
 62
     1
100
AcDbCircle
 10
-28.12940972823808
 20
7.042416538601557
 30
0.0
 40
0.2
100
AcDbArc
 50
81.25383773742294
 51
180.0
  0
ARC
  5
115
330
2
100
AcDbEntity
  8
GAIKEI
  6
S10
 62
     1
100
AcDbCircle
 10
-24.47940972823719
 20
4.407060318781361
 30
0.0
 40
0.6000000000002001
100
AcDbArc
 50
109.8538850264115
 51
179.9999999999479
  0
ARC
  5
116
330
2
100
AcDbEntity
  8
GAIKEI
  6
S10
 62
     1
100
AcDbCircle
 10
-24.47940972823719
 20
4.407060318781361
 30
0.0
 40
1.4
100
AcDbArc
 50
109.8538850264357
 51
179.9999999999739
  0
DIMENSION
  5
117
330
2
100
AcDbEntity
  8
SUNPO
100
AcDbDimension
  2
*D6
 10
39.44296044542486
 20
20.87859581895695
 30
0.0
 11
25.49296273424327
 21
22.62859581895695
 31
0.0
 70
    33
  1
139.5
 71
     5
 42
27.89999542236319
  3
STANDARD
100
AcDbAlignedDimension
 13
11.54296502306167
 23
12.87859581895695
 33
0.0
 14
39.44296044542486
 24
12.87859581895695
 34
0.0
1001
ACAD
1000
DSTYLE
1002
{
1070
    40
1040
1.0
1070
   140
1040
2.5
1070
   147
1040
0.5
1070
   172
1070
     1
1070
   279
1070
     0
1070
   288
1070
     0
1002
}
  0
DIMENSION
  5
126
330
2
100
AcDbEntity
  8
SUNPO
100
AcDbDimension
  2
*D5
 10
-4.749240172300943
 20
14.79553879149327
 30
0.0
 11
-6.499240172300946
 21
8.295538791723284
 31
0.0
 70
    33
  1
65
 71
     5
 42
12.99999999953996
  3
STANDARD
100
AcDbAlignedDimension
 13
-12.74924017230094
 23
1.795538791953305
 33
0.0
 14
-12.74924017230094
 24
14.79553879149327
 34
0.0
1001
ACAD
1000
DSTYLE
1002
{
1070
    40
1040
1.0
1070
   140
1040
2.5
1070
   147
1040
0.5
1070
   172
1070
     1
1070
   279
1070
     0
1070
   288
1070
     0
1002
}
  0
DIMENSION
  5
133
330
2
100
AcDbEntity
  8
SUNPO
100
AcDbDimension
  2
*D4
 10
-12.72440362472187
 20
20.87859581895695
 30
0.0
 11
-19.42440362472189
 21
22.62859581895695
 31
0.0
 70
    33
  1
67
 71
     5
 42
13.40000000000003
  3
STANDARD
100
AcDbAlignedDimension
 13
-26.12440362472191
 23
12.87859581895695
 33
0.0
 14
-12.72440362472187
 24
12.87859581895695
 34
0.0
1001
ACAD
1000
DSTYLE
1002
{
1070
    40
1040
1.0
1070
   140
1040
2.5
1070
   147
1040
0.5
1070
   172
1070
     1
1070
   279
1070
     0
1070
   288
1070
     0
1002
}
  0
ENDSEC
  0
SECTION
  2
OBJECTS
  0
DICTIONARY
  5
A
330
0
100
AcDbDictionary
281
     1
  3
ACAD_COLOR
350
32
  3
ACAD_GROUP
350
2E
  3
ACAD_LAYOUT
350
E
  3
ACAD_MATERIAL
350
31
  3
ACAD_MLINESTYLE
350
2F
  3
ACAD_PLOTSETTINGS
350
30
  3
ACAD_PLOTSTYLENAME
350
9
  3
ACDBHEADERROUNDTRIPXREC
350
17C
  3
AcDbVariableDictionary
350
177
  0
DICTIONARY
  5
16
330
15
100
AcDbDictionary
280
     1
281
     1
  3
ACAD_LAYERFILTERS
360
17
  3
ACAD_LAYERSTATES
360
18
  0
DICTIONARY
  5
3
330
2
100
AcDbDictionary
280
     1
281
     1
  3
ACAD_LAYOUTSELFREF
360
4
  3
ACAD_SORTENTS
360
5
  0
DICTIONARY
  5
10
330
F
100
AcDbDictionary
280
     1
281
     1
  3
ACAD_LAYOUTSELFREF
360
11
  0
DICTIONARY
  5
32
102
{ACAD_REACTORS
330
A
102
}
330
A
100
AcDbDictionary
281
     1
  0
DICTIONARY
  5
2E
102
{ACAD_REACTORS
330
A
102
}
330
A
100
AcDbDictionary
281
     1
  0
DICTIONARY
  5
E
102
{ACAD_REACTORS
330
A
102
}
330
A
100
AcDbDictionary
281
     1
  3
Model
350
D
  3
ﾚｲｱｳﾄ1
350
14
  0
DICTIONARY
  5
31
102
{ACAD_REACTORS
330
A
102
}
330
A
100
AcDbDictionary
281
     1
  0
DICTIONARY
  5
2F
102
{ACAD_REACTORS
330
A
102
}
330
A
100
AcDbDictionary
281
     1
  3
STANDARD
350
34
  0
DICTIONARY
  5
30
102
{ACAD_REACTORS
330
A
102
}
330
A
100
AcDbDictionary
281
     1
  0
ACDBDICTIONARYWDFLT
  5
9
102
{ACAD_REACTORS
330
A
102
}
330
A
100
AcDbDictionary
281
     1
  3
Normal
350
8
100
AcDbDictionaryWithDefault
340
8
  0
DICTIONARY
  5
17C
102
{ACAD_REACTORS
330
A
102
}
330
A
100
AcDbDictionary
281
     1
  3
COLORDICT
350
17E
  3
MATERIALDICT
350
17D
  0
DICTIONARY
  5
177
102
{ACAD_REACTORS
330
A
102
}
330
A
100
AcDbDictionary
281
     1
  3
DIMASSOC
350
179
  3
HIDETEXT
350
178
  3
PROJECTNAME
350
17A
  0
DICTIONARY
  5
17
102
{ACAD_REACTORS
330
16
102
}
330
16
100
AcDbDictionary
280
     1
281
     1
  0
DICTIONARY
  5
18
102
{ACAD_REACTORS
330
16
102
}
330
16
100
AcDbDictionary
281
     1
  0
XRECORD
  5
4
102
{ACAD_REACTORS
330
3
102
}
330
3
100
AcDbXrecord
280
     1
340
2
  0
SORTENTSTABLE
  5
5
102
{ACAD_REACTORS
330
3
102
}
330
3
100
AcDbSortentsTable
330
2
  0
XRECORD
  5
11
102
{ACAD_REACTORS
330
10
102
}
330
10
100
AcDbXrecord
280
     1
340
F
  0
LAYOUT
  5
D
102
{ACAD_XDICTIONARY
360
17F
102
}
102
{ACAD_REACTORS
330
E
102
}
330
E
100
AcDbPlotSettings
  1

  2
8FPAM09-A4.pc3
  4
A4
  6

 40
4.349750041961669
 41
4.222751140594482
 42
4.3497314453125
 43
4.180419921875
 44
297.0106506347656
 45
210.0156707763672
 46
0.0
 47
6.07
 48
0.0
 49
0.0
140
0.0
141
0.0
142
1.0
143
1.367645693696456
 70
 11956
 72
     1
 73
     1
 74
     1
  7
tmsacad.ctb
 75
     0
147
0.7311835255351932
148
0.6008072166987404
149
0.0333900090327006
100
AcDbLayout
  1
Model
 70
     1
 71
     0
 10
0.0
 20
0.0
 11
12.0
 21
9.0
 12
0.0
 22
0.0
 32
0.0
 14
0.0
 24
0.0
 34
0.0
 15
0.0
 25
0.0
 35
0.0
146
0.0
 13
0.0
 23
0.0
 33
0.0
 16
1.0
 26
0.0
 36
0.0
 17
0.0
 27
1.0
 37
0.0
 76
     0
330
2
  0
LAYOUT
  5
14
102
{ACAD_XDICTIONARY
360
181
102
}
102
{ACAD_REACTORS
330
E
102
}
330
E
100
AcDbPlotSettings
  1

  2
C:\Program Files\ACAD2000\plotters\DWF ePlot.pc3
  4

  6

 40
0.0
 41
0.0
 42
0.0
 43
0.0
 44
0.0
 45
0.0
 46
0.0
 47
0.0
 48
0.0
 49
0.0
140
0.0
141
0.0
142
1.0
143
1.0
 70
   688
 72
     0
 73
     0
 74
     5
  7
tmsacad.ctb
 75
    16
147
1.0
148
0.0
149
0.0
100
AcDbLayout
  1
ﾚｲｱｳﾄ1
 70
     1
 71
     1
 10
0.0
 20
0.0
 11
12.0
 21
9.0
 12
0.0
 22
0.0
 32
0.0
 14
1.000000000000000E+20
 24
1.000000000000000E+20
 34
1.000000000000000E+20
 15
-1.000000000000000E+20
 25
-1.000000000000000E+20
 35
-1.000000000000000E+20
146
0.0
 13
0.0
 23
0.0
 33
0.0
 16
1.0
 26
0.0
 36
0.0
 17
0.0
 27
1.0
 37
0.0
 76
     0
330
F
  0
MLINESTYLE
  5
34
102
{ACAD_REACTORS
330
2F
102
}
330
2F
100
AcDbMlineStyle
  2
STANDARD
 70
     0
  3

 62
   256
 51
90.0
 52
90.0
 71
     2
 49
0.5
 62
   256
  6
BYLAYER
 49
-0.5
 62
   256
  6
BYLAYER
  0
ACDBPLACEHOLDER
  5
8
102
{ACAD_REACTORS
330
9
102
}
330
9
  0
XRECORD
  5
17E
102
{ACAD_REACTORS
330
17C
102
}
330
17C
100
AcDbXrecord
280
     1
340
32
  0
XRECORD
  5
17D
102
{ACAD_REACTORS
330
17C
102
}
330
17C
100
AcDbXrecord
280
     1
340
31
  0
DICTIONARYVAR
  5
179
102
{ACAD_REACTORS
330
177
102
}
330
177
100
DictionaryVariables
280
     0
  1
1
  0
DICTIONARYVAR
  5
178
102
{ACAD_REACTORS
330
177
102
}
330
177
100
DictionaryVariables
280
     0
  1
1
  0
DICTIONARYVAR
  5
17A
102
{ACAD_REACTORS
330
177
102
}
330
177
100
DictionaryVariables
280
     0
  1

  0
DICTIONARY
  5
17F
330
D
100
AcDbDictionary
280
     1
281
     1
  3
ACAD_XREC_ROUNDTRIP
360
180
  0
DICTIONARY
  5
181
330
14
100
AcDbDictionary
280
     1
281
     1
  3
ACAD_XREC_ROUNDTRIP
360
182
  0
XRECORD
  5
180
102
{ACAD_REACTORS
330
17F
102
}
330
17F
100
AcDbXrecord
280
     1
102
SHADEPLOT
 70
     0
102
SHADEPLOTRESLEVEL
 70
     2
102
SHADEPLOTCUSTOMDPI
 70
   300
  0
XRECORD
  5
182
102
{ACAD_REACTORS
330
181
102
}
330
181
100
AcDbXrecord
280
     1
102
SHADEPLOT
 70
     0
102
SHADEPLOTRESLEVEL
 70
     2
102
SHADEPLOTCUSTOMDPI
 70
   300
  0
ENDSEC
  0
EOF
