  0
SECTION
  2
HEADER
  9
$ACADVER
  1
AC1015
  9
$ACADMAINTVER
 70
    13
  9
$DWGCODEPAGE
  3
ANSI_932
  9
$INSBASE
 10
129.0
 20
120.4992141396419
 30
0.0
  9
$EXTMIN
 10
-61.75009214101874
 20
-53.20413355382516
 30
-0.0015258207003583
  9
$EXTMAX
 10
63.33041682894554
 20
59.68598758703229
 30
0.0000000349246037
  9
$LIMMIN
 10
-1101.784450318844
 20
-1579.160531687243
  9
$LIMMAX
 10
-508.2420711400536
 20
-1161.440814074914
  9
$ORTHOMODE
 70
     1
  9
$REGENMODE
 70
     1
  9
$FILLMODE
 70
     1
  9
$QTEXTMODE
 70
     0
  9
$MIRRTEXT
 70
     1
  9
$LTSCALE
 40
1.0
  9
$ATTMODE
 70
     1
  9
$TEXTSIZE
 40
3.0
  9
$TRACEWID
 40
0.5
  9
$TEXTSTYLE
  7
STANDARD
  9
$CLAYER
  8
GAIKEI
  9
$CELTYPE
  6
BYLAYER
  9
$CECOLOR
 62
   256
  9
$CELTSCALE
 40
1.0
  9
$DISPSILH
 70
     0
  9
$DIMSCALE
 40
1.0
  9
$DIMASZ
 40
2.0
  9
$DIMEXO
 40
2.0
  9
$DIMDLI
 40
8.0
  9
$DIMRND
 40
0.0
  9
$DIMDLE
 40
0.0
  9
$DIMEXE
 40
2.0
  9
$DIMTP
 40
0.0
  9
$DIMTM
 40
0.0
  9
$DIMTXT
 40
2.5
  9
$DIMCEN
 40
0.0
  9
$DIMTSZ
 40
0.0
  9
$DIMTOL
 70
     0
  9
$DIMLIM
 70
     0
  9
$DIMTIH
 70
     0
  9
$DIMTOH
 70
     0
  9
$DIMSE1
 70
     0
  9
$DIMSE2
 70
     0
  9
$DIMTAD
 70
     3
  9
$DIMZIN
 70
     0
  9
$DIMBLK
  1

  9
$DIMASO
 70
     1
  9
$DIMSHO
 70
     1
  9
$DIMPOST
  1

  9
$DIMAPOST
  1

  9
$DIMALT
 70
     0
  9
$DIMALTD
 70
     2
  9
$DIMALTF
 40
25.4
  9
$DIMLFAC
 40
1.0
  9
$DIMTOFL
 70
     1
  9
$DIMTVP
 40
0.0
  9
$DIMTIX
 70
     0
  9
$DIMSOXD
 70
     0
  9
$DIMSAH
 70
     1
  9
$DIMBLK1
  1
OPEN30
  9
$DIMBLK2
  1
OPEN30
  9
$DIMSTYLE
  2
STANDARD
  9
$DIMCLRD
 70
     0
  9
$DIMCLRE
 70
     0
  9
$DIMCLRT
 70
     0
  9
$DIMTFAC
 40
1.0
  9
$DIMGAP
 40
0.5
  9
$DIMJUST
 70
     0
  9
$DIMSD1
 70
     0
  9
$DIMSD2
 70
     0
  9
$DIMTOLJ
 70
     1
  9
$DIMTZIN
 70
     0
  9
$DIMALTZ
 70
     0
  9
$DIMALTTZ
 70
     0
  9
$DIMUPT
 70
     0
  9
$DIMDEC
 70
     4
  9
$DIMTDEC
 70
     4
  9
$DIMALTU
 70
     2
  9
$DIMALTTD
 70
     2
  9
$DIMTXSTY
  7
STANDARD
  9
$DIMAUNIT
 70
     0
  9
$DIMADEC
 70
     0
  9
$DIMALTRND
 40
0.0
  9
$DIMAZIN
 70
     0
  9
$DIMDSEP
 70
    46
  9
$DIMATFIT
 70
     3
  9
$DIMFRAC
 70
     0
  9
$DIMLDRBLK
  1
OPEN30
  9
$DIMLUNIT
 70
     2
  9
$DIMLWD
 70
    -2
  9
$DIMLWE
 70
    -2
  9
$DIMTMOVE
 70
     0
  9
$LUNITS
 70
     2
  9
$LUPREC
 70
     4
  9
$SKETCHINC
 40
0.1
  9
$FILLETRAD
 40
0.02
  9
$AUNITS
 70
     0
  9
$AUPREC
 70
     0
  9
$MENU
  1
ACAD
  9
$ELEVATION
 40
0.0
  9
$PELEVATION
 40
0.0
  9
$THICKNESS
 40
0.0
  9
$LIMCHECK
 70
     0
  9
$CHAMFERA
 40
0.0
  9
$CHAMFERB
 40
0.0
  9
$CHAMFERC
 40
0.0
  9
$CHAMFERD
 40
0.0
  9
$SKPOLY
 70
     0
  9
$TDCREATE
 40
2451815.565532581
  9
$TDUCREATE
 40
2451815.190532581
  9
$TDUPDATE
 40
2453951.343631366
  9
$TDUUPDATE
 40
2453950.968631366
  9
$TDINDWG
 40
0.9274236343
  9
$TDUSRTIMER
 40
0.9274236343
  9
$USRTIMER
 70
     1
  9
$ANGBASE
 50
0.0
  9
$ANGDIR
 70
     0
  9
$PDMODE
 70
     0
  9
$PDSIZE
 40
0.0
  9
$PLINEWID
 40
0.0
  9
$SPLFRAME
 70
     0
  9
$SPLINETYPE
 70
     6
  9
$SPLINESEGS
 70
     8
  9
$HANDSEED
  5
1F6
  9
$SURFTAB1
 70
     6
  9
$SURFTAB2
 70
     6
  9
$SURFTYPE
 70
     6
  9
$SURFU
 70
     6
  9
$SURFV
 70
     6
  9
$UCSBASE
  2

  9
$UCSNAME
  2

  9
$UCSORG
 10
0.0
 20
0.0
 30
0.0
  9
$UCSXDIR
 10
1.0
 20
0.0
 30
0.0
  9
$UCSYDIR
 10
0.0
 20
1.0
 30
0.0
  9
$UCSORTHOREF
  2

  9
$UCSORTHOVIEW
 70
     0
  9
$UCSORGTOP
 10
0.0
 20
0.0
 30
0.0
  9
$UCSORGBOTTOM
 10
0.0
 20
0.0
 30
0.0
  9
$UCSORGLEFT
 10
0.0
 20
0.0
 30
0.0
  9
$UCSORGRIGHT
 10
0.0
 20
0.0
 30
0.0
  9
$UCSORGFRONT
 10
0.0
 20
0.0
 30
0.0
  9
$UCSORGBACK
 10
0.0
 20
0.0
 30
0.0
  9
$PUCSBASE
  2

  9
$PUCSNAME
  2

  9
$PUCSORG
 10
0.0
 20
0.0
 30
0.0
  9
$PUCSXDIR
 10
1.0
 20
0.0
 30
0.0
  9
$PUCSYDIR
 10
0.0
 20
1.0
 30
0.0
  9
$PUCSORTHOREF
  2

  9
$PUCSORTHOVIEW
 70
     0
  9
$PUCSORGTOP
 10
0.0
 20
0.0
 30
0.0
  9
$PUCSORGBOTTOM
 10
0.0
 20
0.0
 30
0.0
  9
$PUCSORGLEFT
 10
0.0
 20
0.0
 30
0.0
  9
$PUCSORGRIGHT
 10
0.0
 20
0.0
 30
0.0
  9
$PUCSORGFRONT
 10
0.0
 20
0.0
 30
0.0
  9
$PUCSORGBACK
 10
0.0
 20
0.0
 30
0.0
  9
$USERI1
 70
     0
  9
$USERI2
 70
     0
  9
$USERI3
 70
     0
  9
$USERI4
 70
     0
  9
$USERI5
 70
     0
  9
$USERR1
 40
0.0
  9
$USERR2
 40
0.0
  9
$USERR3
 40
0.0
  9
$USERR4
 40
0.0
  9
$USERR5
 40
0.0
  9
$WORLDVIEW
 70
     1
  9
$SHADEDGE
 70
     3
  9
$SHADEDIF
 70
    70
  9
$TILEMODE
 70
     1
  9
$MAXACTVP
 70
    48
  9
$PINSBASE
 10
0.0
 20
0.0
 30
0.0
  9
$PLIMCHECK
 70
     0
  9
$PEXTMIN
 10
1.000000000000000E+20
 20
1.000000000000000E+20
 30
1.000000000000000E+20
  9
$PEXTMAX
 10
-1.000000000000000E+20
 20
-1.000000000000000E+20
 30
-1.000000000000000E+20
  9
$PLIMMIN
 10
0.0
 20
0.0
  9
$PLIMMAX
 10
12.0
 20
9.0
  9
$UNITMODE
 70
     0
  9
$VISRETAIN
 70
     1
  9
$PLINEGEN
 70
     0
  9
$PSLTSCALE
 70
     1
  9
$TREEDEPTH
 70
  3020
  9
$CMLSTYLE
  2
STANDARD
  9
$CMLJUST
 70
     0
  9
$CMLSCALE
 40
1.0
  9
$PROXYGRAPHICS
 70
     1
  9
$MEASUREMENT
 70
     0
  9
$CELWEIGHT
370
    -1
  9
$ENDCAPS
280
     0
  9
$JOINSTYLE
280
     0
  9
$LWDISPLAY
290
     0
  9
$INSUNITS
 70
     0
  9
$HYPERLINKBASE
  1

  9
$STYLESHEET
  1

  9
$XEDIT
290
     1
  9
$CEPSNTYPE
380
     0
  9
$PSTYLEMODE
290
     1
  9
$FINGERPRINTGUID
  2
{1754B7AB-9B3C-11D4-AD9E-00104B1004F2}
  9
$VERSIONGUID
  2
{745C1E97-6809-43BA-A600-858224153CE2}
  9
$EXTNAMES
290
     1
  9
$PSVPSCALE
 40
0.0
  9
$OLESTARTUP
290
     0
  0
ENDSEC
  0
SECTION
  2
CLASSES
  0
CLASS
  1
ACDBDICTIONARYWDFLT
  2
AcDbDictionaryWithDefault
  3
AutoCAD 2000
 90
        0
280
     0
281
     0
  0
CLASS
  1
ACDBPLACEHOLDER
  2
AcDbPlaceHolder
  3
AutoCAD 2000
 90
        0
280
     0
281
     0
  0
CLASS
  1
LAYOUT
  2
AcDbLayout
  3
AutoCAD 2000
 90
        0
280
     0
281
     0
  0
CLASS
  1
LONG_TRANSACTION
  2
AcDbLongTransaction
  3
AutoCAD 2000
 90
    32768
280
     0
281
     0
  0
CLASS
  1
LWPOLYLINE
  2
AcDbPolyline
  3
AutoCAD 2000
 90
    32768
280
     0
281
     1
  0
CLASS
  1
HATCH
  2
AcDbHatch
  3
AutoCAD 2000
 90
    32768
280
     0
281
     1
  0
CLASS
  1
XRECORD
  2
AcDbXrecord
  3
AutoCAD 2000
 90
    32768
280
     0
281
     0
  0
CLASS
  1
LONG_TRANSACTION
  2
AcDbLongTransaction
  3
AutoCAD 2000
 90
    32768
280
     0
281
     0
  0
CLASS
  1
LWPOLYLINE
  2
AcDbPolyline
  3
AutoCAD 2000
 90
    32768
280
     0
281
     1
  0
CLASS
  1
HATCH
  2
AcDbHatch
  3
AutoCAD 2000
 90
    32768
280
     0
281
     1
  0
CLASS
  1
XRECORD
  2
AcDbXrecord
  3
AutoCAD 2000
 90
    32768
280
     0
281
     0
  0
CLASS
  1
LONG_TRANSACTION
  2
AcDbLongTransaction
  3
AutoCAD 2000
 90
    32768
280
     0
281
     0
  0
CLASS
  1
LWPOLYLINE
  2
AcDbPolyline
  3
AutoCAD 2000
 90
    32768
280
     0
281
     1
  0
CLASS
  1
HATCH
  2
AcDbHatch
  3
AutoCAD 2000
 90
    32768
280
     0
281
     1
  0
CLASS
  1
XRECORD
  2
AcDbXrecord
  3
AutoCAD 2000
 90
    32768
280
     0
281
     0
  0
CLASS
  1
LONG_TRANSACTION
  2
AcDbLongTransaction
  3
AutoCAD 2000
 90
    32768
280
     0
281
     0
  0
CLASS
  1
LWPOLYLINE
  2
AcDbPolyline
  3
AutoCAD 2000
 90
    32768
280
     0
281
     1
  0
CLASS
  1
HATCH
  2
AcDbHatch
  3
AutoCAD 2000
 90
    32768
280
     0
281
     1
  0
CLASS
  1
XRECORD
  2
AcDbXrecord
  3
AutoCAD 2000
 90
    32768
280
     0
281
     0
  0
CLASS
  1
LONG_TRANSACTION
  2
AcDbLongTransaction
  3
AutoCAD 2000
 90
    32768
280
     0
281
     0
  0
CLASS
  1
LWPOLYLINE
  2
AcDbPolyline
  3
AutoCAD 2000
 90
    32768
280
     0
281
     1
  0
CLASS
  1
HATCH
  2
AcDbHatch
  3
AutoCAD 2000
 90
    32768
280
     0
281
     1
  0
CLASS
  1
XRECORD
  2
AcDbXrecord
  3
AutoCAD 2000
 90
    32768
280
     0
281
     0
  0
CLASS
  1
LONG_TRANSACTION
  2
AcDbLongTransaction
  3
AutoCAD 2000
 90
    32768
280
     0
281
     0
  0
CLASS
  1
LWPOLYLINE
  2
AcDbPolyline
  3
AutoCAD 2000
 90
    32768
280
     0
281
     1
  0
CLASS
  1
HATCH
  2
AcDbHatch
  3
AutoCAD 2000
 90
    32768
280
     0
281
     1
  0
CLASS
  1
XRECORD
  2
AcDbXrecord
  3
AutoCAD 2000
 90
    32768
280
     0
281
     0
  0
CLASS
  1
LONG_TRANSACTION
  2
AcDbLongTransaction
  3
AutoCAD 2000
 90
    32768
280
     0
281
     0
  0
CLASS
  1
LWPOLYLINE
  2
AcDbPolyline
  3
AutoCAD 2000
 90
    32768
280
     0
281
     1
  0
CLASS
  1
HATCH
  2
AcDbHatch
  3
AutoCAD 2000
 90
    32768
280
     0
281
     1
  0
CLASS
  1
XRECORD
  2
AcDbXrecord
  3
AutoCAD 2000
 90
    32768
280
     0
281
     0
  0
CLASS
  1
LONG_TRANSACTION
  2
AcDbLongTransaction
  3
AutoCAD 2000
 90
    32768
280
     0
281
     0
  0
CLASS
  1
LWPOLYLINE
  2
AcDbPolyline
  3
AutoCAD 2000
 90
    32768
280
     0
281
     1
  0
CLASS
  1
HATCH
  2
AcDbHatch
  3
AutoCAD 2000
 90
    32768
280
     0
281
     1
  0
CLASS
  1
XRECORD
  2
AcDbXrecord
  3
AutoCAD 2000
 90
    32768
280
     0
281
     0
  0
CLASS
  1
DICTIONARYVAR
  2
AcDbDictionaryVar
  3
AutoCAD 2000
 90
        0
280
     0
281
     0
  0
CLASS
  1
LONG_TRANSACTION
  2
AcDbLongTransaction
  3
AutoCAD 2000
 90
    32768
280
     0
281
     0
  0
CLASS
  1
LWPOLYLINE
  2
AcDbPolyline
  3
AutoCAD 2000
 90
    32768
280
     0
281
     1
  0
CLASS
  1
HATCH
  2
AcDbHatch
  3
AutoCAD 2000
 90
    32768
280
     0
281
     1
  0
CLASS
  1
XRECORD
  2
AcDbXrecord
  3
AutoCAD 2000
 90
    32768
280
     0
281
     0
  0
CLASS
  1
LONG_TRANSACTION
  2
AcDbLongTransaction
  3
AutoCAD 2000
 90
    32768
280
     0
281
     0
  0
CLASS
  1
LWPOLYLINE
  2
AcDbPolyline
  3
AutoCAD 2000
 90
    32768
280
     0
281
     1
  0
CLASS
  1
HATCH
  2
AcDbHatch
  3
AutoCAD 2000
 90
    32768
280
     0
281
     1
  0
CLASS
  1
XRECORD
  2
AcDbXrecord
  3
AutoCAD 2000
 90
    32768
280
     0
281
     0
  0
CLASS
  1
LONG_TRANSACTION
  2
AcDbLongTransaction
  3
AutoCAD 2000
 90
    32768
280
     0
281
     0
  0
CLASS
  1
LWPOLYLINE
  2
AcDbPolyline
  3
AutoCAD 2000
 90
    32768
280
     0
281
     1
  0
CLASS
  1
HATCH
  2
AcDbHatch
  3
AutoCAD 2000
 90
    32768
280
     0
281
     1
  0
CLASS
  1
XRECORD
  2
AcDbXrecord
  3
AutoCAD 2000
 90
    32768
280
     0
281
     0
  0
CLASS
  1
LONG_TRANSACTION
  2
AcDbLongTransaction
  3
AutoCAD 2000
 90
    32768
280
     0
281
     0
  0
CLASS
  1
LWPOLYLINE
  2
AcDbPolyline
  3
AutoCAD 2000
 90
    32768
280
     0
281
     1
  0
CLASS
  1
HATCH
  2
AcDbHatch
  3
AutoCAD 2000
 90
    32768
280
     0
281
     1
  0
CLASS
  1
XRECORD
  2
AcDbXrecord
  3
AutoCAD 2000
 90
    32768
280
     0
281
     0
  0
ENDSEC
  0
SECTION
  2
TABLES
  0
TABLE
  2
VPORT
  5
24
330
0
100
AcDbSymbolTable
 70
     3
  0
VPORT
  5
1F5
330
24
100
AcDbSymbolTableRecord
100
AcDbViewportTableRecord
  2
*Active
 70
     0
 10
0.0
 20
0.0
 11
1.0
 21
1.0
 12
0.7901623439634023
 22
3.240927016603563
 13
0.0
 23
0.0
 14
1.0
 24
1.0
 15
0.0
 25
0.0
 16
0.0
 26
0.0
 36
1.0
 17
0.0
 27
0.0
 37
0.0
 40
113.7518777907876
 41
1.345222929936305
 42
50.0
 43
0.0
 44
0.0
 50
0.0
 51
0.0
 71
     0
 72
  1000
 73
     1
 74
     0
 75
     0
 76
     1
 77
     0
 78
     0
281
     0
 65
     1
110
0.0
120
0.0
130
0.0
111
1.0
121
0.0
131
0.0
112
0.0
122
1.0
132
0.0
 79
     0
146
0.0
  0
ENDTAB
  0
TABLE
  2
LTYPE
  5
1F
330
0
100
AcDbSymbolTable
 70
     3
  0
LTYPE
  5
20
330
1F
100
AcDbSymbolTableRecord
100
AcDbLinetypeTableRecord
  2
BYBLOCK
 70
     0
  3

 72
    65
 73
     0
 40
0.0
  0
LTYPE
  5
21
330
1F
100
AcDbSymbolTableRecord
100
AcDbLinetypeTableRecord
  2
BYLAYER
 70
     0
  3

 72
    65
 73
     0
 40
0.0
  0
LTYPE
  5
A
330
1F
100
AcDbSymbolTableRecord
100
AcDbLinetypeTableRecord
  2
CONTINUOUS
 70
     0
  3
Solid line
 72
    65
 73
     0
 40
0.0
  0
LTYPE
  5
64
330
1F
100
AcDbSymbolTableRecord
100
AcDbLinetypeTableRecord
  2
HIDDEN2
 70
     0
  3
Hidden (.5x) _ _ _ _ _ _ _ _ _ _ _ _ _ _ _ _ _
 72
    65
 73
     2
 40
1.399999999999999
 49
0.7
 74
     0
 49
-0.7
 74
     0
  0
LTYPE
  5
87
330
1F
100
AcDbSymbolTableRecord
100
AcDbLinetypeTableRecord
  2
PHANTOM
 70
     0
  3
_____ _ _ _____ _ _ _____ _ _ _____
 72
    65
 73
     6
 40
0.8
 49
0.45
 74
     0
 49
-0.05
 74
     0
 49
0.1
 74
     0
 49
-0.05
 74
     0
 49
0.1
 74
     0
 49
-0.05
 74
     0
  0
ENDTAB
  0
TABLE
  2
LAYER
  5
18
102
{ACAD_XDICTIONARY
360
19
102
}
330
0
100
AcDbSymbolTable
 70
     7
  0
LAYER
  5
6
330
18
100
AcDbSymbolTableRecord
100
AcDbLayerTableRecord
  2
0
 70
     0
 62
     7
  6
CONTINUOUS
370
    -3
390
7
  0
LAYER
  5
44
330
18
100
AcDbSymbolTableRecord
100
AcDbLayerTableRecord
  2
DEFPOINTS
 70
     0
 62
     7
  6
CONTINUOUS
290
     0
370
    -3
390
7
  0
LAYER
  5
15F
330
18
100
AcDbSymbolTableRecord
100
AcDbLayerTableRecord
  2
WAKU
 70
     0
 62
     4
  6
CONTINUOUS
370
    -3
390
7
  0
LAYER
  5
37
330
18
100
AcDbSymbolTableRecord
100
AcDbLayerTableRecord
  2
MOJI1
 70
     0
 62
     2
  6
CONTINUOUS
370
    -3
390
7
  0
LAYER
  5
34
330
18
100
AcDbSymbolTableRecord
100
AcDbLayerTableRecord
  2
GAIKEI
 70
     0
 62
     7
  6
CONTINUOUS
370
    -3
390
7
  0
LAYER
  5
39
330
18
100
AcDbSymbolTableRecord
100
AcDbLayerTableRecord
  2
TOUROKU
 70
     0
 62
     1
  6
CONTINUOUS
370
    -3
390
7
  0
LAYER
  5
3B
330
18
100
AcDbSymbolTableRecord
100
AcDbLayerTableRecord
  2
SUNPO
 70
     0
 62
     3
  6
CONTINUOUS
370
    -3
390
7
  0
ENDTAB
  0
TABLE
  2
STYLE
  5
1C
330
0
100
AcDbSymbolTable
 70
     2
  0
STYLE
  5
1D
330
1C
100
AcDbSymbolTableRecord
100
AcDbTextStyleTableRecord
  2
STANDARD
 70
     0
 40
0.0
 41
1.0
 50
0.0
 71
     0
 42
3.0
  3
MONOTXT.shx
  4
BIGFONT.shx
  0
STYLE
  5
161
330
1C
100
AcDbSymbolTableRecord
100
AcDbTextStyleTableRecord
  2
KANJI
 70
     0
 40
0.0
 41
1.0
 50
0.0
 71
     0
 42
3.5
  3
MONOTXT
  4
BIGFONT
  0
ENDTAB
  0
TABLE
  2
VIEW
  5
22
330
0
100
AcDbSymbolTable
 70
     0
  0
ENDTAB
  0
TABLE
  2
UCS
  5
23
330
0
100
AcDbSymbolTable
 70
     0
  0
ENDTAB
  0
TABLE
  2
APPID
  5
26
330
0
100
AcDbSymbolTable
 70
     1
  0
APPID
  5
27
330
26
100
AcDbSymbolTableRecord
100
AcDbRegAppTableRecord
  2
ACAD
 70
     0
  0
ENDTAB
  0
TABLE
  2
DIMSTYLE
  5
28
330
0
100
AcDbSymbolTable
 70
     1
100
AcDbDimStyleTable
 71
     1
340
29
  0
DIMSTYLE
105
29
102
{ACAD_REACTORS
330
54
330
DB
330
3A
102
}
330
28
100
AcDbSymbolTableRecord
100
AcDbDimStyleTableRecord
  2
STANDARD
 70
     0
 40
0.0
 41
2.0
 42
2.0
 43
8.0
 44
2.0
 73
     0
 74
     0
 77
     3
140
3.0
141
0.0
173
     1
279
     2
288
     1
340
1D
341
2A
343
2A
344
2A
  0
ENDTAB
  0
TABLE
  2
BLOCK_RECORD
  5
1
330
0
100
AcDbSymbolTable
 70
     7
  0
BLOCK_RECORD
  5
2
102
{ACAD_XDICTIONARY
360
3
102
}
330
1
100
AcDbSymbolTableRecord
100
AcDbBlockTableRecord
  2
*MODEL_SPACE
340
C
  0
BLOCK_RECORD
  5
10
102
{ACAD_XDICTIONARY
360
11
102
}
330
1
100
AcDbSymbolTableRecord
100
AcDbBlockTableRecord
  2
*PAPER_SPACE
340
15
  0
BLOCK_RECORD
  5
2A
330
1
100
AcDbSymbolTableRecord
100
AcDbBlockTableRecord
  2
_OPEN30
340
0
102
{BLKREFS
331
59
331
5A
331
E0
331
E1
331
40
331
41
331
1D5
331
1D6
331
1E1
331
1E2
331
1ED
331
1EE
102
}
  0
BLOCK_RECORD
  5
55
330
1
100
AcDbSymbolTableRecord
100
AcDbBlockTableRecord
  2
*D1
340
0
  0
BLOCK_RECORD
  5
DC
330
1
100
AcDbSymbolTableRecord
100
AcDbBlockTableRecord
  2
*D2
340
0
  0
BLOCK_RECORD
  5
3C
330
1
100
AcDbSymbolTableRecord
100
AcDbBlockTableRecord
  2
*D3
340
0
  0
BLOCK_RECORD
  5
1D1
330
1
100
AcDbSymbolTableRecord
100
AcDbBlockTableRecord
  2
*D4
340
0
  0
BLOCK_RECORD
  5
1DD
330
1
100
AcDbSymbolTableRecord
100
AcDbBlockTableRecord
  2
*D5
340
0
  0
BLOCK_RECORD
  5
1E9
330
1
100
AcDbSymbolTableRecord
100
AcDbBlockTableRecord
  2
*D6
340
0
  0
ENDTAB
  0
ENDSEC
  0
SECTION
  2
BLOCKS
  0
BLOCK
  5
5
330
2
100
AcDbEntity
  8
0
100
AcDbBlockBegin
  2
*MODEL_SPACE
 70
     0
 10
0.0
 20
0.0
 30
0.0
  3
*MODEL_SPACE
  1

  0
ENDBLK
  5
B
330
2
100
AcDbEntity
  8
0
100
AcDbBlockEnd
  0
BLOCK
  5
13
330
10
100
AcDbEntity
 67
     1
  8
0
100
AcDbBlockBegin
  2
*PAPER_SPACE
 70
     0
 10
0.0
 20
0.0
 30
0.0
  3
*PAPER_SPACE
  1

  0
ENDBLK
  5
14
330
10
100
AcDbEntity
 67
     1
  8
0
100
AcDbBlockEnd
  0
BLOCK
  5
2E
330
2A
100
AcDbEntity
  8
0
100
AcDbBlockBegin
  2
_OPEN30
 70
     0
 10
0.0
 20
0.0
 30
0.0
  3
_OPEN30
  1

  0
LINE
  5
2B
330
2A
100
AcDbEntity
  8
0
  6
ByBlock
 62
     0
100
AcDbLine
 10
-1.0
 20
0.26794919
 30
0.0
 11
0.0
 21
0.0
 31
0.0
  0
LINE
  5
2C
330
2A
100
AcDbEntity
  8
0
  6
ByBlock
 62
     0
100
AcDbLine
 10
0.0
 20
0.0
 30
0.0
 11
-1.0
 21
-0.26794919
 31
0.0
  0
LINE
  5
2D
330
2A
100
AcDbEntity
  8
0
  6
ByBlock
 62
     0
100
AcDbLine
 10
0.0
 20
0.0
 30
0.0
 11
-1.0
 21
0.0
 31
0.0
  0
ENDBLK
  5
2F
330
2A
100
AcDbEntity
  8
0
100
AcDbBlockEnd
  0
BLOCK
  5
5F
330
55
100
AcDbEntity
  8
0
100
AcDbBlockBegin
  2
*D1
 70
     1
 10
0.0
 20
0.0
 30
0.0
  3
*D1
  1

  0
LINE
  5
56
330
55
100
AcDbEntity
  8
SUNPO
 62
     0
370
    -2
100
AcDbLine
 10
165.2198205333942
 20
81.02854812293452
 30
0.0
 11
165.2198205333942
 21
89.02854812293453
 31
0.0
  0
LINE
  5
57
330
55
100
AcDbEntity
  8
SUNPO
 62
     0
370
    -2
100
AcDbLine
 10
178.6198205333942
 20
81.02854812293452
 30
0.0
 11
178.6198205333942
 21
89.02854812293453
 31
0.0
  0
LINE
  5
58
330
55
100
AcDbEntity
  8
SUNPO
 62
     0
370
    -2
100
AcDbLine
 10
167.2198205333942
 20
87.02854812293452
 30
0.0
 11
176.6198205333942
 21
87.02854812293452
 31
0.0
  0
INSERT
  5
59
330
55
100
AcDbEntity
  8
SUNPO
 62
     0
370
    -2
100
AcDbBlockReference
  2
_OPEN30
 10
165.2198205333942
 20
87.02854812293452
 30
0.0
 41
2.0
 42
2.0
 43
2.0
 50
180.0
  0
INSERT
  5
5A
330
55
100
AcDbEntity
  8
SUNPO
 62
     0
370
    -2
100
AcDbBlockReference
  2
_OPEN30
 10
178.6198205333942
 20
87.02854812293452
 30
0.0
 41
2.0
 42
2.0
 43
2.0
  0
MTEXT
  5
5B
330
55
100
AcDbEntity
  8
SUNPO
 62
     0
100
AcDbMText
 10
171.9198205333942
 20
88.77854812293453
 30
0.0
 40
2.5
 41
0.0
 71
     5
 72
     1
  1
\A1;67
 73
     1
 44
1.0
  0
POINT
  5
5C
330
55
100
AcDbEntity
  8
DEFPOINTS
 62
     0
100
AcDbPoint
 10
165.2198205333942
 20
79.02854812293452
 30
0.0
  0
POINT
  5
5D
330
55
100
AcDbEntity
  8
DEFPOINTS
 62
     0
100
AcDbPoint
 10
178.6198205333942
 20
79.02854812293452
 30
0.0
  0
POINT
  5
5E
330
55
100
AcDbEntity
  8
DEFPOINTS
 62
     0
100
AcDbPoint
 10
178.6198205333942
 20
87.02854812293452
 30
0.0
  0
ENDBLK
  5
60
330
55
100
AcDbEntity
  8
0
100
AcDbBlockEnd
  0
BLOCK
  5
E6
330
DC
100
AcDbEntity
  8
0
100
AcDbBlockBegin
  2
*D2
 70
     1
 10
0.0
 20
0.0
 30
0.0
  3
*D2
  1

  0
LINE
  5
DD
330
DC
100
AcDbEntity
  8
SUNPO
 62
     0
370
    -2
100
AcDbLine
 10
180.6315722607685
 20
68.03769682250345
 30
0.0
 11
188.6315722607685
 21
68.03769682250345
 31
0.0
  0
LINE
  5
DE
330
DC
100
AcDbEntity
  8
SUNPO
 62
     0
370
    -2
100
AcDbLine
 10
180.6315722607685
 20
81.03769834838265
 30
0.0
 11
188.6315722607685
 21
81.03769834838265
 31
0.0
  0
LINE
  5
DF
330
DC
100
AcDbEntity
  8
SUNPO
 62
     0
370
    -2
100
AcDbLine
 10
186.6315722607685
 20
70.03769682250345
 30
0.0
 11
186.6315722607685
 21
79.03769834838266
 31
0.0
  0
INSERT
  5
E0
330
DC
100
AcDbEntity
  8
SUNPO
 62
     0
370
    -2
100
AcDbBlockReference
  2
_OPEN30
 10
186.6315722607685
 20
68.03769682250345
 30
0.0
 41
2.0
 42
2.0
 43
2.0
 50
270.0
  0
INSERT
  5
E1
330
DC
100
AcDbEntity
  8
SUNPO
 62
     0
370
    -2
100
AcDbBlockReference
  2
_OPEN30
 10
186.6315722607685
 20
81.03769834838265
 30
0.0
 41
2.0
 42
2.0
 43
2.0
 50
90.0
  0
MTEXT
  5
E2
330
DC
100
AcDbEntity
  8
SUNPO
 62
     0
100
AcDbMText
 10
184.8815722607685
 20
74.53769758544308
 30
0.0
 40
2.5
 41
0.0
 71
     5
 72
     1
  1
\A1;65
 11
0.0000000000000001
 21
1.0
 31
0.0
 73
     1
 44
1.0
  0
POINT
  5
E3
330
DC
100
AcDbEntity
  8
DEFPOINTS
 62
     0
100
AcDbPoint
 10
178.6315722607685
 20
68.03769682250345
 30
0.0
  0
POINT
  5
E4
330
DC
100
AcDbEntity
  8
DEFPOINTS
 62
     0
100
AcDbPoint
 10
178.6315722607685
 20
81.03769834838265
 30
0.0
  0
POINT
  5
E5
330
DC
100
AcDbEntity
  8
DEFPOINTS
 62
     0
100
AcDbPoint
 10
186.6315722607685
 20
81.03769834838265
 30
0.0
  0
ENDBLK
  5
E7
330
DC
100
AcDbEntity
  8
0
100
AcDbBlockEnd
  0
BLOCK
  5
47
330
3C
100
AcDbEntity
  8
0
100
AcDbBlockBegin
  2
*D3
 70
     1
 10
0.0
 20
0.0
 30
0.0
  3
*D3
  1

  0
LINE
  5
3D
330
3C
100
AcDbEntity
  8
SUNPO
 62
     0
370
    -2
100
AcDbLine
 10
204.241471717235
 20
81.02854812293452
 30
0.0
 11
204.241471717235
 21
89.02854812293453
 31
0.0
  0
LINE
  5
3E
330
3C
100
AcDbEntity
  8
SUNPO
 62
     0
370
    -2
100
AcDbLine
 10
228.8414762948716
 20
81.02854812293452
 30
0.0
 11
228.8414762948716
 21
89.02854812293453
 31
0.0
  0
LINE
  5
3F
330
3C
100
AcDbEntity
  8
SUNPO
 62
     0
370
    -2
100
AcDbLine
 10
206.241471717235
 20
87.02854812293452
 30
0.0
 11
226.8414762948716
 21
87.02854812293452
 31
0.0
  0
INSERT
  5
40
330
3C
100
AcDbEntity
  8
SUNPO
 62
     0
370
    -2
100
AcDbBlockReference
  2
_OPEN30
 10
204.241471717235
 20
87.02854812293452
 30
0.0
 41
2.0
 42
2.0
 43
2.0
 50
180.0
  0
INSERT
  5
41
330
3C
100
AcDbEntity
  8
SUNPO
 62
     0
370
    -2
100
AcDbBlockReference
  2
_OPEN30
 10
228.8414762948716
 20
87.02854812293452
 30
0.0
 41
2.0
 42
2.0
 43
2.0
  0
MTEXT
  5
42
330
3C
100
AcDbEntity
  8
SUNPO
 62
     0
100
AcDbMText
 10
216.5414740060533
 20
88.77854812293453
 30
0.0
 40
2.5
 41
0.0
 71
     5
 72
     1
  1
\A1;123
 73
     1
 44
1.0
  0
POINT
  5
43
330
3C
100
AcDbEntity
  8
DEFPOINTS
 62
     0
100
AcDbPoint
 10
204.241471717235
 20
79.02854812293452
 30
0.0
  0
POINT
  5
45
330
3C
100
AcDbEntity
  8
DEFPOINTS
 62
     0
100
AcDbPoint
 10
228.8414762948716
 20
79.02854812293452
 30
0.0
  0
POINT
  5
46
330
3C
100
AcDbEntity
  8
DEFPOINTS
 62
     0
100
AcDbPoint
 10
228.8414762948716
 20
87.02854812293452
 30
0.0
  0
ENDBLK
  5
48
330
3C
100
AcDbEntity
  8
0
100
AcDbBlockEnd
  0
BLOCK
  5
1DB
330
1D1
100
AcDbEntity
  8
0
100
AcDbBlockBegin
  2
*D4
 70
     1
 10
0.0
 20
0.0
 30
0.0
  3
*D4
  1

  0
LINE
  5
1D2
330
1D1
100
AcDbEntity
  8
SUNPO
 62
     0
370
    -2
100
AcDbLine
 10
11.55006469150521
 20
22.41989068287847
 30
0.0
 11
11.55006469150521
 21
30.41989068287847
 31
0.0
  0
LINE
  5
1D3
330
1D1
100
AcDbEntity
  8
SUNPO
 62
     0
370
    -2
100
AcDbLine
 10
36.15006926914179
 20
22.41989068287847
 30
0.0
 11
36.15006926914179
 21
30.41989068287847
 31
0.0
  0
LINE
  5
1D4
330
1D1
100
AcDbEntity
  8
SUNPO
 62
     0
370
    -2
100
AcDbLine
 10
13.55006469150521
 20
28.41989068287847
 30
0.0
 11
34.15006926914179
 21
28.41989068287847
 31
0.0
  0
INSERT
  5
1D5
330
1D1
100
AcDbEntity
  8
SUNPO
 62
     0
370
    -2
100
AcDbBlockReference
  2
_OPEN30
 10
11.55006469150521
 20
28.41989068287847
 30
0.0
 41
2.0
 42
2.0
 43
2.0
 50
180.0
  0
INSERT
  5
1D6
330
1D1
100
AcDbEntity
  8
SUNPO
 62
     0
370
    -2
100
AcDbBlockReference
  2
_OPEN30
 10
36.15006926914179
 20
28.41989068287847
 30
0.0
 41
2.0
 42
2.0
 43
2.0
  0
MTEXT
  5
1D7
330
1D1
100
AcDbEntity
  8
SUNPO
 62
     0
100
AcDbMText
 10
23.8500669803235
 20
30.16989068287847
 30
0.0
 40
2.5
 41
0.0
 71
     5
 72
     1
  1
\A1;123
 73
     1
 44
1.0
  0
POINT
  5
1D8
330
1D1
100
AcDbEntity
  8
DEFPOINTS
 62
     0
100
AcDbPoint
 10
11.55006469150521
 20
20.41989068287847
 30
0.0
  0
POINT
  5
1D9
330
1D1
100
AcDbEntity
  8
DEFPOINTS
 62
     0
100
AcDbPoint
 10
36.15006926914179
 20
20.41989068287847
 30
0.0
  0
POINT
  5
1DA
330
1D1
100
AcDbEntity
  8
DEFPOINTS
 62
     0
100
AcDbPoint
 10
36.15006926914179
 20
28.41989068287847
 30
0.0
  0
ENDBLK
  5
1DC
330
1D1
100
AcDbEntity
  8
0
100
AcDbBlockEnd
  0
BLOCK
  5
1E7
330
1DD
100
AcDbEntity
  8
0
100
AcDbBlockBegin
  2
*D5
 70
     1
 10
0.0
 20
0.0
 30
0.0
  3
*D5
  1

  0
LINE
  5
1DE
330
1DD
100
AcDbEntity
  8
SUNPO
 62
     0
370
    -2
100
AcDbLine
 10
-27.47158649233563
 20
22.41989068287847
 30
0.0
 11
-27.47158649233563
 21
30.41989068287847
 31
0.0
  0
LINE
  5
1DF
330
1DD
100
AcDbEntity
  8
SUNPO
 62
     0
370
    -2
100
AcDbLine
 10
-14.07158649233565
 20
22.41989068287847
 30
0.0
 11
-14.07158649233565
 21
30.41989068287847
 31
0.0
  0
LINE
  5
1E0
330
1DD
100
AcDbEntity
  8
SUNPO
 62
     0
370
    -2
100
AcDbLine
 10
-25.47158649233563
 20
28.41989068287847
 30
0.0
 11
-16.07158649233565
 21
28.41989068287847
 31
0.0
  0
INSERT
  5
1E1
330
1DD
100
AcDbEntity
  8
SUNPO
 62
     0
370
    -2
100
AcDbBlockReference
  2
_OPEN30
 10
-27.47158649233563
 20
28.41989068287847
 30
0.0
 41
2.0
 42
2.0
 43
2.0
 50
180.0
  0
INSERT
  5
1E2
330
1DD
100
AcDbEntity
  8
SUNPO
 62
     0
370
    -2
100
AcDbBlockReference
  2
_OPEN30
 10
-14.07158649233565
 20
28.41989068287847
 30
0.0
 41
2.0
 42
2.0
 43
2.0
  0
MTEXT
  5
1E3
330
1DD
100
AcDbEntity
  8
SUNPO
 62
     0
100
AcDbMText
 10
-20.77158649233564
 20
30.16989068287847
 30
0.0
 40
2.5
 41
0.0
 71
     5
 72
     1
  1
\A1;67
 73
     1
 44
1.0
  0
POINT
  5
1E4
330
1DD
100
AcDbEntity
  8
DEFPOINTS
 62
     0
100
AcDbPoint
 10
-27.47158649233563
 20
20.41989068287847
 30
0.0
  0
POINT
  5
1E5
330
1DD
100
AcDbEntity
  8
DEFPOINTS
 62
     0
100
AcDbPoint
 10
-14.07158649233565
 20
20.41989068287847
 30
0.0
  0
POINT
  5
1E6
330
1DD
100
AcDbEntity
  8
DEFPOINTS
 62
     0
100
AcDbPoint
 10
-14.07158649233565
 20
28.41989068287847
 30
0.0
  0
ENDBLK
  5
1E8
330
1DD
100
AcDbEntity
  8
0
100
AcDbBlockEnd
  0
BLOCK
  5
1F3
330
1E9
100
AcDbEntity
  8
0
100
AcDbBlockBegin
  2
*D6
 70
     1
 10
0.0
 20
0.0
 30
0.0
  3
*D6
  1

  0
LINE
  5
1EA
330
1E9
100
AcDbEntity
  8
SUNPO
 62
     0
370
    -2
100
AcDbLine
 10
-12.05983476496129
 20
9.429039382447399
 30
0.0
 11
-4.059834764961298
 21
9.429039382447397
 31
0.0
  0
LINE
  5
1EB
330
1E9
100
AcDbEntity
  8
SUNPO
 62
     0
370
    -2
100
AcDbLine
 10
-12.05983476496129
 20
22.42904090832661
 30
0.0
 11
-4.059834764961294
 21
22.42904090832661
 31
0.0
  0
LINE
  5
1EC
330
1E9
100
AcDbEntity
  8
SUNPO
 62
     0
370
    -2
100
AcDbLine
 10
-6.059834764961297
 20
11.42903938244739
 30
0.0
 11
-6.059834764961295
 21
20.42904090832661
 31
0.0
  0
INSERT
  5
1ED
330
1E9
100
AcDbEntity
  8
SUNPO
 62
     0
370
    -2
100
AcDbBlockReference
  2
_OPEN30
 10
-6.059834764961298
 20
9.429039382447397
 30
0.0
 41
2.0
 42
2.0
 43
2.0
 50
270.0
  0
INSERT
  5
1EE
330
1E9
100
AcDbEntity
  8
SUNPO
 62
     0
370
    -2
100
AcDbBlockReference
  2
_OPEN30
 10
-6.059834764961294
 20
22.42904090832661
 30
0.0
 41
2.0
 42
2.0
 43
2.0
 50
90.0
  0
MTEXT
  5
1EF
330
1E9
100
AcDbEntity
  8
SUNPO
 62
     0
100
AcDbMText
 10
-7.809834764961299
 20
15.929040145387
 30
0.0
 40
2.5
 41
0.0
 71
     5
 72
     1
  1
\A1;65
 11
0.0000000000000001
 21
1.0
 31
0.0
 73
     1
 44
1.0
  0
POINT
  5
1F0
330
1E9
100
AcDbEntity
  8
DEFPOINTS
 62
     0
100
AcDbPoint
 10
-14.05983476496129
 20
9.429039382447399
 30
0.0
  0
POINT
  5
1F1
330
1E9
100
AcDbEntity
  8
DEFPOINTS
 62
     0
100
AcDbPoint
 10
-14.05983476496129
 20
22.42904090832661
 30
0.0
  0
POINT
  5
1F2
330
1E9
100
AcDbEntity
  8
DEFPOINTS
 62
     0
100
AcDbPoint
 10
-6.059834764961294
 20
22.42904090832661
 30
0.0
  0
ENDBLK
  5
1F4
330
1E9
100
AcDbEntity
  8
0
100
AcDbBlockEnd
  0
ENDSEC
  0
SECTION
  2
ENTITIES
  0
TEXT
  5
36
330
2
100
AcDbEntity
  8
MOJI1
100
AcDbText
 10
-34.69140702572985
 20
55.89055669958589
 30
0.0
 40
4.0
  1
カラーＣＣＤカメラ
100
AcDbText
  0
TEXT
  5
38
330
2
100
AcDbEntity
  8
TOUROKU
100
AcDbText
 10
44.77520967386421
 20
49.89055669958577
 30
0.0
 40
2.0
  1
ＷＶＣＰ２４２Ａ
 72
     2
 11
63.30854300719756
 21
49.89055669958577
 31
0.0
100
AcDbText
  0
DIMENSION
  5
3A
330
2
100
AcDbEntity
  8
SUNPO
100
AcDbDimension
  2
*D4
 10
36.15006926914179
 20
28.41989068287847
 30
0.0
 11
23.8500669803235
 21
30.16989068287847
 31
0.0
 70
    33
  1
123
 71
     5
 42
24.60000457763658
  3
STANDARD
100
AcDbAlignedDimension
 13
11.55006469150521
 23
20.41989068287847
 33
0.0
 14
36.15006926914179
 24
20.41989068287847
 34
0.0
1001
ACAD
1000
DSTYLE
1002
{
1070
   287
1070
     3
1070
   287
1070
     3
1070
    40
1040
1.0
1070
   140
1040
2.5
1070
   147
1040
0.5
1070
   172
1070
     1
1070
   279
1070
     0
1070
   288
1070
     0
1002
}
  0
LINE
  5
49
330
2
100
AcDbEntity
  8
GAIKEI
  6
Continuous
100
AcDbLine
 10
14.45006438632913
 20
20.6290409083266
 30
0.0
 11
24.95006438632936
 21
20.6290409083266
 31
0.0
  0
LINE
  5
4A
330
2
100
AcDbEntity
  8
GAIKEI
  6
Continuous
100
AcDbLine
 10
12.65006926914156
 20
15.02903938244742
 30
0.0
 11
36.14482787509871
 21
15.02903938244742
 31
0.0
  0
LINE
  5
4B
330
2
100
AcDbEntity
  8
GAIKEI
  6
Continuous
100
AcDbLine
 10
35.48224242587969
 20
20.4290393824474
 30
0.0
 11
12.85006926914172
 21
20.4290393824474
 31
0.0
  0
LINE
  5
4C
330
2
100
AcDbEntity
  8
GAIKEI
  6
Continuous
100
AcDbLine
 10
12.65006926914156
 20
14.92903938244739
 30
0.0
 11
36.15006926914168
 21
14.92903938244739
 31
0.0
  0
LINE
  5
4D
330
2
100
AcDbEntity
  8
GAIKEI
  6
Continuous
100
AcDbLine
 10
24.95006438632936
 20
9.429039382447399
 30
0.0
 11
14.45006438632913
 21
9.429039382447399
 31
0.0
  0
LINE
  5
4E
330
2
100
AcDbEntity
  8
GAIKEI
  6
Continuous
100
AcDbLine
 10
35.48224090000087
 20
9.429039382447399
 30
0.0
 11
12.85006926914172
 21
9.429039382447399
 31
0.0
  0
ARC
  5
4F
330
2
100
AcDbEntity
  8
GAIKEI
  6
Continuous
 62
     1
100
AcDbCircle
 10
27.09686950107527
 20
37.72903938244741
 30
0.0
 40
20.0
100
AcDbArc
 50
248.8279342006682
 51
269.9999974955182
  0
ARC
  5
50
330
2
100
AcDbEntity
  8
GAIKEI
  6
Continuous
 62
     1
100
AcDbCircle
 10
27.09686950107527
 20
37.72903938244741
 30
0.0
 40
20.10000000000018
100
AcDbArc
 50
248.8279342006682
 51
269.9999974955182
  0
ARC
  5
51
330
2
100
AcDbEntity
  8
GAIKEI
  6
Continuous
 62
     1
100
AcDbCircle
 10
27.09686797519589
 20
-7.870960617552611
 30
0.0
 40
20.1
100
AcDbArc
 50
90.00000250448172
 51
111.1720657993317
  0
ARC
  5
52
330
2
100
AcDbEntity
  8
GAIKEI
  6
Continuous
 62
     1
100
AcDbCircle
 10
27.09686797519589
 20
-7.870960617552611
 30
0.0
 40
20.0
100
AcDbArc
 50
90.00000250448172
 51
111.1720657993317
  0
LINE
  5
53
330
2
100
AcDbEntity
  8
GAIKEI
  6
Continuous
100
AcDbLine
 10
18.75006438632931
 20
22.42904090832661
 30
0.0
 11
24.37405582137194
 21
22.42904090832661
 31
0.0
  0
DIMENSION
  5
54
330
2
100
AcDbEntity
  8
SUNPO
100
AcDbDimension
  2
*D5
 10
-14.07158649233565
 20
28.41989068287847
 30
0.0
 11
-20.77158649233564
 21
30.16989068287847
 31
0.0
 70
    33
  1
67
 71
     5
 42
13.39999999999997
  3
STANDARD
100
AcDbAlignedDimension
 13
-27.47158649233563
 23
20.41989068287847
 33
0.0
 14
-14.07158649233565
 24
20.41989068287847
 34
0.0
1001
ACAD
1000
DSTYLE
1002
{
1070
   287
1070
     3
1070
   287
1070
     3
1070
    40
1040
1.0
1070
   140
1040
2.5
1070
   147
1040
0.5
1070
   172
1070
     1
1070
   279
1070
     0
1070
   288
1070
     0
1002
}
  0
LINE
  5
61
330
2
100
AcDbEntity
  8
GAIKEI
  6
Continuous
100
AcDbLine
 10
-15.30879972246907
 20
20.4290393824474
 30
0.0
 11
-26.23438565996866
 21
20.4290393824474
 31
0.0
  0
LINE
  5
62
330
2
100
AcDbEntity
  8
GAIKEI
  6
Continuous
100
AcDbLine
 10
-15.3087996271015
 20
9.429040145386807
 30
0.0
 11
-26.23438556460121
 21
9.429040145386807
 31
0.0
  0
CIRCLE
  5
63
330
2
100
AcDbEntity
  8
GAIKEI
  6
HIDDEN2
 62
     1
100
AcDbCircle
 10
-20.77158649233558
 20
14.92904014538697
 30
0.0
 40
4.6
  0
CIRCLE
  5
65
330
2
100
AcDbEntity
  8
GAIKEI
  6
HIDDEN2
 62
     1
100
AcDbCircle
 10
-20.77158649233558
 20
14.92904014538697
 30
0.0
 40
5.0
  0
CIRCLE
  5
66
330
2
100
AcDbEntity
  8
GAIKEI
  6
Continuous
 62
     1
100
AcDbCircle
 10
-20.77158649233558
 20
14.92903346966659
 30
0.0
 40
5.4
  0
ARC
  5
67
330
2
100
AcDbEntity
  8
GAIKEI
  6
Continuous
 62
     1
100
AcDbCircle
 10
-20.77158649233558
 20
14.92903346966659
 30
0.0
 40
4.15
100
AcDbArc
 50
2.071386560389919
 51
42.92862344303002
  0
LINE
  5
68
330
2
100
AcDbEntity
  8
GAIKEI
  6
Continuous
 62
     1
100
AcDbLine
 10
-16.62429645327302
 20
15.07903346966662
 30
0.0
 11
-16.02395465639801
 21
15.07903346966662
 31
0.0
  0
LINE
  5
69
330
2
100
AcDbEntity
  8
GAIKEI
  6
Continuous
 62
     1
100
AcDbLine
 10
-16.62429645327302
 20
14.77903342198283
 30
0.0
 11
-16.02395465639801
 21
14.77903342198283
 31
0.0
  0
ARC
  5
6A
330
2
100
AcDbEntity
  8
GAIKEI
  6
Continuous
 62
     1
100
AcDbCircle
 10
-20.77158649233558
 20
14.92903346966659
 30
0.0
 40
4.7500000000002
100
AcDbArc
 50
1.809640051017932
 51
43.19035629202761
  0
LINE
  5
6B
330
2
100
AcDbEntity
  8
GAIKEI
  6
HIDDEN2
 62
     1
100
AcDbLine
 10
-18.82329951480562
 20
19.75026175958237
 30
0.0
 11
-14.70468183279808
 21
18.08590159583178
 31
0.0
  0
LINE
  5
6C
330
2
100
AcDbEntity
  8
GAIKEI
  6
Continuous
100
AcDbLine
 10
-15.30879972246907
 20
20.22903938244741
 30
0.0
 11
-19.73720874485207
 21
20.22903938244741
 31
0.0
  0
LINE
  5
6D
330
2
100
AcDbEntity
  8
GAIKEI
  6
HIDDEN2
 62
     1
100
AcDbLine
 10
-14.70468183279808
 20
11.77217869494177
 30
0.0
 11
-18.82329951480562
 21
10.10781853119118
 31
0.0
  0
LINE
  5
6E
330
2
100
AcDbEntity
  8
GAIKEI
  6
Continuous
100
AcDbLine
 10
-15.3087996271015
 20
9.629040145386795
 30
0.0
 11
-19.73714424523359
 21
9.629040145386795
 31
0.0
  0
ARC
  5
6F
330
2
100
AcDbEntity
  8
GAIKEI
  6
Continuous
 62
     1
100
AcDbCircle
 10
-20.77158649233558
 20
14.92903346966659
 30
0.0
 40
4.15
100
AcDbArc
 50
317.0713765569699
 51
357.92861343961
  0
ARC
  5
70
330
2
100
AcDbEntity
  8
GAIKEI
  6
Continuous
 62
     1
100
AcDbCircle
 10
-20.77158649233558
 20
14.92903346966659
 30
0.0
 40
4.75
100
AcDbArc
 50
316.8096437079816
 51
358.190359948982
  0
LINE
  5
71
330
2
100
AcDbEntity
  8
GAIKEI
  6
Continuous
100
AcDbLine
 10
-20.21987144913168
 20
21.32729490474338
 30
0.0
 11
-20.20064041442219
 21
22.4290401453872
 31
0.0
  0
LINE
  5
72
330
2
100
AcDbEntity
  8
GAIKEI
  6
Continuous
100
AcDbLine
 10
-21.32330153553982
 20
21.32729490474338
 30
0.0
 11
-21.34253257024943
 21
22.4290401453872
 31
0.0
  0
LINE
  5
73
330
2
100
AcDbEntity
  8
GAIKEI
  6
Continuous
100
AcDbLine
 10
-16.87158649233561
 20
20.62904014538719
 30
0.0
 11
-17.42600167673685
 21
22.2922856985906
 31
0.0
  0
LINE
  5
74
330
2
100
AcDbEntity
  8
GAIKEI
  6
Continuous
100
AcDbLine
 10
-24.11717130793443
 20
22.2922856985906
 30
0.0
 11
-24.67158649233556
 21
20.62904014538719
 31
0.0
  0
LINE
  5
75
330
2
100
AcDbEntity
  8
GAIKEI
  6
Continuous
100
AcDbLine
 10
-20.31985621864748
 20
21.22904014538721
 30
0.0
 11
-21.22331676602402
 21
21.22904014538721
 31
0.0
  0
ARC
  5
76
330
2
100
AcDbEntity
  8
GAIKEI
  6
HIDDEN2
 62
     1
100
AcDbCircle
 10
-20.77158649233558
 20
14.92904014538697
 30
0.0
 40
5.1999999999998
100
AcDbArc
 50
67.99604631981084
 51
90.0
  0
ARC
  5
77
330
2
100
AcDbEntity
  8
GAIKEI
  6
Continuous
 62
     1
100
AcDbCircle
 10
-20.77158649233558
 20
14.92903346966659
 30
0.0
 40
4.15
100
AcDbArc
 50
47.07137906145319
 51
87.92861786507231
  0
ARC
  5
78
330
2
100
AcDbEntity
  8
GAIKEI
  6
Continuous
 62
     1
100
AcDbCircle
 10
-20.77158649233558
 20
14.92903346966659
 30
0.0
 40
4.7500000000002
100
AcDbArc
 50
46.80964621246089
 51
88.19035754426456
  0
LINE
  5
79
330
2
100
AcDbEntity
  8
GAIKEI
  6
Continuous
100
AcDbLine
 10
-16.87158649233561
 20
20.62904014538719
 30
0.0
 11
-24.67158649233556
 21
20.62904014538719
 31
0.0
  0
ARC
  5
7A
330
2
100
AcDbEntity
  8
GAIKEI
  6
HIDDEN2
 62
     1
100
AcDbCircle
 10
-20.77158649233558
 20
14.92904014538697
 30
0.0
 40
5.2000000000002
100
AcDbArc
 50
270.0
 51
292.0039536801876
  0
ARC
  5
7B
330
2
100
AcDbEntity
  8
GAIKEI
  6
Continuous
 62
     1
100
AcDbCircle
 10
-20.77158649233558
 20
14.92903346966659
 30
0.0
 40
4.75
100
AcDbArc
 50
271.8096424557354
 51
313.1903537875483
  0
ARC
  5
7C
330
2
100
AcDbEntity
  8
GAIKEI
  6
Continuous
 62
     1
100
AcDbCircle
 10
-20.77158649233558
 20
14.92903346966659
 30
0.0
 40
4.15
100
AcDbArc
 50
272.0713821349276
 51
312.9286209385467
  0
LINE
  5
7D
330
2
100
AcDbEntity
  8
GAIKEI
  6
Continuous
100
AcDbLine
 10
-24.67158649233556
 20
9.429040145386807
 30
0.0
 11
-16.87158649233561
 21
9.429040145386807
 31
0.0
  0
CIRCLE
  5
7E
330
2
100
AcDbEntity
  8
GAIKEI
  6
HIDDEN2
 62
     1
100
AcDbCircle
 10
-20.77158649233558
 20
14.92904014538697
 30
0.0
 40
2.3
  0
CIRCLE
  5
7F
330
2
100
AcDbEntity
  8
GAIKEI
  6
HIDDEN2
 62
     1
100
AcDbCircle
 10
-20.77158649233558
 20
14.92904014538697
 30
0.0
 40
3.9
  0
CIRCLE
  5
80
330
2
100
AcDbEntity
  8
GAIKEI
  6
HIDDEN2
 62
     1
100
AcDbCircle
 10
-20.77158649233558
 20
14.92904014538697
 30
0.0
 40
1.8
  0
CIRCLE
  5
81
330
2
100
AcDbEntity
  8
GAIKEI
  6
Continuous
 62
     1
100
AcDbCircle
 10
-20.77158649233558
 20
14.92903346966659
 30
0.0
 40
3.6
  0
CIRCLE
  5
82
330
2
100
AcDbEntity
  8
GAIKEI
  6
Continuous
 62
     1
100
AcDbCircle
 10
-20.77159259585119
 20
14.9290401453868
 30
0.0
 40
3.5
  0
CIRCLE
  5
83
330
2
100
AcDbEntity
  8
GAIKEI
  6
Continuous
 62
     1
100
AcDbCircle
 10
-20.77159259585119
 20
14.9290401453868
 30
0.0
 40
2.460000038147
  0
CIRCLE
  5
84
330
2
100
AcDbEntity
  8
GAIKEI
  6
Continuous
 62
     1
100
AcDbCircle
 10
-20.77159259585119
 20
14.9290401453868
 30
0.0
 40
2.560000038147
  0
CIRCLE
  5
85
330
2
100
AcDbEntity
  8
GAIKEI
  6
Continuous
 62
     1
100
AcDbCircle
 10
-20.77159259585119
 20
14.9290401453868
 30
0.0
 40
3.6
  0
LINE
  5
86
330
2
100
AcDbEntity
  8
GAIKEI
  6
PHANTOM
100
AcDbLine
 10
-21.22331676602402
 20
21.22904014538721
 30
0.0
 11
-21.32158649233565
 21
21.22904014538721
 31
0.0
  0
LINE
  5
88
330
2
100
AcDbEntity
  8
GAIKEI
  6
PHANTOM
100
AcDbLine
 10
-21.32158649233565
 20
21.22904014538721
 30
0.0
 11
-21.32330153553982
 21
21.32729490474338
 31
0.0
  0
ARC
  5
89
330
2
100
AcDbEntity
  8
GAIKEI
  6
Continuous
100
AcDbCircle
 10
-21.22331676602402
 20
21.32904014538718
 30
0.0
 40
0.1000000000002
100
AcDbArc
 50
180.9999999999952
 51
270.0
  0
LINE
  5
8A
330
2
100
AcDbEntity
  8
GAIKEI
  6
Continuous
 62
     1
100
AcDbLine
 10
-20.6215864923356
 20
19.67666544865517
 30
0.0
 11
-20.6215864923356
 21
19.07632365178017
 31
0.0
  0
LINE
  5
8B
330
2
100
AcDbEntity
  8
GAIKEI
  6
Continuous
 62
     1
100
AcDbLine
 10
-20.92158649233556
 20
19.67666544865517
 30
0.0
 11
-20.92158649233556
 21
19.07632365178017
 31
0.0
  0
LINE
  5
8C
330
2
100
AcDbEntity
  8
GAIKEI
  6
Continuous
100
AcDbLine
 10
-24.67158649233556
 20
20.4290401453872
 30
0.0
 11
-24.67158649233556
 21
20.62904014538719
 31
0.0
  0
LINE
  5
8D
330
2
100
AcDbEntity
  8
GAIKEI
  6
Continuous
 62
     1
100
AcDbLine
 10
-24.02259357241359
 20
18.39218440007118
 30
0.0
 11
-23.59808795717936
 21
17.96767859410198
 31
0.0
  0
ARC
  5
8E
330
2
100
AcDbEntity
  8
GAIKEI
  6
Continuous
100
AcDbCircle
 10
-26.23438565996866
 20
19.42903938244739
 30
0.0
 40
1.0
100
AcDbArc
 50
90.00000865142791
 51
176.9999939969472
  0
ARC
  5
8F
330
2
100
AcDbEntity
  8
GAIKEI
  6
Continuous
100
AcDbCircle
 10
-26.23438565996866
 20
19.42903938244739
 30
0.0
 40
0.8
100
AcDbArc
 50
90.00000865141489
 51
176.9999939969472
  0
LINE
  5
90
330
2
100
AcDbEntity
  8
GAIKEI
  6
PHANTOM
 62
     1
100
AcDbLine
 10
-24.77158649233581
 20
14.9290401453868
 30
0.0
 11
-25.11158649233562
 21
14.9290401453868
 31
0.0
  0
LINE
  5
91
330
2
100
AcDbEntity
  8
GAIKEI
  6
Continuous
 62
     1
100
AcDbLine
 10
-25.51921832827327
 20
15.07903346966662
 30
0.0
 11
-24.91887653139804
 21
15.07903346966662
 31
0.0
  0
LINE
  5
92
330
2
100
AcDbEntity
  8
GAIKEI
  6
Continuous
 62
     1
100
AcDbLine
 10
-25.51921832827327
 20
14.77903342198283
 30
0.0
 11
-24.91887653139804
 21
14.77903342198283
 31
0.0
  0
ARC
  5
93
330
2
100
AcDbEntity
  8
GAIKEI
  6
Continuous
 62
     1
100
AcDbCircle
 10
-20.77158649233558
 20
14.92903346966659
 30
0.0
 40
4.15
100
AcDbArc
 50
137.0713781508335
 51
177.9286135393653
  0
LINE
  5
94
330
2
100
AcDbEntity
  8
GAIKEI
  6
Continuous
100
AcDbLine
 10
-26.13890732203185
 20
15.32904014538678
 30
0.0
 11
-26.14049614222347
 21
15.32904014538678
 31
0.0
  0
POINT
  5
95
330
2
100
AcDbEntity
  8
GAIKEI
100
AcDbPoint
 10
-27.47159946230647
 20
14.9290401453868
 30
0.0
  0
POINT
  5
96
330
2
100
AcDbEntity
  8
GAIKEI
100
AcDbPoint
 10
-27.47159946230647
 20
14.9290401453868
 30
0.0
  0
POINT
  5
97
330
2
100
AcDbEntity
  8
GAIKEI
100
AcDbPoint
 10
-27.27187335757003
 20
14.93950729321397
 30
0.0
  0
POINT
  5
98
330
2
100
AcDbEntity
  8
GAIKEI
100
AcDbPoint
 10
-27.47159726885547
 20
14.9290401453868
 30
0.0
  0
LINE
  5
99
330
2
100
AcDbEntity
  8
GAIKEI
  6
Continuous
100
AcDbLine
 10
-27.251588037288
 20
15.02904014538683
 30
0.0
 11
-27.251588037288
 21
14.9290401453868
 31
0.0
  0
LINE
  5
9A
330
2
100
AcDbEntity
  8
GAIKEI
  6
Continuous
100
AcDbLine
 10
-26.17066036336302
 20
15.02904014538683
 30
0.0
 11
-27.46635587481239
 21
15.02904014538683
 31
0.0
  0
LINE
  5
9B
330
2
100
AcDbEntity
  8
GAIKEI
  6
Continuous
100
AcDbLine
 10
-26.1715864923317
 20
14.9290401453868
 30
0.0
 11
-27.47159259585123
 21
14.9290401453868
 31
0.0
  0
LINE
  5
9C
330
2
100
AcDbEntity
  8
GAIKEI
  6
Continuous
100
AcDbLine
 10
-27.4663566377518
 20
15.02903556774998
 30
0.0
 11
-27.23301923540839
 21
19.48137321423439
 31
0.0
  0
LINE
  5
9D
330
2
100
AcDbEntity
  8
GAIKEI
  6
Continuous
100
AcDbLine
 10
-27.26608197954885
 20
15.02904014538683
 30
0.0
 11
-27.03329351214165
 21
19.47090644787698
 31
0.0
  0
LINE
  5
9E
330
2
100
AcDbEntity
  8
GAIKEI
  6
Continuous
 62
     1
100
AcDbLine
 10
-24.23472736147619
 20
18.1800523276226
 30
0.0
 11
-23.81022174624183
 21
17.75554652165317
 31
0.0
  0
ARC
  5
9F
330
2
100
AcDbEntity
  8
GAIKEI
  6
Continuous
 62
     1
100
AcDbCircle
 10
-20.77158649233558
 20
14.92903346966659
 30
0.0
 40
4.75
100
AcDbArc
 50
136.8096453018405
 51
178.1903600487381
  0
LINE
  5
A0
330
2
100
AcDbEntity
  8
GAIKEI
  6
Continuous
100
AcDbLine
 10
-21.80596423981921
 20
20.22903938244741
 30
0.0
 11
-26.23438565996866
 21
20.22903938244741
 31
0.0
  0
ARC
  5
A1
330
2
100
AcDbEntity
  8
GAIKEI
  6
Continuous
 62
     1
100
AcDbCircle
 10
-20.77158649233558
 20
14.92903346966659
 30
0.0
 40
4.75
100
AcDbArc
 50
91.80964063450039
 51
133.1903553814107
  0
ARC
  5
A2
330
2
100
AcDbEntity
  8
GAIKEI
  6
Continuous
 62
     1
100
AcDbCircle
 10
-20.77158649233558
 20
14.92903346966659
 30
0.0
 40
4.15
100
AcDbArc
 50
92.07138031368437
 51
132.9286225324116
  0
LINE
  5
A3
330
2
100
AcDbEntity
  8
GAIKEI
  6
Continuous
 62
     1
100
AcDbLine
 10
-20.6215864923356
 20
10.7817435736552
 30
0.0
 11
-20.6215864923356
 21
10.1814017767802
 31
0.0
  0
LINE
  5
A4
330
2
100
AcDbEntity
  8
GAIKEI
  6
Continuous
 62
     1
100
AcDbLine
 10
-20.92158649233556
 20
10.7817435736552
 30
0.0
 11
-20.92158649233556
 21
10.1814017767802
 31
0.0
  0
LINE
  5
A5
330
2
100
AcDbEntity
  8
GAIKEI
  6
Continuous
 62
     1
100
AcDbLine
 10
-24.23472736147619
 20
11.678018903245
 30
0.0
 11
-23.81022174624183
 21
12.10252489994923
 31
0.0
  0
LINE
  5
A6
330
2
100
AcDbEntity
  8
GAIKEI
  6
Continuous
 62
     1
100
AcDbLine
 10
-24.02259357241359
 20
11.46588702153121
 30
0.0
 11
-23.59808795717936
 21
11.89039263676562
 31
0.0
  0
LINE
  5
A7
330
2
100
AcDbEntity
  8
GAIKEI
  6
HIDDEN2
 62
     1
100
AcDbLine
 10
-27.61971400639697
 20
12.82904014538701
 30
0.0
 11
-27.36076411919941
 21
12.82904014538701
 31
0.0
  0
LINE
  5
A8
330
2
100
AcDbEntity
  8
GAIKEI
  6
HIDDEN2
 62
     1
100
AcDbLine
 10
-27.13593123803082
 20
14.233599221068
 30
0.0
 11
-26.91718664806205
 21
11.59681255842036
 31
0.0
  0
POINT
  5
A9
330
2
100
AcDbEntity
  8
GAIKEI
100
AcDbPoint
 10
-26.23438556460121
 20
9.429040145386807
 30
0.0
  0
ARC
  5
AA
330
2
100
AcDbEntity
  8
GAIKEI
  6
HIDDEN2
 62
     1
100
AcDbCircle
 10
-27.66856315755501
 20
9.429635006343005
 30
0.0
 40
0.6000000000000001
100
AcDbArc
 50
270.0
 51
342.2373306436378
  0
LINE
  5
AB
330
2
100
AcDbEntity
  8
GAIKEI
  6
HIDDEN2
 62
     1
100
AcDbLine
 10
-27.00992521056127
 20
9.518923242696416
 30
0.0
 11
-27.09716613905789
 21
9.246590074010612
 31
0.0
  0
ARC
  5
AC
330
2
100
AcDbEntity
  8
GAIKEI
  6
Continuous
100
AcDbCircle
 10
-26.23438556460121
 20
10.4290401453868
 30
0.0
 40
1.0
100
AcDbArc
 50
183.000006003056
 51
269.9999913485721
  0
ARC
  5
AD
330
2
100
AcDbEntity
  8
GAIKEI
  6
Continuous
100
AcDbCircle
 10
-26.23438556460121
 20
10.4290401453868
 30
0.0
 40
0.8
100
AcDbArc
 50
183.000006003056
 51
269.9999913485851
  0
ARC
  5
AE
330
2
100
AcDbEntity
  8
GAIKEI
  6
HIDDEN2
 62
     1
100
AcDbCircle
 10
-32.01608664897583
 20
10.78336809076478
 30
0.0
 40
5.1633780726648
100
AcDbArc
 50
345.8248363140559
 51
9.064203899829593
  0
LINE
  5
AF
330
2
100
AcDbEntity
  8
GAIKEI
  6
HIDDEN2
 62
     1
100
AcDbLine
 10
-29.67158649233579
 20
14.62904014538696
 30
0.0
 11
-29.47158649233585
 21
14.62904014538696
 31
0.0
  0
LINE
  5
B0
330
2
100
AcDbEntity
  8
GAIKEI
  6
HIDDEN2
 62
     1
100
AcDbLine
 10
-29.47158649233585
 20
14.62904014538696
 30
0.0
 11
-27.87158649233584
 21
14.62904014538696
 31
0.0
  0
LINE
  5
B1
330
2
100
AcDbEntity
  8
GAIKEI
  6
HIDDEN2
 62
     1
100
AcDbLine
 10
-27.87158649233584
 20
11.82904014538701
 30
0.0
 11
-29.67158649233579
 21
11.82904014538701
 31
0.0
  0
LINE
  5
B2
330
2
100
AcDbEntity
  8
GAIKEI
  6
HIDDEN2
 62
     1
100
AcDbLine
 10
-27.87158649233584
 20
12.029040145387
 30
0.0
 11
-29.67158649233579
 21
12.029040145387
 31
0.0
  0
LINE
  5
B3
330
2
100
AcDbEntity
  8
GAIKEI
  6
HIDDEN2
 62
     1
100
AcDbLine
 10
-29.67158649233579
 20
11.82904014538701
 30
0.0
 11
-29.67158649233579
 21
14.62904014538696
 31
0.0
  0
LINE
  5
B4
330
2
100
AcDbEntity
  8
GAIKEI
  6
HIDDEN2
 62
     1
100
AcDbLine
 10
-29.47158649233585
 20
14.62904014538696
 30
0.0
 11
-29.47158649233585
 21
12.029040145387
 31
0.0
  0
LINE
  5
B5
330
2
100
AcDbEntity
  8
GAIKEI
  6
HIDDEN2
 62
     1
100
AcDbLine
 10
-28.6710410646906
 20
9.782101735683397
 30
0.0
 11
-28.6710410646906
 21
10.28904243420515
 31
0.0
  0
LINE
  5
B6
330
2
100
AcDbEntity
  8
GAIKEI
  6
HIDDEN2
 62
     1
100
AcDbLine
 10
-29.67158649233579
 20
10.28904243420515
 30
0.0
 11
-29.47158649233585
 21
10.28904243420515
 31
0.0
  0
LINE
  5
B7
330
2
100
AcDbEntity
  8
GAIKEI
  6
HIDDEN2
 62
     1
100
AcDbLine
 10
-29.47158649233585
 20
10.28904243420515
 30
0.0
 11
-27.87158649233584
 21
10.28904243420515
 31
0.0
  0
ARC
  5
B8
330
2
100
AcDbEntity
  8
GAIKEI
  6
HIDDEN2
 62
     1
100
AcDbCircle
 10
-27.92320597984689
 20
9.429635006343005
 30
0.0
 40
0.6000000000000001
100
AcDbArc
 50
211.783675936203
 51
270.0
  0
LINE
  5
B9
330
2
100
AcDbEntity
  8
GAIKEI
  6
PHANTOM
 62
     1
100
AcDbLine
 10
-28.43323165550327
 20
9.113606826948569
 30
0.0
 11
-28.521083857451
 21
9.255388103359393
 31
0.0
  0
ARC
  5
BA
330
2
100
AcDbEntity
  8
GAIKEI
  6
HIDDEN2
 62
     1
100
AcDbCircle
 10
-27.6710410646906
 20
9.782101735683397
 30
0.0
 40
1.0
100
AcDbArc
 50
180.0
 51
211.7836759362139
  0
LINE
  5
BB
330
2
100
AcDbEntity
  8
GAIKEI
  6
HIDDEN2
 62
     1
100
AcDbLine
 10
-29.67158649233579
 20
10.28904243420515
 30
0.0
 11
-29.67158649233579
 21
11.82904014538701
 31
0.0
  0
LINE
  5
BC
330
2
100
AcDbEntity
  8
GAIKEI
  6
HIDDEN2
 62
     1
100
AcDbLine
 10
-27.87158649233584
 20
10.28904243420515
 30
0.0
 11
-27.87158649233584
 21
12.029040145387
 31
0.0
  0
LINE
  5
BD
330
2
100
AcDbEntity
  8
GAIKEI
  6
HIDDEN2
 62
     1
100
AcDbLine
 10
-27.66856315755501
 20
8.829635006342982
 30
0.0
 11
-27.92320597984689
 21
8.829635006342982
 31
0.0
  0
LINE
  5
BE
330
2
100
AcDbEntity
  8
GAIKEI
  6
HIDDEN2
 62
     1
100
AcDbLine
 10
-27.87158649233584
 20
12.029040145387
 30
0.0
 11
-27.61971400639697
 21
12.82904014538701
 31
0.0
  0
LINE
  5
BF
330
2
100
AcDbEntity
  8
GAIKEI
  6
HIDDEN2
 62
     1
100
AcDbLine
 10
-29.67158649233579
 20
14.36904014538697
 30
0.0
 11
-27.47158649233586
 21
14.36904014538697
 31
0.0
  0
LINE
  5
C0
330
2
100
AcDbEntity
  8
GAIKEI
  6
HIDDEN2
 62
     1
100
AcDbLine
 10
-27.87158649233584
 20
14.62904014538696
 30
0.0
 11
-27.47158649233586
 21
14.62904014538696
 31
0.0
  0
LINE
  5
C1
330
2
100
AcDbEntity
  8
GAIKEI
  6
Continuous
100
AcDbLine
 10
-21.8060287394378
 20
9.629040145386795
 30
0.0
 11
-26.23438556460121
 21
9.629040145386795
 31
0.0
  0
ARC
  5
C2
330
2
100
AcDbEntity
  8
GAIKEI
  6
Continuous
 62
     1
100
AcDbCircle
 10
-20.77158649233558
 20
14.92903346966659
 30
0.0
 40
4.75
100
AcDbArc
 50
226.8096446185893
 51
268.1903593654995
  0
ARC
  5
C3
330
2
100
AcDbEntity
  8
GAIKEI
  6
Continuous
 62
     1
100
AcDbCircle
 10
-20.77158649233558
 20
14.92903346966659
 30
0.0
 40
4.15
100
AcDbArc
 50
227.0713774675883
 51
267.9286196863155
  0
ARC
  5
C4
330
2
100
AcDbEntity
  8
GAIKEI
  6
HIDDEN2
 62
     1
100
AcDbCircle
 10
-26.14049614222347
 20
14.32904014538678
 30
0.0
 40
1.0
100
AcDbArc
 50
90.0
 51
185.476698229406
  0
SPLINE
  5
C5
330
2
100
AcDbEntity
  8
GAIKEI
  6
HIDDEN2
 62
     1
100
AcDbSpline
210
0.0
220
0.0
230
1.0
 70
     8
 71
     3
 72
    31
 73
    27
 74
    25
 42
0.0000000001
 43
0.0000000001
 44
0.00000000001
 40
0.0
 40
0.0
 40
0.0
 40
0.0
 40
0.5446808088773056
 40
1.0426898979156
 40
1.360770457311902
 40
1.688222789541256
 40
2.057564234760615
 40
2.424407909876291
 40
2.733846951635655
 40
3.051879324144687
 40
3.640129798849708
 40
4.237028196871997
 40
4.667381427479085
 40
5.099776043653038
 40
5.74287601323727
 40
6.346785376694628
 40
6.69674018440148
 40
7.056006832887579
 40
7.470523431120785
 40
7.877567095840451
 40
8.150817959165427
 40
8.41561321058217
 40
8.842790733419642
 40
9.296965378533265
 40
9.787827117851263
 40
10.36246535633126
 40
10.36246535633126
 40
10.36246535633126
 40
10.36246535633126
 10
-26.18945987778841
 20
14.72904014538676
 30
0.0
 10
-26.34351823289904
 20
14.60232543029684
 30
0.0
 10
-26.63843424232203
 20
14.35975372373377
 30
0.0
 10
-26.49365100063971
 20
13.8710015265396
 30
0.0
 10
-26.45662014678143
 20
13.49957734428787
 30
0.0
 10
-26.43070354048808
 20
13.16036309763049
 30
0.0
 10
-26.39688567865297
 20
12.80799885609258
 30
0.0
 10
-26.36157994128217
 20
12.46109157953709
 30
0.0
 10
-26.33212946662297
 20
12.13100224476595
 30
0.0
 10
-26.29505819164063
 20
11.72741477056001
 30
0.0
 10
-26.24269373645822
 20
11.22931954317365
 30
0.0
 10
-26.20945417517964
 20
10.69063873841413
 30
0.0
 10
-26.24840902305243
 20
10.20428907763285
 30
0.0
 10
-26.34766237585194
 20
9.711257819186499
 30
0.0
 10
-26.48165337025577
 20
9.170350826319804
 30
0.0
 10
-26.69508292760849
 20
8.66687521218904
 30
0.0
 10
-27.03726644855933
 20
8.374700968261549
 30
0.0
 10
-27.39974139969518
 20
8.257719485265624
 30
0.0
 10
-27.7936521880494
 20
8.223849779186821
 30
0.0
 10
-28.15952252804441
 20
8.253614978398758
 30
0.0
 10
-28.46482212925698
 20
8.342357023386554
 30
0.0
 10
-28.73881818352498
 20
8.520162655358973
 30
0.0
 10
-28.97537737464665
 20
8.828585171512543
 30
0.0
 10
-29.17534537902952
 20
9.241662297479265
 30
0.0
 10
-29.2956804774561
 20
9.740518890606836
 30
0.0
 10
-29.27967372052916
 20
10.09686192177649
 30
0.0
 10
-29.27104106469062
 20
10.28904243420515
 30
0.0
 11
-26.18945987778841
 21
14.72904014538676
 31
0.0
 11
-26.54088438751023
 21
14.31289353957817
 31
0.0
 11
-26.49700055523101
 21
13.81682170805652
 31
0.0
 11
-26.45799658503745
 21
13.50114159690758
 31
0.0
 11
-26.4308102849443
 21
13.17481976961175
 31
0.0
 11
-26.39644109992969
 21
12.8070809189607
 31
0.0
 11
-26.36046675216198
 21
12.44200540858639
 31
0.0
 11
-26.33225056264552
 21
12.13385549829252
 31
0.0
 11
-26.30281336823486
 21
11.81718841514532
 31
0.0
 11
-26.24715872572551
 21
11.23157661389996
 31
0.0
 11
-26.22242003356848
 21
10.63519108869672
 31
0.0
 11
-26.2567746754122
 21
10.20621129700748
 31
0.0
 11
-26.33618605818094
 21
9.781171373726181
 31
0.0
 11
-26.50264388654795
 21
9.159987534388278
 31
0.0
 11
-26.77755785664067
 21
8.622280524652182
 31
0.0
 11
-27.045541890261
 21
8.39721847729254
 31
0.0
 11
-27.38375928380992
 21
8.276051157377423
 31
0.0
 11
-27.79626990853296
 21
8.235320398712303
 31
0.0
 11
-28.20151907425065
 21
8.273499695111411
 31
0.0
 11
-28.46211792801125
 21
8.355684071525104
 31
0.0
 11
-28.68487285610433
 21
8.498850992226437
 31
0.0
 11
-28.95724411184938
 21
8.827932342444626
 31
0.0
 11
-29.15547491502968
 21
9.236563174534637
 31
0.0
 11
-29.26774317144156
 21
9.714413659235162
 31
0.0
 11
-29.27104106469062
 21
10.28904243420515
 31
0.0
  0
ARC
  5
C6
330
2
100
AcDbEntity
  8
GAIKEI
  6
HIDDEN2
 62
     1
100
AcDbCircle
 10
-24.97729998733802
 20
14.9290401453868
 30
0.0
 40
1.228548574544999
100
AcDbArc
 50
139.3697567261108
 51
220.6302432738892
  0
ARC
  5
C7
330
2
100
AcDbEntity
  8
GAIKEI
  6
HIDDEN2
 62
     1
100
AcDbCircle
 10
-20.77158649233558
 20
14.92904014538697
 30
0.0
 40
5.1999999999998
100
AcDbArc
 50
90.0
 51
270.0
  0
LINE
  5
C8
330
2
100
AcDbEntity
  8
GAIKEI
  6
Continuous
100
AcDbLine
 10
-27.23302066591964
 20
10.3766973490612
 30
0.0
 11
-27.47159869936683
 21
14.92903461407581
 31
0.0
  0
LINE
  5
C9
330
2
100
AcDbEntity
  8
GAIKEI
  6
Continuous
100
AcDbLine
 10
-27.03329532412283
 20
10.3871644968882
 30
0.0
 11
-27.27132480410318
 21
14.9290401453868
 31
0.0
  0
ARC
  5
CA
330
2
100
AcDbEntity
  8
GAIKEI
  6
Continuous
 62
     1
100
AcDbCircle
 10
-20.77158649233558
 20
14.92903346966659
 30
0.0
 40
4.75
100
AcDbArc
 50
181.8096399512618
 51
223.1903546981594
  0
ARC
  5
CB
330
2
100
AcDbEntity
  8
GAIKEI
  6
Continuous
 62
     1
100
AcDbCircle
 10
-20.77158649233558
 20
14.92903346966659
 30
0.0
 40
4.1499999999998
100
AcDbArc
 50
182.0713864606346
 51
222.9286218491663
  0
LINE
  5
CC
330
2
100
AcDbEntity
  8
GAIKEI
  6
PHANTOM
100
AcDbLine
 10
-20.22158649233563
 20
21.22904014538721
 30
0.0
 11
-20.31985621864748
 21
21.22904014538721
 31
0.0
  0
LINE
  5
CD
330
2
100
AcDbEntity
  8
GAIKEI
  6
PHANTOM
100
AcDbLine
 10
-20.22158649233563
 20
21.22904014538721
 30
0.0
 11
-20.21987144913168
 21
21.32729490474338
 31
0.0
  0
ARC
  5
CE
330
2
100
AcDbEntity
  8
GAIKEI
  6
Continuous
100
AcDbCircle
 10
-20.31985621864748
 20
21.32904014538718
 30
0.0
 40
0.1
100
AcDbArc
 50
270.0
 51
359.0000000000047
  0
LINE
  5
CF
330
2
100
AcDbEntity
  8
GAIKEI
  6
Continuous
100
AcDbLine
 10
-16.87158649233561
 20
20.4290401453872
 30
0.0
 11
-16.87158649233561
 21
20.62904014538719
 31
0.0
  0
LINE
  5
D0
330
2
100
AcDbEntity
  8
GAIKEI
  6
Continuous
 62
     1
100
AcDbLine
 10
-17.94507892397644
 20
17.96767001103319
 30
0.0
 11
-17.52057330874231
 21
18.3921756262676
 31
0.0
  0
LINE
  5
D1
330
2
100
AcDbEntity
  8
GAIKEI
  6
Continuous
 62
     1
100
AcDbLine
 10
-17.73294513491362
 20
17.75553793858438
 30
0.0
 11
-17.30843951967938
 21
18.18004374455358
 31
0.0
  0
LINE
  5
D2
330
2
100
AcDbEntity
  8
GAIKEI
  6
Continuous
 62
     1
100
AcDbLine
 10
-17.945066716945
 20
11.89039263676562
 30
0.0
 11
-17.52056110171088
 21
11.46588702153121
 31
0.0
  0
LINE
  5
D3
330
2
100
AcDbEntity
  8
GAIKEI
  6
Continuous
 62
     1
100
AcDbLine
 10
-17.73293903139801
 20
12.10252489994923
 30
0.0
 11
-17.30843341616355
 21
11.678018903245
 31
0.0
  0
LINE
  5
D4
330
2
100
AcDbEntity
  8
GAIKEI
  6
Continuous
100
AcDbLine
 10
-17.6157383363469
 20
22.4290401453872
 30
0.0
 11
-23.92743464832438
 21
22.4290401453872
 31
0.0
  0
LINE
  5
D5
330
2
100
AcDbEntity
  8
GAIKEI
  6
Continuous
100
AcDbLine
 10
-23.92743464832438
 20
22.4290401453872
 30
0.0
 11
-24.07158649233565
 21
22.4290401453872
 31
0.0
  0
LINE
  5
D6
330
2
100
AcDbEntity
  8
GAIKEI
  6
Continuous
100
AcDbLine
 10
-24.07158649233565
 20
22.4290401453872
 30
0.0
 11
-24.11717130793443
 21
22.2922856985906
 31
0.0
  0
ARC
  5
D7
330
2
100
AcDbEntity
  8
GAIKEI
  6
Continuous
100
AcDbCircle
 10
-23.92743464832438
 20
22.22904014538721
 30
0.0
 40
0.2
100
AcDbArc
 50
90.0
 51
161.5650511770614
  0
LINE
  5
D8
330
2
100
AcDbEntity
  8
GAIKEI
  6
Continuous
100
AcDbLine
 10
-17.47158649233563
 20
22.4290401453872
 30
0.0
 11
-17.6157383363469
 21
22.4290401453872
 31
0.0
  0
LINE
  5
D9
330
2
100
AcDbEntity
  8
GAIKEI
  6
Continuous
100
AcDbLine
 10
-17.42600167673685
 20
22.2922856985906
 30
0.0
 11
-17.47158649233563
 21
22.4290401453872
 31
0.0
  0
ARC
  5
DA
330
2
100
AcDbEntity
  8
GAIKEI
  6
Continuous
100
AcDbCircle
 10
-17.6157383363469
 20
22.22904014538721
 30
0.0
 40
0.2
100
AcDbArc
 50
18.43494882293849
 51
90.0
  0
DIMENSION
  5
DB
330
2
100
AcDbEntity
  8
SUNPO
100
AcDbDimension
  2
*D6
 10
-6.059834764961294
 20
22.42904090832661
 30
0.0
 11
-7.809834764961299
 21
15.929040145387
 31
0.0
 70
    33
  1
65
 71
     5
 42
13.00000152587921
  3
STANDARD
100
AcDbAlignedDimension
 13
-14.05983476496129
 23
9.429039382447399
 33
0.0
 14
-14.05983476496129
 24
22.42904090832661
 34
0.0
1001
ACAD
1000
DSTYLE
1002
{
1070
   287
1070
     3
1070
   287
1070
     3
1070
    40
1040
1.0
1070
   140
1040
2.5
1070
   147
1040
0.5
1070
   172
1070
     1
1070
   279
1070
     0
1070
   288
1070
     0
1002
}
  0
POINT
  5
E8
330
2
100
AcDbEntity
  8
GAIKEI
100
AcDbPoint
 10
-15.30879972246907
 20
20.4290393824474
 30
0.0
  0
ARC
  5
E9
330
2
100
AcDbEntity
  8
GAIKEI
  6
Continuous
100
AcDbCircle
 10
-15.30879972246907
 20
19.42903938244739
 30
0.0
 40
1.0
100
AcDbArc
 50
2.999999172866619
 51
90.00000500896346
  0
ARC
  5
EA
330
2
100
AcDbEntity
  8
GAIKEI
  6
Continuous
100
AcDbCircle
 10
-15.30879972246907
 20
19.42903938244739
 30
0.0
 40
0.7999999999997997
100
AcDbArc
 50
2.999999172866619
 51
90.00000500896346
  0
POINT
  5
EB
330
2
100
AcDbEntity
  8
GAIKEI
100
AcDbPoint
 10
-14.07159488466959
 20
14.9290401453868
 30
0.0
  0
POINT
  5
EC
330
2
100
AcDbEntity
  8
GAIKEI
100
AcDbPoint
 10
-14.07682950762523
 20
15.02904014538683
 30
0.0
  0
LINE
  5
ED
330
2
100
AcDbEntity
  8
GAIKEI
  6
Continuous
100
AcDbLine
 10
-14.2915969636798
 20
15.02904014538683
 30
0.0
 11
-14.2915969636798
 21
14.9290401453868
 31
0.0
  0
LINE
  5
EE
330
2
100
AcDbEntity
  8
GAIKEI
  6
Continuous
100
AcDbLine
 10
-14.07682950762523
 20
15.02904014538683
 30
0.0
 11
-14.13159024981246
 21
15.02904014538683
 31
0.0
  0
LINE
  5
EF
330
2
100
AcDbEntity
  8
GAIKEI
  6
Continuous
100
AcDbLine
 10
-15.37251262130848
 20
15.02904014538683
 30
0.0
 11
-14.07682950762523
 21
15.02904014538683
 31
0.0
  0
LINE
  5
F0
330
2
100
AcDbEntity
  8
GAIKEI
  6
Continuous
100
AcDbLine
 10
-14.07159259585125
 20
14.9290401453868
 30
0.0
 11
-15.37158649233981
 21
14.9290401453868
 31
0.0
  0
ARC
  5
F1
330
2
100
AcDbEntity
  8
GAIKEI
  6
HIDDEN2
 62
     1
100
AcDbCircle
 10
-15.07935240539984
 20
17.15874359310197
 30
0.0
 40
1.0
100
AcDbArc
 50
20.72734061296593
 51
67.99604631981084
  0
LINE
  5
F2
330
2
100
AcDbEntity
  8
GAIKEI
  6
Continuous
100
AcDbLine
 10
-14.27712490211786
 20
15.02904014538683
 30
0.0
 11
-14.50991285113082
 21
19.47090721081639
 31
0.0
  0
LINE
  5
F3
330
2
100
AcDbEntity
  8
GAIKEI
  6
Continuous
100
AcDbLine
 10
-14.07685010699015
 20
15.02903709362897
 30
0.0
 11
-14.31018674639472
 21
19.48137397717403
 31
0.0
  0
ARC
  5
F4
330
2
100
AcDbEntity
  8
GAIKEI
  6
HIDDEN2
 62
     1
100
AcDbCircle
 10
-20.97158649233563
 20
14.9290401453868
 30
0.0
 40
7.3
100
AcDbArc
 50
0.0
 51
20.72734061296955
  0
ARC
  5
F5
330
2
100
AcDbEntity
  8
GAIKEI
  6
HIDDEN2
 62
     1
100
AcDbCircle
 10
-15.07935240539984
 20
12.69933669767158
 30
0.0
 40
0.9999999999997998
100
AcDbArc
 50
292.0039536801876
 51
339.2726593870341
  0
ARC
  5
F6
330
2
100
AcDbEntity
  8
GAIKEI
  6
Continuous
100
AcDbCircle
 10
-15.3087996271015
 20
10.4290401453868
 30
0.0
 40
1.0
100
AcDbArc
 50
270.0000086514279
 51
356.9999939969472
  0
ARC
  5
F7
330
2
100
AcDbEntity
  8
GAIKEI
  6
Continuous
100
AcDbCircle
 10
-15.3087996271015
 20
10.4290401453868
 30
0.0
 40
0.8
100
AcDbArc
 50
270.0000086514279
 51
356.9999939969472
  0
ARC
  5
F8
330
2
100
AcDbEntity
  8
GAIKEI
  6
HIDDEN2
 62
     1
100
AcDbCircle
 10
-20.97158649233563
 20
14.9290401453868
 30
0.0
 40
7.3000000000002
100
AcDbArc
 50
339.2726593870304
 51
0.0
  0
LINE
  5
F9
330
2
100
AcDbEntity
  8
GAIKEI
  6
Continuous
100
AcDbLine
 10
-14.31017329958661
 20
10.37669906567481
 30
0.0
 11
-14.07159526613941
 21
14.92903327893179
 31
0.0
  0
LINE
  5
FA
330
2
100
AcDbEntity
  8
GAIKEI
  6
Continuous
100
AcDbLine
 10
-14.50989902285346
 20
10.38716621350198
 30
0.0
 11
-14.27186954287287
 21
14.9290401453868
 31
0.0
  0
LINE
  5
FB
330
2
100
AcDbEntity
  8
GAIKEI
  6
HIDDEN2
 62
     1
100
AcDbLine
 10
6.090069269141736
 20
20.12904014538679
 30
0.0
 11
11.45006926914163
 21
20.12904014538679
 31
0.0
  0
LINE
  5
FC
330
2
100
AcDbEntity
  8
GAIKEI
  6
HIDDEN2
 62
     1
100
AcDbLine
 10
11.45006926914163
 20
9.729040145386761
 30
0.0
 11
6.090069269141736
 21
9.729040145386761
 31
0.0
  0
LINE
  5
FD
330
2
100
AcDbEntity
  8
GAIKEI
  6
HIDDEN2
 62
     1
100
AcDbLine
 10
6.390069269141804
 20
17.9290401453868
 30
0.0
 11
11.55006926914165
 21
17.9290401453868
 31
0.0
  0
LINE
  5
FE
330
2
100
AcDbEntity
  8
GAIKEI
  6
HIDDEN2
 62
     1
100
AcDbLine
 10
6.390069269141804
 20
11.9290401453868
 30
0.0
 11
11.55006926914165
 21
11.9290401453868
 31
0.0
  0
LINE
  5
FF
330
2
100
AcDbEntity
  8
GAIKEI
  6
HIDDEN2
 62
     1
100
AcDbLine
 10
5.990069269141713
 20
19.9290401453868
 30
0.0
 11
6.390069269141804
 21
17.9290401453868
 31
0.0
  0
LINE
  5
100
330
2
100
AcDbEntity
  8
GAIKEI
  6
HIDDEN2
 62
     1
100
AcDbLine
 10
5.990069269141713
 20
9.929040145386807
 30
0.0
 11
6.390069269141804
 21
11.9290401453868
 31
0.0
  0
ARC
  5
101
330
2
100
AcDbEntity
  8
GAIKEI
  6
HIDDEN2
 62
     1
100
AcDbCircle
 10
5.39006926914169
 20
19.82904014538678
 30
0.0
 40
0.1
100
AcDbArc
 50
90.0
 51
180.0
  0
ARC
  5
102
330
2
100
AcDbEntity
  8
GAIKEI
  6
HIDDEN2
 62
     1
100
AcDbCircle
 10
6.090069269141736
 20
20.02904014538677
 30
0.0
 40
0.1
100
AcDbArc
 50
90.0
 51
180.0
  0
LINE
  5
103
330
2
100
AcDbEntity
  8
GAIKEI
  6
HIDDEN2
 62
     1
100
AcDbLine
 10
5.990069269141713
 20
19.9290401453868
 30
0.0
 11
5.39006926914169
 21
19.9290401453868
 31
0.0
  0
ARC
  5
104
330
2
100
AcDbEntity
  8
GAIKEI
  6
HIDDEN2
 62
     1
100
AcDbCircle
 10
5.39006926914169
 20
10.02904014538677
 30
0.0
 40
0.1
100
AcDbArc
 50
180.0
 51
270.0
  0
LINE
  5
105
330
2
100
AcDbEntity
  8
GAIKEI
  6
HIDDEN2
 62
     1
100
AcDbLine
 10
5.39006926914169
 20
9.929040145386807
 30
0.0
 11
5.990069269141713
 21
9.929040145386807
 31
0.0
  0
ARC
  5
106
330
2
100
AcDbEntity
  8
GAIKEI
  6
HIDDEN2
 62
     1
100
AcDbCircle
 10
6.090069269141736
 20
9.829040145386784
 30
0.0
 40
0.1
100
AcDbArc
 50
180.0
 51
270.0
  0
LINE
  5
107
330
2
100
AcDbEntity
  8
GAIKEI
  6
HIDDEN2
 62
     1
100
AcDbLine
 10
5.290069269141781
 20
19.82904014538678
 30
0.0
 11
5.290069269141781
 21
10.02904014538677
 31
0.0
  0
LINE
  5
108
330
2
100
AcDbEntity
  8
GAIKEI
  6
HIDDEN2
 62
     1
100
AcDbLine
 10
5.990069269141713
 20
9.829040145386784
 30
0.0
 11
5.990069269141713
 21
20.02904014538677
 31
0.0
  0
LINE
  5
109
330
2
100
AcDbEntity
  8
GAIKEI
  6
HIDDEN2
 62
     1
100
AcDbLine
 10
6.390069269141804
 20
17.9290401453868
 30
0.0
 11
6.390069269141804
 21
11.9290401453868
 31
0.0
  0
LINE
  5
10A
330
2
100
AcDbEntity
  8
GAIKEI
  6
Continuous
100
AcDbLine
 10
15.12527062981871
 20
22.36528553444219
 30
0.0
 11
14.45006438632913
 21
20.6290409083266
 31
0.0
  0
ARC
  5
10B
330
2
100
AcDbEntity
  8
GAIKEI
  6
Continuous
 62
     1
100
AcDbCircle
 10
14.02266352456592
 20
-0.0457484435179936
 30
0.0
 40
19.9
100
AcDbArc
 50
73.01056143316341
 51
87.83544810182819
  0
ARC
  5
10C
330
2
100
AcDbEntity
  8
GAIKEI
  6
Continuous
 62
     1
100
AcDbCircle
 10
14.38757275739726
 20
-0.1538745346297787
 30
0.0
 40
20.0
100
AcDbArc
 50
74.08000443189385
 51
88.93675648309878
  0
ARC
  5
10D
330
2
100
AcDbEntity
  8
GAIKEI
  6
Continuous
 62
     1
100
AcDbCircle
 10
14.01608187907993
 20
29.90181431661818
 30
0.0
 40
19.9
100
AcDbArc
 50
272.1843674519266
 51
287.0092541205973
  0
ARC
  5
10E
330
2
100
AcDbEntity
  8
GAIKEI
  6
Continuous
 62
     1
100
AcDbCircle
 10
14.38206684966814
 20
30.010381093212
 30
0.0
 40
20.0
100
AcDbArc
 50
271.0796463255003
 51
285.9363983767072
  0
LINE
  5
10F
330
2
100
AcDbEntity
  8
GAIKEI
  6
Continuous
100
AcDbLine
 10
14.45006438632913
 20
20.42904090832661
 30
0.0
 11
14.45006438632913
 21
20.6290409083266
 31
0.0
  0
LINE
  5
110
330
2
100
AcDbEntity
  8
GAIKEI
  6
Continuous
100
AcDbLine
 10
12.85006926914172
 20
20.22903938244741
 30
0.0
 11
12.65006926914156
 21
20.22903938244741
 31
0.0
  0
LINE
  5
111
330
2
100
AcDbEntity
  8
GAIKEI
  6
Continuous
100
AcDbLine
 10
12.55006469150521
 20
20.27903709362897
 30
0.0
 11
12.45006087674949
 21
20.37903938244738
 31
0.0
  0
LINE
  5
112
330
2
100
AcDbEntity
  8
GAIKEI
  6
Continuous
100
AcDbLine
 10
12.65006926914156
 20
19.6790393824474
 30
0.0
 11
12.55006469150521
 21
19.6790393824474
 31
0.0
  0
LINE
  5
113
330
2
100
AcDbEntity
  8
GAIKEI
  6
Continuous
100
AcDbLine
 10
12.55006469150521
 20
20.27903709362897
 30
0.0
 11
12.55006469150521
 21
19.6790393824474
 31
0.0
  0
LINE
  5
114
330
2
100
AcDbEntity
  8
GAIKEI
  6
Continuous
100
AcDbLine
 10
12.65006926914156
 20
15.02903938244742
 30
0.0
 11
12.65006926914156
 21
20.22903938244741
 31
0.0
  0
LINE
  5
115
330
2
100
AcDbEntity
  8
GAIKEI
  6
Continuous
100
AcDbLine
 10
12.85006926914172
 20
14.92903938244739
 30
0.0
 11
12.85006926914172
 21
20.4290393824474
 31
0.0
  0
ARC
  5
116
330
2
100
AcDbEntity
  8
GAIKEI
  6
PHANTOM
 62
     1
100
AcDbCircle
 10
11.45006926914163
 20
20.02904014538677
 30
0.0
 40
0.1
100
AcDbArc
 50
0.0
 51
90.0
  0
LINE
  5
117
330
2
100
AcDbEntity
  8
GAIKEI
  6
Continuous
100
AcDbLine
 10
11.75006621720888
 20
20.37903938244738
 30
0.0
 11
11.65006469150512
 21
20.27904167126581
 31
0.0
  0
LINE
  5
118
330
2
100
AcDbEntity
  8
GAIKEI
  6
Continuous
100
AcDbLine
 10
11.65006926914168
 20
18.52903938244742
 30
0.0
 11
11.55006926914154
 21
18.4290393824474
 31
0.0
  0
LINE
  5
119
330
2
100
AcDbEntity
  8
GAIKEI
  6
Continuous
100
AcDbLine
 10
12.45006087674949
 20
20.37903938244738
 30
0.0
 11
11.75006621720888
 21
20.37903938244738
 31
0.0
  0
LINE
  5
11A
330
2
100
AcDbEntity
  8
GAIKEI
  6
Continuous
 62
     1
100
AcDbLine
 10
14.47006926914173
 20
13.39903938244742
 30
0.0
 11
14.47006926914173
 21
13.25903938244738
 31
0.0
  0
LINE
  5
11B
330
2
100
AcDbEntity
  8
GAIKEI
  6
Continuous
 62
     1
100
AcDbLine
 10
14.32006926914175
 20
13.18903938244739
 30
0.0
 11
14.32006926914175
 21
13.1090393824474
 31
0.0
  0
LINE
  5
11C
330
2
100
AcDbEntity
  8
GAIKEI
  6
Continuous
 62
     1
100
AcDbLine
 10
14.32006926914175
 20
13.5490393824474
 30
0.0
 11
14.32006926914175
 21
13.46903938244742
 31
0.0
  0
LINE
  5
11D
330
2
100
AcDbEntity
  8
GAIKEI
  6
Continuous
 62
     1
100
AcDbLine
 10
14.3900692691418
 20
13.39903938244742
 30
0.0
 11
14.47006926914173
 21
13.39903938244742
 31
0.0
  0
LINE
  5
11E
330
2
100
AcDbEntity
  8
GAIKEI
  6
Continuous
 62
     1
100
AcDbLine
 10
14.3900692691418
 20
13.25903938244738
 30
0.0
 11
14.47006926914173
 21
13.25903938244738
 31
0.0
  0
ARC
  5
11F
330
2
100
AcDbEntity
  8
GAIKEI
  6
Continuous
 62
     1
100
AcDbCircle
 10
14.3900692691418
 20
13.18903938244739
 30
0.0
 40
0.07
100
AcDbArc
 50
90.0
 51
180.0
  0
ARC
  5
120
330
2
100
AcDbEntity
  8
GAIKEI
  6
Continuous
 62
     1
100
AcDbCircle
 10
14.3900692691418
 20
13.46903938244742
 30
0.0
 40
0.07
100
AcDbArc
 50
180.0
 51
270.0
  0
LINE
  5
121
330
2
100
AcDbEntity
  8
GAIKEI
  6
Continuous
 62
     1
100
AcDbLine
 10
15.35006926914149
 20
12.62903938244738
 30
0.0
 11
15.35006926914149
 21
11.62903938244738
 31
0.0
  0
LINE
  5
122
330
2
100
AcDbEntity
  8
GAIKEI
  6
Continuous
 62
     1
100
AcDbLine
 10
14.03006926914167
 20
13.39903938244742
 30
0.0
 11
14.11006926914171
 21
13.39903938244742
 31
0.0
  0
LINE
  5
123
330
2
100
AcDbEntity
  8
GAIKEI
  6
Continuous
 62
     1
100
AcDbLine
 10
14.18006926914176
 20
13.5490393824474
 30
0.0
 11
14.18006926914176
 21
13.46903938244742
 31
0.0
  0
LINE
  5
124
330
2
100
AcDbEntity
  8
GAIKEI
  6
Continuous
 62
     1
100
AcDbLine
 10
14.03006926914167
 20
13.25903938244738
 30
0.0
 11
14.11006926914171
 21
13.25903938244738
 31
0.0
  0
LINE
  5
125
330
2
100
AcDbEntity
  8
GAIKEI
  6
Continuous
 62
     1
100
AcDbLine
 10
14.03006926914167
 20
13.39903938244742
 30
0.0
 11
14.03006926914167
 21
13.25903938244738
 31
0.0
  0
LINE
  5
126
330
2
100
AcDbEntity
  8
GAIKEI
  6
Continuous
 62
     1
100
AcDbLine
 10
14.18006926914176
 20
13.18903938244739
 30
0.0
 11
14.18006926914176
 21
13.1090393824474
 31
0.0
  0
LINE
  5
127
330
2
100
AcDbEntity
  8
GAIKEI
  6
Continuous
 62
     1
100
AcDbLine
 10
13.15006926914168
 20
11.62903938244738
 30
0.0
 11
13.15006926914168
 21
12.62903938244738
 31
0.0
  0
LINE
  5
128
330
2
100
AcDbEntity
  8
GAIKEI
  6
Continuous
 62
     1
100
AcDbLine
 10
15.35006926914149
 20
11.62903938244738
 30
0.0
 11
13.15006926914168
 21
11.62903938244738
 31
0.0
  0
LINE
  5
129
330
2
100
AcDbEntity
  8
GAIKEI
  6
Continuous
 62
     1
100
AcDbLine
 10
13.15006926914168
 20
12.62903938244738
 30
0.0
 11
15.35006926914149
 21
12.62903938244738
 31
0.0
  0
LINE
  5
12A
330
2
100
AcDbEntity
  8
GAIKEI
  6
Continuous
 62
     1
100
AcDbLine
 10
14.18006926914176
 20
13.1090393824474
 30
0.0
 11
14.32006926914175
 21
13.1090393824474
 31
0.0
  0
LINE
  5
12B
330
2
100
AcDbEntity
  8
GAIKEI
  6
Continuous
 62
     1
100
AcDbLine
 10
14.18006926914176
 20
13.5490393824474
 30
0.0
 11
14.32006926914175
 21
13.5490393824474
 31
0.0
  0
CIRCLE
  5
12C
330
2
100
AcDbEntity
  8
GAIKEI
  6
Continuous
 62
     1
100
AcDbCircle
 10
14.25006926914147
 20
13.32903938244737
 30
0.0
 40
0.4299999999999998
  0
CIRCLE
  5
12D
330
2
100
AcDbEntity
  8
GAIKEI
  6
Continuous
 62
     1
100
AcDbCircle
 10
14.25006926914147
 20
13.32903938244737
 30
0.0
 40
0.5
  0
ARC
  5
12E
330
2
100
AcDbEntity
  8
GAIKEI
  6
Continuous
 62
     1
100
AcDbCircle
 10
14.11006926914171
 20
13.18903938244739
 30
0.0
 40
0.07
100
AcDbArc
 50
0.0
 51
90.0
  0
ARC
  5
12F
330
2
100
AcDbEntity
  8
GAIKEI
  6
Continuous
 62
     1
100
AcDbCircle
 10
14.11006926914171
 20
13.46903938244742
 30
0.0
 40
0.07
100
AcDbArc
 50
270.0
 51
0.0
  0
LINE
  5
130
330
2
100
AcDbEntity
  8
GAIKEI
  6
Continuous
100
AcDbLine
 10
12.65006926914156
 20
10.27903938244742
 30
0.0
 11
12.55006469150521
 21
10.27903938244742
 31
0.0
  0
LINE
  5
131
330
2
100
AcDbEntity
  8
GAIKEI
  6
Continuous
100
AcDbLine
 10
12.85006926914172
 20
9.629039382447388
 30
0.0
 11
12.65006926914156
 21
9.629039382447388
 31
0.0
  0
LINE
  5
132
330
2
100
AcDbEntity
  8
GAIKEI
  6
Continuous
100
AcDbLine
 10
12.45005896969905
 20
9.579039382447376
 30
0.0
 11
12.55006469150521
 21
9.679049300916403
 31
0.0
  0
LINE
  5
133
330
2
100
AcDbEntity
  8
GAIKEI
  6
Continuous
100
AcDbLine
 10
11.75005820652859
 20
9.579039382447376
 30
0.0
 11
11.65006469150512
 21
9.679035186140595
 31
0.0
  0
ARC
  5
134
330
2
100
AcDbEntity
  8
GAIKEI
  6
PHANTOM
 62
     1
100
AcDbCircle
 10
11.45006926914163
 20
9.829040145386784
 30
0.0
 40
0.1
100
AcDbArc
 50
270.0
 51
0.0
  0
LINE
  5
135
330
2
100
AcDbEntity
  8
GAIKEI
  6
Continuous
100
AcDbLine
 10
11.65006926914168
 20
11.32903938244737
 30
0.0
 11
11.55006926914154
 21
11.42903938244739
 31
0.0
  0
LINE
  5
136
330
2
100
AcDbEntity
  8
GAIKEI
  6
Continuous
100
AcDbLine
 10
12.45005896969905
 20
9.579039382447376
 30
0.0
 11
11.75005820652859
 21
9.579039382447376
 31
0.0
  0
LINE
  5
137
330
2
100
AcDbEntity
  8
GAIKEI
  6
HIDDEN2
 62
     1
100
AcDbLine
 10
11.55006926914165
 20
20.02904014538677
 30
0.0
 11
11.55006926914165
 21
9.829040145386784
 31
0.0
  0
LINE
  5
138
330
2
100
AcDbEntity
  8
GAIKEI
  6
Continuous
100
AcDbLine
 10
12.85006926914172
 20
14.92903938244739
 30
0.0
 11
12.85006926914172
 21
9.429039382447399
 31
0.0
  0
LINE
  5
139
330
2
100
AcDbEntity
  8
GAIKEI
  6
Continuous
100
AcDbLine
 10
12.65006926914156
 20
14.92903938244739
 30
0.0
 11
12.65006926914156
 21
9.629039382447388
 31
0.0
  0
LINE
  5
13A
330
2
100
AcDbEntity
  8
GAIKEI
  6
Continuous
100
AcDbLine
 10
11.55006926914154
 20
11.42903938244739
 30
0.0
 11
11.55006926914154
 21
18.4290393824474
 31
0.0
  0
LINE
  5
13B
330
2
100
AcDbEntity
  8
GAIKEI
  6
Continuous
100
AcDbLine
 10
11.65006926914168
 20
11.32903938244737
 30
0.0
 11
11.65006926914168
 21
18.52903938244742
 31
0.0
  0
LINE
  5
13C
330
2
100
AcDbEntity
  8
GAIKEI
  6
Continuous
100
AcDbLine
 10
12.45006087674949
 20
20.37903938244738
 30
0.0
 11
12.45006087674949
 21
9.579039382447376
 31
0.0
  0
LINE
  5
13D
330
2
100
AcDbEntity
  8
GAIKEI
  6
Continuous
100
AcDbLine
 10
11.75006621720888
 20
20.37903938244738
 30
0.0
 11
11.75006621720888
 21
9.579039382447376
 31
0.0
  0
LINE
  5
13E
330
2
100
AcDbEntity
  8
GAIKEI
  6
Continuous
100
AcDbLine
 10
12.55006469150521
 20
19.6790393824474
 30
0.0
 11
12.55006469150521
 21
9.679049300916403
 31
0.0
  0
LINE
  5
13F
330
2
100
AcDbEntity
  8
GAIKEI
  6
Continuous
100
AcDbLine
 10
11.65006469150512
 20
20.27904167126581
 30
0.0
 11
11.65006469150512
 21
9.679035186140595
 31
0.0
  0
LINE
  5
140
330
2
100
AcDbEntity
  8
GAIKEI
  6
Continuous
100
AcDbLine
 10
15.15006438632929
 20
22.42904090832661
 30
0.0
 11
15.12527062981871
 21
22.36528553444219
 31
0.0
  0
LINE
  5
141
330
2
100
AcDbEntity
  8
GAIKEI
  6
Continuous
100
AcDbLine
 10
15.15006438632929
 20
22.42904090832661
 30
0.0
 11
15.21847109697296
 21
22.42904090832661
 31
0.0
  0
ARC
  5
142
330
2
100
AcDbEntity
  8
GAIKEI
  6
Continuous
100
AcDbCircle
 10
15.21847109697296
 20
22.32904090832659
 30
0.0
 40
0.1
100
AcDbArc
 50
90.0
 51
158.7494944928731
  0
LINE
  5
143
330
2
100
AcDbEntity
  8
GAIKEI
  6
Continuous
100
AcDbLine
 10
15.21847109697296
 20
22.42904090832661
 30
0.0
 11
18.75006438632931
 21
22.42904090832661
 31
0.0
  0
LINE
  5
144
330
2
100
AcDbEntity
  8
GAIKEI
  6
Continuous
100
AcDbLine
 10
37.19606926914173
 20
17.58904060315058
 30
0.0
 11
36.02552845473815
 21
17.58904060315058
 31
0.0
  0
LINE
  5
145
330
2
100
AcDbEntity
  8
GAIKEI
  6
Continuous
100
AcDbLine
 10
36.14482787509871
 20
15.30904182385359
 30
0.0
 11
37.19606926914173
 21
15.30904182385359
 31
0.0
  0
LINE
  5
146
330
2
100
AcDbEntity
  8
GAIKEI
  6
Continuous
100
AcDbLine
 10
36.03284764732313
 20
12.69232488142142
 30
0.0
 11
37.91006072421987
 21
12.69232488142142
 31
0.0
  0
LINE
  5
147
330
2
100
AcDbEntity
  8
GAIKEI
  6
Continuous
100
AcDbLine
 10
36.13120145419998
 20
14.5690224798318
 30
0.0
 11
37.91006072421987
 21
14.5690224798318
 31
0.0
  0
LINE
  5
148
330
2
100
AcDbEntity
  8
GAIKEI
  6
Continuous
100
AcDbLine
 10
23.35006438632933
 20
22.42904090832661
 30
0.0
 11
23.50966963240057
 21
20.6290409083266
 31
0.0
  0
LINE
  5
149
330
2
100
AcDbEntity
  8
GAIKEI
  6
Continuous
100
AcDbLine
 10
24.47040761233529
 20
22.35580529470519
 30
0.0
 11
24.95006438632936
 21
20.6290409083266
 31
0.0
  0
LINE
  5
14A
330
2
100
AcDbEntity
  8
GAIKEI
  6
Continuous
 62
     1
100
AcDbLine
 10
27.09686950107527
 20
17.72903938244741
 30
0.0
 11
36.00332702060654
 21
17.72903938244741
 31
0.0
  0
LINE
  5
14B
330
2
100
AcDbEntity
  8
GAIKEI
  6
Continuous
 62
     1
100
AcDbLine
 10
27.09686950107527
 20
17.62903938244738
 30
0.0
 11
36.00856994052856
 21
17.62903938244738
 31
0.0
  0
LINE
  5
14C
330
2
100
AcDbEntity
  8
GAIKEI
  6
Continuous
 62
     1
100
AcDbLine
 10
27.09686797519589
 20
12.12903938244738
 30
0.0
 11
36.00332854648513
 21
12.12903938244738
 31
0.0
  0
LINE
  5
14D
330
2
100
AcDbEntity
  8
GAIKEI
  6
Continuous
 62
     1
100
AcDbLine
 10
27.09686797519589
 20
12.22903938244741
 30
0.0
 11
36.00332854648513
 21
12.22903938244741
 31
0.0
  0
LINE
  5
14E
330
2
100
AcDbEntity
  8
GAIKEI
  6
Continuous
100
AcDbLine
 10
24.95006438632936
 20
20.42904090832661
 30
0.0
 11
24.95006438632936
 21
20.6290409083266
 31
0.0
  0
LINE
  5
14F
330
2
100
AcDbEntity
  8
GAIKEI
  6
Continuous
100
AcDbLine
 10
23.50966963240057
 20
20.6290409083266
 30
0.0
 11
23.50966963240057
 21
20.42904090832661
 31
0.0
  0
ARC
  5
150
330
2
100
AcDbEntity
  8
GAIKEI
  6
Continuous
100
AcDbCircle
 10
35.47699950595813
 20
20.02903938244742
 30
0.0
 40
0.4
100
AcDbArc
 50
3.000005419563264
 51
89.99999567427954
  0
POINT
  5
151
330
2
100
AcDbEntity
  8
GAIKEI
100
AcDbPoint
 10
36.00332702060654
 20
17.72903938244741
 30
0.0
  0
LINE
  5
152
330
2
100
AcDbEntity
  8
GAIKEI
  6
Continuous
100
AcDbLine
 10
36.14482787509871
 20
15.02903938244742
 30
0.0
 11
35.88167785068469
 21
20.05024604748638
 31
0.0
  0
POINT
  5
153
330
2
100
AcDbEntity
  8
GAIKEI
100
AcDbPoint
 10
36.00332854648513
 20
12.12903938244738
 30
0.0
  0
ARC
  5
154
330
2
100
AcDbEntity
  8
GAIKEI
  6
Continuous
100
AcDbCircle
 10
35.48224090000087
 20
9.829039382447376
 30
0.0
 40
0.4
100
AcDbArc
 50
270.0000043257204
 51
356.9999945804367
  0
LINE
  5
155
330
2
100
AcDbEntity
  8
GAIKEI
  6
Continuous
100
AcDbLine
 10
35.88169158359471
 20
9.808102797974811
 30
0.0
 11
36.15006926914168
 21
14.92904090832621
 31
0.0
  0
LINE
  5
156
330
2
100
AcDbEntity
  8
GAIKEI
  6
Continuous
100
AcDbLine
 10
24.45006438632935
 20
22.42904090832661
 30
0.0
 11
24.47040761233529
 21
22.35580529470519
 31
0.0
  0
LINE
  5
157
330
2
100
AcDbEntity
  8
GAIKEI
  6
Continuous
100
AcDbLine
 10
24.37405582137194
 20
22.42904090832661
 30
0.0
 11
24.45006438632935
 21
22.42904090832661
 31
0.0
  0
ARC
  5
158
330
2
100
AcDbEntity
  8
GAIKEI
  6
Continuous
100
AcDbCircle
 10
24.37405582137194
 20
22.32904090832659
 30
0.0
 40
0.1
100
AcDbArc
 50
15.5241109967499
 51
90.0
  0
LINE
  5
159
330
2
100
AcDbEntity
  8
GAIKEI
  6
Continuous
100
AcDbLine
 10
37.29606926914175
 20
15.40904182385361
 30
0.0
 11
37.29606926914175
 21
17.48904060315061
 31
0.0
  0
ARC
  5
15A
330
2
100
AcDbEntity
  8
GAIKEI
  6
Continuous
100
AcDbCircle
 10
37.19606926914173
 20
15.40904182385361
 30
0.0
 40
0.1
100
AcDbArc
 50
270.0
 51
0.0
  0
ARC
  5
15B
330
2
100
AcDbEntity
  8
GAIKEI
  6
Continuous
100
AcDbCircle
 10
37.19606926914173
 20
17.48904060315061
 30
0.0
 40
0.1
100
AcDbArc
 50
0.0
 51
90.0
  0
LINE
  5
15C
330
2
100
AcDbEntity
  8
GAIKEI
  6
Continuous
100
AcDbLine
 10
37.91006072421987
 20
14.5690224798318
 30
0.0
 11
37.91006072421987
 21
12.69232488142142
 31
0.0
  0
CIRCLE
  5
15D
330
2
100
AcDbEntity
  8
GAIKEI
  6
Continuous
 62
     1
100
AcDbCircle
 10
37.05006316562605
 20
13.61902247983181
 30
0.0
 40
0.2
  0
LINE
  5
15E
330
2
100
AcDbEntity
  8
WAKU
 62
     4
100
AcDbLine
 10
-61.69140702572986
 20
-18.10944330041405
 30
0.0
 11
-61.69140702572986
 21
-53.10944330041405
 31
0.0
  0
TEXT
  5
160
330
2
100
AcDbEntity
  8
MOJI1
100
AcDbText
 10
-19.05521141823874
 20
-37.04631990845536
 30
0.0
 40
3.0
  1
１．５ルクス（Ｆ１．４）
  7
KANJI
100
AcDbText
  0
TEXT
  5
162
330
2
100
AcDbEntity
  8
MOJI1
100
AcDbText
 10
-58.98582579521144
 20
-36.9774868629558
 30
0.0
 40
3.0
  1
最低照度
  7
KANJI
100
AcDbText
  0
LINE
  5
163
330
2
100
AcDbEntity
  8
WAKU
 62
     4
100
AcDbLine
 10
-21.69140702572986
 20
-53.10944330041405
 30
0.0
 11
-21.69140702572986
 21
-18.10944330041405
 31
0.0
  0
LINE
  5
164
330
2
100
AcDbEntity
  8
WAKU
 62
     4
100
AcDbLine
 10
63.30859297427014
 20
-53.10944330041405
 30
0.0
 11
63.30859297427014
 21
-18.10944330041405
 31
0.0
  0
LINE
  5
165
330
2
100
AcDbEntity
  8
WAKU
 62
     1
100
AcDbLine
 10
-61.69140702572986
 20
-38.10944330041405
 30
0.0
 11
63.30859297427014
 21
-38.10944330041405
 31
0.0
  0
LINE
  5
166
330
2
100
AcDbEntity
  8
WAKU
 62
     1
100
AcDbLine
 10
-61.69140702572986
 20
-43.10944330041405
 30
0.0
 11
63.30859297427014
 21
-43.10944330041405
 31
0.0
  0
LINE
  5
167
330
2
100
AcDbEntity
  8
WAKU
 62
     1
100
AcDbLine
 10
-61.69140702572986
 20
-48.10944330041405
 30
0.0
 11
63.30859297427014
 21
-48.10944330041405
 31
0.0
  0
LINE
  5
168
330
2
100
AcDbEntity
  8
WAKU
 62
     4
100
AcDbLine
 10
-61.69140702572986
 20
-53.10944330041405
 30
0.0
 11
63.30859297427014
 21
-53.10944330041405
 31
0.0
  0
TEXT
  5
169
330
2
100
AcDbEntity
  8
MOJI1
100
AcDbText
 10
-58.98582579521144
 20
-47.10944330041383
 30
0.0
 40
3.0
  1
機　能
100
AcDbText
  0
TEXT
  5
16A
330
2
100
AcDbEntity
  8
MOJI1
100
AcDbText
 10
-19.05521141823874
 20
-42.04631990845536
 30
0.0
 40
3.0
  1
１．１ルクス（Ｆ１．２）
  7
KANJI
100
AcDbText
  0
TEXT
  5
16B
330
2
100
AcDbEntity
  8
MOJI1
100
AcDbText
 10
-18.98582579521144
 20
-46.95359090553137
 30
0.0
 40
3.0
  1
輪郭補正、逆光補正
  7
KANJI
100
AcDbText
  0
LINE
  5
16C
330
2
100
AcDbEntity
  8
WAKU
 62
     1
100
AcDbLine
 10
-61.69140702572986
 20
-23.10944330041405
 30
0.0
 11
63.30859297427014
 21
-23.10944330041405
 31
0.0
  0
LINE
  5
16D
330
2
100
AcDbEntity
  8
WAKU
 62
     1
100
AcDbLine
 10
-61.69140702572986
 20
-28.10944330041405
 30
0.0
 11
63.30859297427014
 21
-28.10944330041405
 31
0.0
  0
LINE
  5
16E
330
2
100
AcDbEntity
  8
WAKU
 62
     1
100
AcDbLine
 10
-61.69140702572986
 20
-33.10944330041405
 30
0.0
 11
63.30859297427014
 21
-33.10944330041405
 31
0.0
  0
LINE
  5
16F
330
2
100
AcDbEntity
  8
WAKU
 62
     4
100
AcDbLine
 10
63.30859297427014
 20
-18.10944330041405
 30
0.0
 11
-61.69140702572986
 21
-18.10944330041405
 31
0.0
  0
TEXT
  5
170
330
2
100
AcDbEntity
  8
MOJI1
100
AcDbText
 10
-18.98582579521121
 20
-32.1094433004136
 30
0.0
 40
3.0
  1
水平４８０本、垂直３５０本以上（中心部）
100
AcDbText
  0
TEXT
  5
171
330
2
100
AcDbEntity
  8
MOJI1
100
AcDbText
 10
-18.98582579521144
 20
-26.95359090553137
 30
0.0
 40
3.0
  1
１／３型インターラインＣＣＤ
  7
KANJI
100
AcDbText
  0
TEXT
  5
172
330
2
100
AcDbEntity
  8
MOJI1
100
AcDbText
 10
-58.98582579521144
 20
-26.98090560612712
 30
0.0
 40
3.0
  1
撮像素子
  7
KANJI
100
AcDbText
  0
TEXT
  5
173
330
2
100
AcDbEntity
  8
MOJI1
100
AcDbText
 10
-58.98582579521144
 20
-21.98432434929844
 30
0.0
 40
3.0
  1
電　源
  7
KANJI
100
AcDbText
  0
TEXT
  5
174
330
2
100
AcDbEntity
  8
MOJI1
100
AcDbText
 10
-58.98582579521144
 20
-32.10944330041383
 30
0.0
 40
3.0
  1
解像度
100
AcDbText
  0
TEXT
  5
175
330
2
100
AcDbEntity
  8
MOJI1
100
AcDbText
 10
-19.05521141823874
 20
-22.053157394798
 30
0.0
 40
3.0
  1
ＤＣ１２Ｖ  
  7
KANJI
100
AcDbText
  0
ENDSEC
  0
SECTION
  2
OBJECTS
  0
DICTIONARY
  5
9
330
0
100
AcDbDictionary
281
     1
  3
ACAD_GROUP
350
31
  3
ACAD_LAYOUT
350
D
  3
ACAD_MLINESTYLE
350
32
  3
ACAD_PLOTSETTINGS
350
33
  3
ACAD_PLOTSTYLENAME
350
8
  3
AcDbVariableDictionary
350
178
  0
DICTIONARY
  5
19
330
18
100
AcDbDictionary
280
     1
281
     1
  3
ACAD_LAYERFILTERS
360
1A
  3
ACAD_LAYERSTATES
360
1B
  0
DICTIONARY
  5
3
330
2
100
AcDbDictionary
280
     1
281
     1
  0
DICTIONARY
  5
11
330
10
100
AcDbDictionary
280
     1
281
     1
  0
DICTIONARY
  5
31
102
{ACAD_REACTORS
330
9
102
}
330
9
100
AcDbDictionary
281
     1
  0
DICTIONARY
  5
D
102
{ACAD_REACTORS
330
9
102
}
330
9
100
AcDbDictionary
281
     1
  3
Model
350
C
  3
ﾚｲｱｳﾄ1
350
15
  0
DICTIONARY
  5
32
102
{ACAD_REACTORS
330
9
102
}
330
9
100
AcDbDictionary
281
     1
  3
STANDARD
350
35
  0
DICTIONARY
  5
33
102
{ACAD_REACTORS
330
9
102
}
330
9
100
AcDbDictionary
281
     1
  0
ACDBDICTIONARYWDFLT
  5
8
102
{ACAD_REACTORS
330
9
102
}
330
9
100
AcDbDictionary
281
     1
  3
Normal
350
7
100
AcDbDictionaryWithDefault
340
7
  0
DICTIONARY
  5
178
102
{ACAD_REACTORS
330
9
102
}
330
9
100
AcDbDictionary
281
     1
  3
DIMASSOC
350
17A
  3
HIDETEXT
350
179
  0
DICTIONARY
  5
1A
102
{ACAD_REACTORS
330
19
102
}
330
19
100
AcDbDictionary
280
     1
281
     1
  0
DICTIONARY
  5
1B
102
{ACAD_REACTORS
330
19
102
}
330
19
100
AcDbDictionary
281
     1
  0
LAYOUT
  5
C
102
{ACAD_XDICTIONARY
360
E
102
}
102
{ACAD_REACTORS
330
D
102
}
330
D
100
AcDbPlotSettings
  1

  2
\\URANUS\8FPAM09
  4
A4
  6

 40
4.180416584014892
 41
4.349743366241455
 42
4.222747802734375
 43
4.349761962890625
 44
210.0156707763671
 45
297.0106506347656
 46
6.099999999999999
 47
0.0
 48
0.0
 49
0.0
140
0.0
141
0.0
142
1.0
143
1.367652440546334
 70
 11956
 72
     1
 73
     0
 74
     1
  7
tmsacad.ctb
 75
     0
147
0.7311799184890361
148
0.523601377898558
149
0.0257304683218536
100
AcDbLayout
  1
Model
 70
     1
 71
     0
 10
0.0
 20
0.0
 11
12.0
 21
9.0
 12
0.0
 22
0.0
 32
0.0
 14
0.0
 24
0.0
 34
0.0
 15
0.0
 25
0.0
 35
0.0
146
0.0
 13
0.0
 23
0.0
 33
0.0
 16
1.0
 26
0.0
 36
0.0
 17
0.0
 27
1.0
 37
0.0
 76
     0
330
2
  0
LAYOUT
  5
15
102
{ACAD_XDICTIONARY
360
16
102
}
102
{ACAD_REACTORS
330
D
102
}
330
D
100
AcDbPlotSettings
  1

  2
C:\Program Files\ACAD2000\plotters\DWF ePlot.pc3
  4

  6

 40
0.0
 41
0.0
 42
0.0
 43
0.0
 44
0.0
 45
0.0
 46
0.0
 47
0.0
 48
0.0
 49
0.0
140
0.0
141
0.0
142
1.0
143
1.0
 70
   688
 72
     0
 73
     0
 74
     5
  7
tmsacad.ctb
 75
    16
147
1.0
148
0.0
149
0.0
100
AcDbLayout
  1
ﾚｲｱｳﾄ1
 70
     1
 71
     1
 10
0.0
 20
0.0
 11
12.0
 21
9.0
 12
0.0
 22
0.0
 32
0.0
 14
1.000000000000000E+20
 24
1.000000000000000E+20
 34
1.000000000000000E+20
 15
-1.000000000000000E+20
 25
-1.000000000000000E+20
 35
-1.000000000000000E+20
146
0.0
 13
0.0
 23
0.0
 33
0.0
 16
1.0
 26
0.0
 36
0.0
 17
0.0
 27
1.0
 37
0.0
 76
     0
330
10
  0
MLINESTYLE
  5
35
102
{ACAD_REACTORS
330
32
102
}
330
32
100
AcDbMlineStyle
  2
STANDARD
 70
     0
  3

 62
   256
 51
90.0
 52
90.0
 71
     2
 49
0.5
 62
   256
  6
BYLAYER
 49
-0.5
 62
   256
  6
BYLAYER
  0
ACDBPLACEHOLDER
  5
7
102
{ACAD_REACTORS
330
8
102
}
330
8
  0
DICTIONARYVAR
  5
17A
102
{ACAD_REACTORS
330
178
102
}
330
178
100
DictionaryVariables
280
     0
  1
1
  0
DICTIONARYVAR
  5
179
102
{ACAD_REACTORS
330
178
102
}
330
178
100
DictionaryVariables
280
     0
  1
1
  0
DICTIONARY
  5
E
330
C
100
AcDbDictionary
280
     1
281
     1
  3
ACAD_XREC_ROUNDTRIP
360
F
  0
DICTIONARY
  5
16
330
15
100
AcDbDictionary
280
     1
281
     1
  3
ACAD_XREC_ROUNDTRIP
360
17
  0
XRECORD
  5
F
102
{ACAD_REACTORS
330
E
102
}
330
E
100
AcDbXrecord
280
     1
102
SHADEPLOT
 70
     0
102
SHADEPLOTRESLEVEL
 70
     2
102
SHADEPLOTCUSTOMDPI
 70
   300
  0
XRECORD
  5
17
102
{ACAD_REACTORS
330
16
102
}
330
16
100
AcDbXrecord
280
     1
102
SHADEPLOT
 70
     0
102
SHADEPLOTRESLEVEL
 70
     2
102
SHADEPLOTCUSTOMDPI
 70
   300
  0
ENDSEC
  0
EOF
