  0
SECTION
  2
HEADER
  9
$ACADVER
  1
AC1015
  9
$ACADMAINTVER
 70
    20
  9
$DWGCODEPAGE
  3
ANSI_932
  9
$INSBASE
 10
0.4999999440410648
 20
372.5008351249344
 30
0.0
  9
$EXTMIN
 10
-63.10638337292051
 20
-54.61798032910792
 30
-0.0015258207003583
  9
$EXTMAX
 10
61.9271856196309
 20
59.10905497999522
 30
0.0000000349246037
  9
$LIMMIN
 10
0.0
 20
0.0
  9
$LIMMAX
 10
420.0
 20
297.0
  9
$ORTHOMODE
 70
     1
  9
$REGENMODE
 70
     0
  9
$FILLMODE
 70
     1
  9
$QTEXTMODE
 70
     0
  9
$MIRRTEXT
 70
     0
  9
$LTSCALE
 40
1.0
  9
$ATTMODE
 70
     1
  9
$TEXTSIZE
 40
2.5
  9
$TRACEWID
 40
1.0
  9
$TEXTSTYLE
  7
Standard
  9
$CLAYER
  8
GAIKEI
  9
$CELTYPE
  6
ByLayer
  9
$CECOLOR
 62
   256
  9
$CELTSCALE
 40
1.0
  9
$DISPSILH
 70
     0
  9
$DIMSCALE
 40
1.0
  9
$DIMASZ
 40
2.0
  9
$DIMEXO
 40
2.0
  9
$DIMDLI
 40
8.0
  9
$DIMRND
 40
0.0
  9
$DIMDLE
 40
0.0
  9
$DIMEXE
 40
2.0
  9
$DIMTP
 40
0.0
  9
$DIMTM
 40
0.0
  9
$DIMTXT
 40
2.5
  9
$DIMCEN
 40
0.0
  9
$DIMTSZ
 40
0.0
  9
$DIMTOL
 70
     0
  9
$DIMLIM
 70
     0
  9
$DIMTIH
 70
     0
  9
$DIMTOH
 70
     0
  9
$DIMSE1
 70
     0
  9
$DIMSE2
 70
     0
  9
$DIMTAD
 70
     3
  9
$DIMZIN
 70
     0
  9
$DIMBLK
  1

  9
$DIMASO
 70
     1
  9
$DIMSHO
 70
     1
  9
$DIMPOST
  1

  9
$DIMAPOST
  1

  9
$DIMALT
 70
     0
  9
$DIMALTD
 70
     2
  9
$DIMALTF
 40
25.4
  9
$DIMLFAC
 40
1.0
  9
$DIMTOFL
 70
     1
  9
$DIMTVP
 40
0.0
  9
$DIMTIX
 70
     0
  9
$DIMSOXD
 70
     0
  9
$DIMSAH
 70
     1
  9
$DIMBLK1
  1
OPEN30
  9
$DIMBLK2
  1
OPEN30
  9
$DIMSTYLE
  2
STANDARD
  9
$DIMCLRD
 70
     0
  9
$DIMCLRE
 70
     0
  9
$DIMCLRT
 70
     0
  9
$DIMTFAC
 40
1.0
  9
$DIMGAP
 40
0.5
  9
$DIMJUST
 70
     0
  9
$DIMSD1
 70
     0
  9
$DIMSD2
 70
     0
  9
$DIMTOLJ
 70
     1
  9
$DIMTZIN
 70
     0
  9
$DIMALTZ
 70
     0
  9
$DIMALTTZ
 70
     0
  9
$DIMUPT
 70
     0
  9
$DIMDEC
 70
     4
  9
$DIMTDEC
 70
     4
  9
$DIMALTU
 70
     2
  9
$DIMALTTD
 70
     2
  9
$DIMTXSTY
  7
Standard
  9
$DIMAUNIT
 70
     0
  9
$DIMADEC
 70
     0
  9
$DIMALTRND
 40
0.0
  9
$DIMAZIN
 70
     0
  9
$DIMDSEP
 70
    46
  9
$DIMATFIT
 70
     3
  9
$DIMFRAC
 70
     0
  9
$DIMLDRBLK
  1
OPEN30
  9
$DIMLUNIT
 70
     2
  9
$DIMLWD
 70
    -2
  9
$DIMLWE
 70
    -2
  9
$DIMTMOVE
 70
     0
  9
$LUNITS
 70
     2
  9
$LUPREC
 70
     4
  9
$SKETCHINC
 40
1.0
  9
$FILLETRAD
 40
0.0
  9
$AUNITS
 70
     0
  9
$AUPREC
 70
     0
  9
$MENU
  1
.
  9
$ELEVATION
 40
0.0
  9
$PELEVATION
 40
0.0
  9
$THICKNESS
 40
0.0
  9
$LIMCHECK
 70
     0
  9
$CHAMFERA
 40
0.0
  9
$CHAMFERB
 40
0.0
  9
$CHAMFERC
 40
0.0
  9
$CHAMFERD
 40
0.0
  9
$SKPOLY
 70
     0
  9
$TDCREATE
 40
2454349.434269746
  9
$TDUCREATE
 40
2454349.059269746
  9
$TDUPDATE
 40
2455030.621454942
  9
$TDUUPDATE
 40
2455030.246454942
  9
$TDINDWG
 40
0.2928814699
  9
$TDUSRTIMER
 40
0.2928814699
  9
$USRTIMER
 70
     1
  9
$ANGBASE
 50
0.0
  9
$ANGDIR
 70
     0
  9
$PDMODE
 70
     0
  9
$PDSIZE
 40
0.0
  9
$PLINEWID
 40
0.0
  9
$SPLFRAME
 70
     0
  9
$SPLINETYPE
 70
     6
  9
$SPLINESEGS
 70
     8
  9
$HANDSEED
  5
1AC
  9
$SURFTAB1
 70
     6
  9
$SURFTAB2
 70
     6
  9
$SURFTYPE
 70
     6
  9
$SURFU
 70
     6
  9
$SURFV
 70
     6
  9
$UCSBASE
  2

  9
$UCSNAME
  2

  9
$UCSORG
 10
0.0
 20
0.0
 30
0.0
  9
$UCSXDIR
 10
1.0
 20
0.0
 30
0.0
  9
$UCSYDIR
 10
0.0
 20
1.0
 30
0.0
  9
$UCSORTHOREF
  2

  9
$UCSORTHOVIEW
 70
     0
  9
$UCSORGTOP
 10
0.0
 20
0.0
 30
0.0
  9
$UCSORGBOTTOM
 10
0.0
 20
0.0
 30
0.0
  9
$UCSORGLEFT
 10
0.0
 20
0.0
 30
0.0
  9
$UCSORGRIGHT
 10
0.0
 20
0.0
 30
0.0
  9
$UCSORGFRONT
 10
0.0
 20
0.0
 30
0.0
  9
$UCSORGBACK
 10
0.0
 20
0.0
 30
0.0
  9
$PUCSBASE
  2

  9
$PUCSNAME
  2

  9
$PUCSORG
 10
0.0
 20
0.0
 30
0.0
  9
$PUCSXDIR
 10
1.0
 20
0.0
 30
0.0
  9
$PUCSYDIR
 10
0.0
 20
1.0
 30
0.0
  9
$PUCSORTHOREF
  2

  9
$PUCSORTHOVIEW
 70
     0
  9
$PUCSORGTOP
 10
0.0
 20
0.0
 30
0.0
  9
$PUCSORGBOTTOM
 10
0.0
 20
0.0
 30
0.0
  9
$PUCSORGLEFT
 10
0.0
 20
0.0
 30
0.0
  9
$PUCSORGRIGHT
 10
0.0
 20
0.0
 30
0.0
  9
$PUCSORGFRONT
 10
0.0
 20
0.0
 30
0.0
  9
$PUCSORGBACK
 10
0.0
 20
0.0
 30
0.0
  9
$USERI1
 70
     0
  9
$USERI2
 70
     0
  9
$USERI3
 70
     0
  9
$USERI4
 70
     0
  9
$USERI5
 70
     0
  9
$USERR1
 40
0.0
  9
$USERR2
 40
0.0
  9
$USERR3
 40
0.0
  9
$USERR4
 40
0.0
  9
$USERR5
 40
0.0
  9
$WORLDVIEW
 70
     1
  9
$SHADEDGE
 70
     3
  9
$SHADEDIF
 70
    70
  9
$TILEMODE
 70
     1
  9
$MAXACTVP
 70
    64
  9
$PINSBASE
 10
0.0
 20
0.0
 30
0.0
  9
$PLIMCHECK
 70
     0
  9
$PEXTMIN
 10
0.0
 20
0.0
 30
0.0
  9
$PEXTMAX
 10
0.0
 20
0.0
 30
0.0
  9
$PLIMMIN
 10
0.0
 20
0.0
  9
$PLIMMAX
 10
12.0
 20
9.0
  9
$UNITMODE
 70
     0
  9
$VISRETAIN
 70
     1
  9
$PLINEGEN
 70
     0
  9
$PSLTSCALE
 70
     1
  9
$TREEDEPTH
 70
  3020
  9
$CMLSTYLE
  2
Standard
  9
$CMLJUST
 70
     0
  9
$CMLSCALE
 40
20.0
  9
$PROXYGRAPHICS
 70
     1
  9
$MEASUREMENT
 70
     1
  9
$CELWEIGHT
370
    -1
  9
$ENDCAPS
280
     0
  9
$JOINSTYLE
280
     0
  9
$LWDISPLAY
290
     0
  9
$INSUNITS
 70
     4
  9
$HYPERLINKBASE
  1

  9
$STYLESHEET
  1

  9
$XEDIT
290
     1
  9
$CEPSNTYPE
380
     0
  9
$PSTYLEMODE
290
     1
  9
$FINGERPRINTGUID
  2
{FDEAD578-A652-11D2-9A35-0060089B3A3F}
  9
$VERSIONGUID
  2
{D7C0D844-AC8A-406B-9942-29C2CEA74C68}
  9
$EXTNAMES
290
     1
  9
$PSVPSCALE
 40
0.0
  9
$OLESTARTUP
290
     0
  0
ENDSEC
  0
SECTION
  2
CLASSES
  0
CLASS
  1
ACDBDICTIONARYWDFLT
  2
AcDbDictionaryWithDefault
  3
ObjectDBX Classes
 90
        0
280
     0
281
     0
  0
CLASS
  1
ACDBPLACEHOLDER
  2
AcDbPlaceHolder
  3
ObjectDBX Classes
 90
        0
280
     0
281
     0
  0
CLASS
  1
LAYOUT
  2
AcDbLayout
  3
ObjectDBX Classes
 90
        0
280
     0
281
     0
  0
CLASS
  1
DICTIONARYVAR
  2
AcDbDictionaryVar
  3
ObjectDBX Classes
 90
        0
280
     0
281
     0
  0
CLASS
  1
SORTENTSTABLE
  2
AcDbSortentsTable
  3
ObjectDBX Classes
 90
    32768
280
     0
281
     0
  0
ENDSEC
  0
SECTION
  2
TABLES
  0
TABLE
  2
VPORT
  5
1B
330
0
100
AcDbSymbolTable
 70
     3
  0
VPORT
  5
1A4
330
1B
100
AcDbSymbolTableRecord
100
AcDbViewportTableRecord
  2
*Active
 70
     0
 10
0.0
 20
0.0
 11
1.0
 21
1.0
 12
-0.5895988766448
 22
2.245537325443649
 13
0.0
 23
0.0
 14
10.0
 24
10.0
 15
10.0
 25
10.0
 16
0.0
 26
0.0
 36
1.0
 17
0.0
 27
0.0
 37
0.0
 40
114.5985068440388
 41
1.406649616368286
 42
50.0
 43
0.0
 44
0.0
 50
0.0
 51
0.0
 71
     0
 72
  1000
 73
     1
 74
     2
 75
     0
 76
     0
 77
     0
 78
     0
281
     0
 65
     1
110
0.0
120
0.0
130
0.0
111
1.0
121
0.0
131
0.0
112
0.0
122
1.0
132
0.0
 79
     0
146
0.0
  0
ENDTAB
  0
TABLE
  2
LTYPE
  5
16
330
0
100
AcDbSymbolTable
 70
     2
  0
LTYPE
  5
17
330
16
100
AcDbSymbolTableRecord
100
AcDbLinetypeTableRecord
  2
ByBlock
 70
     0
  3

 72
    65
 73
     0
 40
0.0
  0
LTYPE
  5
18
330
16
100
AcDbSymbolTableRecord
100
AcDbLinetypeTableRecord
  2
ByLayer
 70
     0
  3

 72
    65
 73
     0
 40
0.0
  0
LTYPE
  5
8
330
16
100
AcDbSymbolTableRecord
100
AcDbLinetypeTableRecord
  2
Continuous
 70
     0
  3
Solid line
 72
    65
 73
     0
 40
0.0
  0
LTYPE
  5
A6
330
16
100
AcDbSymbolTableRecord
100
AcDbLinetypeTableRecord
  2
HIDDEN2
 70
     0
  3
Hidden (.5x) _ _ _ _ _ _ _ _ _ _ _ _ _ _ _ _ _
 72
    65
 73
     2
 40
1.399999999999999
 49
0.7
 74
     0
 49
-0.7
 74
     0
  0
ENDTAB
  0
TABLE
  2
LAYER
  5
10
102
{ACAD_XDICTIONARY
360
11
102
}
330
0
100
AcDbSymbolTable
 70
     7
  0
LAYER
  5
4
330
10
100
AcDbSymbolTableRecord
100
AcDbLayerTableRecord
  2
0
 70
     0
 62
     7
  6
Continuous
370
    -3
390
5
  0
LAYER
  5
43
330
10
100
AcDbSymbolTableRecord
100
AcDbLayerTableRecord
  2
WAKU
 70
     0
 62
     4
  6
Continuous
370
    -3
390
5
  0
LAYER
  5
30
330
10
100
AcDbSymbolTableRecord
100
AcDbLayerTableRecord
  2
MOJI1
 70
     0
 62
     2
  6
Continuous
370
    -3
390
5
  0
LAYER
  5
2D
330
10
100
AcDbSymbolTableRecord
100
AcDbLayerTableRecord
  2
GAIKEI
 70
     0
 62
     7
  6
Continuous
370
    -3
390
5
  0
LAYER
  5
50
330
10
100
AcDbSymbolTableRecord
100
AcDbLayerTableRecord
  2
Defpoints
 70
     0
 62
     7
  6
Continuous
290
     0
370
    -3
390
5
  0
LAYER
  5
32
330
10
100
AcDbSymbolTableRecord
100
AcDbLayerTableRecord
  2
TOUROKU
 70
     0
 62
     1
  6
Continuous
370
    -3
390
5
  0
LAYER
  5
46
330
10
100
AcDbSymbolTableRecord
100
AcDbLayerTableRecord
  2
SUNPO
 70
     0
 62
     3
  6
Continuous
370
    -3
390
5
  0
ENDTAB
  0
TABLE
  2
STYLE
  5
13
330
0
100
AcDbSymbolTable
 70
     1
  0
STYLE
  5
14
330
13
100
AcDbSymbolTableRecord
100
AcDbTextStyleTableRecord
  2
Standard
 70
     0
 40
0.0
 41
1.0
 50
0.0
 71
     0
 42
2.5
  3
MONOTXT.shx
  4
BIGFONT.shx
  0
ENDTAB
  0
TABLE
  2
VIEW
  5
19
330
0
100
AcDbSymbolTable
 70
     0
  0
ENDTAB
  0
TABLE
  2
UCS
  5
1A
330
0
100
AcDbSymbolTable
 70
     0
  0
ENDTAB
  0
TABLE
  2
APPID
  5
1D
330
0
100
AcDbSymbolTable
 70
     2
  0
APPID
  5
1E
330
1D
100
AcDbSymbolTableRecord
100
AcDbRegAppTableRecord
  2
ACAD
 70
     0
  0
APPID
  5
16E
330
1D
100
AcDbSymbolTableRecord
100
AcDbRegAppTableRecord
  2
DCO15
 70
     0
  0
ENDTAB
  0
TABLE
  2
DIMSTYLE
  5
1F
330
0
100
AcDbSymbolTable
 70
     1
100
AcDbDimStyleTable
 71
     1
340
20
  0
DIMSTYLE
105
20
102
{ACAD_REACTORS
330
61
330
54
330
45
102
}
330
1F
100
AcDbSymbolTableRecord
100
AcDbDimStyleTableRecord
  2
STANDARD
 70
     0
 40
0.0
 41
2.0
 42
2.0
 43
8.0
 44
2.0
 73
     0
 74
     0
 77
     3
140
3.0
141
0.0
173
     1
279
     2
288
     1
340
14
341
21
343
21
344
21
  0
ENDTAB
  0
TABLE
  2
BLOCK_RECORD
  5
1
330
0
100
AcDbSymbolTable
 70
     7
  0
BLOCK_RECORD
  5
2
330
1
100
AcDbSymbolTableRecord
100
AcDbBlockTableRecord
  2
*Model_Space
340
A
  0
BLOCK_RECORD
  5
C
330
1
100
AcDbSymbolTableRecord
100
AcDbBlockTableRecord
  2
*Paper_Space
340
F
  0
BLOCK_RECORD
  5
21
330
1
100
AcDbSymbolTableRecord
100
AcDbBlockTableRecord
  2
_OPEN30
340
0
102
{BLKREFS
331
67
331
68
331
5A
331
5B
331
4C
331
4D
331
180
331
181
331
18C
331
18D
331
198
331
199
102
}
  0
BLOCK_RECORD
  5
62
330
1
100
AcDbSymbolTableRecord
100
AcDbBlockTableRecord
  2
*D1
340
0
  0
BLOCK_RECORD
  5
55
330
1
100
AcDbSymbolTableRecord
100
AcDbBlockTableRecord
  2
*D2
340
0
  0
BLOCK_RECORD
  5
47
330
1
100
AcDbSymbolTableRecord
100
AcDbBlockTableRecord
  2
*D3
340
0
  0
BLOCK_RECORD
  5
17C
330
1
100
AcDbSymbolTableRecord
100
AcDbBlockTableRecord
  2
*D4
340
0
  0
BLOCK_RECORD
  5
188
330
1
100
AcDbSymbolTableRecord
100
AcDbBlockTableRecord
  2
*D5
340
0
  0
BLOCK_RECORD
  5
194
330
1
100
AcDbSymbolTableRecord
100
AcDbBlockTableRecord
  2
*D6
340
0
  0
ENDTAB
  0
ENDSEC
  0
SECTION
  2
BLOCKS
  0
BLOCK
  5
3
330
2
100
AcDbEntity
  8
0
100
AcDbBlockBegin
  2
*Model_Space
 70
     0
 10
0.0
 20
0.0
 30
0.0
  3
*Model_Space
  1

  0
ENDBLK
  5
9
330
2
100
AcDbEntity
  8
0
100
AcDbBlockEnd
  0
BLOCK
  5
D
330
C
100
AcDbEntity
 67
     1
  8
0
100
AcDbBlockBegin
  2
*Paper_Space
 70
     0
 10
0.0
 20
0.0
 30
0.0
  3
*Paper_Space
  1

  0
ENDBLK
  5
E
330
C
100
AcDbEntity
 67
     1
  8
0
100
AcDbBlockEnd
  0
BLOCK
  5
22
330
21
100
AcDbEntity
  8
0
100
AcDbBlockBegin
  2
_OPEN30
 70
     0
 10
0.0
 20
0.0
 30
0.0
  3
_OPEN30
  1

  0
LINE
  5
23
330
21
100
AcDbEntity
  8
0
  6
ByBlock
 62
     0
100
AcDbLine
 10
-1.0
 20
0.26794919
 30
0.0
 11
0.0
 21
0.0
 31
0.0
  0
LINE
  5
24
330
21
100
AcDbEntity
  8
0
  6
ByBlock
 62
     0
100
AcDbLine
 10
0.0
 20
0.0
 30
0.0
 11
-1.0
 21
-0.26794919
 31
0.0
  0
LINE
  5
25
330
21
100
AcDbEntity
  8
0
  6
ByBlock
 62
     0
100
AcDbLine
 10
0.0
 20
0.0
 30
0.0
 11
-1.0
 21
0.0
 31
0.0
  0
ENDBLK
  5
26
330
21
100
AcDbEntity
  8
0
100
AcDbBlockEnd
  0
BLOCK
  5
63
330
62
100
AcDbEntity
  8
0
100
AcDbBlockBegin
  2
*D1
 70
     1
 10
0.0
 20
0.0
 30
0.0
  3
*D1
  1

  0
LINE
  5
64
330
62
100
AcDbEntity
  8
SUNPO
 62
     0
370
    -2
100
AcDbLine
 10
34.17305995840383
 20
338.1049491509034
 30
0.0
 11
34.17305995840383
 21
346.1049491509034
 31
0.0
  0
LINE
  5
65
330
62
100
AcDbEntity
  8
SUNPO
 62
     0
370
    -2
100
AcDbLine
 10
49.17305995840388
 20
338.1049491509034
 30
0.0
 11
49.17305995840388
 21
346.1049491509034
 31
0.0
  0
LINE
  5
66
330
62
100
AcDbEntity
  8
SUNPO
 62
     0
370
    -2
100
AcDbLine
 10
36.17305995840383
 20
344.1049491509034
 30
0.0
 11
47.17305995840388
 21
344.1049491509034
 31
0.0
  0
INSERT
  5
67
330
62
100
AcDbEntity
  8
SUNPO
 62
     0
370
    -2
100
AcDbBlockReference
  2
_OPEN30
 10
34.17305995840383
 20
344.1049491509034
 30
0.0
 41
2.0
 42
2.0
 43
2.0
 50
180.0
  0
INSERT
  5
68
330
62
100
AcDbEntity
  8
SUNPO
 62
     0
370
    -2
100
AcDbBlockReference
  2
_OPEN30
 10
49.17305995840388
 20
344.1049491509034
 30
0.0
 41
2.0
 42
2.0
 43
2.0
  0
MTEXT
  5
69
330
62
100
AcDbEntity
  8
SUNPO
 62
     0
100
AcDbMText
 10
41.67305995840385
 20
345.8549491509034
 30
0.0
 40
2.5
 41
0.0
 71
     5
 72
     1
  1
\A1;75
 73
     1
 44
1.0
1001
ACAD
1000
MTEXTBEGIN
1070
    73
1070
     1
1070
    44
1040
1.0
1070
    74
1070
     0
1000
MTEXTEND
  0
POINT
  5
6A
330
62
100
AcDbEntity
  8
Defpoints
 62
     0
100
AcDbPoint
 10
34.17305995840383
 20
336.1049491509034
 30
0.0
  0
POINT
  5
6B
330
62
100
AcDbEntity
  8
Defpoints
 62
     0
100
AcDbPoint
 10
49.17305995840388
 20
336.1049491509034
 30
0.0
  0
POINT
  5
6C
330
62
100
AcDbEntity
  8
Defpoints
 62
     0
100
AcDbPoint
 10
49.17305995840388
 20
344.1049491509034
 30
0.0
  0
ENDBLK
  5
6D
330
62
100
AcDbEntity
  8
0
100
AcDbBlockEnd
  0
BLOCK
  5
56
330
55
100
AcDbEntity
  8
0
100
AcDbBlockBegin
  2
*D2
 70
     1
 10
0.0
 20
0.0
 30
0.0
  3
*D2
  1

  0
LINE
  5
57
330
55
100
AcDbEntity
  8
SUNPO
 62
     0
370
    -2
100
AcDbLine
 10
51.15973825188985
 20
323.1000857933825
 30
0.0
 11
59.15973825188984
 21
323.1000857933825
 31
0.0
  0
LINE
  5
58
330
55
100
AcDbEntity
  8
SUNPO
 62
     0
370
    -2
100
AcDbLine
 10
51.15973825188985
 20
336.1000857933825
 30
0.0
 11
59.15973825188984
 21
336.1000857933825
 31
0.0
  0
LINE
  5
59
330
55
100
AcDbEntity
  8
SUNPO
 62
     0
370
    -2
100
AcDbLine
 10
57.15973825188984
 20
325.1000857933825
 30
0.0
 11
57.15973825188984
 21
334.1000857933825
 31
0.0
  0
INSERT
  5
5A
330
55
100
AcDbEntity
  8
SUNPO
 62
     0
370
    -2
100
AcDbBlockReference
  2
_OPEN30
 10
57.15973825188984
 20
323.1000857933825
 30
0.0
 41
2.0
 42
2.0
 43
2.0
 50
270.0
  0
INSERT
  5
5B
330
55
100
AcDbEntity
  8
SUNPO
 62
     0
370
    -2
100
AcDbBlockReference
  2
_OPEN30
 10
57.15973825188985
 20
336.1000857933825
 30
0.0
 41
2.0
 42
2.0
 43
2.0
 50
90.0
  0
MTEXT
  5
5C
330
55
100
AcDbEntity
  8
SUNPO
 62
     0
100
AcDbMText
 10
55.40973825188979
 20
329.6000857933825
 30
0.0
 40
2.5
 41
0.0
 71
     5
 72
     1
  1
\A1;65
 11
0.0000000000000001
 21
1.0
 31
0.0
 73
     1
 44
1.0
1001
ACAD
1000
MTEXTBEGIN
1070
    73
1070
     1
1070
    44
1040
1.0
1070
    74
1070
     0
1000
MTEXTEND
  0
POINT
  5
5D
330
55
100
AcDbEntity
  8
Defpoints
 62
     0
100
AcDbPoint
 10
49.15973825188984
 20
323.1000857933825
 30
0.0
  0
POINT
  5
5E
330
55
100
AcDbEntity
  8
Defpoints
 62
     0
100
AcDbPoint
 10
49.15973825188984
 20
336.1000857933825
 30
0.0
  0
POINT
  5
5F
330
55
100
AcDbEntity
  8
Defpoints
 62
     0
100
AcDbPoint
 10
57.15973825188985
 20
336.1000857933825
 30
0.0
  0
ENDBLK
  5
60
330
55
100
AcDbEntity
  8
0
100
AcDbBlockEnd
  0
BLOCK
  5
48
330
47
100
AcDbEntity
  8
0
100
AcDbBlockBegin
  2
*D3
 70
     1
 10
0.0
 20
0.0
 30
0.0
  3
*D3
  1

  0
LINE
  5
49
330
47
100
AcDbEntity
  8
SUNPO
 62
     0
370
    -2
100
AcDbLine
 10
77.25899508186785
 20
338.1049491509034
 30
0.0
 11
77.25899508186785
 21
346.1049491509034
 31
0.0
  0
LINE
  5
4A
330
47
100
AcDbEntity
  8
SUNPO
 62
     0
370
    -2
100
AcDbLine
 10
103.7589950818615
 20
338.1049491509034
 30
0.0
 11
103.7589950818615
 21
346.1049491509034
 31
0.0
  0
LINE
  5
4B
330
47
100
AcDbEntity
  8
SUNPO
 62
     0
370
    -2
100
AcDbLine
 10
79.25899508186785
 20
344.1049491509034
 30
0.0
 11
101.7589950818615
 21
344.1049491509034
 31
0.0
  0
INSERT
  5
4C
330
47
100
AcDbEntity
  8
SUNPO
 62
     0
370
    -2
100
AcDbBlockReference
  2
_OPEN30
 10
77.25899508186785
 20
344.1049491509034
 30
0.0
 41
2.0
 42
2.0
 43
2.0
 50
180.0
  0
INSERT
  5
4D
330
47
100
AcDbEntity
  8
SUNPO
 62
     0
370
    -2
100
AcDbBlockReference
  2
_OPEN30
 10
103.7589950818615
 20
344.1049491509034
 30
0.0
 41
2.0
 42
2.0
 43
2.0
  0
MTEXT
  5
4E
330
47
100
AcDbEntity
  8
SUNPO
 62
     0
100
AcDbMText
 10
90.50899508186466
 20
345.8549491509034
 30
0.0
 40
2.5
 41
0.0
 71
     5
 72
     1
  1
\A1;132.5
 73
     1
 44
1.0
1001
ACAD
1000
MTEXTBEGIN
1070
    73
1070
     1
1070
    44
1040
1.0
1070
    74
1070
     0
1000
MTEXTEND
  0
POINT
  5
4F
330
47
100
AcDbEntity
  8
Defpoints
 62
     0
100
AcDbPoint
 10
77.25899508186785
 20
336.1049491509034
 30
0.0
  0
POINT
  5
51
330
47
100
AcDbEntity
  8
Defpoints
 62
     0
100
AcDbPoint
 10
103.7589950818615
 20
336.1049491509034
 30
0.0
  0
POINT
  5
52
330
47
100
AcDbEntity
  8
Defpoints
 62
     0
100
AcDbPoint
 10
103.7589950818615
 20
344.1049491509034
 30
0.0
  0
ENDBLK
  5
53
330
47
100
AcDbEntity
  8
0
100
AcDbBlockEnd
  0
BLOCK
  5
186
330
17C
100
AcDbEntity
  8
0
100
AcDbBlockBegin
  2
*D4
 70
     1
 10
0.0
 20
0.0
 30
0.0
  3
*D4
  1

  0
LINE
  5
17D
330
17C
100
AcDbEntity
  8
SUNPO
 62
     0
370
    -2
100
AcDbLine
 10
-31.43142374315682
 20
26.70959425233525
 30
0.0
 11
-31.43142374315682
 21
34.70959425233525
 31
0.0
  0
LINE
  5
17E
330
17C
100
AcDbEntity
  8
SUNPO
 62
     0
370
    -2
100
AcDbLine
 10
-16.43142374315675
 20
26.70959425233525
 30
0.0
 11
-16.43142374315675
 21
34.70959425233525
 31
0.0
  0
LINE
  5
17F
330
17C
100
AcDbEntity
  8
SUNPO
 62
     0
370
    -2
100
AcDbLine
 10
-29.43142374315682
 20
32.70959425233525
 30
0.0
 11
-18.43142374315675
 21
32.70959425233525
 31
0.0
  0
INSERT
  5
180
330
17C
100
AcDbEntity
  8
SUNPO
 62
     0
370
    -2
100
AcDbBlockReference
  2
_OPEN30
 10
-31.43142374315682
 20
32.70959425233525
 30
0.0
 41
2.0
 42
2.0
 43
2.0
 50
180.0
  0
INSERT
  5
181
330
17C
100
AcDbEntity
  8
SUNPO
 62
     0
370
    -2
100
AcDbBlockReference
  2
_OPEN30
 10
-16.43142374315675
 20
32.70959425233525
 30
0.0
 41
2.0
 42
2.0
 43
2.0
  0
MTEXT
  5
182
330
17C
100
AcDbEntity
  8
SUNPO
 62
     0
100
AcDbMText
 10
-23.93142374315678
 20
34.45959425233525
 30
0.0
 40
2.5
 41
0.0
 71
     5
 72
     1
  1
\A1;75
 73
     1
 44
1.0
1001
ACAD
1000
MTEXTBEGIN
1070
    73
1070
     1
1070
    44
1040
1.0
1070
    74
1070
     0
1000
MTEXTEND
  0
POINT
  5
183
330
17C
100
AcDbEntity
  8
Defpoints
 62
     0
100
AcDbPoint
 10
-31.43142374315682
 20
24.70959425233525
 30
0.0
  0
POINT
  5
184
330
17C
100
AcDbEntity
  8
Defpoints
 62
     0
100
AcDbPoint
 10
-16.43142374315675
 20
24.70959425233525
 30
0.0
  0
POINT
  5
185
330
17C
100
AcDbEntity
  8
Defpoints
 62
     0
100
AcDbPoint
 10
-16.43142374315675
 20
32.70959425233525
 30
0.0
  0
ENDBLK
  5
187
330
17C
100
AcDbEntity
  8
0
100
AcDbBlockEnd
  0
BLOCK
  5
192
330
188
100
AcDbEntity
  8
0
100
AcDbBlockBegin
  2
*D5
 70
     1
 10
0.0
 20
0.0
 30
0.0
  3
*D5
  1

  0
LINE
  5
189
330
188
100
AcDbEntity
  8
SUNPO
 62
     0
370
    -2
100
AcDbLine
 10
-14.44474544967079
 20
11.70473089481436
 30
0.0
 11
-6.444745449670793
 21
11.70473089481436
 31
0.0
  0
LINE
  5
18A
330
188
100
AcDbEntity
  8
SUNPO
 62
     0
370
    -2
100
AcDbLine
 10
-14.44474544967079
 20
24.70473089481436
 30
0.0
 11
-6.44474544967079
 21
24.70473089481436
 31
0.0
  0
LINE
  5
18B
330
188
100
AcDbEntity
  8
SUNPO
 62
     0
370
    -2
100
AcDbLine
 10
-8.444745449670792
 20
13.70473089481436
 30
0.0
 11
-8.44474544967079
 21
22.70473089481436
 31
0.0
  0
INSERT
  5
18C
330
188
100
AcDbEntity
  8
SUNPO
 62
     0
370
    -2
100
AcDbBlockReference
  2
_OPEN30
 10
-8.444745449670794
 20
11.70473089481436
 30
0.0
 41
2.0
 42
2.0
 43
2.0
 50
270.0
  0
INSERT
  5
18D
330
188
100
AcDbEntity
  8
SUNPO
 62
     0
370
    -2
100
AcDbBlockReference
  2
_OPEN30
 10
-8.44474544967079
 20
24.70473089481436
 30
0.0
 41
2.0
 42
2.0
 43
2.0
 50
90.0
  0
MTEXT
  5
18E
330
188
100
AcDbEntity
  8
SUNPO
 62
     0
100
AcDbMText
 10
-10.19474544967079
 20
18.20473089481436
 30
0.0
 40
2.5
 41
0.0
 71
     5
 72
     1
  1
\A1;65
 11
0.0000000000000001
 21
1.0
 31
0.0
 73
     1
 44
1.0
1001
ACAD
1000
MTEXTBEGIN
1070
    73
1070
     1
1070
    44
1040
1.0
1070
    74
1070
     0
1000
MTEXTEND
  0
POINT
  5
18F
330
188
100
AcDbEntity
  8
Defpoints
 62
     0
100
AcDbPoint
 10
-16.44474544967079
 20
11.70473089481436
 30
0.0
  0
POINT
  5
190
330
188
100
AcDbEntity
  8
Defpoints
 62
     0
100
AcDbPoint
 10
-16.44474544967079
 20
24.70473089481436
 30
0.0
  0
POINT
  5
191
330
188
100
AcDbEntity
  8
Defpoints
 62
     0
100
AcDbPoint
 10
-8.44474544967079
 20
24.70473089481436
 30
0.0
  0
ENDBLK
  5
193
330
188
100
AcDbEntity
  8
0
100
AcDbBlockEnd
  0
BLOCK
  5
19E
330
194
100
AcDbEntity
  8
0
100
AcDbBlockBegin
  2
*D6
 70
     1
 10
0.0
 20
0.0
 30
0.0
  3
*D6
  1

  0
LINE
  5
195
330
194
100
AcDbEntity
  8
SUNPO
 62
     0
370
    -2
100
AcDbLine
 10
11.65451138030721
 20
26.70959425233525
 30
0.0
 11
11.65451138030721
 21
34.70959425233525
 31
0.0
  0
LINE
  5
196
330
194
100
AcDbEntity
  8
SUNPO
 62
     0
370
    -2
100
AcDbLine
 10
38.15451138030084
 20
26.70959425233525
 30
0.0
 11
38.15451138030084
 21
34.70959425233525
 31
0.0
  0
LINE
  5
197
330
194
100
AcDbEntity
  8
SUNPO
 62
     0
370
    -2
100
AcDbLine
 10
13.65451138030721
 20
32.70959425233525
 30
0.0
 11
36.15451138030085
 21
32.70959425233525
 31
0.0
  0
INSERT
  5
198
330
194
100
AcDbEntity
  8
SUNPO
 62
     0
370
    -2
100
AcDbBlockReference
  2
_OPEN30
 10
11.65451138030721
 20
32.70959425233525
 30
0.0
 41
2.0
 42
2.0
 43
2.0
 50
180.0
  0
INSERT
  5
199
330
194
100
AcDbEntity
  8
SUNPO
 62
     0
370
    -2
100
AcDbBlockReference
  2
_OPEN30
 10
38.15451138030084
 20
32.70959425233525
 30
0.0
 41
2.0
 42
2.0
 43
2.0
  0
MTEXT
  5
19A
330
194
100
AcDbEntity
  8
SUNPO
 62
     0
100
AcDbMText
 10
24.90451138030403
 20
34.45959425233525
 30
0.0
 40
2.5
 41
0.0
 71
     5
 72
     1
  1
\A1;132.5
 73
     1
 44
1.0
1001
ACAD
1000
MTEXTBEGIN
1070
    73
1070
     1
1070
    44
1040
1.0
1070
    74
1070
     0
1000
MTEXTEND
  0
POINT
  5
19B
330
194
100
AcDbEntity
  8
Defpoints
 62
     0
100
AcDbPoint
 10
11.65451138030721
 20
24.70959425233525
 30
0.0
  0
POINT
  5
19C
330
194
100
AcDbEntity
  8
Defpoints
 62
     0
100
AcDbPoint
 10
38.15451138030084
 20
24.70959425233525
 30
0.0
  0
POINT
  5
19D
330
194
100
AcDbEntity
  8
Defpoints
 62
     0
100
AcDbPoint
 10
38.15451138030084
 20
32.70959425233525
 30
0.0
  0
ENDBLK
  5
19F
330
194
100
AcDbEntity
  8
0
100
AcDbBlockEnd
  0
ENDSEC
  0
SECTION
  2
ENTITIES
  0
TEXT
  5
2F
330
2
100
AcDbEntity
  8
MOJI1
100
AcDbText
 10
-36.10448375751901
 20
55.1054802263659
 30
0.0
 40
4.0
  1
スーパーダイナミックカラーカメラ
100
AcDbText
  0
TEXT
  5
31
330
2
100
AcDbEntity
  8
TOUROKU
100
AcDbText
 10
46.02879960874157
 20
49.10548022636624
 30
0.0
 40
2.0
  1
ＷＶＣＰ５００
 72
     2
 11
61.89546627540824
 21
49.10548022636624
 31
0.0
100
AcDbText
  0
TEXT
  5
33
330
2
100
AcDbEntity
  8
MOJI1
 62
     2
100
AcDbText
 10
-20.60448375751923
 20
-53.61048528043773
 30
0.0
 40
3.0
  1
暗部補正、カメラタイトル、画揺ゆれ補正
100
AcDbText
  0
TEXT
  5
34
330
2
100
AcDbEntity
  8
MOJI1
 62
     2
100
AcDbText
 10
-20.60448375751923
 20
-28.61048528043773
 30
0.0
 40
3.0
  1
水平：７００ＴＶ以上（白黒モード）　垂直：３５０ＴＶ本以上
 41
0.7900000000000001
100
AcDbText
  0
TEXT
  5
35
330
2
100
AcDbEntity
  8
MOJI1
 62
     2
100
AcDbText
 10
-20.60448375751923
 20
-48.61048528043773
 30
0.0
 40
3.0
  1
カラー・白黒自動切換、電子感度アップ最大３２倍、
 41
0.98
100
AcDbText
  0
TEXT
  5
36
330
2
100
AcDbEntity
  8
MOJI1
 62
     2
100
AcDbText
 10
-60.60448375751923
 20
-48.61048528043773
 30
0.0
 40
3.0
  1
その他
100
AcDbText
  0
TEXT
  5
37
330
2
100
AcDbEntity
  8
MOJI1
 62
     2
100
AcDbText
 10
-20.60448375751923
 20
-43.61048528043773
 30
0.0
 40
3.0
  1
５２ｄＢｔｙｐ（スーパーダイナミック５　ＯＮ時）
 41
0.95
100
AcDbText
  0
TEXT
  5
38
330
2
100
AcDbEntity
  8
MOJI1
 62
     2
100
AcDbText
 10
-60.60448375751923
 20
-43.61048528043773
 30
0.0
 40
3.0
  1
ダイナミックレンジ
100
AcDbText
  0
TEXT
  5
39
330
2
100
AcDbEntity
  8
MOJI1
 62
     2
100
AcDbText
 10
-20.60448375751923
 20
-13.61048528043773
 30
0.0
 40
3.0
  1
ＡＣ１００Ｖ　５０／６０Ｈｚ
100
AcDbText
  0
TEXT
  5
3A
330
2
100
AcDbEntity
  8
MOJI1
 62
     2
100
AcDbText
 10
-20.60448375751923
 20
-38.61048528043773
 30
0.0
 40
3.0
  1
白黒モード：０．０１ルクス（ＡＧＣ　ＨＩＧＨ、Ｆ１．４）
 41
0.8299999999999998
100
AcDbText
  0
TEXT
  5
3B
330
2
100
AcDbEntity
  8
MOJI1
 62
     2
100
AcDbText
 10
-20.60448375751923
 20
-33.61048528043773
 30
0.0
 40
3.0
  1
カラーモード：０．１ルクス（ＡＧＣ　ＨＩＧＨ、Ｆ１．４）
 41
0.8299999999999998
100
AcDbText
  0
TEXT
  5
3C
330
2
100
AcDbEntity
  8
MOJI1
 62
     2
100
AcDbText
 10
-20.60448375751923
 20
-23.61048528043773
 30
0.0
 40
3.0
  1
水平：６５０ＴＶ本ｔｙｐ（カラーモード）　垂直：３５０ＴＶ本以上
 41
0.72
100
AcDbText
  0
TEXT
  5
3D
330
2
100
AcDbEntity
  8
MOJI1
 62
     2
100
AcDbText
 10
-20.60448375751923
 20
-18.61048528043773
 30
0.0
 40
3.0
  1
１／３型　インターライン転送方式ＣＣＤ
100
AcDbText
  0
TEXT
  5
3E
330
2
100
AcDbEntity
  8
MOJI1
 62
     2
100
AcDbText
 10
-60.60448375751923
 20
-33.61048528043773
 30
0.0
 40
3.0
  1
最低照度
100
AcDbText
  0
TEXT
  5
3F
330
2
100
AcDbEntity
  8
MOJI1
 62
     2
100
AcDbText
 10
-60.60448375751923
 20
-18.61048528043773
 30
0.0
 40
3.0
  1
撮像素子
100
AcDbText
  0
TEXT
  5
40
330
2
100
AcDbEntity
  8
MOJI1
 62
     2
100
AcDbText
 10
-60.60448375751923
 20
-23.61048528043773
 30
0.0
 40
3.0
  1
解像度（中心部）
100
AcDbText
  0
TEXT
  5
41
330
2
100
AcDbEntity
  8
MOJI1
 62
     2
100
AcDbText
 10
-60.60448375751923
 20
-13.61048528043773
 30
0.0
 40
3.0
  1
電　源
100
AcDbText
  0
LINE
  5
42
330
2
100
AcDbEntity
  8
WAKU
 62
     4
100
AcDbLine
 10
61.89551624248077
 20
-9.610485280437728
 30
0.0
 11
-63.10448375751923
 21
-9.610485280437728
 31
0.0
  0
LINE
  5
44
330
2
100
AcDbEntity
  8
WAKU
 62
     1
100
AcDbLine
 10
61.89551624248077
 20
-14.61048528043773
 30
0.0
 11
-63.10448375751923
 21
-14.61048528043773
 31
0.0
  0
DIMENSION
  5
45
330
2
100
AcDbEntity
  8
SUNPO
100
AcDbDimension
  2
*D6
 10
38.15451138030084
 20
32.70959425233525
 30
0.0
 11
24.90451138030403
 21
34.45959425233525
 31
0.0
 70
    33
  1
132.5
 71
     5
 42
26.49999999999363
  3
STANDARD
100
AcDbAlignedDimension
 13
11.65451138030721
 23
24.70959425233525
 33
0.0
 14
38.15451138030084
 24
24.70959425233525
 34
0.0
1001
ACAD
1000
DSTYLE
1002
{
1070
   287
1070
     3
1070
    40
1040
1.0
1070
   140
1040
2.5
1070
   147
1040
0.5
1070
   172
1070
     1
1070
   279
1070
     0
1070
   288
1070
     0
1002
}
  0
DIMENSION
  5
54
330
2
100
AcDbEntity
  8
SUNPO
100
AcDbDimension
  2
*D5
 10
-8.44474544967079
 20
24.70473089481436
 30
0.0
 11
-10.19474544967079
 21
18.20473089481436
 31
0.0
 70
    33
  1
65
 71
     5
 42
13.0
  3
STANDARD
100
AcDbAlignedDimension
 13
-16.44474544967079
 23
11.70473089481436
 33
0.0
 14
-16.44474544967079
 24
24.70473089481436
 34
0.0
1001
ACAD
1000
DSTYLE
1002
{
1070
   287
1070
     3
1070
    40
1040
1.0
1070
   140
1040
2.5
1070
   147
1040
0.5
1070
   172
1070
     1
1070
   279
1070
     0
1070
   288
1070
     0
1002
}
  0
DIMENSION
  5
61
330
2
100
AcDbEntity
  8
SUNPO
100
AcDbDimension
  2
*D4
 10
-16.43142374315675
 20
32.70959425233525
 30
0.0
 11
-23.93142374315678
 21
34.45959425233525
 31
0.0
 70
    33
  1
75
 71
     5
 42
15.00000000000006
  3
STANDARD
100
AcDbAlignedDimension
 13
-31.43142374315682
 23
24.70959425233525
 33
0.0
 14
-16.43142374315675
 24
24.70959425233525
 34
0.0
1001
ACAD
1000
DSTYLE
1002
{
1070
   287
1070
     3
1070
    40
1040
1.0
1070
   140
1040
2.5
1070
   147
1040
0.5
1070
   172
1070
     1
1070
   279
1070
     0
1070
   288
1070
     0
1002
}
  0
LINE
  5
6E
330
2
100
AcDbEntity
  8
GAIKEI
  6
Continuous
 62
     1
100
AcDbLine
 10
38.0954514162612
 20
18.11473088475384
 30
0.0
 11
38.91449621178117
 21
18.11473088475384
 31
0.0
  0
LINE
  5
6F
330
2
100
AcDbEntity
  8
GAIKEI
  6
Continuous
 62
     1
100
AcDbLine
 10
37.79475809034125
 20
20.01473088475382
 30
0.0
 11
38.91449621178117
 21
20.01473088475382
 31
0.0
  0
LINE
  5
70
330
2
100
AcDbEntity
  8
GAIKEI
  6
Continuous
 62
     1
100
AcDbLine
 10
38.91449621178117
 20
18.11473088475384
 30
0.0
 11
38.91449621178117
 21
20.01473088475382
 31
0.0
  0
ARC
  5
71
330
2
100
AcDbEntity
  8
GAIKEI
  6
Continuous
 62
     1
100
AcDbCircle
 10
38.06649621178122
 20
19.06473088475377
 30
0.0
 40
0.198
100
AcDbArc
 50
252.4112452173045
 51
124.2350882973279
  0
ARC
  5
72
330
2
100
AcDbEntity
  8
GAIKEI
100
AcDbCircle
 10
26.02359768345298
 20
17.22234857365254
 30
0.0
 40
12.12944479751849
100
AcDbArc
 50
343.6346002527414
 51
16.02818164396751
  0
ARC
  5
73
330
2
100
AcDbEntity
  8
GAIKEI
100
AcDbCircle
 10
24.72537808715634
 20
17.34058638402177
 30
0.0
 40
13.41075534132167
100
AcDbArc
 50
335.7031608434094
 51
344.7127624897337
  0
ARC
  5
74
330
2
100
AcDbEntity
  8
GAIKEI
100
AcDbCircle
 10
36.7659566723072
 20
11.90473089481429
 30
0.0
 40
0.1999999999999773
100
AcDbArc
 50
269.9999999999935
 51
335.7359139390177
  0
ARC
  5
75
330
2
100
AcDbEntity
  8
GAIKEI
 62
     1
100
AcDbCircle
 10
15.24674805102154
 20
19.93475100846501
 30
0.0
 40
23.03930455285543
100
AcDbArc
 50
339.0706491431914
 51
344.0529605494675
  0
ARC
  5
76
330
2
100
AcDbEntity
  8
GAIKEI
 62
     1
100
AcDbCircle
 10
25.06012510622111
 20
17.20365671496694
 30
0.0
 40
12.86468174881127
100
AcDbArc
 50
344.6802227852663
 51
15.10832441649543
  0
ARC
  5
77
330
2
100
AcDbEntity
  8
GAIKEI
100
AcDbCircle
 10
36.76707277394786
 20
22.50473006686832
 30
0.0
 40
0.2000008279466105
100
AcDbArc
 50
24.7103764388186
 51
89.99985604513705
  0
ARC
  5
78
330
2
100
AcDbEntity
  8
GAIKEI
100
AcDbCircle
 10
25.22795039251008
 20
17.18593042238461
 30
0.0
 40
12.9059432700904
100
AcDbArc
 50
15.31937063975615
 51
24.74612579029753
  0
ARC
  5
79
330
2
100
AcDbEntity
  8
GAIKEI
 62
     1
100
AcDbCircle
 10
16.38459186043468
 20
14.74230018137962
 30
0.0
 40
21.88254619868169
100
AcDbArc
 50
16.08386198244153
 51
21.33813759893156
  0
ARC
  5
7A
330
2
100
AcDbEntity
  8
GAIKEI
 62
     1
100
AcDbCircle
 10
15.31454246701457
 20
20.70471449717206
 30
0.0
 40
0.1000310880513971
100
AcDbArc
 50
89.01804317096782
 51
179.9906077628466
  0
ARC
  5
7B
330
2
100
AcDbEntity
  8
GAIKEI
 62
     1
100
AcDbCircle
 10
15.31454295180958
 20
13.70474778571304
 30
0.0
 40
0.1000315729284437
100
AcDbArc
 50
180.0096747175304
 51
270.9816743485895
  0
LINE
  5
7C
330
2
100
AcDbEntity
  8
GAIKEI
100
AcDbLine
 10
12.10077139528721
 20
11.70473089481436
 30
0.0
 11
36.7659566723072
 21
11.70473089481436
 31
0.0
  0
LINE
  5
7D
330
2
100
AcDbEntity
  8
GAIKEI
 62
     1
100
AcDbLine
 10
12.09314719120721
 20
12.6754466076743
 30
0.0
 11
37.1125165310072
 21
12.67542990451431
 31
0.0
  0
LINE
  5
7E
330
2
100
AcDbEntity
  8
GAIKEI
 62
     1
100
AcDbLine
 10
15.3162567538672
 20
13.60473089481434
 30
0.0
 11
37.60527519765913
 21
13.60473183015472
 31
0.0
  0
LINE
  5
7F
330
2
100
AcDbEntity
  8
GAIKEI
 62
     1
100
AcDbLine
 10
15.21451138030721
 20
13.80473089481433
 30
0.0
 11
37.66160956252156
 21
13.80473089481433
 31
0.0
  0
LINE
  5
80
330
2
100
AcDbEntity
  8
GAIKEI
 62
     1
100
AcDbLine
 10
15.21451138030721
 20
20.59566945575432
 30
0.0
 11
37.67532165776549
 21
20.59566945575432
 31
0.0
  0
LINE
  5
81
330
2
100
AcDbEntity
  8
GAIKEI
 62
     1
100
AcDbLine
 10
15.3162567538672
 20
20.80473089481433
 30
0.0
 11
37.61615729134479
 21
20.80472877576864
 31
0.0
  0
LINE
  5
82
330
2
100
AcDbEntity
  8
GAIKEI
 62
     1
100
AcDbLine
 10
12.09240471928717
 20
21.7505893298943
 30
0.0
 11
37.11450816066719
 21
21.75060807973432
 31
0.0
  0
LINE
  5
83
330
2
100
AcDbEntity
  8
GAIKEI
100
AcDbLine
 10
12.09989870850717
 20
22.70473089481436
 30
0.0
 11
36.76707327644721
 21
22.70473089481436
 31
0.0
  0
ARC
  5
84
330
2
100
AcDbEntity
  8
GAIKEI
100
AcDbCircle
 10
12.09989904949754
 20
22.50473055083523
 30
0.0
 40
0.2000003439793724
100
AcDbArc
 50
90.00009768638033
 51
179.4999023138893
  0
ARC
  5
85
330
2
100
AcDbEntity
  8
GAIKEI
 62
     1
100
AcDbCircle
 10
12.06206105048392
 20
21.56368853580642
 30
0.0
 40
0.1893479470898371
100
AcDbArc
 50
80.778390178023
 51
153.6321647254024
  0
ARC
  5
86
330
2
100
AcDbEntity
  8
GAIKEI
 62
     1
100
AcDbCircle
 10
23.72640432054493
 20
24.61577203902471
 30
0.0
 40
0.089193768853666
100
AcDbArc
 50
10.15337533739722
 51
85.84070885406079
  0
ARC
  5
87
330
2
100
AcDbEntity
  8
GAIKEI
 62
     1
100
AcDbCircle
 10
29.71373880833358
 20
24.2810750935314
 30
0.0
 40
5.909935508246274
100
AcDbArc
 50
176.6007427871812
 51
193.4668528188355
  0
ARC
  5
88
330
2
100
AcDbEntity
  8
GAIKEI
 62
     1
100
AcDbCircle
 10
31.29040249479511
 20
24.54781933340701
 30
0.0
 40
8.129444480154594
100
AcDbArc
 50
178.8940291587339
 51
191.6607572224725
  0
ARC
  5
89
330
2
100
AcDbEntity
  8
GAIKEI
100
AcDbCircle
 10
24.52360815710444
 20
24.53239752939271
 30
0.0
 40
0.1808202275570692
100
AcDbArc
 50
33.23338229204797
 51
72.37613513843449
  0
ARC
  5
8A
330
2
100
AcDbEntity
  8
GAIKEI
100
AcDbCircle
 10
15.42291809093694
 20
24.60473089484742
 30
0.0
 40
0.0999999999669258
100
AcDbArc
 50
89.99999999413759
 51
158.7494945030701
  0
LINE
  5
8B
330
2
100
AcDbEntity
  8
GAIKEI
100
AcDbLine
 10
24.67485435844719
 20
24.6314961735743
 30
0.0
 11
25.15451138030722
 21
22.90473089481429
 31
0.0
  0
LINE
  5
8C
330
2
100
AcDbEntity
  8
GAIKEI
100
AcDbLine
 10
25.15451138030722
 20
22.70473089481436
 30
0.0
 11
25.15451138030722
 21
22.90473089481429
 31
0.0
  0
LINE
  5
8D
330
2
100
AcDbEntity
  8
GAIKEI
 62
     1
100
AcDbLine
 10
23.97173270610722
 20
22.70473089481436
 30
0.0
 11
23.97173270610722
 21
22.90473089481429
 31
0.0
  0
LINE
  5
8E
330
2
100
AcDbEntity
  8
GAIKEI
 62
     1
100
AcDbLine
 10
23.32943652934716
 20
22.70473089481436
 30
0.0
 11
23.32943652934716
 21
22.90472395755433
 31
0.0
  0
LINE
  5
8F
330
2
100
AcDbEntity
  8
GAIKEI
 62
     1
100
AcDbLine
 10
14.65451138030721
 20
22.90472748138063
 30
0.0
 11
25.15451138030722
 21
22.90472321619382
 31
0.0
  0
LINE
  5
90
330
2
100
AcDbEntity
  8
GAIKEI
 62
     1
100
AcDbLine
 10
15.25451138030718
 20
22.90456053499434
 30
0.0
 11
15.87125308800711
 21
24.65004444599435
 31
0.0
  0
LINE
  5
91
330
2
100
AcDbEntity
  8
GAIKEI
 62
     1
100
AcDbLine
 10
15.25451138030718
 20
22.70473089481436
 30
0.0
 11
15.25451138030718
 21
22.90456053499434
 31
0.0
  0
LINE
  5
92
330
2
100
AcDbEntity
  8
GAIKEI
100
AcDbLine
 10
15.42291809094718
 20
24.70473089481436
 30
0.0
 11
24.5783545346672
 21
24.70473089481436
 31
0.0
  0
LINE
  5
93
330
2
100
AcDbEntity
  8
GAIKEI
100
AcDbLine
 10
14.65451138030721
 20
22.90472748138063
 30
0.0
 11
15.3297176238072
 21
24.64097552093432
 31
0.0
  0
LINE
  5
94
330
2
100
AcDbEntity
  8
GAIKEI
100
AcDbLine
 10
14.65451138030721
 20
22.70473089481436
 30
0.0
 11
14.65451138030721
 21
22.90472748138063
 31
0.0
  0
ARC
  5
95
330
2
100
AcDbEntity
  8
GAIKEI
 62
     1
100
AcDbCircle
 10
12.0626200418319
 20
12.86337482040346
 30
0.0
 40
0.1903914913764246
100
AcDbArc
 50
207.1158699513359
 51
279.226563789989
  0
ARC
  5
96
330
2
100
AcDbEntity
  8
GAIKEI
100
AcDbCircle
 10
12.10077139348135
 20
11.90473109928007
 30
0.0
 40
0.1999999999857468
100
AcDbArc
 50
180.5000585774766
 51
270.0000005128524
  0
LINE
  5
97
330
2
100
AcDbEntity
  8
GAIKEI
 62
     1
100
AcDbLine
 10
15.4145113803072
 20
20.59566945575432
 30
0.0
 11
15.4145113803072
 21
13.80473089481433
 31
0.0
  0
LINE
  5
98
330
2
100
AcDbEntity
  8
GAIKEI
100
AcDbLine
 10
11.8545113803072
 20
17.20473089481436
 30
0.0
 11
11.90077901066718
 21
11.90298558771434
 31
0.0
  0
LINE
  5
99
330
2
100
AcDbEntity
  8
GAIKEI
 62
     1
100
AcDbLine
 10
12.05448853502725
 20
17.20473089477434
 30
0.0
 11
12.10077140402717
 21
11.70473089481436
 31
0.0
  0
LINE
  5
9A
330
2
100
AcDbEntity
  8
GAIKEI
 62
     1
100
AcDbLine
 10
11.88044773002786
 20
14.2327195913424
 30
0.0
 11
15.21451138030721
 21
14.23268814209433
 31
0.0
  0
LINE
  5
9B
330
2
100
AcDbEntity
  8
GAIKEI
 62
     1
100
AcDbLine
 10
15.21451138030721
 20
17.20473089481436
 30
0.0
 11
15.21451138030721
 21
13.70473089481436
 31
0.0
  0
LINE
  5
9C
330
2
100
AcDbEntity
  8
GAIKEI
 62
     1
100
AcDbLine
 10
11.8545113803072
 20
17.20473089481436
 30
0.0
 11
15.21451138030721
 21
17.20473089481436
 31
0.0
  0
LINE
  5
9D
330
2
100
AcDbEntity
  8
GAIKEI
 62
     1
100
AcDbLine
 10
11.87886271208197
 20
20.09511713150914
 30
0.0
 11
15.21451138030721
 21
20.0951535641143
 31
0.0
  0
LINE
  5
9E
330
2
100
AcDbEntity
  8
GAIKEI
 62
     1
100
AcDbLine
 10
15.21451138030721
 20
17.30473089481433
 30
0.0
 11
15.21451138030721
 21
20.70473089481436
 31
0.0
  0
LINE
  5
9F
330
2
100
AcDbEntity
  8
GAIKEI
 62
     1
100
AcDbLine
 10
11.8545113803072
 20
17.30473089481433
 30
0.0
 11
15.21451138030721
 21
17.30473089481433
 31
0.0
  0
LINE
  5
A0
330
2
100
AcDbEntity
  8
GAIKEI
 62
     1
100
AcDbLine
 10
11.75451138030718
 20
13.61450573117435
 30
0.0
 11
11.88586280916718
 21
13.61221298345435
 31
0.0
  0
LINE
  5
A1
330
2
100
AcDbEntity
  8
GAIKEI
 62
     1
100
AcDbLine
 10
11.75451138030718
 20
20.79495605845432
 30
0.0
 11
11.75451138030718
 21
13.61450573117435
 31
0.0
  0
LINE
  5
A2
330
2
100
AcDbEntity
  8
GAIKEI
 62
     1
100
AcDbLine
 10
11.88498998942719
 20
20.79723357105434
 30
0.0
 11
11.75451138030718
 21
20.79495605845432
 31
0.0
  0
LINE
  5
A3
330
2
100
AcDbEntity
  8
GAIKEI
 62
     1
100
AcDbLine
 10
12.0998987166472
 20
22.70473089481436
 30
0.0
 11
12.05448853502725
 21
17.3047308948743
 31
0.0
  0
LINE
  5
A4
330
2
100
AcDbEntity
  8
GAIKEI
100
AcDbLine
 10
11.89990632389441
 20
22.47441491490292
 30
0.0
 11
11.8545113803072
 21
17.30473089481433
 31
0.0
  0
LINE
  5
A5
330
2
100
AcDbEntity
  8
GAIKEI
  6
HIDDEN2
 62
     1
 48
0.5
100
AcDbLine
 10
9.354511380307201
 20
23.0702784484397
 30
0.0
 11
10.3545113803072
 21
23.0702784484397
 31
0.0
  0
LINE
  5
A7
330
2
100
AcDbEntity
  8
GAIKEI
  6
HIDDEN2
 62
     1
 48
0.5
100
AcDbLine
 10
10.3545113803072
 20
23.0702784484397
 30
0.0
 11
10.3545113803072
 21
22.50473109481453
 31
0.0
  0
LINE
  5
A8
330
2
100
AcDbEntity
  8
GAIKEI
  6
HIDDEN2
 62
     1
 48
0.5
100
AcDbLine
 10
10.25451138030718
 20
23.1300456961859
 30
0.0
 11
10.3545113803072
 21
23.0702784484397
 31
0.0
  0
LINE
  5
A9
330
2
100
AcDbEntity
  8
GAIKEI
  6
HIDDEN2
 62
     1
 48
0.5
100
AcDbLine
 10
9.454511380307167
 20
23.1300456961859
 30
0.0
 11
10.25451138030718
 21
23.1300456961859
 31
0.0
  0
LINE
  5
AA
330
2
100
AcDbEntity
  8
GAIKEI
  6
HIDDEN2
 62
     1
 48
0.5
100
AcDbLine
 10
9.354511380307201
 20
23.0702784484397
 30
0.0
 11
9.454511380307167
 21
23.1300456961859
 31
0.0
  0
LINE
  5
AB
330
2
100
AcDbEntity
  8
GAIKEI
  6
HIDDEN2
 62
     1
 48
0.5
100
AcDbLine
 10
9.354511380307201
 20
22.50473109481453
 30
0.0
 11
9.354511380307201
 21
23.0702784484397
 31
0.0
  0
ARC
  5
AC
330
2
100
AcDbEntity
  8
GAIKEI
  6
HIDDEN2
 62
     1
 48
0.5
100
AcDbCircle
 10
11.55451138030753
 20
22.40473109481468
 30
0.0
 40
0.0999999999998693
100
AcDbArc
 50
359.9999999999251
 51
90.00000000018239
  0
ARC
  5
AD
330
2
100
AcDbEntity
  8
GAIKEI
  6
HIDDEN2
 62
     1
 48
0.5
100
AcDbCircle
 10
4.854511380307371
 20
22.1047310948145
 30
0.0
 40
0.3999999999999886
100
AcDbArc
 50
89.99999999999836
 51
180.0
  0
LINE
  5
AE
330
2
100
AcDbEntity
  8
GAIKEI
  6
HIDDEN2
 62
     1
 48
0.5
100
AcDbLine
 10
4.615219966268398
 20
20.20473109481452
 30
0.0
 11
4.454511380307394
 21
21.18674953448533
 31
0.0
  0
LINE
  5
AF
330
2
100
AcDbEntity
  8
GAIKEI
  6
HIDDEN2
 62
     1
 48
0.5
100
AcDbLine
 10
4.615219966268398
 20
20.20473109481452
 30
0.0
 11
11.75451138030718
 21
20.20473109481452
 31
0.0
  0
LINE
  5
B0
330
2
100
AcDbEntity
  8
GAIKEI
  6
HIDDEN2
 62
     1
 48
0.5
100
AcDbLine
 10
4.615219966268398
 20
20.20473109481452
 30
0.0
 11
4.615219966268398
 21
14.20473109481452
 31
0.0
  0
ARC
  5
B1
330
2
100
AcDbEntity
  8
GAIKEI
  6
HIDDEN2
 62
     1
 48
0.5
100
AcDbCircle
 10
11.55451138030719
 20
12.00473109481453
 30
0.0
 40
0.1
100
AcDbArc
 50
270.0
 51
0.0
  0
ARC
  5
B2
330
2
100
AcDbEntity
  8
GAIKEI
  6
HIDDEN2
 62
     1
 48
0.5
100
AcDbCircle
 10
4.854511380307371
 20
12.30473109481454
 30
0.0
 40
0.3999999999999772
100
AcDbArc
 50
179.9999999999967
 51
270.0000000000033
  0
LINE
  5
B3
330
2
100
AcDbEntity
  8
GAIKEI
  6
HIDDEN2
 62
     1
 48
0.5
100
AcDbLine
 10
4.615219966268398
 20
14.20473109481452
 30
0.0
 11
4.454511380307394
 21
13.22271265514354
 31
0.0
  0
LINE
  5
B4
330
2
100
AcDbEntity
  8
GAIKEI
  6
HIDDEN2
 62
     1
 48
0.5
100
AcDbLine
 10
4.615219966268398
 20
14.20473109481452
 30
0.0
 11
11.75451138030718
 21
14.20473109481452
 31
0.0
  0
LINE
  5
B5
330
2
100
AcDbEntity
  8
GAIKEI
  6
HIDDEN2
 62
     1
 48
0.5
100
AcDbLine
 10
11.65451138030721
 20
22.40473109481456
 30
0.0
 11
11.65451138030721
 21
12.00473109481453
 31
0.0
  0
LINE
  5
B6
330
2
100
AcDbEntity
  8
GAIKEI
  6
HIDDEN2
 62
     1
 48
0.5
100
AcDbLine
 10
4.854511380307371
 20
22.50473109481453
 30
0.0
 11
11.55451138030719
 21
22.50473109481453
 31
0.0
  0
LINE
  5
B7
330
2
100
AcDbEntity
  8
GAIKEI
  6
HIDDEN2
 62
     1
 48
0.5
100
AcDbLine
 10
4.854511380307371
 20
11.90473109481456
 30
0.0
 11
11.55451138030719
 21
11.90473109481456
 31
0.0
  0
LINE
  5
B8
330
2
100
AcDbEntity
  8
GAIKEI
  6
HIDDEN2
 62
     1
 48
0.5
100
AcDbLine
 10
4.454511380307394
 20
22.1047310948145
 30
0.0
 11
4.454511380307394
 21
12.30473109481454
 31
0.0
  0
ARC
  5
B9
330
2
100
AcDbEntity
  8
GAIKEI
  6
HIDDEN2
 62
     1
 48
0.5
100
AcDbCircle
 10
2.554511380307246
 20
21.05473109481454
 30
0.0
 40
0.100000000000017
100
AcDbArc
 50
90.0000000000065
 51
179.9999999999902
  0
ARC
  5
BA
330
2
100
AcDbEntity
  8
GAIKEI
  6
HIDDEN2
 62
     1
 48
0.5
100
AcDbCircle
 10
4.064511380307408
 20
18.19223109481453
 30
0.0
 40
0.1500000000000057
100
AcDbArc
 50
270.0
 51
90.0
  0
ARC
  5
BB
330
2
100
AcDbEntity
  8
GAIKEI
  6
HIDDEN2
 62
     1
 48
0.5
100
AcDbCircle
 10
4.064511380307351
 20
19.17973109481454
 30
0.0
 40
0.1500000000000114
100
AcDbArc
 50
270.000000000013
 51
359.9999999999968
  0
ARC
  5
BC
330
2
100
AcDbEntity
  8
GAIKEI
  6
HIDDEN2
 62
     1
 48
0.5
100
AcDbCircle
 10
4.067148157205963
 20
19.13949679734617
 30
0.0
 40
0.1527570561893894
100
AcDbArc
 50
15.27115912974988
 51
90.98904557853847
  0
ARC
  5
BD
330
2
100
AcDbEntity
  8
GAIKEI
  6
HIDDEN2
 62
     1
 48
0.5
100
AcDbCircle
 10
4.083261380307362
 20
20.14848109481454
 30
0.0
 40
0.1325825214723997
100
AcDbArc
 50
261.8698976458534
 51
351.8698976458453
  0
ARC
  5
BE
330
2
100
AcDbEntity
  8
GAIKEI
  6
HIDDEN2
 62
     1
 48
0.5
100
AcDbCircle
 10
4.071927942476293
 20
20.03206421915212
 30
0.0
 40
0.1728260841002366
100
AcDbArc
 50
34.41038323783784
 51
92.45951440810527
  0
ARC
  5
BF
330
2
100
AcDbEntity
  8
GAIKEI
  6
HIDDEN2
 62
     1
 48
0.5
100
AcDbCircle
 10
4.066139507021205
 20
20.94209984138684
 30
0.0
 40
0.1842509401539268
100
AcDbArc
 50
269.4937013446339
 51
323.636401009571
  0
ARC
  5
C0
330
2
100
AcDbEntity
  8
GAIKEI
  6
HIDDEN2
 62
     1
 48
0.5
100
AcDbCircle
 10
4.073074224502818
 20
20.73748178320534
 30
0.0
 40
0.1705893559312302
100
AcDbArc
 50
33.99268945133197
 51
92.87720819455943
  0
ARC
  5
C1
330
2
100
AcDbEntity
  8
GAIKEI
  6
HIDDEN2
 62
     1
 48
0.5
100
AcDbCircle
 10
2.84451138030738
 20
18.19223109481453
 30
0.0
 40
0.1500000000000057
100
AcDbArc
 50
90.0
 51
270.0
  0
LINE
  5
C2
330
2
100
AcDbEntity
  8
GAIKEI
  6
HIDDEN2
 62
     1
 48
0.5
100
AcDbLine
 10
2.84451138030738
 20
18.0422310948145
 30
0.0
 11
4.064511380307408
 21
18.0422310948145
 31
0.0
  0
LINE
  5
C3
330
2
100
AcDbEntity
  8
GAIKEI
  6
HIDDEN2
 62
     1
 48
0.5
100
AcDbLine
 10
2.84451138030738
 20
18.34223109481456
 30
0.0
 11
4.064511380307408
 21
18.34223109481456
 31
0.0
  0
ARC
  5
C4
330
2
100
AcDbEntity
  8
GAIKEI
  6
HIDDEN2
 62
     1
 48
0.5
100
AcDbCircle
 10
2.844511380307437
 20
19.17973109481454
 30
0.0
 40
0.1500000000000114
100
AcDbArc
 50
180.0000000000032
 51
269.999999999987
  0
ARC
  5
C5
330
2
100
AcDbEntity
  8
GAIKEI
  6
HIDDEN2
 62
     1
 48
0.5
100
AcDbCircle
 10
2.841874603408825
 20
19.13949679734617
 30
0.0
 40
0.1527570561893894
100
AcDbArc
 50
89.01095442146154
 51
164.7288408702501
  0
LINE
  5
C6
330
2
100
AcDbEntity
  8
GAIKEI
  6
HIDDEN2
 62
     1
 48
0.5
100
AcDbLine
 10
2.84451138030738
 20
19.02973109481456
 30
0.0
 11
4.064511380307408
 21
19.02973109481456
 31
0.0
  0
ARC
  5
C7
330
2
100
AcDbEntity
  8
GAIKEI
  6
HIDDEN2
 62
     1
 48
0.5
100
AcDbCircle
 10
2.825761380307426
 20
20.14848109481454
 30
0.0
 40
0.1325825214723997
100
AcDbArc
 50
188.1301023541547
 51
278.1301023541466
  0
ARC
  5
C8
330
2
100
AcDbEntity
  8
GAIKEI
  6
HIDDEN2
 62
     1
 48
0.5
100
AcDbCircle
 10
2.837094818138496
 20
20.03206421915212
 30
0.0
 40
0.1728260841002366
100
AcDbArc
 50
87.5404855918947
 51
145.5896167621621
  0
LINE
  5
C9
330
2
100
AcDbEntity
  8
GAIKEI
  6
HIDDEN2
 62
     1
 48
0.5
100
AcDbLine
 10
2.844511380307324
 20
19.29223109481478
 30
0.0
 11
4.064511380307408
 21
19.2922310948145
 31
0.0
  0
LINE
  5
CA
330
2
100
AcDbEntity
  8
GAIKEI
  6
HIDDEN2
 62
     1
 48
0.5
100
AcDbLine
 10
2.84451138030738
 20
20.20473109481452
 30
0.0
 11
4.064511380307408
 21
20.20473109481452
 31
0.0
  0
LINE
  5
CB
330
2
100
AcDbEntity
  8
GAIKEI
  6
HIDDEN2
 62
     1
 48
0.5
100
AcDbLine
 10
2.84451138030738
 20
20.01723109481452
 30
0.0
 11
4.064511380307408
 21
20.01723109481452
 31
0.0
  0
ARC
  5
CC
330
2
100
AcDbEntity
  8
GAIKEI
  6
HIDDEN2
 62
     1
 48
0.5
100
AcDbCircle
 10
2.842883253593583
 20
20.94209984138684
 30
0.0
 40
0.1842509401539268
100
AcDbArc
 50
216.3635989904289
 51
270.506298655366
  0
ARC
  5
CD
330
2
100
AcDbEntity
  8
GAIKEI
  6
HIDDEN2
 62
     1
 48
0.5
100
AcDbCircle
 10
2.835948536112027
 20
20.73748178320534
 30
0.0
 40
0.1705893559312302
100
AcDbArc
 50
87.12279180544056
 51
146.007310548668
  0
LINE
  5
CE
330
2
100
AcDbEntity
  8
GAIKEI
  6
HIDDEN2
 62
     1
 48
0.5
100
AcDbLine
 10
2.84451138030738
 20
20.90785609481452
 30
0.0
 11
4.064511380307408
 21
20.90785609481452
 31
0.0
  0
LINE
  5
CF
330
2
100
AcDbEntity
  8
GAIKEI
  6
HIDDEN2
 62
     1
 48
0.5
100
AcDbLine
 10
2.84451138030738
 20
20.75785609481454
 30
0.0
 11
4.064511380307408
 21
20.75785609481454
 31
0.0
  0
ARC
  5
D0
330
2
100
AcDbEntity
  8
GAIKEI
  6
HIDDEN2
 62
     1
 48
0.5
100
AcDbCircle
 10
4.064511380307408
 20
17.20473109481452
 30
0.0
 40
0.1500000000000057
100
AcDbArc
 50
270.0
 51
90.0
  0
ARC
  5
D1
330
2
100
AcDbEntity
  8
GAIKEI
  6
HIDDEN2
 62
     1
 48
0.5
100
AcDbCircle
 10
4.064511380307408
 20
16.21723109481456
 30
0.0
 40
0.1500000000000057
100
AcDbArc
 50
270.0
 51
90.0
  0
ARC
  5
D2
330
2
100
AcDbEntity
  8
GAIKEI
  6
HIDDEN2
 62
     1
 48
0.5
100
AcDbCircle
 10
4.064511380307351
 20
15.2297310948145
 30
0.0
 40
0.1500000000000114
100
AcDbArc
 50
0.0000000000032569
 51
89.99999999998697
  0
ARC
  5
D3
330
2
100
AcDbEntity
  8
GAIKEI
  6
HIDDEN2
 62
     1
 48
0.5
100
AcDbCircle
 10
4.067148157205963
 20
15.26996539228292
 30
0.0
 40
0.1527570561893894
100
AcDbArc
 50
269.0109544214615
 51
344.7288408702501
  0
ARC
  5
D4
330
2
100
AcDbEntity
  8
GAIKEI
  6
HIDDEN2
 62
     1
 48
0.5
100
AcDbCircle
 10
4.083261380307362
 20
14.2609810948145
 30
0.0
 40
0.1325825214723997
100
AcDbArc
 50
8.130102354154729
 51
98.13010235414655
  0
ARC
  5
D5
330
2
100
AcDbEntity
  8
GAIKEI
  6
HIDDEN2
 62
     1
 48
0.5
100
AcDbCircle
 10
4.071927942476293
 20
14.37739797047697
 30
0.0
 40
0.1728260841002366
100
AcDbArc
 50
267.5404855918947
 51
325.5896167621621
  0
ARC
  5
D6
330
2
100
AcDbEntity
  8
GAIKEI
  6
HIDDEN2
 62
     1
 48
0.5
100
AcDbCircle
 10
4.066139507021205
 20
13.4673623482422
 30
0.0
 40
0.1842509401539268
100
AcDbArc
 50
36.36359899042895
 51
90.50629865536604
  0
ARC
  5
D7
330
2
100
AcDbEntity
  8
GAIKEI
  6
HIDDEN2
 62
     1
 48
0.5
100
AcDbCircle
 10
4.073074224502818
 20
13.67198040642376
 30
0.0
 40
0.1705893559312302
100
AcDbArc
 50
267.1227918054405
 51
326.007310548668
  0
LINE
  5
D8
330
2
100
AcDbEntity
  8
GAIKEI
  6
HIDDEN2
 62
     1
 48
0.5
100
AcDbLine
 10
2.84451138030738
 20
17.35473109481455
 30
0.0
 11
4.064511380307408
 21
17.35473109481449
 31
0.0
  0
ARC
  5
D9
330
2
100
AcDbEntity
  8
GAIKEI
  6
HIDDEN2
 62
     1
 48
0.5
100
AcDbCircle
 10
2.84451138030738
 20
17.20473109481452
 30
0.0
 40
0.1500000000000057
100
AcDbArc
 50
90.0
 51
270.0
  0
LINE
  5
DA
330
2
100
AcDbEntity
  8
GAIKEI
  6
HIDDEN2
 62
     1
 48
0.5
100
AcDbLine
 10
2.84451138030738
 20
17.05473109481454
 30
0.0
 11
4.064511380307408
 21
17.05473109481454
 31
0.0
  0
ARC
  5
DB
330
2
100
AcDbEntity
  8
GAIKEI
  6
HIDDEN2
 62
     1
 48
0.5
100
AcDbCircle
 10
2.84451138030738
 20
16.21723109481456
 30
0.0
 40
0.1500000000000057
100
AcDbArc
 50
90.0
 51
270.0
  0
LINE
  5
DC
330
2
100
AcDbEntity
  8
GAIKEI
  6
HIDDEN2
 62
     1
 48
0.5
100
AcDbLine
 10
2.84451138030738
 20
16.36723109481454
 30
0.0
 11
4.064511380307408
 21
16.36723109481454
 31
0.0
  0
LINE
  5
DD
330
2
100
AcDbEntity
  8
GAIKEI
  6
HIDDEN2
 62
     1
 48
0.5
100
AcDbLine
 10
2.84451138030738
 20
16.06723109481453
 30
0.0
 11
4.064511380307408
 21
16.06723109481453
 31
0.0
  0
ARC
  5
DE
330
2
100
AcDbEntity
  8
GAIKEI
  6
HIDDEN2
 62
     1
 48
0.5
100
AcDbCircle
 10
2.844511380307437
 20
15.2297310948145
 30
0.0
 40
0.1500000000000114
100
AcDbArc
 50
90.00000000001302
 51
179.9999999999967
  0
ARC
  5
DF
330
2
100
AcDbEntity
  8
GAIKEI
  6
HIDDEN2
 62
     1
 48
0.5
100
AcDbCircle
 10
2.841874603408825
 20
15.26996539228292
 30
0.0
 40
0.1527570561893894
100
AcDbArc
 50
195.2711591297499
 51
270.9890455785385
  0
LINE
  5
E0
330
2
100
AcDbEntity
  8
GAIKEI
  6
HIDDEN2
 62
     1
 48
0.5
100
AcDbLine
 10
2.84451138030738
 20
15.37973109481453
 30
0.0
 11
4.064511380307408
 21
15.37973109481453
 31
0.0
  0
ARC
  5
E1
330
2
100
AcDbEntity
  8
GAIKEI
  6
HIDDEN2
 62
     1
 48
0.5
100
AcDbCircle
 10
2.825761380307426
 20
14.2609810948145
 30
0.0
 40
0.1325825214723997
100
AcDbArc
 50
81.86989764585343
 51
171.8698976458453
  0
ARC
  5
E2
330
2
100
AcDbEntity
  8
GAIKEI
  6
HIDDEN2
 62
     1
 48
0.5
100
AcDbCircle
 10
2.837094818138496
 20
14.37739797047697
 30
0.0
 40
0.1728260841002366
100
AcDbArc
 50
214.4103832378378
 51
272.4595144081053
  0
LINE
  5
E3
330
2
100
AcDbEntity
  8
GAIKEI
  6
HIDDEN2
 62
     1
 48
0.5
100
AcDbLine
 10
2.844511380307324
 20
15.11723109481431
 30
0.0
 11
4.064511380307408
 21
15.11723109481454
 31
0.0
  0
LINE
  5
E4
330
2
100
AcDbEntity
  8
GAIKEI
  6
HIDDEN2
 62
     1
 48
0.5
100
AcDbLine
 10
2.84451138030738
 20
14.20473109481452
 30
0.0
 11
4.064511380307408
 21
14.20473109481452
 31
0.0
  0
LINE
  5
E5
330
2
100
AcDbEntity
  8
GAIKEI
  6
HIDDEN2
 62
     1
 48
0.5
100
AcDbLine
 10
2.84451138030738
 20
14.39223109481452
 30
0.0
 11
4.064511380307408
 21
14.39223109481452
 31
0.0
  0
ARC
  5
E6
330
2
100
AcDbEntity
  8
GAIKEI
  6
HIDDEN2
 62
     1
 48
0.5
100
AcDbCircle
 10
2.842883253593583
 20
13.4673623482422
 30
0.0
 40
0.1842509401539268
100
AcDbArc
 50
89.49370134463393
 51
143.636401009571
  0
ARC
  5
E7
330
2
100
AcDbEntity
  8
GAIKEI
  6
HIDDEN2
 62
     1
 48
0.5
100
AcDbCircle
 10
2.835948536112027
 20
13.67198040642376
 30
0.0
 40
0.1705893559312302
100
AcDbArc
 50
213.992689451332
 51
272.8772081945594
  0
LINE
  5
E8
330
2
100
AcDbEntity
  8
GAIKEI
  6
HIDDEN2
 62
     1
 48
0.5
100
AcDbLine
 10
2.84451138030738
 20
13.50160609481452
 30
0.0
 11
4.064511380307408
 21
13.50160609481452
 31
0.0
  0
LINE
  5
E9
330
2
100
AcDbEntity
  8
GAIKEI
  6
HIDDEN2
 62
     1
 48
0.5
100
AcDbLine
 10
2.84451138030738
 20
13.65160609481449
 30
0.0
 11
4.064511380307408
 21
13.65160609481449
 31
0.0
  0
ARC
  5
EA
330
2
100
AcDbEntity
  8
GAIKEI
  6
HIDDEN2
 62
     1
 48
0.5
100
AcDbCircle
 10
2.554511380307189
 20
13.3547310948145
 30
0.0
 40
0.1
100
AcDbArc
 50
180.0
 51
270.0
  0
LINE
  5
EB
330
2
100
AcDbEntity
  8
GAIKEI
  6
HIDDEN2
 62
     1
 48
0.5
100
AcDbLine
 10
2.554511380307189
 20
21.15473109481456
 30
0.0
 11
4.454511380307224
 21
21.15473109481456
 31
0.0
  0
LINE
  5
EC
330
2
100
AcDbEntity
  8
GAIKEI
  6
HIDDEN2
 62
     1
 48
0.5
100
AcDbLine
 10
2.554511380307189
 20
13.25473109481453
 30
0.0
 11
4.454511380307224
 21
13.25473109481453
 31
0.0
  0
LINE
  5
ED
330
2
100
AcDbEntity
  8
GAIKEI
  6
HIDDEN2
 62
     1
 48
0.5
100
AcDbLine
 10
2.454511380307224
 20
21.05473109481454
 30
0.0
 11
2.454511380307224
 21
13.3547310948145
 31
0.0
  0
LINE
  5
EE
330
2
100
AcDbEntity
  8
GAIKEI
  6
HIDDEN2
 62
     1
 48
0.5
100
AcDbLine
 10
-31.09142374315678
 20
19.29523967661174
 30
0.0
 11
-31.13342374315698
 21
19.29523967661174
 31
0.0
  0
LINE
  5
EF
330
2
100
AcDbEntity
  8
GAIKEI
  6
HIDDEN2
 62
     1
 48
0.5
100
AcDbLine
 10
-30.93142374315676
 20
19.45523967661177
 30
0.0
 11
-31.09142374315678
 21
19.29523967661174
 31
0.0
  0
LINE
  5
F0
330
2
100
AcDbEntity
  8
GAIKEI
  6
HIDDEN2
 62
     1
 48
0.5
100
AcDbLine
 10
-30.93142374315676
 20
20.13523967661172
 30
0.0
 11
-30.93142374315676
 21
19.45523967661177
 31
0.0
  0
LINE
  5
F1
330
2
100
AcDbEntity
  8
GAIKEI
  6
HIDDEN2
 62
     1
 48
0.5
100
AcDbLine
 10
-31.09142374315678
 20
20.29523967661174
 30
0.0
 11
-30.93142374315676
 21
20.13523967661172
 31
0.0
  0
LINE
  5
F2
330
2
100
AcDbEntity
  8
GAIKEI
  6
HIDDEN2
 62
     1
 48
0.3
100
AcDbLine
 10
-31.77142374315679
 20
20.29523967661174
 30
0.0
 11
-31.09142374315678
 21
20.29523967661174
 31
0.0
  0
LINE
  5
F3
330
2
100
AcDbEntity
  8
GAIKEI
  6
HIDDEN2
 62
     1
 48
0.3
100
AcDbLine
 10
-31.93142374315676
 20
20.13523967661172
 30
0.0
 11
-31.77142374315679
 21
20.29523967661174
 31
0.0
  0
LINE
  5
F4
330
2
100
AcDbEntity
  8
GAIKEI
  6
HIDDEN2
 62
     1
 48
0.3
100
AcDbLine
 10
-31.93142374315676
 20
19.45523967661177
 30
0.0
 11
-31.93142374315676
 21
20.13523967661172
 31
0.0
  0
LINE
  5
F5
330
2
100
AcDbEntity
  8
GAIKEI
  6
HIDDEN2
 62
     1
 48
0.5
100
AcDbLine
 10
-31.77142374315679
 20
19.29523967661174
 30
0.0
 11
-31.93142374315676
 21
19.45523967661177
 31
0.0
  0
LINE
  5
F6
330
2
100
AcDbEntity
  8
GAIKEI
  6
HIDDEN2
 62
     1
 48
0.5
100
AcDbLine
 10
-31.733423743157
 20
19.29523967661174
 30
0.0
 11
-31.77142374315679
 21
19.29523967661174
 31
0.0
  0
LINE
  5
F7
330
2
100
AcDbEntity
  8
GAIKEI
  6
HIDDEN2
 62
     1
 48
0.3
100
AcDbLine
 10
-32.03142374315678
 20
20.69473097860009
 30
0.0
 11
-31.03142374315678
 21
20.59473097860013
 31
0.0
  0
LINE
  5
F8
330
2
100
AcDbEntity
  8
GAIKEI
  6
HIDDEN2
 62
     1
 48
0.3
100
AcDbLine
 10
-32.23142374315677
 20
20.49473097860016
 30
0.0
 11
-32.03142374315678
 21
20.69473097860009
 31
0.0
  0
LINE
  5
F9
330
2
100
AcDbEntity
  8
GAIKEI
  6
HIDDEN2
 62
     1
 48
0.3
100
AcDbLine
 10
-32.23142374315677
 20
19.09473097860012
 30
0.0
 11
-32.23142374315677
 21
20.49473097860016
 31
0.0
  0
LINE
  5
FA
330
2
100
AcDbEntity
  8
GAIKEI
  6
HIDDEN2
 62
     1
 48
0.5
100
AcDbLine
 10
-32.03142374315678
 20
18.89473097860014
 30
0.0
 11
-32.23142374315677
 21
19.09473097860012
 31
0.0
  0
LINE
  5
FB
330
2
100
AcDbEntity
  8
GAIKEI
  6
HIDDEN2
 62
     1
 48
0.5
100
AcDbLine
 10
-31.733423743157
 20
18.92453097860016
 30
0.0
 11
-32.03142374315678
 21
18.89473097860014
 31
0.0
  0
ARC
  5
FC
330
2
100
AcDbEntity
  8
GAIKEI
  6
HIDDEN2
 62
     1
 48
0.5
100
AcDbCircle
 10
-31.43342374315699
 20
19.79740963152062
 30
0.0
 40
0.3000078477378658
100
AcDbArc
 50
359.5855763672641
 51
180.4144236327359
  0
ARC
  5
FD
330
2
100
AcDbEntity
  8
GAIKEI
 62
     1
100
AcDbCircle
 10
-31.80010058955816
 20
18.50688827039317
 30
0.0
 40
0.7966200729918626
100
AcDbArc
 50
294.8541640304602
 51
344.7508045390644
  0
ARC
  5
FE
330
2
100
AcDbEntity
  8
GAIKEI
  6
Continuous
 62
     1
100
AcDbCircle
 10
-44.17728235952359
 20
20.82413356812879
 30
0.0
 40
13.3863889161199
100
AcDbArc
 50
349.11976511185
 51
354.1394072986232
  0
ARC
  5
FF
330
2
100
AcDbEntity
  8
GAIKEI
  6
Continuous
 62
     1
100
AcDbCircle
 10
-12.84127528979764
 20
16.21374975545041
 30
0.0
 40
18.30917465991739
100
AcDbArc
 50
165.1749280925787
 51
169.7960380769807
  0
LINE
  5
100
330
2
100
AcDbEntity
  8
GAIKEI
  6
Continuous
 62
     1
100
AcDbLine
 10
-30.70093169501666
 20
21.10385556339441
 30
0.0
 11
-30.84417593155672
 21
21.10361928695437
 31
0.0
  0
ARC
  5
101
330
2
100
AcDbEntity
  8
GAIKEI
  6
Continuous
 62
     1
100
AcDbCircle
 10
-30.68176652354771
 20
20.95380120525306
 30
0.0
 40
0.1512733095910914
100
AcDbArc
 50
338.5557638351967
 51
97.27849752154055
  0
LINE
  5
102
330
2
100
AcDbEntity
  8
GAIKEI
  6
Continuous
100
AcDbLine
 10
-30.46837429959342
 20
21.39500928664978
 30
0.0
 11
-30.08516872385678
 21
21.40169816489436
 31
0.0
  0
ARC
  5
103
330
2
100
AcDbEntity
  8
GAIKEI
  6
Continuous
100
AcDbCircle
 10
-30.46132380267327
 20
21.05411456246469
 30
0.0
 40
0.3409676267390214
100
AcDbArc
 50
91.18484124998968
 51
156.1193616379399
  0
ARC
  5
104
330
2
100
AcDbEntity
  8
GAIKEI
  6
Continuous
100
AcDbCircle
 10
-26.20435880971343
 20
19.16074825534457
 30
0.0
 40
4.999999999273716
100
AcDbArc
 50
156.0286224850963
 51
166.7569036988331
  0
ARC
  5
105
330
2
100
AcDbEntity
  8
GAIKEI
  6
Continuous
100
AcDbCircle
 10
-13.37008596404257
 20
16.67968965418174
 30
0.0
 40
18.06896761510249
100
AcDbArc
 50
168.421999271291
 51
178.3348864879082
  0
ARC
  5
106
330
2
100
AcDbEntity
  8
GAIKEI
100
AcDbCircle
 10
-17.89297985513656
 20
17.20473089481436
 30
0.0
 40
13.53844388802023
100
AcDbArc
 50
180.0
 51
193.2431226273008
  0
ARC
  5
107
330
2
100
AcDbEntity
  8
GAIKEI
100
AcDbCircle
 10
-26.2043588099653
 20
15.24871353421497
 30
0.0
 40
4.999999999012686
100
AcDbArc
 50
193.2431190091757
 51
205.9207772924575
  0
LINE
  5
108
330
2
100
AcDbEntity
  8
GAIKEI
100
AcDbLine
 10
-30.4015117403203
 20
12.87070200145985
 30
0.0
 11
-30.08777334582794
 21
12.86522567741372
 31
0.0
  0
ARC
  5
109
330
2
100
AcDbEntity
  8
GAIKEI
100
AcDbCircle
 10
-30.39443213961948
 20
13.21160102745063
 30
0.0
 40
0.3409725306642061
100
AcDbArc
 50
205.8234228694319
 51
268.8102842444601
  0
LINE
  5
10A
330
2
100
AcDbEntity
  8
GAIKEI
 62
     1
100
AcDbLine
 10
-31.131392581726
 20
14.10329559535432
 30
0.0
 11
-30.47139258171677
 21
14.10329559535432
 31
0.0
  0
LINE
  5
10B
330
2
100
AcDbEntity
  8
GAIKEI
  6
HIDDEN2
 62
     1
 48
0.5
100
AcDbLine
 10
-31.13342374315698
 20
11.52280411511555
 30
0.0
 11
-31.13342374315698
 21
19.79523967661174
 31
0.0
  0
LINE
  5
10C
330
2
100
AcDbEntity
  8
GAIKEI
  6
HIDDEN2
 62
     1
 48
0.5
100
AcDbLine
 10
-31.733423743157
 20
11.52280411511555
 30
0.0
 11
-31.733423743157
 21
19.79523967661174
 31
0.0
  0
ARC
  5
10D
330
2
100
AcDbEntity
  8
GAIKEI
  6
HIDDEN2
 62
     1
 48
0.5
100
AcDbCircle
 10
-30.61059854449258
 20
11.52280411511549
 30
0.0
 40
1.122825198664395
100
AcDbArc
 50
180.0
 51
0.0000000000032569
  0
ARC
  5
10E
330
2
100
AcDbEntity
  8
GAIKEI
  6
HIDDEN2
 62
     1
 48
0.5
100
AcDbCircle
 10
-30.61059854449258
 20
11.52280411511555
 30
0.0
 40
0.5228251986643841
100
AcDbArc
 50
180.0
 51
0.0
  0
LINE
  5
10F
330
2
100
AcDbEntity
  8
GAIKEI
  6
HIDDEN2
 62
     1
 48
0.5
100
AcDbLine
 10
-30.08777334582794
 20
14.52639815022712
 30
0.0
 11
-30.08777334582794
 21
11.52280411511555
 31
0.0
  0
LINE
  5
110
330
2
100
AcDbEntity
  8
GAIKEI
  6
HIDDEN2
 62
     1
 48
0.5
100
AcDbLine
 10
-29.48777334582798
 20
14.52639815022712
 30
0.0
 11
-29.48777334582798
 21
11.52280411511555
 31
0.0
  0
LINE
  5
111
330
2
100
AcDbEntity
  8
GAIKEI
  6
HIDDEN2
 62
     1
 48
0.5
100
AcDbLine
 10
-29.42739598733727
 20
15.46695992989618
 30
0.0
 11
-29.04334066098375
 21
15.60563650302652
 31
0.0
  0
ARC
  5
112
330
2
100
AcDbEntity
  8
GAIKEI
  6
HIDDEN2
 62
     1
 48
0.5
100
AcDbCircle
 10
-29.087773345828
 20
14.52639815022712
 30
0.0
 40
0.9999999999999804
100
AcDbArc
 50
109.8538850264381
 51
180.0
  0
ARC
  5
113
330
2
100
AcDbEntity
  8
GAIKEI
  6
HIDDEN2
 62
     1
 48
0.5
100
AcDbCircle
 10
-29.08777334582794
 20
14.52639815022712
 30
0.0
 40
0.4000000000000109
100
AcDbArc
 50
109.8538850264537
 51
180.0
  0
LINE
  5
114
330
2
100
AcDbEntity
  8
GAIKEI
  6
HIDDEN2
 62
     1
 48
0.5
100
AcDbLine
 10
-28.8395670760782
 20
15.04129943522514
 30
0.0
 11
-29.22362240243177
 21
14.90262286209474
 31
0.0
  0
ARC
  5
115
330
2
100
AcDbEntity
  8
GAIKEI
  6
HIDDEN2
 62
     1
 48
0.5
100
AcDbCircle
 10
-29.08513353962098
 20
16.01582347904536
 30
0.0
 40
0.0999999999997343
100
AcDbArc
 50
109.853885026419
 51
199.8538850265465
  0
ARC
  5
116
330
2
100
AcDbEntity
  8
GAIKEI
  6
HIDDEN2
 62
     1
 48
0.5
100
AcDbCircle
 10
-28.60966184150754
 20
14.6990369875084
 30
0.0
 40
0.0999999999999008
100
AcDbArc
 50
199.8538850264461
 51
289.8538850264728
  0
LINE
  5
117
330
2
100
AcDbEntity
  8
GAIKEI
  6
HIDDEN2
 62
     1
 48
0.5
100
AcDbLine
 10
-28.5756995773566
 20
14.60498080954164
 30
0.0
 11
-28.38758722142279
 21
14.6729053378433
 31
0.0
  0
LINE
  5
118
330
2
100
AcDbEntity
  8
GAIKEI
  6
HIDDEN2
 62
     1
 48
0.5
100
AcDbLine
 10
-29.17918971758758
 20
15.98186121489436
 30
0.0
 11
-28.70371801947437
 21
14.66507472335752
 31
0.0
  0
LINE
  5
119
330
2
100
AcDbEntity
  8
GAIKEI
  6
HIDDEN2
 62
     1
 48
0.5
100
AcDbLine
 10
-28.93098344783778
 20
16.17780418531373
 30
0.0
 11
-29.11909580377176
 21
16.10987965701213
 31
0.0
  0
LINE
  5
11A
330
2
100
AcDbEntity
  8
GAIKEI
 62
     1
100
AcDbLine
 10
-30.8321219457568
 20
17.2647308948143
 30
0.0
 11
-29.03108411189743
 21
17.2647308948143
 31
0.0
  0
LINE
  5
11B
330
2
100
AcDbEntity
  8
GAIKEI
 62
     1
100
AcDbLine
 10
-30.83142374005678
 20
17.20473089481436
 30
0.0
 11
-29.03142374315678
 21
17.20473089481453
 31
0.0
  0
ARC
  5
11C
330
2
100
AcDbEntity
  8
GAIKEI
100
AcDbCircle
 10
-14.83386062065534
 20
17.48396939779451
 30
0.0
 40
16.00000000000141
100
AcDbArc
 50
181.0000000002004
 51
191.7243380599976
  0
ARC
  5
11D
330
2
100
AcDbEntity
  8
GAIKEI
100
AcDbCircle
 10
-25.60435881678785
 20
15.24871353260857
 30
0.0
 40
4.999999992075891
100
AcDbArc
 50
191.7241001681097
 51
206.2745811747447
  0
ARC
  5
11E
330
2
100
AcDbEntity
  8
GAIKEI
100
AcDbCircle
 10
-28.17654029723679
 20
13.7047308948143
 30
0.0
 40
1.999999999999971
100
AcDbArc
 50
229.0335853627193
 51
270.0
  0
ARC
  5
11F
330
2
100
AcDbEntity
  8
GAIKEI
  6
Continuous
100
AcDbCircle
 10
-14.9295492684169
 20
17.03987123849356
 30
0.0
 40
15.90333084058999
100
AcDbArc
 50
168.9237215450101
 51
179.1900153407603
  0
ARC
  5
120
330
2
100
AcDbEntity
  8
GAIKEI
  6
Continuous
100
AcDbCircle
 10
-25.62951926404571
 20
19.135884450101
 30
0.0
 40
4.999999991611146
100
AcDbArc
 50
148.4702363768394
 51
168.9390459861082
  0
ARC
  5
121
330
2
100
AcDbEntity
  8
GAIKEI
100
AcDbCircle
 10
-28.18661151560917
 20
20.70473089455663
 30
0.0
 40
2.000000000345863
100
AcDbArc
 50
89.99946214009886
 51
148.4709823499112
  0
ARC
  5
122
330
2
100
AcDbEntity
  8
GAIKEI
  6
Continuous
 62
     1
100
AcDbCircle
 10
-14.83274345534926
 20
17.02711967898227
 30
0.0
 40
15.80111905518557
100
AcDbArc
 50
168.9393661739448
 51
178.9996428161204
  0
ARC
  5
123
330
2
100
AcDbEntity
  8
GAIKEI
 62
     1
100
AcDbCircle
 10
-25.62949286101684
 20
19.13761946616557
 30
0.0
 40
4.800027878558529
100
AcDbArc
 50
148.469799184917
 51
168.9389489056102
  0
ARC
  5
124
330
2
100
AcDbEntity
  8
GAIKEI
 62
     1
100
AcDbCircle
 10
-28.18660288363537
 20
20.70646077845549
 30
0.0
 40
1.800015423479614
100
AcDbArc
 50
90.00027476978686
 51
148.4694643335557
  0
ARC
  5
125
330
2
100
AcDbEntity
  8
GAIKEI
 62
     1
100
AcDbCircle
 10
-17.04553384599745
 20
17.33980113639779
 30
0.0
 40
13.58656121380509
100
AcDbArc
 50
180.5696130272599
 51
196.2731411348481
  0
ARC
  5
126
330
2
100
AcDbEntity
  8
GAIKEI
 62
     1
100
AcDbCircle
 10
-28.17643272029147
 20
13.7032314167858
 30
0.0
 40
1.800245832285718
100
AcDbArc
 50
223.2456417765831
 51
269.9965761870771
  0
LINE
  5
127
330
2
100
AcDbEntity
  8
GAIKEI
  6
HIDDEN2
 62
     1
 48
0.5
100
AcDbLine
 10
-25.46239077772856
 20
23.1300456961859
 30
0.0
 11
-25.33421950131736
 21
23.0702784484397
 31
0.0
  0
LINE
  5
128
330
2
100
AcDbEntity
  8
GAIKEI
  6
HIDDEN2
 62
     1
 48
0.5
100
AcDbLine
 10
-26.21414487435738
 20
22.8564295815255
 30
0.0
 11
-25.46239077772856
 21
23.1300456961859
 31
0.0
  0
LINE
  5
129
330
2
100
AcDbEntity
  8
GAIKEI
  6
HIDDEN2
 62
     1
 48
0.5
100
AcDbLine
 10
-26.27391212210341
 20
22.72825830511431
 30
0.0
 11
-26.21414487435738
 21
22.8564295815255
 31
0.0
  0
LINE
  5
12A
330
2
100
AcDbEntity
  8
GAIKEI
  6
HIDDEN2
 62
     1
 48
0.5
100
AcDbLine
 10
-26.27391212210341
 20
22.72825830511431
 30
0.0
 11
-25.33421950131736
 21
23.0702784484397
 31
0.0
  0
LINE
  5
12B
330
2
100
AcDbEntity
  8
GAIKEI
  6
HIDDEN2
 62
     1
 48
0.5
100
AcDbLine
 10
-25.06619965134138
 20
22.33389996266533
 30
0.0
 11
-25.33421950131736
 21
23.0702784484397
 31
0.0
  0
LINE
  5
12C
330
2
100
AcDbEntity
  8
GAIKEI
  6
HIDDEN2
 62
     1
 48
0.5
100
AcDbLine
 10
-26.00589227212737
 20
21.99187981933972
 30
0.0
 11
-26.27391212210341
 21
22.72825830511431
 31
0.0
  0
LINE
  5
12D
330
2
100
AcDbEntity
  8
GAIKEI
 62
     1
100
AcDbLine
 10
-23.07972393043678
 20
23.63748503965439
 30
0.0
 11
-23.0622079389168
 21
24.70473089481436
 31
0.0
  0
ARC
  5
12E
330
2
100
AcDbEntity
  8
GAIKEI
 62
     1
100
AcDbCircle
 10
-23.27946065262239
 20
23.64073860479084
 30
0.0
 40
0.1997632195263606
100
AcDbArc
 50
269.9332238183651
 51
359.0667761870483
  0
LINE
  5
12F
330
2
100
AcDbEntity
  8
GAIKEI
 62
     1
100
AcDbLine
 10
-24.18315401683685
 20
23.44097552093433
 30
0.0
 11
-23.27969346945679
 21
23.44097552093433
 31
0.0
  0
LINE
  5
130
330
2
100
AcDbEntity
  8
GAIKEI
 62
     1
100
AcDbLine
 10
-24.38312355587675
 20
23.63748503965434
 30
0.0
 11
-24.40063954737679
 21
24.70473089481436
 31
0.0
  0
ARC
  5
131
330
2
100
AcDbEntity
  8
GAIKEI
 62
     1
100
AcDbCircle
 10
-24.18338532714995
 20
23.6407401378583
 30
0.0
 40
0.1997647508427243
100
AcDbArc
 50
180.9336564256583
 51
270.0663435746624
  0
ARC
  5
132
330
2
100
AcDbEntity
  8
GAIKEI
100
AcDbCircle
 10
-20.49242406374077
 20
24.60473089433066
 30
0.0
 40
0.100000000686284
100
AcDbArc
 50
26.94380885703405
 51
89.9963526859163
  0
ARC
  5
133
330
2
100
AcDbEntity
  8
GAIKEI
100
AcDbCircle
 10
-25.75192194171683
 20
21.93123149529435
 30
0.0
 40
6.000000000000074
100
AcDbArc
 50
9.337441822598398
 51
26.94503251860149
  0
ARC
  5
134
330
2
100
AcDbEntity
  8
GAIKEI
 62
     1
100
AcDbCircle
 10
-25.75319331805821
 20
22.14828760803334
 30
0.0
 40
5.401316346217469
100
AcDbArc
 50
8.066277378866844
 51
28.24872392719459
  0
LINE
  5
135
330
2
100
AcDbEntity
  8
GAIKEI
100
AcDbLine
 10
-19.83142374315827
 20
22.90473089481429
 30
0.0
 11
-19.83142374315679
 21
22.70473089481436
 31
0.0
  0
LINE
  5
136
330
2
100
AcDbEntity
  8
GAIKEI
 62
     1
100
AcDbLine
 10
-20.43142374315676
 20
22.90473089481429
 30
0.0
 11
-20.43142374315676
 21
22.70473089481436
 31
0.0
  0
ARC
  5
137
330
2
100
AcDbEntity
  8
GAIKEI
100
AcDbCircle
 10
-26.97042141718834
 20
24.60471475798579
 30
0.0
 40
0.1000161371061326
100
AcDbArc
 50
90.00479637901488
 51
153.0486400922844
  0
ARC
  5
138
330
2
100
AcDbEntity
  8
GAIKEI
100
AcDbCircle
 10
-21.71092554459659
 20
21.93123149529424
 30
0.0
 40
6.0
100
AcDbArc
 50
153.0549565624002
 51
170.662554478999
  0
ARC
  5
139
330
2
100
AcDbEntity
  8
GAIKEI
 62
     1
100
AcDbCircle
 10
-21.70965406462403
 20
22.14828759004422
 30
0.0
 40
5.401316450926262
100
AcDbArc
 50
151.7512764529612
 51
171.9337225862421
  0
LINE
  5
13A
330
2
100
AcDbEntity
  8
GAIKEI
100
AcDbLine
 10
-27.63142374315504
 20
22.90473089481429
 30
0.0
 11
-27.6314237431568
 21
22.70473089481436
 31
0.0
  0
LINE
  5
13B
330
2
100
AcDbEntity
  8
GAIKEI
 62
     1
100
AcDbLine
 10
-27.03142374315678
 20
22.90473089481429
 30
0.0
 11
-27.03142374315678
 21
22.70473089481436
 31
0.0
  0
LINE
  5
13C
330
2
100
AcDbEntity
  8
GAIKEI
100
AcDbLine
 10
-26.97042978979676
 20
24.70473089481436
 30
0.0
 11
-20.49241769797675
 21
24.70473089481436
 31
0.0
  0
LINE
  5
13D
330
2
100
AcDbEntity
  8
GAIKEI
 62
     1
100
AcDbLine
 10
-27.63142374315504
 20
22.90473089481429
 30
0.0
 11
-19.83142374315827
 21
22.90473089481429
 31
0.0
  0
LINE
  5
13E
330
2
100
AcDbEntity
  8
GAIKEI
100
AcDbLine
 10
-28.1865927407568
 20
22.70473089481436
 30
0.0
 11
-19.27625761011677
 21
22.70473089481436
 31
0.0
  0
LINE
  5
13F
330
2
100
AcDbEntity
  8
GAIKEI
 62
     1
100
AcDbLine
 10
-28.18661151585678
 20
22.50647620191438
 30
0.0
 11
-19.27623597045681
 21
22.50647620191438
 31
0.0
  0
ARC
  5
140
330
2
100
AcDbEntity
  8
GAIKEI
100
AcDbCircle
 10
-19.27623597054668
 20
20.70473089446966
 30
0.0
 40
2.000000000344705
100
AcDbArc
 50
31.52957368874997
 51
90.00061992792559
  0
ARC
  5
141
330
2
100
AcDbEntity
  8
GAIKEI
 62
     1
100
AcDbCircle
 10
-19.27624460269032
 20
20.70646077839786
 30
0.0
 40
1.800015423537247
100
AcDbArc
 50
31.53053566747186
 51
89.99972522982719
  0
ARC
  5
142
330
2
100
AcDbEntity
  8
GAIKEI
100
AcDbCircle
 10
-21.83332823263021
 20
19.13588444661519
 30
0.0
 40
5.000000002550511
100
AcDbArc
 50
11.06058280227008
 51
31.52998600878231
  0
ARC
  5
143
330
2
100
AcDbEntity
  8
GAIKEI
 62
     1
100
AcDbCircle
 10
-32.6289868551263
 20
17.02549239246127
 30
0.0
 40
15.99999998945984
100
AcDbArc
 50
0.999974583441501
 51
11.0608634479589
  0
ARC
  5
144
330
2
100
AcDbEntity
  8
GAIKEI
 62
     1
100
AcDbCircle
 10
-21.88727190114815
 20
19.11660274045994
 30
0.0
 40
4.856986594043163
100
AcDbArc
 50
11.18234367131231
 51
31.40890823690722
  0
ARC
  5
145
330
2
100
AcDbEntity
  8
GAIKEI
 62
     1
100
AcDbCircle
 10
-32.63010402696301
 20
17.02711967929036
 30
0.0
 40
15.80111905119954
100
AcDbArc
 50
1.000357183016329
 51
11.06063382774099
  0
LINE
  5
146
330
2
100
AcDbEntity
  8
GAIKEI
 62
     1
100
AcDbLine
 10
-16.63072554055679
 20
17.2647308948143
 30
0.0
 11
-16.93168845242673
 21
17.2647308948143
 31
0.0
  0
LINE
  5
147
330
2
100
AcDbEntity
  8
GAIKEI
 62
     1
100
AcDbLine
 10
-16.63142374315549
 20
17.20473089474183
 30
0.0
 11
-16.93142374315675
 21
17.204730894823
 31
0.0
  0
ARC
  5
148
330
2
100
AcDbEntity
  8
GAIKEI
100
AcDbCircle
 10
-25.90259927301514
 20
17.22759717466658
 30
0.0
 40
9.471203132878358
100
AcDbArc
 50
339.1209539748522
 51
20.57937286483317
  0
ARC
  5
149
330
2
100
AcDbEntity
  8
GAIKEI
 62
     1
100
AcDbCircle
 10
-32.62898686565819
 20
17.48396939779451
 30
0.0
 40
16.00000000000141
100
AcDbArc
 50
348.2756619400024
 51
358.9999999997995
  0
ARC
  5
14A
330
2
100
AcDbEntity
  8
GAIKEI
100
AcDbCircle
 10
-21.85848866952574
 20
15.24871353260857
 30
0.0
 40
4.999999992075891
100
AcDbArc
 50
329.0257103760897
 51
348.2758998318902
  0
ARC
  5
14B
330
2
100
AcDbEntity
  8
GAIKEI
 62
     1
100
AcDbCircle
 10
-32.63025495764202
 20
17.48236555441639
 30
0.0
 40
15.80127038135564
100
AcDbArc
 50
348.2759859236666
 51
358.993238362981
  0
ARC
  5
14C
330
2
100
AcDbEntity
  8
GAIKEI
 62
     1
100
AcDbCircle
 10
-21.9124055529046
 20
15.26804334674278
 30
0.0
 40
4.857084180346727
100
AcDbArc
 50
329.13938906143
 51
348.1613743266674
  0
ARC
  5
14D
330
2
100
AcDbEntity
  8
GAIKEI
100
AcDbCircle
 10
-19.28630718907681
 20
13.7047308948143
 30
0.0
 40
1.999999999999971
100
AcDbArc
 50
270.0
 51
329.0264616399986
  0
ARC
  5
14E
330
2
100
AcDbEntity
  8
GAIKEI
 62
     1
100
AcDbCircle
 10
-19.28631605047559
 20
13.70300124216879
 30
0.0
 40
1.800015654476261
100
AcDbArc
 50
270.000282064633
 51
329.0249275135765
  0
LINE
  5
14F
330
2
100
AcDbEntity
  8
GAIKEI
100
AcDbLine
 10
-28.17654029723679
 20
11.70473089481436
 30
0.0
 11
-19.28630718907675
 21
11.70473089481436
 31
0.0
  0
LINE
  5
150
330
2
100
AcDbEntity
  8
GAIKEI
 62
     1
100
AcDbLine
 10
-28.17654029723679
 20
11.90298558771434
 30
0.0
 11
-19.28630718907675
 21
11.90298558771434
 31
0.0
  0
ARC
  5
151
330
2
100
AcDbEntity
  8
GAIKEI
  6
HIDDEN2
 62
     1
 48
0.5
100
AcDbCircle
 10
-18.40210322977049
 20
19.49347373337934
 30
0.0
 40
1.000000000001354
100
AcDbArc
 50
23.24170285242438
 51
60.83736459026038
  0
ARC
  5
152
330
2
100
AcDbEntity
  8
GAIKEI
  6
HIDDEN2
 62
     1
 48
0.5
100
AcDbCircle
 10
-30.09707024477524
 20
-1.464287275801495
 30
0.0
 40
25.00000000000111
100
AcDbArc
 50
60.83736459037794
 51
69.86006976755028
  0
ARC
  5
153
330
2
100
AcDbEntity
  8
GAIKEI
  6
HIDDEN2
 62
     1
 48
0.5
100
AcDbCircle
 10
-18.40210322977134
 20
14.9159884562498
 30
0.0
 40
1.000000000002176
100
AcDbArc
 50
299.1626354096259
 51
336.7582971475898
  0
ARC
  5
154
330
2
100
AcDbEntity
  8
GAIKEI
  6
HIDDEN2
 62
     1
 48
0.5
100
AcDbCircle
 10
-23.73142374315682
 20
17.20473109481452
 30
0.0
 40
6.800000000000057
100
AcDbArc
 50
336.7582971476181
 51
23.24170285238189
  0
ARC
  5
155
330
2
100
AcDbEntity
  8
GAIKEI
  6
HIDDEN2
 62
     1
 48
0.5
100
AcDbCircle
 10
-30.09707024477416
 20
35.87374946542775
 30
0.0
 40
24.99999999999848
100
AcDbArc
 50
290.1399302324497
 51
299.1626354096198
  0
CIRCLE
  5
156
330
2
100
AcDbEntity
  8
GAIKEI
  6
HIDDEN2
 62
     1
 48
0.5
100
AcDbCircle
 10
-23.73142374315677
 20
17.20473089481436
 30
0.0
 40
5.299999882719789
  0
CIRCLE
  5
157
330
2
100
AcDbEntity
  8
GAIKEI
  6
HIDDEN2
 62
     1
 48
0.5
100
AcDbCircle
 10
-23.73142374315677
 20
17.20473089481436
 30
0.0
 40
4.099999999999996
  0
CIRCLE
  5
158
330
2
100
AcDbEntity
  8
GAIKEI
  6
HIDDEN2
 62
     1
 48
0.5
100
AcDbCircle
 10
-23.73142374315677
 20
17.20473089481436
 30
0.0
 40
3.399999999999999
  0
CIRCLE
  5
159
330
2
100
AcDbEntity
  8
GAIKEI
  6
HIDDEN2
 62
     1
 48
0.5
100
AcDbCircle
 10
-23.73142374315677
 20
17.20473089481436
 30
0.0
 40
3.099999999999997
  0
LINE
  5
15A
330
2
100
AcDbEntity
  8
WAKU
 62
     4
100
AcDbLine
 10
61.89551624248077
 20
-54.61048528043773
 30
0.0
 11
61.89551624248077
 21
-9.610485280437728
 31
0.0
  0
LINE
  5
15B
330
2
100
AcDbEntity
  8
WAKU
 62
     4
100
AcDbLine
 10
-63.10448375751923
 20
-9.610485280437728
 30
0.0
 11
-63.10448375751923
 21
-54.61048528043773
 31
0.0
  0
LINE
  5
15C
330
2
100
AcDbEntity
  8
WAKU
 62
     4
100
AcDbLine
 10
-22.89890252700081
 20
-54.6104852804375
 30
0.0
 11
-22.89890252700084
 21
-9.610485280437728
 31
0.0
  0
LINE
  5
15D
330
2
100
AcDbEntity
  8
WAKU
 62
     4
100
AcDbLine
 10
-63.10448375751923
 20
-54.61048528043773
 30
0.0
 11
61.89551624248077
 21
-54.61048528043773
 31
0.0
  0
LINE
  5
15E
330
2
100
AcDbEntity
  8
WAKU
 62
     1
100
AcDbLine
 10
61.89551624248077
 20
-49.61048528043773
 30
0.0
 11
-63.10448375751923
 21
-49.61048528043773
 31
0.0
  0
LINE
  5
15F
330
2
100
AcDbEntity
  8
WAKU
 62
     1
100
AcDbLine
 10
61.89551624248077
 20
-44.61048528043773
 30
0.0
 11
-63.10448375751923
 21
-44.61048528043773
 31
0.0
  0
LINE
  5
160
330
2
100
AcDbEntity
  8
WAKU
 62
     1
100
AcDbLine
 10
61.89551624248077
 20
-39.61048528043773
 30
0.0
 11
-63.10448375751923
 21
-39.61048528043773
 31
0.0
  0
LINE
  5
161
330
2
100
AcDbEntity
  8
WAKU
 62
     1
100
AcDbLine
 10
61.89551624248077
 20
-34.61048528043773
 30
0.0
 11
-63.10448375751923
 21
-34.61048528043773
 31
0.0
  0
LINE
  5
162
330
2
100
AcDbEntity
  8
WAKU
 62
     1
100
AcDbLine
 10
61.89551624248077
 20
-29.61048528043773
 30
0.0
 11
-63.10448375751923
 21
-29.61048528043773
 31
0.0
  0
LINE
  5
163
330
2
100
AcDbEntity
  8
WAKU
 62
     1
100
AcDbLine
 10
61.89551624248077
 20
-19.61048528043773
 30
0.0
 11
-63.10448375751923
 21
-19.61048528043773
 31
0.0
  0
LINE
  5
164
330
2
100
AcDbEntity
  8
WAKU
 62
     1
100
AcDbLine
 10
61.89551624248077
 20
-24.61048528043773
 30
0.0
 11
-63.10448375751923
 21
-24.61048528043773
 31
0.0
  0
ENDSEC
  0
SECTION
  2
OBJECTS
  0
DICTIONARY
  5
7
330
0
100
AcDbDictionary
281
     1
  3
ACAD_COLOR
350
2C
  3
ACAD_GROUP
350
28
  3
ACAD_LAYOUT
350
B
  3
ACAD_MATERIAL
350
2B
  3
ACAD_MLINESTYLE
350
29
  3
ACAD_PLOTSETTINGS
350
2A
  3
ACAD_PLOTSTYLENAME
350
6
  3
ACDBHEADERROUNDTRIPXREC
350
1A5
  3
AcDbVariableDictionary
350
1A0
  3
ASE_INDEX_DICTIONARY
350
16D
  0
DICTIONARY
  5
11
330
10
100
AcDbDictionary
280
     1
281
     1
  3
ACAD_LAYERSTATES
360
12
  0
DICTIONARY
  5
2C
102
{ACAD_REACTORS
330
7
102
}
330
7
100
AcDbDictionary
281
     1
  0
DICTIONARY
  5
28
102
{ACAD_REACTORS
330
7
102
}
330
7
100
AcDbDictionary
281
     1
  0
DICTIONARY
  5
B
102
{ACAD_REACTORS
330
7
102
}
330
7
100
AcDbDictionary
281
     1
  3
Model
350
A
  3
レイアウト1
350
F
  0
DICTIONARY
  5
2B
102
{ACAD_REACTORS
330
7
102
}
330
7
100
AcDbDictionary
281
     1
  0
DICTIONARY
  5
29
102
{ACAD_REACTORS
330
7
102
}
330
7
100
AcDbDictionary
281
     1
  3
Standard
350
2E
  0
DICTIONARY
  5
2A
102
{ACAD_REACTORS
330
7
102
}
330
7
100
AcDbDictionary
281
     1
  0
ACDBDICTIONARYWDFLT
  5
6
102
{ACAD_REACTORS
330
7
102
}
330
7
100
AcDbDictionary
281
     1
  3
Normal
350
5
100
AcDbDictionaryWithDefault
340
5
  0
DICTIONARY
  5
1A5
102
{ACAD_REACTORS
330
7
102
}
330
7
100
AcDbDictionary
281
     1
  3
COLORDICT
350
1A7
  3
MATERIALDICT
350
1A6
  0
DICTIONARY
  5
1A0
102
{ACAD_REACTORS
330
7
102
}
330
7
100
AcDbDictionary
281
     1
  3
DIMASSOC
350
1A2
  3
HIDETEXT
350
1A1
  3
PROJECTNAME
350
1A3
  0
DICTIONARY
  5
16D
102
{ACAD_REACTORS
330
7
102
}
330
7
100
AcDbDictionary
281
     1
  3
ASEBlockHierarchyIndexRecord
350
16F
1001
DCO15
1040
1661248189.707
  0
DICTIONARY
  5
12
102
{ACAD_REACTORS
330
11
102
}
330
11
100
AcDbDictionary
281
     1
  0
LAYOUT
  5
A
102
{ACAD_XDICTIONARY
360
1A8
102
}
102
{ACAD_REACTORS
330
B
102
}
330
B
100
AcDbPlotSettings
  1

  2
Ａ４－縦3FRIM01.pc3
  4
A4
  6

 40
5.873749732971191
 41
5.873747825622558
 42
5.873748779296875
 43
5.873748779296875
 44
209.9733276367187
 45
296.9259948730469
 46
5.419999999999999
 47
0.0
 48
0.0
 49
0.0
140
0.0
141
0.0
142
1.0
143
1.38245207335299
 70
 11956
 72
     1
 73
     0
 74
     1
  7
tmsacad.ctb
 75
     0
147
0.7233523818114045
148
0.0320386232301644
149
0.0300716685512725
100
AcDbLayout
  1
Model
 70
     1
 71
     0
 10
0.0
 20
0.0
 11
12.0
 21
9.0
 12
0.0
 22
0.0
 32
0.0
 14
0.0
 24
0.0
 34
0.0
 15
0.0
 25
0.0
 35
0.0
146
0.0
 13
0.0
 23
0.0
 33
0.0
 16
1.0
 26
0.0
 36
0.0
 17
0.0
 27
1.0
 37
0.0
 76
     0
330
2
  0
LAYOUT
  5
F
102
{ACAD_XDICTIONARY
360
1AA
102
}
102
{ACAD_REACTORS
330
B
102
}
330
B
100
AcDbPlotSettings
  1

  2
None
  4

  6

 40
0.0
 41
0.0
 42
0.0
 43
0.0
 44
0.0
 45
0.0
 46
0.0
 47
0.0
 48
0.0
 49
0.0
140
0.0
141
0.0
142
1.0
143
1.0
 70
   688
 72
     0
 73
     0
 74
     5
  7
tmsacad.ctb
 75
    16
147
1.0
148
0.0
149
0.0
100
AcDbLayout
  1
レイアウト1
 70
     1
 71
     1
 10
0.0
 20
0.0
 11
12.0
 21
9.0
 12
0.0
 22
0.0
 32
0.0
 14
0.0
 24
0.0
 34
0.0
 15
0.0
 25
0.0
 35
0.0
146
0.0
 13
0.0
 23
0.0
 33
0.0
 16
1.0
 26
0.0
 36
0.0
 17
0.0
 27
1.0
 37
0.0
 76
     0
330
C
  0
MLINESTYLE
  5
2E
102
{ACAD_REACTORS
330
29
102
}
330
29
100
AcDbMlineStyle
  2
STANDARD
 70
     0
  3

 62
   256
 51
90.0
 52
90.0
 71
     2
 49
0.5
 62
   256
  6
BYLAYER
 49
-0.5
 62
   256
  6
BYLAYER
  0
ACDBPLACEHOLDER
  5
5
102
{ACAD_REACTORS
330
6
102
}
330
6
  0
XRECORD
  5
1A7
102
{ACAD_REACTORS
330
1A5
102
}
330
1A5
100
AcDbXrecord
280
     1
340
2C
  0
XRECORD
  5
1A6
102
{ACAD_REACTORS
330
1A5
102
}
330
1A5
100
AcDbXrecord
280
     1
340
2B
  0
DICTIONARYVAR
  5
1A2
102
{ACAD_REACTORS
330
1A0
102
}
330
1A0
100
DictionaryVariables
280
     0
  1
1
  0
DICTIONARYVAR
  5
1A1
102
{ACAD_REACTORS
330
1A0
102
}
330
1A0
100
DictionaryVariables
280
     0
  1
1
  0
DICTIONARYVAR
  5
1A3
102
{ACAD_REACTORS
330
1A0
102
}
330
1A0
100
DictionaryVariables
280
     0
  1

  0
XRECORD
  5
16F
102
{ACAD_REACTORS
330
16D
102
}
330
16D
100
AcDbXrecord
280
     1
330
67
330
68
330
5A
330
5B
330
4C
330
4D
330
180
330
181
330
18C
330
18D
330
198
330
199
  0
DICTIONARY
  5
1A8
330
A
100
AcDbDictionary
280
     1
281
     1
  3
ACAD_XREC_ROUNDTRIP
360
1A9
  0
DICTIONARY
  5
1AA
330
F
100
AcDbDictionary
280
     1
281
     1
  3
ACAD_XREC_ROUNDTRIP
360
1AB
  0
XRECORD
  5
1A9
102
{ACAD_REACTORS
330
1A8
102
}
330
1A8
100
AcDbXrecord
280
     1
102
SHADEPLOT
 70
     0
102
SHADEPLOTRESLEVEL
 70
     2
102
SHADEPLOTCUSTOMDPI
 70
   300
  0
XRECORD
  5
1AB
102
{ACAD_REACTORS
330
1AA
102
}
330
1AA
100
AcDbXrecord
280
     1
102
SHADEPLOT
 70
     0
102
SHADEPLOTRESLEVEL
 70
     2
102
SHADEPLOTCUSTOMDPI
 70
   300
  0
ENDSEC
  0
EOF
