  0
SECTION
  2
HEADER
  9
$ACADVER
  1
AC1015
  9
$ACADMAINTVER
 70
    20
  9
$DWGCODEPAGE
  3
ANSI_932
  9
$INSBASE
 10
0.4999999440410648
 20
372.5008351249344
 30
0.0
  9
$EXTMIN
 10
-61.53625397656139
 20
-56.65731748968517
 30
-0.0015258207003583
  9
$EXTMAX
 10
63.49731501599001
 20
57.06971781941797
 30
0.0000000349246037
  9
$LIMMIN
 10
0.0
 20
0.0
  9
$LIMMAX
 10
420.0
 20
297.0
  9
$ORTHOMODE
 70
     1
  9
$REGENMODE
 70
     1
  9
$FILLMODE
 70
     1
  9
$QTEXTMODE
 70
     0
  9
$MIRRTEXT
 70
     0
  9
$LTSCALE
 40
1.0
  9
$ATTMODE
 70
     1
  9
$TEXTSIZE
 40
2.5
  9
$TRACEWID
 40
1.0
  9
$TEXTSTYLE
  7
Standard
  9
$CLAYER
  8
GAIKEI
  9
$CELTYPE
  6
ByLayer
  9
$CECOLOR
 62
   256
  9
$CELTSCALE
 40
1.0
  9
$DISPSILH
 70
     0
  9
$DIMSCALE
 40
1.0
  9
$DIMASZ
 40
2.0
  9
$DIMEXO
 40
2.0
  9
$DIMDLI
 40
8.0
  9
$DIMRND
 40
0.0
  9
$DIMDLE
 40
0.0
  9
$DIMEXE
 40
2.0
  9
$DIMTP
 40
0.0
  9
$DIMTM
 40
0.0
  9
$DIMTXT
 40
2.5
  9
$DIMCEN
 40
0.0
  9
$DIMTSZ
 40
0.0
  9
$DIMTOL
 70
     0
  9
$DIMLIM
 70
     0
  9
$DIMTIH
 70
     0
  9
$DIMTOH
 70
     0
  9
$DIMSE1
 70
     0
  9
$DIMSE2
 70
     0
  9
$DIMTAD
 70
     3
  9
$DIMZIN
 70
     0
  9
$DIMBLK
  1

  9
$DIMASO
 70
     1
  9
$DIMSHO
 70
     1
  9
$DIMPOST
  1

  9
$DIMAPOST
  1

  9
$DIMALT
 70
     0
  9
$DIMALTD
 70
     2
  9
$DIMALTF
 40
25.4
  9
$DIMLFAC
 40
1.0
  9
$DIMTOFL
 70
     1
  9
$DIMTVP
 40
0.0
  9
$DIMTIX
 70
     0
  9
$DIMSOXD
 70
     0
  9
$DIMSAH
 70
     1
  9
$DIMBLK1
  1
OPEN30
  9
$DIMBLK2
  1
OPEN30
  9
$DIMSTYLE
  2
STANDARD
  9
$DIMCLRD
 70
     0
  9
$DIMCLRE
 70
     0
  9
$DIMCLRT
 70
     0
  9
$DIMTFAC
 40
1.0
  9
$DIMGAP
 40
0.5
  9
$DIMJUST
 70
     0
  9
$DIMSD1
 70
     0
  9
$DIMSD2
 70
     0
  9
$DIMTOLJ
 70
     1
  9
$DIMTZIN
 70
     0
  9
$DIMALTZ
 70
     0
  9
$DIMALTTZ
 70
     0
  9
$DIMUPT
 70
     0
  9
$DIMDEC
 70
     4
  9
$DIMTDEC
 70
     4
  9
$DIMALTU
 70
     2
  9
$DIMALTTD
 70
     2
  9
$DIMTXSTY
  7
Standard
  9
$DIMAUNIT
 70
     0
  9
$DIMADEC
 70
     0
  9
$DIMALTRND
 40
0.0
  9
$DIMAZIN
 70
     0
  9
$DIMDSEP
 70
    46
  9
$DIMATFIT
 70
     3
  9
$DIMFRAC
 70
     0
  9
$DIMLDRBLK
  1
OPEN30
  9
$DIMLUNIT
 70
     2
  9
$DIMLWD
 70
    -2
  9
$DIMLWE
 70
    -2
  9
$DIMTMOVE
 70
     0
  9
$LUNITS
 70
     2
  9
$LUPREC
 70
     4
  9
$SKETCHINC
 40
1.0
  9
$FILLETRAD
 40
0.0
  9
$AUNITS
 70
     0
  9
$AUPREC
 70
     0
  9
$MENU
  1
.
  9
$ELEVATION
 40
0.0
  9
$PELEVATION
 40
0.0
  9
$THICKNESS
 40
0.0
  9
$LIMCHECK
 70
     0
  9
$CHAMFERA
 40
0.0
  9
$CHAMFERB
 40
0.0
  9
$CHAMFERC
 40
0.0
  9
$CHAMFERD
 40
0.0
  9
$SKPOLY
 70
     0
  9
$TDCREATE
 40
2454349.434269746
  9
$TDUCREATE
 40
2454349.059269746
  9
$TDUPDATE
 40
2455085.475898438
  9
$TDUUPDATE
 40
2455085.100898438
  9
$TDINDWG
 40
0.6489069097
  9
$TDUSRTIMER
 40
0.6489069097
  9
$USRTIMER
 70
     1
  9
$ANGBASE
 50
0.0
  9
$ANGDIR
 70
     0
  9
$PDMODE
 70
     0
  9
$PDSIZE
 40
0.0
  9
$PLINEWID
 40
0.0
  9
$SPLFRAME
 70
     0
  9
$SPLINETYPE
 70
     6
  9
$SPLINESEGS
 70
     8
  9
$HANDSEED
  5
1C6
  9
$SURFTAB1
 70
     6
  9
$SURFTAB2
 70
     6
  9
$SURFTYPE
 70
     6
  9
$SURFU
 70
     6
  9
$SURFV
 70
     6
  9
$UCSBASE
  2

  9
$UCSNAME
  2

  9
$UCSORG
 10
0.0
 20
0.0
 30
0.0
  9
$UCSXDIR
 10
1.0
 20
0.0
 30
0.0
  9
$UCSYDIR
 10
0.0
 20
1.0
 30
0.0
  9
$UCSORTHOREF
  2

  9
$UCSORTHOVIEW
 70
     0
  9
$UCSORGTOP
 10
0.0
 20
0.0
 30
0.0
  9
$UCSORGBOTTOM
 10
0.0
 20
0.0
 30
0.0
  9
$UCSORGLEFT
 10
0.0
 20
0.0
 30
0.0
  9
$UCSORGRIGHT
 10
0.0
 20
0.0
 30
0.0
  9
$UCSORGFRONT
 10
0.0
 20
0.0
 30
0.0
  9
$UCSORGBACK
 10
0.0
 20
0.0
 30
0.0
  9
$PUCSBASE
  2

  9
$PUCSNAME
  2

  9
$PUCSORG
 10
0.0
 20
0.0
 30
0.0
  9
$PUCSXDIR
 10
1.0
 20
0.0
 30
0.0
  9
$PUCSYDIR
 10
0.0
 20
1.0
 30
0.0
  9
$PUCSORTHOREF
  2

  9
$PUCSORTHOVIEW
 70
     0
  9
$PUCSORGTOP
 10
0.0
 20
0.0
 30
0.0
  9
$PUCSORGBOTTOM
 10
0.0
 20
0.0
 30
0.0
  9
$PUCSORGLEFT
 10
0.0
 20
0.0
 30
0.0
  9
$PUCSORGRIGHT
 10
0.0
 20
0.0
 30
0.0
  9
$PUCSORGFRONT
 10
0.0
 20
0.0
 30
0.0
  9
$PUCSORGBACK
 10
0.0
 20
0.0
 30
0.0
  9
$USERI1
 70
     0
  9
$USERI2
 70
     0
  9
$USERI3
 70
     0
  9
$USERI4
 70
     0
  9
$USERI5
 70
     0
  9
$USERR1
 40
0.0
  9
$USERR2
 40
0.0
  9
$USERR3
 40
0.0
  9
$USERR4
 40
0.0
  9
$USERR5
 40
0.0
  9
$WORLDVIEW
 70
     1
  9
$SHADEDGE
 70
     3
  9
$SHADEDIF
 70
    70
  9
$TILEMODE
 70
     1
  9
$MAXACTVP
 70
    48
  9
$PINSBASE
 10
0.0
 20
0.0
 30
0.0
  9
$PLIMCHECK
 70
     0
  9
$PEXTMIN
 10
0.0
 20
0.0
 30
0.0
  9
$PEXTMAX
 10
0.0
 20
0.0
 30
0.0
  9
$PLIMMIN
 10
0.0
 20
0.0
  9
$PLIMMAX
 10
12.0
 20
9.0
  9
$UNITMODE
 70
     0
  9
$VISRETAIN
 70
     1
  9
$PLINEGEN
 70
     0
  9
$PSLTSCALE
 70
     1
  9
$TREEDEPTH
 70
  3020
  9
$CMLSTYLE
  2
Standard
  9
$CMLJUST
 70
     0
  9
$CMLSCALE
 40
20.0
  9
$PROXYGRAPHICS
 70
     1
  9
$MEASUREMENT
 70
     1
  9
$CELWEIGHT
370
    -1
  9
$ENDCAPS
280
     0
  9
$JOINSTYLE
280
     0
  9
$LWDISPLAY
290
     0
  9
$INSUNITS
 70
     4
  9
$HYPERLINKBASE
  1

  9
$STYLESHEET
  1

  9
$XEDIT
290
     1
  9
$CEPSNTYPE
380
     0
  9
$PSTYLEMODE
290
     1
  9
$FINGERPRINTGUID
  2
{FDEAD578-A652-11D2-9A35-0060089B3A3F}
  9
$VERSIONGUID
  2
{DA3C6CA8-332B-4FAC-ABF8-4BBDAC954708}
  9
$EXTNAMES
290
     1
  9
$PSVPSCALE
 40
0.0
  9
$OLESTARTUP
290
     0
  0
ENDSEC
  0
SECTION
  2
CLASSES
  0
CLASS
  1
ACDBDICTIONARYWDFLT
  2
AcDbDictionaryWithDefault
  3
ObjectDBX Classes
 90
        0
280
     0
281
     0
  0
CLASS
  1
ACDBPLACEHOLDER
  2
AcDbPlaceHolder
  3
ObjectDBX Classes
 90
        0
280
     0
281
     0
  0
CLASS
  1
LAYOUT
  2
AcDbLayout
  3
ObjectDBX Classes
 90
        0
280
     0
281
     0
  0
CLASS
  1
DICTIONARYVAR
  2
AcDbDictionaryVar
  3
ObjectDBX Classes
 90
        0
280
     0
281
     0
  0
CLASS
  1
SORTENTSTABLE
  2
AcDbSortentsTable
  3
ObjectDBX Classes
 90
        0
280
     0
281
     0
  0
ENDSEC
  0
SECTION
  2
TABLES
  0
TABLE
  2
VPORT
  5
20
330
0
100
AcDbSymbolTable
 70
     3
  0
VPORT
  5
1BE
330
20
100
AcDbSymbolTableRecord
100
AcDbViewportTableRecord
  2
*Active
 70
     0
 10
0.0
 20
0.0
 11
1.0
 21
1.0
 12
0.9805305197143177
 22
0.2062001648664022
 13
0.0
 23
0.0
 14
10.0
 24
10.0
 15
10.0
 25
10.0
 16
0.0
 26
0.0
 36
1.0
 17
0.0
 27
0.0
 37
0.0
 40
114.5985068440388
 41
1.49616368286445
 42
50.0
 43
0.0
 44
0.0
 50
0.0
 51
0.0
 71
     0
 72
  1000
 73
     1
 74
     2
 75
     0
 76
     0
 77
     0
 78
     0
281
     0
 65
     1
110
0.0
120
0.0
130
0.0
111
1.0
121
0.0
131
0.0
112
0.0
122
1.0
132
0.0
 79
     0
146
0.0
  0
ENDTAB
  0
TABLE
  2
LTYPE
  5
1B
330
0
100
AcDbSymbolTable
 70
     2
  0
LTYPE
  5
1C
330
1B
100
AcDbSymbolTableRecord
100
AcDbLinetypeTableRecord
  2
ByBlock
 70
     0
  3

 72
    65
 73
     0
 40
0.0
  0
LTYPE
  5
1D
330
1B
100
AcDbSymbolTableRecord
100
AcDbLinetypeTableRecord
  2
ByLayer
 70
     0
  3

 72
    65
 73
     0
 40
0.0
  0
LTYPE
  5
B
330
1B
100
AcDbSymbolTableRecord
100
AcDbLinetypeTableRecord
  2
Continuous
 70
     0
  3
Solid line
 72
    65
 73
     0
 40
0.0
  0
LTYPE
  5
45
330
1B
100
AcDbSymbolTableRecord
100
AcDbLinetypeTableRecord
  2
HIDDEN2
 70
     0
  3
Hidden (.5x) _ _ _ _ _ _ _ _ _ _ _ _ _ _ _ _ _
 72
    65
 73
     2
 40
1.399999999999999
 49
0.7
 74
     0
 49
-0.7
 74
     0
  0
ENDTAB
  0
TABLE
  2
LAYER
  5
15
102
{ACAD_XDICTIONARY
360
16
102
}
330
0
100
AcDbSymbolTable
 70
     7
  0
LAYER
  5
7
330
15
100
AcDbSymbolTableRecord
100
AcDbLayerTableRecord
  2
0
 70
     0
 62
     7
  6
Continuous
370
    -3
390
8
  0
LAYER
  5
39
330
15
100
AcDbSymbolTableRecord
100
AcDbLayerTableRecord
  2
WAKU
 70
     0
 62
     4
  6
Continuous
370
    -3
390
8
  0
LAYER
  5
35
330
15
100
AcDbSymbolTableRecord
100
AcDbLayerTableRecord
  2
MOJI1
 70
     0
 62
     2
  6
Continuous
370
    -3
390
8
  0
LAYER
  5
37
330
15
100
AcDbSymbolTableRecord
100
AcDbLayerTableRecord
  2
TOUROKU
 70
     0
 62
     1
  6
Continuous
370
    -3
390
8
  0
LAYER
  5
32
330
15
100
AcDbSymbolTableRecord
100
AcDbLayerTableRecord
  2
GAIKEI
 70
     0
 62
     7
  6
Continuous
370
    -3
390
8
  0
LAYER
  5
B2
330
15
100
AcDbSymbolTableRecord
100
AcDbLayerTableRecord
  2
SUNPO
 70
     0
 62
     3
  6
Continuous
370
    -3
390
8
  0
LAYER
  5
BC
330
15
100
AcDbSymbolTableRecord
100
AcDbLayerTableRecord
  2
Defpoints
 70
     0
 62
     7
  6
Continuous
290
     0
370
    -3
390
8
  0
ENDTAB
  0
TABLE
  2
STYLE
  5
18
330
0
100
AcDbSymbolTable
 70
     1
  0
STYLE
  5
19
330
18
100
AcDbSymbolTableRecord
100
AcDbTextStyleTableRecord
  2
Standard
 70
     0
 40
0.0
 41
1.0
 50
0.0
 71
     0
 42
2.5
  3
MONOTXT.shx
  4
BIGFONT.shx
  0
ENDTAB
  0
TABLE
  2
VIEW
  5
1E
330
0
100
AcDbSymbolTable
 70
     0
  0
ENDTAB
  0
TABLE
  2
UCS
  5
1F
330
0
100
AcDbSymbolTable
 70
     0
  0
ENDTAB
  0
TABLE
  2
APPID
  5
22
330
0
100
AcDbSymbolTable
 70
     2
  0
APPID
  5
23
330
22
100
AcDbSymbolTableRecord
100
AcDbRegAppTableRecord
  2
ACAD
 70
     0
  0
APPID
  5
188
330
22
100
AcDbSymbolTableRecord
100
AcDbRegAppTableRecord
  2
DCO15
 70
     0
  0
ENDTAB
  0
TABLE
  2
DIMSTYLE
  5
24
330
0
100
AcDbSymbolTable
 70
     1
100
AcDbDimStyleTable
 71
     1
340
25
  0
DIMSTYLE
105
25
102
{ACAD_REACTORS
330
B1
330
C0
330
CD
102
}
330
24
100
AcDbSymbolTableRecord
100
AcDbDimStyleTableRecord
  2
STANDARD
 70
     0
 40
0.0
 41
2.0
 42
2.0
 43
8.0
 44
2.0
 73
     0
 74
     0
 77
     3
140
3.0
141
0.0
173
     1
279
     2
288
     1
340
19
341
26
343
26
344
26
  0
ENDTAB
  0
TABLE
  2
BLOCK_RECORD
  5
1
330
0
100
AcDbSymbolTable
 70
     7
  0
BLOCK_RECORD
  5
2
102
{ACAD_XDICTIONARY
360
3
102
}
330
1
100
AcDbSymbolTableRecord
100
AcDbBlockTableRecord
  2
*Model_Space
340
D
  0
BLOCK_RECORD
  5
F
102
{ACAD_XDICTIONARY
360
10
102
}
330
1
100
AcDbSymbolTableRecord
100
AcDbBlockTableRecord
  2
*Paper_Space
340
14
  0
BLOCK_RECORD
  5
26
330
1
100
AcDbSymbolTableRecord
100
AcDbBlockTableRecord
  2
_OPEN30
340
0
102
{BLKREFS
331
C6
331
C7
331
B8
331
B9
331
D3
331
D4
331
19A
331
19B
331
1A6
331
1A7
331
1B2
331
1B3
102
}
  0
BLOCK_RECORD
  5
B3
330
1
100
AcDbSymbolTableRecord
100
AcDbBlockTableRecord
  2
*D1
340
0
  0
BLOCK_RECORD
  5
C1
330
1
100
AcDbSymbolTableRecord
100
AcDbBlockTableRecord
  2
*D2
340
0
  0
BLOCK_RECORD
  5
CE
330
1
100
AcDbSymbolTableRecord
100
AcDbBlockTableRecord
  2
*D3
340
0
  0
BLOCK_RECORD
  5
196
330
1
100
AcDbSymbolTableRecord
100
AcDbBlockTableRecord
  2
*D4
340
0
  0
BLOCK_RECORD
  5
1A2
330
1
100
AcDbSymbolTableRecord
100
AcDbBlockTableRecord
  2
*D5
340
0
  0
BLOCK_RECORD
  5
1AE
330
1
100
AcDbSymbolTableRecord
100
AcDbBlockTableRecord
  2
*D6
340
0
  0
ENDTAB
  0
ENDSEC
  0
SECTION
  2
BLOCKS
  0
BLOCK
  5
6
330
2
100
AcDbEntity
  8
0
100
AcDbBlockBegin
  2
*Model_Space
 70
     0
 10
0.0
 20
0.0
 30
0.0
  3
*Model_Space
  1

  0
ENDBLK
  5
C
330
2
100
AcDbEntity
  8
0
100
AcDbBlockEnd
  0
BLOCK
  5
12
330
F
100
AcDbEntity
 67
     1
  8
0
100
AcDbBlockBegin
  2
*Paper_Space
 70
     0
 10
0.0
 20
0.0
 30
0.0
  3
*Paper_Space
  1

  0
ENDBLK
  5
13
330
F
100
AcDbEntity
 67
     1
  8
0
100
AcDbBlockEnd
  0
BLOCK
  5
27
330
26
100
AcDbEntity
  8
0
100
AcDbBlockBegin
  2
_OPEN30
 70
     0
 10
0.0
 20
0.0
 30
0.0
  3
_OPEN30
  1

  0
LINE
  5
28
330
26
100
AcDbEntity
  8
0
  6
ByBlock
 62
     0
100
AcDbLine
 10
-1.0
 20
0.26794919
 30
0.0
 11
0.0
 21
0.0
 31
0.0
  0
LINE
  5
29
330
26
100
AcDbEntity
  8
0
  6
ByBlock
 62
     0
100
AcDbLine
 10
0.0
 20
0.0
 30
0.0
 11
-1.0
 21
-0.26794919
 31
0.0
  0
LINE
  5
2A
330
26
100
AcDbEntity
  8
0
  6
ByBlock
 62
     0
100
AcDbLine
 10
0.0
 20
0.0
 30
0.0
 11
-1.0
 21
0.0
 31
0.0
  0
ENDBLK
  5
2B
330
26
100
AcDbEntity
  8
0
100
AcDbBlockEnd
  0
BLOCK
  5
B4
330
B3
100
AcDbEntity
  8
0
100
AcDbBlockBegin
  2
*D1
 70
     1
 10
0.0
 20
0.0
 30
0.0
  3
*D1
  1

  0
LINE
  5
B5
330
B3
100
AcDbEntity
  8
SUNPO
 62
     0
370
    -2
100
AcDbLine
 10
34.17305995840383
 20
338.1049491509034
 30
0.0
 11
34.17305995840383
 21
346.1049491509034
 31
0.0
  0
LINE
  5
B6
330
B3
100
AcDbEntity
  8
SUNPO
 62
     0
370
    -2
100
AcDbLine
 10
49.17305995840389
 20
338.1049491509034
 30
0.0
 11
49.17305995840389
 21
346.1049491509034
 31
0.0
  0
LINE
  5
B7
330
B3
100
AcDbEntity
  8
SUNPO
 62
     0
370
    -2
100
AcDbLine
 10
36.17305995840383
 20
344.1049491509034
 30
0.0
 11
47.17305995840389
 21
344.1049491509034
 31
0.0
  0
INSERT
  5
B8
330
B3
100
AcDbEntity
  8
SUNPO
 62
     0
370
    -2
100
AcDbBlockReference
  2
_OPEN30
 10
34.17305995840383
 20
344.1049491509034
 30
0.0
 41
2.0
 42
2.0
 43
2.0
 50
180.0
  0
INSERT
  5
B9
330
B3
100
AcDbEntity
  8
SUNPO
 62
     0
370
    -2
100
AcDbBlockReference
  2
_OPEN30
 10
49.17305995840389
 20
344.1049491509034
 30
0.0
 41
2.0
 42
2.0
 43
2.0
  0
MTEXT
  5
BA
330
B3
100
AcDbEntity
  8
SUNPO
 62
     0
100
AcDbMText
 10
41.67305995840385
 20
345.8549491509034
 30
0.0
 40
2.5
 41
0.0
 71
     5
 72
     1
  1
\A1;75
 73
     1
 44
1.0
1001
ACAD
1000
MTEXTBEGIN
1070
    73
1070
     1
1070
    44
1040
1.0
1070
    74
1070
     0
1000
MTEXTEND
  0
POINT
  5
BB
330
B3
100
AcDbEntity
  8
Defpoints
 62
     0
100
AcDbPoint
 10
34.17305995840383
 20
336.1049491509034
 30
0.0
  0
POINT
  5
BD
330
B3
100
AcDbEntity
  8
Defpoints
 62
     0
100
AcDbPoint
 10
49.17305995840389
 20
336.1049491509034
 30
0.0
  0
POINT
  5
BE
330
B3
100
AcDbEntity
  8
Defpoints
 62
     0
100
AcDbPoint
 10
49.17305995840389
 20
344.1049491509034
 30
0.0
  0
ENDBLK
  5
BF
330
B3
100
AcDbEntity
  8
0
100
AcDbBlockEnd
  0
BLOCK
  5
C2
330
C1
100
AcDbEntity
  8
0
100
AcDbBlockBegin
  2
*D2
 70
     1
 10
0.0
 20
0.0
 30
0.0
  3
*D2
  1

  0
LINE
  5
C3
330
C1
100
AcDbEntity
  8
SUNPO
 62
     0
370
    -2
100
AcDbLine
 10
51.15973825188985
 20
323.1000857933825
 30
0.0
 11
59.15973825188984
 21
323.1000857933825
 31
0.0
  0
LINE
  5
C4
330
C1
100
AcDbEntity
  8
SUNPO
 62
     0
370
    -2
100
AcDbLine
 10
51.15973825188985
 20
336.1000857933825
 30
0.0
 11
59.15973825188985
 21
336.1000857933825
 31
0.0
  0
LINE
  5
C5
330
C1
100
AcDbEntity
  8
SUNPO
 62
     0
370
    -2
100
AcDbLine
 10
57.15973825188985
 20
325.1000857933825
 30
0.0
 11
57.15973825188985
 21
334.1000857933825
 31
0.0
  0
INSERT
  5
C6
330
C1
100
AcDbEntity
  8
SUNPO
 62
     0
370
    -2
100
AcDbBlockReference
  2
_OPEN30
 10
57.15973825188985
 20
323.1000857933825
 30
0.0
 41
2.0
 42
2.0
 43
2.0
 50
270.0
  0
INSERT
  5
C7
330
C1
100
AcDbEntity
  8
SUNPO
 62
     0
370
    -2
100
AcDbBlockReference
  2
_OPEN30
 10
57.15973825188985
 20
336.1000857933825
 30
0.0
 41
2.0
 42
2.0
 43
2.0
 50
90.0
  0
MTEXT
  5
C8
330
C1
100
AcDbEntity
  8
SUNPO
 62
     0
100
AcDbMText
 10
55.4097382518898
 20
329.6000857933825
 30
0.0
 40
2.5
 41
0.0
 71
     5
 72
     1
  1
\A1;65
 11
0.0000000000000001
 21
1.0
 31
0.0
 73
     1
 44
1.0
1001
ACAD
1000
MTEXTBEGIN
1070
    73
1070
     1
1070
    44
1040
1.0
1070
    74
1070
     0
1000
MTEXTEND
  0
POINT
  5
C9
330
C1
100
AcDbEntity
  8
Defpoints
 62
     0
100
AcDbPoint
 10
49.15973825188985
 20
323.1000857933825
 30
0.0
  0
POINT
  5
CA
330
C1
100
AcDbEntity
  8
Defpoints
 62
     0
100
AcDbPoint
 10
49.15973825188985
 20
336.1000857933825
 30
0.0
  0
POINT
  5
CB
330
C1
100
AcDbEntity
  8
Defpoints
 62
     0
100
AcDbPoint
 10
57.15973825188985
 20
336.1000857933825
 30
0.0
  0
ENDBLK
  5
CC
330
C1
100
AcDbEntity
  8
0
100
AcDbBlockEnd
  0
BLOCK
  5
CF
330
CE
100
AcDbEntity
  8
0
100
AcDbBlockBegin
  2
*D3
 70
     1
 10
0.0
 20
0.0
 30
0.0
  3
*D3
  1

  0
LINE
  5
D0
330
CE
100
AcDbEntity
  8
SUNPO
 62
     0
370
    -2
100
AcDbLine
 10
76.05899508200707
 20
338.1049491509034
 30
0.0
 11
76.05899508200707
 21
346.1049491509034
 31
0.0
  0
LINE
  5
D1
330
CE
100
AcDbEntity
  8
SUNPO
 62
     0
370
    -2
100
AcDbLine
 10
103.7589950818615
 20
338.1049491509034
 30
0.0
 11
103.7589950818615
 21
346.1049491509034
 31
0.0
  0
LINE
  5
D2
330
CE
100
AcDbEntity
  8
SUNPO
 62
     0
370
    -2
100
AcDbLine
 10
78.05899508200707
 20
344.1049491509034
 30
0.0
 11
101.7589950818615
 21
344.1049491509034
 31
0.0
  0
INSERT
  5
D3
330
CE
100
AcDbEntity
  8
SUNPO
 62
     0
370
    -2
100
AcDbBlockReference
  2
_OPEN30
 10
76.05899508200707
 20
344.1049491509034
 30
0.0
 41
2.0
 42
2.0
 43
2.0
 50
180.0
  0
INSERT
  5
D4
330
CE
100
AcDbEntity
  8
SUNPO
 62
     0
370
    -2
100
AcDbBlockReference
  2
_OPEN30
 10
103.7589950818615
 20
344.1049491509034
 30
0.0
 41
2.0
 42
2.0
 43
2.0
  0
MTEXT
  5
D5
330
CE
100
AcDbEntity
  8
SUNPO
 62
     0
100
AcDbMText
 10
89.90899508193427
 20
345.8549491509034
 30
0.0
 40
2.5
 41
0.0
 71
     5
 72
     1
  1
\A1;138.5
 73
     1
 44
1.0
1001
ACAD
1000
MTEXTBEGIN
1070
    73
1070
     1
1070
    44
1040
1.0
1070
    74
1070
     0
1000
MTEXTEND
  0
POINT
  5
D6
330
CE
100
AcDbEntity
  8
Defpoints
 62
     0
100
AcDbPoint
 10
76.05899508200707
 20
336.1049491509034
 30
0.0
  0
POINT
  5
D7
330
CE
100
AcDbEntity
  8
Defpoints
 62
     0
100
AcDbPoint
 10
103.7589950818615
 20
336.1049491509034
 30
0.0
  0
POINT
  5
D8
330
CE
100
AcDbEntity
  8
Defpoints
 62
     0
100
AcDbPoint
 10
103.7589950818615
 20
344.1049491509034
 30
0.0
  0
ENDBLK
  5
D9
330
CE
100
AcDbEntity
  8
0
100
AcDbBlockEnd
  0
BLOCK
  5
1A0
330
196
100
AcDbEntity
  8
0
100
AcDbBlockBegin
  2
*D4
 70
     1
 10
0.0
 20
0.0
 30
0.0
  3
*D4
  1

  0
LINE
  5
197
330
196
100
AcDbEntity
  8
SUNPO
 62
     0
370
    -2
100
AcDbLine
 10
12.02668590273367
 20
24.67071297389532
 30
0.0
 11
12.02668590273367
 21
32.67071297389532
 31
0.0
  0
LINE
  5
198
330
196
100
AcDbEntity
  8
SUNPO
 62
     0
370
    -2
100
AcDbLine
 10
39.7266859025881
 20
24.67071297389532
 30
0.0
 11
39.7266859025881
 21
32.67071297389532
 31
0.0
  0
LINE
  5
199
330
196
100
AcDbEntity
  8
SUNPO
 62
     0
370
    -2
100
AcDbLine
 10
14.02668590273367
 20
30.67071297389532
 30
0.0
 11
37.7266859025881
 21
30.67071297389532
 31
0.0
  0
INSERT
  5
19A
330
196
100
AcDbEntity
  8
SUNPO
 62
     0
370
    -2
100
AcDbBlockReference
  2
_OPEN30
 10
12.02668590273367
 20
30.67071297389532
 30
0.0
 41
2.0
 42
2.0
 43
2.0
 50
180.0
  0
INSERT
  5
19B
330
196
100
AcDbEntity
  8
SUNPO
 62
     0
370
    -2
100
AcDbBlockReference
  2
_OPEN30
 10
39.7266859025881
 20
30.67071297389532
 30
0.0
 41
2.0
 42
2.0
 43
2.0
  0
MTEXT
  5
19C
330
196
100
AcDbEntity
  8
SUNPO
 62
     0
100
AcDbMText
 10
25.87668590266089
 20
32.42071297389532
 30
0.0
 40
2.5
 41
0.0
 71
     5
 72
     1
  1
\A1;138.5
 73
     1
 44
1.0
1001
ACAD
1000
MTEXTBEGIN
1070
    73
1070
     1
1070
    44
1040
1.0
1070
    74
1070
     0
1000
MTEXTEND
  0
POINT
  5
19D
330
196
100
AcDbEntity
  8
Defpoints
 62
     0
100
AcDbPoint
 10
12.02668590273367
 20
22.67071297389532
 30
0.0
  0
POINT
  5
19E
330
196
100
AcDbEntity
  8
Defpoints
 62
     0
100
AcDbPoint
 10
39.7266859025881
 20
22.67071297389532
 30
0.0
  0
POINT
  5
19F
330
196
100
AcDbEntity
  8
Defpoints
 62
     0
100
AcDbPoint
 10
39.7266859025881
 20
30.67071297389532
 30
0.0
  0
ENDBLK
  5
1A1
330
196
100
AcDbEntity
  8
0
100
AcDbBlockEnd
  0
BLOCK
  5
1AC
330
1A2
100
AcDbEntity
  8
0
100
AcDbBlockBegin
  2
*D5
 70
     1
 10
0.0
 20
0.0
 30
0.0
  3
*D5
  1

  0
LINE
  5
1A3
330
1A2
100
AcDbEntity
  8
SUNPO
 62
     0
370
    -2
100
AcDbLine
 10
-12.87257092738354
 20
9.66584961637443
 30
0.0
 11
-4.872570927383545
 21
9.665849616374428
 31
0.0
  0
LINE
  5
1A4
330
1A2
100
AcDbEntity
  8
SUNPO
 62
     0
370
    -2
100
AcDbLine
 10
-12.87257092738354
 20
22.66584961637443
 30
0.0
 11
-4.872570927383542
 21
22.66584961637443
 31
0.0
  0
LINE
  5
1A5
330
1A2
100
AcDbEntity
  8
SUNPO
 62
     0
370
    -2
100
AcDbLine
 10
-6.872570927383544
 20
11.66584961637443
 30
0.0
 11
-6.872570927383542
 21
20.66584961637443
 31
0.0
  0
INSERT
  5
1A6
330
1A2
100
AcDbEntity
  8
SUNPO
 62
     0
370
    -2
100
AcDbBlockReference
  2
_OPEN30
 10
-6.872570927383545
 20
9.665849616374428
 30
0.0
 41
2.0
 42
2.0
 43
2.0
 50
270.0
  0
INSERT
  5
1A7
330
1A2
100
AcDbEntity
  8
SUNPO
 62
     0
370
    -2
100
AcDbBlockReference
  2
_OPEN30
 10
-6.872570927383542
 20
22.66584961637443
 30
0.0
 41
2.0
 42
2.0
 43
2.0
 50
90.0
  0
MTEXT
  5
1A8
330
1A2
100
AcDbEntity
  8
SUNPO
 62
     0
100
AcDbMText
 10
-8.622570927383545
 20
16.16584961637443
 30
0.0
 40
2.5
 41
0.0
 71
     5
 72
     1
  1
\A1;65
 11
0.0000000000000001
 21
1.0
 31
0.0
 73
     1
 44
1.0
1001
ACAD
1000
MTEXTBEGIN
1070
    73
1070
     1
1070
    44
1040
1.0
1070
    74
1070
     0
1000
MTEXTEND
  0
POINT
  5
1A9
330
1A2
100
AcDbEntity
  8
Defpoints
 62
     0
100
AcDbPoint
 10
-14.87257092738354
 20
9.66584961637443
 30
0.0
  0
POINT
  5
1AA
330
1A2
100
AcDbEntity
  8
Defpoints
 62
     0
100
AcDbPoint
 10
-14.87257092738354
 20
22.66584961637443
 30
0.0
  0
POINT
  5
1AB
330
1A2
100
AcDbEntity
  8
Defpoints
 62
     0
100
AcDbPoint
 10
-6.872570927383542
 20
22.66584961637443
 30
0.0
  0
ENDBLK
  5
1AD
330
1A2
100
AcDbEntity
  8
0
100
AcDbBlockEnd
  0
BLOCK
  5
1B8
330
1AE
100
AcDbEntity
  8
0
100
AcDbBlockBegin
  2
*D6
 70
     1
 10
0.0
 20
0.0
 30
0.0
  3
*D6
  1

  0
LINE
  5
1AF
330
1AE
100
AcDbEntity
  8
SUNPO
 62
     0
370
    -2
100
AcDbLine
 10
-29.85924922086957
 20
24.67071297389532
 30
0.0
 11
-29.85924922086957
 21
32.67071297389532
 31
0.0
  0
LINE
  5
1B0
330
1AE
100
AcDbEntity
  8
SUNPO
 62
     0
370
    -2
100
AcDbLine
 10
-14.85924922086951
 20
24.67071297389532
 30
0.0
 11
-14.85924922086951
 21
32.67071297389532
 31
0.0
  0
LINE
  5
1B1
330
1AE
100
AcDbEntity
  8
SUNPO
 62
     0
370
    -2
100
AcDbLine
 10
-27.85924922086957
 20
30.67071297389532
 30
0.0
 11
-16.8592492208695
 21
30.67071297389532
 31
0.0
  0
INSERT
  5
1B2
330
1AE
100
AcDbEntity
  8
SUNPO
 62
     0
370
    -2
100
AcDbBlockReference
  2
_OPEN30
 10
-29.85924922086957
 20
30.67071297389532
 30
0.0
 41
2.0
 42
2.0
 43
2.0
 50
180.0
  0
INSERT
  5
1B3
330
1AE
100
AcDbEntity
  8
SUNPO
 62
     0
370
    -2
100
AcDbBlockReference
  2
_OPEN30
 10
-14.85924922086951
 20
30.67071297389532
 30
0.0
 41
2.0
 42
2.0
 43
2.0
  0
MTEXT
  5
1B4
330
1AE
100
AcDbEntity
  8
SUNPO
 62
     0
100
AcDbMText
 10
-22.35924922086954
 20
32.42071297389532
 30
0.0
 40
2.5
 41
0.0
 71
     5
 72
     1
  1
\A1;75
 73
     1
 44
1.0
1001
ACAD
1000
MTEXTBEGIN
1070
    73
1070
     1
1070
    44
1040
1.0
1070
    74
1070
     0
1000
MTEXTEND
  0
POINT
  5
1B5
330
1AE
100
AcDbEntity
  8
Defpoints
 62
     0
100
AcDbPoint
 10
-29.85924922086957
 20
22.67071297389532
 30
0.0
  0
POINT
  5
1B6
330
1AE
100
AcDbEntity
  8
Defpoints
 62
     0
100
AcDbPoint
 10
-14.85924922086951
 20
22.67071297389532
 30
0.0
  0
POINT
  5
1B7
330
1AE
100
AcDbEntity
  8
Defpoints
 62
     0
100
AcDbPoint
 10
-14.85924922086951
 20
30.67071297389532
 30
0.0
  0
ENDBLK
  5
1B9
330
1AE
100
AcDbEntity
  8
0
100
AcDbBlockEnd
  0
ENDSEC
  0
SECTION
  2
ENTITIES
  0
TEXT
  5
34
330
2
100
AcDbEntity
  8
MOJI1
100
AcDbText
 10
-34.53230923523177
 20
53.06659894792597
 30
0.0
 40
4.0
  1
スーパーダイナミックカラーカメラ
100
AcDbText
  0
TEXT
  5
36
330
2
100
AcDbEntity
  8
TOUROKU
100
AcDbText
 10
49.86764079769548
 20
47.06659894792631
 30
0.0
 40
2.0
  1
ＷＶＣＰ５５
 72
     2
 11
63.46764079769548
 21
47.06659894792631
 31
0.0
100
AcDbText
  0
LINE
  5
38
330
2
100
AcDbEntity
  8
WAKU
 62
     1
100
AcDbLine
 10
63.467690764768
 20
-26.64936655887766
 30
0.0
 11
-61.53230923523199
 21
-26.64936655887766
 31
0.0
  0
LINE
  5
3A
330
2
100
AcDbEntity
  8
WAKU
 62
     4
100
AcDbLine
 10
63.467690764768
 20
-21.64936655887766
 30
0.0
 11
-61.53230923523199
 21
-21.64936655887766
 31
0.0
  0
LINE
  5
3B
330
2
100
AcDbEntity
  8
WAKU
 62
     1
100
AcDbLine
 10
63.467690764768
 20
-31.64936655887766
 30
0.0
 11
-61.53230923523199
 21
-31.64936655887766
 31
0.0
  0
LINE
  5
3C
330
2
100
AcDbEntity
  8
WAKU
 62
     1
100
AcDbLine
 10
63.467690764768
 20
-36.64936655887766
 30
0.0
 11
-61.53230923523199
 21
-36.64936655887766
 31
0.0
  0
LINE
  5
3D
330
2
100
AcDbEntity
  8
WAKU
 62
     1
100
AcDbLine
 10
63.467690764768
 20
-41.64936655887766
 30
0.0
 11
-61.53230923523199
 21
-41.64936655887766
 31
0.0
  0
LINE
  5
3E
330
2
100
AcDbEntity
  8
WAKU
 62
     1
100
AcDbLine
 10
63.467690764768
 20
-46.64936655887766
 30
0.0
 11
-61.53230923523199
 21
-46.64936655887766
 31
0.0
  0
LINE
  5
3F
330
2
100
AcDbEntity
  8
WAKU
 62
     1
100
AcDbLine
 10
63.467690764768
 20
-51.64936655887766
 30
0.0
 11
-61.53230923523199
 21
-51.64936655887766
 31
0.0
  0
LINE
  5
40
330
2
100
AcDbEntity
  8
WAKU
 62
     4
100
AcDbLine
 10
-61.53230923523199
 20
-56.64936655887766
 30
0.0
 11
63.467690764768
 21
-56.64936655887766
 31
0.0
  0
LINE
  5
41
330
2
100
AcDbEntity
  8
WAKU
 62
     4
100
AcDbLine
 10
-21.32672800471357
 20
-56.64936655887743
 30
0.0
 11
-21.32672800471357
 21
-21.64936655887743
 31
0.0
  0
LINE
  5
42
330
2
100
AcDbEntity
  8
WAKU
 62
     4
100
AcDbLine
 10
-61.53230923523199
 20
-21.64936655887766
 30
0.0
 11
-61.53230923523199
 21
-56.64936655887766
 31
0.0
  0
LINE
  5
43
330
2
100
AcDbEntity
  8
WAKU
 62
     4
100
AcDbLine
 10
63.467690764768
 20
-56.64936655887766
 30
0.0
 11
63.467690764768
 21
-21.64936655887766
 31
0.0
  0
CIRCLE
  5
44
330
2
100
AcDbEntity
  8
GAIKEI
  6
HIDDEN2
 62
     1
 48
0.5
100
AcDbCircle
 10
-22.15924922086953
 20
15.16584961637443
 30
0.0
 40
3.099999999999997
  0
CIRCLE
  5
46
330
2
100
AcDbEntity
  8
GAIKEI
  6
HIDDEN2
 62
     1
 48
0.5
100
AcDbCircle
 10
-22.15924922086953
 20
15.16584961637443
 30
0.0
 40
3.399999999999999
  0
CIRCLE
  5
47
330
2
100
AcDbEntity
  8
GAIKEI
  6
HIDDEN2
 62
     1
 48
0.5
100
AcDbCircle
 10
-22.15924922086953
 20
15.16584961637443
 30
0.0
 40
4.099999999999996
  0
CIRCLE
  5
48
330
2
100
AcDbEntity
  8
GAIKEI
  6
HIDDEN2
 62
     1
 48
0.5
100
AcDbCircle
 10
-22.15924922086953
 20
15.16584961637443
 30
0.0
 40
5.299999882719789
  0
ARC
  5
49
330
2
100
AcDbEntity
  8
GAIKEI
  6
HIDDEN2
 62
     1
 48
0.5
100
AcDbCircle
 10
-28.52489572248692
 20
33.83486818698782
 30
0.0
 40
24.99999999999848
100
AcDbArc
 50
290.1399302324485
 51
299.1626354096183
  0
ARC
  5
4A
330
2
100
AcDbEntity
  8
GAIKEI
  6
HIDDEN2
 62
     1
 48
0.5
100
AcDbCircle
 10
-22.15924922086959
 20
15.16584981637459
 30
0.0
 40
6.800000000000057
100
AcDbArc
 50
336.7582971476174
 51
23.24170285238262
  0
ARC
  5
4B
330
2
100
AcDbEntity
  8
GAIKEI
  6
HIDDEN2
 62
     1
 48
0.5
100
AcDbCircle
 10
-16.8299287074841
 20
12.87710717780987
 30
0.0
 40
1.000000000002176
100
AcDbArc
 50
299.1626354096252
 51
336.7582971475911
  0
ARC
  5
4C
330
2
100
AcDbEntity
  8
GAIKEI
  6
HIDDEN2
 62
     1
 48
0.5
100
AcDbCircle
 10
-28.524895722488
 20
-3.503168554241426
 30
0.0
 40
25.00000000000111
100
AcDbArc
 50
60.83736459037652
 51
69.86006976755113
  0
ARC
  5
4D
330
2
100
AcDbEntity
  8
GAIKEI
  6
HIDDEN2
 62
     1
 48
0.5
100
AcDbCircle
 10
-16.82992870748325
 20
17.45459245493941
 30
0.0
 40
1.000000000001354
100
AcDbArc
 50
23.24170285242312
 51
60.83736459026126
  0
LINE
  5
4E
330
2
100
AcDbEntity
  8
GAIKEI
 62
     1
100
AcDbLine
 10
-26.60436577494954
 20
9.864104309274409
 30
0.0
 11
-17.71413266678951
 21
9.864104309274409
 31
0.0
  0
LINE
  5
4F
330
2
100
AcDbEntity
  8
GAIKEI
100
AcDbLine
 10
-26.60436577494954
 20
9.66584961637443
 30
0.0
 11
-17.71413266678951
 21
9.66584961637443
 31
0.0
  0
ARC
  5
50
330
2
100
AcDbEntity
  8
GAIKEI
 62
     1
100
AcDbCircle
 10
-17.71414152818835
 20
11.66411996372886
 30
0.0
 40
1.800015654476261
100
AcDbArc
 50
270.0002820646325
 51
329.0249275135754
  0
ARC
  5
51
330
2
100
AcDbEntity
  8
GAIKEI
100
AcDbCircle
 10
-17.71413266678957
 20
11.66584961637437
 30
0.0
 40
1.999999999999971
100
AcDbArc
 50
270.0000000000003
 51
329.0264616399988
  0
ARC
  5
52
330
2
100
AcDbEntity
  8
GAIKEI
 62
     1
100
AcDbCircle
 10
-20.34023103061736
 20
13.22916206830285
 30
0.0
 40
4.857084180346727
100
AcDbArc
 50
329.1393890614289
 51
348.1613743266686
  0
ARC
  5
53
330
2
100
AcDbEntity
  8
GAIKEI
 62
     1
100
AcDbCircle
 10
-31.05808043535478
 20
15.44348427597646
 30
0.0
 40
15.80127038135564
100
AcDbArc
 50
348.2759859236663
 51
358.99323836298
  0
ARC
  5
54
330
2
100
AcDbEntity
  8
GAIKEI
100
AcDbCircle
 10
-20.2863141472385
 20
13.20983225416864
 30
0.0
 40
4.999999992075891
100
AcDbArc
 50
329.0257103760912
 51
348.2758998318895
  0
ARC
  5
55
330
2
100
AcDbEntity
  8
GAIKEI
 62
     1
100
AcDbCircle
 10
-31.05681234337095
 20
15.44508811935458
 30
0.0
 40
16.00000000000141
100
AcDbArc
 50
348.2756619400015
 51
358.9999999997989
  0
ARC
  5
56
330
2
100
AcDbEntity
  8
GAIKEI
100
AcDbCircle
 10
-24.3304247507279
 20
15.18871589622665
 30
0.0
 40
9.471203132878358
100
AcDbArc
 50
339.1209539748528
 51
20.57937286483217
  0
LINE
  5
57
330
2
100
AcDbEntity
  8
GAIKEI
 62
     1
100
AcDbLine
 10
-15.05924922086825
 20
15.1658496163019
 30
0.0
 11
-15.35924922086951
 21
15.16584961638307
 31
0.0
  0
LINE
  5
58
330
2
100
AcDbEntity
  8
GAIKEI
 62
     1
100
AcDbLine
 10
-15.05855101826955
 20
15.22584961637437
 30
0.0
 11
-15.35951393013948
 21
15.22584961637437
 31
0.0
  0
ARC
  5
59
330
2
100
AcDbEntity
  8
GAIKEI
 62
     1
100
AcDbCircle
 10
-31.05792950467577
 20
14.98823840085043
 30
0.0
 40
15.80111905119954
100
AcDbArc
 50
1.000357183015217
 51
11.06063382774168
  0
ARC
  5
5A
330
2
100
AcDbEntity
  8
GAIKEI
 62
     1
100
AcDbCircle
 10
-20.31509737886091
 20
17.07772146202001
 30
0.0
 40
4.856986594043163
100
AcDbArc
 50
11.18234367131125
 51
31.40890823690704
  0
ARC
  5
5B
330
2
100
AcDbEntity
  8
GAIKEI
 62
     1
100
AcDbCircle
 10
-31.05681233283906
 20
14.98661111402134
 30
0.0
 40
15.99999998945984
100
AcDbArc
 50
0.9999745834413614
 51
11.06086344796032
  0
ARC
  5
5C
330
2
100
AcDbEntity
  8
GAIKEI
100
AcDbCircle
 10
-20.26115371034297
 20
17.09700316817526
 30
0.0
 40
5.000000002550511
100
AcDbArc
 50
11.0605828022708
 51
31.5299860087811
  0
ARC
  5
5D
330
2
100
AcDbEntity
  8
GAIKEI
 62
     1
100
AcDbCircle
 10
-17.70407008040308
 20
18.66757949995792
 30
0.0
 40
1.800015423537247
100
AcDbArc
 50
31.53053566747121
 51
89.99972522982796
  0
ARC
  5
5E
330
2
100
AcDbEntity
  8
GAIKEI
100
AcDbCircle
 10
-17.70406144825944
 20
18.66584961602973
 30
0.0
 40
2.000000000344705
100
AcDbArc
 50
31.52957368874992
 51
90.00061992792582
  0
LINE
  5
5F
330
2
100
AcDbEntity
  8
GAIKEI
 62
     1
100
AcDbLine
 10
-26.61443699356954
 20
20.46759492347445
 30
0.0
 11
-17.70406144816957
 21
20.46759492347445
 31
0.0
  0
LINE
  5
60
330
2
100
AcDbEntity
  8
GAIKEI
100
AcDbLine
 10
-26.61441821846955
 20
20.66584961637443
 30
0.0
 11
-17.70408308782953
 21
20.66584961637443
 31
0.0
  0
LINE
  5
61
330
2
100
AcDbEntity
  8
GAIKEI
 62
     1
100
AcDbLine
 10
-26.0592492208678
 20
20.86584961637436
 30
0.0
 11
-18.25924922087103
 21
20.86584961637436
 31
0.0
  0
LINE
  5
62
330
2
100
AcDbEntity
  8
GAIKEI
100
AcDbLine
 10
-25.39825526750951
 20
22.66584961637443
 30
0.0
 11
-18.92024317568951
 21
22.66584961637443
 31
0.0
  0
LINE
  5
63
330
2
100
AcDbEntity
  8
GAIKEI
 62
     1
100
AcDbLine
 10
-25.45924922086954
 20
20.86584961637436
 30
0.0
 11
-25.45924922086954
 21
20.66584961637443
 31
0.0
  0
LINE
  5
64
330
2
100
AcDbEntity
  8
GAIKEI
100
AcDbLine
 10
-26.0592492208678
 20
20.86584961637436
 30
0.0
 11
-26.05924922086956
 21
20.66584961637443
 31
0.0
  0
ARC
  5
65
330
2
100
AcDbEntity
  8
GAIKEI
 62
     1
100
AcDbCircle
 10
-20.13747954233679
 20
20.10940631160429
 30
0.0
 40
5.401316450926262
100
AcDbArc
 50
151.751276452962
 51
171.9337225862436
  0
ARC
  5
66
330
2
100
AcDbEntity
  8
GAIKEI
100
AcDbCircle
 10
-20.13875102230935
 20
19.89235021685431
 30
0.0
 40
6.0
100
AcDbArc
 50
153.0549565624007
 51
170.6625544790002
  0
ARC
  5
67
330
2
100
AcDbEntity
  8
GAIKEI
100
AcDbCircle
 10
-25.39824689490109
 20
22.56583347954586
 30
0.0
 40
0.1000161371061326
100
AcDbArc
 50
90.00479637901428
 51
153.0486400922845
  0
LINE
  5
68
330
2
100
AcDbEntity
  8
GAIKEI
 62
     1
100
AcDbLine
 10
-18.85924922086951
 20
20.86584961637436
 30
0.0
 11
-18.85924922086951
 21
20.66584961637443
 31
0.0
  0
LINE
  5
69
330
2
100
AcDbEntity
  8
GAIKEI
100
AcDbLine
 10
-18.25924922087103
 20
20.86584961637436
 30
0.0
 11
-18.25924922086955
 21
20.66584961637443
 31
0.0
  0
ARC
  5
6A
330
2
100
AcDbEntity
  8
GAIKEI
 62
     1
100
AcDbCircle
 10
-24.18101879577097
 20
20.10940632959341
 30
0.0
 40
5.401316346217469
100
AcDbArc
 50
8.066277378867036
 51
28.24872392719636
  0
ARC
  5
6B
330
2
100
AcDbEntity
  8
GAIKEI
100
AcDbCircle
 10
-24.17974741942959
 20
19.89235021685442
 30
0.0
 40
6.000000000000074
100
AcDbArc
 50
9.337441822599929
 51
26.9450325185998
  0
ARC
  5
6C
330
2
100
AcDbEntity
  8
GAIKEI
100
AcDbCircle
 10
-18.92024954145353
 20
22.56584961589073
 30
0.0
 40
0.100000000686284
100
AcDbArc
 50
26.94380885703337
 51
89.99635268591692
  0
ARC
  5
6D
330
2
100
AcDbEntity
  8
GAIKEI
 62
     1
100
AcDbCircle
 10
-22.61121080486271
 20
21.60185885941837
 30
0.0
 40
0.1997647508427243
100
AcDbArc
 50
180.9336564256573
 51
270.0663435746625
  0
LINE
  5
6E
330
2
100
AcDbEntity
  8
GAIKEI
 62
     1
100
AcDbLine
 10
-22.81094903358951
 20
21.59860376121441
 30
0.0
 11
-22.82846502508954
 21
22.66584961637443
 31
0.0
  0
LINE
  5
6F
330
2
100
AcDbEntity
  8
GAIKEI
 62
     1
100
AcDbLine
 10
-22.61097949454961
 20
21.4020942424944
 30
0.0
 11
-21.70751894716955
 21
21.4020942424944
 31
0.0
  0
ARC
  5
70
330
2
100
AcDbEntity
  8
GAIKEI
 62
     1
100
AcDbCircle
 10
-21.70728613033515
 20
21.60185732635091
 30
0.0
 40
0.1997632195263606
100
AcDbArc
 50
269.933223818365
 51
359.0667761870497
  0
LINE
  5
71
330
2
100
AcDbEntity
  8
GAIKEI
 62
     1
100
AcDbLine
 10
-21.50754940814954
 20
21.59860376121446
 30
0.0
 11
-21.49003341662956
 21
22.66584961637443
 31
0.0
  0
LINE
  5
72
330
2
100
AcDbEntity
  8
GAIKEI
  6
HIDDEN2
 62
     1
 48
0.5
100
AcDbLine
 10
-24.43371774984013
 20
19.95299854089978
 30
0.0
 11
-24.70173759981617
 21
20.68937702667438
 31
0.0
  0
LINE
  5
73
330
2
100
AcDbEntity
  8
GAIKEI
  6
HIDDEN2
 62
     1
 48
0.5
100
AcDbLine
 10
-23.49402512905414
 20
20.2950186842254
 30
0.0
 11
-23.76204497903012
 21
21.03139716999976
 31
0.0
  0
LINE
  5
74
330
2
100
AcDbEntity
  8
GAIKEI
  6
HIDDEN2
 62
     1
 48
0.5
100
AcDbLine
 10
-24.70173759981617
 20
20.68937702667438
 30
0.0
 11
-23.76204497903012
 21
21.03139716999976
 31
0.0
  0
LINE
  5
75
330
2
100
AcDbEntity
  8
GAIKEI
  6
HIDDEN2
 62
     1
 48
0.5
100
AcDbLine
 10
-24.70173759981617
 20
20.68937702667438
 30
0.0
 11
-24.64197035207013
 21
20.81754830308558
 31
0.0
  0
LINE
  5
76
330
2
100
AcDbEntity
  8
GAIKEI
  6
HIDDEN2
 62
     1
 48
0.5
100
AcDbLine
 10
-24.64197035207013
 20
20.81754830308558
 30
0.0
 11
-23.89021625544132
 21
21.09116441774597
 31
0.0
  0
LINE
  5
77
330
2
100
AcDbEntity
  8
GAIKEI
  6
HIDDEN2
 62
     1
 48
0.5
100
AcDbLine
 10
-23.89021625544132
 20
21.09116441774597
 30
0.0
 11
-23.76204497903012
 21
21.03139716999976
 31
0.0
  0
ARC
  5
78
330
2
100
AcDbEntity
  8
GAIKEI
 62
     1
100
AcDbCircle
 10
-26.60425819800423
 20
11.66435013834586
 30
0.0
 40
1.800245832285718
100
AcDbArc
 50
223.2456417765815
 51
269.9965761870779
  0
ARC
  5
79
330
2
100
AcDbEntity
  8
GAIKEI
 62
     1
100
AcDbCircle
 10
-15.47335932371021
 20
15.30091985795786
 30
0.0
 40
13.58656121380509
100
AcDbArc
 50
180.5696130272609
 51
196.2731411348477
  0
ARC
  5
7A
330
2
100
AcDbEntity
  8
GAIKEI
 62
     1
100
AcDbCircle
 10
-26.61442836134813
 20
18.66757950001556
 30
0.0
 40
1.800015423479614
100
AcDbArc
 50
90.00027476978663
 51
148.469464333556
  0
ARC
  5
7B
330
2
100
AcDbEntity
  8
GAIKEI
 62
     1
100
AcDbCircle
 10
-24.0573183387296
 20
17.09873818772564
 30
0.0
 40
4.800027878558529
100
AcDbArc
 50
148.4697991849174
 51
168.9389489056098
  0
ARC
  5
7C
330
2
100
AcDbEntity
  8
GAIKEI
  6
Continuous
 62
     1
100
AcDbCircle
 10
-13.26056893306202
 20
14.98823840054234
 30
0.0
 40
15.80111905518557
100
AcDbArc
 50
168.9393661739453
 51
178.9996428161197
  0
ARC
  5
7D
330
2
100
AcDbEntity
  8
GAIKEI
100
AcDbCircle
 10
-26.61443699332193
 20
18.6658496161167
 30
0.0
 40
2.000000000345863
100
AcDbArc
 50
89.99946214009895
 51
148.4709823499121
  0
ARC
  5
7E
330
2
100
AcDbEntity
  8
GAIKEI
  6
Continuous
100
AcDbCircle
 10
-24.05734474175847
 20
17.09700317166107
 30
0.0
 40
4.999999991611146
100
AcDbArc
 50
148.4702363768408
 51
168.939045986108
  0
ARC
  5
7F
330
2
100
AcDbEntity
  8
GAIKEI
  6
Continuous
100
AcDbCircle
 10
-13.35737474612966
 20
15.00098996005363
 30
0.0
 40
15.90333084058999
100
AcDbArc
 50
168.92372154501
 51
179.1900153407614
  0
ARC
  5
80
330
2
100
AcDbEntity
  8
GAIKEI
100
AcDbCircle
 10
-26.60436577494954
 20
11.66584961637437
 30
0.0
 40
1.999999999999971
100
AcDbArc
 50
229.0335853627177
 51
269.9999999999997
  0
ARC
  5
81
330
2
100
AcDbEntity
  8
GAIKEI
100
AcDbCircle
 10
-24.03218429450061
 20
13.20983225416864
 30
0.0
 40
4.999999992075891
100
AcDbArc
 50
191.7241001681105
 51
206.2745811747433
  0
ARC
  5
82
330
2
100
AcDbEntity
  8
GAIKEI
100
AcDbCircle
 10
-13.2616860983681
 20
15.44508811935458
 30
0.0
 40
16.00000000000141
100
AcDbArc
 50
181.0000000002011
 51
191.7243380599985
  0
LINE
  5
83
330
2
100
AcDbEntity
  8
GAIKEI
 62
     1
100
AcDbLine
 10
-29.25924921776953
 20
15.16584961637443
 30
0.0
 11
-27.45924922086954
 21
15.1658496163746
 31
0.0
  0
LINE
  5
84
330
2
100
AcDbEntity
  8
GAIKEI
 62
     1
100
AcDbLine
 10
-29.25994742346956
 20
15.22584961637437
 30
0.0
 11
-27.45890958961019
 21
15.22584961637437
 31
0.0
  0
LINE
  5
85
330
2
100
AcDbEntity
  8
GAIKEI
  6
HIDDEN2
 62
     1
 48
0.5
100
AcDbLine
 10
-27.35880892555054
 20
14.1389229068738
 30
0.0
 11
-27.54692128148452
 21
14.0709983785722
 31
0.0
  0
LINE
  5
86
330
2
100
AcDbEntity
  8
GAIKEI
  6
HIDDEN2
 62
     1
 48
0.5
100
AcDbLine
 10
-27.60701519530034
 20
13.94297993645443
 30
0.0
 11
-27.13154349718712
 21
12.62619344491759
 31
0.0
  0
LINE
  5
87
330
2
100
AcDbEntity
  8
GAIKEI
  6
HIDDEN2
 62
     1
 48
0.5
100
AcDbLine
 10
-27.00352505506936
 20
12.56609953110171
 30
0.0
 11
-26.81541269913555
 21
12.63402405940337
 31
0.0
  0
ARC
  5
88
330
2
100
AcDbEntity
  8
GAIKEI
  6
HIDDEN2
 62
     1
 48
0.5
100
AcDbCircle
 10
-27.03748731922031
 20
12.66015570906847
 30
0.0
 40
0.0999999999999008
100
AcDbArc
 50
199.8538850264458
 51
289.8538850264738
  0
ARC
  5
89
330
2
100
AcDbEntity
  8
GAIKEI
  6
HIDDEN2
 62
     1
 48
0.5
100
AcDbCircle
 10
-27.51295901733374
 20
13.97694220060543
 30
0.0
 40
0.0999999999997343
100
AcDbArc
 50
109.8538850264183
 51
199.8538850265461
  0
LINE
  5
8A
330
2
100
AcDbEntity
  8
GAIKEI
  6
HIDDEN2
 62
     1
 48
0.5
100
AcDbLine
 10
-27.26739255379096
 20
13.00241815678521
 30
0.0
 11
-27.65144788014453
 21
12.86374158365481
 31
0.0
  0
ARC
  5
8B
330
2
100
AcDbEntity
  8
GAIKEI
  6
HIDDEN2
 62
     1
 48
0.5
100
AcDbCircle
 10
-27.5155988235407
 20
12.48751687178719
 30
0.0
 40
0.4000000000000109
100
AcDbArc
 50
109.8538850264542
 51
180.0
  0
ARC
  5
8C
330
2
100
AcDbEntity
  8
GAIKEI
  6
HIDDEN2
 62
     1
 48
0.5
100
AcDbCircle
 10
-27.51559882354076
 20
12.48751687178719
 30
0.0
 40
0.9999999999999804
100
AcDbArc
 50
109.8538850264382
 51
179.999999999999
  0
LINE
  5
8D
330
2
100
AcDbEntity
  8
GAIKEI
  6
HIDDEN2
 62
     1
 48
0.5
100
AcDbLine
 10
-27.85522146505002
 20
13.42807865145625
 30
0.0
 11
-27.4711661386965
 21
13.56675522458658
 31
0.0
  0
LINE
  5
8E
330
2
100
AcDbEntity
  8
GAIKEI
  6
HIDDEN2
 62
     1
 48
0.5
100
AcDbLine
 10
-27.91559882354074
 20
12.48751687178719
 30
0.0
 11
-27.91559882354074
 21
9.483922836675617
 31
0.0
  0
LINE
  5
8F
330
2
100
AcDbEntity
  8
GAIKEI
  6
HIDDEN2
 62
     1
 48
0.5
100
AcDbLine
 10
-28.5155988235407
 20
12.48751687178719
 30
0.0
 11
-28.5155988235407
 21
9.483922836675617
 31
0.0
  0
ARC
  5
90
330
2
100
AcDbEntity
  8
GAIKEI
  6
HIDDEN2
 62
     1
 48
0.5
100
AcDbCircle
 10
-29.03842402220533
 20
9.483922836675617
 30
0.0
 40
0.5228251986643841
100
AcDbArc
 50
180.0000000000006
 51
359.9999999999994
  0
ARC
  5
91
330
2
100
AcDbEntity
  8
GAIKEI
  6
HIDDEN2
 62
     1
 48
0.5
100
AcDbCircle
 10
-29.03842402220533
 20
9.48392283667556
 30
0.0
 40
1.122825198664395
100
AcDbArc
 50
179.9999999999994
 51
0.0000000000023181
  0
LINE
  5
92
330
2
100
AcDbEntity
  8
GAIKEI
  6
HIDDEN2
 62
     1
 48
0.5
100
AcDbLine
 10
-30.16124922086977
 20
9.483922836675617
 30
0.0
 11
-30.16124922086977
 21
17.75635839817181
 31
0.0
  0
LINE
  5
93
330
2
100
AcDbEntity
  8
GAIKEI
  6
HIDDEN2
 62
     1
 48
0.5
100
AcDbLine
 10
-29.56124922086974
 20
9.483922836675617
 30
0.0
 11
-29.56124922086974
 21
17.75635839817181
 31
0.0
  0
LINE
  5
94
330
2
100
AcDbEntity
  8
GAIKEI
 62
     1
100
AcDbLine
 10
-29.55921805943876
 20
12.06441431691439
 30
0.0
 11
-28.89921805942953
 21
12.06441431691439
 31
0.0
  0
ARC
  5
95
330
2
100
AcDbEntity
  8
GAIKEI
100
AcDbCircle
 10
-28.82225761733224
 20
11.17271974901069
 30
0.0
 40
0.3409725306642061
100
AcDbArc
 50
205.8234228694322
 51
268.8102842444604
  0
LINE
  5
96
330
2
100
AcDbEntity
  8
GAIKEI
100
AcDbLine
 10
-28.82933721803305
 20
10.83182072301991
 30
0.0
 11
-28.5155988235407
 21
10.82634439897379
 31
0.0
  0
ARC
  5
97
330
2
100
AcDbEntity
  8
GAIKEI
100
AcDbCircle
 10
-24.63218428767806
 20
13.20983225577504
 30
0.0
 40
4.999999999012686
100
AcDbArc
 50
193.2431190091751
 51
205.9207772924587
  0
ARC
  5
98
330
2
100
AcDbEntity
  8
GAIKEI
100
AcDbCircle
 10
-16.32080533284932
 20
15.16584961637443
 30
0.0
 40
13.53844388802023
100
AcDbArc
 50
180.0000000000001
 51
193.2431226273004
  0
ARC
  5
99
330
2
100
AcDbEntity
  8
GAIKEI
  6
Continuous
100
AcDbCircle
 10
-11.79791144175533
 20
14.64080837574181
 30
0.0
 40
18.06896761510249
100
AcDbArc
 50
168.4219992712902
 51
178.3348864879083
  0
ARC
  5
9A
330
2
100
AcDbEntity
  8
GAIKEI
  6
Continuous
100
AcDbCircle
 10
-24.63218428742619
 20
17.12186697690464
 30
0.0
 40
4.999999999273716
100
AcDbArc
 50
156.0286224850947
 51
166.7569036988336
  0
ARC
  5
9B
330
2
100
AcDbEntity
  8
GAIKEI
  6
Continuous
100
AcDbCircle
 10
-28.88914928038602
 20
19.01523328402476
 30
0.0
 40
0.3409676267390214
100
AcDbArc
 50
91.18484124998996
 51
156.1193616379413
  0
LINE
  5
9C
330
2
100
AcDbEntity
  8
GAIKEI
  6
Continuous
100
AcDbLine
 10
-28.89619977730618
 20
19.35612800820985
 30
0.0
 11
-28.51299420156954
 21
19.36281688645442
 31
0.0
  0
ARC
  5
9D
330
2
100
AcDbEntity
  8
GAIKEI
  6
Continuous
 62
     1
100
AcDbCircle
 10
-29.10959200126047
 20
18.91491992681313
 30
0.0
 40
0.1512733095910914
100
AcDbArc
 50
338.5557638351981
 51
97.27849752154016
  0
LINE
  5
9E
330
2
100
AcDbEntity
  8
GAIKEI
  6
Continuous
 62
     1
100
AcDbLine
 10
-29.12875717272942
 20
19.06497428495447
 30
0.0
 11
-29.27200140926948
 21
19.06473800851444
 31
0.0
  0
ARC
  5
9F
330
2
100
AcDbEntity
  8
GAIKEI
  6
Continuous
 62
     1
100
AcDbCircle
 10
-11.26910076751039
 20
14.17486847701048
 30
0.0
 40
18.30917465991739
100
AcDbArc
 50
165.1749280925801
 51
169.7960380769819
  0
ARC
  5
A0
330
2
100
AcDbEntity
  8
GAIKEI
  6
Continuous
 62
     1
100
AcDbCircle
 10
-42.60510783723634
 20
18.78525228968885
 30
0.0
 40
13.3863889161199
100
AcDbArc
 50
349.1197651118493
 51
354.139407298622
  0
ARC
  5
A1
330
2
100
AcDbEntity
  8
GAIKEI
 62
     1
100
AcDbCircle
 10
-30.22792606727092
 20
16.46800699195324
 30
0.0
 40
0.7966200729918626
100
AcDbArc
 50
294.8541640304588
 51
344.750804539065
  0
ARC
  5
A2
330
2
100
AcDbEntity
  8
GAIKEI
  6
HIDDEN2
 62
     1
 48
0.5
100
AcDbCircle
 10
-29.86124922086975
 20
17.75852835308069
 30
0.0
 40
0.3000078477378658
100
AcDbArc
 50
359.5855763672643
 51
180.4144236327357
  0
LINE
  5
A3
330
2
100
AcDbEntity
  8
GAIKEI
  6
HIDDEN2
 62
     1
 48
0.5
100
AcDbLine
 10
-30.16124922086977
 20
16.88564970016023
 30
0.0
 11
-30.45924922086954
 21
16.8558497001602
 31
0.0
  0
LINE
  5
A4
330
2
100
AcDbEntity
  8
GAIKEI
  6
HIDDEN2
 62
     1
 48
0.5
100
AcDbLine
 10
-30.45924922086954
 20
16.8558497001602
 30
0.0
 11
-30.65924922086953
 21
17.05584970016019
 31
0.0
  0
LINE
  5
A5
330
2
100
AcDbEntity
  8
GAIKEI
  6
HIDDEN2
 62
     1
 48
0.3
100
AcDbLine
 10
-30.65924922086953
 20
17.05584970016019
 30
0.0
 11
-30.65924922086953
 21
18.45584970016023
 31
0.0
  0
LINE
  5
A6
330
2
100
AcDbEntity
  8
GAIKEI
  6
HIDDEN2
 62
     1
 48
0.3
100
AcDbLine
 10
-30.65924922086953
 20
18.45584970016023
 30
0.0
 11
-30.45924922086954
 21
18.65584970016016
 31
0.0
  0
LINE
  5
A7
330
2
100
AcDbEntity
  8
GAIKEI
  6
HIDDEN2
 62
     1
 48
0.3
100
AcDbLine
 10
-30.45924922086954
 20
18.65584970016016
 30
0.0
 11
-29.45924922086954
 21
18.55584970016019
 31
0.0
  0
LINE
  5
A8
330
2
100
AcDbEntity
  8
GAIKEI
  6
HIDDEN2
 62
     1
 48
0.5
100
AcDbLine
 10
-30.16124922086977
 20
17.25635839817181
 30
0.0
 11
-30.19924922086955
 21
17.25635839817181
 31
0.0
  0
LINE
  5
A9
330
2
100
AcDbEntity
  8
GAIKEI
  6
HIDDEN2
 62
     1
 48
0.5
100
AcDbLine
 10
-30.19924922086955
 20
17.25635839817181
 30
0.0
 11
-30.35924922086952
 21
17.41635839817184
 31
0.0
  0
LINE
  5
AA
330
2
100
AcDbEntity
  8
GAIKEI
  6
HIDDEN2
 62
     1
 48
0.3
100
AcDbLine
 10
-30.35924922086952
 20
17.41635839817184
 30
0.0
 11
-30.35924922086952
 21
18.09635839817179
 31
0.0
  0
LINE
  5
AB
330
2
100
AcDbEntity
  8
GAIKEI
  6
HIDDEN2
 62
     1
 48
0.3
100
AcDbLine
 10
-30.35924922086952
 20
18.09635839817179
 30
0.0
 11
-30.19924922086955
 21
18.25635839817181
 31
0.0
  0
LINE
  5
AC
330
2
100
AcDbEntity
  8
GAIKEI
  6
HIDDEN2
 62
     1
 48
0.3
100
AcDbLine
 10
-30.19924922086955
 20
18.25635839817181
 30
0.0
 11
-29.51924922086954
 21
18.25635839817181
 31
0.0
  0
LINE
  5
AD
330
2
100
AcDbEntity
  8
GAIKEI
  6
HIDDEN2
 62
     1
 48
0.5
100
AcDbLine
 10
-29.51924922086954
 20
18.25635839817181
 30
0.0
 11
-29.35924922086952
 21
18.09635839817179
 31
0.0
  0
LINE
  5
AE
330
2
100
AcDbEntity
  8
GAIKEI
  6
HIDDEN2
 62
     1
 48
0.5
100
AcDbLine
 10
-29.35924922086952
 20
18.09635839817179
 30
0.0
 11
-29.35924922086952
 21
17.41635839817184
 31
0.0
  0
LINE
  5
AF
330
2
100
AcDbEntity
  8
GAIKEI
  6
HIDDEN2
 62
     1
 48
0.5
100
AcDbLine
 10
-29.35924922086952
 20
17.41635839817184
 30
0.0
 11
-29.51924922086954
 21
17.25635839817181
 31
0.0
  0
LINE
  5
B0
330
2
100
AcDbEntity
  8
GAIKEI
  6
HIDDEN2
 62
     1
 48
0.5
100
AcDbLine
 10
-29.51924922086954
 20
17.25635839817181
 30
0.0
 11
-29.56124922086974
 21
17.25635839817181
 31
0.0
  0
DIMENSION
  5
B1
330
2
100
AcDbEntity
  8
SUNPO
100
AcDbDimension
  2
*D6
 10
-14.85924922086951
 20
30.67071297389532
 30
0.0
 11
-22.35924922086954
 21
32.42071297389532
 31
0.0
 70
    33
  1
75
 71
     5
 42
15.00000000000006
  3
STANDARD
100
AcDbAlignedDimension
 13
-29.85924922086957
 23
22.67071297389532
 33
0.0
 14
-14.85924922086951
 24
22.67071297389532
 34
0.0
1001
ACAD
1000
DSTYLE
1002
{
1070
    40
1040
1.0
1070
   140
1040
2.5
1070
   147
1040
0.5
1070
   172
1070
     1
1070
   279
1070
     0
1070
   288
1070
     0
1002
}
  0
DIMENSION
  5
C0
330
2
100
AcDbEntity
  8
SUNPO
100
AcDbDimension
  2
*D5
 10
-6.872570927383542
 20
22.66584961637443
 30
0.0
 11
-8.622570927383545
 21
16.16584961637443
 31
0.0
 70
    33
  1
65
 71
     5
 42
13.0
  3
STANDARD
100
AcDbAlignedDimension
 13
-14.87257092738354
 23
9.66584961637443
 33
0.0
 14
-14.87257092738354
 24
22.66584961637443
 34
0.0
1001
ACAD
1000
DSTYLE
1002
{
1070
    40
1040
1.0
1070
   140
1040
2.5
1070
   147
1040
0.5
1070
   172
1070
     1
1070
   279
1070
     0
1070
   288
1070
     0
1002
}
  0
DIMENSION
  5
CD
330
2
100
AcDbEntity
  8
SUNPO
100
AcDbDimension
  2
*D4
 10
39.7266859025881
 20
30.67071297389532
 30
0.0
 11
25.87668590266089
 21
32.42071297389532
 31
0.0
 70
    33
  1
138.5
 71
     5
 42
27.69999999985443
  3
STANDARD
100
AcDbAlignedDimension
 13
12.02668590273367
 23
22.67071297389532
 33
0.0
 14
39.7266859025881
 24
22.67071297389532
 34
0.0
1001
ACAD
1000
DSTYLE
1002
{
1070
    40
1040
1.0
1070
   140
1040
2.5
1070
   147
1040
0.5
1070
   172
1070
     1
1070
   279
1070
     0
1070
   288
1070
     0
1002
}
  0
TEXT
  5
DA
330
2
100
AcDbEntity
  8
MOJI1
 62
     2
100
AcDbText
 10
-59.03230923523199
 20
-50.64936655887766
 30
0.0
 40
3.0
  1
ダイナミックレンジ
100
AcDbText
  0
TEXT
  5
DB
330
2
100
AcDbEntity
  8
MOJI1
 62
     2
100
AcDbText
 10
-59.03230923523199
 20
-25.64936655887766
 30
0.0
 40
3.0
  1
電　源
100
AcDbText
  0
TEXT
  5
DC
330
2
100
AcDbEntity
  8
MOJI1
 62
     2
100
AcDbText
 10
-59.03230923523199
 20
-35.64936655887766
 30
0.0
 40
3.0
  1
解像度
100
AcDbText
  0
TEXT
  5
DD
330
2
100
AcDbEntity
  8
MOJI1
 62
     2
100
AcDbText
 10
-59.03230923523199
 20
-30.64936655887766
 30
0.0
 40
3.0
  1
撮像素子
100
AcDbText
  0
TEXT
  5
DE
330
2
100
AcDbEntity
  8
MOJI1
 62
     2
100
AcDbText
 10
-59.03230923523199
 20
-40.64936655887765
 30
0.0
 40
3.0
  1
最低照度
100
AcDbText
  0
TEXT
  5
DF
330
2
100
AcDbEntity
  8
MOJI1
 62
     2
100
AcDbText
 10
-19.03230923523199
 20
-30.64936655887766
 30
0.0
 40
3.0
  1
１／３型　インターライン転送方式ＣＣＤ
100
AcDbText
  0
TEXT
  5
E0
330
2
100
AcDbEntity
  8
MOJI1
 62
     2
100
AcDbText
 10
-19.03230923523199
 20
-35.64936655887766
 30
0.0
 40
3.0
  1
水平：６５０本　垂直：３５０本以上（中心部）
100
AcDbText
  0
TEXT
  5
E1
330
2
100
AcDbEntity
  8
MOJI1
 62
     2
100
AcDbText
 10
-19.03230923523199
 20
-40.64936655887765
 30
0.0
 40
3.0
  1
０．１ルクス（Ｆ１．４）
100
AcDbText
  0
TEXT
  5
E2
330
2
100
AcDbEntity
  8
MOJI1
 62
     2
100
AcDbText
 10
-19.03230923523199
 20
-45.64936655887765
 30
0.0
 40
3.0
  1
０．００３ルクス（電子感度アップ３２倍Ｆ１．４）
 41
0.95
100
AcDbText
  0
TEXT
  5
E3
330
2
100
AcDbEntity
  8
MOJI1
 62
     2
100
AcDbText
 10
-19.03230923523199
 20
-50.64936655887766
 30
0.0
 40
3.0
  1
５２ｄＢ／ｔｙｐ（１２８倍スーパーダイナミック方式）
 41
0.88
100
AcDbText
  0
TEXT
  5
E4
330
2
100
AcDbEntity
  8
MOJI1
 62
     2
100
AcDbText
 10
-19.03230923523199
 20
-25.64936655887766
 30
0.0
 40
3.0
  1
カメラ駆動ユニットよりＤＣ電源供給、ＤＣ１２Ｖ
 41
0.98
100
AcDbText
  0
LINE
  5
E5
330
2
100
AcDbEntity
  8
GAIKEI
  6
HIDDEN2
 62
     1
 48
0.5
100
AcDbLine
 10
2.8266859027337
 20
19.01584981637461
 30
0.0
 11
2.8266859027337
 21
11.31584981637456
 31
0.0
  0
LINE
  5
E6
330
2
100
AcDbEntity
  8
GAIKEI
  6
HIDDEN2
 62
     1
 48
0.5
100
AcDbLine
 10
2.926685902733666
 20
11.2158498163746
 30
0.0
 11
4.8266859027337
 21
11.2158498163746
 31
0.0
  0
LINE
  5
E7
330
2
100
AcDbEntity
  8
GAIKEI
  6
HIDDEN2
 62
     1
 48
0.5
100
AcDbLine
 10
2.926685902733666
 20
19.11584981637463
 30
0.0
 11
4.8266859027337
 21
19.11584981637463
 31
0.0
  0
ARC
  5
E8
330
2
100
AcDbEntity
  8
GAIKEI
  6
HIDDEN2
 62
     1
 48
0.5
100
AcDbCircle
 10
2.926685902733666
 20
11.31584981637456
 30
0.0
 40
0.1
100
AcDbArc
 50
180.0
 51
270.0
  0
LINE
  5
E9
330
2
100
AcDbEntity
  8
GAIKEI
  6
HIDDEN2
 62
     1
 48
0.5
100
AcDbLine
 10
3.216685902733857
 20
11.61272481637456
 30
0.0
 11
4.436685902733884
 21
11.61272481637456
 31
0.0
  0
LINE
  5
EA
330
2
100
AcDbEntity
  8
GAIKEI
  6
HIDDEN2
 62
     1
 48
0.5
100
AcDbLine
 10
3.216685902733857
 20
11.46272481637459
 30
0.0
 11
4.436685902733884
 21
11.46272481637459
 31
0.0
  0
ARC
  5
EB
330
2
100
AcDbEntity
  8
GAIKEI
  6
HIDDEN2
 62
     1
 48
0.5
100
AcDbCircle
 10
3.208123058538504
 20
11.63309912798382
 30
0.0
 40
0.1705893559312302
100
AcDbArc
 50
213.9926894513328
 51
272.8772081945599
  0
ARC
  5
EC
330
2
100
AcDbEntity
  8
GAIKEI
  6
HIDDEN2
 62
     1
 48
0.5
100
AcDbCircle
 10
3.21505777602006
 20
11.42848106980227
 30
0.0
 40
0.1842509401539268
100
AcDbArc
 50
89.49370134463434
 51
143.6364010095718
  0
LINE
  5
ED
330
2
100
AcDbEntity
  8
GAIKEI
  6
HIDDEN2
 62
     1
 48
0.5
100
AcDbLine
 10
3.216685902733857
 20
12.35334981637459
 30
0.0
 11
4.436685902733884
 21
12.35334981637459
 31
0.0
  0
LINE
  5
EE
330
2
100
AcDbEntity
  8
GAIKEI
  6
HIDDEN2
 62
     1
 48
0.5
100
AcDbLine
 10
3.216685902733857
 20
12.16584981637459
 30
0.0
 11
4.436685902733884
 21
12.16584981637459
 31
0.0
  0
LINE
  5
EF
330
2
100
AcDbEntity
  8
GAIKEI
  6
HIDDEN2
 62
     1
 48
0.5
100
AcDbLine
 10
3.2166859027338
 20
13.07834981637438
 30
0.0
 11
4.436685902733884
 21
13.07834981637461
 31
0.0
  0
ARC
  5
F0
330
2
100
AcDbEntity
  8
GAIKEI
  6
HIDDEN2
 62
     1
 48
0.5
100
AcDbCircle
 10
3.209269340564972
 20
12.33851669203704
 30
0.0
 40
0.1728260841002366
100
AcDbArc
 50
214.410383237839
 51
272.4595144081048
  0
ARC
  5
F1
330
2
100
AcDbEntity
  8
GAIKEI
  6
HIDDEN2
 62
     1
 48
0.5
100
AcDbCircle
 10
3.197935902733902
 20
12.22209981637456
 30
0.0
 40
0.1325825214723997
100
AcDbArc
 50
81.86989764585408
 51
171.8698976458454
  0
LINE
  5
F2
330
2
100
AcDbEntity
  8
GAIKEI
  6
HIDDEN2
 62
     1
 48
0.5
100
AcDbLine
 10
3.216685902733857
 20
13.3408498163746
 30
0.0
 11
4.436685902733884
 21
13.3408498163746
 31
0.0
  0
ARC
  5
F3
330
2
100
AcDbEntity
  8
GAIKEI
  6
HIDDEN2
 62
     1
 48
0.5
100
AcDbCircle
 10
3.214049125835302
 20
13.23108411384299
 30
0.0
 40
0.1527570561893894
100
AcDbArc
 50
195.2711591297488
 51
270.989045578539
  0
ARC
  5
F4
330
2
100
AcDbEntity
  8
GAIKEI
  6
HIDDEN2
 62
     1
 48
0.5
100
AcDbCircle
 10
3.216685902733914
 20
13.19084981637457
 30
0.0
 40
0.1500000000000114
100
AcDbArc
 50
90.00000000001302
 51
179.9999999999956
  0
LINE
  5
F5
330
2
100
AcDbEntity
  8
GAIKEI
  6
HIDDEN2
 62
     1
 48
0.5
100
AcDbLine
 10
3.216685902733857
 20
14.0283498163746
 30
0.0
 11
4.436685902733884
 21
14.0283498163746
 31
0.0
  0
LINE
  5
F6
330
2
100
AcDbEntity
  8
GAIKEI
  6
HIDDEN2
 62
     1
 48
0.5
100
AcDbLine
 10
3.216685902733857
 20
14.32834981637461
 30
0.0
 11
4.436685902733884
 21
14.32834981637461
 31
0.0
  0
ARC
  5
F7
330
2
100
AcDbEntity
  8
GAIKEI
  6
HIDDEN2
 62
     1
 48
0.5
100
AcDbCircle
 10
3.216685902733857
 20
14.17834981637463
 30
0.0
 40
0.1500000000000057
100
AcDbArc
 50
90.0
 51
270.0
  0
LINE
  5
F8
330
2
100
AcDbEntity
  8
GAIKEI
  6
HIDDEN2
 62
     1
 48
0.5
100
AcDbLine
 10
3.216685902733857
 20
15.01584981637461
 30
0.0
 11
4.436685902733884
 21
15.01584981637461
 31
0.0
  0
ARC
  5
F9
330
2
100
AcDbEntity
  8
GAIKEI
  6
HIDDEN2
 62
     1
 48
0.5
100
AcDbCircle
 10
3.216685902733857
 20
15.16584981637459
 30
0.0
 40
0.1500000000000057
100
AcDbArc
 50
90.0
 51
270.0
  0
LINE
  5
FA
330
2
100
AcDbEntity
  8
GAIKEI
  6
HIDDEN2
 62
     1
 48
0.5
100
AcDbLine
 10
3.216685902733857
 20
15.31584981637462
 30
0.0
 11
4.436685902733884
 21
15.31584981637456
 31
0.0
  0
ARC
  5
FB
330
2
100
AcDbEntity
  8
GAIKEI
  6
HIDDEN2
 62
     1
 48
0.5
100
AcDbCircle
 10
4.445248746929294
 20
11.63309912798382
 30
0.0
 40
0.1705893559312302
100
AcDbArc
 50
267.12279180544
 51
326.0073105486672
  0
ARC
  5
FC
330
2
100
AcDbEntity
  8
GAIKEI
  6
HIDDEN2
 62
     1
 48
0.5
100
AcDbCircle
 10
4.438314029447681
 20
11.42848106980227
 30
0.0
 40
0.1842509401539268
100
AcDbArc
 50
36.36359899042816
 51
90.50629865536567
  0
ARC
  5
FD
330
2
100
AcDbEntity
  8
GAIKEI
  6
HIDDEN2
 62
     1
 48
0.5
100
AcDbCircle
 10
4.444102464902769
 20
12.33851669203704
 30
0.0
 40
0.1728260841002366
100
AcDbArc
 50
267.5404855918952
 51
325.589616762161
  0
ARC
  5
FE
330
2
100
AcDbEntity
  8
GAIKEI
  6
HIDDEN2
 62
     1
 48
0.5
100
AcDbCircle
 10
4.455435902733839
 20
12.22209981637456
 30
0.0
 40
0.1325825214723997
100
AcDbArc
 50
8.130102354154619
 51
98.13010235414592
  0
ARC
  5
FF
330
2
100
AcDbEntity
  8
GAIKEI
  6
HIDDEN2
 62
     1
 48
0.5
100
AcDbCircle
 10
4.439322679632439
 20
13.23108411384299
 30
0.0
 40
0.1527570561893894
100
AcDbArc
 50
269.010954421461
 51
344.7288408702513
  0
ARC
  5
100
330
2
100
AcDbEntity
  8
GAIKEI
  6
HIDDEN2
 62
     1
 48
0.5
100
AcDbCircle
 10
4.436685902733827
 20
13.19084981637457
 30
0.0
 40
0.1500000000000114
100
AcDbArc
 50
0.0000000000043835
 51
89.99999999998699
  0
ARC
  5
101
330
2
100
AcDbEntity
  8
GAIKEI
  6
HIDDEN2
 62
     1
 48
0.5
100
AcDbCircle
 10
4.436685902733884
 20
14.17834981637463
 30
0.0
 40
0.1500000000000057
100
AcDbArc
 50
270.0
 51
90.0
  0
ARC
  5
102
330
2
100
AcDbEntity
  8
GAIKEI
  6
HIDDEN2
 62
     1
 48
0.5
100
AcDbCircle
 10
4.436685902733884
 20
15.16584981637459
 30
0.0
 40
0.1500000000000057
100
AcDbArc
 50
270.0
 51
90.0
  0
LINE
  5
103
330
2
100
AcDbEntity
  8
GAIKEI
  6
HIDDEN2
 62
     1
 48
0.5
100
AcDbLine
 10
3.216685902733857
 20
18.71897481637461
 30
0.0
 11
4.436685902733884
 21
18.71897481637461
 31
0.0
  0
LINE
  5
104
330
2
100
AcDbEntity
  8
GAIKEI
  6
HIDDEN2
 62
     1
 48
0.5
100
AcDbLine
 10
3.216685902733857
 20
18.86897481637459
 30
0.0
 11
4.436685902733884
 21
18.86897481637459
 31
0.0
  0
ARC
  5
105
330
2
100
AcDbEntity
  8
GAIKEI
  6
HIDDEN2
 62
     1
 48
0.5
100
AcDbCircle
 10
3.208123058538504
 20
18.69860050476541
 30
0.0
 40
0.1705893559312302
100
AcDbArc
 50
87.12279180544006
 51
146.0073105486672
  0
ARC
  5
106
330
2
100
AcDbEntity
  8
GAIKEI
  6
HIDDEN2
 62
     1
 48
0.5
100
AcDbCircle
 10
3.21505777602006
 20
18.9032185629469
 30
0.0
 40
0.1842509401539268
100
AcDbArc
 50
216.3635989904281
 51
270.5062986553656
  0
LINE
  5
107
330
2
100
AcDbEntity
  8
GAIKEI
  6
HIDDEN2
 62
     1
 48
0.5
100
AcDbLine
 10
3.216685902733857
 20
17.97834981637459
 30
0.0
 11
4.436685902733884
 21
17.97834981637459
 31
0.0
  0
LINE
  5
108
330
2
100
AcDbEntity
  8
GAIKEI
  6
HIDDEN2
 62
     1
 48
0.5
100
AcDbLine
 10
3.216685902733857
 20
18.16584981637459
 30
0.0
 11
4.436685902733884
 21
18.16584981637459
 31
0.0
  0
LINE
  5
109
330
2
100
AcDbEntity
  8
GAIKEI
  6
HIDDEN2
 62
     1
 48
0.5
100
AcDbLine
 10
3.2166859027338
 20
17.25334981637485
 30
0.0
 11
4.436685902733884
 21
17.25334981637456
 31
0.0
  0
ARC
  5
10A
330
2
100
AcDbEntity
  8
GAIKEI
  6
HIDDEN2
 62
     1
 48
0.5
100
AcDbCircle
 10
3.209269340564972
 20
17.99318294071219
 30
0.0
 40
0.1728260841002366
100
AcDbArc
 50
87.54048559189525
 51
145.5896167621609
  0
ARC
  5
10B
330
2
100
AcDbEntity
  8
GAIKEI
  6
HIDDEN2
 62
     1
 48
0.5
100
AcDbCircle
 10
3.197935902733902
 20
18.10959981637461
 30
0.0
 40
0.1325825214723997
100
AcDbArc
 50
188.1301023541546
 51
278.1301023541459
  0
LINE
  5
10C
330
2
100
AcDbEntity
  8
GAIKEI
  6
HIDDEN2
 62
     1
 48
0.5
100
AcDbLine
 10
3.216685902733857
 20
16.99084981637463
 30
0.0
 11
4.436685902733884
 21
16.99084981637463
 31
0.0
  0
ARC
  5
10D
330
2
100
AcDbEntity
  8
GAIKEI
  6
HIDDEN2
 62
     1
 48
0.5
100
AcDbCircle
 10
3.214049125835302
 20
17.10061551890624
 30
0.0
 40
0.1527570561893894
100
AcDbArc
 50
89.01095442146104
 51
164.7288408702512
  0
ARC
  5
10E
330
2
100
AcDbEntity
  8
GAIKEI
  6
HIDDEN2
 62
     1
 48
0.5
100
AcDbCircle
 10
3.216685902733914
 20
17.14084981637461
 30
0.0
 40
0.1500000000000114
100
AcDbArc
 50
180.0000000000043
 51
269.999999999987
  0
LINE
  5
10F
330
2
100
AcDbEntity
  8
GAIKEI
  6
HIDDEN2
 62
     1
 48
0.5
100
AcDbLine
 10
3.216685902733857
 20
16.30334981637463
 30
0.0
 11
4.436685902733884
 21
16.30334981637463
 31
0.0
  0
LINE
  5
110
330
2
100
AcDbEntity
  8
GAIKEI
  6
HIDDEN2
 62
     1
 48
0.5
100
AcDbLine
 10
3.216685902733857
 20
16.00334981637456
 30
0.0
 11
4.436685902733884
 21
16.00334981637456
 31
0.0
  0
ARC
  5
111
330
2
100
AcDbEntity
  8
GAIKEI
  6
HIDDEN2
 62
     1
 48
0.5
100
AcDbCircle
 10
3.216685902733857
 20
16.1533498163746
 30
0.0
 40
0.1500000000000057
100
AcDbArc
 50
90.00000000000003
 51
270.0
  0
ARC
  5
112
330
2
100
AcDbEntity
  8
GAIKEI
  6
HIDDEN2
 62
     1
 48
0.5
100
AcDbCircle
 10
4.445248746929294
 20
18.69860050476541
 30
0.0
 40
0.1705893559312302
100
AcDbArc
 50
33.99268945133283
 51
92.87720819455996
  0
ARC
  5
113
330
2
100
AcDbEntity
  8
GAIKEI
  6
HIDDEN2
 62
     1
 48
0.5
100
AcDbCircle
 10
4.438314029447681
 20
18.9032185629469
 30
0.0
 40
0.1842509401539268
100
AcDbArc
 50
269.4937013446343
 51
323.6364010095718
  0
ARC
  5
114
330
2
100
AcDbEntity
  8
GAIKEI
  6
HIDDEN2
 62
     1
 48
0.5
100
AcDbCircle
 10
4.444102464902769
 20
17.99318294071219
 30
0.0
 40
0.1728260841002366
100
AcDbArc
 50
34.41038323783906
 51
92.45951440810477
  0
ARC
  5
115
330
2
100
AcDbEntity
  8
GAIKEI
  6
HIDDEN2
 62
     1
 48
0.5
100
AcDbCircle
 10
4.455435902733839
 20
18.10959981637461
 30
0.0
 40
0.1325825214723997
100
AcDbArc
 50
261.8698976458541
 51
351.8698976458454
  0
ARC
  5
116
330
2
100
AcDbEntity
  8
GAIKEI
  6
HIDDEN2
 62
     1
 48
0.5
100
AcDbCircle
 10
4.439322679632439
 20
17.10061551890624
 30
0.0
 40
0.1527570561893894
100
AcDbArc
 50
15.27115912974877
 51
90.98904557853897
  0
ARC
  5
117
330
2
100
AcDbEntity
  8
GAIKEI
  6
HIDDEN2
 62
     1
 48
0.5
100
AcDbCircle
 10
4.436685902733827
 20
17.14084981637461
 30
0.0
 40
0.1500000000000114
100
AcDbArc
 50
270.000000000013
 51
359.9999999999956
  0
ARC
  5
118
330
2
100
AcDbEntity
  8
GAIKEI
  6
HIDDEN2
 62
     1
 48
0.5
100
AcDbCircle
 10
4.436685902733884
 20
16.1533498163746
 30
0.0
 40
0.1500000000000057
100
AcDbArc
 50
270.0
 51
90.00000000000003
  0
ARC
  5
119
330
2
100
AcDbEntity
  8
GAIKEI
  6
HIDDEN2
 62
     1
 48
0.5
100
AcDbCircle
 10
2.926685902733723
 20
19.01584981637461
 30
0.0
 40
0.100000000000017
100
AcDbArc
 50
90.00000000000651
 51
179.9999999999902
  0
LINE
  5
11A
330
2
100
AcDbEntity
  8
GAIKEI
  6
HIDDEN2
 62
     1
 48
0.5
100
AcDbLine
 10
4.826685902733871
 20
20.06584981637457
 30
0.0
 11
4.826685902733871
 21
10.26584981637461
 31
0.0
  0
LINE
  5
11B
330
2
100
AcDbEntity
  8
GAIKEI
  6
HIDDEN2
 62
     1
 48
0.5
100
AcDbLine
 10
5.226685902733848
 20
9.865849816374634
 30
0.0
 11
11.92668590273366
 21
9.865849816374634
 31
0.0
  0
LINE
  5
11C
330
2
100
AcDbEntity
  8
GAIKEI
  6
HIDDEN2
 62
     1
 48
0.5
100
AcDbLine
 10
5.226685902733848
 20
20.4658498163746
 30
0.0
 11
11.92668590273366
 21
20.4658498163746
 31
0.0
  0
LINE
  5
11D
330
2
100
AcDbEntity
  8
GAIKEI
  6
HIDDEN2
 62
     1
 48
0.5
100
AcDbLine
 10
12.02668590273369
 20
20.36584981637464
 30
0.0
 11
12.02668590273369
 21
9.9658498163746
 31
0.0
  0
LINE
  5
11E
330
2
100
AcDbEntity
  8
GAIKEI
  6
HIDDEN2
 62
     1
 48
0.5
100
AcDbLine
 10
4.987394488694874
 20
12.16584981637459
 30
0.0
 11
12.12668590273365
 21
12.16584981637459
 31
0.0
  0
LINE
  5
11F
330
2
100
AcDbEntity
  8
GAIKEI
  6
HIDDEN2
 62
     1
 48
0.5
100
AcDbLine
 10
4.987394488694874
 20
12.16584981637459
 30
0.0
 11
4.826685902733871
 21
11.18383137670361
 31
0.0
  0
ARC
  5
120
330
2
100
AcDbEntity
  8
GAIKEI
  6
HIDDEN2
 62
     1
 48
0.5
100
AcDbCircle
 10
5.226685902733848
 20
10.26584981637461
 30
0.0
 40
0.3999999999999772
100
AcDbArc
 50
179.9999999999976
 51
270.0000000000033
  0
ARC
  5
121
330
2
100
AcDbEntity
  8
GAIKEI
  6
HIDDEN2
 62
     1
 48
0.5
100
AcDbCircle
 10
11.92668590273366
 20
9.9658498163746
 30
0.0
 40
0.1
100
AcDbArc
 50
270.0
 51
0.0
  0
LINE
  5
122
330
2
100
AcDbEntity
  8
GAIKEI
  6
HIDDEN2
 62
     1
 48
0.5
100
AcDbLine
 10
4.987394488694874
 20
18.16584981637459
 30
0.0
 11
4.987394488694874
 21
12.16584981637459
 31
0.0
  0
LINE
  5
123
330
2
100
AcDbEntity
  8
GAIKEI
  6
HIDDEN2
 62
     1
 48
0.5
100
AcDbLine
 10
4.987394488694874
 20
18.16584981637459
 30
0.0
 11
12.12668590273365
 21
18.16584981637459
 31
0.0
  0
LINE
  5
124
330
2
100
AcDbEntity
  8
GAIKEI
  6
HIDDEN2
 62
     1
 48
0.5
100
AcDbLine
 10
4.987394488694874
 20
18.16584981637459
 30
0.0
 11
4.826685902733871
 21
19.1478682560454
 31
0.0
  0
ARC
  5
125
330
2
100
AcDbEntity
  8
GAIKEI
  6
HIDDEN2
 62
     1
 48
0.5
100
AcDbCircle
 10
5.226685902733848
 20
20.06584981637457
 30
0.0
 40
0.3999999999999886
100
AcDbArc
 50
89.9999999999984
 51
180.0000000000008
  0
ARC
  5
126
330
2
100
AcDbEntity
  8
GAIKEI
  6
HIDDEN2
 62
     1
 48
0.5
100
AcDbCircle
 10
11.92668590273401
 20
20.36584981637475
 30
0.0
 40
0.0999999999998693
100
AcDbArc
 50
359.9999999999251
 51
90.00000000018241
  0
LINE
  5
127
330
2
100
AcDbEntity
  8
GAIKEI
  6
HIDDEN2
 62
     1
 48
0.5
100
AcDbLine
 10
9.726685902733677
 20
20.4658498163746
 30
0.0
 11
9.726685902733677
 21
21.03139716999976
 31
0.0
  0
LINE
  5
128
330
2
100
AcDbEntity
  8
GAIKEI
  6
HIDDEN2
 62
     1
 48
0.5
100
AcDbLine
 10
9.726685902733677
 20
21.03139716999976
 30
0.0
 11
9.826685902733643
 21
21.09116441774597
 31
0.0
  0
LINE
  5
129
330
2
100
AcDbEntity
  8
GAIKEI
  6
HIDDEN2
 62
     1
 48
0.5
100
AcDbLine
 10
9.826685902733643
 20
21.09116441774597
 30
0.0
 11
10.62668590273365
 21
21.09116441774597
 31
0.0
  0
LINE
  5
12A
330
2
100
AcDbEntity
  8
GAIKEI
  6
HIDDEN2
 62
     1
 48
0.5
100
AcDbLine
 10
10.62668590273365
 20
21.09116441774597
 30
0.0
 11
10.72668590273368
 21
21.03139716999976
 31
0.0
  0
LINE
  5
12B
330
2
100
AcDbEntity
  8
GAIKEI
  6
HIDDEN2
 62
     1
 48
0.5
100
AcDbLine
 10
10.72668590273368
 20
21.03139716999976
 30
0.0
 11
10.72668590273368
 21
20.4658498163746
 31
0.0
  0
LINE
  5
12C
330
2
100
AcDbEntity
  8
GAIKEI
  6
HIDDEN2
 62
     1
 48
0.5
100
AcDbLine
 10
9.726685902733677
 20
21.03139716999976
 30
0.0
 11
10.72668590273368
 21
21.03139716999976
 31
0.0
  0
LINE
  5
12D
330
2
100
AcDbEntity
  8
GAIKEI
100
AcDbLine
 10
12.27208084632089
 20
20.43553363646299
 30
0.0
 11
12.22668590273368
 21
15.26584961637439
 31
0.0
  0
LINE
  5
12E
330
2
100
AcDbEntity
  8
GAIKEI
 62
     1
100
AcDbLine
 10
12.47207323907368
 20
20.66584961637443
 30
0.0
 11
12.42666305745372
 21
15.26584961643436
 31
0.0
  0
LINE
  5
12F
330
2
100
AcDbEntity
  8
GAIKEI
 62
     1
100
AcDbLine
 10
12.25716451185367
 20
18.7583522926144
 30
0.0
 11
12.12668590273365
 21
18.75607478001439
 31
0.0
  0
LINE
  5
130
330
2
100
AcDbEntity
  8
GAIKEI
 62
     1
100
AcDbLine
 10
12.12668590273365
 20
18.75607478001439
 30
0.0
 11
12.12668590273365
 21
11.57562445273441
 31
0.0
  0
LINE
  5
131
330
2
100
AcDbEntity
  8
GAIKEI
 62
     1
100
AcDbLine
 10
12.12668590273365
 20
11.57562445273441
 30
0.0
 11
12.25803733159365
 21
11.57333170501442
 31
0.0
  0
LINE
  5
132
330
2
100
AcDbEntity
  8
GAIKEI
 62
     1
100
AcDbLine
 10
12.22668590273368
 20
15.26584961637439
 30
0.0
 11
15.58668590273369
 21
15.26584961637439
 31
0.0
  0
LINE
  5
133
330
2
100
AcDbEntity
  8
GAIKEI
 62
     1
100
AcDbLine
 10
15.58668590273369
 20
15.26584961637439
 30
0.0
 11
15.58668590273369
 21
18.66584961637443
 31
0.0
  0
LINE
  5
134
330
2
100
AcDbEntity
  8
GAIKEI
 62
     1
100
AcDbLine
 10
12.25103723450844
 20
18.05623585306921
 30
0.0
 11
15.58668590273369
 21
18.05627228567437
 31
0.0
  0
LINE
  5
135
330
2
100
AcDbEntity
  8
GAIKEI
 62
     1
100
AcDbLine
 10
12.22668590273368
 20
15.16584961637443
 30
0.0
 11
15.58668590273369
 21
15.16584961637443
 31
0.0
  0
LINE
  5
136
330
2
100
AcDbEntity
  8
GAIKEI
 62
     1
100
AcDbLine
 10
15.58668590273369
 20
15.16584961637443
 30
0.0
 11
15.58668590273369
 21
11.66584961637443
 31
0.0
  0
LINE
  5
137
330
2
100
AcDbEntity
  8
GAIKEI
 62
     1
100
AcDbLine
 10
12.25262225245434
 20
12.19383831290247
 30
0.0
 11
15.58668590273369
 21
12.1938068636544
 31
0.0
  0
LINE
  5
138
330
2
100
AcDbEntity
  8
GAIKEI
 62
     1
100
AcDbLine
 10
12.42666305745372
 20
15.16584961633441
 30
0.0
 11
12.47294592645365
 21
9.66584961637443
 31
0.0
  0
LINE
  5
139
330
2
100
AcDbEntity
  8
GAIKEI
100
AcDbLine
 10
12.22668590273368
 20
15.16584961637443
 30
0.0
 11
12.27295353309365
 21
9.864104309274409
 31
0.0
  0
LINE
  5
13A
330
2
100
AcDbEntity
  8
GAIKEI
 62
     1
100
AcDbLine
 10
15.78668590273368
 20
18.55678817731439
 30
0.0
 11
15.78668590273368
 21
11.76584961637439
 31
0.0
  0
ARC
  5
13B
330
2
100
AcDbEntity
  8
GAIKEI
100
AcDbCircle
 10
12.47294591590783
 20
9.865849820840139
 30
0.0
 40
0.1999999999857468
100
AcDbArc
 50
180.500058577478
 51
270.0000005128524
  0
ARC
  5
13C
330
2
100
AcDbEntity
  8
GAIKEI
 62
     1
100
AcDbCircle
 10
12.43479456425838
 20
10.82449354196353
 30
0.0
 40
0.1903914913764246
100
AcDbArc
 50
207.1158699513345
 51
279.22656378999
  0
LINE
  5
13D
330
2
100
AcDbEntity
  8
GAIKEI
100
AcDbLine
 10
15.02668590273369
 20
20.66584961637443
 30
0.0
 11
15.02668590273369
 21
20.8658462029407
 31
0.0
  0
LINE
  5
13E
330
2
100
AcDbEntity
  8
GAIKEI
100
AcDbLine
 10
15.02668590273369
 20
20.8658462029407
 30
0.0
 11
15.70189214623367
 21
22.60209424249439
 31
0.0
  0
LINE
  5
13F
330
2
100
AcDbEntity
  8
GAIKEI
100
AcDbLine
 10
15.79509261337365
 20
22.66584961637443
 30
0.0
 11
24.95052905709368
 21
22.66584961637443
 31
0.0
  0
LINE
  5
140
330
2
100
AcDbEntity
  8
GAIKEI
 62
     1
100
AcDbLine
 10
15.62668590273365
 20
20.66584961637443
 30
0.0
 11
15.62668590273365
 21
20.86567925655442
 31
0.0
  0
LINE
  5
141
330
2
100
AcDbEntity
  8
GAIKEI
 62
     1
100
AcDbLine
 10
15.62668590273365
 20
20.86567925655442
 30
0.0
 11
16.24342761043358
 21
22.61116316755442
 31
0.0
  0
LINE
  5
142
330
2
100
AcDbEntity
  8
GAIKEI
 62
     1
100
AcDbLine
 10
15.02668590273369
 20
20.8658462029407
 30
0.0
 11
25.52668590273369
 21
20.86584193775388
 31
0.0
  0
LINE
  5
143
330
2
100
AcDbEntity
  8
GAIKEI
 62
     1
100
AcDbLine
 10
23.70161105177364
 20
20.66584961637443
 30
0.0
 11
23.70161105177364
 21
20.86584267911439
 31
0.0
  0
LINE
  5
144
330
2
100
AcDbEntity
  8
GAIKEI
 62
     1
100
AcDbLine
 10
24.3439072285337
 20
20.66584961637443
 30
0.0
 11
24.3439072285337
 21
20.86584961637436
 31
0.0
  0
LINE
  5
145
330
2
100
AcDbEntity
  8
GAIKEI
100
AcDbLine
 10
25.52668590273369
 20
20.66584961637443
 30
0.0
 11
25.52668590273369
 21
20.86584961637436
 31
0.0
  0
LINE
  5
146
330
2
100
AcDbEntity
  8
GAIKEI
100
AcDbLine
 10
25.04702888087367
 20
22.59261489513438
 30
0.0
 11
25.52668590273369
 21
20.86584961637436
 31
0.0
  0
ARC
  5
147
330
2
100
AcDbEntity
  8
GAIKEI
100
AcDbCircle
 10
15.79509261336342
 20
22.56584961640749
 30
0.0
 40
0.0999999999669258
100
AcDbArc
 50
89.99999999413757
 51
158.7494945030705
  0
ARC
  5
148
330
2
100
AcDbEntity
  8
GAIKEI
100
AcDbCircle
 10
24.89578267953091
 20
22.49351625095278
 30
0.0
 40
0.1808202275570692
100
AcDbArc
 50
33.23338229204927
 51
72.37613513843449
  0
ARC
  5
149
330
2
100
AcDbEntity
  8
GAIKEI
 62
     1
100
AcDbCircle
 10
31.66257701722158
 20
22.50893805496708
 30
0.0
 40
8.129444480154594
100
AcDbArc
 50
178.8940291587352
 51
191.6607572224716
  0
ARC
  5
14A
330
2
100
AcDbEntity
  8
GAIKEI
 62
     1
100
AcDbCircle
 10
30.08591333076005
 20
22.24219381509147
 30
0.0
 40
5.909935508246274
100
AcDbArc
 50
176.6007427871827
 51
193.4668528188369
  0
ARC
  5
14B
330
2
100
AcDbEntity
  8
GAIKEI
 62
     1
100
AcDbCircle
 10
24.09857884297141
 20
22.57689076058477
 30
0.0
 40
0.089193768853666
100
AcDbArc
 50
10.15337533739871
 51
85.84070885406021
  0
ARC
  5
14C
330
2
100
AcDbEntity
  8
GAIKEI
 62
     1
100
AcDbCircle
 10
12.43423557291039
 20
19.52480725736649
 30
0.0
 40
0.1893479470898371
100
AcDbArc
 50
80.77839017802416
 51
153.6321647254012
  0
ARC
  5
14D
330
2
100
AcDbEntity
  8
GAIKEI
100
AcDbCircle
 10
12.47207357192401
 20
20.4658492723953
 30
0.0
 40
0.2000003439793724
100
AcDbArc
 50
90.00009768638006
 51
179.4999023138882
  0
LINE
  5
14E
330
2
100
AcDbEntity
  8
GAIKEI
100
AcDbLine
 10
12.47207323093364
 20
20.66584961637443
 30
0.0
 11
37.13924779887368
 21
20.66584961637443
 31
0.0
  0
LINE
  5
14F
330
2
100
AcDbEntity
  8
GAIKEI
 62
     1
100
AcDbLine
 10
12.46457924171365
 20
19.71170805145436
 30
0.0
 11
37.48668268309366
 21
19.71172680129439
 31
0.0
  0
LINE
  5
150
330
2
100
AcDbEntity
  8
GAIKEI
 62
     1
100
AcDbLine
 10
15.68843127629368
 20
18.76584961637439
 30
0.0
 11
37.98833181377127
 21
18.7658474973287
 31
0.0
  0
LINE
  5
151
330
2
100
AcDbEntity
  8
GAIKEI
 62
     1
100
AcDbLine
 10
15.58668590273369
 20
18.55678817731439
 30
0.0
 11
38.04749618019197
 21
18.55678817731439
 31
0.0
  0
LINE
  5
152
330
2
100
AcDbEntity
  8
GAIKEI
 62
     1
100
AcDbLine
 10
15.58668590273369
 20
11.76584961637439
 30
0.0
 11
38.03378408494804
 21
11.76584961637439
 31
0.0
  0
LINE
  5
153
330
2
100
AcDbEntity
  8
GAIKEI
 62
     1
100
AcDbLine
 10
15.68843127629368
 20
11.56584961637441
 30
0.0
 11
37.9774497200856
 21
11.56585055171479
 31
0.0
  0
LINE
  5
154
330
2
100
AcDbEntity
  8
GAIKEI
 62
     1
100
AcDbLine
 10
12.46532171363368
 20
10.63656532923437
 30
0.0
 11
37.48469105343368
 21
10.63654862607438
 31
0.0
  0
LINE
  5
155
330
2
100
AcDbEntity
  8
GAIKEI
100
AcDbLine
 10
12.47294591771369
 20
9.66584961637443
 30
0.0
 11
37.13813119473368
 21
9.66584961637443
 31
0.0
  0
ARC
  5
156
330
2
100
AcDbEntity
  8
GAIKEI
 62
     1
100
AcDbCircle
 10
15.68671747423606
 20
11.66586650727311
 30
0.0
 40
0.1000315729284437
100
AcDbArc
 50
180.0096747175317
 51
270.9816743485902
  0
ARC
  5
157
330
2
100
AcDbEntity
  8
GAIKEI
 62
     1
100
AcDbCircle
 10
15.68671698944105
 20
18.66583321873213
 30
0.0
 40
0.1000310880513971
100
AcDbArc
 50
89.01804317096866
 51
179.9906077628482
  0
ARC
  5
158
330
2
100
AcDbEntity
  8
GAIKEI
 62
     1
100
AcDbCircle
 10
16.75676638286116
 20
12.70341890293969
 30
0.0
 40
21.88254619868169
100
AcDbArc
 50
16.08386198244231
 51
21.33813759893119
  0
ARC
  5
159
330
2
100
AcDbEntity
  8
GAIKEI
100
AcDbCircle
 10
25.60012491493656
 20
15.14704914394468
 30
0.0
 40
12.9059432700904
100
AcDbArc
 50
15.31937063975642
 51
24.74612579029642
  0
ARC
  5
15A
330
2
100
AcDbEntity
  8
GAIKEI
100
AcDbCircle
 10
37.13924729637434
 20
20.46584878842839
 30
0.0
 40
0.2000008279466105
100
AcDbArc
 50
24.71037643881765
 51
89.99985604513694
  0
ARC
  5
15B
330
2
100
AcDbEntity
  8
GAIKEI
 62
     1
100
AcDbCircle
 10
25.43229962864759
 20
15.16477543652701
 30
0.0
 40
12.86468174881127
100
AcDbArc
 50
344.6802227852673
 51
15.10832441649392
  0
ARC
  5
15C
330
2
100
AcDbEntity
  8
GAIKEI
 62
     1
100
AcDbCircle
 10
15.61892257344801
 20
17.89586973002508
 30
0.0
 40
23.03930455285543
100
AcDbArc
 50
339.0706491431921
 51
344.0529605494684
  0
ARC
  5
15D
330
2
100
AcDbEntity
  8
GAIKEI
100
AcDbCircle
 10
37.13813119473368
 20
9.865849616374362
 30
0.0
 40
0.1999999999999773
100
AcDbArc
 50
269.9999999999934
 51
335.7359139390183
  0
ARC
  5
15E
330
2
100
AcDbEntity
  8
GAIKEI
100
AcDbCircle
 10
25.09755260958282
 20
15.30170510558184
 30
0.0
 40
13.41075534132167
100
AcDbArc
 50
335.7031608434083
 51
344.7127624897338
  0
ARC
  5
15F
330
2
100
AcDbEntity
  8
GAIKEI
100
AcDbCircle
 10
26.39577220587945
 20
15.18346729521261
 30
0.0
 40
12.12944479751849
100
AcDbArc
 50
343.6346002527427
 51
16.02818164396618
  0
LINE
  5
160
330
2
100
AcDbEntity
  8
GAIKEI
100
AcDbLine
 10
37.75086333788086
 20
20.36050326633244
 30
0.0
 11
38.42418866774087
 21
20.34875032967239
 31
0.0
  0
ARC
  5
161
330
2
100
AcDbEntity
  8
GAIKEI
100
AcDbCircle
 10
37.74737262820647
 20
20.160533732045
 30
0.0
 40
0.1999999992429017
100
AcDbArc
 50
88.99993455819862
 51
202.0870570552858
  0
ARC
  5
162
330
2
100
AcDbEntity
  8
GAIKEI
100
AcDbCircle
 10
38.41895294581788
 20
20.04879602114647
 30
0.0
 40
0.2999999999788438
100
AcDbArc
 50
23.32306897811318
 51
89.0000000014912
  0
ARC
  5
163
330
2
100
AcDbEntity
  8
GAIKEI
 62
     1
100
AcDbCircle
 10
38.41894559088833
 20
20.24826056235668
 30
0.0
 40
0.1006264537288788
100
AcDbArc
 50
18.67684557364914
 51
87.01328768428593
  0
ARC
  5
164
330
2
100
AcDbEntity
  8
GAIKEI
 62
     1
100
AcDbCircle
 10
38.04237838341648
 20
19.32091435574512
 30
0.0
 40
0.218506699182344
100
AcDbArc
 50
95.31406090143505
 51
167.0501124152958
  0
LINE
  5
165
330
2
100
AcDbEntity
  8
GAIKEI
 62
     1
100
AcDbLine
 10
38.02214139760078
 20
19.53848191305246
 30
0.0
 11
38.77692941496089
 21
19.5316421169324
 31
0.0
  0
ARC
  5
166
330
2
100
AcDbEntity
  8
GAIKEI
 62
     1
100
AcDbCircle
 10
38.83491160102933
 20
19.33876472440124
 30
0.0
 40
0.2014041020742808
100
AcDbArc
 50
50.97011632135505
 51
106.7316389868619
  0
LINE
  5
167
330
2
100
AcDbEntity
  8
GAIKEI
 62
     1
100
AcDbLine
 10
38.3631649585209
 20
18.32903608423237
 30
0.0
 11
39.13557911540086
 21
18.32568385839238
 31
0.0
  0
ARC
  5
168
330
2
100
AcDbEntity
  8
GAIKEI
 62
     1
100
AcDbCircle
 10
22.57616113697055
 20
14.68542058116588
 30
0.0
 40
16.20117743776019
100
AcDbArc
 50
1.699354154529801
 51
20.50494901847
  0
ARC
  5
169
330
2
100
AcDbEntity
  8
GAIKEI
 62
     1
100
AcDbCircle
 10
25.18893567787991
 20
14.9755053677955
 30
0.0
 40
14.34250382261802
100
AcDbArc
 50
0.7604004944014254
 51
21.70810285420612
  0
ARC
  5
16A
330
2
100
AcDbEntity
  8
GAIKEI
100
AcDbCircle
 10
27.09271764870142
 20
15.16584948399259
 30
0.0
 40
12.63396825395944
100
AcDbArc
 50
359.9998054144134
 51
23.32178611750032
  0
ARC
  5
16B
330
2
100
AcDbEntity
  8
GAIKEI
 62
     1
100
AcDbCircle
 10
38.07885101352822
 20
17.82852240339952
 30
0.0
 40
1.389039076208246
100
AcDbArc
 50
1.539876948788476
 51
23.08244804804161
  0
LINE
  5
16C
330
2
100
AcDbEntity
  8
GAIKEI
 62
     1
100
AcDbLine
 10
39.43463464687365
 20
17.86584961637442
 30
0.0
 11
39.46738845789368
 21
17.86584961637442
 31
0.0
  0
LINE
  5
16D
330
2
100
AcDbEntity
  8
GAIKEI
 62
     1
100
AcDbLine
 10
39.31171570305368
 20
18.37703694653441
 30
0.0
 11
39.35668590273368
 21
18.37310256387439
 31
0.0
  0
ARC
  5
16E
330
2
100
AcDbEntity
  8
GAIKEI
100
AcDbCircle
 10
38.41895294581788
 20
10.28290294683825
 30
0.0
 40
0.2999999999787679
100
AcDbArc
 50
270.9999999984873
 51
336.6778813078179
  0
LINE
  5
16F
330
2
100
AcDbEntity
  8
GAIKEI
100
AcDbLine
 10
37.75086317540083
 20
9.971195698212454
 30
0.0
 11
38.42418866774075
 21
9.98294863831245
 31
0.0
  0
ARC
  5
170
330
2
100
AcDbEntity
  8
GAIKEI
100
AcDbCircle
 10
37.74737264841112
 20
10.17116524624339
 30
0.0
 40
0.200000009795911
100
AcDbArc
 50
157.9129478588391
 51
271.0000130457268
  0
ARC
  5
171
330
2
100
AcDbEntity
  8
GAIKEI
 62
     1
100
AcDbCircle
 10
38.41894619753738
 20
10.0834376159305
 30
0.0
 40
0.1006256334964827
100
AcDbArc
 50
272.9863907903931
 51
341.3234580355468
  0
ARC
  5
172
330
2
100
AcDbEntity
  8
GAIKEI
 62
     1
100
AcDbCircle
 10
38.04238601066665
 20
11.01078941408343
 30
0.0
 40
0.2185150482418725
100
AcDbArc
 50
192.9505942753007
 51
264.6839106622128
  0
LINE
  5
173
330
2
100
AcDbEntity
  8
GAIKEI
 62
     1
100
AcDbLine
 10
38.02214409054069
 20
10.79322501095237
 30
0.0
 11
38.77693252208088
 21
10.8000656270724
 31
0.0
  0
ARC
  5
174
330
2
100
AcDbEntity
  8
GAIKEI
 62
     1
100
AcDbCircle
 10
38.82925504779844
 20
11.01227171075635
 30
0.0
 40
0.2185614325102783
100
AcDbArc
 50
256.1490847605412
 51
307.6413584977342
  0
ARC
  5
175
330
2
100
AcDbEntity
  8
GAIKEI
 62
     7
100
AcDbCircle
 10
27.09271764870097
 20
15.16584948399236
 30
0.0
 40
12.6339682539599
100
AcDbArc
 50
336.6782364473007
 51
359.9998054144142
  0
ARC
  5
176
330
2
100
AcDbEntity
  8
GAIKEI
 62
     1
100
AcDbCircle
 10
22.69722665287675
 20
15.62251663635811
 30
0.0
 40
16.07947141227576
100
AcDbArc
 50
339.4232448746745
 51
358.3726041279811
  0
ARC
  5
177
330
2
100
AcDbEntity
  8
GAIKEI
 62
     1
100
AcDbCircle
 10
25.29101885268018
 20
15.33591733388107
 30
0.0
 40
14.24017318830265
100
AcDbArc
 50
338.2157716040824
 51
359.3156972720796
  0
LINE
  5
178
330
2
100
AcDbEntity
  8
GAIKEI
 62
     1
100
AcDbLine
 10
38.39341799880067
 20
12.13267736637237
 30
0.0
 11
39.16696850394085
 21
12.13583081809241
 31
0.0
  0
ARC
  5
179
330
2
100
AcDbEntity
  8
GAIKEI
 62
     1
100
AcDbCircle
 10
39.26027738844273
 20
12.57436758349422
 30
0.0
 40
0.4483752614023362
100
AcDbArc
 50
257.988050408801
 51
282.6150331933898
  0
LINE
  5
17A
330
2
100
AcDbEntity
  8
GAIKEI
 62
     1
100
AcDbLine
 10
38.56669197536071
 20
15.16584948403243
 30
0.0
 11
39.72668578966069
 21
15.16580657703241
 31
0.0
  0
ARC
  5
17B
330
2
100
AcDbEntity
  8
GAIKEI
100
AcDbCircle
 10
24.85070739228401
 20
15.40456455540232
 30
0.0
 40
13.71806174240722
100
AcDbArc
 50
337.9129430311149
 51
359.002916248174
  0
ARC
  5
17C
330
2
100
AcDbEntity
  8
GAIKEI
100
AcDbCircle
 10
24.85070739224342
 20
14.92713441257035
 30
0.0
 40
13.71806174244942
100
AcDbArc
 50
0.9970837522081055
 51
22.08705696886771
  0
TEXT
  5
17D
330
2
100
AcDbEntity
  8
MOJI1
 62
     2
100
AcDbText
 10
-59.03230923523199
 20
-55.64936655887766
 30
0.0
 40
3.0
  1
その他
100
AcDbText
  0
TEXT
  5
17E
330
2
100
AcDbEntity
  8
MOJI1
 62
     2
100
AcDbText
 10
-19.03230923523199
 20
-55.64936655887766
 30
0.0
 40
3.0
  1
カラー・白黒自動切換
100
AcDbText
  0
ENDSEC
  0
SECTION
  2
OBJECTS
  0
DICTIONARY
  5
A
330
0
100
AcDbDictionary
281
     1
  3
ACAD_COLOR
350
31
  3
ACAD_GROUP
350
2D
  3
ACAD_LAYOUT
350
E
  3
ACAD_MATERIAL
350
30
  3
ACAD_MLINESTYLE
350
2E
  3
ACAD_PLOTSETTINGS
350
2F
  3
ACAD_PLOTSTYLENAME
350
9
  3
ACDBHEADERROUNDTRIPXREC
350
1BF
  3
AcDbVariableDictionary
350
1BA
  3
ASE_INDEX_DICTIONARY
350
187
  0
DICTIONARY
  5
16
330
15
100
AcDbDictionary
280
     1
281
     1
  3
ACAD_LAYERSTATES
360
17
  0
DICTIONARY
  5
3
330
2
100
AcDbDictionary
280
     1
281
     1
  3
ACAD_LAYOUTSELFREF
360
4
  3
ACAD_SORTENTS
360
5
  0
DICTIONARY
  5
10
330
F
100
AcDbDictionary
280
     1
281
     1
  3
ACAD_LAYOUTSELFREF
360
11
  0
DICTIONARY
  5
31
102
{ACAD_REACTORS
330
A
102
}
330
A
100
AcDbDictionary
281
     1
  0
DICTIONARY
  5
2D
102
{ACAD_REACTORS
330
A
102
}
330
A
100
AcDbDictionary
281
     1
  0
DICTIONARY
  5
E
102
{ACAD_REACTORS
330
A
102
}
330
A
100
AcDbDictionary
281
     1
  3
Model
350
D
  3
レイアウト1
350
14
  0
DICTIONARY
  5
30
102
{ACAD_REACTORS
330
A
102
}
330
A
100
AcDbDictionary
281
     1
  0
DICTIONARY
  5
2E
102
{ACAD_REACTORS
330
A
102
}
330
A
100
AcDbDictionary
281
     1
  3
Standard
350
33
  0
DICTIONARY
  5
2F
102
{ACAD_REACTORS
330
A
102
}
330
A
100
AcDbDictionary
281
     1
  0
ACDBDICTIONARYWDFLT
  5
9
102
{ACAD_REACTORS
330
A
102
}
330
A
100
AcDbDictionary
281
     1
  3
Normal
350
8
100
AcDbDictionaryWithDefault
340
8
  0
DICTIONARY
  5
1BF
102
{ACAD_REACTORS
330
A
102
}
330
A
100
AcDbDictionary
281
     1
  3
COLORDICT
350
1C1
  3
MATERIALDICT
350
1C0
  0
DICTIONARY
  5
1BA
102
{ACAD_REACTORS
330
A
102
}
330
A
100
AcDbDictionary
281
     1
  3
DIMASSOC
350
1BC
  3
HIDETEXT
350
1BB
  3
PROJECTNAME
350
1BD
  0
DICTIONARY
  5
187
102
{ACAD_REACTORS
330
A
102
}
330
A
100
AcDbDictionary
281
     1
  3
ASEBlockHierarchyIndexRecord
350
189
1001
DCO15
1040
1665987613.625
  0
DICTIONARY
  5
17
102
{ACAD_REACTORS
330
16
102
}
330
16
100
AcDbDictionary
281
     1
  0
XRECORD
  5
4
102
{ACAD_REACTORS
330
3
102
}
330
3
100
AcDbXrecord
280
     1
340
2
  0
SORTENTSTABLE
  5
5
102
{ACAD_REACTORS
330
3
102
}
330
3
100
AcDbSortentsTable
330
2
  0
XRECORD
  5
11
102
{ACAD_REACTORS
330
10
102
}
330
10
100
AcDbXrecord
280
     1
340
F
  0
LAYOUT
  5
D
102
{ACAD_XDICTIONARY
360
1C2
102
}
102
{ACAD_REACTORS
330
E
102
}
330
E
100
AcDbPlotSettings
  1

  2
Ａ４縦ＰＤＦ出力.pc3
  4
A4
  6

 40
7.143749713897705
 41
7.143756389617919
 42
7.14373779296875
 43
7.14373779296875
 44
209.9733276367187
 45
297.0530090332031
 46
4.95
 47
0.0
 48
0.0
 49
0.0
140
0.0
141
0.0
142
1.0
143
1.394313080900831
 70
 11956
 72
     1
 73
     0
 74
     1
  7
tmsacad.ctb
 75
     0
147
0.7171990377899375
148
0.0256332569354072
149
0.0240599051811614
100
AcDbLayout
  1
Model
 70
     1
 71
     0
 10
0.0
 20
0.0
 11
12.0
 21
9.0
 12
0.0
 22
0.0
 32
0.0
 14
0.0
 24
0.0
 34
0.0
 15
0.0
 25
0.0
 35
0.0
146
0.0
 13
0.0
 23
0.0
 33
0.0
 16
1.0
 26
0.0
 36
0.0
 17
0.0
 27
1.0
 37
0.0
 76
     0
330
2
  0
LAYOUT
  5
14
102
{ACAD_XDICTIONARY
360
1C4
102
}
102
{ACAD_REACTORS
330
E
102
}
330
E
100
AcDbPlotSettings
  1

  2
None
  4

  6

 40
0.0
 41
0.0
 42
0.0
 43
0.0
 44
0.0
 45
0.0
 46
0.0
 47
0.0
 48
0.0
 49
0.0
140
0.0
141
0.0
142
1.0
143
1.0
 70
   688
 72
     0
 73
     0
 74
     5
  7
全て一律設定.ctb
 75
    16
147
1.0
148
0.0
149
0.0
100
AcDbLayout
  1
レイアウト1
 70
     1
 71
     1
 10
0.0
 20
0.0
 11
12.0
 21
9.0
 12
0.0
 22
0.0
 32
0.0
 14
0.0
 24
0.0
 34
0.0
 15
0.0
 25
0.0
 35
0.0
146
0.0
 13
0.0
 23
0.0
 33
0.0
 16
1.0
 26
0.0
 36
0.0
 17
0.0
 27
1.0
 37
0.0
 76
     0
330
F
  0
MLINESTYLE
  5
33
102
{ACAD_REACTORS
330
2E
102
}
330
2E
100
AcDbMlineStyle
  2
STANDARD
 70
     0
  3

 62
   256
 51
90.0
 52
90.0
 71
     2
 49
0.5
 62
   256
  6
BYLAYER
 49
-0.5
 62
   256
  6
BYLAYER
  0
ACDBPLACEHOLDER
  5
8
102
{ACAD_REACTORS
330
9
102
}
330
9
  0
XRECORD
  5
1C1
102
{ACAD_REACTORS
330
1BF
102
}
330
1BF
100
AcDbXrecord
280
     1
340
31
  0
XRECORD
  5
1C0
102
{ACAD_REACTORS
330
1BF
102
}
330
1BF
100
AcDbXrecord
280
     1
340
30
  0
DICTIONARYVAR
  5
1BC
102
{ACAD_REACTORS
330
1BA
102
}
330
1BA
100
DictionaryVariables
280
     0
  1
1
  0
DICTIONARYVAR
  5
1BB
102
{ACAD_REACTORS
330
1BA
102
}
330
1BA
100
DictionaryVariables
280
     0
  1
1
  0
DICTIONARYVAR
  5
1BD
102
{ACAD_REACTORS
330
1BA
102
}
330
1BA
100
DictionaryVariables
280
     0
  1

  0
XRECORD
  5
189
102
{ACAD_REACTORS
330
187
102
}
330
187
100
AcDbXrecord
280
     1
330
B8
330
B9
330
C6
330
C7
330
D3
330
D4
330
19A
330
19B
330
1A6
330
1A7
330
1B2
330
1B3
  0
DICTIONARY
  5
1C2
330
D
100
AcDbDictionary
280
     1
281
     1
  3
ACAD_XREC_ROUNDTRIP
360
1C3
  0
DICTIONARY
  5
1C4
330
14
100
AcDbDictionary
280
     1
281
     1
  3
ACAD_XREC_ROUNDTRIP
360
1C5
  0
XRECORD
  5
1C3
102
{ACAD_REACTORS
330
1C2
102
}
330
1C2
100
AcDbXrecord
280
     1
102
SHADEPLOT
 70
     0
102
SHADEPLOTRESLEVEL
 70
     2
102
SHADEPLOTCUSTOMDPI
 70
   300
  0
XRECORD
  5
1C5
102
{ACAD_REACTORS
330
1C4
102
}
330
1C4
100
AcDbXrecord
280
     1
102
SHADEPLOT
 70
     0
102
SHADEPLOTRESLEVEL
 70
     2
102
SHADEPLOTCUSTOMDPI
 70
   300
  0
ENDSEC
  0
EOF
