  0
SECTION
  2
HEADER
  9
$ACADVER
  1
AC1015
  9
$ACADMAINTVER
 70
    20
  9
$DWGCODEPAGE
  3
ANSI_932
  9
$INSBASE
 10
129.0
 20
372.4992141396417
 30
0.0
  9
$EXTMIN
 10
-64.10375765652498
 20
-56.33662362582072
 30
-0.0015258207003583
  9
$EXTMAX
 10
60.97675131343976
 20
56.79445828980442
 30
0.0000000349246037
  9
$LIMMIN
 10
-1101.784450318844
 20
-1579.160531687244
  9
$LIMMAX
 10
-508.2420711400536
 20
-1161.440814074914
  9
$ORTHOMODE
 70
     1
  9
$REGENMODE
 70
     1
  9
$FILLMODE
 70
     1
  9
$QTEXTMODE
 70
     0
  9
$MIRRTEXT
 70
     1
  9
$LTSCALE
 40
1.0
  9
$ATTMODE
 70
     1
  9
$TEXTSIZE
 40
3.0
  9
$TRACEWID
 40
0.5
  9
$TEXTSTYLE
  7
STANDARD
  9
$CLAYER
  8
GAIKEI
  9
$CELTYPE
  6
BYLAYER
  9
$CECOLOR
 62
   256
  9
$CELTSCALE
 40
1.0
  9
$DISPSILH
 70
     0
  9
$DIMSCALE
 40
1.0
  9
$DIMASZ
 40
2.0
  9
$DIMEXO
 40
2.0
  9
$DIMDLI
 40
8.0
  9
$DIMRND
 40
0.0
  9
$DIMDLE
 40
0.0
  9
$DIMEXE
 40
2.0
  9
$DIMTP
 40
0.0
  9
$DIMTM
 40
0.0
  9
$DIMTXT
 40
2.5
  9
$DIMCEN
 40
0.0
  9
$DIMTSZ
 40
0.0
  9
$DIMTOL
 70
     0
  9
$DIMLIM
 70
     0
  9
$DIMTIH
 70
     0
  9
$DIMTOH
 70
     0
  9
$DIMSE1
 70
     0
  9
$DIMSE2
 70
     0
  9
$DIMTAD
 70
     3
  9
$DIMZIN
 70
     0
  9
$DIMBLK
  1

  9
$DIMASO
 70
     1
  9
$DIMSHO
 70
     1
  9
$DIMPOST
  1

  9
$DIMAPOST
  1

  9
$DIMALT
 70
     0
  9
$DIMALTD
 70
     2
  9
$DIMALTF
 40
25.4
  9
$DIMLFAC
 40
1.0
  9
$DIMTOFL
 70
     1
  9
$DIMTVP
 40
0.0
  9
$DIMTIX
 70
     0
  9
$DIMSOXD
 70
     0
  9
$DIMSAH
 70
     1
  9
$DIMBLK1
  1
OPEN30
  9
$DIMBLK2
  1
OPEN30
  9
$DIMSTYLE
  2
STANDARD
  9
$DIMCLRD
 70
     0
  9
$DIMCLRE
 70
     0
  9
$DIMCLRT
 70
     0
  9
$DIMTFAC
 40
1.0
  9
$DIMGAP
 40
0.5
  9
$DIMJUST
 70
     0
  9
$DIMSD1
 70
     0
  9
$DIMSD2
 70
     0
  9
$DIMTOLJ
 70
     1
  9
$DIMTZIN
 70
     0
  9
$DIMALTZ
 70
     0
  9
$DIMALTTZ
 70
     0
  9
$DIMUPT
 70
     0
  9
$DIMDEC
 70
     4
  9
$DIMTDEC
 70
     4
  9
$DIMALTU
 70
     2
  9
$DIMALTTD
 70
     2
  9
$DIMTXSTY
  7
STANDARD
  9
$DIMAUNIT
 70
     0
  9
$DIMADEC
 70
     0
  9
$DIMALTRND
 40
0.0
  9
$DIMAZIN
 70
     0
  9
$DIMDSEP
 70
    46
  9
$DIMATFIT
 70
     3
  9
$DIMFRAC
 70
     0
  9
$DIMLDRBLK
  1
OPEN30
  9
$DIMLUNIT
 70
     2
  9
$DIMLWD
 70
    -2
  9
$DIMLWE
 70
    -2
  9
$DIMTMOVE
 70
     0
  9
$LUNITS
 70
     2
  9
$LUPREC
 70
     4
  9
$SKETCHINC
 40
0.1
  9
$FILLETRAD
 40
0.0
  9
$AUNITS
 70
     0
  9
$AUPREC
 70
     0
  9
$MENU
  1
ACAD
  9
$ELEVATION
 40
0.0
  9
$PELEVATION
 40
0.0
  9
$THICKNESS
 40
0.0
  9
$LIMCHECK
 70
     0
  9
$CHAMFERA
 40
0.0
  9
$CHAMFERB
 40
0.0
  9
$CHAMFERC
 40
0.0
  9
$CHAMFERD
 40
0.0
  9
$SKPOLY
 70
     0
  9
$TDCREATE
 40
2451815.565532581
  9
$TDUCREATE
 40
2451815.190532581
  9
$TDUPDATE
 40
2455995.580178253
  9
$TDUUPDATE
 40
2455995.205178253
  9
$TDINDWG
 40
0.7315401157
  9
$TDUSRTIMER
 40
0.7315401157
  9
$USRTIMER
 70
     1
  9
$ANGBASE
 50
0.0
  9
$ANGDIR
 70
     0
  9
$PDMODE
 70
     0
  9
$PDSIZE
 40
0.0
  9
$PLINEWID
 40
0.0
  9
$SPLFRAME
 70
     0
  9
$SPLINETYPE
 70
     6
  9
$SPLINESEGS
 70
     8
  9
$HANDSEED
  5
138
  9
$SURFTAB1
 70
     6
  9
$SURFTAB2
 70
     6
  9
$SURFTYPE
 70
     6
  9
$SURFU
 70
     6
  9
$SURFV
 70
     6
  9
$UCSBASE
  2

  9
$UCSNAME
  2

  9
$UCSORG
 10
0.0
 20
0.0
 30
0.0
  9
$UCSXDIR
 10
1.0
 20
0.0
 30
0.0
  9
$UCSYDIR
 10
0.0
 20
1.0
 30
0.0
  9
$UCSORTHOREF
  2

  9
$UCSORTHOVIEW
 70
     0
  9
$UCSORGTOP
 10
0.0
 20
0.0
 30
0.0
  9
$UCSORGBOTTOM
 10
0.0
 20
0.0
 30
0.0
  9
$UCSORGLEFT
 10
0.0
 20
0.0
 30
0.0
  9
$UCSORGRIGHT
 10
0.0
 20
0.0
 30
0.0
  9
$UCSORGFRONT
 10
0.0
 20
0.0
 30
0.0
  9
$UCSORGBACK
 10
0.0
 20
0.0
 30
0.0
  9
$PUCSBASE
  2

  9
$PUCSNAME
  2

  9
$PUCSORG
 10
0.0
 20
0.0
 30
0.0
  9
$PUCSXDIR
 10
1.0
 20
0.0
 30
0.0
  9
$PUCSYDIR
 10
0.0
 20
1.0
 30
0.0
  9
$PUCSORTHOREF
  2

  9
$PUCSORTHOVIEW
 70
     0
  9
$PUCSORGTOP
 10
0.0
 20
0.0
 30
0.0
  9
$PUCSORGBOTTOM
 10
0.0
 20
0.0
 30
0.0
  9
$PUCSORGLEFT
 10
0.0
 20
0.0
 30
0.0
  9
$PUCSORGRIGHT
 10
0.0
 20
0.0
 30
0.0
  9
$PUCSORGFRONT
 10
0.0
 20
0.0
 30
0.0
  9
$PUCSORGBACK
 10
0.0
 20
0.0
 30
0.0
  9
$USERI1
 70
     0
  9
$USERI2
 70
     0
  9
$USERI3
 70
     0
  9
$USERI4
 70
     0
  9
$USERI5
 70
     0
  9
$USERR1
 40
0.0
  9
$USERR2
 40
0.0
  9
$USERR3
 40
0.0
  9
$USERR4
 40
0.0
  9
$USERR5
 40
0.0
  9
$WORLDVIEW
 70
     1
  9
$SHADEDGE
 70
     3
  9
$SHADEDIF
 70
    70
  9
$TILEMODE
 70
     1
  9
$MAXACTVP
 70
    48
  9
$PINSBASE
 10
0.0
 20
0.0
 30
0.0
  9
$PLIMCHECK
 70
     0
  9
$PEXTMIN
 10
1.000000000000000E+20
 20
1.000000000000000E+20
 30
1.000000000000000E+20
  9
$PEXTMAX
 10
-1.000000000000000E+20
 20
-1.000000000000000E+20
 30
-1.000000000000000E+20
  9
$PLIMMIN
 10
0.0
 20
0.0
  9
$PLIMMAX
 10
12.0
 20
9.0
  9
$UNITMODE
 70
     0
  9
$VISRETAIN
 70
     1
  9
$PLINEGEN
 70
     0
  9
$PSLTSCALE
 70
     1
  9
$TREEDEPTH
 70
  3020
  9
$CMLSTYLE
  2
STANDARD
  9
$CMLJUST
 70
     0
  9
$CMLSCALE
 40
1.0
  9
$PROXYGRAPHICS
 70
     1
  9
$MEASUREMENT
 70
     0
  9
$CELWEIGHT
370
    -1
  9
$ENDCAPS
280
     0
  9
$JOINSTYLE
280
     0
  9
$LWDISPLAY
290
     0
  9
$INSUNITS
 70
     0
  9
$HYPERLINKBASE
  1

  9
$STYLESHEET
  1

  9
$XEDIT
290
     1
  9
$CEPSNTYPE
380
     0
  9
$PSTYLEMODE
290
     1
  9
$FINGERPRINTGUID
  2
{1754B7AB-9B3C-11D4-AD9E-00104B1004F2}
  9
$VERSIONGUID
  2
{A405F9D1-3CA9-43AA-9C90-58EE107B758E}
  9
$EXTNAMES
290
     1
  9
$PSVPSCALE
 40
0.0
  9
$OLESTARTUP
290
     0
  0
ENDSEC
  0
SECTION
  2
CLASSES
  0
CLASS
  1
ACDBDICTIONARYWDFLT
  2
AcDbDictionaryWithDefault
  3
ObjectDBX Classes
 90
        0
280
     0
281
     0
  0
CLASS
  1
ACDBPLACEHOLDER
  2
AcDbPlaceHolder
  3
ObjectDBX Classes
 90
        0
280
     0
281
     0
  0
CLASS
  1
LAYOUT
  2
AcDbLayout
  3
ObjectDBX Classes
 90
        0
280
     0
281
     0
  0
CLASS
  1
DICTIONARYVAR
  2
AcDbDictionaryVar
  3
ObjectDBX Classes
 90
        0
280
     0
281
     0
  0
ENDSEC
  0
SECTION
  2
TABLES
  0
TABLE
  2
VPORT
  5
21
330
0
100
AcDbSymbolTable
 70
     3
  0
VPORT
  5
130
330
21
100
AcDbSymbolTableRecord
100
AcDbViewportTableRecord
  2
*Active
 70
     0
 10
0.0
 20
0.0
 11
1.0
 21
1.0
 12
-1.563503171542606
 22
0.2289173319918518
 13
0.0
 23
0.0
 14
1.0
 24
1.0
 15
0.0
 25
0.0
 16
0.0
 26
0.0
 36
1.0
 17
0.0
 27
0.0
 37
0.0
 40
113.9816915540885
 41
2.166875784190715
 42
50.0
 43
0.0
 44
0.0
 50
0.0
 51
0.0
 71
     0
 72
  1000
 73
     1
 74
     0
 75
     0
 76
     1
 77
     0
 78
     0
281
     0
 65
     1
110
0.0
120
0.0
130
0.0
111
1.0
121
0.0
131
0.0
112
0.0
122
1.0
132
0.0
 79
     0
146
0.0
  0
ENDTAB
  0
TABLE
  2
LTYPE
  5
1C
330
0
100
AcDbSymbolTable
 70
     1
  0
LTYPE
  5
1D
330
1C
100
AcDbSymbolTableRecord
100
AcDbLinetypeTableRecord
  2
BYBLOCK
 70
     0
  3

 72
    65
 73
     0
 40
0.0
  0
LTYPE
  5
1E
330
1C
100
AcDbSymbolTableRecord
100
AcDbLinetypeTableRecord
  2
BYLAYER
 70
     0
  3

 72
    65
 73
     0
 40
0.0
  0
LTYPE
  5
A
330
1C
100
AcDbSymbolTableRecord
100
AcDbLinetypeTableRecord
  2
CONTINUOUS
 70
     0
  3
Solid line
 72
    65
 73
     0
 40
0.0
  0
ENDTAB
  0
TABLE
  2
LAYER
  5
14
102
{ACAD_XDICTIONARY
360
15
102
}
330
0
100
AcDbSymbolTable
 70
     7
  0
LAYER
  5
6
330
14
100
AcDbSymbolTableRecord
100
AcDbLayerTableRecord
  2
0
 70
     0
 62
     7
  6
CONTINUOUS
370
    -3
390
7
  0
LAYER
  5
42
330
14
100
AcDbSymbolTableRecord
100
AcDbLayerTableRecord
  2
DEFPOINTS
 70
     0
 62
     7
  6
CONTINUOUS
290
     0
370
    -3
390
7
  0
LAYER
  5
E8
330
14
100
AcDbSymbolTableRecord
100
AcDbLayerTableRecord
  2
WAKU
 70
     0
 62
     4
  6
CONTINUOUS
370
    -3
390
7
  0
LAYER
  5
E4
330
14
100
AcDbSymbolTableRecord
100
AcDbLayerTableRecord
  2
MOJI1
 70
     0
 62
     2
  6
CONTINUOUS
370
    -3
390
7
  0
LAYER
  5
33
330
14
100
AcDbSymbolTableRecord
100
AcDbLayerTableRecord
  2
GAIKEI
 70
     0
 62
     7
  6
CONTINUOUS
370
    -3
390
7
  0
LAYER
  5
36
330
14
100
AcDbSymbolTableRecord
100
AcDbLayerTableRecord
  2
SUNPO
 70
     0
 62
     3
  6
CONTINUOUS
370
    -3
390
7
  0
LAYER
  5
E2
330
14
100
AcDbSymbolTableRecord
100
AcDbLayerTableRecord
  2
TOUROKU
 70
     0
 62
     1
  6
CONTINUOUS
370
    -3
390
7
  0
ENDTAB
  0
TABLE
  2
STYLE
  5
19
330
0
100
AcDbSymbolTable
 70
     1
  0
STYLE
  5
1A
330
19
100
AcDbSymbolTableRecord
100
AcDbTextStyleTableRecord
  2
STANDARD
 70
     0
 40
0.0
 41
1.0
 50
0.0
 71
     0
 42
3.0
  3
MONOTXT.shx
  4
BIGFONT.shx
  0
ENDTAB
  0
TABLE
  2
VIEW
  5
1F
330
0
100
AcDbSymbolTable
 70
     0
  0
ENDTAB
  0
TABLE
  2
UCS
  5
20
330
0
100
AcDbSymbolTable
 70
     0
  0
ENDTAB
  0
TABLE
  2
APPID
  5
23
330
0
100
AcDbSymbolTable
 70
     1
  0
APPID
  5
24
330
23
100
AcDbSymbolTableRecord
100
AcDbRegAppTableRecord
  2
ACAD
 70
     0
  0
ENDTAB
  0
TABLE
  2
DIMSTYLE
  5
25
330
0
100
AcDbSymbolTable
 70
     1
100
AcDbDimStyleTable
 71
     1
340
26
  0
DIMSTYLE
105
26
102
{ACAD_REACTORS
330
53
330
46
330
35
102
}
330
25
100
AcDbSymbolTableRecord
100
AcDbDimStyleTableRecord
  2
STANDARD
 70
     0
 40
0.0
 41
2.0
 42
2.0
 43
8.0
 44
2.0
 73
     0
 74
     0
 77
     3
140
3.0
141
0.0
173
     1
279
     2
288
     1
340
1A
341
27
343
27
344
27
  0
ENDTAB
  0
TABLE
  2
BLOCK_RECORD
  5
1
330
0
100
AcDbSymbolTable
 70
     7
  0
BLOCK_RECORD
  5
2
102
{ACAD_XDICTIONARY
360
3
102
}
330
1
100
AcDbSymbolTableRecord
100
AcDbBlockTableRecord
  2
*MODEL_SPACE
340
C
  0
BLOCK_RECORD
  5
E
102
{ACAD_XDICTIONARY
360
F
102
}
330
1
100
AcDbSymbolTableRecord
100
AcDbBlockTableRecord
  2
*PAPER_SPACE
340
13
  0
BLOCK_RECORD
  5
27
330
1
100
AcDbSymbolTableRecord
100
AcDbBlockTableRecord
  2
_OPEN30
340
0
102
{BLKREFS
331
3E
331
3F
331
4C
331
4D
331
59
331
5A
331
10A
331
10B
331
116
331
117
331
124
331
125
102
}
  0
BLOCK_RECORD
  5
54
330
1
100
AcDbSymbolTableRecord
100
AcDbBlockTableRecord
  2
*D1
340
0
  0
BLOCK_RECORD
  5
47
330
1
100
AcDbSymbolTableRecord
100
AcDbBlockTableRecord
  2
*D2
340
0
  0
BLOCK_RECORD
  5
37
330
1
100
AcDbSymbolTableRecord
100
AcDbBlockTableRecord
  2
*D3
340
0
  0
BLOCK_RECORD
  5
106
330
1
100
AcDbSymbolTableRecord
100
AcDbBlockTableRecord
  2
*D4
340
0
  0
BLOCK_RECORD
  5
112
330
1
100
AcDbSymbolTableRecord
100
AcDbBlockTableRecord
  2
*D5
340
0
  0
BLOCK_RECORD
  5
11E
330
1
100
AcDbSymbolTableRecord
100
AcDbBlockTableRecord
  2
*D6
340
0
  0
ENDTAB
  0
ENDSEC
  0
SECTION
  2
BLOCKS
  0
BLOCK
  5
5
330
2
100
AcDbEntity
  8
0
100
AcDbBlockBegin
  2
*MODEL_SPACE
 70
     0
 10
0.0
 20
0.0
 30
0.0
  3
*MODEL_SPACE
  1

  0
ENDBLK
  5
B
330
2
100
AcDbEntity
  8
0
100
AcDbBlockEnd
  0
BLOCK
  5
11
330
E
100
AcDbEntity
 67
     1
  8
0
100
AcDbBlockBegin
  2
*PAPER_SPACE
 70
     0
 10
0.0
 20
0.0
 30
0.0
  3
*PAPER_SPACE
  1

  0
ENDBLK
  5
12
330
E
100
AcDbEntity
 67
     1
  8
0
100
AcDbBlockEnd
  0
BLOCK
  5
28
330
27
100
AcDbEntity
  8
0
100
AcDbBlockBegin
  2
_OPEN30
 70
     0
 10
0.0
 20
0.0
 30
0.0
  3
_OPEN30
  1

  0
LINE
  5
29
330
27
100
AcDbEntity
  8
0
  6
ByBlock
 62
     0
100
AcDbLine
 10
-1.0
 20
0.26794919
 30
0.0
 11
0.0
 21
0.0
 31
0.0
  0
LINE
  5
2A
330
27
100
AcDbEntity
  8
0
  6
ByBlock
 62
     0
100
AcDbLine
 10
0.0
 20
0.0
 30
0.0
 11
-1.0
 21
-0.26794919
 31
0.0
  0
LINE
  5
2B
330
27
100
AcDbEntity
  8
0
  6
ByBlock
 62
     0
100
AcDbLine
 10
0.0
 20
0.0
 30
0.0
 11
-1.0
 21
0.0
 31
0.0
  0
ENDBLK
  5
2C
330
27
100
AcDbEntity
  8
0
100
AcDbBlockEnd
  0
BLOCK
  5
55
330
54
100
AcDbEntity
  8
0
100
AcDbBlockBegin
  2
*D1
 70
     1
 10
0.0
 20
0.0
 30
0.0
  3
*D1
  1

  0
LINE
  5
56
330
54
100
AcDbEntity
  8
SUNPO
 62
     0
370
    -2
100
AcDbLine
 10
182.9203750842589
 20
341.4717381128926
 30
0.0
 11
190.9203750842589
 21
341.4717381128926
 31
0.0
  0
LINE
  5
57
330
54
100
AcDbEntity
  8
SUNPO
 62
     0
370
    -2
100
AcDbLine
 10
182.9203750842589
 20
315.7183587506933
 30
0.0
 11
190.9203750842589
 21
315.7183587506933
 31
0.0
  0
LINE
  5
58
330
54
100
AcDbEntity
  8
SUNPO
 62
     0
370
    -2
100
AcDbLine
 10
188.9203750842589
 20
339.4717381128926
 30
0.0
 11
188.9203750842589
 21
317.7183587506933
 31
0.0
  0
INSERT
  5
59
330
54
100
AcDbEntity
  8
SUNPO
 62
     0
370
    -2
100
AcDbBlockReference
  2
_OPEN30
 10
188.9203750842589
 20
341.4717381128926
 30
0.0
 41
2.0
 42
2.0
 43
2.0
 50
90.0
  0
INSERT
  5
5A
330
54
100
AcDbEntity
  8
SUNPO
 62
     0
370
    -2
100
AcDbBlockReference
  2
_OPEN30
 10
188.9203750842589
 20
315.7183587506933
 30
0.0
 41
2.0
 42
2.0
 43
2.0
 50
270.0
  0
MTEXT
  5
5B
330
54
100
AcDbEntity
  8
SUNPO
 62
     0
100
AcDbMText
 10
187.1703750842588
 20
328.595048431793
 30
0.0
 40
2.5
 41
0.0
 71
     5
 72
     1
  1
\A1;129
 11
0.0000000000000001
 21
1.0
 31
0.0
 73
     1
 44
1.0
1001
ACAD
1000
MTEXTBEGIN
1070
    73
1070
     1
1070
    44
1040
1.0
1070
    74
1070
     0
1000
MTEXTEND
  0
POINT
  5
5C
330
54
100
AcDbEntity
  8
DEFPOINTS
 62
     0
100
AcDbPoint
 10
180.9203750842589
 20
341.4717381128926
 30
0.0
  0
POINT
  5
5D
330
54
100
AcDbEntity
  8
DEFPOINTS
 62
     0
100
AcDbPoint
 10
180.9203750842589
 20
315.7183587506933
 30
0.0
  0
POINT
  5
5E
330
54
100
AcDbEntity
  8
DEFPOINTS
 62
     0
100
AcDbPoint
 10
188.9203750842589
 20
315.7183587506933
 30
0.0
  0
ENDBLK
  5
5F
330
54
100
AcDbEntity
  8
0
100
AcDbBlockEnd
  0
BLOCK
  5
48
330
47
100
AcDbEntity
  8
0
100
AcDbBlockBegin
  2
*D2
 70
     1
 10
0.0
 20
0.0
 30
0.0
  3
*D2
  1

  0
LINE
  5
49
330
47
100
AcDbEntity
  8
SUNPO
 62
     0
370
    -2
100
AcDbLine
 10
203.7174379159087
 20
344.741653864806
 30
0.0
 11
203.7174379159087
 21
352.741653864806
 31
0.0
  0
LINE
  5
4A
330
47
100
AcDbEntity
  8
SUNPO
 62
     0
370
    -2
100
AcDbLine
 10
217.2174379159087
 20
344.741653864806
 30
0.0
 11
217.2174379159087
 21
352.741653864806
 31
0.0
  0
LINE
  5
4B
330
47
100
AcDbEntity
  8
SUNPO
 62
     0
370
    -2
100
AcDbLine
 10
205.7174379159087
 20
350.741653864806
 30
0.0
 11
215.2174379159087
 21
350.741653864806
 31
0.0
  0
INSERT
  5
4C
330
47
100
AcDbEntity
  8
SUNPO
 62
     0
370
    -2
100
AcDbBlockReference
  2
_OPEN30
 10
203.7174379159087
 20
350.741653864806
 30
0.0
 41
2.0
 42
2.0
 43
2.0
 50
180.0
  0
INSERT
  5
4D
330
47
100
AcDbEntity
  8
SUNPO
 62
     0
370
    -2
100
AcDbBlockReference
  2
_OPEN30
 10
217.2174379159087
 20
350.741653864806
 30
0.0
 41
2.0
 42
2.0
 43
2.0
  0
MTEXT
  5
4E
330
47
100
AcDbEntity
  8
SUNPO
 62
     0
100
AcDbMText
 10
210.4674379159087
 20
352.491653864806
 30
0.0
 40
2.5
 41
0.0
 71
     5
 72
     1
  1
\A1;67.5
 73
     1
 44
1.0
1001
ACAD
1000
MTEXTBEGIN
1070
    73
1070
     1
1070
    44
1040
1.0
1070
    74
1070
     0
1000
MTEXTEND
  0
POINT
  5
4F
330
47
100
AcDbEntity
  8
DEFPOINTS
 62
     0
100
AcDbPoint
 10
203.7174379159087
 20
342.741653864806
 30
0.0
  0
POINT
  5
50
330
47
100
AcDbEntity
  8
DEFPOINTS
 62
     0
100
AcDbPoint
 10
217.2174379159087
 20
342.741653864806
 30
0.0
  0
POINT
  5
51
330
47
100
AcDbEntity
  8
DEFPOINTS
 62
     0
100
AcDbPoint
 10
217.2174379159087
 20
350.741653864806
 30
0.0
  0
ENDBLK
  5
52
330
47
100
AcDbEntity
  8
0
100
AcDbBlockEnd
  0
BLOCK
  5
38
330
37
100
AcDbEntity
  8
0
100
AcDbBlockBegin
  2
*D3
 70
     1
 10
0.0
 20
0.0
 30
0.0
  3
*D3
  1

  0
LINE
  5
39
330
37
100
AcDbEntity
  8
SUNPO
 62
     0
370
    -2
100
AcDbLine
 10
217.2174379159087
 20
344.741653864806
 30
0.0
 11
217.2174379159087
 21
352.741653864806
 31
0.0
  0
LINE
  5
3A
330
37
100
AcDbEntity
  8
SUNPO
 62
     0
370
    -2
100
AcDbLine
 10
218.9174379159086
 20
344.741653864806
 30
0.0
 11
218.9174379159086
 21
352.741653864806
 31
0.0
  0
LINE
  5
3B
330
37
100
AcDbEntity
  8
SUNPO
 62
     0
370
    -2
100
AcDbLine
 10
215.2174379159087
 20
350.741653864806
 30
0.0
 11
213.2174379159087
 21
350.741653864806
 31
0.0
  0
LINE
  5
3C
330
37
100
AcDbEntity
  8
SUNPO
 62
     0
370
    -2
100
AcDbLine
 10
220.9174379159086
 20
350.741653864806
 30
0.0
 11
230.5841045825752
 21
350.741653864806
 31
0.0
  0
LINE
  5
3D
330
37
100
AcDbEntity
  8
SUNPO
 62
     0
370
    -2
100
AcDbLine
 10
217.2174379159087
 20
350.741653864806
 30
0.0
 11
218.9174379159086
 21
350.741653864806
 31
0.0
  0
INSERT
  5
3E
330
37
100
AcDbEntity
  8
SUNPO
 62
     0
370
    -2
100
AcDbBlockReference
  2
_OPEN30
 10
217.2174379159087
 20
350.741653864806
 30
0.0
 41
2.0
 42
2.0
 43
2.0
  0
INSERT
  5
3F
330
37
100
AcDbEntity
  8
SUNPO
 62
     0
370
    -2
100
AcDbBlockReference
  2
_OPEN30
 10
218.9174379159086
 20
350.741653864806
 30
0.0
 41
2.0
 42
2.0
 43
2.0
 50
180.0
  0
MTEXT
  5
40
330
37
100
AcDbEntity
  8
SUNPO
 62
     0
100
AcDbMText
 10
226.7507712492419
 20
352.491653864806
 30
0.0
 40
2.5
 41
0.0
 71
     5
 72
     1
  1
\A1;8.5
 73
     1
 44
1.0
1001
ACAD
1000
MTEXTBEGIN
1070
    73
1070
     1
1070
    44
1040
1.0
1070
    74
1070
     0
1000
MTEXTEND
  0
POINT
  5
41
330
37
100
AcDbEntity
  8
DEFPOINTS
 62
     0
100
AcDbPoint
 10
217.2174379159087
 20
342.741653864806
 30
0.0
  0
POINT
  5
43
330
37
100
AcDbEntity
  8
DEFPOINTS
 62
     0
100
AcDbPoint
 10
218.9174379159086
 20
342.741653864806
 30
0.0
  0
POINT
  5
44
330
37
100
AcDbEntity
  8
DEFPOINTS
 62
     0
100
AcDbPoint
 10
218.9174379159086
 20
350.741653864806
 30
0.0
  0
ENDBLK
  5
45
330
37
100
AcDbEntity
  8
0
100
AcDbBlockEnd
  0
BLOCK
  5
110
330
106
100
AcDbEntity
  8
0
100
AcDbBlockBegin
  2
*D4
 70
     1
 10
0.0
 20
0.0
 30
0.0
  3
*D4
  1

  0
LINE
  5
107
330
106
100
AcDbEntity
  8
SUNPO
 62
     0
370
    -2
100
AcDbLine
 10
-12.17703654408072
 20
27.68273325117525
 30
0.0
 11
-4.177036544080714
 21
27.68273325117525
 31
0.0
  0
LINE
  5
108
330
106
100
AcDbEntity
  8
SUNPO
 62
     0
370
    -2
100
AcDbLine
 10
-12.17703654408072
 20
1.929353888975924
 30
0.0
 11
-4.177036544080721
 21
1.929353888975921
 31
0.0
  0
LINE
  5
109
330
106
100
AcDbEntity
  8
SUNPO
 62
     0
370
    -2
100
AcDbLine
 10
-6.177036544080715
 20
25.68273325117525
 30
0.0
 11
-6.17703654408072
 21
3.929353888975922
 31
0.0
  0
INSERT
  5
10A
330
106
100
AcDbEntity
  8
SUNPO
 62
     0
370
    -2
100
AcDbBlockReference
  2
_OPEN30
 10
-6.177036544080714
 20
27.68273325117525
 30
0.0
 41
2.0
 42
2.0
 43
2.0
 50
90.0
  0
INSERT
  5
10B
330
106
100
AcDbEntity
  8
SUNPO
 62
     0
370
    -2
100
AcDbBlockReference
  2
_OPEN30
 10
-6.177036544080721
 20
1.929353888975922
 30
0.0
 41
2.0
 42
2.0
 43
2.0
 50
270.0
  0
MTEXT
  5
10C
330
106
100
AcDbEntity
  8
SUNPO
 62
     0
100
AcDbMText
 10
-7.92703654408072
 20
14.80604357007558
 30
0.0
 40
2.5
 41
0.0
 71
     5
 72
     1
  1
\A1;129
 11
0.0000000000000001
 21
1.0
 31
0.0
 73
     1
 44
1.0
1001
ACAD
1000
MTEXTBEGIN
1070
    73
1070
     1
1070
    44
1040
1.0
1070
    74
1070
     0
1000
MTEXTEND
  0
POINT
  5
10D
330
106
100
AcDbEntity
  8
DEFPOINTS
 62
     0
100
AcDbPoint
 10
-14.17703654408072
 20
27.68273325117525
 30
0.0
  0
POINT
  5
10E
330
106
100
AcDbEntity
  8
DEFPOINTS
 62
     0
100
AcDbPoint
 10
-14.17703654408072
 20
1.929353888975924
 30
0.0
  0
POINT
  5
10F
330
106
100
AcDbEntity
  8
DEFPOINTS
 62
     0
100
AcDbPoint
 10
-6.177036544080721
 20
1.929353888975922
 30
0.0
  0
ENDBLK
  5
111
330
106
100
AcDbEntity
  8
0
100
AcDbBlockEnd
  0
BLOCK
  5
11C
330
112
100
AcDbEntity
  8
0
100
AcDbBlockBegin
  2
*D5
 70
     1
 10
0.0
 20
0.0
 30
0.0
  3
*D5
  1

  0
LINE
  5
113
330
112
100
AcDbEntity
  8
SUNPO
 62
     0
370
    -2
100
AcDbLine
 10
8.620026287569061
 20
30.95264900308871
 30
0.0
 11
8.620026287569061
 21
38.95264900308871
 31
0.0
  0
LINE
  5
114
330
112
100
AcDbEntity
  8
SUNPO
 62
     0
370
    -2
100
AcDbLine
 10
22.12002628756906
 20
30.95264900308871
 30
0.0
 11
22.12002628756906
 21
38.95264900308871
 31
0.0
  0
LINE
  5
115
330
112
100
AcDbEntity
  8
SUNPO
 62
     0
370
    -2
100
AcDbLine
 10
10.62002628756906
 20
36.95264900308871
 30
0.0
 11
20.12002628756906
 21
36.95264900308871
 31
0.0
  0
INSERT
  5
116
330
112
100
AcDbEntity
  8
SUNPO
 62
     0
370
    -2
100
AcDbBlockReference
  2
_OPEN30
 10
8.620026287569061
 20
36.95264900308871
 30
0.0
 41
2.0
 42
2.0
 43
2.0
 50
180.0
  0
INSERT
  5
117
330
112
100
AcDbEntity
  8
SUNPO
 62
     0
370
    -2
100
AcDbBlockReference
  2
_OPEN30
 10
22.12002628756906
 20
36.95264900308871
 30
0.0
 41
2.0
 42
2.0
 43
2.0
  0
MTEXT
  5
118
330
112
100
AcDbEntity
  8
SUNPO
 62
     0
100
AcDbMText
 10
15.37002628756906
 20
38.70264900308871
 30
0.0
 40
2.5
 41
0.0
 71
     5
 72
     1
  1
\A1;67.5
 73
     1
 44
1.0
1001
ACAD
1000
MTEXTBEGIN
1070
    73
1070
     1
1070
    44
1040
1.0
1070
    74
1070
     0
1000
MTEXTEND
  0
POINT
  5
119
330
112
100
AcDbEntity
  8
DEFPOINTS
 62
     0
100
AcDbPoint
 10
8.620026287569061
 20
28.95264900308871
 30
0.0
  0
POINT
  5
11A
330
112
100
AcDbEntity
  8
DEFPOINTS
 62
     0
100
AcDbPoint
 10
22.12002628756906
 20
28.95264900308871
 30
0.0
  0
POINT
  5
11B
330
112
100
AcDbEntity
  8
DEFPOINTS
 62
     0
100
AcDbPoint
 10
22.12002628756906
 20
36.95264900308871
 30
0.0
  0
ENDBLK
  5
11D
330
112
100
AcDbEntity
  8
0
100
AcDbBlockEnd
  0
BLOCK
  5
12A
330
11E
100
AcDbEntity
  8
0
100
AcDbBlockBegin
  2
*D6
 70
     1
 10
0.0
 20
0.0
 30
0.0
  3
*D6
  1

  0
LINE
  5
11F
330
11E
100
AcDbEntity
  8
SUNPO
 62
     0
370
    -2
100
AcDbLine
 10
22.12002628756906
 20
30.95264900308871
 30
0.0
 11
22.12002628756906
 21
38.95264900308871
 31
0.0
  0
LINE
  5
120
330
11E
100
AcDbEntity
  8
SUNPO
 62
     0
370
    -2
100
AcDbLine
 10
23.82002628756899
 20
30.95264900308871
 30
0.0
 11
23.82002628756899
 21
38.95264900308871
 31
0.0
  0
LINE
  5
121
330
11E
100
AcDbEntity
  8
SUNPO
 62
     0
370
    -2
100
AcDbLine
 10
20.12002628756906
 20
36.95264900308871
 30
0.0
 11
18.12002628756906
 21
36.95264900308871
 31
0.0
  0
LINE
  5
122
330
11E
100
AcDbEntity
  8
SUNPO
 62
     0
370
    -2
100
AcDbLine
 10
25.820026287569
 20
36.95264900308871
 30
0.0
 11
35.48669295423566
 21
36.95264900308871
 31
0.0
  0
LINE
  5
123
330
11E
100
AcDbEntity
  8
SUNPO
 62
     0
370
    -2
100
AcDbLine
 10
22.12002628756906
 20
36.95264900308871
 30
0.0
 11
23.82002628756899
 21
36.95264900308871
 31
0.0
  0
INSERT
  5
124
330
11E
100
AcDbEntity
  8
SUNPO
 62
     0
370
    -2
100
AcDbBlockReference
  2
_OPEN30
 10
22.12002628756906
 20
36.95264900308871
 30
0.0
 41
2.0
 42
2.0
 43
2.0
  0
INSERT
  5
125
330
11E
100
AcDbEntity
  8
SUNPO
 62
     0
370
    -2
100
AcDbBlockReference
  2
_OPEN30
 10
23.82002628756899
 20
36.95264900308871
 30
0.0
 41
2.0
 42
2.0
 43
2.0
 50
180.0
  0
MTEXT
  5
126
330
11E
100
AcDbEntity
  8
SUNPO
 62
     0
100
AcDbMText
 10
31.65335962090233
 20
38.70264900308871
 30
0.0
 40
2.5
 41
0.0
 71
     5
 72
     1
  1
\A1;8.5
 73
     1
 44
1.0
1001
ACAD
1000
MTEXTBEGIN
1070
    73
1070
     1
1070
    44
1040
1.0
1070
    74
1070
     0
1000
MTEXTEND
  0
POINT
  5
127
330
11E
100
AcDbEntity
  8
DEFPOINTS
 62
     0
100
AcDbPoint
 10
22.12002628756906
 20
28.95264900308871
 30
0.0
  0
POINT
  5
128
330
11E
100
AcDbEntity
  8
DEFPOINTS
 62
     0
100
AcDbPoint
 10
23.82002628756899
 20
28.95264900308871
 30
0.0
  0
POINT
  5
129
330
11E
100
AcDbEntity
  8
DEFPOINTS
 62
     0
100
AcDbPoint
 10
23.82002628756899
 20
36.95264900308871
 30
0.0
  0
ENDBLK
  5
12B
330
11E
100
AcDbEntity
  8
0
100
AcDbBlockEnd
  0
ENDSEC
  0
SECTION
  2
ENTITIES
  0
DIMENSION
  5
35
330
2
100
AcDbEntity
  8
SUNPO
100
AcDbDimension
  2
*D6
 10
23.82002628756899
 20
36.95264900308871
 30
0.0
 11
31.65335962090233
 21
38.70264900308871
 31
0.0
 70
    33
  1
8.5
 71
     5
 42
1.699999999999931
  3
STANDARD
100
AcDbAlignedDimension
 13
22.12002628756906
 23
28.95264900308871
 33
0.0
 14
23.82002628756899
 24
28.95264900308871
 34
0.0
1001
ACAD
1000
DSTYLE
1002
{
1070
    40
1040
1.0
1070
   140
1040
2.5
1070
   147
1040
0.5
1070
   172
1070
     1
1070
   279
1070
     0
1070
   288
1070
     0
1002
}
  0
DIMENSION
  5
46
330
2
100
AcDbEntity
  8
SUNPO
100
AcDbDimension
  2
*D5
 10
22.12002628756906
 20
36.95264900308871
 30
0.0
 11
15.37002628756906
 21
38.70264900308871
 31
0.0
 70
    33
  1
67.5
 71
     5
 42
13.5
  3
STANDARD
100
AcDbAlignedDimension
 13
8.620026287569061
 23
28.95264900308871
 33
0.0
 14
22.12002628756906
 24
28.95264900308871
 34
0.0
1001
ACAD
1000
DSTYLE
1002
{
1070
    40
1040
1.0
1070
   140
1040
2.5
1070
   147
1040
0.5
1070
   172
1070
     1
1070
   279
1070
     0
1070
   288
1070
     0
1002
}
  0
DIMENSION
  5
53
330
2
100
AcDbEntity
  8
SUNPO
100
AcDbDimension
  2
*D4
 10
-6.177036544080721
 20
1.929353888975922
 30
0.0
 11
-7.92703654408072
 21
14.80604357007558
 31
0.0
 70
    33
  1
129
 71
     5
 42
25.75337936219933
  3
STANDARD
100
AcDbAlignedDimension
 13
-14.17703654408072
 23
27.68273325117525
 33
0.0
 14
-14.17703654408072
 24
1.929353888975924
 34
0.0
1001
ACAD
1000
DSTYLE
1002
{
1070
    40
1040
1.0
1070
   140
1040
2.5
1070
   147
1040
0.5
1070
   172
1070
     1
1070
   279
1070
     0
1070
   288
1070
     0
1002
}
  0
LINE
  5
60
330
2
100
AcDbEntity
  8
GAIKEI
  6
Continuous
 62
     1
100
AcDbLine
 10
-37.89250828904247
 20
9.002544139635574
 30
0.0
 11
-37.44241380326244
 21
9.002544139635574
 31
0.0
  0
LINE
  5
61
330
2
100
AcDbEntity
  8
GAIKEI
  6
Continuous
 62
     1
100
AcDbLine
 10
-15.39056631958252
 20
9.002544139635574
 30
0.0
 11
-14.94047183378248
 21
9.002544139635574
 31
0.0
  0
LINE
  5
62
330
2
100
AcDbEntity
  8
GAIKEI
  6
Continuous
 62
     1
100
AcDbLine
 10
-38.38485416826248
 20
10.5577191231556
 30
0.0
 11
-38.12987297984253
 21
10.5577191231556
 31
0.0
  0
LINE
  5
63
330
2
100
AcDbEntity
  8
GAIKEI
  6
Continuous
 62
     1
100
AcDbLine
 10
-14.70310714298253
 20
10.5577191231556
 30
0.0
 11
-14.44812595458248
 21
10.5577191231556
 31
0.0
  0
LINE
  5
64
330
2
100
AcDbEntity
  8
GAIKEI
  6
Continuous
 62
     1
100
AcDbLine
 10
-14.23077711552244
 20
12.20604357007562
 30
0.0
 11
-13.98548044836244
 21
12.20604357007562
 31
0.0
  0
LINE
  5
65
330
2
100
AcDbEntity
  8
GAIKEI
  6
Continuous
 62
     1
100
AcDbLine
 10
-15.63286731882252
 20
21.04824514845558
 30
0.0
 11
-15.41451703790247
 21
21.15006355661558
 31
0.0
  0
LINE
  5
66
330
2
100
AcDbEntity
  8
GAIKEI
  6
Continuous
 62
     1
100
AcDbLine
 10
-15.63286731882252
 20
8.563841991675587
 30
0.0
 11
-15.41451703790247
 21
8.462023583535597
 31
0.0
  0
LINE
  5
67
330
2
100
AcDbEntity
  8
GAIKEI
  6
Continuous
 62
     1
100
AcDbLine
 10
-27.0164900614225
 20
27.31165830905559
 30
0.0
 11
-27.0164900614225
 21
27.2560074254356
 31
0.0
  0
LINE
  5
68
330
2
100
AcDbEntity
  8
GAIKEI
  6
Continuous
 62
     1
100
AcDbLine
 10
-38.31248675874249
 20
9.9208759600956
 30
0.0
 11
-37.94955571734252
 21
10.09011348407557
 31
0.0
  0
LINE
  5
69
330
2
100
AcDbEntity
  8
GAIKEI
  6
Continuous
 62
     1
100
AcDbLine
 10
-38.8362968232025
 20
13.80604357007559
 30
0.0
 11
-39.07705876902245
 21
13.80604357007559
 31
0.0
  0
LINE
  5
6A
330
2
100
AcDbEntity
  8
GAIKEI
  6
Continuous
 62
     1
100
AcDbLine
 10
-38.31248675874249
 20
19.69121118003562
 30
0.0
 11
-37.94955571734252
 21
19.52197365605559
 31
0.0
  0
LINE
  5
6B
330
2
100
AcDbEntity
  8
GAIKEI
  6
Continuous
 62
     1
100
AcDbLine
 10
-25.81649006142246
 20
27.2560074254356
 30
0.0
 11
-25.81649006142246
 21
27.31165830905559
 31
0.0
  0
LINE
  5
6C
330
2
100
AcDbEntity
  8
GAIKEI
  6
Continuous
 62
     1
100
AcDbLine
 10
-14.88342440548243
 20
19.52197365605559
 30
0.0
 11
-14.52049336410246
 21
19.69121118003562
 31
0.0
  0
LINE
  5
6D
330
2
100
AcDbEntity
  8
GAIKEI
  6
Continuous
 62
     1
100
AcDbLine
 10
-37.20011280402244
 20
8.563841991675587
 30
0.0
 11
-37.41846308494249
 21
8.462023583535597
 31
0.0
  0
LINE
  5
6E
330
2
100
AcDbEntity
  8
GAIKEI
  6
Continuous
 62
     1
100
AcDbLine
 10
-13.75592135382251
 20
15.80604357007558
 30
0.0
 11
-13.99668329964245
 21
15.80604357007558
 31
0.0
  0
LINE
  5
6F
330
2
100
AcDbEntity
  8
GAIKEI
  6
Continuous
 62
     1
100
AcDbLine
 10
-14.88342440548243
 20
10.09011348407557
 30
0.0
 11
-14.52049336410246
 21
9.9208759600956
 31
0.0
  0
LINE
  5
70
330
2
100
AcDbEntity
  8
GAIKEI
  6
Continuous
 62
     1
100
AcDbLine
 10
-37.41846308494249
 20
21.15006355661558
 30
0.0
 11
-37.20011280402244
 21
21.04824514845558
 31
0.0
  0
LINE
  5
71
330
2
100
AcDbEntity
  8
GAIKEI
  6
Continuous
 62
     1
100
AcDbLine
 10
-38.84749967448252
 20
17.40604357007561
 30
0.0
 11
-38.60220300732251
 21
17.40604357007561
 31
0.0
  0
LINE
  5
72
330
2
100
AcDbEntity
  8
GAIKEI
  6
Continuous
 62
     1
100
AcDbLine
 10
-38.38485416826248
 20
19.05436801697561
 30
0.0
 11
-38.12987297984253
 21
19.05436801697561
 31
0.0
  0
LINE
  5
73
330
2
100
AcDbEntity
  8
GAIKEI
  6
Continuous
 62
     1
100
AcDbLine
 10
-14.70310714298253
 20
19.05436801697561
 30
0.0
 11
-14.44812595458248
 21
19.05436801697561
 31
0.0
  0
LINE
  5
74
330
2
100
AcDbEntity
  8
GAIKEI
  6
Continuous
 62
     1
100
AcDbLine
 10
-14.94047183378248
 20
20.60954300049559
 30
0.0
 11
-15.39056631958252
 21
20.60954300049559
 31
0.0
  0
LINE
  5
75
330
2
100
AcDbEntity
  8
GAIKEI
  6
Continuous
 62
     1
100
AcDbLine
 10
-37.89250828904247
 20
20.60954300049559
 30
0.0
 11
-37.44241380326244
 21
20.60954300049559
 31
0.0
  0
LINE
  5
76
330
2
100
AcDbEntity
  8
GAIKEI
  6
Continuous
 62
     1
100
AcDbLine
 10
-27.42366432638247
 20
27.46604357007561
 30
0.0
 11
-25.4093157964625
 21
27.46604357007561
 31
0.0
  0
LINE
  5
77
330
2
100
AcDbEntity
  8
GAIKEI
  6
Continuous
100
AcDbLine
 10
22.02002628756904
 20
1.90604357007561
 30
0.0
 11
22.12002628756906
 21
1.90604357007561
 31
0.0
  0
LINE
  5
78
330
2
100
AcDbEntity
  8
GAIKEI
  6
Continuous
100
AcDbLine
 10
22.12002628756906
 20
2.146043570075619
 30
0.0
 11
23.78538527140901
 21
2.146043570075619
 31
0.0
  0
LINE
  5
79
330
2
100
AcDbEntity
  8
GAIKEI
  6
Continuous
100
AcDbLine
 10
21.82525988316897
 20
2.248602287595588
 30
0.0
 11
20.92002628756902
 21
2.296043570075596
 31
0.0
  0
LINE
  5
7A
330
2
100
AcDbEntity
  8
GAIKEI
  6
Continuous
 62
     1
100
AcDbLine
 10
22.72002628756897
 20
8.462023583535597
 30
0.0
 11
23.71610323910906
 21
8.462023583535597
 31
0.0
  0
LINE
  5
7B
330
2
100
AcDbEntity
  8
GAIKEI
  6
Continuous
 62
     1
100
AcDbLine
 10
22.72002628756897
 20
8.563841991675587
 30
0.0
 11
23.71610323910906
 21
8.563841991675587
 31
0.0
  0
LINE
  5
7C
330
2
100
AcDbEntity
  8
GAIKEI
  6
Continuous
 62
     1
100
AcDbLine
 10
22.72002628756897
 20
9.002544139635574
 30
0.0
 11
23.82002628756899
 21
9.002544139635574
 31
0.0
  0
LINE
  5
7D
330
2
100
AcDbEntity
  8
GAIKEI
  6
Continuous
 62
     1
100
AcDbLine
 10
23.62002628756906
 20
9.9208759600956
 30
0.0
 11
23.42002628756902
 21
9.9208759600956
 31
0.0
  0
LINE
  5
7E
330
2
100
AcDbEntity
  8
GAIKEI
  6
Continuous
 62
     1
100
AcDbLine
 10
22.72002628756897
 20
9.98856952939559
 30
0.0
 11
23.42002628756902
 21
9.98856952939559
 31
0.0
  0
LINE
  5
7F
330
2
100
AcDbEntity
  8
GAIKEI
  6
Continuous
 62
     1
100
AcDbLine
 10
22.72002628756897
 20
10.09011348407557
 30
0.0
 11
23.71610323910906
 21
10.09011348407557
 31
0.0
  0
LINE
  5
80
330
2
100
AcDbEntity
  8
GAIKEI
  6
Continuous
 62
     1
100
AcDbLine
 10
22.72002628756897
 20
10.5577191231556
 30
0.0
 11
23.82002628756899
 21
10.5577191231556
 31
0.0
  0
LINE
  5
81
330
2
100
AcDbEntity
  8
GAIKEI
  6
Continuous
 62
     1
100
AcDbLine
 10
23.82002628756899
 20
13.80604357007559
 30
0.0
 11
22.62002628756906
 21
13.80604357007559
 31
0.0
  0
LINE
  5
82
330
2
100
AcDbEntity
  8
GAIKEI
  6
Continuous
 62
     1
100
AcDbLine
 10
22.62002628756906
 20
15.80604357007558
 30
0.0
 11
23.82002628756899
 21
15.80604357007558
 31
0.0
  0
LINE
  5
83
330
2
100
AcDbEntity
  8
GAIKEI
  6
Continuous
 62
     1
100
AcDbLine
 10
22.62002628756906
 20
17.40604357007561
 30
0.0
 11
23.82002628756899
 21
17.40604357007561
 31
0.0
  0
LINE
  5
84
330
2
100
AcDbEntity
  8
GAIKEI
  6
Continuous
 62
     1
100
AcDbLine
 10
20.92002628756902
 20
2.296043086235613
 30
0.0
 11
20.92002628756902
 21
27.31604405391562
 31
0.0
  0
LINE
  5
85
330
2
100
AcDbEntity
  8
GAIKEI
  6
Continuous
 62
     1
100
AcDbLine
 10
22.72002628756897
 20
19.05436801697561
 30
0.0
 11
23.82002628756899
 21
19.05436801697561
 31
0.0
  0
LINE
  5
86
330
2
100
AcDbEntity
  8
GAIKEI
  6
Continuous
 62
     1
100
AcDbLine
 10
22.72002628756897
 20
19.52197365605559
 30
0.0
 11
23.71610323910906
 21
19.52197365605559
 31
0.0
  0
LINE
  5
87
330
2
100
AcDbEntity
  8
GAIKEI
  6
Continuous
 62
     1
100
AcDbLine
 10
22.72002628756897
 20
19.62351761073557
 30
0.0
 11
23.42002628756902
 21
19.62351761073557
 31
0.0
  0
LINE
  5
88
330
2
100
AcDbEntity
  8
GAIKEI
  6
Continuous
 62
     1
100
AcDbLine
 10
23.62002628756906
 20
19.69121118003562
 30
0.0
 11
23.42002628756902
 21
19.69121118003562
 31
0.0
  0
LINE
  5
89
330
2
100
AcDbEntity
  8
GAIKEI
  6
Continuous
 62
     1
100
AcDbLine
 10
21.92002628756902
 20
27.6060435700756
 30
0.0
 11
21.92002628756902
 21
2.006043570075576
 31
0.0
  0
LINE
  5
8A
330
2
100
AcDbEntity
  8
GAIKEI
  6
Continuous
 62
     1
100
AcDbLine
 10
22.12002628756906
 20
27.70603495947563
 30
0.0
 11
22.12002628756906
 21
1.906052180675601
 31
0.0
  0
LINE
  5
8B
330
2
100
AcDbEntity
  8
GAIKEI
  6
Continuous
 62
     1
100
AcDbLine
 10
22.72002628756897
 20
20.60954300049559
 30
0.0
 11
23.82002628756899
 21
20.60954300049559
 31
0.0
  0
LINE
  5
8C
330
2
100
AcDbEntity
  8
GAIKEI
  6
Continuous
 62
     1
100
AcDbLine
 10
22.72002628756897
 20
8.462023583535597
 30
0.0
 11
22.72002628756897
 21
9.002544139635574
 31
0.0
  0
LINE
  5
8D
330
2
100
AcDbEntity
  8
GAIKEI
  6
Continuous
 62
     1
100
AcDbLine
 10
22.72002628756897
 20
9.98856952939559
 30
0.0
 11
22.72002628756897
 21
10.5577191231556
 31
0.0
  0
LINE
  5
8E
330
2
100
AcDbEntity
  8
GAIKEI
  6
Continuous
 62
     1
100
AcDbLine
 10
22.72002628756897
 20
19.05436801697561
 30
0.0
 11
22.72002628756897
 21
19.62351761073557
 31
0.0
  0
LINE
  5
8F
330
2
100
AcDbEntity
  8
GAIKEI
  6
Continuous
 62
     1
100
AcDbLine
 10
22.72002628756897
 20
20.60954300049559
 30
0.0
 11
22.72002628756897
 21
21.15006355661558
 31
0.0
  0
LINE
  5
90
330
2
100
AcDbEntity
  8
GAIKEI
  6
Continuous
 62
     1
100
AcDbLine
 10
22.72002628756897
 20
21.04824514845558
 30
0.0
 11
23.71610323910906
 21
21.04824514845558
 31
0.0
  0
LINE
  5
91
330
2
100
AcDbEntity
  8
GAIKEI
  6
Continuous
 62
     1
100
AcDbLine
 10
22.72002628756897
 20
21.15006355661558
 30
0.0
 11
23.71610323910906
 21
21.15006355661558
 31
0.0
  0
LINE
  5
92
330
2
100
AcDbEntity
  8
GAIKEI
  6
Continuous
 62
     1
100
AcDbLine
 10
23.42002628756902
 20
20.60954300049559
 30
0.0
 11
23.42002628756902
 21
19.62351761073557
 31
0.0
  0
LINE
  5
93
330
2
100
AcDbEntity
  8
GAIKEI
  6
Continuous
 62
     1
100
AcDbLine
 10
23.42002628756902
 20
9.002544139635574
 30
0.0
 11
23.42002628756902
 21
9.98856952939559
 31
0.0
  0
LINE
  5
94
330
2
100
AcDbEntity
  8
GAIKEI
  6
Continuous
 62
     1
100
AcDbLine
 10
23.62002628756906
 20
20.60954300049559
 30
0.0
 11
23.62002628756906
 21
19.69121118003562
 31
0.0
  0
LINE
  5
95
330
2
100
AcDbEntity
  8
GAIKEI
  6
Continuous
 62
     1
100
AcDbLine
 10
23.62002628756906
 20
9.9208759600956
 30
0.0
 11
23.62002628756906
 21
9.002544139635574
 31
0.0
  0
LINE
  5
96
330
2
100
AcDbEntity
  8
GAIKEI
  6
Continuous
 62
     1
100
AcDbLine
 10
23.71610323910906
 20
27.46604357007561
 30
0.0
 11
23.71610323910906
 21
21.15006355661558
 31
0.0
  0
LINE
  5
97
330
2
100
AcDbEntity
  8
GAIKEI
  6
Continuous
 62
     1
100
AcDbLine
 10
23.71610323910906
 20
19.05436801697561
 30
0.0
 11
23.71610323910906
 21
17.40604357007561
 31
0.0
  0
LINE
  5
98
330
2
100
AcDbEntity
  8
GAIKEI
  6
Continuous
 62
     1
100
AcDbLine
 10
23.71610323910906
 20
13.80604357007559
 30
0.0
 11
23.71610323910906
 21
10.5577191231556
 31
0.0
  0
LINE
  5
99
330
2
100
AcDbEntity
  8
GAIKEI
  6
Continuous
 62
     1
100
AcDbLine
 10
23.71610323910906
 20
8.462023583535597
 30
0.0
 11
23.71610323910906
 21
2.146043570075619
 31
0.0
  0
LINE
  5
9A
330
2
100
AcDbEntity
  8
GAIKEI
  6
Continuous
100
AcDbLine
 10
23.82002628756899
 20
20.60954300049559
 30
0.0
 11
23.82002628756899
 21
19.6065939230956
 31
0.0
  0
LINE
  5
9B
330
2
100
AcDbEntity
  8
GAIKEI
  6
Continuous
100
AcDbLine
 10
23.82002628756899
 20
19.05436801697561
 30
0.0
 11
23.82002628756899
 21
17.40604357007561
 31
0.0
  0
LINE
  5
9C
330
2
100
AcDbEntity
  8
GAIKEI
  6
Continuous
100
AcDbLine
 10
23.82002628756899
 20
13.80604357007559
 30
0.0
 11
23.82002628756899
 21
10.5577191231556
 31
0.0
  0
LINE
  5
9D
330
2
100
AcDbEntity
  8
GAIKEI
  6
Continuous
100
AcDbLine
 10
23.82002628756899
 20
10.06472705147558
 30
0.0
 11
23.82002628756899
 21
10.00549321703562
 31
0.0
  0
LINE
  5
9E
330
2
100
AcDbEntity
  8
GAIKEI
  6
Continuous
 62
     1
100
AcDbLine
 10
23.82002628756899
 20
8.538385979635563
 30
0.0
 11
23.82002628756899
 21
8.487476789055619
 31
0.0
  0
LINE
  5
9F
330
2
100
AcDbEntity
  8
GAIKEI
  6
Continuous
100
AcDbLine
 10
23.82002628756899
 20
21.0737011604956
 30
0.0
 11
23.82002628756899
 21
27.44604357007558
 31
0.0
  0
LINE
  5
A0
330
2
100
AcDbEntity
  8
GAIKEI
  6
Continuous
100
AcDbLine
 10
21.82525988316897
 20
27.36348485255559
 30
0.0
 11
20.92002628756902
 21
27.31604357007558
 31
0.0
  0
LINE
  5
A1
330
2
100
AcDbEntity
  8
GAIKEI
  6
Continuous
100
AcDbLine
 10
22.12002628756906
 20
27.46604357007561
 30
0.0
 11
23.78538527140901
 21
27.46604357007561
 31
0.0
  0
LINE
  5
A2
330
2
100
AcDbEntity
  8
GAIKEI
  6
Continuous
100
AcDbLine
 10
22.02002628756904
 20
27.70604357007562
 30
0.0
 11
22.12002628756906
 21
27.70604357007562
 31
0.0
  0
LINE
  5
A3
330
2
100
AcDbEntity
  8
GAIKEI
  6
Continuous
100
AcDbLine
 10
23.78538527140901
 20
2.146043570075619
 30
0.0
 11
23.82002628756899
 21
2.166043570075601
 31
0.0
  0
LINE
  5
A4
330
2
100
AcDbEntity
  8
GAIKEI
  6
Continuous
100
AcDbLine
 10
23.78538527140901
 20
27.46604357007561
 30
0.0
 11
23.82002628756899
 21
27.44604357007558
 31
0.0
  0
LINE
  5
A5
330
2
100
AcDbEntity
  8
GAIKEI
  6
Continuous
100
AcDbLine
 10
21.92002628756902
 20
17.74604357007558
 30
0.0
 11
21.92002628756902
 21
11.86604357007559
 31
0.0
  0
LINE
  5
A6
330
2
100
AcDbEntity
  8
GAIKEI
  6
Continuous
 62
     1
100
AcDbLine
 10
22.22002628756897
 20
17.00604357007557
 30
0.0
 11
22.22002628756897
 21
14.20604357007562
 31
0.0
  0
LINE
  5
A7
330
2
100
AcDbEntity
  8
GAIKEI
  6
Continuous
 62
     1
100
AcDbLine
 10
-25.4093157964625
 20
2.146043570075619
 30
0.0
 11
-27.42366432638247
 21
2.146043570075619
 31
0.0
  0
LINE
  5
A8
330
2
100
AcDbEntity
  8
GAIKEI
  6
Continuous
 62
     1
100
AcDbLine
 10
23.71610323910906
 20
17.40604357007561
 30
0.0
 11
23.71610323910906
 21
15.80604357007558
 31
0.0
  0
LINE
  5
A9
330
2
100
AcDbEntity
  8
GAIKEI
  6
Continuous
100
AcDbLine
 10
23.82002628756899
 20
17.40604357007561
 30
0.0
 11
23.82002628756899
 21
15.80604357007558
 31
0.0
  0
LINE
  5
AA
330
2
100
AcDbEntity
  8
GAIKEI
  6
Continuous
100
AcDbLine
 10
23.82002628756899
 20
19.6065939230956
 30
0.0
 11
23.82002628756899
 21
19.54736008849556
 31
0.0
  0
LINE
  5
AB
330
2
100
AcDbEntity
  8
GAIKEI
  6
Continuous
100
AcDbLine
 10
23.82002628756899
 20
8.487476789055619
 30
0.0
 11
23.82002628756899
 21
2.166043570075601
 31
0.0
  0
LINE
  5
AC
330
2
100
AcDbEntity
  8
GAIKEI
  6
Continuous
100
AcDbLine
 10
23.82002628756899
 20
10.00549321703562
 30
0.0
 11
23.82002628756899
 21
9.002544139635574
 31
0.0
  0
ARC
  5
AD
330
2
100
AcDbEntity
  8
GAIKEI
  6
Continuous
 62
     1
100
AcDbCircle
 10
-26.41649006142248
 20
14.80604357007559
 30
0.0
 40
12.35999999999999
100
AcDbArc
 50
87.70019390859983
 51
92.29980609140017
  0
ARC
  5
AE
330
2
100
AcDbEntity
  8
GAIKEI
  6
Continuous
 62
     1
100
AcDbCircle
 10
-26.91649006142248
 20
27.2560074254356
 30
0.0
 40
0.1
100
AcDbArc
 50
180.0
 51
272.2998060892456
  0
ARC
  5
AF
330
2
100
AcDbEntity
  8
GAIKEI
  6
Continuous
 62
     1
100
AcDbCircle
 10
-25.91649006142248
 20
27.2560074254356
 30
0.0
 40
0.0999999999907918
100
AcDbArc
 50
267.7001939107544
 51
0.0
  0
ARC
  5
B0
330
2
100
AcDbEntity
  8
GAIKEI
  6
Continuous
 62
     1
100
AcDbCircle
 10
-26.41649006142248
 20
14.80604357007559
 30
0.0
 40
12.86000000000944
100
AcDbArc
 50
333.1739700113437
 51
337.6741797934816
  0
ARC
  5
B1
330
2
100
AcDbEntity
  8
GAIKEI
  6
Continuous
 62
     1
100
AcDbCircle
 10
-26.41649006142248
 20
14.80604357007559
 30
0.0
 40
12.69999999999991
100
AcDbArc
 50
27.19166004689995
 51
85.45137829528258
  0
ARC
  5
B2
330
2
100
AcDbEntity
  8
GAIKEI
  6
Continuous
 62
     1
100
AcDbCircle
 10
-26.41649006142248
 20
14.80604357007559
 30
0.0
 40
12.70000000000011
100
AcDbArc
 50
337.7078951979003
 51
22.29210480209965
  0
ARC
  5
B3
330
2
100
AcDbEntity
  8
GAIKEI
  6
Continuous
 62
     1
100
AcDbCircle
 10
-26.41649006142248
 20
14.80604357007559
 30
0.0
 40
12.6999999999999
100
AcDbArc
 50
274.5486217047174
 51
332.8083399531001
  0
ARC
  5
B4
330
2
100
AcDbEntity
  8
GAIKEI
  6
Continuous
 62
     1
100
AcDbCircle
 10
-26.41649006142248
 20
14.80604357007559
 30
0.0
 40
12.86000000000197
100
AcDbArc
 50
22.32582020643646
 51
26.82602998857689
  0
ARC
  5
B5
330
2
100
AcDbEntity
  8
GAIKEI
  6
Continuous
 62
     1
100
AcDbCircle
 10
-26.41649006142248
 20
14.80604357007559
 30
0.0
 40
12.69999999999991
100
AcDbArc
 50
207.1916600469
 51
265.4513782952825
  0
ARC
  5
B6
330
2
100
AcDbEntity
  8
GAIKEI
  6
Continuous
 62
     1
100
AcDbCircle
 10
-26.41649006142248
 20
14.80604357007559
 30
0.0
 40
12.86000000000957
100
AcDbArc
 50
202.3258202065184
 51
206.8260299886972
  0
ARC
  5
B7
330
2
100
AcDbEntity
  8
GAIKEI
  6
Continuous
 62
     1
100
AcDbCircle
 10
-26.41649006142248
 20
14.80604357007559
 30
0.0
 40
12.69999999999991
100
AcDbArc
 50
94.54862170471741
 51
152.8083399531
  0
ARC
  5
B8
330
2
100
AcDbEntity
  8
GAIKEI
  6
Continuous
 62
     1
100
AcDbCircle
 10
-26.41649006142248
 20
14.80604357007559
 30
0.0
 40
12.70000000000011
100
AcDbArc
 50
157.7078951979003
 51
202.2921048020996
  0
ARC
  5
B9
330
2
100
AcDbEntity
  8
GAIKEI
  6
Continuous
 62
     1
100
AcDbCircle
 10
-26.41649006142248
 20
14.80604357007559
 30
0.0
 40
12.85999999998257
100
AcDbArc
 50
153.1739700113821
 51
157.6741797935635
  0
ARC
  5
BA
330
2
100
AcDbEntity
  8
GAIKEI
  6
Continuous
 62
     1
100
AcDbCircle
 10
-26.41649006142248
 20
14.80604357007559
 30
0.0
 40
12.46000000000009
100
AcDbArc
 50
92.75964504229797
 51
87.24035495770202
  0
ARC
  5
BB
330
2
100
AcDbEntity
  8
GAIKEI
  6
Continuous
 62
     1
100
AcDbCircle
 10
-26.41649006142248
 20
14.80604357007559
 30
0.0
 40
12.64000000000004
100
AcDbArc
 50
160.3604593330008
 51
168.1297428884995
  0
ARC
  5
BC
330
2
100
AcDbEntity
  8
GAIKEI
  6
Continuous
 62
     1
100
AcDbCircle
 10
-26.41649006142248
 20
14.80604357007559
 30
0.0
 40
12.64000000000004
100
AcDbArc
 50
340.3604593330009
 51
348.1297428884996
  0
ARC
  5
BD
330
2
100
AcDbEntity
  8
GAIKEI
  6
Continuous
 62
     1
100
AcDbCircle
 10
-26.41649006142248
 20
14.80604357007559
 30
0.0
 40
12.52000000000011
100
AcDbArc
 50
152.3843361548007
 51
157.7468562405997
  0
ARC
  5
BE
330
2
100
AcDbEntity
  8
GAIKEI
  6
Continuous
 62
     1
100
AcDbCircle
 10
-26.41649006142248
 20
14.80604357007559
 30
0.0
 40
12.51999999999177
100
AcDbArc
 50
92.74685624055335
 51
149.959526719099
  0
ARC
  5
BF
330
2
100
AcDbEntity
  8
GAIKEI
  6
Continuous
 62
     1
100
AcDbCircle
 10
-26.41649006142248
 20
14.80604357007559
 30
0.0
 40
12.64000000000006
100
AcDbArc
 50
184.5376358905997
 51
199.6395406669991
  0
ARC
  5
C0
330
2
100
AcDbEntity
  8
GAIKEI
  6
Continuous
 62
     1
100
AcDbCircle
 10
-26.41649006142248
 20
14.80604357007559
 30
0.0
 40
12.63999999999995
100
AcDbArc
 50
209.9924986216995
 51
330.0075013783004
  0
ARC
  5
C1
330
2
100
AcDbEntity
  8
GAIKEI
  6
Continuous
 62
     1
100
AcDbCircle
 10
-26.41649006142248
 20
14.80604357007559
 30
0.0
 40
12.51999999999992
100
AcDbArc
 50
30.04047328090103
 51
87.25314375944664
  0
ARC
  5
C2
330
2
100
AcDbEntity
  8
GAIKEI
  6
Continuous
 62
     1
100
AcDbCircle
 10
-26.41649006142248
 20
14.80604357007559
 30
0.0
 40
12.51999999999999
100
AcDbArc
 50
22.25314375939973
 51
27.61566384519929
  0
ARC
  5
C3
330
2
100
AcDbEntity
  8
GAIKEI
  6
Continuous
 62
     1
100
AcDbCircle
 10
-26.41649006142248
 20
14.80604357007559
 30
0.0
 40
12.52
100
AcDbArc
 50
4.581220085300231
 51
19.83563531740059
  0
ARC
  5
C4
330
2
100
AcDbEntity
  8
GAIKEI
  6
Continuous
 62
     1
100
AcDbCircle
 10
-26.41649006142248
 20
14.80604357007559
 30
0.0
 40
12.51999999999998
100
AcDbArc
 50
202.2531437593995
 51
207.6156638451993
  0
ARC
  5
C5
330
2
100
AcDbEntity
  8
GAIKEI
  6
Continuous
100
AcDbCircle
 10
-26.41649006142248
 20
14.80604357007559
 30
0.0
 40
12.63999999999996
100
AcDbArc
 50
29.99249862169943
 51
150.0075013783005
  0
ARC
  5
C6
330
2
100
AcDbEntity
  8
GAIKEI
  6
Continuous
 62
     1
100
AcDbCircle
 10
-26.41649006142248
 20
14.80604357007559
 30
0.0
 40
12.51999999999997
100
AcDbArc
 50
340.1643646825994
 51
348.0142897262999
  0
ARC
  5
C7
330
2
100
AcDbEntity
  8
GAIKEI
  6
Continuous
 62
     1
100
AcDbCircle
 10
-26.41649006142248
 20
14.80604357007559
 30
0.0
 40
12.51999999999992
100
AcDbArc
 50
210.040473280901
 51
329.959526719099
  0
ARC
  5
C8
330
2
100
AcDbEntity
  8
GAIKEI
  6
Continuous
 62
     1
100
AcDbCircle
 10
-26.41649006142248
 20
14.80604357007559
 30
0.0
 40
12.51999999999996
100
AcDbArc
 50
160.1643646825994
 51
168.0142897262999
  0
ARC
  5
C9
330
2
100
AcDbEntity
  8
GAIKEI
  6
Continuous
 62
     1
100
AcDbCircle
 10
-26.41649006142248
 20
14.80604357007559
 30
0.0
 40
12.52
100
AcDbArc
 50
184.5812200853002
 51
199.8356353174006
  0
ARC
  5
CA
330
2
100
AcDbEntity
  8
GAIKEI
  6
Continuous
 62
     1
100
AcDbCircle
 10
-26.41649006142248
 20
14.80604357007559
 30
0.0
 40
12.64000000000006
100
AcDbArc
 50
4.537635890599719
 51
19.63954066699914
  0
ARC
  5
CB
330
2
100
AcDbEntity
  8
GAIKEI
  6
Continuous
 62
     1
100
AcDbCircle
 10
-26.41649006142248
 20
14.80604357007559
 30
0.0
 40
12.5200000000001
100
AcDbArc
 50
332.3843361548008
 51
337.7468562406003
  0
ARC
  5
CC
330
2
100
AcDbEntity
  8
GAIKEI
  6
Continuous
100
AcDbCircle
 10
21.82002628756899
 20
27.46334780601558
 30
0.0
 40
0.0999999999832936
100
AcDbArc
 50
272.9999999865623
 51
359.9999998996162
  0
ARC
  5
CD
330
2
100
AcDbEntity
  8
GAIKEI
  6
Continuous
100
AcDbCircle
 10
21.82002628756899
 20
2.148739334115589
 30
0.0
 40
0.1
100
AcDbArc
 50
0.0000001004049715
 51
87.00000001403781
  0
ARC
  5
CE
330
2
100
AcDbEntity
  8
GAIKEI
  6
Continuous
100
AcDbCircle
 10
22.02002628756904
 20
2.006043570075576
 30
0.0
 40
0.1
100
AcDbArc
 50
180.0
 51
270.0
  0
ARC
  5
CF
330
2
100
AcDbEntity
  8
GAIKEI
  6
Continuous
100
AcDbCircle
 10
22.02002628756904
 20
27.6060435700756
 30
0.0
 40
0.1
100
AcDbArc
 50
90.0
 51
180.0
  0
ARC
  5
D0
330
2
100
AcDbEntity
  8
GAIKEI
  6
Continuous
100
AcDbCircle
 10
21.12002628756906
 20
14.80604357007559
 30
0.0
 40
12.50000000000001
100
AcDbArc
 50
180.0
 51
269.0832284094
  0
ARC
  5
D1
330
2
100
AcDbEntity
  8
GAIKEI
  6
Continuous
 62
     1
100
AcDbCircle
 10
22.62002628756906
 20
15.40604357007561
 30
0.0
 40
0.4
100
AcDbArc
 50
90.0
 51
180.0
  0
ARC
  5
D2
330
2
100
AcDbEntity
  8
GAIKEI
  6
Continuous
 62
     1
100
AcDbCircle
 10
22.62002628756906
 20
14.20604357007562
 30
0.0
 40
0.4
100
AcDbArc
 50
180.0
 51
270.0
  0
ARC
  5
D3
330
2
100
AcDbEntity
  8
GAIKEI
  6
Continuous
 62
     1
100
AcDbCircle
 10
22.62002628756906
 20
17.00604357007557
 30
0.0
 40
0.4
100
AcDbArc
 50
90.0
 51
180.0
  0
ARC
  5
D4
330
2
100
AcDbEntity
  8
GAIKEI
  6
Continuous
100
AcDbCircle
 10
21.12002628756906
 20
14.80604357007559
 30
0.0
 40
12.49999999999999
100
AcDbArc
 50
90.91677159060003
 51
180.0
  0
CIRCLE
  5
D5
330
2
100
AcDbEntity
  8
GAIKEI
  6
Continuous
100
AcDbCircle
 10
-26.41649006142248
 20
14.80604357007559
 30
0.0
 40
12.9
  0
CIRCLE
  5
D6
330
2
100
AcDbEntity
  8
GAIKEI
  6
Continuous
 62
     1
100
AcDbCircle
 10
-26.41649006142248
 20
14.80604357007559
 30
0.0
 40
12.2519049234
  0
CIRCLE
  5
D7
330
2
100
AcDbEntity
  8
GAIKEI
  6
Continuous
 62
     1
100
AcDbCircle
 10
-26.41649006142248
 20
14.80604357007559
 30
0.0
 40
12.19836054558
  0
CIRCLE
  5
D8
330
2
100
AcDbEntity
  8
GAIKEI
  6
Continuous
 62
     1
100
AcDbCircle
 10
-26.41649006142248
 20
14.80604357007559
 30
0.0
 40
12.21
  0
SPLINE
  5
D9
330
2
100
AcDbEntity
  8
GAIKEI
  6
Continuous
 62
     1
100
AcDbSpline
210
0.0
220
0.0
230
1.0
 70
     8
 71
     3
 72
     9
 73
     5
 74
     3
 42
0.0000000001
 43
0.0000000001
 44
0.00000001
 40
0.0
 40
0.0
 40
0.0
 40
0.0
 40
0.0534894170872677
 40
0.1069788341746164
 40
0.1069788341746164
 40
0.1069788341746164
 40
0.1069788341746164
 10
23.82002628756899
 20
10.06472705147564
 30
0.0
 10
23.80270577723161
 20
10.06895811432105
 30
0.0
 10
23.76806475881762
 20
10.07742024926642
 30
0.0
 10
23.73342374492501
 20
10.08588240272098
 30
0.0
 10
23.71610323910906
 20
10.09011348407563
 30
0.0
 11
23.82002628756899
 21
10.06472705147564
 31
0.0
 11
23.76806475881764
 21
10.07742024926642
 31
0.0
 11
23.71610323910906
 21
10.09011348407563
 31
0.0
  0
SPLINE
  5
DA
330
2
100
AcDbEntity
  8
GAIKEI
  6
Continuous
 62
     1
100
AcDbSpline
210
0.0
220
0.0
230
1.0
 70
     8
 71
     3
 72
     9
 73
     5
 74
     3
 42
0.0000000001
 43
0.0000000001
 44
0.00000001
 40
0.0
 40
0.0
 40
0.0
 40
0.0
 40
0.0534894170682947
 40
0.1069788341366445
 40
0.1069788341366445
 40
0.1069788341366445
 40
0.1069788341366445
 10
23.82002628756899
 20
19.54736008849562
 30
0.0
 10
23.8027057772197
 20
19.54312902572565
 30
0.0
 10
23.7680647587938
 20
19.53466689088248
 30
0.0
 10
23.73342374491307
 20
19.52620473743229
 30
0.0
 10
23.71610323910906
 20
19.52197365605565
 30
0.0
 11
23.82002628756899
 21
19.54736008849562
 31
0.0
 11
23.76806475879377
 21
19.53466689088242
 31
0.0
 11
23.71610323910906
 21
19.52197365605565
 31
0.0
  0
SPLINE
  5
DB
330
2
100
AcDbEntity
  8
GAIKEI
  6
Continuous
 62
     1
100
AcDbSpline
210
0.0
220
0.0
230
1.0
 70
     8
 71
     3
 72
     9
 73
     5
 74
     3
 42
0.0000000001
 43
0.0000000001
 44
0.00000001
 40
0.0
 40
0.0
 40
0.0
 40
0.0
 40
0.0534976834783546
 40
0.1069953669568567
 40
0.1069953669568567
 40
0.1069953669568567
 40
0.1069953669568567
 10
23.82002628756899
 20
21.07370116049566
 30
0.0
 10
23.802705765685
 20
21.06945854819014
 30
0.0
 10
23.76806472667536
 20
21.06097330415355
 30
0.0
 10
23.7334237333784
 20
21.05248787349683
 30
0.0
 10
23.71610323910906
 20
21.04824514845564
 30
0.0
 11
23.82002628756899
 21
21.07370116049566
 31
0.0
 11
23.76806473572444
 21
21.06097326721135
 31
0.0
 11
23.71610323910906
 21
21.04824514845564
 31
0.0
  0
SPLINE
  5
DC
330
2
100
AcDbEntity
  8
GAIKEI
  6
Continuous
 62
     1
100
AcDbSpline
210
0.0
220
0.0
230
1.0
 70
     8
 71
     3
 72
     9
 73
     5
 74
     3
 42
0.0000000001
 43
0.0000000001
 44
0.00000001
 40
0.0
 40
0.0
 40
0.0
 40
0.0
 40
0.0534976834784267
 40
0.1069953669568566
 40
0.1069953669568566
 40
0.1069953669568566
 40
0.1069953669568566
 10
23.71610323910906
 20
8.563841991675644
 30
0.0
 10
23.73342373338096
 20
8.559599266645022
 30
0.0
 10
23.76806472668312
 20
8.551113836009506
 30
0.0
 10
23.80270576568759
 20
8.542628591951711
 30
0.0
 10
23.82002628756899
 20
8.53838597963562
 30
0.0
 11
23.71610323910906
 21
8.563841991675644
 31
0.0
 11
23.76806473572955
 21
8.55111387294113
 31
0.0
 11
23.82002628756899
 21
8.53838597963562
 31
0.0
  0
SPLINE
  5
DD
330
2
100
AcDbEntity
  8
GAIKEI
  6
Continuous
 62
     1
100
AcDbSpline
210
0.0
220
0.0
230
1.0
 70
     8
 71
     3
 72
     9
 73
     5
 74
     3
 42
0.0000000001
 43
0.0000000001
 44
0.00000001
 40
0.0
 40
0.0
 40
0.0
 40
0.0
 40
0.0534973496387426
 40
0.1069946992776124
 40
0.1069946992776124
 40
0.1069946992776124
 40
0.1069946992776124
 10
23.82002628756899
 20
21.12461035107566
 30
0.0
 10
23.80270579271257
 20
21.12885260597574
 30
0.0
 10
23.7680647982418
 20
21.13733709635017
 30
0.0
 10
23.73342376040586
 20
21.145821409669
 30
0.0
 10
23.71610323910906
 20
21.15006355661563
 30
0.0
 11
23.82002628756899
 21
21.12461035107566
 31
0.0
 11
23.76806478977946
 21
21.13733706179914
 31
0.0
 11
23.71610323910906
 21
21.15006355661563
 31
0.0
  0
SPLINE
  5
DE
330
2
100
AcDbEntity
  8
GAIKEI
  6
Continuous
 62
     1
100
AcDbSpline
210
0.0
220
0.0
230
1.0
 70
     8
 71
     3
 72
     9
 73
     5
 74
     3
 42
0.0000000001
 43
0.0000000001
 44
0.00000001
 40
0.0
 40
0.0
 40
0.0
 40
0.0
 40
0.0534973496363652
 40
0.1069946992728525
 40
0.1069946992728525
 40
0.1069946992728525
 40
0.1069946992728525
 10
23.82002628756899
 20
8.487476789055619
 30
0.0
 10
23.80270579271385
 20
8.483234534153496
 30
0.0
 10
23.76806479824569
 20
8.474750043775088
 30
0.0
 10
23.73342376040725
 20
8.466265730473594
 30
0.0
 10
23.71610323910906
 20
8.462023583535653
 30
0.0
 11
23.82002628756899
 21
8.487476789055619
 31
0.0
 11
23.76806478978207
 21
8.474750078331453
 31
0.0
 11
23.71610323910906
 21
8.462023583535653
 31
0.0
  0
SPLINE
  5
DF
330
2
100
AcDbEntity
  8
GAIKEI
  6
Continuous
 62
     1
100
AcDbSpline
210
0.0
220
0.0
230
1.0
 70
     8
 71
     3
 72
    21
 73
    17
 74
    15
 42
0.0000000001
 43
0.0000000001
 44
0.00000001
 40
0.0
 40
0.0
 40
0.0
 40
0.0
 40
0.0342523672448087
 40
0.0685045002592083
 40
0.0845737883821091
 40
0.1006429291461435
 40
0.1155513814042602
 40
0.1304595302059025
 40
0.1439863526470547
 40
0.1575131432936668
 40
0.1692056044586077
 40
0.1808945626178358
 40
0.1908298389735371
 40
0.2007733565185671
 40
0.2167059229720692
 40
0.2326034169978783
 40
0.2326034169978783
 40
0.2326034169978783
 40
0.2326034169978783
 10
23.62002628756906
 20
9.920875960095656
 30
0.0
 10
23.63144600433009
 20
9.921112709092085
 30
0.0
 10
23.65428535975766
 20
9.921586204610321
 30
0.0
 10
23.68233629653793
 20
9.924829086494185
 30
0.0
 10
23.70414496812248
 20
9.928603477161175
 30
0.0
 10
23.71947094553172
 20
9.93195637162762
 30
0.0
 10
23.73425401095517
 20
9.93590211273198
 30
0.0
 10
23.74801307409797
 20
9.940332891996263
 30
0.0
 10
23.76107959338168
 20
9.945345084633743
 30
0.0
 10
23.77282864819751
 20
9.950732565100736
 30
0.0
 10
23.78363610620312
 20
9.956636412855289
 30
0.0
 10
23.79291799742293
 20
9.962752628803571
 30
0.0
 10
23.80116670756746
 20
9.969337143565667
 30
0.0
 10
23.80950899200258
 20
9.977838352209971
 30
0.0
 10
23.81784823595333
 20
9.989511718916446
 30
0.0
 10
23.81930080769993
 20
10.00016996417753
 30
0.0
 10
23.82002628756899
 20
10.00549321703562
 30
0.0
 11
23.62002628756906
 21
9.920875960095656
 31
0.0
 11
23.65425588125114
 21
9.922124517524082
 31
0.0
 11
23.68829284284911
 21
9.925957777155645
 31
0.0
 11
23.70412306517093
 21
9.928719313501972
 31
0.0
 11
23.71981912910914
 21
9.932161821495697
 31
0.0
 11
23.7342188527135
 21
9.936023156402598
 31
0.0
 11
23.74840425432907
 21
9.940608707495584
 31
0.0
 11
23.76102441082864
 21
9.945477646962558
 31
0.0
 11
23.77330932156903
 21
9.951139362935634
 31
0.0
 11
23.78355395213586
 21
9.956775069318325
 31
0.0
 11
23.79329728444904
 21
9.963232561775669
 31
0.0
 11
23.80102376509669
 21
9.969478456576837
 31
0.0
 11
23.80798650752908
 21
9.976577311395658
 31
0.0
 11
23.81662712525232
 21
9.989963365345545
 31
0.0
 11
23.82002628756899
 21
10.00549321703562
 31
0.0
  0
SPLINE
  5
E0
330
2
100
AcDbEntity
  8
GAIKEI
  6
Continuous
 62
     1
100
AcDbSpline
210
0.0
220
0.0
230
1.0
 70
     8
 71
     3
 72
    21
 73
    17
 74
    15
 42
0.0000000001
 43
0.0000000001
 44
0.00000001
 40
0.0
 40
0.0
 40
0.0
 40
0.0
 40
0.0158951431159086
 40
0.03182524585804
 40
0.0417674375326001
 40
0.0517014086067777
 40
0.0633906365564056
 40
0.07508336647515
 40
0.0886096931477511
 40
0.1021360505227239
 40
0.1170427073183679
 40
0.1319496674458886
 40
0.1480198347775505
 40
0.1640901511453838
 40
0.1983466974506118
 40
0.2326034733566038
 40
0.2326034733566038
 40
0.2326034733566038
 40
0.2326034733566038
 10
23.82002628756899
 20
19.60659392309566
 30
0.0
 10
23.81930103631404
 20
19.61191638851324
 30
0.0
 10
23.81784892721118
 20
19.62257302112209
 30
0.0
 10
23.80951181536645
 20
19.63424522585251
 30
0.0
 10
23.80117130189694
 20
19.64274581689437
 30
0.0
 10
23.792923669451
 20
19.64933041155592
 30
0.0
 10
23.78364233743952
 20
19.65544702444356
 30
0.0
 10
23.77283511135804
 20
19.66135135440061
 30
0.0
 10
23.76108645308031
 20
19.6667391742414
 30
0.0
 10
23.74802084989594
 20
19.67175150333497
 30
0.0
 10
23.7342630208031
 20
19.67618236119642
 30
0.0
 10
23.71948071275307
 20
19.6801284074441
 30
0.0
 10
23.70415464767058
 20
19.68348178768036
 30
0.0
 10
23.68234394017045
 20
19.68725706198728
 30
0.0
 10
23.65428977259398
 20
19.69050075643434
 30
0.0
 10
23.63144747476099
 20
19.69097437135406
 30
0.0
 10
23.62002628756906
 20
19.69121118003562
 30
0.0
 11
23.82002628756899
 21
19.60659392309566
 31
0.0
 11
23.81662809943597
 21
19.62212158144228
 31
0.0
 11
23.80798968836913
 21
19.63550612733559
 31
0.0
 11
23.80102837474871
 21
19.64260452636102
 31
0.0
 11
23.79330334012897
 21
19.64885013363567
 31
0.0
 11
23.78356016068355
 21
19.65530834506796
 31
0.0
 11
23.77331554472911
 21
19.66094463557567
 31
0.0
 11
23.76103126396353
 21
19.66660660994751
 31
0.0
 11
23.74841170078898
 21
19.67147579523572
 31
0.0
 11
23.73422786270348
 21
19.6760613324036
 31
0.0
 11
23.71982970410906
 21
19.67992274247569
 31
0.0
 11
23.70413273827862
 21
19.68336593014561
 31
0.0
 11
23.68830156912904
 21
19.6861280221957
 31
0.0
 11
23.6542602811073
 21
19.68996230084644
 31
0.0
 11
23.62002628756906
 21
19.69121118003562
 31
0.0
  0
TEXT
  5
E1
330
2
100
AcDbEntity
  8
TOUROKU
100
AcDbText
 10
47.30253840458768
 20
46.71020927792437
 30
0.0
 40
2.0
  1
ＷＶＣＳ４Ｓ
 72
     2
 11
60.90253840458768
 21
46.71020927792437
 31
0.0
100
AcDbText
  0
TEXT
  5
E3
330
2
100
AcDbEntity
  8
MOJI1
100
AcDbText
 10
-37.09741162833962
 20
52.71020927792432
 30
0.0
 40
4.0
  1
スモークカバー
100
AcDbText
  0
TEXT
  5
E5
330
2
100
AcDbEntity
  8
MOJI1
100
AcDbText
 10
-22.09745451625019
 20
-25.22145410021756
 30
0.0
 40
3.0
  1
ＷＶ－ＣＳ５８０用
100
AcDbText
  0
TEXT
  5
E6
330
2
100
AcDbEntity
  8
MOJI1
100
AcDbText
 10
-61.52921598018713
 20
-25.24959868892768
 30
0.0
 40
3.0
  1
適合機器
100
AcDbText
  0
LINE
  5
E7
330
2
100
AcDbEntity
  8
WAKU
 62
     1
100
AcDbLine
 10
-64.02921598018713
 20
-36.23710632710726
 30
0.0
 11
60.97078401981275
 21
-36.23710632710726
 31
0.0
  0
LINE
  5
E9
330
2
100
AcDbEntity
  8
WAKU
 62
     1
100
AcDbLine
 10
60.97078401981275
 20
-41.23710632710725
 30
0.0
 11
-64.02921598018713
 21
-41.23710632710725
 31
0.0
  0
LINE
  5
EA
330
2
100
AcDbEntity
  8
WAKU
 62
     1
100
AcDbLine
 10
-64.02921598018713
 20
-31.23710632710726
 30
0.0
 11
60.97078401981275
 21
-31.23710632710726
 31
0.0
  0
LINE
  5
EB
330
2
100
AcDbEntity
  8
WAKU
 62
     1
100
AcDbLine
 10
-64.02921598018713
 20
-26.23710632710726
 30
0.0
 11
60.97078401981275
 21
-26.23710632710726
 31
0.0
  0
LINE
  5
EC
330
2
100
AcDbEntity
  8
WAKU
 62
     4
100
AcDbLine
 10
-64.02921598018713
 20
-21.23710632710726
 30
0.0
 11
60.97078401981275
 21
-21.23710632710726
 31
0.0
  0
LINE
  5
ED
330
2
100
AcDbEntity
  8
WAKU
 62
     4
100
AcDbLine
 10
-64.02921598018713
 20
-21.23710632710726
 30
0.0
 11
-64.02921598018713
 21
-56.23710632710725
 31
0.0
  0
LINE
  5
EE
330
2
100
AcDbEntity
  8
WAKU
 62
     4
100
AcDbLine
 10
-24.02921598018716
 20
-21.23710632710726
 30
0.0
 11
-24.02921598018713
 21
-56.23710632710725
 31
0.0
  0
LINE
  5
EF
330
2
100
AcDbEntity
  8
WAKU
 62
     4
100
AcDbLine
 10
60.97078401981275
 20
-21.23710632710726
 30
0.0
 11
60.97078401981275
 21
-56.23710632710725
 31
0.0
  0
LINE
  5
F0
330
2
100
AcDbEntity
  8
WAKU
 62
     1
100
AcDbLine
 10
60.97078401981275
 20
-46.23710632710725
 30
0.0
 11
-64.02921598018713
 21
-46.23710632710725
 31
0.0
  0
LINE
  5
F1
330
2
100
AcDbEntity
  8
WAKU
 62
     1
100
AcDbLine
 10
60.97078401981275
 20
-51.23710632710725
 30
0.0
 11
-64.02921598018713
 21
-51.23710632710725
 31
0.0
  0
LINE
  5
F2
330
2
100
AcDbEntity
  8
WAKU
 62
     4
100
AcDbLine
 10
60.97078401981275
 20
-56.23710632710725
 30
0.0
 11
-64.02921598018713
 21
-56.23710632710725
 31
0.0
  0
ENDSEC
  0
SECTION
  2
OBJECTS
  0
DICTIONARY
  5
9
330
0
100
AcDbDictionary
281
     1
  3
ACAD_COLOR
350
32
  3
ACAD_GROUP
350
2E
  3
ACAD_LAYOUT
350
D
  3
ACAD_MATERIAL
350
31
  3
ACAD_MLINESTYLE
350
2F
  3
ACAD_PLOTSETTINGS
350
30
  3
ACAD_PLOTSTYLENAME
350
8
  3
ACDBHEADERROUNDTRIPXREC
350
131
  3
AcDbVariableDictionary
350
12C
  0
DICTIONARY
  5
15
330
14
100
AcDbDictionary
280
     1
281
     1
  3
ACAD_LAYERFILTERS
360
16
  3
ACAD_LAYERSTATES
360
18
  0
DICTIONARY
  5
3
330
2
100
AcDbDictionary
280
     1
281
     1
  3
ACAD_LAYOUTSELFREF
360
4
  0
DICTIONARY
  5
F
330
E
100
AcDbDictionary
280
     1
281
     1
  3
ACAD_LAYOUTSELFREF
360
10
  0
DICTIONARY
  5
32
102
{ACAD_REACTORS
330
9
102
}
330
9
100
AcDbDictionary
281
     1
  0
DICTIONARY
  5
2E
102
{ACAD_REACTORS
330
9
102
}
330
9
100
AcDbDictionary
281
     1
  0
DICTIONARY
  5
D
102
{ACAD_REACTORS
330
9
102
}
330
9
100
AcDbDictionary
281
     1
  3
Model
350
C
  3
ﾚｲｱｳﾄ1
350
13
  0
DICTIONARY
  5
31
102
{ACAD_REACTORS
330
9
102
}
330
9
100
AcDbDictionary
281
     1
  0
DICTIONARY
  5
2F
102
{ACAD_REACTORS
330
9
102
}
330
9
100
AcDbDictionary
281
     1
  3
STANDARD
350
34
  0
DICTIONARY
  5
30
102
{ACAD_REACTORS
330
9
102
}
330
9
100
AcDbDictionary
281
     1
  0
ACDBDICTIONARYWDFLT
  5
8
102
{ACAD_REACTORS
330
9
102
}
330
9
100
AcDbDictionary
281
     1
  3
Normal
350
7
100
AcDbDictionaryWithDefault
340
7
  0
DICTIONARY
  5
131
102
{ACAD_REACTORS
330
9
102
}
330
9
100
AcDbDictionary
281
     1
  3
COLORDICT
350
133
  3
MATERIALDICT
350
132
  0
DICTIONARY
  5
12C
102
{ACAD_REACTORS
330
9
102
}
330
9
100
AcDbDictionary
281
     1
  3
DIMASSOC
350
12E
  3
HIDETEXT
350
12D
  3
PROJECTNAME
350
12F
  0
DICTIONARY
  5
16
102
{ACAD_REACTORS
330
15
102
}
330
15
100
AcDbDictionary
280
     1
281
     1
  3
ロック画層
360
17
  0
DICTIONARY
  5
18
102
{ACAD_REACTORS
330
15
102
}
330
15
100
AcDbDictionary
281
     1
  0
XRECORD
  5
4
102
{ACAD_REACTORS
330
3
102
}
330
3
100
AcDbXrecord
280
     1
340
2
  0
XRECORD
  5
10
102
{ACAD_REACTORS
330
F
102
}
330
F
100
AcDbXrecord
280
     1
340
E
  0
LAYOUT
  5
C
102
{ACAD_XDICTIONARY
360
134
102
}
102
{ACAD_REACTORS
330
D
102
}
330
D
100
AcDbPlotSettings
  1

  2
\\MARS\NX800A(RPDL)
  4
A4
  6

 40
5.831416606903076
 41
4.942422866821289
 42
7.609405517578125
 43
5.789093017578125
 44
209.9733276367187
 45
296.9683227539062
 46
4.23
 47
0.0
 48
0.0
 49
0.0
140
0.0
141
0.0
142
1.0
143
1.377557041813
 70
 11956
 72
     1
 73
     0
 74
     1
  7
tmsacad.ctb
 75
     0
147
0.7259227528494222
148
0.5228791232484547
149
0.0333900090324306
100
AcDbLayout
  1
Model
 70
     1
 71
     0
 10
0.0
 20
0.0
 11
12.0
 21
9.0
 12
0.0
 22
0.0
 32
0.0
 14
0.0
 24
0.0
 34
0.0
 15
0.0
 25
0.0
 35
0.0
146
0.0
 13
0.0
 23
0.0
 33
0.0
 16
1.0
 26
0.0
 36
0.0
 17
0.0
 27
1.0
 37
0.0
 76
     0
330
2
  0
LAYOUT
  5
13
102
{ACAD_XDICTIONARY
360
136
102
}
102
{ACAD_REACTORS
330
D
102
}
330
D
100
AcDbPlotSettings
  1

  2
C:\Program Files\ACAD2000\plotters\DWF ePlot.pc3
  4

  6

 40
0.0
 41
0.0
 42
0.0
 43
0.0
 44
0.0
 45
0.0
 46
0.0
 47
0.0
 48
0.0
 49
0.0
140
0.0
141
0.0
142
1.0
143
1.0
 70
   688
 72
     0
 73
     0
 74
     5
  7
tmsacad.ctb
 75
    16
147
1.0
148
0.0
149
0.0
100
AcDbLayout
  1
ﾚｲｱｳﾄ1
 70
     1
 71
     1
 10
0.0
 20
0.0
 11
12.0
 21
9.0
 12
0.0
 22
0.0
 32
0.0
 14
1.000000000000000E+20
 24
1.000000000000000E+20
 34
1.000000000000000E+20
 15
-1.000000000000000E+20
 25
-1.000000000000000E+20
 35
-1.000000000000000E+20
146
0.0
 13
0.0
 23
0.0
 33
0.0
 16
1.0
 26
0.0
 36
0.0
 17
0.0
 27
1.0
 37
0.0
 76
     0
330
E
  0
MLINESTYLE
  5
34
102
{ACAD_REACTORS
330
2F
102
}
330
2F
100
AcDbMlineStyle
  2
STANDARD
 70
     0
  3

 62
   256
 51
90.0
 52
90.0
 71
     2
 49
0.5
 62
   256
  6
BYLAYER
 49
-0.5
 62
   256
  6
BYLAYER
  0
ACDBPLACEHOLDER
  5
7
102
{ACAD_REACTORS
330
8
102
}
330
8
  0
XRECORD
  5
133
102
{ACAD_REACTORS
330
131
102
}
330
131
100
AcDbXrecord
280
     1
340
32
  0
XRECORD
  5
132
102
{ACAD_REACTORS
330
131
102
}
330
131
100
AcDbXrecord
280
     1
340
31
  0
DICTIONARYVAR
  5
12E
102
{ACAD_REACTORS
330
12C
102
}
330
12C
100
DictionaryVariables
280
     0
  1
1
  0
DICTIONARYVAR
  5
12D
102
{ACAD_REACTORS
330
12C
102
}
330
12C
100
DictionaryVariables
280
     0
  1
1
  0
DICTIONARYVAR
  5
12F
102
{ACAD_REACTORS
330
12C
102
}
330
12C
100
DictionaryVariables
280
     0
  1

  0
XRECORD
  5
17
102
{ACAD_REACTORS
330
16
102
}
330
16
100
AcDbXrecord
280
     1
  1
ロック画層
  1
*
  1
*
  1
*
 70
   256
  1
*
  1
*
  0
DICTIONARY
  5
134
330
C
100
AcDbDictionary
280
     1
281
     1
  3
ACAD_XREC_ROUNDTRIP
360
135
  0
DICTIONARY
  5
136
330
13
100
AcDbDictionary
280
     1
281
     1
  3
ACAD_XREC_ROUNDTRIP
360
137
  0
XRECORD
  5
135
102
{ACAD_REACTORS
330
134
102
}
330
134
100
AcDbXrecord
280
     1
102
SHADEPLOT
 70
     0
102
SHADEPLOTRESLEVEL
 70
     2
102
SHADEPLOTCUSTOMDPI
 70
   300
  0
XRECORD
  5
137
102
{ACAD_REACTORS
330
136
102
}
330
136
100
AcDbXrecord
280
     1
102
SHADEPLOT
 70
     0
102
SHADEPLOTRESLEVEL
 70
     2
102
SHADEPLOTCUSTOMDPI
 70
   300
  0
ENDSEC
  0
EOF
