  0
SECTION
  2
HEADER
  9
$ACADVER
  1
AC1015
  9
$ACADMAINTVER
 70
    20
  9
$DWGCODEPAGE
  3
ANSI_932
  9
$INSBASE
 10
0.0
 20
246.4992141396417
 30
0.0
  9
$EXTMIN
 10
-63.28730460164251
 20
-61.66911403559788
 30
-0.0000000349181948
  9
$EXTMAX
 10
62.18910735113559
 20
51.41867963193544
 30
0.0000000814935747
  9
$LIMMIN
 10
-1101.784450318844
 20
-1579.160531687244
  9
$LIMMAX
 10
-508.2420711400536
 20
-1161.440814074914
  9
$ORTHOMODE
 70
     0
  9
$REGENMODE
 70
     1
  9
$FILLMODE
 70
     1
  9
$QTEXTMODE
 70
     0
  9
$MIRRTEXT
 70
     1
  9
$LTSCALE
 40
1.0
  9
$ATTMODE
 70
     1
  9
$TEXTSIZE
 40
2.5
  9
$TRACEWID
 40
0.5
  9
$TEXTSTYLE
  7
STANDARD
  9
$CLAYER
  8
0
  9
$CELTYPE
  6
BYLAYER
  9
$CECOLOR
 62
   256
  9
$CELTSCALE
 40
1.0
  9
$DISPSILH
 70
     0
  9
$DIMSCALE
 40
1.0
  9
$DIMASZ
 40
2.0
  9
$DIMEXO
 40
2.0
  9
$DIMDLI
 40
8.0
  9
$DIMRND
 40
0.0
  9
$DIMDLE
 40
0.0
  9
$DIMEXE
 40
2.0
  9
$DIMTP
 40
0.0
  9
$DIMTM
 40
0.0
  9
$DIMTXT
 40
2.5
  9
$DIMCEN
 40
0.0
  9
$DIMTSZ
 40
0.0
  9
$DIMTOL
 70
     0
  9
$DIMLIM
 70
     0
  9
$DIMTIH
 70
     0
  9
$DIMTOH
 70
     0
  9
$DIMSE1
 70
     0
  9
$DIMSE2
 70
     0
  9
$DIMTAD
 70
     3
  9
$DIMZIN
 70
     0
  9
$DIMBLK
  1

  9
$DIMASO
 70
     1
  9
$DIMSHO
 70
     1
  9
$DIMPOST
  1

  9
$DIMAPOST
  1

  9
$DIMALT
 70
     0
  9
$DIMALTD
 70
     2
  9
$DIMALTF
 40
25.4
  9
$DIMLFAC
 40
1.0
  9
$DIMTOFL
 70
     1
  9
$DIMTVP
 40
0.0
  9
$DIMTIX
 70
     0
  9
$DIMSOXD
 70
     0
  9
$DIMSAH
 70
     1
  9
$DIMBLK1
  1
OPEN30
  9
$DIMBLK2
  1
OPEN30
  9
$DIMSTYLE
  2
STANDARD
  9
$DIMCLRD
 70
     0
  9
$DIMCLRE
 70
     0
  9
$DIMCLRT
 70
     0
  9
$DIMTFAC
 40
1.0
  9
$DIMGAP
 40
0.5
  9
$DIMJUST
 70
     0
  9
$DIMSD1
 70
     0
  9
$DIMSD2
 70
     0
  9
$DIMTOLJ
 70
     1
  9
$DIMTZIN
 70
     0
  9
$DIMALTZ
 70
     0
  9
$DIMALTTZ
 70
     0
  9
$DIMUPT
 70
     0
  9
$DIMDEC
 70
     4
  9
$DIMTDEC
 70
     4
  9
$DIMALTU
 70
     2
  9
$DIMALTTD
 70
     2
  9
$DIMTXSTY
  7
STANDARD
  9
$DIMAUNIT
 70
     0
  9
$DIMADEC
 70
     0
  9
$DIMALTRND
 40
0.0
  9
$DIMAZIN
 70
     0
  9
$DIMDSEP
 70
    46
  9
$DIMATFIT
 70
     3
  9
$DIMFRAC
 70
     0
  9
$DIMLDRBLK
  1
OPEN30
  9
$DIMLUNIT
 70
     2
  9
$DIMLWD
 70
    -2
  9
$DIMLWE
 70
    -2
  9
$DIMTMOVE
 70
     0
  9
$LUNITS
 70
     2
  9
$LUPREC
 70
     4
  9
$SKETCHINC
 40
0.1
  9
$FILLETRAD
 40
0.0
  9
$AUNITS
 70
     0
  9
$AUPREC
 70
     0
  9
$MENU
  1
ACAD
  9
$ELEVATION
 40
0.0
  9
$PELEVATION
 40
0.0
  9
$THICKNESS
 40
0.0
  9
$LIMCHECK
 70
     0
  9
$CHAMFERA
 40
0.0
  9
$CHAMFERB
 40
0.0
  9
$CHAMFERC
 40
0.0
  9
$CHAMFERD
 40
0.0
  9
$SKPOLY
 70
     0
  9
$TDCREATE
 40
2451815.565532581
  9
$TDUCREATE
 40
2451815.190532581
  9
$TDUPDATE
 40
2453732.404005347
  9
$TDUUPDATE
 40
2453732.029005347
  9
$TDINDWG
 40
0.6901785880
  9
$TDUSRTIMER
 40
0.6901785880
  9
$USRTIMER
 70
     1
  9
$ANGBASE
 50
0.0
  9
$ANGDIR
 70
     0
  9
$PDMODE
 70
     0
  9
$PDSIZE
 40
0.0
  9
$PLINEWID
 40
0.0
  9
$SPLFRAME
 70
     0
  9
$SPLINETYPE
 70
     6
  9
$SPLINESEGS
 70
     8
  9
$HANDSEED
  5
270
  9
$SURFTAB1
 70
     6
  9
$SURFTAB2
 70
     6
  9
$SURFTYPE
 70
     6
  9
$SURFU
 70
     6
  9
$SURFV
 70
     6
  9
$UCSBASE
  2

  9
$UCSNAME
  2

  9
$UCSORG
 10
0.0
 20
0.0
 30
0.0
  9
$UCSXDIR
 10
1.0
 20
0.0
 30
0.0
  9
$UCSYDIR
 10
0.0
 20
1.0
 30
0.0
  9
$UCSORTHOREF
  2

  9
$UCSORTHOVIEW
 70
     0
  9
$UCSORGTOP
 10
0.0
 20
0.0
 30
0.0
  9
$UCSORGBOTTOM
 10
0.0
 20
0.0
 30
0.0
  9
$UCSORGLEFT
 10
0.0
 20
0.0
 30
0.0
  9
$UCSORGRIGHT
 10
0.0
 20
0.0
 30
0.0
  9
$UCSORGFRONT
 10
0.0
 20
0.0
 30
0.0
  9
$UCSORGBACK
 10
0.0
 20
0.0
 30
0.0
  9
$PUCSBASE
  2

  9
$PUCSNAME
  2

  9
$PUCSORG
 10
0.0
 20
0.0
 30
0.0
  9
$PUCSXDIR
 10
1.0
 20
0.0
 30
0.0
  9
$PUCSYDIR
 10
0.0
 20
1.0
 30
0.0
  9
$PUCSORTHOREF
  2

  9
$PUCSORTHOVIEW
 70
     0
  9
$PUCSORGTOP
 10
0.0
 20
0.0
 30
0.0
  9
$PUCSORGBOTTOM
 10
0.0
 20
0.0
 30
0.0
  9
$PUCSORGLEFT
 10
0.0
 20
0.0
 30
0.0
  9
$PUCSORGRIGHT
 10
0.0
 20
0.0
 30
0.0
  9
$PUCSORGFRONT
 10
0.0
 20
0.0
 30
0.0
  9
$PUCSORGBACK
 10
0.0
 20
0.0
 30
0.0
  9
$USERI1
 70
     0
  9
$USERI2
 70
     0
  9
$USERI3
 70
     0
  9
$USERI4
 70
     0
  9
$USERI5
 70
     0
  9
$USERR1
 40
0.0
  9
$USERR2
 40
0.0
  9
$USERR3
 40
0.0
  9
$USERR4
 40
0.0
  9
$USERR5
 40
0.0
  9
$WORLDVIEW
 70
     1
  9
$SHADEDGE
 70
     3
  9
$SHADEDIF
 70
    70
  9
$TILEMODE
 70
     1
  9
$MAXACTVP
 70
    48
  9
$PINSBASE
 10
0.0
 20
0.0
 30
0.0
  9
$PLIMCHECK
 70
     0
  9
$PEXTMIN
 10
1.000000000000000E+20
 20
1.000000000000000E+20
 30
1.000000000000000E+20
  9
$PEXTMAX
 10
-1.000000000000000E+20
 20
-1.000000000000000E+20
 30
-1.000000000000000E+20
  9
$PLIMMIN
 10
0.0
 20
0.0
  9
$PLIMMAX
 10
12.0
 20
9.0
  9
$UNITMODE
 70
     0
  9
$VISRETAIN
 70
     1
  9
$PLINEGEN
 70
     0
  9
$PSLTSCALE
 70
     1
  9
$TREEDEPTH
 70
  3020
  9
$CMLSTYLE
  2
STANDARD
  9
$CMLJUST
 70
     0
  9
$CMLSCALE
 40
1.0
  9
$PROXYGRAPHICS
 70
     1
  9
$MEASUREMENT
 70
     0
  9
$CELWEIGHT
370
    -1
  9
$ENDCAPS
280
     0
  9
$JOINSTYLE
280
     0
  9
$LWDISPLAY
290
     0
  9
$INSUNITS
 70
     0
  9
$HYPERLINKBASE
  1

  9
$STYLESHEET
  1

  9
$XEDIT
290
     1
  9
$CEPSNTYPE
380
     0
  9
$PSTYLEMODE
290
     1
  9
$FINGERPRINTGUID
  2
{1754B7AB-9B3C-11D4-AD9E-00104B1004F2}
  9
$VERSIONGUID
  2
{CA7DD6DF-B48F-4E18-90BD-BA89DB599CFD}
  9
$EXTNAMES
290
     1
  9
$PSVPSCALE
 40
0.0
  9
$OLESTARTUP
290
     0
  0
ENDSEC
  0
SECTION
  2
CLASSES
  0
CLASS
  1
ACDBDICTIONARYWDFLT
  2
AcDbDictionaryWithDefault
  3
ObjectDBX Classes
 90
        0
280
     0
281
     0
  0
CLASS
  1
ACDBPLACEHOLDER
  2
AcDbPlaceHolder
  3
ObjectDBX Classes
 90
        0
280
     0
281
     0
  0
CLASS
  1
LAYOUT
  2
AcDbLayout
  3
ObjectDBX Classes
 90
        0
280
     0
281
     0
  0
CLASS
  1
DICTIONARYVAR
  2
AcDbDictionaryVar
  3
ObjectDBX Classes
 90
        0
280
     0
281
     0
  0
ENDSEC
  0
SECTION
  2
TABLES
  0
TABLE
  2
VPORT
  5
20
330
0
100
AcDbSymbolTable
 70
     2
  0
VPORT
  5
268
330
20
100
AcDbSymbolTableRecord
100
AcDbViewportTableRecord
  2
*Active
 70
     0
 10
0.0
 20
0.0
 11
1.0
 21
1.0
 12
-0.5490986252534676
 22
-5.125217201831219
 13
0.0
 23
0.0
 14
1.0
 24
1.0
 15
0.0
 25
0.0
 16
0.0
 26
0.0
 36
1.0
 17
0.0
 27
0.0
 37
0.0
 40
114.057117613255
 41
1.589413447782546
 42
50.0
 43
0.0
 44
0.0
 50
0.0
 51
0.0
 71
     0
 72
  1000
 73
     1
 74
     0
 75
     0
 76
     1
 77
     0
 78
     0
281
     0
 65
     1
110
0.0
120
0.0
130
0.0
111
1.0
121
0.0
131
0.0
112
0.0
122
1.0
132
0.0
 79
     0
146
0.0
  0
ENDTAB
  0
TABLE
  2
LTYPE
  5
1B
330
0
100
AcDbSymbolTable
 70
     1
  0
LTYPE
  5
1C
330
1B
100
AcDbSymbolTableRecord
100
AcDbLinetypeTableRecord
  2
BYBLOCK
 70
     0
  3

 72
    65
 73
     0
 40
0.0
  0
LTYPE
  5
1D
330
1B
100
AcDbSymbolTableRecord
100
AcDbLinetypeTableRecord
  2
BYLAYER
 70
     0
  3

 72
    65
 73
     0
 40
0.0
  0
LTYPE
  5
A
330
1B
100
AcDbSymbolTableRecord
100
AcDbLinetypeTableRecord
  2
CONTINUOUS
 70
     0
  3
Solid line
 72
    65
 73
     0
 40
0.0
  0
ENDTAB
  0
TABLE
  2
LAYER
  5
14
102
{ACAD_XDICTIONARY
360
15
102
}
330
0
100
AcDbSymbolTable
 70
     7
  0
LAYER
  5
6
330
14
100
AcDbSymbolTableRecord
100
AcDbLayerTableRecord
  2
0
 70
     0
 62
     7
  6
CONTINUOUS
370
    -3
390
7
  0
LAYER
  5
1E0
330
14
100
AcDbSymbolTableRecord
100
AcDbLayerTableRecord
  2
DEFPOINTS
 70
     0
 62
     7
  6
CONTINUOUS
290
     0
370
    -3
390
7
  0
LAYER
  5
32
330
14
100
AcDbSymbolTableRecord
100
AcDbLayerTableRecord
  2
WAKU
 70
     0
 62
     4
  6
CONTINUOUS
370
    -3
390
7
  0
LAYER
  5
35
330
14
100
AcDbSymbolTableRecord
100
AcDbLayerTableRecord
  2
MOJI1
 70
     0
 62
     2
  6
CONTINUOUS
370
    -3
390
7
  0
LAYER
  5
39
330
14
100
AcDbSymbolTableRecord
100
AcDbLayerTableRecord
  2
GAIKEI
 70
     0
 62
     7
  6
CONTINUOUS
370
    -3
390
7
  0
LAYER
  5
1D6
330
14
100
AcDbSymbolTableRecord
100
AcDbLayerTableRecord
  2
SUNPO
 70
     0
 62
     3
  6
CONTINUOUS
370
    -3
390
7
  0
LAYER
  5
37
330
14
100
AcDbSymbolTableRecord
100
AcDbLayerTableRecord
  2
TOUROKU
 70
     0
 62
     1
  6
CONTINUOUS
370
    -3
390
7
  0
ENDTAB
  0
TABLE
  2
STYLE
  5
18
330
0
100
AcDbSymbolTable
 70
     1
  0
STYLE
  5
19
330
18
100
AcDbSymbolTableRecord
100
AcDbTextStyleTableRecord
  2
STANDARD
 70
     0
 40
0.0
 41
1.0
 50
0.0
 71
     0
 42
2.5
  3
MONOTXT.shx
  4
BIGFONT.shx
  0
ENDTAB
  0
TABLE
  2
VIEW
  5
1E
330
0
100
AcDbSymbolTable
 70
     0
  0
ENDTAB
  0
TABLE
  2
UCS
  5
1F
330
0
100
AcDbSymbolTable
 70
     0
  0
ENDTAB
  0
TABLE
  2
APPID
  5
22
330
0
100
AcDbSymbolTable
 70
     1
  0
APPID
  5
23
330
22
100
AcDbSymbolTableRecord
100
AcDbRegAppTableRecord
  2
ACAD
 70
     0
  0
ENDTAB
  0
TABLE
  2
DIMSTYLE
  5
24
330
0
100
AcDbSymbolTable
 70
     1
100
AcDbDimStyleTable
 71
     1
340
25
  0
DIMSTYLE
105
25
102
{ACAD_REACTORS
330
1F1
330
1E4
330
1D5
102
}
330
24
100
AcDbSymbolTableRecord
100
AcDbDimStyleTableRecord
  2
STANDARD
 70
     0
 40
0.0
 41
2.0
 42
2.0
 43
8.0
 44
2.0
 73
     0
 74
     0
 77
     3
140
3.0
141
0.0
173
     1
279
     2
288
     1
340
19
341
26
343
26
344
26
  0
ENDTAB
  0
TABLE
  2
BLOCK_RECORD
  5
1
330
0
100
AcDbSymbolTable
 70
     7
  0
BLOCK_RECORD
  5
2
102
{ACAD_XDICTIONARY
360
3
102
}
330
1
100
AcDbSymbolTableRecord
100
AcDbBlockTableRecord
  2
*MODEL_SPACE
340
C
  0
BLOCK_RECORD
  5
E
102
{ACAD_XDICTIONARY
360
F
102
}
330
1
100
AcDbSymbolTableRecord
100
AcDbBlockTableRecord
  2
*PAPER_SPACE
340
13
  0
BLOCK_RECORD
  5
26
330
1
100
AcDbSymbolTableRecord
100
AcDbBlockTableRecord
  2
_OPEN30
340
0
102
{BLKREFS
331
1F7
331
1F8
331
1EA
331
1EB
331
1DC
331
1DD
331
250
331
251
331
259
331
25A
331
262
331
263
102
}
  0
BLOCK_RECORD
  5
218
330
1
100
AcDbSymbolTableRecord
100
AcDbBlockTableRecord
  2
*D4
340
0
  0
BLOCK_RECORD
  5
224
330
1
100
AcDbSymbolTableRecord
100
AcDbBlockTableRecord
  2
*D5
340
0
  0
BLOCK_RECORD
  5
230
330
1
100
AcDbSymbolTableRecord
100
AcDbBlockTableRecord
  2
*D6
340
0
  0
ENDTAB
  0
ENDSEC
  0
SECTION
  2
BLOCKS
  0
BLOCK
  5
5
330
2
100
AcDbEntity
  8
0
100
AcDbBlockBegin
  2
*MODEL_SPACE
 70
     0
 10
0.0
 20
0.0
 30
0.0
  3
*MODEL_SPACE
  1

  0
ENDBLK
  5
B
330
2
100
AcDbEntity
  8
0
100
AcDbBlockEnd
  0
BLOCK
  5
11
330
E
100
AcDbEntity
 67
     1
  8
0
100
AcDbBlockBegin
  2
*PAPER_SPACE
 70
     0
 10
0.0
 20
0.0
 30
0.0
  3
*PAPER_SPACE
  1

  0
ENDBLK
  5
12
330
E
100
AcDbEntity
 67
     1
  8
0
100
AcDbBlockEnd
  0
BLOCK
  5
27
330
26
100
AcDbEntity
  8
0
100
AcDbBlockBegin
  2
_OPEN30
 70
     0
 10
0.0
 20
0.0
 30
0.0
  3
_OPEN30
  1

  0
LINE
  5
28
330
26
100
AcDbEntity
  8
0
  6
ByBlock
 62
     0
100
AcDbLine
 10
-1.0
 20
0.26794919
 30
0.0
 11
0.0
 21
0.0
 31
0.0
  0
LINE
  5
29
330
26
100
AcDbEntity
  8
0
  6
ByBlock
 62
     0
100
AcDbLine
 10
0.0
 20
0.0
 30
0.0
 11
-1.0
 21
-0.26794919
 31
0.0
  0
LINE
  5
2A
330
26
100
AcDbEntity
  8
0
  6
ByBlock
 62
     0
100
AcDbLine
 10
0.0
 20
0.0
 30
0.0
 11
-1.0
 21
0.0
 31
0.0
  0
ENDBLK
  5
2B
330
26
100
AcDbEntity
  8
0
100
AcDbBlockEnd
  0
BLOCK
  5
222
330
218
100
AcDbEntity
  8
0
100
AcDbBlockBegin
  2
*D4
 70
     1
 10
0.0
 20
0.0
 30
0.0
  3
*D4
  1

  0
LINE
  5
24D
330
218
100
AcDbEntity
  8
SUNPO
 62
     0
370
    -2
100
AcDbLine
 10
-30.64671068595783
 20
11.15639076093427
 30
0.0
 11
-30.64671068595783
 21
34.08995268672831
 31
0.0
  0
LINE
  5
24E
330
218
100
AcDbEntity
  8
SUNPO
 62
     0
370
    -2
100
AcDbLine
 10
-18.62608940785321
 20
11.15639076093427
 30
0.0
 11
-18.62608940785321
 21
34.08995268672831
 31
0.0
  0
LINE
  5
24F
330
218
100
AcDbEntity
  8
SUNPO
 62
     0
370
    -2
100
AcDbLine
 10
-28.64671068595783
 20
32.08995268672831
 30
0.0
 11
-20.62608940785321
 21
32.08995268672831
 31
0.0
  0
INSERT
  5
250
330
218
100
AcDbEntity
  8
SUNPO
 62
     0
370
    -2
100
AcDbBlockReference
  2
_OPEN30
 10
-30.64671068595783
 20
32.08995268672831
 30
0.0
 41
2.0
 42
2.0
 43
2.0
 50
180.0
  0
INSERT
  5
251
330
218
100
AcDbEntity
  8
SUNPO
 62
     0
370
    -2
100
AcDbBlockReference
  2
_OPEN30
 10
-18.62608940785321
 20
32.08995268672831
 30
0.0
 41
2.0
 42
2.0
 43
2.0
  0
MTEXT
  5
252
330
218
100
AcDbEntity
  8
SUNPO
 62
     0
100
AcDbMText
 10
-24.63640004690552
 20
33.83995268672831
 30
0.0
 40
2.5
 41
0.0
 71
     5
 72
     1
  1
\A1;φ120
 73
     1
 44
1.0
1001
ACAD
1000
MTEXTBEGIN
1070
    73
1070
     1
1070
    44
1040
1.0
1070
    74
1070
     0
1000
MTEXTEND
  0
POINT
  5
253
330
218
100
AcDbEntity
  8
DEFPOINTS
 62
     0
100
AcDbPoint
 10
-30.64671068595783
 20
9.156390760934273
 30
0.0
  0
POINT
  5
254
330
218
100
AcDbEntity
  8
DEFPOINTS
 62
     0
100
AcDbPoint
 10
-18.62608940785321
 20
9.156390760934273
 30
0.0
  0
POINT
  5
255
330
218
100
AcDbEntity
  8
DEFPOINTS
 62
     0
100
AcDbPoint
 10
-18.62608940785321
 20
32.08995268672831
 30
0.0
  0
ENDBLK
  5
223
330
218
100
AcDbEntity
  8
0
100
AcDbBlockEnd
  0
BLOCK
  5
22E
330
224
100
AcDbEntity
  8
0
100
AcDbBlockBegin
  2
*D5
 70
     1
 10
0.0
 20
0.0
 30
0.0
  3
*D5
  1

  0
LINE
  5
256
330
224
100
AcDbEntity
  8
SUNPO
 62
     0
370
    -2
100
AcDbLine
 10
-15.57231087853915
 20
-14.14360923906574
 30
0.0
 11
-4.516663051293104
 21
-14.14360923906574
 31
0.0
  0
LINE
  5
257
330
224
100
AcDbEntity
  8
SUNPO
 62
     0
370
    -2
100
AcDbLine
 10
-15.57231087853915
 20
9.1563907609343
 30
0.0
 11
-4.516663051293098
 21
9.156390760934298
 31
0.0
  0
LINE
  5
258
330
224
100
AcDbEntity
  8
SUNPO
 62
     0
370
    -2
100
AcDbLine
 10
-6.516663051293104
 20
-12.14360923906574
 30
0.0
 11
-6.516663051293099
 21
7.156390760934298
 31
0.0
  0
INSERT
  5
259
330
224
100
AcDbEntity
  8
SUNPO
 62
     0
370
    -2
100
AcDbBlockReference
  2
_OPEN30
 10
-6.516663051293105
 20
-14.14360923906574
 30
0.0
 41
2.0
 42
2.0
 43
2.0
 50
270.0
  0
INSERT
  5
25A
330
224
100
AcDbEntity
  8
SUNPO
 62
     0
370
    -2
100
AcDbBlockReference
  2
_OPEN30
 10
-6.516663051293099
 20
9.156390760934298
 30
0.0
 41
2.0
 42
2.0
 43
2.0
 50
90.0
  0
MTEXT
  5
25B
330
224
100
AcDbEntity
  8
SUNPO
 62
     0
100
AcDbMText
 10
-8.2666630512931
 20
-2.493609239065722
 30
0.0
 40
2.5
 41
0.0
 71
     5
 72
     1
  1
\A1;233
 11
0.0000000000000001
 21
1.0
 31
0.0
 73
     1
 44
1.0
1001
ACAD
1000
MTEXTBEGIN
1070
    73
1070
     1
1070
    44
1040
1.0
1070
    74
1070
     0
1000
MTEXTEND
  0
POINT
  5
25C
330
224
100
AcDbEntity
  8
DEFPOINTS
 62
     0
100
AcDbPoint
 10
-17.57231087853915
 20
-14.14360923906574
 30
0.0
  0
POINT
  5
25D
330
224
100
AcDbEntity
  8
DEFPOINTS
 62
     0
100
AcDbPoint
 10
-17.57231087853915
 20
9.1563907609343
 30
0.0
  0
POINT
  5
25E
330
224
100
AcDbEntity
  8
DEFPOINTS
 62
     0
100
AcDbPoint
 10
-6.516663051293099
 20
9.156390760934298
 30
0.0
  0
ENDBLK
  5
22F
330
224
100
AcDbEntity
  8
0
100
AcDbBlockEnd
  0
BLOCK
  5
23A
330
230
100
AcDbEntity
  8
0
100
AcDbBlockBegin
  2
*D6
 70
     1
 10
0.0
 20
0.0
 30
0.0
  3
*D6
  1

  0
LINE
  5
25F
330
230
100
AcDbEntity
  8
SUNPO
 62
     0
370
    -2
100
AcDbLine
 10
-15.57231087853915
 20
9.1563907609343
 30
0.0
 11
-4.516663051293111
 21
9.156390760934298
 31
0.0
  0
LINE
  5
260
330
230
100
AcDbEntity
  8
SUNPO
 62
     0
370
    -2
100
AcDbLine
 10
-15.57231087853915
 20
29.35639076093423
 30
0.0
 11
-4.516663051293106
 21
29.35639076093423
 31
0.0
  0
LINE
  5
261
330
230
100
AcDbEntity
  8
SUNPO
 62
     0
370
    -2
100
AcDbLine
 10
-6.51666305129311
 20
11.1563907609343
 30
0.0
 11
-6.516663051293106
 21
27.35639076093423
 31
0.0
  0
INSERT
  5
262
330
230
100
AcDbEntity
  8
SUNPO
 62
     0
370
    -2
100
AcDbBlockReference
  2
_OPEN30
 10
-6.516663051293111
 20
9.156390760934298
 30
0.0
 41
2.0
 42
2.0
 43
2.0
 50
270.0
  0
INSERT
  5
263
330
230
100
AcDbEntity
  8
SUNPO
 62
     0
370
    -2
100
AcDbBlockReference
  2
_OPEN30
 10
-6.516663051293106
 20
29.35639076093423
 30
0.0
 41
2.0
 42
2.0
 43
2.0
 50
90.0
  0
MTEXT
  5
264
330
230
100
AcDbEntity
  8
SUNPO
 62
     0
100
AcDbMText
 10
-8.266663051293111
 20
19.25639076093426
 30
0.0
 40
2.5
 41
0.0
 71
     5
 72
     1
  1
\A1;202
 11
0.0000000000000001
 21
1.0
 31
0.0
 73
     1
 44
1.0
1001
ACAD
1000
MTEXTBEGIN
1070
    73
1070
     1
1070
    44
1040
1.0
1070
    74
1070
     0
1000
MTEXTEND
  0
POINT
  5
265
330
230
100
AcDbEntity
  8
DEFPOINTS
 62
     0
100
AcDbPoint
 10
-17.57231087853915
 20
9.1563907609343
 30
0.0
  0
POINT
  5
266
330
230
100
AcDbEntity
  8
DEFPOINTS
 62
     0
100
AcDbPoint
 10
-17.57231087853915
 20
29.35639076093423
 30
0.0
  0
POINT
  5
267
330
230
100
AcDbEntity
  8
DEFPOINTS
 62
     0
100
AcDbPoint
 10
-6.516663051293106
 20
29.35639076093423
 30
0.0
  0
ENDBLK
  5
23B
330
230
100
AcDbEntity
  8
0
100
AcDbBlockEnd
  0
ENDSEC
  0
SECTION
  2
ENTITIES
  0
TEXT
  5
34
330
2
100
AcDbEntity
  8
MOJI1
100
AcDbText
 10
-36.2705802145955
 20
47.41221125801842
 30
0.0
 40
4.0
  1
ドーム型プリセットコンビネーションカメラ（天吊り金具付）
 41
0.75
100
AcDbText
  0
TEXT
  5
36
330
2
100
AcDbEntity
  8
TOUROKU
100
AcDbText
 10
28.92936981833189
 20
41.4122112580183
 30
0.0
 40
2.0
  1
ＷＶＣＳ９５０＋ＷＶＱ１１７
 72
     2
 11
61.72936981833186
 21
41.4122112580183
 31
0.0
100
AcDbText
  0
ARC
  5
38
330
2
100
AcDbEntity
  8
GAIKEI
 62
     1
100
AcDbCircle
 10
-24.63665658504224
 20
-6.293572255286675
 30
0.0
 40
6.800265199374356
100
AcDbArc
 50
293.3971628275421
 51
344.4158927351866
  0
ARC
  5
3A
330
2
100
AcDbEntity
  8
GAIKEI
 62
     1
100
AcDbCircle
 10
-24.63646682382676
 20
-7.394805453086775
 30
0.0
 40
5.699004087873105
100
AcDbArc
 50
243.9807061514152
 51
296.0200126709811
  0
ARC
  5
3B
330
2
100
AcDbEntity
  8
GAIKEI
 62
     1
100
AcDbCircle
 10
-24.63660157439643
 20
-6.293974307691088
 30
0.0
 40
6.799714312032835
100
AcDbArc
 50
195.5861782825715
 51
246.6050342618566
  0
TEXT
  5
3C
330
2
100
AcDbEntity
  8
MOJI1
100
AcDbText
 10
-20.77058021459572
 20
-60.58778874198146
 30
0.0
 40
3.0
  1
天吊り金具付
100
AcDbText
  0
TEXT
  5
3D
330
2
100
AcDbEntity
  8
MOJI1
100
AcDbText
 10
-60.77058021459571
 20
-60.58778874198146
 30
0.0
 40
3.0
  1
その他
100
AcDbText
  0
LINE
  5
3E
330
2
100
AcDbEntity
  8
WAKU
 62
     1
100
AcDbLine
 10
-63.27058021459571
 20
-31.58778874198146
 30
0.0
 11
61.72941978540433
 21
-31.58778874198146
 31
0.0
  0
LINE
  5
3F
330
2
100
AcDbEntity
  8
WAKU
 62
     1
100
AcDbLine
 10
-63.27058021459571
 20
-36.58778874198146
 30
0.0
 11
61.72941978540433
 21
-36.58778874198146
 31
0.0
  0
LINE
  5
40
330
2
100
AcDbEntity
  8
WAKU
 62
     1
100
AcDbLine
 10
-63.27058021459571
 20
-46.58778874198144
 30
0.0
 11
61.72941978540433
 21
-46.58778874198144
 31
0.0
  0
LINE
  5
41
330
2
100
AcDbEntity
  8
WAKU
 62
     1
100
AcDbLine
 10
-63.27058021459571
 20
-51.58778874198144
 30
0.0
 11
61.72941978540433
 21
-51.58778874198144
 31
0.0
  0
LINE
  5
42
330
2
100
AcDbEntity
  8
WAKU
 62
     1
100
AcDbLine
 10
-63.27058021459571
 20
-56.58778874198144
 30
0.0
 11
61.72941978540433
 21
-56.58778874198144
 31
0.0
  0
LINE
  5
43
330
2
100
AcDbEntity
  8
WAKU
 62
     4
100
AcDbLine
 10
61.72941978540433
 20
-26.58778874198146
 30
0.0
 11
-63.27058021459571
 21
-26.58778874198146
 31
0.0
  0
LINE
  5
44
330
2
100
AcDbEntity
  8
WAKU
 62
     4
100
AcDbLine
 10
-63.27058021459571
 20
-61.58778874198144
 30
0.0
 11
61.72941978540433
 21
-61.58778874198144
 31
0.0
  0
LINE
  5
45
330
2
100
AcDbEntity
  8
WAKU
 62
     1
100
AcDbLine
 10
-63.27058021459571
 20
-41.58778874198145
 30
0.0
 11
61.72941978540433
 21
-41.58778874198145
 31
0.0
  0
TEXT
  5
46
330
2
100
AcDbEntity
  8
MOJI1
100
AcDbText
 10
-20.77058021459572
 20
-35.58778874198146
 30
0.0
 40
3.0
  1
１／４型インターライン転送方式ＣＣＤ
100
AcDbText
  0
TEXT
  5
47
330
2
100
AcDbEntity
  8
MOJI1
100
AcDbText
 10
-20.77058021459572
 20
-40.58778874198146
 30
0.0
 40
3.0
  1
水平：５４０本　垂直：３５０本以上（中心部）
100
AcDbText
  0
TEXT
  5
48
330
2
100
AcDbEntity
  8
MOJI1
100
AcDbText
 10
-20.77058021459572
 20
-55.58778874198146
 30
0.0
 40
3.0
  1
カメラ・ズームレンズ・回転台一体型
100
AcDbText
  0
LINE
  5
49
330
2
100
AcDbEntity
  8
WAKU
 62
     4
100
AcDbLine
 10
-63.27058021459571
 20
-26.58778874198146
 30
0.0
 11
-63.27058021459571
 21
-61.58778874198144
 31
0.0
  0
LINE
  5
4A
330
2
100
AcDbEntity
  8
WAKU
 62
     4
100
AcDbLine
 10
-23.27058021459572
 20
-61.58778874198144
 30
0.0
 11
-23.27058021459572
 21
-26.58778874198146
 31
0.0
  0
TEXT
  5
4B
330
2
100
AcDbEntity
  8
MOJI1
100
AcDbText
 10
-20.77058021459572
 20
-30.58778874198146
 30
0.0
 40
3.0
  1
ＡＣ１００Ｖ　５０／６０Ｈｚ
100
AcDbText
  0
TEXT
  5
4C
330
2
100
AcDbEntity
  8
MOJI1
100
AcDbText
 10
-20.77058021459572
 20
-45.58778874198146
 30
0.0
 40
3.0
  1
０．５ルクス（カラーモード）
100
AcDbText
  0
TEXT
  5
4D
330
2
100
AcDbEntity
  8
MOJI1
100
AcDbText
 10
-20.77058021459572
 20
-50.58778874198146
 30
0.0
 40
3.0
  1
５２ｄＢ／ｔｙｐ
100
AcDbText
  0
TEXT
  5
4E
330
2
100
AcDbEntity
  8
MOJI1
100
AcDbText
 10
-60.77058021459571
 20
-50.58778874198146
 30
0.0
 40
3.0
  1
ダイナミックレンジ
100
AcDbText
  0
TEXT
  5
4F
330
2
100
AcDbEntity
  8
MOJI1
100
AcDbText
 10
-60.77058021459571
 20
-45.58778874198146
 30
0.0
 40
3.0
  1
最低照度
100
AcDbText
  0
TEXT
  5
50
330
2
100
AcDbEntity
  8
MOJI1
100
AcDbText
 10
-60.77058021459571
 20
-55.58778874198146
 30
0.0
 40
3.0
  1
機　能
100
AcDbText
  0
TEXT
  5
51
330
2
100
AcDbEntity
  8
MOJI1
100
AcDbText
 10
-60.77058021459571
 20
-30.58778874198146
 30
0.0
 40
3.0
  1
電　源
100
AcDbText
  0
TEXT
  5
52
330
2
100
AcDbEntity
  8
MOJI1
100
AcDbText
 10
-60.77058021459571
 20
-35.58778874198146
 30
0.0
 40
3.0
  1
撮像素子
100
AcDbText
  0
TEXT
  5
53
330
2
100
AcDbEntity
  8
MOJI1
100
AcDbText
 10
-60.77058021459571
 20
-40.58778874198146
 30
0.0
 40
3.0
  1
解像度
100
AcDbText
  0
LINE
  5
54
330
2
100
AcDbEntity
  8
WAKU
 62
     4
100
AcDbLine
 10
61.72941978540433
 20
-61.58778874198144
 30
0.0
 11
61.72941978540433
 21
-26.58778874198146
 31
0.0
  0
ARC
  5
55
330
2
100
AcDbEntity
  8
GAIKEI
  6
Continuous
100
AcDbCircle
 10
-24.63770546919818
 20
-2.21720163611198
 30
0.0
 40
14.94578486706641
100
AcDbArc
 50
97.65950522180196
 51
109.4883049811712
  0
ARC
  5
56
330
2
100
AcDbEntity
  8
GAIKEI
  6
Continuous
100
AcDbCircle
 10
-29.12341350530915
 20
10.45826893133451
 30
0.0
 40
1.5
100
AcDbArc
 50
109.4883049811712
 51
178.9925752536171
  0
ARC
  5
57
330
2
100
AcDbEntity
  8
GAIKEI
  6
Continuous
100
AcDbCircle
 10
-20.14921443125865
 20
10.45826893133451
 30
0.0
 40
1.5
100
AcDbArc
 50
1.007424746382819
 51
70.51169501882879
  0
ARC
  5
58
330
2
100
AcDbEntity
  8
GAIKEI
  6
Continuous
100
AcDbCircle
 10
-24.63492246736951
 20
-2.21720163611198
 30
0.0
 40
14.94578486706641
100
AcDbArc
 50
70.51169501882879
 51
82.340494778198
  0
SPLINE
  5
59
330
2
100
AcDbEntity
  8
GAIKEI
 62
     1
100
AcDbSpline
210
0.0
220
0.0
230
1.0
 70
    24
 71
     3
 72
     8
 73
     4
 74
     0
 42
0.0000000001
 43
0.0000000001
 40
5.0
 40
5.0
 40
5.0
 40
5.0
 40
6.0
 40
6.0
 40
6.0
 40
6.0
 10
-16.76240117042425
 20
27.5622540498016
 30
0.0
 10
-16.76240117042425
 20
27.5622540498016
 30
0.0
 10
-16.76240117042425
 20
26.56554968967089
 30
0.0
 10
-16.76240117042425
 20
26.56554968967089
 30
0.0
  0
LINE
  5
5A
330
2
100
AcDbEntity
  8
GAIKEI
 62
     1
100
AcDbLine
 10
-18.35709371518476
 20
22.77856009190481
 30
0.0
 11
-18.35709371518476
 21
23.17654827653456
 31
0.0
  0
LINE
  5
5B
330
2
100
AcDbEntity
  8
GAIKEI
 62
     1
100
AcDbLine
 10
-17.16094518868192
 20
26.36619160192044
 30
0.0
 11
-17.16094518868192
 21
22.77783210103359
 31
0.0
  0
LINE
  5
5C
330
2
100
AcDbEntity
  8
GAIKEI
 62
     1
100
AcDbLine
 10
-18.35709371518476
 20
25.96738934779785
 30
0.0
 11
-18.35709371518476
 21
26.3655496896709
 31
0.0
  0
LINE
  5
5D
330
2
100
AcDbEntity
  8
GAIKEI
 62
     1
100
AcDbLine
 10
-18.15764954881263
 20
25.96738934779785
 30
0.0
 11
-18.35709371518476
 21
25.96738934779785
 31
0.0
  0
LINE
  5
5E
330
2
100
AcDbEntity
  8
GAIKEI
 62
     1
100
AcDbLine
 10
-18.15764954881263
 20
26.36619160192044
 30
0.0
 11
-18.15764954881263
 21
25.96738934779785
 31
0.0
  0
LINE
  5
5F
330
2
100
AcDbEntity
  8
GAIKEI
 62
     1
100
AcDbLine
 10
-17.36013111918907
 20
26.36619160192044
 30
0.0
 11
-18.15764954881263
 21
26.36619160192044
 31
0.0
  0
LINE
  5
60
330
2
100
AcDbEntity
  8
GAIKEI
 62
     1
100
AcDbLine
 10
-17.36013111918907
 20
22.77783210103359
 30
0.0
 11
-17.36013111918907
 21
26.36619160192044
 31
0.0
  0
LINE
  5
61
330
2
100
AcDbEntity
  8
GAIKEI
 62
     1
100
AcDbLine
 10
-18.15764954881263
 20
22.77783210103359
 30
0.0
 11
-17.36013111918907
 21
22.77783210103359
 31
0.0
  0
LINE
  5
62
330
2
100
AcDbEntity
  8
GAIKEI
 62
     1
100
AcDbLine
 10
-18.15764954881263
 20
23.17654827653456
 30
0.0
 11
-18.15764954881263
 21
22.77783210103359
 31
0.0
  0
LINE
  5
63
330
2
100
AcDbEntity
  8
GAIKEI
 62
     1
100
AcDbLine
 10
-18.35709371518476
 20
23.17654827653456
 30
0.0
 11
-18.15764954881263
 21
23.17654827653456
 31
0.0
  0
LINE
  5
64
330
2
100
AcDbEntity
  8
GAIKEI
 62
     1
100
AcDbLine
 10
-16.76240117042425
 20
27.5622540498016
 30
0.0
 11
-16.76240117042425
 21
26.56554968967089
 31
0.0
  0
LINE
  5
65
330
2
100
AcDbEntity
  8
GAIKEI
 62
     1
100
AcDbLine
 10
-17.16094518868192
 20
26.3655496896709
 30
0.0
 11
-17.16094518868192
 21
22.77856009190475
 31
0.0
  0
ARC
  5
66
330
2
100
AcDbEntity
  8
GAIKEI
 62
     1
100
AcDbCircle
 10
-18.15709371518471
 20
22.77856009190481
 30
0.0
 40
0.2
100
AcDbArc
 50
180.0
 51
270.0
  0
ARC
  5
67
330
2
100
AcDbEntity
  8
GAIKEI
 62
     1
100
AcDbCircle
 10
-17.36094518868197
 20
22.77856009190475
 30
0.0
 40
0.2
100
AcDbArc
 50
270.0
 51
0.0
  0
ARC
  5
68
330
2
100
AcDbEntity
  8
GAIKEI
 62
     1
100
AcDbCircle
 10
-17.36094518868197
 20
26.3655496896709
 30
0.0
 40
0.2
100
AcDbArc
 50
0.0
 51
90.0
  0
ARC
  5
69
330
2
100
AcDbEntity
  8
GAIKEI
 62
     1
100
AcDbCircle
 10
-18.15709371518471
 20
26.3655496896709
 30
0.0
 40
0.2
100
AcDbArc
 50
90.0
 51
180.0
  0
LINE
  5
6A
330
2
100
AcDbEntity
  8
GAIKEI
  6
Continuous
 62
     1
100
AcDbLine
 10
-13.64644460609008
 20
20.03715069670477
 30
0.0
 11
-13.74091978689
 21
19.82049731430476
 31
0.0
  0
LINE
  5
6B
330
2
100
AcDbEntity
  8
GAIKEI
  6
Continuous
 62
     1
100
AcDbLine
 10
-14.11423602369007
 20
21.49767195110479
 30
0.0
 11
-14.05222789569006
 21
21.34345126630478
 31
0.0
  0
LINE
  5
6C
330
2
100
AcDbEntity
  8
GAIKEI
  6
Continuous
 62
     1
100
AcDbLine
 10
-14.02896975169005
 20
22.30260823910477
 30
0.0
 11
-14.11629888449011
 21
22.06208444390478
 31
0.0
  0
LINE
  5
6D
330
2
100
AcDbEntity
  8
GAIKEI
  6
Continuous
 62
     1
100
AcDbLine
 10
-13.71267297089002
 20
20.75264964710476
 30
0.0
 11
-13.64777946689003
 21
20.5917407639048
 31
0.0
  0
LINE
  5
6E
330
2
100
AcDbEntity
  8
GAIKEI
  6
Continuous
 62
     1
100
AcDbLine
 10
-13.64777946689003
 20
20.5917407639048
 30
0.0
 11
-13.60901592129005
 21
20.42042173030478
 31
0.0
  0
LINE
  5
6F
330
2
100
AcDbEntity
  8
GAIKEI
  6
Continuous
 62
     1
100
AcDbLine
 10
-13.60552385088999
 20
20.23634197990481
 30
0.0
 11
-13.64644460609008
 21
20.03715069670477
 31
0.0
  0
LINE
  5
70
330
2
100
AcDbEntity
  8
GAIKEI
  6
Continuous
 62
     1
100
AcDbLine
 10
-13.60901592129005
 20
20.42042173030478
 30
0.0
 11
-13.60552385088999
 21
20.23634197990481
 31
0.0
  0
LINE
  5
71
330
2
100
AcDbEntity
  8
GAIKEI
  6
Continuous
 62
     1
100
AcDbLine
 10
-14.05222789569006
 20
21.34345126630478
 30
0.0
 11
-13.9729075948901
 21
21.19695412070479
 31
0.0
  0
LINE
  5
72
330
2
100
AcDbEntity
  8
GAIKEI
  6
Continuous
 62
     1
100
AcDbLine
 10
-13.88428411969005
 20
21.05263989350476
 30
0.0
 11
-13.79455499969003
 21
20.90549911270477
 31
0.0
  0
LINE
  5
73
330
2
100
AcDbEntity
  8
GAIKEI
  6
Continuous
 62
     1
100
AcDbLine
 10
-13.79455499969003
 20
20.90549911270477
 30
0.0
 11
-13.71267297089002
 21
20.75264964710476
 31
0.0
  0
LINE
  5
74
330
2
100
AcDbEntity
  8
GAIKEI
  6
Continuous
 62
     1
100
AcDbLine
 10
-13.9729075948901
 20
21.19695412070479
 30
0.0
 11
-13.88428411969005
 21
21.05263989350476
 31
0.0
  0
LINE
  5
75
330
2
100
AcDbEntity
  8
GAIKEI
  6
Continuous
 62
     1
100
AcDbLine
 10
-13.88428411969005
 20
22.57856009190476
 30
0.0
 11
-14.02896975169005
 21
22.30260823910477
 31
0.0
  0
LINE
  5
76
330
2
100
AcDbEntity
  8
GAIKEI
  6
Continuous
 62
     1
100
AcDbLine
 10
-14.15428043329007
 20
21.85144766950481
 30
0.0
 11
-14.15092314689002
 21
21.66515712870478
 31
0.0
  0
LINE
  5
77
330
2
100
AcDbEntity
  8
GAIKEI
  6
Continuous
 62
     1
100
AcDbLine
 10
-14.15092314689002
 20
21.66515712870478
 30
0.0
 11
-14.11423602369007
 21
21.49767195110479
 31
0.0
  0
LINE
  5
78
330
2
100
AcDbEntity
  8
GAIKEI
  6
Continuous
 62
     1
100
AcDbLine
 10
-14.11629888449011
 20
22.06208444390478
 30
0.0
 11
-14.15428043329007
 21
21.85144766950481
 31
0.0
  0
LWPOLYLINE
  5
79
330
2
100
AcDbEntity
  8
GAIKEI
  6
Continuous
 62
     1
100
AcDbPolyline
 90
        2
 70
   129
 43
0.0
 10
-13.74091978689
 20
19.82049731430476
 10
-13.89809066048997
 20
19.58403118310474
  0
LWPOLYLINE
  5
7A
330
2
100
AcDbEntity
  8
GAIKEI
  6
Continuous
 62
     1
100
AcDbPolyline
 90
        2
 70
   129
 43
0.0
 10
-35.53188030692104
 20
19.82049731430476
 10
-35.37470943332096
 20
19.58403118310474
  0
LINE
  5
7B
330
2
100
AcDbEntity
  8
GAIKEI
  6
Continuous
 62
     1
100
AcDbLine
 10
-35.15650120932105
 20
22.06208444390478
 30
0.0
 11
-35.11851966052097
 21
21.85144766950481
 31
0.0
  0
LINE
  5
7C
330
2
100
AcDbEntity
  8
GAIKEI
  6
Continuous
 62
     1
100
AcDbLine
 10
-35.12187694692102
 20
21.66515712870478
 30
0.0
 11
-35.15856407012098
 21
21.49767195110479
 31
0.0
  0
LINE
  5
7D
330
2
100
AcDbEntity
  8
GAIKEI
  6
Continuous
 62
     1
100
AcDbLine
 10
-35.11851966052097
 20
21.85144766950481
 30
0.0
 11
-35.12187694692102
 21
21.66515712870478
 31
0.0
  0
LINE
  5
7E
330
2
100
AcDbEntity
  8
GAIKEI
  6
Continuous
 62
     1
100
AcDbLine
 10
-35.38851597412099
 20
22.57856009190476
 30
0.0
 11
-35.243830342121
 21
22.30260823910477
 31
0.0
  0
LINE
  5
7F
330
2
100
AcDbEntity
  8
GAIKEI
  6
Continuous
 62
     1
100
AcDbLine
 10
-35.29989249892106
 20
21.19695412070479
 30
0.0
 11
-35.38851597412099
 21
21.05263989350476
 31
0.0
  0
LINE
  5
80
330
2
100
AcDbEntity
  8
GAIKEI
  6
Continuous
 62
     1
100
AcDbLine
 10
-35.47824509412101
 20
20.90549911270477
 30
0.0
 11
-35.56012712292103
 21
20.75264964710476
 31
0.0
  0
LINE
  5
81
330
2
100
AcDbEntity
  8
GAIKEI
  6
Continuous
 62
     1
100
AcDbLine
 10
-35.38851597412099
 20
21.05263989350476
 30
0.0
 11
-35.47824509412101
 21
20.90549911270477
 31
0.0
  0
LINE
  5
82
330
2
100
AcDbEntity
  8
GAIKEI
  6
Continuous
 62
     1
100
AcDbLine
 10
-35.22057219812098
 20
21.34345126630478
 30
0.0
 11
-35.29989249892106
 21
21.19695412070479
 31
0.0
  0
LINE
  5
83
330
2
100
AcDbEntity
  8
GAIKEI
  6
Continuous
 62
     1
100
AcDbLine
 10
-35.66378417252099
 20
20.42042173030478
 30
0.0
 11
-35.66727624292105
 21
20.23634197990481
 31
0.0
  0
LINE
  5
84
330
2
100
AcDbEntity
  8
GAIKEI
  6
Continuous
 62
     1
100
AcDbLine
 10
-35.66727624292105
 20
20.23634197990481
 30
0.0
 11
-35.62635548772096
 21
20.03715069670477
 31
0.0
  0
LINE
  5
85
330
2
100
AcDbEntity
  8
GAIKEI
  6
Continuous
 62
     1
100
AcDbLine
 10
-35.62502062692102
 20
20.5917407639048
 30
0.0
 11
-35.66378417252099
 21
20.42042173030478
 31
0.0
  0
LINE
  5
86
330
2
100
AcDbEntity
  8
GAIKEI
  6
Continuous
 62
     1
100
AcDbLine
 10
-35.56012712292103
 20
20.75264964710476
 30
0.0
 11
-35.62502062692102
 21
20.5917407639048
 31
0.0
  0
LINE
  5
87
330
2
100
AcDbEntity
  8
GAIKEI
  6
Continuous
 62
     1
100
AcDbLine
 10
-35.243830342121
 20
22.30260823910477
 30
0.0
 11
-35.15650120932105
 21
22.06208444390478
 31
0.0
  0
LINE
  5
88
330
2
100
AcDbEntity
  8
GAIKEI
  6
Continuous
 62
     1
100
AcDbLine
 10
-35.15856407012098
 20
21.49767195110479
 30
0.0
 11
-35.22057219812098
 21
21.34345126630478
 31
0.0
  0
LINE
  5
89
330
2
100
AcDbEntity
  8
GAIKEI
  6
Continuous
 62
     1
100
AcDbLine
 10
-35.62635548772096
 20
20.03715069670477
 30
0.0
 11
-35.53188030692104
 21
19.82049731430476
 31
0.0
  0
ARC
  5
8A
330
2
100
AcDbEntity
  8
GAIKEI
 62
     1
100
AcDbCircle
 10
-31.11570637862633
 20
26.3655496896709
 30
0.0
 40
0.2
100
AcDbArc
 50
0.0
 51
90.0
  0
ARC
  5
8B
330
2
100
AcDbEntity
  8
GAIKEI
 62
     1
100
AcDbCircle
 10
-31.91185490512908
 20
26.3655496896709
 30
0.0
 40
0.2
100
AcDbArc
 50
90.0
 51
180.0
  0
ARC
  5
8C
330
2
100
AcDbEntity
  8
GAIKEI
 62
     1
100
AcDbCircle
 10
-31.91185490512908
 20
22.77856009190475
 30
0.0
 40
0.2
100
AcDbArc
 50
180.0
 51
270.0
  0
ARC
  5
8D
330
2
100
AcDbEntity
  8
GAIKEI
 62
     1
100
AcDbCircle
 10
-31.11570637862633
 20
22.77856009190481
 30
0.0
 40
0.2
100
AcDbArc
 50
270.0
 51
0.0
  0
ARC
  5
8E
330
2
100
AcDbEntity
  8
GAIKEI
100
AcDbCircle
 10
-28.30565079413918
 20
19.09101466051078
 30
0.0
 40
0.3
100
AcDbArc
 50
182.0059864591933
 51
270.0
  0
ARC
  5
8F
330
2
100
AcDbEntity
  8
GAIKEI
100
AcDbCircle
 10
-20.9669773981708
 20
19.09101466051078
 30
0.0
 40
0.3
100
AcDbArc
 50
270.0
 51
358.0133794466484
  0
LINE
  5
90
330
2
100
AcDbEntity
  8
GAIKEI
 62
     1
100
AcDbLine
 10
-21.64641608444595
 20
19.58853309013432
 30
0.0
 11
-13.89509839831237
 21
19.58853309013432
 31
0.0
  0
LINE
  5
91
330
2
100
AcDbEntity
  8
GAIKEI
 62
     1
100
AcDbLine
 10
-21.64641608444595
 20
22.57856009190476
 30
0.0
 11
-21.64641608444595
 21
19.58853309013432
 31
0.0
  0
LINE
  5
92
330
2
100
AcDbEntity
  8
GAIKEI
 62
     1
100
AcDbLine
 10
-27.62655616660846
 20
22.57856009190476
 30
0.0
 11
-27.62655616660846
 21
19.58853309013432
 31
0.0
  0
LINE
  5
93
330
2
100
AcDbEntity
  8
GAIKEI
 62
     1
100
AcDbLine
 10
-13.88428411969005
 20
22.57856009190476
 30
0.0
 11
-21.64641608444595
 21
22.57856009190476
 31
0.0
  0
LINE
  5
94
330
2
100
AcDbEntity
  8
GAIKEI
 62
     1
100
AcDbLine
 10
-32.11185490512912
 20
26.3655496896709
 30
0.0
 11
-32.11185490512912
 21
22.77856009190475
 31
0.0
  0
LINE
  5
95
330
2
100
AcDbEntity
  8
GAIKEI
100
AcDbLine
 10
-28.62326052673916
 20
19.58853309013432
 30
0.0
 11
-20.64953956707189
 21
19.58853309013432
 31
0.0
  0
LINE
  5
96
330
2
100
AcDbEntity
  8
GAIKEI
100
AcDbLine
 10
-28.60546694668278
 20
19.08051348562475
 30
0.0
 11
-28.62326052673916
 21
19.58853309013432
 31
0.0
  0
LINE
  5
97
330
2
100
AcDbEntity
  8
GAIKEI
100
AcDbLine
 10
-20.66715771336851
 20
19.08061482372829
 30
0.0
 11
-20.64953956707189
 21
19.58853309013432
 31
0.0
  0
LINE
  5
98
330
2
100
AcDbEntity
  8
GAIKEI
100
AcDbLine
 10
-18.62608940785321
 20
9.156390760934273
 30
0.0
 11
-18.64944629350498
 21
10.48464189057094
 31
0.0
  0
LINE
  5
99
330
2
100
AcDbEntity
  8
GAIKEI
 62
     1
100
AcDbLine
 10
-27.62655616660846
 20
26.56554968967089
 30
0.0
 11
-27.62655616660846
 21
27.5622540498016
 31
0.0
  0
LINE
  5
9A
330
2
100
AcDbEntity
  8
GAIKEI
 62
     1
100
AcDbLine
 10
-27.62655616660846
 20
27.5622540498016
 30
0.0
 11
-32.51039892338679
 21
27.5622540498016
 31
0.0
  0
LINE
  5
9B
330
2
100
AcDbEntity
  8
GAIKEI
 62
     1
100
AcDbLine
 10
-32.51039892338679
 20
27.5622540498016
 30
0.0
 11
-32.51039892338679
 21
26.56554968967089
 31
0.0
  0
LINE
  5
9C
330
2
100
AcDbEntity
  8
GAIKEI
 62
     1
100
AcDbLine
 10
-21.64641608444595
 20
26.56554968967089
 30
0.0
 11
-16.76240117042425
 21
26.56554968967089
 31
0.0
  0
LINE
  5
9D
330
2
100
AcDbEntity
  8
GAIKEI
 62
     1
100
AcDbLine
 10
-16.76240117042425
 20
27.5622540498016
 30
0.0
 11
-21.64641608444595
 21
27.5622540498016
 31
0.0
  0
LINE
  5
9E
330
2
100
AcDbEntity
  8
GAIKEI
 62
     1
100
AcDbLine
 10
-21.64641608444595
 20
27.5622540498016
 30
0.0
 11
-21.64641608444595
 21
26.56554968967089
 31
0.0
  0
LINE
  5
9F
330
2
100
AcDbEntity
  8
GAIKEI
 62
     1
100
AcDbLine
 10
-21.64641608444595
 20
19.58853309013432
 30
0.0
 11
-14.31845694442631
 21
19.58853309013432
 31
0.0
  0
LINE
  5
A0
330
2
100
AcDbEntity
  8
GAIKEI
 62
     1
100
AcDbLine
 10
-21.64641608444595
 20
22.57856009190476
 30
0.0
 11
-21.64641608444595
 21
20.58506529302173
 31
0.0
  0
LINE
  5
A1
330
2
100
AcDbEntity
  8
GAIKEI
 62
     1
100
AcDbLine
 10
-27.62655616660846
 20
19.58853309013432
 30
0.0
 11
-35.39170862600838
 21
19.58853309013432
 31
0.0
  0
LINE
  5
A2
330
2
100
AcDbEntity
  8
GAIKEI
 62
     1
100
AcDbLine
 10
-27.62655616660846
 20
22.57856009190476
 30
0.0
 11
-27.62655616660846
 21
20.58506529302173
 31
0.0
  0
LINE
  5
A3
330
2
100
AcDbEntity
  8
GAIKEI
 62
     1
100
AcDbLine
 10
-21.64641608444595
 20
20.58506529302173
 30
0.0
 11
-14.31845694442631
 21
20.58506529302173
 31
0.0
  0
LINE
  5
A4
330
2
100
AcDbEntity
  8
GAIKEI
 62
     1
100
AcDbLine
 10
-27.62655616660846
 20
20.58506529302173
 30
0.0
 11
-35.18262365401097
 21
20.58506529302173
 31
0.0
  0
LINE
  5
A5
330
2
100
AcDbEntity
  8
GAIKEI
 62
     1
100
AcDbLine
 10
-27.62655616660846
 20
20.58506529302173
 30
0.0
 11
-27.62655616660846
 21
19.58853309013432
 31
0.0
  0
LINE
  5
A6
330
2
100
AcDbEntity
  8
GAIKEI
 62
     1
100
AcDbLine
 10
-35.39170862600838
 20
22.57856009190476
 30
0.0
 11
-27.62655616660846
 21
22.57856009190476
 31
0.0
  0
LINE
  5
A7
330
2
100
AcDbEntity
  8
GAIKEI
 62
     1
100
AcDbLine
 10
-30.91570637862628
 20
23.17654827653456
 30
0.0
 11
-31.11515054499842
 21
23.17654827653456
 31
0.0
  0
LINE
  5
A8
330
2
100
AcDbEntity
  8
GAIKEI
 62
     1
100
AcDbLine
 10
-31.11515054499842
 20
23.17654827653456
 30
0.0
 11
-31.11515054499842
 21
22.77783210103359
 31
0.0
  0
LINE
  5
A9
330
2
100
AcDbEntity
  8
GAIKEI
 62
     1
100
AcDbLine
 10
-31.11515054499842
 20
22.77783210103359
 30
0.0
 11
-31.91266897462197
 21
22.77783210103359
 31
0.0
  0
LINE
  5
AA
330
2
100
AcDbEntity
  8
GAIKEI
 62
     1
100
AcDbLine
 10
-31.91266897462197
 20
22.77783210103359
 30
0.0
 11
-31.91266897462197
 21
26.36619160192044
 31
0.0
  0
LINE
  5
AB
330
2
100
AcDbEntity
  8
GAIKEI
 62
     1
100
AcDbLine
 10
-31.91266897462197
 20
26.36619160192044
 30
0.0
 11
-31.11515054499842
 21
26.36619160192044
 31
0.0
  0
LINE
  5
AC
330
2
100
AcDbEntity
  8
GAIKEI
 62
     1
100
AcDbLine
 10
-31.11515054499842
 20
26.36619160192044
 30
0.0
 11
-31.11515054499842
 21
25.96738934779785
 31
0.0
  0
LINE
  5
AD
330
2
100
AcDbEntity
  8
GAIKEI
 62
     1
100
AcDbLine
 10
-31.11515054499842
 20
25.96738934779785
 30
0.0
 11
-30.91570637862628
 21
25.96738934779785
 31
0.0
  0
LINE
  5
AE
330
2
100
AcDbEntity
  8
GAIKEI
 62
     1
100
AcDbLine
 10
-30.91570637862628
 20
25.96738934779785
 30
0.0
 11
-30.91570637862628
 21
26.3655496896709
 31
0.0
  0
LINE
  5
AF
330
2
100
AcDbEntity
  8
GAIKEI
 62
     1
100
AcDbLine
 10
-32.11185490512912
 20
26.36619160192044
 30
0.0
 11
-32.11185490512912
 21
22.77783210103359
 31
0.0
  0
LINE
  5
B0
330
2
100
AcDbEntity
  8
GAIKEI
 62
     1
100
AcDbLine
 10
-30.91570637862628
 20
22.77856009190481
 30
0.0
 11
-30.91570637862628
 21
23.17654827653456
 31
0.0
  0
LINE
  5
B1
330
2
100
AcDbEntity
  8
GAIKEI
100
AcDbLine
 10
-28.30565079413918
 20
18.79101466051077
 30
0.0
 11
-20.9669773981708
 21
18.79101466051077
 31
0.0
  0
LINE
  5
B2
330
2
100
AcDbEntity
  8
GAIKEI
100
AcDbLine
 10
-28.62326052673916
 20
19.58853309013432
 30
0.0
 11
-20.64953956707189
 21
19.58853309013432
 31
0.0
  0
LINE
  5
B3
330
2
100
AcDbEntity
  8
GAIKEI
100
AcDbLine
 10
-28.60544225205683
 20
19.07980843615968
 30
0.0
 11
-28.62326052673916
 21
19.58853309013432
 31
0.0
  0
LINE
  5
B4
330
2
100
AcDbEntity
  8
GAIKEI
100
AcDbLine
 10
-20.66718568451097
 20
19.07980843615968
 30
0.0
 11
-20.64953956707189
 21
19.58853309013432
 31
0.0
  0
LINE
  5
B5
330
2
100
AcDbEntity
  8
GAIKEI
 62
     1
100
AcDbLine
 10
-21.64469451201286
 20
20.58549568613
 30
0.0
 11
-13.64636642274649
 21
20.58549568613
 31
0.0
  0
LINE
  5
B6
330
2
100
AcDbEntity
  8
GAIKEI
 62
     1
100
AcDbLine
 10
-27.62509283004033
 20
20.58549568613
 30
0.0
 11
-35.62643367106455
 21
20.58549568613
 31
0.0
  0
LINE
  5
B7
330
2
100
AcDbEntity
  8
GAIKEI
100
AcDbLine
 10
-26.62976572785613
 20
12.59523169600825
 30
0.0
 11
-22.64286220871168
 21
12.59523169600825
 31
0.0
  0
LINE
  5
B8
330
2
100
AcDbEntity
  8
GAIKEI
100
AcDbLine
 10
-30.64671068595783
 20
9.156390760934273
 30
0.0
 11
-30.62346945811123
 21
10.48785488067707
 31
0.0
  0
LINE
  5
B9
330
2
100
AcDbEntity
  8
GAIKEI
100
AcDbLine
 10
-18.62608940785321
 20
9.156390760934273
 30
0.0
 11
-30.64671068595783
 21
9.156390760934273
 31
0.0
  0
LINE
  5
BA
330
2
100
AcDbEntity
  8
GAIKEI
100
AcDbLine
 10
-18.62608940785321
 20
9.156390760934273
 30
0.0
 11
-30.64671068595783
 21
9.156390760934273
 31
0.0
  0
SPLINE
  5
BB
330
2
100
AcDbEntity
  8
GAIKEI
100
AcDbSpline
210
0.0
220
0.0
230
1.0
 70
    24
 71
     3
 72
     8
 73
     4
 74
     0
 42
0.0000000001
 43
0.0000000001
 40
2.0
 40
2.0
 40
2.0
 40
2.0
 40
3.0
 40
3.0
 40
3.0
 40
3.0
 10
-22.64286220871168
 20
12.59523169600825
 30
0.0
 10
-22.64286220871168
 20
12.59523169600825
 30
0.0
 10
-22.74279948845185
 20
12.59523169600825
 30
0.0
 10
-22.74279948845185
 20
12.59523169600825
 30
0.0
  0
SPLINE
  5
BC
330
2
100
AcDbEntity
  8
GAIKEI
100
AcDbSpline
210
0.0
220
0.0
230
1.0
 70
    24
 71
     3
 72
     8
 73
     4
 74
     0
 42
0.0000000001
 43
0.0000000001
 40
3.0
 40
3.0
 40
3.0
 40
3.0
 40
4.0
 40
4.0
 40
4.0
 40
4.0
 10
-22.74279948845185
 20
12.59523169600825
 30
0.0
 10
-22.74279948845185
 20
12.59523169600825
 30
0.0
 10
-22.74279948845185
 20
18.79101466051077
 30
0.0
 10
-22.74279948845185
 20
18.79101466051077
 30
0.0
  0
SPLINE
  5
BD
330
2
100
AcDbEntity
  8
GAIKEI
100
AcDbSpline
210
0.0
220
0.0
230
1.0
 70
    24
 71
     3
 72
     8
 73
     4
 74
     0
 42
0.0000000001
 43
0.0000000001
 40
4.0
 40
4.0
 40
4.0
 40
4.0
 40
5.0
 40
5.0
 40
5.0
 40
5.0
 10
-22.74279948845185
 20
18.79101466051077
 30
0.0
 10
-22.74279948845185
 20
18.79101466051077
 30
0.0
 10
-20.9659645802717
 20
18.79101466051077
 30
0.0
 10
-20.9659645802717
 20
18.79101466051077
 30
0.0
  0
LINE
  5
BE
330
2
100
AcDbEntity
  8
GAIKEI
100
AcDbLine
 10
-22.45865395837222
 20
29.35639076093423
 30
0.0
 11
-26.81431829268217
 21
29.35639076093423
 31
0.0
  0
LINE
  5
BF
330
2
100
AcDbEntity
  8
GAIKEI
 62
     1
100
AcDbLine
 10
-29.91900201849558
 20
27.5622540498016
 30
0.0
 11
-19.35397023255882
 21
27.5622540498016
 31
0.0
  0
LINE
  5
C0
330
2
100
AcDbEntity
  8
GAIKEI
 62
     1
100
AcDbLine
 10
-29.91900201849558
 20
27.82126462235823
 30
0.0
 11
-19.35397023255882
 21
27.82126462235823
 31
0.0
  0
LINE
  5
C1
330
2
100
AcDbEntity
  8
GAIKEI
100
AcDbLine
 10
-26.81431829268217
 20
29.35639076093423
 30
0.0
 11
-26.81431829268217
 21
27.82126462235823
 31
0.0
  0
LINE
  5
C2
330
2
100
AcDbEntity
  8
GAIKEI
 62
     1
100
AcDbLine
 10
-29.91900201849558
 20
27.82126462235823
 30
0.0
 11
-29.91900201849558
 21
27.5622540498016
 31
0.0
  0
LINE
  5
C3
330
2
100
AcDbEntity
  8
GAIKEI
 62
     1
100
AcDbLine
 10
-19.35397023255882
 20
27.5622540498016
 30
0.0
 11
-19.35397023255882
 21
27.82126462235823
 31
0.0
  0
LINE
  5
C4
330
2
100
AcDbEntity
  8
GAIKEI
100
AcDbLine
 10
-22.45865395837222
 20
29.35639076093423
 30
0.0
 11
-22.45865395837222
 21
27.82126462235823
 31
0.0
  0
SPLINE
  5
C5
330
2
100
AcDbEntity
  8
GAIKEI
 62
     1
100
AcDbSpline
210
0.0
220
0.0
230
1.0
 70
     8
 71
     3
 72
     8
 73
     4
 74
     0
 42
0.0000000001
 43
0.0000000001
 40
0.0
 40
0.0
 40
0.0
 40
0.0
 40
1.0
 40
1.0
 40
1.0
 40
1.0
 10
-27.26227143976905
 20
28.46263643230157
 30
0.0
 10
-27.33604081852651
 20
28.2675822756338
 30
0.0
 10
-27.33604081852651
 20
28.05273003598563
 30
0.0
 10
-27.26227143976905
 20
27.85793411518279
 30
0.0
  0
SPLINE
  5
C6
330
2
100
AcDbEntity
  8
GAIKEI
 62
     1
100
AcDbSpline
210
0.0
220
0.0
230
1.0
 70
     8
 71
     3
 72
     8
 73
     4
 74
     0
 42
0.0000000001
 43
0.0000000001
 40
0.0
 40
0.0
 40
0.0
 40
0.0
 40
1.0
 40
1.0
 40
1.0
 40
1.0
 10
-27.26227143976905
 20
29.25972446881684
 30
0.0
 10
-27.33604081852651
 20
29.06518678387903
 30
0.0
 10
-27.33604081852651
 20
28.85007630836589
 30
0.0
 10
-27.26227143976905
 20
28.65528038756304
 30
0.0
  0
LINE
  5
C7
330
2
100
AcDbEntity
  8
GAIKEI
 62
     1
100
AcDbLine
 10
-26.81431829268217
 20
28.01055151137524
 30
0.0
 11
-27.12816094723236
 21
28.01055151137524
 31
0.0
  0
LINE
  5
C8
330
2
100
AcDbEntity
  8
GAIKEI
 62
     1
100
AcDbLine
 10
-26.81431829268217
 20
28.04050687171077
 30
0.0
 11
-27.12816094723236
 21
28.04050687171077
 31
0.0
  0
LINE
  5
C9
330
2
100
AcDbEntity
  8
GAIKEI
 62
     1
100
AcDbLine
 10
-26.81431829268217
 20
28.27980543990867
 30
0.0
 11
-27.12816094723236
 21
28.27980543990867
 31
0.0
  0
LINE
  5
CA
330
2
100
AcDbEntity
  8
GAIKEI
 62
     1
100
AcDbLine
 10
-26.81431829268217
 20
28.3095886430009
 30
0.0
 11
-27.12816094723236
 21
28.3095886430009
 31
0.0
  0
LINE
  5
CB
330
2
100
AcDbEntity
  8
GAIKEI
 62
     1
100
AcDbLine
 10
-27.26227143976905
 20
27.85793411518284
 30
0.0
 11
-27.12816094723236
 21
27.84614134401625
 31
0.0
  0
LINE
  5
CC
330
2
100
AcDbEntity
  8
GAIKEI
 62
     1
100
AcDbLine
 10
-27.12816094723236
 20
28.47425704622486
 30
0.0
 11
-27.12816094723236
 21
27.84614134401625
 31
0.0
  0
LINE
  5
CD
330
2
100
AcDbEntity
  8
GAIKEI
 62
     1
100
AcDbLine
 10
-27.26227143976905
 20
28.46263643230157
 30
0.0
 11
-27.12816094723236
 21
28.47425704622486
 31
0.0
  0
LINE
  5
CE
330
2
100
AcDbEntity
  8
GAIKEI
 62
     1
100
AcDbLine
 10
-27.26227143976905
 20
27.85793411518284
 30
0.0
 11
-27.26227143976905
 21
28.46263643230157
 31
0.0
  0
LINE
  5
CF
330
2
100
AcDbEntity
  8
GAIKEI
 62
     1
100
AcDbLine
 10
-26.81431829268217
 20
28.80815601962041
 30
0.0
 11
-27.12816094723236
 21
28.80815601962041
 31
0.0
  0
LINE
  5
D0
330
2
100
AcDbEntity
  8
GAIKEI
 62
     1
100
AcDbLine
 10
-26.81431829268217
 20
28.8379392227127
 30
0.0
 11
-27.12816094723236
 21
28.8379392227127
 31
0.0
  0
LINE
  5
D1
330
2
100
AcDbEntity
  8
GAIKEI
 62
     1
100
AcDbLine
 10
-26.81431829268217
 20
29.07715171228892
 30
0.0
 11
-27.12816094723236
 21
29.07715171228892
 31
0.0
  0
LINE
  5
D2
330
2
100
AcDbEntity
  8
GAIKEI
 62
     1
100
AcDbLine
 10
-26.81431829268217
 20
29.10710707262444
 30
0.0
 11
-27.12816094723236
 21
29.10710707262444
 31
0.0
  0
LINE
  5
D3
330
2
100
AcDbEntity
  8
GAIKEI
 62
     1
100
AcDbLine
 10
-27.26227143976905
 20
28.65528038756304
 30
0.0
 11
-27.12816094723236
 21
28.64365977363981
 31
0.0
  0
LINE
  5
D4
330
2
100
AcDbEntity
  8
GAIKEI
 62
     1
100
AcDbLine
 10
-27.12816094723236
 20
29.27143116136182
 30
0.0
 11
-27.12816094723236
 21
28.64365977363981
 31
0.0
  0
LINE
  5
D5
330
2
100
AcDbEntity
  8
GAIKEI
 62
     1
100
AcDbLine
 10
-27.26227143976905
 20
29.25972446881684
 30
0.0
 11
-27.12816094723236
 21
29.27143116136182
 31
0.0
  0
LINE
  5
D6
330
2
100
AcDbEntity
  8
GAIKEI
 62
     1
100
AcDbLine
 10
-27.26227143976905
 20
28.65528038756304
 30
0.0
 11
-27.26227143976905
 21
29.25972446881684
 31
0.0
  0
CIRCLE
  5
D7
330
2
100
AcDbEntity
  8
GAIKEI
 62
     1
100
AcDbCircle
 10
-24.63640004690558
 20
28.55887233131068
 30
0.0
 40
0.1594606466138814
  0
CIRCLE
  5
D8
330
2
100
AcDbEntity
  8
GAIKEI
 62
     1
100
AcDbCircle
 10
-24.6364861255272
 20
28.55887233131068
 30
0.0
 40
0.199401127061299
  0
CIRCLE
  5
D9
330
2
100
AcDbEntity
  8
GAIKEI
 62
     1
100
AcDbCircle
 10
-24.63640004690558
 20
28.55887233131068
 30
0.0
 40
0.3487475356308451
  0
LINE
  5
DA
330
2
100
AcDbEntity
  8
GAIKEI
 62
     1
100
AcDbLine
 10
-24.2876525112747
 20
28.35753443526215
 30
0.0
 11
-24.63652916483807
 21
28.15602438197032
 31
0.0
  0
LINE
  5
DB
330
2
100
AcDbEntity
  8
GAIKEI
 62
     1
100
AcDbLine
 10
-24.2876525112747
 20
28.76029630598083
 30
0.0
 11
-24.2876525112747
 21
28.35753443526215
 31
0.0
  0
LINE
  5
DC
330
2
100
AcDbEntity
  8
GAIKEI
 62
     1
100
AcDbLine
 10
-24.63652916483807
 20
28.15602438197032
 30
0.0
 11
-24.98514758253634
 21
28.35753443526215
 31
0.0
  0
LINE
  5
DD
330
2
100
AcDbEntity
  8
GAIKEI
 62
     1
100
AcDbLine
 10
-24.98514758253634
 20
28.35753443526215
 30
0.0
 11
-24.98514758253634
 21
28.76029630598083
 31
0.0
  0
LINE
  5
DE
330
2
100
AcDbEntity
  8
GAIKEI
 62
     1
100
AcDbLine
 10
-24.98514758253634
 20
28.76029630598083
 30
0.0
 11
-24.63652916483807
 21
28.96180635927266
 31
0.0
  0
LINE
  5
DF
330
2
100
AcDbEntity
  8
GAIKEI
 62
     1
100
AcDbLine
 10
-24.63652916483807
 20
28.96180635927266
 30
0.0
 11
-24.2876525112747
 21
28.76029630598083
 31
0.0
  0
LINE
  5
E0
330
2
100
AcDbEntity
  8
GAIKEI
100
AcDbLine
 10
-26.53000060535919
 20
19.58853309013432
 30
0.0
 11
-26.53000060535919
 21
27.5622540498016
 31
0.0
  0
LINE
  5
E1
330
2
100
AcDbEntity
  8
GAIKEI
100
AcDbLine
 10
-22.74279948845185
 20
19.58853309013432
 30
0.0
 11
-22.74279948845185
 21
27.5622540498016
 31
0.0
  0
LINE
  5
E2
330
2
100
AcDbEntity
  8
GAIKEI
100
AcDbLine
 10
-22.74279948845185
 20
12.59523169600825
 30
0.0
 11
-22.74279948845185
 21
18.79101466051077
 31
0.0
  0
LINE
  5
E3
330
2
100
AcDbEntity
  8
GAIKEI
100
AcDbLine
 10
-26.53000060535919
 20
12.59523169600825
 30
0.0
 11
-26.53000060535919
 21
18.79101466051077
 31
0.0
  0
LINE
  5
E4
330
2
100
AcDbEntity
  8
GAIKEI
100
AcDbLine
 10
-22.74279948845185
 20
19.58853309013432
 30
0.0
 11
-22.74279948845185
 21
27.5622540498016
 31
0.0
  0
LINE
  5
E5
330
2
100
AcDbEntity
  8
GAIKEI
100
AcDbLine
 10
-22.74279948845185
 20
27.5622540498016
 30
0.0
 11
-21.64641608444595
 21
27.5622540498016
 31
0.0
  0
LINE
  5
E6
330
2
100
AcDbEntity
  8
GAIKEI
 62
     1
100
AcDbLine
 10
-21.64641608444595
 20
27.5622540498016
 30
0.0
 11
-21.64641608444595
 21
26.56554968967089
 31
0.0
  0
LINE
  5
E7
330
2
100
AcDbEntity
  8
GAIKEI
 62
     1
100
AcDbLine
 10
-21.64641608444595
 20
26.56554968967089
 30
0.0
 11
-18.34099701293553
 21
26.56554968967089
 31
0.0
  0
LINE
  5
E8
330
2
100
AcDbEntity
  8
GAIKEI
100
AcDbLine
 10
-26.53000060535919
 20
19.58853309013432
 30
0.0
 11
-26.53000060535919
 21
27.5622540498016
 31
0.0
  0
LINE
  5
E9
330
2
100
AcDbEntity
  8
GAIKEI
100
AcDbLine
 10
-26.53000060535919
 20
27.5622540498016
 30
0.0
 11
-27.62655616660846
 21
27.5622540498016
 31
0.0
  0
LINE
  5
EA
330
2
100
AcDbEntity
  8
GAIKEI
 62
     1
100
AcDbLine
 10
-27.62655616660846
 20
27.5622540498016
 30
0.0
 11
-27.62655616660846
 21
26.56554968967089
 31
0.0
  0
LINE
  5
EB
330
2
100
AcDbEntity
  8
GAIKEI
 62
     1
100
AcDbLine
 10
-27.62655616660846
 20
26.56554968967089
 30
0.0
 11
-32.51039892338679
 21
26.56554968967089
 31
0.0
  0
SPLINE
  5
EC
330
2
100
AcDbEntity
  8
GAIKEI
100
AcDbSpline
210
0.0
220
0.0
230
1.0
 70
    24
 71
     3
 72
     8
 73
     4
 74
     0
 42
0.0000000001
 43
0.0000000001
 40
0.0
 40
0.0
 40
0.0
 40
0.0
 40
1.0
 40
1.0
 40
1.0
 40
1.0
 10
-22.45865395837222
 20
29.35639076093418
 30
0.0
 10
-22.45865395837222
 20
29.35639076093418
 30
0.0
 10
-22.45865395837222
 20
27.82126462235823
 30
0.0
 10
-22.45865395837222
 20
27.82126462235823
 30
0.0
  0
SPLINE
  5
ED
330
2
100
AcDbEntity
  8
GAIKEI
100
AcDbSpline
210
0.0
220
0.0
230
1.0
 70
    24
 71
     3
 72
     8
 73
     4
 74
     0
 42
0.0000000001
 43
0.0000000001
 40
0.0
 40
0.0
 40
0.0
 40
0.0
 40
1.0
 40
1.0
 40
1.0
 40
1.0
 10
-22.45865395837222
 20
29.35639076093418
 30
0.0
 10
-22.45865395837222
 20
29.35639076093418
 30
0.0
 10
-26.81431829268206
 20
29.35639076093418
 30
0.0
 10
-26.81431829268206
 20
29.35639076093418
 30
0.0
  0
SPLINE
  5
EE
330
2
100
AcDbEntity
  8
GAIKEI
100
AcDbSpline
210
0.0
220
0.0
230
1.0
 70
    24
 71
     3
 72
     8
 73
     4
 74
     0
 42
0.0000000001
 43
0.0000000001
 40
1.0
 40
1.0
 40
1.0
 40
1.0
 40
2.0
 40
2.0
 40
2.0
 40
2.0
 10
-26.81431829268206
 20
29.35639076093418
 30
0.0
 10
-26.81431829268206
 20
29.35639076093418
 30
0.0
 10
-26.81431829268206
 20
27.82126462235823
 30
0.0
 10
-26.81431829268206
 20
27.82126462235823
 30
0.0
  0
SPLINE
  5
EF
330
2
100
AcDbEntity
  8
GAIKEI
 62
     1
100
AcDbSpline
210
0.0
220
0.0
230
1.0
 70
    24
 71
     3
 72
     8
 73
     4
 74
     0
 42
0.0000000001
 43
0.0000000001
 40
3.0
 40
3.0
 40
3.0
 40
3.0
 40
4.0
 40
4.0
 40
4.0
 40
4.0
 10
-29.91900201849558
 20
27.82126462235823
 30
0.0
 10
-29.91900201849558
 20
27.82126462235823
 30
0.0
 10
-29.91900201849558
 20
27.5622540498016
 30
0.0
 10
-29.91900201849558
 20
27.5622540498016
 30
0.0
  0
SPLINE
  5
F0
330
2
100
AcDbEntity
  8
GAIKEI
 62
     1
100
AcDbSpline
210
0.0
220
0.0
230
1.0
 70
    24
 71
     3
 72
     8
 73
     4
 74
     0
 42
0.0000000001
 43
0.0000000001
 40
4.0
 40
4.0
 40
4.0
 40
4.0
 40
5.0
 40
5.0
 40
5.0
 40
5.0
 10
-29.91900201849558
 20
27.5622540498016
 30
0.0
 10
-29.91900201849558
 20
27.5622540498016
 30
0.0
 10
-32.51039892338679
 20
27.5622540498016
 30
0.0
 10
-32.51039892338679
 20
27.5622540498016
 30
0.0
  0
SPLINE
  5
F1
330
2
100
AcDbEntity
  8
GAIKEI
 62
     1
100
AcDbSpline
210
0.0
220
0.0
230
1.0
 70
    24
 71
     3
 72
     8
 73
     4
 74
     0
 42
0.0000000001
 43
0.0000000001
 40
5.0
 40
5.0
 40
5.0
 40
5.0
 40
6.0
 40
6.0
 40
6.0
 40
6.0
 10
-32.51039892338679
 20
27.5622540498016
 30
0.0
 10
-32.51039892338679
 20
27.5622540498016
 30
0.0
 10
-32.51039892338679
 20
26.56554968967089
 30
0.0
 10
-32.51039892338679
 20
26.56554968967089
 30
0.0
  0
LINE
  5
F2
330
2
100
AcDbEntity
  8
GAIKEI
100
AcDbLine
 10
-17.08067775021993
 20
-6.540333092550837
 30
0.0
 11
-17.2942665833275
 21
-6.619476002157909
 31
0.0
  0
LINE
  5
F3
330
2
100
AcDbEntity
  8
GAIKEI
100
AcDbLine
 10
-16.96113176154028
 20
-4.944030308060347
 30
0.0
 11
-16.91123430539574
 21
-5.093999884583637
 31
0.0
  0
LINE
  5
F4
330
2
100
AcDbEntity
  8
GAIKEI
100
AcDbLine
 10
-17.00603947207037
 20
-5.243830857062164
 30
0.0
 11
-17.03479981137593
 21
-6.476713835966561
 31
0.0
  0
LINE
  5
F5
330
2
100
AcDbEntity
  8
GAIKEI
100
AcDbLine
 10
-16.91123430539574
 20
-5.093999884583637
 30
0.0
 11
-16.96113176154028
 21
-5.243830857062164
 31
0.0
  0
SPLINE
  5
F6
330
2
100
AcDbEntity
  8
GAIKEI
100
AcDbSpline
210
0.0
220
0.0
230
1.0
 70
     8
 71
     3
 72
     8
 73
     4
 74
     0
 42
0.0000000001
 43
0.0000000001
 40
0.0
 40
0.0
 40
0.0
 40
0.0
 40
1.0
 40
1.0
 40
1.0
 40
1.0
 10
-17.08067775021982
 20
-6.540333092550837
 30
0.0
 10
-17.05371926349733
 20
-6.530353601321905
 30
0.0
 10
-17.03570073766741
 20
-6.505266269204809
 30
0.0
 10
-17.03479981137593
 20
-6.47671383596662
 30
0.0
  0
LINE
  5
F7
330
2
100
AcDbEntity
  8
GAIKEI
 62
     1
100
AcDbLine
 10
-18.08638869962192
 20
-6.624049935637742
 30
0.0
 11
-18.08638869962192
 21
-8.120481506194067
 31
0.0
  0
LINE
  5
F8
330
2
100
AcDbEntity
  8
GAIKEI
 62
     1
100
AcDbLine
 10
-18.08638869962192
 20
-6.624049935637742
 30
0.0
 11
-23.13656567762791
 21
-6.624049935637742
 31
0.0
  0
LINE
  5
F9
330
2
100
AcDbEntity
  8
GAIKEI
 62
     1
100
AcDbLine
 10
-23.13656567762791
 20
-6.793839890574019
 30
0.0
 11
-23.13656567762791
 21
-6.893912010952759
 31
0.0
  0
LINE
  5
FA
330
2
100
AcDbEntity
  8
GAIKEI
 62
     1
100
AcDbLine
 10
-23.13656567762791
 20
-6.793839890574019
 30
0.0
 11
-22.08643213185269
 21
-6.793839890574019
 31
0.0
  0
LINE
  5
FB
330
2
100
AcDbEntity
  8
GAIKEI
 62
     1
100
AcDbLine
 10
-23.13656567762791
 20
-6.624049935637742
 30
0.0
 11
-23.13656567762791
 21
-6.793839890574019
 31
0.0
  0
LINE
  5
FC
330
2
100
AcDbEntity
  8
GAIKEI
 62
     1
100
AcDbLine
 10
-22.08643213185269
 20
-6.793839890574019
 30
0.0
 11
-22.08643213185269
 21
-7.093917647665477
 31
0.0
  0
LINE
  5
FD
330
2
100
AcDbEntity
  8
GAIKEI
 62
     1
100
AcDbLine
 10
-26.13637302022812
 20
-6.793839890574019
 30
0.0
 11
-26.13637302022812
 21
-6.624049935637742
 31
0.0
  0
LINE
  5
FE
330
2
100
AcDbEntity
  8
GAIKEI
 62
     1
100
AcDbLine
 10
-27.18622935791359
 20
-6.793839890574019
 30
0.0
 11
-26.13637302022812
 21
-6.793839890574019
 31
0.0
  0
LINE
  5
FF
330
2
100
AcDbEntity
  8
GAIKEI
 62
     1
100
AcDbLine
 10
-27.18622935791359
 20
-6.793839890574019
 30
0.0
 11
-27.18622935791359
 21
-7.093917647665477
 31
0.0
  0
LINE
  5
100
330
2
100
AcDbEntity
  8
GAIKEI
 62
     1
100
AcDbLine
 10
-26.13637302022812
 20
-6.893912010952759
 30
0.0
 11
-26.13637302022812
 21
-6.793839890574019
 31
0.0
  0
LINE
  5
101
330
2
100
AcDbEntity
  8
GAIKEI
 62
     1
100
AcDbLine
 10
-23.13656567762791
 20
-6.624049935637742
 30
0.0
 11
-26.13637302022812
 21
-6.624049935637742
 31
0.0
  0
LINE
  5
102
330
2
100
AcDbEntity
  8
GAIKEI
 62
     1
100
AcDbLine
 10
-27.18622935791359
 20
-7.093917647665477
 30
0.0
 11
-22.08643213185269
 21
-7.093917647665477
 31
0.0
  0
LINE
  5
103
330
2
100
AcDbEntity
  8
GAIKEI
 62
     1
100
AcDbLine
 10
-23.13656567762791
 20
-6.893912010952759
 30
0.0
 11
-26.13637302022812
 21
-6.893912010952759
 31
0.0
  0
LINE
  5
104
330
2
100
AcDbEntity
  8
GAIKEI
100
AcDbLine
 10
-30.64671068595783
 20
9.156390760934273
 30
0.0
 11
-30.63615675864745
 21
2.625760299177129
 31
0.0
  0
LINE
  5
105
330
2
100
AcDbEntity
  8
GAIKEI
100
AcDbLine
 10
-32.26620620556139
 20
-5.243830857062164
 30
0.0
 11
-32.2375844703007
 21
-6.476713835966561
 31
0.0
  0
LWPOLYLINE
  5
106
330
2
100
AcDbEntity
  8
GAIKEI
100
AcDbPolyline
 90
        3
 70
     0
 43
0.0
 10
-32.31139112418111
 20
-4.944030308060347
 10
-32.36121927830323
 20
-5.093999884583637
 10
-32.31139112418111
 20
-5.243830857062222
  0
LINE
  5
107
330
2
100
AcDbEntity
  8
GAIKEI
100
AcDbLine
 10
-32.19184513550158
 20
-6.540333092550837
 30
0.0
 11
-31.97797909430426
 21
-6.619476002157909
 31
0.0
  0
LINE
  5
108
330
2
100
AcDbEntity
  8
GAIKEI
 62
     1
100
AcDbLine
 10
-31.18627279014436
 20
-6.624049935637742
 30
0.0
 11
-31.18627279014436
 21
-8.120972307380696
 31
0.0
  0
LINE
  5
109
330
2
100
AcDbEntity
  8
GAIKEI
100
AcDbLine
 10
-31.97797909430426
 20
-6.619476002157909
 30
0.0
 11
-31.95372338645622
 21
-6.624049935637742
 31
0.0
  0
SPLINE
  5
10A
330
2
100
AcDbEntity
  8
GAIKEI
100
AcDbSpline
210
0.0
220
0.0
230
1.0
 70
     8
 71
     3
 72
     8
 73
     4
 74
     0
 42
0.0000000001
 43
0.0000000001
 40
0.0
 40
0.0
 40
0.0
 40
0.0
 40
1.0
 40
1.0
 40
1.0
 40
1.0
 10
-32.23758447030059
 20
-6.47671383596662
 30
0.0
 10
-32.23668354400911
 20
-6.505266269204809
 30
0.0
 10
-32.2186650181792
 20
-6.530353601321905
 30
0.0
 10
-32.19184513550148
 20
-6.540333092550837
 30
0.0
  0
LINE
  5
10B
330
2
100
AcDbEntity
  8
GAIKEI
 62
     1
100
AcDbLine
 10
-26.13637302022812
 20
-6.624049935637742
 30
0.0
 11
-31.95372338645622
 21
-6.624049935637742
 31
0.0
  0
LINE
  5
10C
330
2
100
AcDbEntity
  8
GAIKEI
100
AcDbLine
 10
-30.63615675864745
 20
2.625760299177129
 30
0.0
 11
-18.63650815361529
 21
2.625760299177102
 31
0.0
  0
LINE
  5
10D
330
2
100
AcDbEntity
  8
GAIKEI
 62
     1
100
AcDbLine
 10
-17.31838368713068
 20
-6.624049935637742
 30
0.0
 11
-18.08638869962192
 21
-6.624049935637742
 31
0.0
  0
LINE
  5
10E
330
2
100
AcDbEntity
  8
GAIKEI
100
AcDbLine
 10
-16.96113176154028
 20
-5.243830857062164
 30
0.0
 11
-32.31139112418111
 21
-5.243830857062164
 31
0.0
  0
LINE
  5
10F
330
2
100
AcDbEntity
  8
GAIKEI
 62
     1
100
AcDbLine
 10
-32.36121927830323
 20
-5.093999884583637
 30
0.0
 11
-16.91123430539574
 21
-5.093999884583637
 31
0.0
  0
LINE
  5
110
330
2
100
AcDbEntity
  8
GAIKEI
100
AcDbLine
 10
-16.96113176154028
 20
-4.944030308060347
 30
0.0
 11
-32.31139112418111
 21
-4.944030308060347
 31
0.0
  0
LINE
  5
111
330
2
100
AcDbEntity
  8
GAIKEI
100
AcDbLine
 10
-17.07839078348001
 20
-6.509701598639877
 30
0.0
 11
-32.1941321022415
 21
-6.509701598639877
 31
0.0
  0
LINE
  5
112
330
2
100
AcDbEntity
  8
GAIKEI
 62
     1
100
AcDbLine
 10
-22.08670933994245
 20
-9.865859940538996
 30
0.0
 11
-21.93639325330696
 21
-12.53468082404725
 31
0.0
  0
LINE
  5
113
330
2
100
AcDbEntity
  8
GAIKEI
 62
     1
100
AcDbLine
 10
-27.18622935791359
 20
-9.865859940538996
 30
0.0
 11
-27.33654544454885
 21
-12.53468082404725
 31
0.0
  0
ELLIPSE
  5
114
330
2
100
AcDbEntity
  8
GAIKEI
 62
     1
100
AcDbEllipse
 10
-24.6364693489279
 20
-11.16813156341158
 30
0.0
 11
1.900054192730081
 21
0.0
 31
0.0
210
0.0
220
0.0
230
0.9999999999999998
 40
0.7044805537448962
 41
0.0
 42
6.283185307179585
  0
ELLIPSE
  5
115
330
2
100
AcDbEntity
  8
GAIKEI
 62
     1
100
AcDbEllipse
 10
-24.6364693489279
 20
-11.20338897330208
 30
0.0
 11
1.669666130350939
 21
0.0
 31
0.0
210
0.0
220
0.0
230
1.0
 40
0.7073540300442244
 41
0.0
 42
6.283185307179585
  0
ARC
  5
116
330
2
100
AcDbEntity
  8
GAIKEI
100
AcDbCircle
 10
-24.65553793924391
 20
-6.853119922089661
 30
0.0
 40
7.290514254295032
100
AcDbArc
 50
270.1498592491495
 51
1.801635498211144
  0
ARC
  5
117
330
2
100
AcDbEntity
  8
GAIKEI
100
AcDbCircle
 10
-24.61740075861213
 20
-6.853119922089661
 30
0.0
 40
7.290514254295032
100
AcDbArc
 50
178.1983645017888
 51
269.8501407508505
  0
LINE
  5
118
330
2
100
AcDbEntity
  8
GAIKEI
 62
     1
100
AcDbLine
 10
-22.08643213185269
 20
-7.093917647665477
 30
0.0
 11
-22.08643213185269
 21
-9.865859940538996
 31
0.0
  0
LINE
  5
119
330
2
100
AcDbEntity
  8
GAIKEI
 62
     1
100
AcDbLine
 10
-27.13647050581381
 20
-7.093917647665477
 30
0.0
 11
-27.13647050581381
 21
-12.51619483328909
 31
0.0
  0
LINE
  5
11A
330
2
100
AcDbEntity
  8
GAIKEI
 62
     1
100
AcDbLine
 10
-22.13639889001967
 20
-12.51616346829598
 30
0.0
 11
-22.13639889001968
 21
-7.093917647665477
 31
0.0
  0
LINE
  5
11B
330
2
100
AcDbEntity
  8
GAIKEI
 62
     1
100
AcDbLine
 10
-27.18622935791359
 20
-7.093917647665477
 30
0.0
 11
-27.18622935791359
 21
-9.865859940538996
 31
0.0
  0
ARC
  5
11C
330
2
100
AcDbEntity
  8
GAIKEI
100
AcDbCircle
 10
17.20487438895884
 20
-6.853119922089661
 30
0.0
 40
7.290514254295032
100
AcDbArc
 50
178.1983645017888
 51
269.8501407508505
  0
ARC
  5
11D
330
2
100
AcDbEntity
  8
GAIKEI
100
AcDbCircle
 10
17.16673720832705
 20
-6.853119922089661
 30
0.0
 40
7.290514254295032
100
AcDbArc
 50
270.1498592491495
 51
1.801635498211144
  0
LINE
  5
11E
330
2
100
AcDbEntity
  8
GAIKEI
100
AcDbLine
 10
24.74388436409095
 20
-6.509701598639877
 30
0.0
 11
9.628143045329467
 21
-6.509701598639877
 31
0.0
  0
LINE
  5
11F
330
2
100
AcDbEntity
  8
GAIKEI
100
AcDbLine
 10
24.86114338603056
 20
-4.944030308060347
 30
0.0
 11
9.510884023389737
 21
-4.944030308060347
 31
0.0
  0
LINE
  5
120
330
2
100
AcDbEntity
  8
GAIKEI
 62
     1
100
AcDbLine
 10
9.461055869267738
 20
-5.093999884583637
 30
0.0
 11
24.91104084217524
 21
-5.093999884583637
 31
0.0
  0
LINE
  5
121
330
2
100
AcDbEntity
  8
GAIKEI
100
AcDbLine
 10
24.86114338603056
 20
-5.243830857062164
 30
0.0
 11
9.510884023389737
 21
-5.243830857062164
 31
0.0
  0
LINE
  5
122
330
2
100
AcDbEntity
  8
GAIKEI
100
AcDbLine
 10
24.50389146044017
 20
-6.624049935637742
 30
0.0
 11
23.73588644794904
 21
-6.624049935637742
 31
0.0
  0
LINE
  5
123
330
2
100
AcDbEntity
  8
GAIKEI
100
AcDbLine
 10
11.1861183889235
 20
2.625760299177073
 30
0.0
 11
23.18563181240727
 21
2.625760299177073
 31
0.0
  0
LINE
  5
124
330
2
100
AcDbEntity
  8
GAIKEI
 62
     1
100
AcDbLine
 10
9.868551761114758
 20
-6.624049935637742
 30
0.0
 11
23.73588644794904
 21
-6.624049935637742
 31
0.0
  0
SPLINE
  5
125
330
2
100
AcDbEntity
  8
GAIKEI
100
AcDbSpline
210
0.0
220
0.0
230
1.0
 70
     8
 71
     3
 72
     8
 73
     4
 74
     0
 42
0.0000000001
 43
0.0000000001
 40
0.0
 40
0.0
 40
0.0
 40
0.0
 40
1.0
 40
1.0
 40
1.0
 40
1.0
 10
9.584690677270373
 20
-6.47671383596662
 30
0.0
 10
9.585591603561852
 20
-6.505266269204809
 30
0.0
 10
9.603610129391768
 20
-6.530353601321905
 30
0.0
 10
9.630430012069382
 20
-6.540333092550837
 30
0.0
  0
LINE
  5
126
330
2
100
AcDbEntity
  8
GAIKEI
100
AcDbLine
 10
9.844296053266589
 20
-6.619476002157909
 30
0.0
 11
9.868551761114758
 21
-6.624049935637742
 31
0.0
  0
LINE
  5
127
330
2
100
AcDbEntity
  8
GAIKEI
100
AcDbLine
 10
9.630430012069382
 20
-6.540333092550837
 30
0.0
 11
9.844296053266589
 21
-6.619476002157909
 31
0.0
  0
LWPOLYLINE
  5
128
330
2
100
AcDbEntity
  8
GAIKEI
100
AcDbPolyline
 90
        3
 70
     0
 43
0.0
 10
9.510884023389847
 20
-4.944030308060347
 10
9.461055869267738
 20
-5.093999884583637
 10
9.510884023389847
 20
-5.243830857062222
  0
LINE
  5
129
330
2
100
AcDbEntity
  8
GAIKEI
100
AcDbLine
 10
9.556068942009574
 20
-5.243830857062164
 30
0.0
 11
9.584690677270259
 21
-6.476713835966561
 31
0.0
  0
LINE
  5
12A
330
2
100
AcDbEntity
  8
GAIKEI
100
AcDbLine
 10
11.17556446161313
 20
9.156390760934273
 30
0.0
 11
11.1861183889235
 21
2.625760299177073
 31
0.0
  0
SPLINE
  5
12B
330
2
100
AcDbEntity
  8
GAIKEI
100
AcDbSpline
210
0.0
220
0.0
230
1.0
 70
     8
 71
     3
 72
     8
 73
     4
 74
     0
 42
0.0000000001
 43
0.0000000001
 40
0.0
 40
0.0
 40
0.0
 40
0.0
 40
1.0
 40
1.0
 40
1.0
 40
1.0
 10
24.74159739735114
 20
-6.540333092550837
 30
0.0
 10
24.76855588407364
 20
-6.530353601321905
 30
0.0
 10
24.78657440990355
 20
-6.505266269204809
 30
0.0
 10
24.78747533619503
 20
-6.47671383596662
 30
0.0
  0
LINE
  5
12C
330
2
100
AcDbEntity
  8
GAIKEI
100
AcDbLine
 10
24.91104084217524
 20
-5.093999884583637
 30
0.0
 11
24.86114338603056
 21
-5.243830857062164
 31
0.0
  0
LINE
  5
12D
330
2
100
AcDbEntity
  8
GAIKEI
100
AcDbLine
 10
24.81623567550059
 20
-5.243830857062164
 30
0.0
 11
24.78747533619503
 21
-6.476713835966561
 31
0.0
  0
LINE
  5
12E
330
2
100
AcDbEntity
  8
GAIKEI
100
AcDbLine
 10
24.86114338603056
 20
-4.944030308060347
 30
0.0
 11
24.91104084217524
 21
-5.093999884583637
 31
0.0
  0
LINE
  5
12F
330
2
100
AcDbEntity
  8
GAIKEI
100
AcDbLine
 10
24.74159739735092
 20
-6.540333092550837
 30
0.0
 11
24.52800856424346
 21
-6.619476002157909
 31
0.0
  0
SPLINE
  5
130
330
2
100
AcDbEntity
  8
GAIKEI
 62
     1
100
AcDbSpline
210
0.0
220
0.0
230
1.0
 70
    24
 71
     3
 72
     8
 73
     4
 74
     0
 42
0.0000000001
 43
0.0000000001
 40
5.0
 40
5.0
 40
5.0
 40
5.0
 40
6.0
 40
6.0
 40
6.0
 40
6.0
 10
9.311876224184175
 20
27.5622540498016
 30
0.0
 10
9.311876224184175
 20
27.5622540498016
 30
0.0
 10
9.311876224184175
 20
26.56554968967089
 30
0.0
 10
9.311876224184175
 20
26.56554968967089
 30
0.0
  0
SPLINE
  5
131
330
2
100
AcDbEntity
  8
GAIKEI
 62
     1
100
AcDbSpline
210
0.0
220
0.0
230
1.0
 70
    24
 71
     3
 72
     8
 73
     4
 74
     0
 42
0.0000000001
 43
0.0000000001
 40
3.0
 40
3.0
 40
3.0
 40
3.0
 40
4.0
 40
4.0
 40
4.0
 40
4.0
 10
11.90327312907538
 20
27.82126462235823
 30
0.0
 10
11.90327312907538
 20
27.82126462235823
 30
0.0
 10
11.90327312907538
 20
27.5622540498016
 30
0.0
 10
11.90327312907538
 20
27.5622540498016
 30
0.0
  0
SPLINE
  5
132
330
2
100
AcDbEntity
  8
GAIKEI
100
AcDbSpline
210
0.0
220
0.0
230
1.0
 70
    24
 71
     3
 72
     8
 73
     4
 74
     0
 42
0.0000000001
 43
0.0000000001
 40
1.0
 40
1.0
 40
1.0
 40
1.0
 40
2.0
 40
2.0
 40
2.0
 40
2.0
 10
15.00795685488879
 20
29.35639076093418
 30
0.0
 10
15.00795685488879
 20
29.35639076093418
 30
0.0
 10
15.00795685488879
 20
27.82126462235823
 30
0.0
 10
15.00795685488879
 20
27.82126462235823
 30
0.0
  0
SPLINE
  5
133
330
2
100
AcDbEntity
  8
GAIKEI
100
AcDbSpline
210
0.0
220
0.0
230
1.0
 70
    24
 71
     3
 72
     8
 73
     4
 74
     0
 42
0.0000000001
 43
0.0000000001
 40
0.0
 40
0.0
 40
0.0
 40
0.0
 40
1.0
 40
1.0
 40
1.0
 40
1.0
 10
19.36362118919874
 20
29.35639076093418
 30
0.0
 10
19.36362118919874
 20
29.35639076093418
 30
0.0
 10
15.00795685488879
 20
29.35639076093418
 30
0.0
 10
15.00795685488879
 20
29.35639076093418
 30
0.0
  0
SPLINE
  5
134
330
2
100
AcDbEntity
  8
GAIKEI
 62
     1
100
AcDbSpline
210
0.0
220
0.0
230
1.0
 70
    24
 71
     3
 72
     8
 73
     4
 74
     0
 42
0.0000000001
 43
0.0000000001
 40
3.0
 40
3.0
 40
3.0
 40
3.0
 40
4.0
 40
4.0
 40
4.0
 40
4.0
 10
22.46830491501214
 20
27.5622540498016
 30
0.0
 10
22.46830491501214
 20
27.5622540498016
 30
0.0
 10
25.05987397714671
 20
27.5622540498016
 30
0.0
 10
25.05987397714671
 20
27.5622540498016
 30
0.0
  0
SPLINE
  5
135
330
2
100
AcDbEntity
  8
GAIKEI
 62
     1
100
AcDbSpline
210
0.0
220
0.0
230
1.0
 70
    24
 71
     3
 72
     8
 73
     4
 74
     0
 42
0.0000000001
 43
0.0000000001
 40
2.0
 40
2.0
 40
2.0
 40
2.0
 40
3.0
 40
3.0
 40
3.0
 40
3.0
 10
22.46830491501214
 20
27.82126462235823
 30
0.0
 10
22.46830491501214
 20
27.82126462235823
 30
0.0
 10
22.46830491501214
 20
27.5622540498016
 30
0.0
 10
22.46830491501214
 20
27.5622540498016
 30
0.0
  0
SPLINE
  5
136
330
2
100
AcDbEntity
  8
GAIKEI
 62
     1
100
AcDbSpline
210
0.0
220
0.0
230
1.0
 70
    24
 71
     3
 72
     8
 73
     4
 74
     0
 42
0.0000000001
 43
0.0000000001
 40
1.0
 40
1.0
 40
1.0
 40
1.0
 40
2.0
 40
2.0
 40
2.0
 40
2.0
 10
19.36362118919874
 20
27.82126462235823
 30
0.0
 10
19.36362118919874
 20
27.82126462235823
 30
0.0
 10
22.46830491501214
 20
27.82126462235823
 30
0.0
 10
22.46830491501214
 20
27.82126462235823
 30
0.0
  0
SPLINE
  5
137
330
2
100
AcDbEntity
  8
GAIKEI
100
AcDbSpline
210
0.0
220
0.0
230
1.0
 70
    24
 71
     3
 72
     8
 73
     4
 74
     0
 42
0.0000000001
 43
0.0000000001
 40
0.0
 40
0.0
 40
0.0
 40
0.0
 40
1.0
 40
1.0
 40
1.0
 40
1.0
 10
19.36362118919874
 20
29.35639076093418
 30
0.0
 10
19.36362118919874
 20
29.35639076093418
 30
0.0
 10
19.36362118919874
 20
27.82126462235823
 30
0.0
 10
19.36362118919874
 20
27.82126462235823
 30
0.0
  0
LINE
  5
138
330
2
100
AcDbEntity
  8
GAIKEI
 62
     1
100
AcDbLine
 10
14.19571898096239
 20
26.56554968967089
 30
0.0
 11
9.311876224184175
 21
26.56554968967089
 31
0.0
  0
LINE
  5
139
330
2
100
AcDbEntity
  8
GAIKEI
 62
     1
100
AcDbLine
 10
14.19571898096239
 20
27.5622540498016
 30
0.0
 11
14.19571898096239
 21
26.56554968967089
 31
0.0
  0
LINE
  5
13A
330
2
100
AcDbEntity
  8
GAIKEI
 62
     1
100
AcDbLine
 10
15.29227454221166
 20
27.5622540498016
 30
0.0
 11
14.19571898096239
 21
27.5622540498016
 31
0.0
  0
LINE
  5
13B
330
2
100
AcDbEntity
  8
GAIKEI
100
AcDbLine
 10
15.29227454221166
 20
19.58853309013432
 30
0.0
 11
15.29227454221166
 21
27.5622540498016
 31
0.0
  0
LINE
  5
13C
330
2
100
AcDbEntity
  8
GAIKEI
 62
     1
100
AcDbLine
 10
20.17585906312502
 20
26.56554968967089
 30
0.0
 11
23.48127813463543
 21
26.56554968967089
 31
0.0
  0
LINE
  5
13D
330
2
100
AcDbEntity
  8
GAIKEI
 62
     1
100
AcDbLine
 10
20.17585906312502
 20
27.5622540498016
 30
0.0
 11
20.17585906312502
 21
26.56554968967089
 31
0.0
  0
LINE
  5
13E
330
2
100
AcDbEntity
  8
GAIKEI
100
AcDbLine
 10
19.07947565911911
 20
19.58853309013432
 30
0.0
 11
19.07947565911911
 21
27.5622540498016
 31
0.0
  0
LINE
  5
13F
330
2
100
AcDbEntity
  8
GAIKEI
100
AcDbLine
 10
15.29227454221166
 20
12.59523169600825
 30
0.0
 11
15.29227454221166
 21
18.79101466051077
 31
0.0
  0
LINE
  5
140
330
2
100
AcDbEntity
  8
GAIKEI
100
AcDbLine
 10
19.07947565911911
 20
12.59523169600825
 30
0.0
 11
19.07947565911911
 21
18.79101466051077
 31
0.0
  0
LINE
  5
141
330
2
100
AcDbEntity
  8
GAIKEI
100
AcDbLine
 10
19.07947565911911
 20
19.58853309013432
 30
0.0
 11
19.07947565911911
 21
27.5622540498016
 31
0.0
  0
LINE
  5
142
330
2
100
AcDbEntity
  8
GAIKEI
100
AcDbLine
 10
15.29227454221166
 20
19.58853309013432
 30
0.0
 11
15.29227454221166
 21
27.5622540498016
 31
0.0
  0
LINE
  5
143
330
2
100
AcDbEntity
  8
GAIKEI
 62
     1
100
AcDbLine
 10
17.1857459827329
 20
28.96180635927266
 30
0.0
 11
17.53462263629626
 21
28.76029630598083
 31
0.0
  0
LINE
  5
144
330
2
100
AcDbEntity
  8
GAIKEI
 62
     1
100
AcDbLine
 10
16.83712756503451
 20
28.76029630598083
 30
0.0
 11
17.1857459827329
 21
28.96180635927266
 31
0.0
  0
LINE
  5
145
330
2
100
AcDbEntity
  8
GAIKEI
 62
     1
100
AcDbLine
 10
16.83712756503451
 20
28.35753443526215
 30
0.0
 11
16.83712756503451
 21
28.76029630598083
 31
0.0
  0
LINE
  5
146
330
2
100
AcDbEntity
  8
GAIKEI
 62
     1
100
AcDbLine
 10
17.1857459827329
 20
28.15602438197032
 30
0.0
 11
16.83712756503451
 21
28.35753443526215
 31
0.0
  0
LINE
  5
147
330
2
100
AcDbEntity
  8
GAIKEI
 62
     1
100
AcDbLine
 10
17.53462263629626
 20
28.76029630598083
 30
0.0
 11
17.53462263629626
 21
28.35753443526215
 31
0.0
  0
LINE
  5
148
330
2
100
AcDbEntity
  8
GAIKEI
 62
     1
100
AcDbLine
 10
17.53462263629626
 20
28.35753443526215
 30
0.0
 11
17.1857459827329
 21
28.15602438197032
 31
0.0
  0
CIRCLE
  5
149
330
2
100
AcDbEntity
  8
GAIKEI
 62
     1
100
AcDbCircle
 10
17.18587510066538
 20
28.55887233131068
 30
0.0
 40
0.3487475356308451
  0
CIRCLE
  5
14A
330
2
100
AcDbEntity
  8
GAIKEI
 62
     1
100
AcDbCircle
 10
17.18578902204376
 20
28.55887233131068
 30
0.0
 40
0.199401127061299
  0
CIRCLE
  5
14B
330
2
100
AcDbEntity
  8
GAIKEI
 62
     1
100
AcDbCircle
 10
17.18587510066538
 20
28.55887233131068
 30
0.0
 40
0.1594606466138814
  0
LINE
  5
14C
330
2
100
AcDbEntity
  8
GAIKEI
 62
     1
100
AcDbLine
 10
14.5600037078018
 20
28.65528038756304
 30
0.0
 11
14.5600037078018
 21
29.25972446881684
 31
0.0
  0
LINE
  5
14D
330
2
100
AcDbEntity
  8
GAIKEI
 62
     1
100
AcDbLine
 10
14.5600037078018
 20
29.25972446881684
 30
0.0
 11
14.69411420033862
 21
29.27143116136182
 31
0.0
  0
LINE
  5
14E
330
2
100
AcDbEntity
  8
GAIKEI
 62
     1
100
AcDbLine
 10
14.69411420033862
 20
29.27143116136182
 30
0.0
 11
14.69411420033862
 21
28.64365977363981
 31
0.0
  0
LINE
  5
14F
330
2
100
AcDbEntity
  8
GAIKEI
 62
     1
100
AcDbLine
 10
14.5600037078018
 20
28.65528038756304
 30
0.0
 11
14.69411420033862
 21
28.64365977363981
 31
0.0
  0
LINE
  5
150
330
2
100
AcDbEntity
  8
GAIKEI
 62
     1
100
AcDbLine
 10
15.00795685488879
 20
29.10710707262444
 30
0.0
 11
14.69411420033862
 21
29.10710707262444
 31
0.0
  0
LINE
  5
151
330
2
100
AcDbEntity
  8
GAIKEI
 62
     1
100
AcDbLine
 10
15.00795685488879
 20
29.07715171228892
 30
0.0
 11
14.69411420033862
 21
29.07715171228892
 31
0.0
  0
LINE
  5
152
330
2
100
AcDbEntity
  8
GAIKEI
 62
     1
100
AcDbLine
 10
15.00795685488879
 20
28.8379392227127
 30
0.0
 11
14.69411420033862
 21
28.8379392227127
 31
0.0
  0
LINE
  5
153
330
2
100
AcDbEntity
  8
GAIKEI
 62
     1
100
AcDbLine
 10
15.00795685488879
 20
28.80815601962041
 30
0.0
 11
14.69411420033862
 21
28.80815601962041
 31
0.0
  0
LINE
  5
154
330
2
100
AcDbEntity
  8
GAIKEI
 62
     1
100
AcDbLine
 10
14.5600037078018
 20
27.85793411518284
 30
0.0
 11
14.5600037078018
 21
28.46263643230157
 31
0.0
  0
LINE
  5
155
330
2
100
AcDbEntity
  8
GAIKEI
 62
     1
100
AcDbLine
 10
14.5600037078018
 20
28.46263643230157
 30
0.0
 11
14.69411420033862
 21
28.47425704622486
 31
0.0
  0
LINE
  5
156
330
2
100
AcDbEntity
  8
GAIKEI
 62
     1
100
AcDbLine
 10
14.69411420033862
 20
28.47425704622486
 30
0.0
 11
14.69411420033862
 21
27.84614134401625
 31
0.0
  0
LINE
  5
157
330
2
100
AcDbEntity
  8
GAIKEI
 62
     1
100
AcDbLine
 10
14.5600037078018
 20
27.85793411518284
 30
0.0
 11
14.69411420033862
 21
27.84614134401625
 31
0.0
  0
LINE
  5
158
330
2
100
AcDbEntity
  8
GAIKEI
 62
     1
100
AcDbLine
 10
15.00795685488879
 20
28.3095886430009
 30
0.0
 11
14.69411420033862
 21
28.3095886430009
 31
0.0
  0
LINE
  5
159
330
2
100
AcDbEntity
  8
GAIKEI
 62
     1
100
AcDbLine
 10
15.00795685488879
 20
28.27980543990867
 30
0.0
 11
14.69411420033862
 21
28.27980543990867
 31
0.0
  0
LINE
  5
15A
330
2
100
AcDbEntity
  8
GAIKEI
 62
     1
100
AcDbLine
 10
15.00795685488879
 20
28.04050687171077
 30
0.0
 11
14.69411420033862
 21
28.04050687171077
 31
0.0
  0
LINE
  5
15B
330
2
100
AcDbEntity
  8
GAIKEI
 62
     1
100
AcDbLine
 10
15.00795685488879
 20
28.01055151137524
 30
0.0
 11
14.69411420033862
 21
28.01055151137524
 31
0.0
  0
SPLINE
  5
15C
330
2
100
AcDbEntity
  8
GAIKEI
 62
     1
100
AcDbSpline
210
0.0
220
0.0
230
1.0
 70
     8
 71
     3
 72
     8
 73
     4
 74
     0
 42
0.0000000001
 43
0.0000000001
 40
0.0
 40
0.0
 40
0.0
 40
0.0
 40
1.0
 40
1.0
 40
1.0
 40
1.0
 10
14.5600037078018
 20
29.25972446881684
 30
0.0
 10
14.48623432904446
 20
29.06518678387903
 30
0.0
 10
14.48623432904446
 20
28.85007630836589
 30
0.0
 10
14.5600037078018
 20
28.65528038756304
 30
0.0
  0
SPLINE
  5
15D
330
2
100
AcDbEntity
  8
GAIKEI
 62
     1
100
AcDbSpline
210
0.0
220
0.0
230
1.0
 70
     8
 71
     3
 72
     8
 73
     4
 74
     0
 42
0.0000000001
 43
0.0000000001
 40
0.0
 40
0.0
 40
0.0
 40
0.0
 40
1.0
 40
1.0
 40
1.0
 40
1.0
 10
14.5600037078018
 20
28.46263643230157
 30
0.0
 10
14.48623432904446
 20
28.2675822756338
 30
0.0
 10
14.48623432904446
 20
28.05273003598563
 30
0.0
 10
14.5600037078018
 20
27.85793411518279
 30
0.0
  0
LINE
  5
15E
330
2
100
AcDbEntity
  8
GAIKEI
100
AcDbLine
 10
19.36362118919862
 20
29.35639076093423
 30
0.0
 11
19.36362118919862
 21
27.82126462235823
 31
0.0
  0
LINE
  5
15F
330
2
100
AcDbEntity
  8
GAIKEI
 62
     1
100
AcDbLine
 10
22.46830491501214
 20
27.5622540498016
 30
0.0
 11
22.46830491501214
 21
27.82126462235823
 31
0.0
  0
LINE
  5
160
330
2
100
AcDbEntity
  8
GAIKEI
 62
     1
100
AcDbLine
 10
11.90327312907527
 20
27.82126462235823
 30
0.0
 11
11.90327312907527
 21
27.5622540498016
 31
0.0
  0
LINE
  5
161
330
2
100
AcDbEntity
  8
GAIKEI
100
AcDbLine
 10
15.00795685488879
 20
29.35639076093423
 30
0.0
 11
15.00795685488879
 21
27.82126462235823
 31
0.0
  0
LINE
  5
162
330
2
100
AcDbEntity
  8
GAIKEI
 62
     1
100
AcDbLine
 10
11.90327312907527
 20
27.82126462235823
 30
0.0
 11
22.46830491501214
 21
27.82126462235823
 31
0.0
  0
LINE
  5
163
330
2
100
AcDbEntity
  8
GAIKEI
 62
     1
100
AcDbLine
 10
11.90327312907527
 20
27.5622540498016
 30
0.0
 11
22.46830491501214
 21
27.5622540498016
 31
0.0
  0
LINE
  5
164
330
2
100
AcDbEntity
  8
GAIKEI
100
AcDbLine
 10
19.36362118919862
 20
29.35639076093423
 30
0.0
 11
15.00795685488879
 21
29.35639076093423
 31
0.0
  0
SPLINE
  5
165
330
2
100
AcDbEntity
  8
GAIKEI
100
AcDbSpline
210
0.0
220
0.0
230
1.0
 70
    24
 71
     3
 72
     8
 73
     4
 74
     0
 42
0.0000000001
 43
0.0000000001
 40
4.0
 40
4.0
 40
4.0
 40
4.0
 40
5.0
 40
5.0
 40
5.0
 40
5.0
 10
19.07947565911911
 20
18.79101466051077
 30
0.0
 10
19.07947565911911
 20
18.79101466051077
 30
0.0
 10
20.85631056729926
 20
18.79101466051077
 30
0.0
 10
20.85631056729926
 20
18.79101466051077
 30
0.0
  0
SPLINE
  5
166
330
2
100
AcDbEntity
  8
GAIKEI
100
AcDbSpline
210
0.0
220
0.0
230
1.0
 70
    24
 71
     3
 72
     8
 73
     4
 74
     0
 42
0.0000000001
 43
0.0000000001
 40
3.0
 40
3.0
 40
3.0
 40
3.0
 40
4.0
 40
4.0
 40
4.0
 40
4.0
 10
19.07947565911911
 20
12.59523169600825
 30
0.0
 10
19.07947565911911
 20
12.59523169600825
 30
0.0
 10
19.07947565911911
 20
18.79101466051077
 30
0.0
 10
19.07947565911911
 20
18.79101466051077
 30
0.0
  0
SPLINE
  5
167
330
2
100
AcDbEntity
  8
GAIKEI
100
AcDbSpline
210
0.0
220
0.0
230
1.0
 70
    24
 71
     3
 72
     8
 73
     4
 74
     0
 42
0.0000000001
 43
0.0000000001
 40
2.0
 40
2.0
 40
2.0
 40
2.0
 40
3.0
 40
3.0
 40
3.0
 40
3.0
 10
19.17941293885928
 20
12.59523169600825
 30
0.0
 10
19.17941293885928
 20
12.59523169600825
 30
0.0
 10
19.07947565911911
 20
12.59523169600825
 30
0.0
 10
19.07947565911911
 20
12.59523169600825
 30
0.0
  0
LINE
  5
168
330
2
100
AcDbEntity
  8
GAIKEI
100
AcDbLine
 10
23.19618573971764
 20
9.156390760934273
 30
0.0
 11
11.17556446161313
 21
9.156390760934273
 31
0.0
  0
LINE
  5
169
330
2
100
AcDbEntity
  8
GAIKEI
100
AcDbLine
 10
23.19618573971764
 20
9.156390760934273
 30
0.0
 11
11.17556446161313
 21
9.156390760934273
 31
0.0
  0
LINE
  5
16A
330
2
100
AcDbEntity
  8
GAIKEI
100
AcDbLine
 10
11.17556446161313
 20
9.156390760934273
 30
0.0
 11
11.19880568945962
 21
10.48785488067707
 31
0.0
  0
LINE
  5
16B
330
2
100
AcDbEntity
  8
GAIKEI
100
AcDbLine
 10
15.19250941971484
 20
12.59523169600825
 30
0.0
 11
19.17941293885928
 21
12.59523169600825
 31
0.0
  0
LINE
  5
16C
330
2
100
AcDbEntity
  8
GAIKEI
 62
     1
100
AcDbLine
 10
14.19718231753052
 20
20.58549568613
 30
0.0
 11
6.195841476506415
 21
20.58549568612995
 31
0.0
  0
LINE
  5
16D
330
2
100
AcDbEntity
  8
GAIKEI
 62
     1
100
AcDbLine
 10
20.17758063555811
 20
20.58549568613
 30
0.0
 11
28.17590872482436
 21
20.58549568613
 31
0.0
  0
LINE
  5
16E
330
2
100
AcDbEntity
  8
GAIKEI
100
AcDbLine
 10
21.15508946305999
 20
19.07980843615968
 30
0.0
 11
21.17273558049908
 21
19.58853309013432
 31
0.0
  0
LINE
  5
16F
330
2
100
AcDbEntity
  8
GAIKEI
100
AcDbLine
 10
13.21683289551413
 20
19.07980843615968
 30
0.0
 11
13.19901462083169
 21
19.58853309013432
 31
0.0
  0
LINE
  5
170
330
2
100
AcDbEntity
  8
GAIKEI
100
AcDbLine
 10
13.19901462083169
 20
19.58853309013432
 30
0.0
 11
21.17273558049908
 21
19.58853309013432
 31
0.0
  0
LINE
  5
171
330
2
100
AcDbEntity
  8
GAIKEI
100
AcDbLine
 10
13.51662435343166
 20
18.79101466051077
 30
0.0
 11
20.85529774940017
 21
18.79101466051077
 31
0.0
  0
LINE
  5
172
330
2
100
AcDbEntity
  8
GAIKEI
 62
     1
100
AcDbLine
 10
10.90656876894456
 20
22.77856009190481
 30
0.0
 11
10.90656876894456
 21
23.17654827653456
 31
0.0
  0
LINE
  5
173
330
2
100
AcDbEntity
  8
GAIKEI
 62
     1
100
AcDbLine
 10
9.710420242441839
 20
26.36619160192044
 30
0.0
 11
9.710420242441839
 21
22.77783210103359
 31
0.0
  0
LINE
  5
174
330
2
100
AcDbEntity
  8
GAIKEI
 62
     1
100
AcDbLine
 10
10.90656876894456
 20
25.96738934779785
 30
0.0
 11
10.90656876894456
 21
26.3655496896709
 31
0.0
  0
LINE
  5
175
330
2
100
AcDbEntity
  8
GAIKEI
 62
     1
100
AcDbLine
 10
10.70712460257255
 20
25.96738934779785
 30
0.0
 11
10.90656876894456
 21
25.96738934779785
 31
0.0
  0
LINE
  5
176
330
2
100
AcDbEntity
  8
GAIKEI
 62
     1
100
AcDbLine
 10
10.70712460257255
 20
26.36619160192044
 30
0.0
 11
10.70712460257255
 21
25.96738934779785
 31
0.0
  0
LINE
  5
177
330
2
100
AcDbEntity
  8
GAIKEI
 62
     1
100
AcDbLine
 10
9.909606172948995
 20
26.36619160192044
 30
0.0
 11
10.70712460257255
 21
26.36619160192044
 31
0.0
  0
LINE
  5
178
330
2
100
AcDbEntity
  8
GAIKEI
 62
     1
100
AcDbLine
 10
9.909606172948995
 20
22.77783210103359
 30
0.0
 11
9.909606172948995
 21
26.36619160192044
 31
0.0
  0
LINE
  5
179
330
2
100
AcDbEntity
  8
GAIKEI
 62
     1
100
AcDbLine
 10
10.70712460257255
 20
22.77783210103359
 30
0.0
 11
9.909606172948995
 21
22.77783210103359
 31
0.0
  0
LINE
  5
17A
330
2
100
AcDbEntity
  8
GAIKEI
 62
     1
100
AcDbLine
 10
10.70712460257255
 20
23.17654827653456
 30
0.0
 11
10.70712460257255
 21
22.77783210103359
 31
0.0
  0
LINE
  5
17B
330
2
100
AcDbEntity
  8
GAIKEI
 62
     1
100
AcDbLine
 10
10.90656876894456
 20
23.17654827653456
 30
0.0
 11
10.70712460257255
 21
23.17654827653456
 31
0.0
  0
LINE
  5
17C
330
2
100
AcDbEntity
  8
GAIKEI
 62
     1
100
AcDbLine
 10
6.430566521562582
 20
22.57856009190476
 30
0.0
 11
14.19571898096239
 21
22.57856009190476
 31
0.0
  0
LINE
  5
17D
330
2
100
AcDbEntity
  8
GAIKEI
 62
     1
100
AcDbLine
 10
27.50381820314465
 20
22.57856009190476
 30
0.0
 11
20.17585906312502
 21
22.57856009190476
 31
0.0
  0
LINE
  5
17E
330
2
100
AcDbEntity
  8
GAIKEI
 62
     1
100
AcDbLine
 10
14.19571898096239
 20
20.58506529302173
 30
0.0
 11
14.19571898096239
 21
19.58853309013432
 31
0.0
  0
LINE
  5
17F
330
2
100
AcDbEntity
  8
GAIKEI
 62
     1
100
AcDbLine
 10
14.19571898096239
 20
20.58506529302173
 30
0.0
 11
6.639651493559994
 21
20.58506529302173
 31
0.0
  0
LINE
  5
180
330
2
100
AcDbEntity
  8
GAIKEI
 62
     1
100
AcDbLine
 10
20.17585906312502
 20
20.58506529302173
 30
0.0
 11
27.50381820314465
 21
20.58506529302173
 31
0.0
  0
LINE
  5
181
330
2
100
AcDbEntity
  8
GAIKEI
 62
     1
100
AcDbLine
 10
14.19571898096239
 20
22.57856009190476
 30
0.0
 11
14.19571898096239
 21
20.58506529302173
 31
0.0
  0
LINE
  5
182
330
2
100
AcDbEntity
  8
GAIKEI
 62
     1
100
AcDbLine
 10
14.19571898096239
 20
19.58853309013432
 30
0.0
 11
6.430566521562582
 21
19.58853309013432
 31
0.0
  0
LINE
  5
183
330
2
100
AcDbEntity
  8
GAIKEI
 62
     1
100
AcDbLine
 10
20.17585906312502
 20
22.57856009190476
 30
0.0
 11
20.17585906312502
 21
20.58506529302173
 31
0.0
  0
LINE
  5
184
330
2
100
AcDbEntity
  8
GAIKEI
 62
     1
100
AcDbLine
 10
20.17585906312502
 20
19.58853309013432
 30
0.0
 11
27.50381820314465
 21
19.58853309013432
 31
0.0
  0
LINE
  5
185
330
2
100
AcDbEntity
  8
GAIKEI
 62
     1
100
AcDbLine
 10
20.17585906312502
 20
27.5622540498016
 30
0.0
 11
20.17585906312502
 21
26.56554968967089
 31
0.0
  0
LINE
  5
186
330
2
100
AcDbEntity
  8
GAIKEI
 62
     1
100
AcDbLine
 10
25.0598739771466
 20
27.5622540498016
 30
0.0
 11
20.17585906312502
 21
27.5622540498016
 31
0.0
  0
LINE
  5
187
330
2
100
AcDbEntity
  8
GAIKEI
 62
     1
100
AcDbLine
 10
20.17585906312502
 20
26.56554968967089
 30
0.0
 11
25.0598739771466
 21
26.56554968967089
 31
0.0
  0
LINE
  5
188
330
2
100
AcDbEntity
  8
GAIKEI
 62
     1
100
AcDbLine
 10
9.311876224184175
 20
27.5622540498016
 30
0.0
 11
9.311876224184175
 21
26.56554968967089
 31
0.0
  0
LINE
  5
189
330
2
100
AcDbEntity
  8
GAIKEI
 62
     1
100
AcDbLine
 10
14.19571898096239
 20
27.5622540498016
 30
0.0
 11
9.311876224184175
 21
27.5622540498016
 31
0.0
  0
LINE
  5
18A
330
2
100
AcDbEntity
  8
GAIKEI
 62
     1
100
AcDbLine
 10
14.19571898096239
 20
26.56554968967089
 30
0.0
 11
14.19571898096239
 21
27.5622540498016
 31
0.0
  0
LINE
  5
18B
330
2
100
AcDbEntity
  8
GAIKEI
100
AcDbLine
 10
23.19618573971764
 20
9.156390760934273
 30
0.0
 11
23.17282885406587
 21
10.48464189057094
 31
0.0
  0
LINE
  5
18C
330
2
100
AcDbEntity
  8
GAIKEI
100
AcDbLine
 10
21.15511743420234
 20
19.08061482372829
 30
0.0
 11
21.17273558049908
 21
19.58853309013432
 31
0.0
  0
LINE
  5
18D
330
2
100
AcDbEntity
  8
GAIKEI
100
AcDbLine
 10
13.21680820088818
 20
19.08051348562475
 30
0.0
 11
13.19901462083169
 21
19.58853309013432
 31
0.0
  0
LINE
  5
18E
330
2
100
AcDbEntity
  8
GAIKEI
100
AcDbLine
 10
13.19901462083169
 20
19.58853309013432
 30
0.0
 11
21.17273558049908
 21
19.58853309013432
 31
0.0
  0
LINE
  5
18F
330
2
100
AcDbEntity
  8
GAIKEI
 62
     1
100
AcDbLine
 10
9.710420242441839
 20
26.3655496896709
 30
0.0
 11
9.710420242441839
 21
22.77856009190475
 31
0.0
  0
LINE
  5
190
330
2
100
AcDbEntity
  8
GAIKEI
 62
     1
100
AcDbLine
 10
14.19571898096239
 20
22.57856009190476
 30
0.0
 11
14.19571898096239
 21
19.58853309013432
 31
0.0
  0
LINE
  5
191
330
2
100
AcDbEntity
  8
GAIKEI
 62
     1
100
AcDbLine
 10
20.17585906312502
 20
22.57856009190476
 30
0.0
 11
20.17585906312502
 21
19.58853309013432
 31
0.0
  0
LINE
  5
192
330
2
100
AcDbEntity
  8
GAIKEI
 62
     1
100
AcDbLine
 10
20.17585906312502
 20
19.58853309013432
 30
0.0
 11
27.92717674925859
 21
19.58853309013432
 31
0.0
  0
ARC
  5
193
330
2
100
AcDbEntity
  8
GAIKEI
100
AcDbCircle
 10
20.85529774940017
 20
19.09101466051078
 30
0.0
 40
0.3
100
AcDbArc
 50
270.0
 51
358.0133794466484
  0
ARC
  5
194
330
2
100
AcDbEntity
  8
GAIKEI
100
AcDbCircle
 10
13.51662435343166
 20
19.09101466051078
 30
0.0
 40
0.3
100
AcDbArc
 50
182.0059864591933
 51
270.0
  0
ARC
  5
195
330
2
100
AcDbEntity
  8
GAIKEI
 62
     1
100
AcDbCircle
 10
10.70656876894463
 20
22.77856009190481
 30
0.0
 40
0.2
100
AcDbArc
 50
270.0
 51
0.0
  0
ARC
  5
196
330
2
100
AcDbEntity
  8
GAIKEI
 62
     1
100
AcDbCircle
 10
9.910420242441773
 20
22.77856009190475
 30
0.0
 40
0.2
100
AcDbArc
 50
180.0
 51
270.0
  0
ARC
  5
197
330
2
100
AcDbEntity
  8
GAIKEI
 62
     1
100
AcDbCircle
 10
9.910420242441773
 20
26.3655496896709
 30
0.0
 40
0.2
100
AcDbArc
 50
90.0
 51
180.0
  0
ARC
  5
198
330
2
100
AcDbEntity
  8
GAIKEI
 62
     1
100
AcDbCircle
 10
10.70656876894463
 20
26.3655496896709
 30
0.0
 40
0.2
100
AcDbArc
 50
0.0
 51
90.0
  0
LINE
  5
199
330
2
100
AcDbEntity
  8
GAIKEI
  6
Continuous
 62
     1
100
AcDbLine
 10
6.195919659849892
 20
20.03715069670477
 30
0.0
 11
6.290394840649923
 21
19.82049731430476
 31
0.0
  0
LINE
  5
19A
330
2
100
AcDbEntity
  8
GAIKEI
  6
Continuous
 62
     1
100
AcDbLine
 10
6.663711077449875
 20
21.49767195110479
 30
0.0
 11
6.601702949449872
 21
21.34345126630478
 31
0.0
  0
LINE
  5
19B
330
2
100
AcDbEntity
  8
GAIKEI
  6
Continuous
 62
     1
100
AcDbLine
 10
6.578444805449862
 20
22.30260823910477
 30
0.0
 11
6.665773938249912
 21
22.06208444390478
 31
0.0
  0
LINE
  5
19C
330
2
100
AcDbEntity
  8
GAIKEI
  6
Continuous
 62
     1
100
AcDbLine
 10
6.262148024649945
 20
20.75264964710476
 30
0.0
 11
6.197254520649947
 21
20.5917407639048
 31
0.0
  0
LINE
  5
19D
330
2
100
AcDbEntity
  8
GAIKEI
  6
Continuous
 62
     1
100
AcDbLine
 10
6.197254520649947
 20
20.5917407639048
 30
0.0
 11
6.158490975049857
 21
20.42042173030478
 31
0.0
  0
LINE
  5
19E
330
2
100
AcDbEntity
  8
GAIKEI
  6
Continuous
 62
     1
100
AcDbLine
 10
6.154998904649914
 20
20.23634197990481
 30
0.0
 11
6.195919659849892
 21
20.03715069670477
 31
0.0
  0
LINE
  5
19F
330
2
100
AcDbEntity
  8
GAIKEI
  6
Continuous
 62
     1
100
AcDbLine
 10
6.158490975049857
 20
20.42042173030478
 30
0.0
 11
6.154998904649914
 21
20.23634197990481
 31
0.0
  0
LINE
  5
1A0
330
2
100
AcDbEntity
  8
GAIKEI
  6
Continuous
 62
     1
100
AcDbLine
 10
6.601702949449872
 20
21.34345126630478
 30
0.0
 11
6.522382648649909
 21
21.19695412070479
 31
0.0
  0
LINE
  5
1A1
330
2
100
AcDbEntity
  8
GAIKEI
  6
Continuous
 62
     1
100
AcDbLine
 10
6.433759173449857
 20
21.05263989350476
 30
0.0
 11
6.34403005344984
 21
20.90549911270477
 31
0.0
  0
LINE
  5
1A2
330
2
100
AcDbEntity
  8
GAIKEI
  6
Continuous
 62
     1
100
AcDbLine
 10
6.34403005344984
 20
20.90549911270477
 30
0.0
 11
6.262148024649945
 21
20.75264964710476
 31
0.0
  0
LINE
  5
1A3
330
2
100
AcDbEntity
  8
GAIKEI
  6
Continuous
 62
     1
100
AcDbLine
 10
6.522382648649909
 20
21.19695412070479
 30
0.0
 11
6.433759173449857
 21
21.05263989350476
 31
0.0
  0
LINE
  5
1A4
330
2
100
AcDbEntity
  8
GAIKEI
  6
Continuous
 62
     1
100
AcDbLine
 10
6.433759173449857
 20
22.57856009190476
 30
0.0
 11
6.578444805449862
 21
22.30260823910477
 31
0.0
  0
LINE
  5
1A5
330
2
100
AcDbEntity
  8
GAIKEI
  6
Continuous
 62
     1
100
AcDbLine
 10
6.703755487049875
 20
21.85144766950481
 30
0.0
 11
6.700398200649941
 21
21.66515712870478
 31
0.0
  0
LINE
  5
1A6
330
2
100
AcDbEntity
  8
GAIKEI
  6
Continuous
 62
     1
100
AcDbLine
 10
6.700398200649941
 20
21.66515712870478
 30
0.0
 11
6.663711077449875
 21
21.49767195110479
 31
0.0
  0
LINE
  5
1A7
330
2
100
AcDbEntity
  8
GAIKEI
  6
Continuous
 62
     1
100
AcDbLine
 10
6.665773938249912
 20
22.06208444390478
 30
0.0
 11
6.703755487049875
 21
21.85144766950481
 31
0.0
  0
LWPOLYLINE
  5
1A8
330
2
100
AcDbEntity
  8
GAIKEI
  6
Continuous
 62
     1
100
AcDbPolyline
 90
        2
 70
   129
 43
0.0
 10
6.290394840649923
 20
19.82049731430476
 10
6.447565714249889
 20
19.58403118310474
  0
LWPOLYLINE
  5
1A9
330
2
100
AcDbEntity
  8
GAIKEI
  6
Continuous
 62
     1
100
AcDbPolyline
 90
        2
 70
   129
 43
0.0
 10
28.08135536068085
 20
19.82049731430476
 10
27.92418448708088
 20
19.58403118310474
  0
LINE
  5
1AA
330
2
100
AcDbEntity
  8
GAIKEI
  6
Continuous
 62
     1
100
AcDbLine
 10
27.70597626308086
 20
22.06208444390478
 30
0.0
 11
27.6679947142809
 21
21.85144766950481
 31
0.0
  0
LINE
  5
1AB
330
2
100
AcDbEntity
  8
GAIKEI
  6
Continuous
 62
     1
100
AcDbLine
 10
27.67135200068083
 20
21.66515712870478
 30
0.0
 11
27.70803912388089
 21
21.49767195110479
 31
0.0
  0
LINE
  5
1AC
330
2
100
AcDbEntity
  8
GAIKEI
  6
Continuous
 62
     1
100
AcDbLine
 10
27.6679947142809
 20
21.85144766950481
 30
0.0
 11
27.67135200068083
 21
21.66515712870478
 31
0.0
  0
LINE
  5
1AD
330
2
100
AcDbEntity
  8
GAIKEI
  6
Continuous
 62
     1
100
AcDbLine
 10
27.93799102788091
 20
22.57856009190476
 30
0.0
 11
27.79330539588091
 21
22.30260823910477
 31
0.0
  0
LINE
  5
1AE
330
2
100
AcDbEntity
  8
GAIKEI
  6
Continuous
 62
     1
100
AcDbLine
 10
27.84936755268086
 20
21.19695412070479
 30
0.0
 11
27.93799102788091
 21
21.05263989350476
 31
0.0
  0
LINE
  5
1AF
330
2
100
AcDbEntity
  8
GAIKEI
  6
Continuous
 62
     1
100
AcDbLine
 10
28.02772014788093
 20
20.90549911270477
 30
0.0
 11
28.10960217668082
 21
20.75264964710476
 31
0.0
  0
LINE
  5
1B0
330
2
100
AcDbEntity
  8
GAIKEI
  6
Continuous
 62
     1
100
AcDbLine
 10
27.93799102788091
 20
21.05263989350476
 30
0.0
 11
28.02772014788093
 21
20.90549911270477
 31
0.0
  0
LINE
  5
1B1
330
2
100
AcDbEntity
  8
GAIKEI
  6
Continuous
 62
     1
100
AcDbLine
 10
27.7700472518809
 20
21.34345126630478
 30
0.0
 11
27.84936755268086
 21
21.19695412070479
 31
0.0
  0
LINE
  5
1B2
330
2
100
AcDbEntity
  8
GAIKEI
  6
Continuous
 62
     1
100
AcDbLine
 10
28.21325922628091
 20
20.42042173030478
 30
0.0
 11
28.21675129668085
 21
20.23634197990481
 31
0.0
  0
LINE
  5
1B3
330
2
100
AcDbEntity
  8
GAIKEI
  6
Continuous
 62
     1
100
AcDbLine
 10
28.21675129668085
 20
20.23634197990481
 30
0.0
 11
28.17583054148088
 21
20.03715069670477
 31
0.0
  0
LINE
  5
1B4
330
2
100
AcDbEntity
  8
GAIKEI
  6
Continuous
 62
     1
100
AcDbLine
 10
28.17449568068082
 20
20.5917407639048
 30
0.0
 11
28.21325922628091
 21
20.42042173030478
 31
0.0
  0
LINE
  5
1B5
330
2
100
AcDbEntity
  8
GAIKEI
  6
Continuous
 62
     1
100
AcDbLine
 10
28.10960217668082
 20
20.75264964710476
 30
0.0
 11
28.17449568068082
 21
20.5917407639048
 31
0.0
  0
LINE
  5
1B6
330
2
100
AcDbEntity
  8
GAIKEI
  6
Continuous
 62
     1
100
AcDbLine
 10
27.79330539588091
 20
22.30260823910477
 30
0.0
 11
27.70597626308086
 21
22.06208444390478
 31
0.0
  0
LINE
  5
1B7
330
2
100
AcDbEntity
  8
GAIKEI
  6
Continuous
 62
     1
100
AcDbLine
 10
27.70803912388089
 20
21.49767195110479
 30
0.0
 11
27.7700472518809
 21
21.34345126630478
 31
0.0
  0
LINE
  5
1B8
330
2
100
AcDbEntity
  8
GAIKEI
  6
Continuous
 62
     1
100
AcDbLine
 10
28.17583054148088
 20
20.03715069670477
 30
0.0
 11
28.08135536068085
 21
19.82049731430476
 31
0.0
  0
ARC
  5
1B9
330
2
100
AcDbEntity
  8
GAIKEI
 62
     1
100
AcDbCircle
 10
23.66518143238613
 20
26.3655496896709
 30
0.0
 40
0.2
100
AcDbArc
 50
90.0
 51
180.0
  0
ARC
  5
1BA
330
2
100
AcDbEntity
  8
GAIKEI
 62
     1
100
AcDbCircle
 10
24.461329958889
 20
26.3655496896709
 30
0.0
 40
0.2
100
AcDbArc
 50
0.0
 51
90.0
  0
ARC
  5
1BB
330
2
100
AcDbEntity
  8
GAIKEI
 62
     1
100
AcDbCircle
 10
24.461329958889
 20
22.77856009190475
 30
0.0
 40
0.2
100
AcDbArc
 50
270.0
 51
0.0
  0
ARC
  5
1BC
330
2
100
AcDbEntity
  8
GAIKEI
 62
     1
100
AcDbCircle
 10
23.66518143238613
 20
22.77856009190481
 30
0.0
 40
0.2
100
AcDbArc
 50
180.0
 51
270.0
  0
LINE
  5
1BD
330
2
100
AcDbEntity
  8
GAIKEI
 62
     1
100
AcDbLine
 10
24.66132995888904
 20
26.3655496896709
 30
0.0
 11
24.66132995888904
 21
22.77856009190475
 31
0.0
  0
LINE
  5
1BE
330
2
100
AcDbEntity
  8
GAIKEI
 62
     1
100
AcDbLine
 10
25.0598739771466
 20
27.5622540498016
 30
0.0
 11
25.0598739771466
 21
26.56554968967089
 31
0.0
  0
LINE
  5
1BF
330
2
100
AcDbEntity
  8
GAIKEI
 62
     1
100
AcDbLine
 10
23.4651814323862
 20
23.17654827653456
 30
0.0
 11
23.66462559875833
 21
23.17654827653456
 31
0.0
  0
LINE
  5
1C0
330
2
100
AcDbEntity
  8
GAIKEI
 62
     1
100
AcDbLine
 10
23.66462559875833
 20
23.17654827653456
 30
0.0
 11
23.66462559875833
 21
22.77783210103359
 31
0.0
  0
LINE
  5
1C1
330
2
100
AcDbEntity
  8
GAIKEI
 62
     1
100
AcDbLine
 10
23.66462559875833
 20
22.77783210103359
 30
0.0
 11
24.46214402838177
 21
22.77783210103359
 31
0.0
  0
LINE
  5
1C2
330
2
100
AcDbEntity
  8
GAIKEI
 62
     1
100
AcDbLine
 10
24.46214402838177
 20
22.77783210103359
 30
0.0
 11
24.46214402838177
 21
26.36619160192044
 31
0.0
  0
LINE
  5
1C3
330
2
100
AcDbEntity
  8
GAIKEI
 62
     1
100
AcDbLine
 10
24.46214402838177
 20
26.36619160192044
 30
0.0
 11
23.66462559875833
 21
26.36619160192044
 31
0.0
  0
LINE
  5
1C4
330
2
100
AcDbEntity
  8
GAIKEI
 62
     1
100
AcDbLine
 10
23.66462559875833
 20
26.36619160192044
 30
0.0
 11
23.66462559875833
 21
25.96738934779785
 31
0.0
  0
LINE
  5
1C5
330
2
100
AcDbEntity
  8
GAIKEI
 62
     1
100
AcDbLine
 10
23.66462559875833
 20
25.96738934779785
 30
0.0
 11
23.4651814323862
 21
25.96738934779785
 31
0.0
  0
LINE
  5
1C6
330
2
100
AcDbEntity
  8
GAIKEI
 62
     1
100
AcDbLine
 10
23.4651814323862
 20
25.96738934779785
 30
0.0
 11
23.4651814323862
 21
26.3655496896709
 31
0.0
  0
LINE
  5
1C7
330
2
100
AcDbEntity
  8
GAIKEI
 62
     1
100
AcDbLine
 10
24.66132995888904
 20
26.36619160192044
 30
0.0
 11
24.66132995888904
 21
22.77783210103359
 31
0.0
  0
LINE
  5
1C8
330
2
100
AcDbEntity
  8
GAIKEI
 62
     1
100
AcDbLine
 10
23.4651814323862
 20
22.77856009190481
 30
0.0
 11
23.4651814323862
 21
23.17654827653456
 31
0.0
  0
SPLINE
  5
1C9
330
2
100
AcDbEntity
  8
GAIKEI
 62
     1
100
AcDbSpline
210
0.0
220
0.0
230
1.0
 70
    24
 71
     3
 72
     8
 73
     4
 74
     0
 42
0.0000000001
 43
0.0000000001
 40
5.0
 40
5.0
 40
5.0
 40
5.0
 40
6.0
 40
6.0
 40
6.0
 40
6.0
 10
25.05987397714671
 20
27.5622540498016
 30
0.0
 10
25.05987397714671
 20
27.5622540498016
 30
0.0
 10
25.05987397714671
 20
26.56554968967089
 30
0.0
 10
25.05987397714671
 20
26.56554968967089
 30
0.0
  0
ARC
  5
1CA
330
2
100
AcDbEntity
  8
GAIKEI
  6
Continuous
100
AcDbCircle
 10
17.18735268020134
 20
-2.21720163611198
 30
0.0
 40
14.94578486706641
100
AcDbArc
 50
70.51169501882879
 51
82.340494778198
  0
ARC
  5
1CB
330
2
100
AcDbEntity
  8
GAIKEI
  6
Continuous
100
AcDbCircle
 10
21.6730607163122
 20
10.45826893133451
 30
0.0
 40
1.5
100
AcDbArc
 50
1.007424746382819
 51
70.51169501882879
  0
ARC
  5
1CC
330
2
100
AcDbEntity
  8
GAIKEI
  6
Continuous
100
AcDbCircle
 10
12.69886164226182
 20
10.45826893133451
 30
0.0
 40
1.5
100
AcDbArc
 50
109.4883049811712
 51
178.9925752536171
  0
ARC
  5
1CD
330
2
100
AcDbEntity
  8
GAIKEI
  6
Continuous
100
AcDbCircle
 10
17.18456967837267
 20
-2.21720163611198
 30
0.0
 40
14.94578486706641
100
AcDbArc
 50
97.65950522180196
 51
109.4883049811712
  0
ARC
  5
1CE
330
2
100
AcDbEntity
  8
GAIKEI
  6
Continuous
 62
     1
100
AcDbCircle
 10
17.18581305005943
 20
-5.897095718588047
 30
0.0
 40
6.530465090241127
100
AcDbArc
 50
199.7773290936778
 51
340.2241427226055
  0
ARC
  5
1CF
330
2
100
AcDbEntity
  8
GAIKEI
  6
Continuous
 62
     1
100
AcDbCircle
 10
17.18580579864283
 20
-6.657351552594491
 30
0.0
 40
6.313875405416133
100
AcDbArc
 50
193.2713148230092
 51
346.7286851769908
  0
ARC
  5
1D0
330
2
100
AcDbEntity
  8
GAIKEI
  6
Continuous
 62
     1
100
AcDbCircle
 10
18.4706128237384
 20
-7.565265482439031
 30
0.0
 40
5.913575271642431
100
AcDbArc
 50
225.0857469365123
 51
242.2247818895709
  0
ARC
  5
1D1
330
2
100
AcDbEntity
  8
GAIKEI
  6
Continuous
 62
     1
100
AcDbCircle
 10
16.48481187033496
 20
-8.253020818426023
 30
0.0
 40
4.376888458968045
100
AcDbArc
 50
217.6138841889832
 51
250.8219998726388
  0
LINE
  5
1D2
330
2
100
AcDbEntity
  8
GAIKEI
  6
Continuous
 62
     1
100
AcDbLine
 10
20.52806371225234
 20
-11.50747313957578
 30
0.0
 11
20.82626977493749
 21
-11.8090077158144
 31
0.0
  0
ARC
  5
1D3
330
2
100
AcDbEntity
  8
GAIKEI
 62
     1
100
AcDbCircle
 10
17.20487438895884
 20
-6.853119922089661
 30
0.0
 40
6.290514254295032
100
AcDbArc
 50
178.1983645017888
 51
191.4956661014763
  0
ARC
  5
1D4
330
2
100
AcDbEntity
  8
GAIKEI
 62
     1
100
AcDbCircle
 10
17.16673720832705
 20
-6.853119922089661
 30
0.0
 40
6.290514254295032
100
AcDbArc
 50
348.5043338985238
 51
1.801635498211144
  0
DIMENSION
  5
1D5
330
2
100
AcDbEntity
  8
SUNPO
100
AcDbDimension
  2
*D6
 10
-6.516663051293106
 20
29.35639076093423
 30
0.0
 11
-8.266663051293111
 21
19.25639076093426
 31
0.0
 70
    33
  1
202
 71
     5
 42
20.19999999999993
  3
STANDARD
100
AcDbAlignedDimension
 13
-17.57231087853915
 23
9.1563907609343
 33
0.0
 14
-17.57231087853915
 24
29.35639076093423
 34
0.0
1001
ACAD
1000
DSTYLE
1002
{
1070
    40
1040
1.0
1070
   140
1040
2.5
1070
   147
1040
0.5
1070
   172
1070
     1
1070
   279
1070
     0
1070
   288
1070
     0
1002
}
  0
DIMENSION
  5
1E4
330
2
100
AcDbEntity
  8
SUNPO
100
AcDbDimension
  2
*D5
 10
-6.516663051293099
 20
9.156390760934298
 30
0.0
 11
-8.2666630512931
 21
-2.493609239065722
 31
0.0
 70
    33
  1
233
 71
     5
 42
23.30000000000004
  3
STANDARD
100
AcDbAlignedDimension
 13
-17.57231087853915
 23
-14.14360923906574
 33
0.0
 14
-17.57231087853915
 24
9.1563907609343
 34
0.0
1001
ACAD
1000
DSTYLE
1002
{
1070
    40
1040
1.0
1070
   140
1040
2.5
1070
   147
1040
0.5
1070
   172
1070
     1
1070
   279
1070
     0
1070
   288
1070
     0
1002
}
  0
DIMENSION
  5
1F1
330
2
100
AcDbEntity
  8
SUNPO
100
AcDbDimension
  2
*D4
 10
-18.62608940785321
 20
32.08995268672831
 30
0.0
 11
-24.63640004690552
 21
33.83995268672831
 31
0.0
 70
    33
  1
φ120
 71
     5
 42
12.02062127810461
  3
STANDARD
100
AcDbAlignedDimension
 13
-30.64671068595783
 23
9.156390760934273
 33
0.0
 14
-18.62608940785321
 24
9.156390760934273
 34
0.0
1001
ACAD
1000
DSTYLE
1002
{
1070
    40
1040
1.0
1070
   140
1040
2.5
1070
   147
1040
0.5
1070
   172
1070
     1
1070
   279
1070
     0
1070
   288
1070
     0
1002
}
  0
LINE
  5
1FE
330
2
100
AcDbEntity
  8
GAIKEI
100
AcDbLine
 10
23.19618573971764
 20
9.156390760934273
 30
0.0
 11
23.18563181240727
 21
2.625760299177073
 31
0.0
  0
ARC
  5
1FF
330
2
100
AcDbEntity
  8
GAIKEI
100
AcDbCircle
 10
17.55063204906871
 20
-5.243797651570758
 30
0.0
 40
7.994657829792083
100
AcDbArc
 50
167.8705397463116
 51
177.8511362024053
  0
ARC
  5
200
330
2
100
AcDbEntity
  8
GAIKEI
100
AcDbCircle
 10
27.33433220789386
 20
-7.343628335244004
 30
0.0
 40
18.00115942567746
100
AcDbArc
 50
160.454810274949
 51
167.8794870261779
  0
ARC
  5
201
330
2
100
AcDbEntity
  8
GAIKEI
100
AcDbCircle
 10
-6.545661810380059
 20
4.688440735528472
 30
0.0
 40
17.95193082344904
100
AcDbArc
 50
340.4414163234968
 51
347.9130647284463
  0
ARC
  5
202
330
2
100
AcDbEntity
  8
GAIKEI
100
AcDbCircle
 10
3.186011234976078
 20
2.606126996357061
 30
0.0
 40
7.99997197650724
100
AcDbArc
 50
347.9014724638408
 51
0.1406138073985327
  0
ARC
  5
203
330
2
100
AcDbEntity
  8
GAIKEI
100
AcDbCircle
 10
7.037417993436918
 20
-7.343628335244004
 30
0.0
 40
18.00115942567746
100
AcDbArc
 50
12.12051297382201
 51
19.54518972505098
  0
ARC
  5
204
330
2
100
AcDbEntity
  8
GAIKEI
100
AcDbCircle
 10
16.82111815226206
 20
-5.243797651570758
 30
0.0
 40
7.994657829792083
100
AcDbArc
 50
2.14886379759473
 51
12.12946025368841
  0
ARC
  5
205
330
2
100
AcDbEntity
  8
GAIKEI
100
AcDbCircle
 10
40.91741201171084
 20
4.688440735528472
 30
0.0
 40
17.95193082344904
100
AcDbArc
 50
192.0869352715537
 51
199.5585836765032
  0
ARC
  5
206
330
2
100
AcDbEntity
  8
GAIKEI
100
AcDbCircle
 10
31.18573896635469
 20
2.606126996357061
 30
0.0
 40
7.99997197650724
100
AcDbArc
 50
179.8593861926015
 51
192.0985275361591
  0
ARC
  5
207
330
2
100
AcDbEntity
  8
GAIKEI
100
AcDbCircle
 10
-48.36793695795098
 20
4.688440735528472
 30
0.0
 40
17.95193082344904
100
AcDbArc
 50
340.4414163234968
 51
347.9130647284463
  0
ARC
  5
208
330
2
100
AcDbEntity
  8
GAIKEI
100
AcDbCircle
 10
-14.48794293967705
 20
-7.343628335244004
 30
0.0
 40
18.00115942567746
100
AcDbArc
 50
160.454810274949
 51
167.8794870261779
  0
ARC
  5
209
330
2
100
AcDbEntity
  8
GAIKEI
100
AcDbCircle
 10
-24.2716430985022
 20
-5.243797651570758
 30
0.0
 40
7.994657829792083
100
AcDbArc
 50
167.8705397463116
 51
177.8511362024053
  0
ARC
  5
20A
330
2
100
AcDbEntity
  8
GAIKEI
100
AcDbCircle
 10
-38.63626391259483
 20
2.606126996357061
 30
0.0
 40
7.99997197650724
100
AcDbArc
 50
347.9014724638408
 51
0.1406138073985327
  0
ARC
  5
20B
330
2
100
AcDbEntity
  8
GAIKEI
100
AcDbCircle
 10
-10.63653618121621
 20
2.606126996357061
 30
0.0
 40
7.99997197650724
100
AcDbArc
 50
179.8593861926015
 51
192.0985275361591
  0
ARC
  5
20C
330
2
100
AcDbEntity
  8
GAIKEI
100
AcDbCircle
 10
-0.9048631358600689
 20
4.688440735528472
 30
0.0
 40
17.95193082344904
100
AcDbArc
 50
192.0869352715537
 51
199.5585836765032
  0
ARC
  5
20D
330
2
100
AcDbEntity
  8
GAIKEI
100
AcDbCircle
 10
-34.78485715413399
 20
-7.343628335244004
 30
0.0
 40
18.00115942567746
100
AcDbArc
 50
12.12051297382201
 51
19.54518972505098
  0
ARC
  5
20E
330
2
100
AcDbEntity
  8
GAIKEI
100
AcDbCircle
 10
-25.00115699530886
 20
-5.243797651570758
 30
0.0
 40
7.994657829792083
100
AcDbArc
 50
2.14886379759473
 51
12.12946025368841
  0
LINE
  5
20F
330
2
100
AcDbEntity
  8
GAIKEI
100
AcDbLine
 10
-18.62608940785326
 20
9.156390760934273
 30
0.0
 11
-18.63664333516364
 21
2.625760299177073
 31
0.0
  0
ENDSEC
  0
SECTION
  2
OBJECTS
  0
DICTIONARY
  5
9
330
0
100
AcDbDictionary
281
     1
  3
ACAD_COLOR
350
31
  3
ACAD_GROUP
350
2D
  3
ACAD_LAYOUT
350
D
  3
ACAD_MATERIAL
350
30
  3
ACAD_MLINESTYLE
350
2E
  3
ACAD_PLOTSETTINGS
350
2F
  3
ACAD_PLOTSTYLENAME
350
8
  3
ACDBHEADERROUNDTRIPXREC
350
269
  3
AcDbVariableDictionary
350
23C
  0
DICTIONARY
  5
15
330
14
100
AcDbDictionary
280
     1
281
     1
  3
ACAD_LAYERFILTERS
360
16
  3
ACAD_LAYERSTATES
360
17
  0
DICTIONARY
  5
3
330
2
100
AcDbDictionary
280
     1
281
     1
  3
ACAD_LAYOUTSELFREF
360
4
  0
DICTIONARY
  5
F
330
E
100
AcDbDictionary
280
     1
281
     1
  3
ACAD_LAYOUTSELFREF
360
10
  0
DICTIONARY
  5
31
102
{ACAD_REACTORS
330
9
102
}
330
9
100
AcDbDictionary
281
     1
  0
DICTIONARY
  5
2D
102
{ACAD_REACTORS
330
9
102
}
330
9
100
AcDbDictionary
281
     1
  0
DICTIONARY
  5
D
102
{ACAD_REACTORS
330
9
102
}
330
9
100
AcDbDictionary
281
     1
  3
Model
350
C
  3
ﾚｲｱｳﾄ1
350
13
  0
DICTIONARY
  5
30
102
{ACAD_REACTORS
330
9
102
}
330
9
100
AcDbDictionary
281
     1
  0
DICTIONARY
  5
2E
102
{ACAD_REACTORS
330
9
102
}
330
9
100
AcDbDictionary
281
     1
  3
STANDARD
350
33
  0
DICTIONARY
  5
2F
102
{ACAD_REACTORS
330
9
102
}
330
9
100
AcDbDictionary
281
     1
  0
ACDBDICTIONARYWDFLT
  5
8
102
{ACAD_REACTORS
330
9
102
}
330
9
100
AcDbDictionary
281
     1
  3
Normal
350
7
100
AcDbDictionaryWithDefault
340
7
  0
DICTIONARY
  5
269
102
{ACAD_REACTORS
330
9
102
}
330
9
100
AcDbDictionary
281
     1
  3
COLORDICT
350
26B
  3
MATERIALDICT
350
26A
  0
DICTIONARY
  5
23C
102
{ACAD_REACTORS
330
9
102
}
330
9
100
AcDbDictionary
281
     1
  3
DIMASSOC
350
23E
  3
HIDETEXT
350
23D
  3
PROJECTNAME
350
23F
  0
DICTIONARY
  5
16
102
{ACAD_REACTORS
330
15
102
}
330
15
100
AcDbDictionary
280
     1
281
     1
  0
DICTIONARY
  5
17
102
{ACAD_REACTORS
330
15
102
}
330
15
100
AcDbDictionary
281
     1
  0
XRECORD
  5
4
102
{ACAD_REACTORS
330
3
102
}
330
3
100
AcDbXrecord
280
     1
340
2
  0
XRECORD
  5
10
102
{ACAD_REACTORS
330
F
102
}
330
F
100
AcDbXrecord
280
     1
340
E
  0
LAYOUT
  5
C
102
{ACAD_XDICTIONARY
360
26C
102
}
102
{ACAD_REACTORS
330
D
102
}
330
D
100
AcDbPlotSettings
  1

  2
\\URANUS\8FPAM09
  4
A4
  6

 40
4.180416584014891
 41
4.349743366241455
 42
4.222747802734375
 43
4.349761962890625
 44
210.0156707763672
 45
297.0106506347656
 46
6.139999999999998
 47
0.0
 48
0.0
 49
0.0
140
0.0
141
0.0
142
1.0
143
1.36820659919442
 70
 11956
 72
     1
 73
     0
 74
     1
  7
tmsacad.ctb
 75
     0
147
0.7308837719309235
148
0.5393642229673789
149
0.139409547192372
100
AcDbLayout
  1
Model
 70
     1
 71
     0
 10
0.0
 20
0.0
 11
12.0
 21
9.0
 12
0.0
 22
0.0
 32
0.0
 14
0.0
 24
0.0
 34
0.0
 15
0.0
 25
0.0
 35
0.0
146
0.0
 13
0.0
 23
0.0
 33
0.0
 16
1.0
 26
0.0
 36
0.0
 17
0.0
 27
1.0
 37
0.0
 76
     0
330
2
  0
LAYOUT
  5
13
102
{ACAD_XDICTIONARY
360
26E
102
}
102
{ACAD_REACTORS
330
D
102
}
330
D
100
AcDbPlotSettings
  1

  2
C:\Program Files\ACAD2000\plotters\DWF ePlot.pc3
  4

  6

 40
0.0
 41
0.0
 42
0.0
 43
0.0
 44
0.0
 45
0.0
 46
0.0
 47
0.0
 48
0.0
 49
0.0
140
0.0
141
0.0
142
1.0
143
1.0
 70
   688
 72
     0
 73
     0
 74
     5
  7
tmsacad.ctb
 75
    16
147
1.0
148
0.0
149
0.0
100
AcDbLayout
  1
ﾚｲｱｳﾄ1
 70
     1
 71
     1
 10
0.0
 20
0.0
 11
12.0
 21
9.0
 12
0.0
 22
0.0
 32
0.0
 14
1.000000000000000E+20
 24
1.000000000000000E+20
 34
1.000000000000000E+20
 15
-1.000000000000000E+20
 25
-1.000000000000000E+20
 35
-1.000000000000000E+20
146
0.0
 13
0.0
 23
0.0
 33
0.0
 16
1.0
 26
0.0
 36
0.0
 17
0.0
 27
1.0
 37
0.0
 76
     0
330
E
  0
MLINESTYLE
  5
33
102
{ACAD_REACTORS
330
2E
102
}
330
2E
100
AcDbMlineStyle
  2
STANDARD
 70
     0
  3

 62
   256
 51
90.0
 52
90.0
 71
     2
 49
0.5
 62
   256
  6
BYLAYER
 49
-0.5
 62
   256
  6
BYLAYER
  0
ACDBPLACEHOLDER
  5
7
102
{ACAD_REACTORS
330
8
102
}
330
8
  0
XRECORD
  5
26B
102
{ACAD_REACTORS
330
269
102
}
330
269
100
AcDbXrecord
280
     1
340
31
  0
XRECORD
  5
26A
102
{ACAD_REACTORS
330
269
102
}
330
269
100
AcDbXrecord
280
     1
340
30
  0
DICTIONARYVAR
  5
23E
102
{ACAD_REACTORS
330
23C
102
}
330
23C
100
DictionaryVariables
280
     0
  1
1
  0
DICTIONARYVAR
  5
23D
102
{ACAD_REACTORS
330
23C
102
}
330
23C
100
DictionaryVariables
280
     0
  1
1
  0
DICTIONARYVAR
  5
23F
102
{ACAD_REACTORS
330
23C
102
}
330
23C
100
DictionaryVariables
280
     0
  1

  0
DICTIONARY
  5
26C
330
C
100
AcDbDictionary
280
     1
281
     1
  3
ACAD_XREC_ROUNDTRIP
360
26D
  0
DICTIONARY
  5
26E
330
13
100
AcDbDictionary
280
     1
281
     1
  3
ACAD_XREC_ROUNDTRIP
360
26F
  0
XRECORD
  5
26D
102
{ACAD_REACTORS
330
26C
102
}
330
26C
100
AcDbXrecord
280
     1
102
SHADEPLOT
 70
     0
102
SHADEPLOTRESLEVEL
 70
     2
102
SHADEPLOTCUSTOMDPI
 70
   300
  0
XRECORD
  5
26F
102
{ACAD_REACTORS
330
26E
102
}
330
26E
100
AcDbXrecord
280
     1
102
SHADEPLOT
 70
     0
102
SHADEPLOTRESLEVEL
 70
     2
102
SHADEPLOTCUSTOMDPI
 70
   300
  0
ENDSEC
  0
EOF
