  0
SECTION
  2
HEADER
  9
$ACADVER
  1
AC1015
  9
$ACADMAINTVER
 70
    13
  9
$DWGCODEPAGE
  3
ANSI_932
  9
$INSBASE
 10
0.0
 20
120.4992141396419
 30
0.0
  9
$EXTMIN
 10
-60.82543783135588
 20
-59.5895940852015
 30
-0.0015258207003583
  9
$EXTMAX
 10
64.25507113860885
 20
53.54148783042456
 30
0.0000000349246037
  9
$LIMMIN
 10
-1101.784450318844
 20
-1579.160531687243
  9
$LIMMAX
 10
-508.2420711400536
 20
-1161.440814074914
  9
$ORTHOMODE
 70
     1
  9
$REGENMODE
 70
     1
  9
$FILLMODE
 70
     1
  9
$QTEXTMODE
 70
     0
  9
$MIRRTEXT
 70
     1
  9
$LTSCALE
 40
1.0
  9
$ATTMODE
 70
     1
  9
$TEXTSIZE
 40
9.960114177239461
  9
$TRACEWID
 40
0.5
  9
$TEXTSTYLE
  7
STANDARD
  9
$CLAYER
  8
0
  9
$CELTYPE
  6
BYLAYER
  9
$CECOLOR
 62
   256
  9
$CELTSCALE
 40
1.0
  9
$DISPSILH
 70
     0
  9
$DIMSCALE
 40
1.0
  9
$DIMASZ
 40
2.0
  9
$DIMEXO
 40
2.0
  9
$DIMDLI
 40
8.0
  9
$DIMRND
 40
0.0
  9
$DIMDLE
 40
0.0
  9
$DIMEXE
 40
2.0
  9
$DIMTP
 40
0.0
  9
$DIMTM
 40
0.0
  9
$DIMTXT
 40
2.5
  9
$DIMCEN
 40
0.0
  9
$DIMTSZ
 40
0.0
  9
$DIMTOL
 70
     0
  9
$DIMLIM
 70
     0
  9
$DIMTIH
 70
     0
  9
$DIMTOH
 70
     0
  9
$DIMSE1
 70
     0
  9
$DIMSE2
 70
     0
  9
$DIMTAD
 70
     3
  9
$DIMZIN
 70
     0
  9
$DIMBLK
  1

  9
$DIMASO
 70
     1
  9
$DIMSHO
 70
     1
  9
$DIMPOST
  1

  9
$DIMAPOST
  1

  9
$DIMALT
 70
     0
  9
$DIMALTD
 70
     2
  9
$DIMALTF
 40
25.4
  9
$DIMLFAC
 40
1.0
  9
$DIMTOFL
 70
     1
  9
$DIMTVP
 40
0.0
  9
$DIMTIX
 70
     0
  9
$DIMSOXD
 70
     0
  9
$DIMSAH
 70
     1
  9
$DIMBLK1
  1
OPEN30
  9
$DIMBLK2
  1
OPEN30
  9
$DIMSTYLE
  2
STANDARD
  9
$DIMCLRD
 70
     0
  9
$DIMCLRE
 70
     0
  9
$DIMCLRT
 70
     0
  9
$DIMTFAC
 40
1.0
  9
$DIMGAP
 40
0.5
  9
$DIMJUST
 70
     0
  9
$DIMSD1
 70
     0
  9
$DIMSD2
 70
     0
  9
$DIMTOLJ
 70
     1
  9
$DIMTZIN
 70
     0
  9
$DIMALTZ
 70
     0
  9
$DIMALTTZ
 70
     0
  9
$DIMUPT
 70
     0
  9
$DIMDEC
 70
     4
  9
$DIMTDEC
 70
     4
  9
$DIMALTU
 70
     2
  9
$DIMALTTD
 70
     2
  9
$DIMTXSTY
  7
STANDARD
  9
$DIMAUNIT
 70
     0
  9
$DIMADEC
 70
     0
  9
$DIMALTRND
 40
0.0
  9
$DIMAZIN
 70
     0
  9
$DIMDSEP
 70
    46
  9
$DIMATFIT
 70
     3
  9
$DIMFRAC
 70
     0
  9
$DIMLDRBLK
  1
OPEN30
  9
$DIMLUNIT
 70
     2
  9
$DIMLWD
 70
    -2
  9
$DIMLWE
 70
    -2
  9
$DIMTMOVE
 70
     0
  9
$LUNITS
 70
     2
  9
$LUPREC
 70
     4
  9
$SKETCHINC
 40
0.1
  9
$FILLETRAD
 40
3.0
  9
$AUNITS
 70
     0
  9
$AUPREC
 70
     0
  9
$MENU
  1
ACAD
  9
$ELEVATION
 40
0.0
  9
$PELEVATION
 40
0.0
  9
$THICKNESS
 40
0.0
  9
$LIMCHECK
 70
     0
  9
$CHAMFERA
 40
0.0
  9
$CHAMFERB
 40
0.0
  9
$CHAMFERC
 40
0.0
  9
$CHAMFERD
 40
0.0
  9
$SKPOLY
 70
     0
  9
$TDCREATE
 40
2451815.565532581
  9
$TDUCREATE
 40
2451815.190532581
  9
$TDUPDATE
 40
2453951.342992616
  9
$TDUUPDATE
 40
2453950.967992616
  9
$TDINDWG
 40
1.1740407292
  9
$TDUSRTIMER
 40
1.1740407292
  9
$USRTIMER
 70
     1
  9
$ANGBASE
 50
0.0
  9
$ANGDIR
 70
     0
  9
$PDMODE
 70
     0
  9
$PDSIZE
 40
0.0
  9
$PLINEWID
 40
0.0
  9
$SPLFRAME
 70
     0
  9
$SPLINETYPE
 70
     6
  9
$SPLINESEGS
 70
     8
  9
$HANDSEED
  5
250
  9
$SURFTAB1
 70
     6
  9
$SURFTAB2
 70
     6
  9
$SURFTYPE
 70
     6
  9
$SURFU
 70
     6
  9
$SURFV
 70
     6
  9
$UCSBASE
  2

  9
$UCSNAME
  2

  9
$UCSORG
 10
0.0
 20
0.0
 30
0.0
  9
$UCSXDIR
 10
1.0
 20
0.0
 30
0.0
  9
$UCSYDIR
 10
0.0
 20
1.0
 30
0.0
  9
$UCSORTHOREF
  2

  9
$UCSORTHOVIEW
 70
     0
  9
$UCSORGTOP
 10
0.0
 20
0.0
 30
0.0
  9
$UCSORGBOTTOM
 10
0.0
 20
0.0
 30
0.0
  9
$UCSORGLEFT
 10
0.0
 20
0.0
 30
0.0
  9
$UCSORGRIGHT
 10
0.0
 20
0.0
 30
0.0
  9
$UCSORGFRONT
 10
0.0
 20
0.0
 30
0.0
  9
$UCSORGBACK
 10
0.0
 20
0.0
 30
0.0
  9
$PUCSBASE
  2

  9
$PUCSNAME
  2

  9
$PUCSORG
 10
0.0
 20
0.0
 30
0.0
  9
$PUCSXDIR
 10
1.0
 20
0.0
 30
0.0
  9
$PUCSYDIR
 10
0.0
 20
1.0
 30
0.0
  9
$PUCSORTHOREF
  2

  9
$PUCSORTHOVIEW
 70
     0
  9
$PUCSORGTOP
 10
0.0
 20
0.0
 30
0.0
  9
$PUCSORGBOTTOM
 10
0.0
 20
0.0
 30
0.0
  9
$PUCSORGLEFT
 10
0.0
 20
0.0
 30
0.0
  9
$PUCSORGRIGHT
 10
0.0
 20
0.0
 30
0.0
  9
$PUCSORGFRONT
 10
0.0
 20
0.0
 30
0.0
  9
$PUCSORGBACK
 10
0.0
 20
0.0
 30
0.0
  9
$USERI1
 70
     0
  9
$USERI2
 70
     0
  9
$USERI3
 70
     0
  9
$USERI4
 70
     0
  9
$USERI5
 70
     0
  9
$USERR1
 40
0.0
  9
$USERR2
 40
0.0
  9
$USERR3
 40
0.0
  9
$USERR4
 40
0.0
  9
$USERR5
 40
0.0
  9
$WORLDVIEW
 70
     1
  9
$SHADEDGE
 70
     3
  9
$SHADEDIF
 70
    70
  9
$TILEMODE
 70
     1
  9
$MAXACTVP
 70
    48
  9
$PINSBASE
 10
0.0
 20
0.0
 30
0.0
  9
$PLIMCHECK
 70
     0
  9
$PEXTMIN
 10
1.000000000000000E+20
 20
1.000000000000000E+20
 30
1.000000000000000E+20
  9
$PEXTMAX
 10
-1.000000000000000E+20
 20
-1.000000000000000E+20
 30
-1.000000000000000E+20
  9
$PLIMMIN
 10
0.0
 20
0.0
  9
$PLIMMAX
 10
12.0
 20
9.0
  9
$UNITMODE
 70
     0
  9
$VISRETAIN
 70
     1
  9
$PLINEGEN
 70
     0
  9
$PSLTSCALE
 70
     1
  9
$TREEDEPTH
 70
  3020
  9
$CMLSTYLE
  2
STANDARD
  9
$CMLJUST
 70
     0
  9
$CMLSCALE
 40
1.0
  9
$PROXYGRAPHICS
 70
     1
  9
$MEASUREMENT
 70
     0
  9
$CELWEIGHT
370
    -1
  9
$ENDCAPS
280
     0
  9
$JOINSTYLE
280
     0
  9
$LWDISPLAY
290
     0
  9
$INSUNITS
 70
     0
  9
$HYPERLINKBASE
  1

  9
$STYLESHEET
  1

  9
$XEDIT
290
     1
  9
$CEPSNTYPE
380
     0
  9
$PSTYLEMODE
290
     1
  9
$FINGERPRINTGUID
  2
{1754B7AB-9B3C-11D4-AD9E-00104B1004F2}
  9
$VERSIONGUID
  2
{368B578E-54BF-4A77-8395-7B737B0FFE3D}
  9
$EXTNAMES
290
     1
  9
$PSVPSCALE
 40
0.0
  9
$OLESTARTUP
290
     0
  0
ENDSEC
  0
SECTION
  2
CLASSES
  0
CLASS
  1
ACDBDICTIONARYWDFLT
  2
AcDbDictionaryWithDefault
  3
AutoCAD 2000
 90
        0
280
     0
281
     0
  0
CLASS
  1
ACDBPLACEHOLDER
  2
AcDbPlaceHolder
  3
AutoCAD 2000
 90
        0
280
     0
281
     0
  0
CLASS
  1
LAYOUT
  2
AcDbLayout
  3
AutoCAD 2000
 90
        0
280
     0
281
     0
  0
CLASS
  1
LONG_TRANSACTION
  2
AcDbLongTransaction
  3
AutoCAD 2000
 90
    32768
280
     0
281
     0
  0
CLASS
  1
LWPOLYLINE
  2
AcDbPolyline
  3
AutoCAD 2000
 90
    32768
280
     0
281
     1
  0
CLASS
  1
HATCH
  2
AcDbHatch
  3
AutoCAD 2000
 90
    32768
280
     0
281
     1
  0
CLASS
  1
XRECORD
  2
AcDbXrecord
  3
AutoCAD 2000
 90
    32768
280
     0
281
     0
  0
CLASS
  1
LONG_TRANSACTION
  2
AcDbLongTransaction
  3
AutoCAD 2000
 90
    32768
280
     0
281
     0
  0
CLASS
  1
LWPOLYLINE
  2
AcDbPolyline
  3
AutoCAD 2000
 90
    32768
280
     0
281
     1
  0
CLASS
  1
HATCH
  2
AcDbHatch
  3
AutoCAD 2000
 90
    32768
280
     0
281
     1
  0
CLASS
  1
XRECORD
  2
AcDbXrecord
  3
AutoCAD 2000
 90
    32768
280
     0
281
     0
  0
CLASS
  1
LONG_TRANSACTION
  2
AcDbLongTransaction
  3
AutoCAD 2000
 90
    32768
280
     0
281
     0
  0
CLASS
  1
LWPOLYLINE
  2
AcDbPolyline
  3
AutoCAD 2000
 90
    32768
280
     0
281
     1
  0
CLASS
  1
HATCH
  2
AcDbHatch
  3
AutoCAD 2000
 90
    32768
280
     0
281
     1
  0
CLASS
  1
XRECORD
  2
AcDbXrecord
  3
AutoCAD 2000
 90
    32768
280
     0
281
     0
  0
CLASS
  1
LONG_TRANSACTION
  2
AcDbLongTransaction
  3
AutoCAD 2000
 90
    32768
280
     0
281
     0
  0
CLASS
  1
LWPOLYLINE
  2
AcDbPolyline
  3
AutoCAD 2000
 90
    32768
280
     0
281
     1
  0
CLASS
  1
HATCH
  2
AcDbHatch
  3
AutoCAD 2000
 90
    32768
280
     0
281
     1
  0
CLASS
  1
XRECORD
  2
AcDbXrecord
  3
AutoCAD 2000
 90
    32768
280
     0
281
     0
  0
CLASS
  1
LONG_TRANSACTION
  2
AcDbLongTransaction
  3
AutoCAD 2000
 90
    32768
280
     0
281
     0
  0
CLASS
  1
LWPOLYLINE
  2
AcDbPolyline
  3
AutoCAD 2000
 90
    32768
280
     0
281
     1
  0
CLASS
  1
HATCH
  2
AcDbHatch
  3
AutoCAD 2000
 90
    32768
280
     0
281
     1
  0
CLASS
  1
XRECORD
  2
AcDbXrecord
  3
AutoCAD 2000
 90
    32768
280
     0
281
     0
  0
CLASS
  1
LONG_TRANSACTION
  2
AcDbLongTransaction
  3
AutoCAD 2000
 90
    32768
280
     0
281
     0
  0
CLASS
  1
LWPOLYLINE
  2
AcDbPolyline
  3
AutoCAD 2000
 90
    32768
280
     0
281
     1
  0
CLASS
  1
HATCH
  2
AcDbHatch
  3
AutoCAD 2000
 90
    32768
280
     0
281
     1
  0
CLASS
  1
XRECORD
  2
AcDbXrecord
  3
AutoCAD 2000
 90
    32768
280
     0
281
     0
  0
CLASS
  1
LONG_TRANSACTION
  2
AcDbLongTransaction
  3
AutoCAD 2000
 90
    32768
280
     0
281
     0
  0
CLASS
  1
LWPOLYLINE
  2
AcDbPolyline
  3
AutoCAD 2000
 90
    32768
280
     0
281
     1
  0
CLASS
  1
HATCH
  2
AcDbHatch
  3
AutoCAD 2000
 90
    32768
280
     0
281
     1
  0
CLASS
  1
XRECORD
  2
AcDbXrecord
  3
AutoCAD 2000
 90
    32768
280
     0
281
     0
  0
CLASS
  1
LONG_TRANSACTION
  2
AcDbLongTransaction
  3
AutoCAD 2000
 90
    32768
280
     0
281
     0
  0
CLASS
  1
LWPOLYLINE
  2
AcDbPolyline
  3
AutoCAD 2000
 90
    32768
280
     0
281
     1
  0
CLASS
  1
HATCH
  2
AcDbHatch
  3
AutoCAD 2000
 90
    32768
280
     0
281
     1
  0
CLASS
  1
XRECORD
  2
AcDbXrecord
  3
AutoCAD 2000
 90
    32768
280
     0
281
     0
  0
CLASS
  1
DICTIONARYVAR
  2
AcDbDictionaryVar
  3
AutoCAD 2000
 90
        0
280
     0
281
     0
  0
CLASS
  1
LONG_TRANSACTION
  2
AcDbLongTransaction
  3
AutoCAD 2000
 90
    32768
280
     0
281
     0
  0
CLASS
  1
LWPOLYLINE
  2
AcDbPolyline
  3
AutoCAD 2000
 90
    32768
280
     0
281
     1
  0
CLASS
  1
HATCH
  2
AcDbHatch
  3
AutoCAD 2000
 90
    32768
280
     0
281
     1
  0
CLASS
  1
XRECORD
  2
AcDbXrecord
  3
AutoCAD 2000
 90
    32768
280
     0
281
     0
  0
CLASS
  1
LONG_TRANSACTION
  2
AcDbLongTransaction
  3
AutoCAD 2000
 90
    32768
280
     0
281
     0
  0
CLASS
  1
LWPOLYLINE
  2
AcDbPolyline
  3
AutoCAD 2000
 90
    32768
280
     0
281
     1
  0
CLASS
  1
HATCH
  2
AcDbHatch
  3
AutoCAD 2000
 90
    32768
280
     0
281
     1
  0
CLASS
  1
XRECORD
  2
AcDbXrecord
  3
AutoCAD 2000
 90
    32768
280
     0
281
     0
  0
CLASS
  1
LONG_TRANSACTION
  2
AcDbLongTransaction
  3
AutoCAD 2000
 90
    32768
280
     0
281
     0
  0
CLASS
  1
LWPOLYLINE
  2
AcDbPolyline
  3
AutoCAD 2000
 90
    32768
280
     0
281
     1
  0
CLASS
  1
HATCH
  2
AcDbHatch
  3
AutoCAD 2000
 90
    32768
280
     0
281
     1
  0
CLASS
  1
XRECORD
  2
AcDbXrecord
  3
AutoCAD 2000
 90
    32768
280
     0
281
     0
  0
CLASS
  1
LONG_TRANSACTION
  2
AcDbLongTransaction
  3
AutoCAD 2000
 90
    32768
280
     0
281
     0
  0
CLASS
  1
LWPOLYLINE
  2
AcDbPolyline
  3
AutoCAD 2000
 90
    32768
280
     0
281
     1
  0
CLASS
  1
HATCH
  2
AcDbHatch
  3
AutoCAD 2000
 90
    32768
280
     0
281
     1
  0
CLASS
  1
XRECORD
  2
AcDbXrecord
  3
AutoCAD 2000
 90
    32768
280
     0
281
     0
  0
ENDSEC
  0
SECTION
  2
TABLES
  0
TABLE
  2
VPORT
  5
23
330
0
100
AcDbSymbolTable
 70
     5
  0
VPORT
  5
24F
330
23
100
AcDbSymbolTableRecord
100
AcDbViewportTableRecord
  2
*Active
 70
     0
 10
0.0
 20
0.0
 11
1.0
 21
1.0
 12
1.714816653626497
 22
-3.024053127388469
 13
0.0
 23
0.0
 14
1.0
 24
1.0
 15
0.0
 25
0.0
 16
0.0
 26
0.0
 36
1.0
 17
0.0
 27
0.0
 37
0.0
 40
113.9946779607835
 41
1.345222929936305
 42
50.0
 43
0.0
 44
0.0
 50
0.0
 51
0.0
 71
     0
 72
 10000
 73
     1
 74
     0
 75
     0
 76
     1
 77
     0
 78
     0
281
     0
 65
     1
110
0.0
120
0.0
130
0.0
111
1.0
121
0.0
131
0.0
112
0.0
122
1.0
132
0.0
 79
     0
146
0.0
  0
ENDTAB
  0
TABLE
  2
LTYPE
  5
1E
330
0
100
AcDbSymbolTable
 70
     3
  0
LTYPE
  5
1F
330
1E
100
AcDbSymbolTableRecord
100
AcDbLinetypeTableRecord
  2
BYBLOCK
 70
     0
  3

 72
    65
 73
     0
 40
0.0
  0
LTYPE
  5
20
330
1E
100
AcDbSymbolTableRecord
100
AcDbLinetypeTableRecord
  2
BYLAYER
 70
     0
  3

 72
    65
 73
     0
 40
0.0
  0
LTYPE
  5
A
330
1E
100
AcDbSymbolTableRecord
100
AcDbLinetypeTableRecord
  2
CONTINUOUS
 70
     0
  3
Solid line
 72
    65
 73
     0
 40
0.0
  0
LTYPE
  5
3A
330
1E
100
AcDbSymbolTableRecord
100
AcDbLinetypeTableRecord
  2
S10
 70
     0
  3
- - - - - - - - - 1,-1,1,-1
 72
    65
 73
     4
 40
4.0
 49
1.0
 74
     0
 49
-1.0
 74
     0
 49
1.0
 74
     0
 49
-1.0
 74
     0
  0
LTYPE
  5
3F
330
1E
100
AcDbSymbolTableRecord
100
AcDbLinetypeTableRecord
  2
HIDDEN2
 70
     0
  3
Hidden (.5x) _ _ _ _ _ _ _ _ _ _ _ _ _ _ _ _ _
 72
    65
 73
     2
 40
1.399999999999999
 49
0.7
 74
     0
 49
-0.7
 74
     0
  0
ENDTAB
  0
TABLE
  2
LAYER
  5
18
102
{ACAD_XDICTIONARY
360
19
102
}
330
0
100
AcDbSymbolTable
 70
     7
  0
LAYER
  5
6
330
18
100
AcDbSymbolTableRecord
100
AcDbLayerTableRecord
  2
0
 70
     0
 62
     7
  6
CONTINUOUS
370
    -3
390
7
  0
LAYER
  5
4D
330
18
100
AcDbSymbolTableRecord
100
AcDbLayerTableRecord
  2
DEFPOINTS
 70
     0
 62
     7
  6
CONTINUOUS
290
     0
370
    -3
390
7
  0
LAYER
  5
FF
330
18
100
AcDbSymbolTableRecord
100
AcDbLayerTableRecord
  2
WAKU
 70
     0
 62
     4
  6
CONTINUOUS
370
    -3
390
7
  0
LAYER
  5
35
330
18
100
AcDbSymbolTableRecord
100
AcDbLayerTableRecord
  2
MOJI1
 70
     0
 62
     2
  6
CONTINUOUS
370
    -3
390
7
  0
LAYER
  5
39
330
18
100
AcDbSymbolTableRecord
100
AcDbLayerTableRecord
  2
GAIKEI
 70
     0
 62
     7
  6
CONTINUOUS
370
    -3
390
7
  0
LAYER
  5
37
330
18
100
AcDbSymbolTableRecord
100
AcDbLayerTableRecord
  2
TOUROKU
 70
     0
 62
     1
  6
CONTINUOUS
370
    -3
390
7
  0
LAYER
  5
44
330
18
100
AcDbSymbolTableRecord
100
AcDbLayerTableRecord
  2
SUNPO
 70
     0
 62
     3
  6
CONTINUOUS
370
    -3
390
7
  0
ENDTAB
  0
TABLE
  2
STYLE
  5
1B
330
0
100
AcDbSymbolTable
 70
     1
  0
STYLE
  5
1C
330
1B
100
AcDbSymbolTableRecord
100
AcDbTextStyleTableRecord
  2
STANDARD
 70
     0
 40
0.0
 41
1.0
 50
0.0
 71
     0
 42
9.960114177239461
  3
MONOTXT.shx
  4
BIGFONT.shx
  0
ENDTAB
  0
TABLE
  2
VIEW
  5
21
330
0
100
AcDbSymbolTable
 70
     0
  0
ENDTAB
  0
TABLE
  2
UCS
  5
22
330
0
100
AcDbSymbolTable
 70
     0
  0
ENDTAB
  0
TABLE
  2
APPID
  5
25
330
0
100
AcDbSymbolTable
 70
     1
  0
APPID
  5
26
330
25
100
AcDbSymbolTableRecord
100
AcDbRegAppTableRecord
  2
ACAD
 70
     0
  0
ENDTAB
  0
TABLE
  2
DIMSTYLE
  5
27
330
0
100
AcDbSymbolTable
 70
     1
100
AcDbDimStyleTable
 71
     1
340
28
  0
DIMSTYLE
105
28
102
{ACAD_REACTORS
330
43
330
D5
330
98
330
54
102
}
330
27
100
AcDbSymbolTableRecord
100
AcDbDimStyleTableRecord
  2
STANDARD
 70
     0
 40
0.0
 41
2.0
 42
2.0
 43
8.0
 44
2.0
 73
     0
 74
     0
 77
     3
140
3.0
141
0.0
173
     1
279
     2
288
     1
340
1C
341
29
343
29
344
29
  0
ENDTAB
  0
TABLE
  2
BLOCK_RECORD
  5
1
330
0
100
AcDbSymbolTable
 70
     9
  0
BLOCK_RECORD
  5
2
102
{ACAD_XDICTIONARY
360
3
102
}
330
1
100
AcDbSymbolTableRecord
100
AcDbBlockTableRecord
  2
*MODEL_SPACE
340
C
  0
BLOCK_RECORD
  5
10
102
{ACAD_XDICTIONARY
360
11
102
}
330
1
100
AcDbSymbolTableRecord
100
AcDbBlockTableRecord
  2
*PAPER_SPACE
340
15
  0
BLOCK_RECORD
  5
29
330
1
100
AcDbSymbolTableRecord
100
AcDbBlockTableRecord
  2
_OPEN30
340
0
102
{BLKREFS
331
49
331
4A
331
DA
331
DB
331
9F
331
A0
331
59
331
5A
331
179
331
17A
331
185
331
186
331
193
331
194
331
19F
331
1A0
102
}
  0
BLOCK_RECORD
  5
45
330
1
100
AcDbSymbolTableRecord
100
AcDbBlockTableRecord
  2
*D1
340
0
  0
BLOCK_RECORD
  5
D6
330
1
100
AcDbSymbolTableRecord
100
AcDbBlockTableRecord
  2
*D2
340
0
  0
BLOCK_RECORD
  5
99
330
1
100
AcDbSymbolTableRecord
100
AcDbBlockTableRecord
  2
*D3
340
0
  0
BLOCK_RECORD
  5
55
330
1
100
AcDbSymbolTableRecord
100
AcDbBlockTableRecord
  2
*D4
340
0
  0
BLOCK_RECORD
  5
175
330
1
100
AcDbSymbolTableRecord
100
AcDbBlockTableRecord
  2
*D5
340
0
  0
BLOCK_RECORD
  5
181
330
1
100
AcDbSymbolTableRecord
100
AcDbBlockTableRecord
  2
*D6
340
0
  0
BLOCK_RECORD
  5
18D
330
1
100
AcDbSymbolTableRecord
100
AcDbBlockTableRecord
  2
*D7
340
0
  0
BLOCK_RECORD
  5
19B
330
1
100
AcDbSymbolTableRecord
100
AcDbBlockTableRecord
  2
*D8
340
0
  0
ENDTAB
  0
ENDSEC
  0
SECTION
  2
BLOCKS
  0
BLOCK
  5
5
330
2
100
AcDbEntity
  8
0
100
AcDbBlockBegin
  2
*MODEL_SPACE
 70
     0
 10
0.0
 20
0.0
 30
0.0
  3
*MODEL_SPACE
  1

  0
ENDBLK
  5
B
330
2
100
AcDbEntity
  8
0
100
AcDbBlockEnd
  0
BLOCK
  5
13
330
10
100
AcDbEntity
 67
     1
  8
0
100
AcDbBlockBegin
  2
*PAPER_SPACE
 70
     0
 10
0.0
 20
0.0
 30
0.0
  3
*PAPER_SPACE
  1

  0
ENDBLK
  5
14
330
10
100
AcDbEntity
 67
     1
  8
0
100
AcDbBlockEnd
  0
BLOCK
  5
2D
330
29
100
AcDbEntity
  8
0
100
AcDbBlockBegin
  2
_OPEN30
 70
     0
 10
0.0
 20
0.0
 30
0.0
  3
_OPEN30
  1

  0
LINE
  5
2A
330
29
100
AcDbEntity
  8
0
  6
ByBlock
 62
     0
100
AcDbLine
 10
-1.0
 20
0.26794919
 30
0.0
 11
0.0
 21
0.0
 31
0.0
  0
LINE
  5
2B
330
29
100
AcDbEntity
  8
0
  6
ByBlock
 62
     0
100
AcDbLine
 10
0.0
 20
0.0
 30
0.0
 11
-1.0
 21
-0.26794919
 31
0.0
  0
LINE
  5
2C
330
29
100
AcDbEntity
  8
0
  6
ByBlock
 62
     0
100
AcDbLine
 10
0.0
 20
0.0
 30
0.0
 11
-1.0
 21
0.0
 31
0.0
  0
ENDBLK
  5
2E
330
29
100
AcDbEntity
  8
0
100
AcDbBlockEnd
  0
BLOCK
  5
50
330
45
100
AcDbEntity
  8
0
100
AcDbBlockBegin
  2
*D1
 70
     1
 10
0.0
 20
0.0
 30
0.0
  3
*D1
  1

  0
LINE
  5
46
330
45
100
AcDbEntity
  8
SUNPO
 62
     0
370
    -2
100
AcDbLine
 10
45.25138757953726
 20
87.91774304009939
 30
0.0
 11
45.25138757953726
 21
98.54191130968073
 31
0.0
  0
LINE
  5
47
330
45
100
AcDbEntity
  8
SUNPO
 62
     0
370
    -2
100
AcDbLine
 10
65.17161593401619
 20
87.91774304009939
 30
0.0
 11
65.17161593401619
 21
98.54191130968073
 31
0.0
  0
LINE
  5
48
330
45
100
AcDbEntity
  8
SUNPO
 62
     0
370
    -2
100
AcDbLine
 10
47.25138757953726
 20
96.54191130968072
 30
0.0
 11
63.17161593401618
 21
96.54191130968072
 31
0.0
  0
INSERT
  5
49
330
45
100
AcDbEntity
  8
SUNPO
 62
     0
370
    -2
100
AcDbBlockReference
  2
_OPEN30
 10
45.25138757953726
 20
96.54191130968072
 30
0.0
 41
2.0
 42
2.0
 43
2.0
 50
180.0
  0
INSERT
  5
4A
330
45
100
AcDbEntity
  8
SUNPO
 62
     0
370
    -2
100
AcDbBlockReference
  2
_OPEN30
 10
65.17161593401619
 20
96.54191130968072
 30
0.0
 41
2.0
 42
2.0
 43
2.0
  0
MTEXT
  5
4B
330
45
100
AcDbEntity
  8
SUNPO
 62
     0
100
AcDbMText
 10
55.21150175677672
 20
98.29191130968073
 30
0.0
 40
2.5
 41
0.0
 71
     5
 72
     1
  1
\A1;φ100
 73
     1
 44
1.0
  0
POINT
  5
4C
330
45
100
AcDbEntity
  8
DEFPOINTS
 62
     0
100
AcDbPoint
 10
45.25138757953726
 20
85.91774304009939
 30
0.0
  0
POINT
  5
4E
330
45
100
AcDbEntity
  8
DEFPOINTS
 62
     0
100
AcDbPoint
 10
65.17161593401619
 20
85.91774304009939
 30
0.0
  0
POINT
  5
4F
330
45
100
AcDbEntity
  8
DEFPOINTS
 62
     0
100
AcDbPoint
 10
65.17161593401619
 20
96.54191130968072
 30
0.0
  0
ENDBLK
  5
51
330
45
100
AcDbEntity
  8
0
100
AcDbBlockEnd
  0
BLOCK
  5
E0
330
D6
100
AcDbEntity
  8
0
100
AcDbBlockBegin
  2
*D2
 70
     1
 10
0.0
 20
0.0
 30
0.0
  3
*D2
  1

  0
LINE
  5
D7
330
D6
100
AcDbEntity
  8
SUNPO
 62
     0
370
    -2
100
AcDbLine
 10
66.06136935023371
 20
85.87113382164265
 30
0.0
 11
74.06136935023372
 21
85.87113382164265
 31
0.0
  0
LINE
  5
D8
330
D6
100
AcDbEntity
  8
SUNPO
 62
     0
370
    -2
100
AcDbLine
 10
66.06136935023371
 20
65.04465483221534
 30
0.0
 11
74.06136935023372
 21
65.04465483221534
 31
0.0
  0
LINE
  5
D9
330
D6
100
AcDbEntity
  8
SUNPO
 62
     0
370
    -2
100
AcDbLine
 10
72.06136935023372
 20
83.87113382164264
 30
0.0
 11
72.06136935023372
 21
67.04465483221534
 31
0.0
  0
INSERT
  5
DA
330
D6
100
AcDbEntity
  8
SUNPO
 62
     0
370
    -2
100
AcDbBlockReference
  2
_OPEN30
 10
72.06136935023372
 20
85.87113382164265
 30
0.0
 41
2.0
 42
2.0
 43
2.0
 50
90.0
  0
INSERT
  5
DB
330
D6
100
AcDbEntity
  8
SUNPO
 62
     0
370
    -2
100
AcDbBlockReference
  2
_OPEN30
 10
72.06136935023372
 20
65.04465483221534
 30
0.0
 41
2.0
 42
2.0
 43
2.0
 50
270.0
  0
MTEXT
  5
DC
330
D6
100
AcDbEntity
  8
SUNPO
 62
     0
100
AcDbMText
 10
70.3113693502337
 20
75.45789432692901
 30
0.0
 40
2.5
 41
0.0
 71
     5
 72
     1
  1
\A1;104
 11
0.0000000000000001
 21
1.0
 31
0.0
 73
     1
 44
1.0
  0
POINT
  5
DD
330
D6
100
AcDbEntity
  8
DEFPOINTS
 62
     0
100
AcDbPoint
 10
64.06136935023372
 20
85.87113382164265
 30
0.0
  0
POINT
  5
DE
330
D6
100
AcDbEntity
  8
DEFPOINTS
 62
     0
100
AcDbPoint
 10
64.06136935023372
 20
65.04465483221534
 30
0.0
  0
POINT
  5
DF
330
D6
100
AcDbEntity
  8
DEFPOINTS
 62
     0
100
AcDbPoint
 10
72.06136935023372
 20
65.04465483221534
 30
0.0
  0
ENDBLK
  5
E1
330
D6
100
AcDbEntity
  8
0
100
AcDbBlockEnd
  0
BLOCK
  5
A5
330
99
100
AcDbEntity
  8
0
100
AcDbBlockBegin
  2
*D3
 70
     1
 10
0.0
 20
0.0
 30
0.0
  3
*D3
  1

  0
LINE
  5
9A
330
99
100
AcDbEntity
  8
SUNPO
 62
     0
370
    -2
100
AcDbLine
 10
83.82389317641798
 20
87.91774304009939
 30
0.0
 11
83.82389317641798
 21
98.54191130968073
 31
0.0
  0
LINE
  5
9B
330
99
100
AcDbEntity
  8
SUNPO
 62
     0
370
    -2
100
AcDbLine
 10
87.82594703179169
 20
87.91774304009939
 30
0.0
 11
87.82594703179169
 21
98.54191130968073
 31
0.0
  0
LINE
  5
9C
330
99
100
AcDbEntity
  8
SUNPO
 62
     0
370
    -2
100
AcDbLine
 10
81.82389317641797
 20
96.54191130968072
 30
0.0
 11
79.82389317641798
 21
96.54191130968072
 31
0.0
  0
LINE
  5
9D
330
99
100
AcDbEntity
  8
SUNPO
 62
     0
370
    -2
100
AcDbLine
 10
89.82594703179168
 20
96.54191130968072
 30
0.0
 11
96.99261369845835
 21
96.54191130968072
 31
0.0
  0
LINE
  5
9E
330
99
100
AcDbEntity
  8
SUNPO
 62
     0
370
    -2
100
AcDbLine
 10
83.82389317641798
 20
96.54191130968072
 30
0.0
 11
87.82594703179169
 21
96.54191130968072
 31
0.0
  0
INSERT
  5
9F
330
99
100
AcDbEntity
  8
SUNPO
 62
     0
370
    -2
100
AcDbBlockReference
  2
_OPEN30
 10
83.82389317641798
 20
96.54191130968072
 30
0.0
 41
2.0
 42
2.0
 43
2.0
  0
INSERT
  5
A0
330
99
100
AcDbEntity
  8
SUNPO
 62
     0
370
    -2
100
AcDbBlockReference
  2
_OPEN30
 10
87.82594703179169
 20
96.54191130968072
 30
0.0
 41
2.0
 42
2.0
 43
2.0
 50
180.0
  0
MTEXT
  5
A1
330
99
100
AcDbEntity
  8
SUNPO
 62
     0
100
AcDbMText
 10
94.40928036512501
 20
98.29191130968073
 30
0.0
 40
2.5
 41
0.0
 71
     5
 72
     1
  1
\A1;20
 73
     1
 44
1.0
  0
POINT
  5
A2
330
99
100
AcDbEntity
  8
DEFPOINTS
 62
     0
100
AcDbPoint
 10
83.82389317641798
 20
85.91774304009939
 30
0.0
  0
POINT
  5
A3
330
99
100
AcDbEntity
  8
DEFPOINTS
 62
     0
100
AcDbPoint
 10
87.82594703179169
 20
85.91774304009939
 30
0.0
  0
POINT
  5
A4
330
99
100
AcDbEntity
  8
DEFPOINTS
 62
     0
100
AcDbPoint
 10
87.82594703179169
 20
96.54191130968072
 30
0.0
  0
ENDBLK
  5
A6
330
99
100
AcDbEntity
  8
0
100
AcDbBlockEnd
  0
BLOCK
  5
5F
330
55
100
AcDbEntity
  8
0
100
AcDbBlockBegin
  2
*D4
 70
     1
 10
0.0
 20
0.0
 30
0.0
  3
*D4
  1

  0
LINE
  5
56
330
55
100
AcDbEntity
  8
SUNPO
 62
     0
370
    -2
100
AcDbLine
 10
37.39146013317952
 20
52.50216559752747
 30
0.0
 11
37.39146013317952
 21
60.50216559752747
 31
0.0
  0
LINE
  5
57
330
55
100
AcDbEntity
  8
SUNPO
 62
     0
370
    -2
100
AcDbLine
 10
86.84730924343677
 20
52.50216559752747
 30
0.0
 11
86.84730924343677
 21
60.50216559752747
 31
0.0
  0
LINE
  5
58
330
55
100
AcDbEntity
  8
SUNPO
 62
     0
370
    -2
100
AcDbLine
 10
39.39146013317952
 20
58.50216559752746
 30
0.0
 11
84.84730924343677
 21
58.50216559752746
 31
0.0
  0
INSERT
  5
59
330
55
100
AcDbEntity
  8
SUNPO
 62
     0
370
    -2
100
AcDbBlockReference
  2
_OPEN30
 10
37.39146013317952
 20
58.50216559752746
 30
0.0
 41
2.0
 42
2.0
 43
2.0
 50
180.0
  0
INSERT
  5
5A
330
55
100
AcDbEntity
  8
SUNPO
 62
     0
370
    -2
100
AcDbBlockReference
  2
_OPEN30
 10
86.84730924343677
 20
58.50216559752746
 30
0.0
 41
2.0
 42
2.0
 43
2.0
  0
MTEXT
  5
5B
330
55
100
AcDbEntity
  8
SUNPO
 62
     0
100
AcDbMText
 10
62.11938468830815
 20
60.25216559752746
 30
0.0
 40
2.5
 41
0.0
 71
     5
 72
     1
  1
\A1;250
 73
     1
 44
1.0
  0
POINT
  5
5C
330
55
100
AcDbEntity
  8
DEFPOINTS
 62
     0
100
AcDbPoint
 10
37.39146013317952
 20
50.50216559752747
 30
0.0
  0
POINT
  5
5D
330
55
100
AcDbEntity
  8
DEFPOINTS
 62
     0
100
AcDbPoint
 10
86.84730924343677
 20
50.50216559752747
 30
0.0
  0
POINT
  5
5E
330
55
100
AcDbEntity
  8
DEFPOINTS
 62
     0
100
AcDbPoint
 10
86.84730924343677
 20
58.50216559752746
 30
0.0
  0
ENDBLK
  5
60
330
55
100
AcDbEntity
  8
0
100
AcDbBlockEnd
  0
BLOCK
  5
17F
330
175
100
AcDbEntity
  8
0
100
AcDbBlockBegin
  2
*D5
 70
     1
 10
0.0
 20
0.0
 30
0.0
  3
*D5
  1

  0
LINE
  5
176
330
175
100
AcDbEntity
  8
SUNPO
 62
     0
370
    -2
100
AcDbLine
 10
-17.55289597267648
 20
22.87719167954836
 30
0.0
 11
-17.55289597267648
 21
33.50135994912969
 31
0.0
  0
LINE
  5
177
330
175
100
AcDbEntity
  8
SUNPO
 62
     0
370
    -2
100
AcDbLine
 10
2.367332381802441
 20
22.87719167954836
 30
0.0
 11
2.367332381802442
 21
33.50135994912969
 31
0.0
  0
LINE
  5
178
330
175
100
AcDbEntity
  8
SUNPO
 62
     0
370
    -2
100
AcDbLine
 10
-15.55289597267648
 20
31.50135994912969
 30
0.0
 11
0.3673323818024419
 21
31.50135994912969
 31
0.0
  0
INSERT
  5
179
330
175
100
AcDbEntity
  8
SUNPO
 62
     0
370
    -2
100
AcDbBlockReference
  2
_OPEN30
 10
-17.55289597267648
 20
31.50135994912969
 30
0.0
 41
2.0
 42
2.0
 43
2.0
 50
180.0
  0
INSERT
  5
17A
330
175
100
AcDbEntity
  8
SUNPO
 62
     0
370
    -2
100
AcDbBlockReference
  2
_OPEN30
 10
2.367332381802441
 20
31.50135994912969
 30
0.0
 41
2.0
 42
2.0
 43
2.0
  0
MTEXT
  5
17B
330
175
100
AcDbEntity
  8
SUNPO
 62
     0
100
AcDbMText
 10
-7.592781795437019
 20
33.25135994912969
 30
0.0
 40
2.5
 41
0.0
 71
     5
 72
     1
  1
\A1;φ100
 73
     1
 44
1.0
  0
POINT
  5
17C
330
175
100
AcDbEntity
  8
DEFPOINTS
 62
     0
100
AcDbPoint
 10
-17.55289597267648
 20
20.87719167954836
 30
0.0
  0
POINT
  5
17D
330
175
100
AcDbEntity
  8
DEFPOINTS
 62
     0
100
AcDbPoint
 10
2.367332381802441
 20
20.87719167954836
 30
0.0
  0
POINT
  5
17E
330
175
100
AcDbEntity
  8
DEFPOINTS
 62
     0
100
AcDbPoint
 10
2.367332381802441
 20
31.50135994912969
 30
0.0
  0
ENDBLK
  5
180
330
175
100
AcDbEntity
  8
0
100
AcDbBlockEnd
  0
BLOCK
  5
18B
330
181
100
AcDbEntity
  8
0
100
AcDbBlockBegin
  2
*D6
 70
     1
 10
0.0
 20
0.0
 30
0.0
  3
*D6
  1

  0
LINE
  5
182
330
181
100
AcDbEntity
  8
SUNPO
 62
     0
370
    -2
100
AcDbLine
 10
-25.41282341903422
 20
-12.53838576302356
 30
0.0
 11
-25.41282341903422
 21
-4.538385763023569
 31
0.0
  0
LINE
  5
183
330
181
100
AcDbEntity
  8
SUNPO
 62
     0
370
    -2
100
AcDbLine
 10
24.04302569122302
 20
-12.53838576302356
 30
0.0
 11
24.04302569122302
 21
-4.538385763023569
 31
0.0
  0
LINE
  5
184
330
181
100
AcDbEntity
  8
SUNPO
 62
     0
370
    -2
100
AcDbLine
 10
-23.41282341903422
 20
-6.538385763023569
 30
0.0
 11
22.04302569122302
 21
-6.538385763023569
 31
0.0
  0
INSERT
  5
185
330
181
100
AcDbEntity
  8
SUNPO
 62
     0
370
    -2
100
AcDbBlockReference
  2
_OPEN30
 10
-25.41282341903422
 20
-6.538385763023569
 30
0.0
 41
2.0
 42
2.0
 43
2.0
 50
180.0
  0
INSERT
  5
186
330
181
100
AcDbEntity
  8
SUNPO
 62
     0
370
    -2
100
AcDbBlockReference
  2
_OPEN30
 10
24.04302569122302
 20
-6.538385763023569
 30
0.0
 41
2.0
 42
2.0
 43
2.0
  0
MTEXT
  5
187
330
181
100
AcDbEntity
  8
SUNPO
 62
     0
100
AcDbMText
 10
-0.6848988639056017
 20
-4.788385763023569
 30
0.0
 40
2.5
 41
0.0
 71
     5
 72
     1
  1
\A1;250
 73
     1
 44
1.0
  0
POINT
  5
188
330
181
100
AcDbEntity
  8
DEFPOINTS
 62
     0
100
AcDbPoint
 10
-25.41282341903422
 20
-14.53838576302357
 30
0.0
  0
POINT
  5
189
330
181
100
AcDbEntity
  8
DEFPOINTS
 62
     0
100
AcDbPoint
 10
24.04302569122302
 20
-14.53838576302357
 30
0.0
  0
POINT
  5
18A
330
181
100
AcDbEntity
  8
DEFPOINTS
 62
     0
100
AcDbPoint
 10
24.04302569122302
 20
-6.538385763023569
 30
0.0
  0
ENDBLK
  5
18C
330
181
100
AcDbEntity
  8
0
100
AcDbBlockEnd
  0
BLOCK
  5
199
330
18D
100
AcDbEntity
  8
0
100
AcDbBlockBegin
  2
*D7
 70
     1
 10
0.0
 20
0.0
 30
0.0
  3
*D7
  1

  0
LINE
  5
18E
330
18D
100
AcDbEntity
  8
SUNPO
 62
     0
370
    -2
100
AcDbLine
 10
21.01960962420423
 20
22.87719167954836
 30
0.0
 11
21.01960962420423
 21
33.50135994912969
 31
0.0
  0
LINE
  5
18F
330
18D
100
AcDbEntity
  8
SUNPO
 62
     0
370
    -2
100
AcDbLine
 10
25.02166347957794
 20
22.87719167954836
 30
0.0
 11
25.02166347957794
 21
33.50135994912969
 31
0.0
  0
LINE
  5
190
330
18D
100
AcDbEntity
  8
SUNPO
 62
     0
370
    -2
100
AcDbLine
 10
19.01960962420423
 20
31.50135994912969
 30
0.0
 11
17.01960962420423
 21
31.50135994912969
 31
0.0
  0
LINE
  5
191
330
18D
100
AcDbEntity
  8
SUNPO
 62
     0
370
    -2
100
AcDbLine
 10
27.02166347957794
 20
31.50135994912969
 30
0.0
 11
34.1883301462446
 21
31.50135994912969
 31
0.0
  0
LINE
  5
192
330
18D
100
AcDbEntity
  8
SUNPO
 62
     0
370
    -2
100
AcDbLine
 10
21.01960962420423
 20
31.50135994912969
 30
0.0
 11
25.02166347957794
 21
31.50135994912969
 31
0.0
  0
INSERT
  5
193
330
18D
100
AcDbEntity
  8
SUNPO
 62
     0
370
    -2
100
AcDbBlockReference
  2
_OPEN30
 10
21.01960962420423
 20
31.50135994912969
 30
0.0
 41
2.0
 42
2.0
 43
2.0
  0
INSERT
  5
194
330
18D
100
AcDbEntity
  8
SUNPO
 62
     0
370
    -2
100
AcDbBlockReference
  2
_OPEN30
 10
25.02166347957794
 20
31.50135994912969
 30
0.0
 41
2.0
 42
2.0
 43
2.0
 50
180.0
  0
MTEXT
  5
195
330
18D
100
AcDbEntity
  8
SUNPO
 62
     0
100
AcDbMText
 10
31.60499681291127
 20
33.25135994912969
 30
0.0
 40
2.5
 41
0.0
 71
     5
 72
     1
  1
\A1;20
 73
     1
 44
1.0
  0
POINT
  5
196
330
18D
100
AcDbEntity
  8
DEFPOINTS
 62
     0
100
AcDbPoint
 10
21.01960962420423
 20
20.87719167954836
 30
0.0
  0
POINT
  5
197
330
18D
100
AcDbEntity
  8
DEFPOINTS
 62
     0
100
AcDbPoint
 10
25.02166347957794
 20
20.87719167954836
 30
0.0
  0
POINT
  5
198
330
18D
100
AcDbEntity
  8
DEFPOINTS
 62
     0
100
AcDbPoint
 10
25.02166347957794
 20
31.50135994912969
 30
0.0
  0
ENDBLK
  5
19A
330
18D
100
AcDbEntity
  8
0
100
AcDbBlockEnd
  0
BLOCK
  5
1A5
330
19B
100
AcDbEntity
  8
0
100
AcDbBlockBegin
  2
*D8
 70
     1
 10
0.0
 20
0.0
 30
0.0
  3
*D8
  1

  0
LINE
  5
19C
330
19B
100
AcDbEntity
  8
SUNPO
 62
     0
370
    -2
100
AcDbLine
 10
3.257085798019971
 20
20.8305824610916
 30
0.0
 11
11.25708579801997
 21
20.8305824610916
 31
0.0
  0
LINE
  5
19D
330
19B
100
AcDbEntity
  8
SUNPO
 62
     0
370
    -2
100
AcDbLine
 10
3.257085798019971
 20
0.0041034716643077
 30
0.0
 11
11.25708579801997
 21
0.0041034716643054
 31
0.0
  0
LINE
  5
19E
330
19B
100
AcDbEntity
  8
SUNPO
 62
     0
370
    -2
100
AcDbLine
 10
9.257085798019975
 20
18.8305824610916
 30
0.0
 11
9.257085798019971
 21
2.004103471664306
 31
0.0
  0
INSERT
  5
19F
330
19B
100
AcDbEntity
  8
SUNPO
 62
     0
370
    -2
100
AcDbBlockReference
  2
_OPEN30
 10
9.257085798019977
 20
20.8305824610916
 30
0.0
 41
2.0
 42
2.0
 43
2.0
 50
90.0
  0
INSERT
  5
1A0
330
19B
100
AcDbEntity
  8
SUNPO
 62
     0
370
    -2
100
AcDbBlockReference
  2
_OPEN30
 10
9.257085798019971
 20
0.004103471664306
 30
0.0
 41
2.0
 42
2.0
 43
2.0
 50
270.0
  0
MTEXT
  5
1A1
330
19B
100
AcDbEntity
  8
SUNPO
 62
     0
100
AcDbMText
 10
7.507085798019972
 20
10.41734296637795
 30
0.0
 40
2.5
 41
0.0
 71
     5
 72
     1
  1
\A1;104
 11
0.0000000000000001
 21
1.0
 31
0.0
 73
     1
 44
1.0
  0
POINT
  5
1A2
330
19B
100
AcDbEntity
  8
DEFPOINTS
 62
     0
100
AcDbPoint
 10
1.257085798019971
 20
20.8305824610916
 30
0.0
  0
POINT
  5
1A3
330
19B
100
AcDbEntity
  8
DEFPOINTS
 62
     0
100
AcDbPoint
 10
1.257085798019971
 20
0.0041034716643082
 30
0.0
  0
POINT
  5
1A4
330
19B
100
AcDbEntity
  8
DEFPOINTS
 62
     0
100
AcDbPoint
 10
9.257085798019971
 20
0.004103471664306
 30
0.0
  0
ENDBLK
  5
1A6
330
19B
100
AcDbEntity
  8
0
100
AcDbBlockEnd
  0
ENDSEC
  0
SECTION
  2
ENTITIES
  0
TEXT
  5
34
330
2
100
AcDbEntity
  8
MOJI1
100
AcDbText
 10
-33.80428355221363
 20
49.4586627790907
 30
0.0
 40
4.0
  1
落下防止ワイヤーキット
100
AcDbText
  0
TEXT
  5
36
330
2
100
AcDbEntity
  8
TOUROKU
100
AcDbText
 10
51.12899981404701
 20
43.45866277909081
 30
0.0
 40
2.0
  1
ＷＶＱ１４１
 72
     2
 11
64.19566648071366
 21
43.45866277909081
 31
0.0
100
AcDbText
  0
CIRCLE
  5
38
330
2
100
AcDbEntity
  8
GAIKEI
  6
S10
 62
     1
100
AcDbCircle
 10
-7.592781795437019
 20
10.41734296637794
 30
0.0
 40
8.543215570043402
  0
LINE
  5
3B
330
2
100
AcDbEntity
  8
GAIKEI
100
AcDbLine
 10
-9.392781795437059
 20
20.8305824610916
 30
0.0
 11
-5.79278179543698
 21
20.8305824610916
 31
0.0
  0
LINE
  5
3C
330
2
100
AcDbEntity
  8
GAIKEI
 62
     1
100
AcDbLine
 10
-9.392781795437031
 20
20.53569645903698
 30
0.0
 11
-5.79278179543698
 21
20.53569645903701
 31
0.0
  0
LINE
  5
3D
330
2
100
AcDbEntity
  8
GAIKEI
100
AcDbLine
 10
-17.55289597267648
 20
41.58654712422552
 30
0.0
 11
2.367332381802441
 21
41.58654712422552
 31
0.0
  0
LINE
  5
3E
330
2
100
AcDbEntity
  8
GAIKEI
  6
HIDDEN2
 62
     1
100
AcDbLine
 10
-9.37980324819938
 20
41.30282791327256
 30
0.0
 11
-5.792781795437008
 21
41.30282791327256
 31
0.0
  0
ARC
  5
40
330
2
100
AcDbEntity
  8
GAIKEI
100
AcDbCircle
 10
-7.586292521818165
 20
39.38005785060672
 30
0.0
 40
1.79351072638118
100
AcDbArc
 50
179.9999984778564
 51
0.0000015220566877
  0
LINE
  5
41
330
2
100
AcDbEntity
  8
GAIKEI
 62
     1
100
AcDbLine
 10
-9.392781795437031
 20
0.2989894737189331
 30
0.0
 11
-5.79278179543698
 21
0.2989894737189047
 31
0.0
  0
LINE
  5
42
330
2
100
AcDbEntity
  8
GAIKEI
100
AcDbLine
 10
-9.392781795437059
 20
0.0041034716643082
 30
0.0
 11
-5.79278179543698
 21
0.0041034716643082
 31
0.0
  0
DIMENSION
  5
43
330
2
100
AcDbEntity
  8
SUNPO
100
AcDbDimension
  2
*D5
 10
2.367332381802441
 20
31.50135994912969
 30
0.0
 11
-7.592781795437019
 21
33.25135994912969
 31
0.0
 70
    33
  1
φ100
 71
     5
 42
19.92022835447892
  3
STANDARD
100
AcDbAlignedDimension
 13
-17.55289597267648
 23
20.87719167954836
 33
0.0
 14
2.367332381802441
 24
20.87719167954836
 34
0.0
1001
ACAD
1000
DSTYLE
1002
{
1070
    40
1040
1.0
1070
   140
1040
2.5
1070
   147
1040
0.5
1070
   172
1070
     1
1070
   279
1070
     0
1070
   288
1070
     0
1002
}
  0
LINE
  5
52
330
2
100
AcDbEntity
  8
GAIKEI
100
AcDbLine
 10
4.217923912093795
 20
-15.84761384619511
 30
0.0
 11
-12.59840084562472
 21
-15.84761384619506
 31
0.0
  0
LINE
  5
53
330
2
100
AcDbEntity
  8
GAIKEI
100
AcDbLine
 10
4.217923912093738
 20
-15.55395288889738
 30
0.0
 11
-12.59840084562472
 21
-15.55395288889738
 31
0.0
  0
DIMENSION
  5
54
330
2
100
AcDbEntity
  8
SUNPO
100
AcDbDimension
  2
*D6
 10
24.04302569122302
 20
-6.538385763023569
 30
0.0
 11
-0.6848988639056017
 21
-4.788385763023569
 31
0.0
 70
    33
  1
250
 71
     5
 42
49.45584911025725
  3
STANDARD
100
AcDbAlignedDimension
 13
-25.41282341903422
 23
-14.53838576302357
 33
0.0
 14
24.04302569122302
 24
-14.53838576302357
 34
0.0
1001
ACAD
1000
DSTYLE
1002
{
1070
    40
1040
1.0
1070
   140
1040
2.5
1070
   147
1040
0.5
1070
   172
1070
     1
1070
   279
1070
     0
1070
   288
1070
     0
1002
}
  0
LINE
  5
61
330
2
100
AcDbEntity
  8
GAIKEI
100
AcDbLine
 10
-18.24332701485207
 20
-15.8464923396271
 30
0.0
 11
-22.09835528046437
 21
-16.71850957102958
 31
0.0
  0
LINE
  5
62
330
2
100
AcDbEntity
  8
GAIKEI
100
AcDbLine
 10
-18.24332701485207
 20
-15.8464923396271
 30
0.0
 11
-22.09835528046437
 21
-14.97035890699078
 31
0.0
  0
LINE
  5
63
330
2
100
AcDbEntity
  8
GAIKEI
100
AcDbLine
 10
-18.17859975044894
 20
-16.19307648352179
 30
0.0
 11
-22.02035326708187
 21
-17.06282980424558
 31
0.0
  0
LINE
  5
64
330
2
100
AcDbEntity
  8
GAIKEI
100
AcDbLine
 10
-18.17859975044894
 20
-15.49579199449857
 30
0.0
 11
-22.02035326708187
 21
-14.62603867377475
 31
0.0
  0
ARC
  5
65
330
2
100
AcDbEntity
  8
GAIKEI
100
AcDbCircle
 10
-22.73519677760611
 20
-14.02141602711671
 30
0.0
 40
3.124291761063303
100
AcDbArc
 50
260.1298057143993
 51
283.2265376892237
  0
ARC
  5
66
330
2
100
AcDbEntity
  8
GAIKEI
100
AcDbCircle
 10
-22.73575082203513
 20
-14.02025094024176
 30
0.0
 40
2.772521003533649
100
AcDbArc
 50
260.268815018341
 51
283.2910349736111
  0
ARC
  5
67
330
2
100
AcDbEntity
  8
GAIKEI
100
AcDbCircle
 10
-24.40847254087918
 20
-15.84445700929762
 30
0.0
 40
1.003563305564737
100
AcDbArc
 50
102.4710499376493
 51
257.5169156621585
  0
ARC
  5
68
330
2
100
AcDbEntity
  8
GAIKEI
100
AcDbCircle
 10
-24.4101673769527
 20
-15.84435482639938
 30
0.0
 40
0.6503092213082246
100
AcDbArc
 50
102.8504988146919
 51
257.1309016790559
  0
ARC
  5
69
330
2
100
AcDbEntity
  8
GAIKEI
100
AcDbCircle
 10
-22.73575082203513
 20
-17.6686175377786
 30
0.0
 40
2.772521003533649
100
AcDbArc
 50
76.70896502638886
 51
99.73118498165895
  0
ARC
  5
6A
330
2
100
AcDbEntity
  8
GAIKEI
100
AcDbCircle
 10
-22.73519677760611
 20
-17.66745245090365
 30
0.0
 40
3.124291761063303
100
AcDbArc
 50
76.77346231077621
 51
99.87019428560065
  0
LINE
  5
6B
330
2
100
AcDbEntity
  8
GAIKEI
100
AcDbLine
 10
-23.27075229691093
 20
-14.58940448279301
 30
0.0
 11
-24.62518831292681
 21
-14.86457253527947
 31
0.0
  0
LINE
  5
6C
330
2
100
AcDbEntity
  8
GAIKEI
100
AcDbLine
 10
-23.27455978305227
 20
-17.09884656504223
 30
0.0
 11
-24.62539412298855
 21
-16.82429594274089
 31
0.0
  0
LINE
  5
6D
330
2
100
AcDbEntity
  8
GAIKEI
100
AcDbLine
 10
-23.20437855201424
 20
-14.9359886266877
 30
0.0
 11
-24.5548012718271
 21
-15.21033343892736
 31
0.0
  0
LINE
  5
6E
330
2
100
AcDbEntity
  8
GAIKEI
100
AcDbLine
 10
-23.20818603815558
 20
-16.75226242114757
 30
0.0
 11
-24.55500708188878
 21
-16.47832922903131
 31
0.0
  0
LINE
  5
6F
330
2
100
AcDbEntity
  8
GAIKEI
100
AcDbLine
 10
-12.59840084562472
 20
-15.42849210432424
 30
0.0
 11
-14.58003785324206
 21
-15.42849210432424
 31
0.0
  0
LINE
  5
70
330
2
100
AcDbEntity
  8
GAIKEI
100
AcDbLine
 10
-12.59840084562472
 20
-16.25294868866225
 30
0.0
 11
-12.59840084562472
 21
-15.42849210432424
 31
0.0
  0
LINE
  5
71
330
2
100
AcDbEntity
  8
GAIKEI
100
AcDbLine
 10
-14.58003785324206
 20
-16.25294868866225
 30
0.0
 11
-12.59840084562472
 21
-16.25294868866225
 31
0.0
  0
LINE
  5
72
330
2
100
AcDbEntity
  8
GAIKEI
100
AcDbLine
 10
-14.58003785324206
 20
-16.13277288219379
 30
0.0
 11
-14.58003785324206
 21
-16.25294868866225
 31
0.0
  0
LINE
  5
73
330
2
100
AcDbEntity
  8
GAIKEI
100
AcDbLine
 10
-15.37703552960113
 20
-16.13277288219379
 30
0.0
 11
-15.22951570598212
 21
-16.13277288219379
 31
0.0
  0
LINE
  5
74
330
2
100
AcDbEntity
  8
GAIKEI
100
AcDbLine
 10
-15.37703552960113
 20
-16.25294868866225
 30
0.0
 11
-15.37703552960113
 21
-16.13277288219379
 31
0.0
  0
LINE
  5
75
330
2
100
AcDbEntity
  8
GAIKEI
100
AcDbLine
 10
-17.35844275556178
 20
-16.25294868866225
 30
0.0
 11
-15.37703552960113
 21
-16.25294868866225
 31
0.0
  0
LINE
  5
76
330
2
100
AcDbEntity
  8
GAIKEI
100
AcDbLine
 10
-17.35844275556178
 20
-15.42849210432424
 30
0.0
 11
-17.35844275556178
 21
-16.25294868866225
 31
0.0
  0
LINE
  5
77
330
2
100
AcDbEntity
  8
GAIKEI
100
AcDbLine
 10
-15.37703552960113
 20
-15.42849210432424
 30
0.0
 11
-17.35844275556178
 21
-15.42849210432424
 31
0.0
  0
LINE
  5
78
330
2
100
AcDbEntity
  8
GAIKEI
100
AcDbLine
 10
-15.37703552960113
 20
-15.53786817292646
 30
0.0
 11
-15.37703552960113
 21
-15.42849210432424
 31
0.0
  0
LINE
  5
79
330
2
100
AcDbEntity
  8
GAIKEI
100
AcDbLine
 10
-15.22951570598212
 20
-15.53786817292646
 30
0.0
 11
-15.37703552960113
 21
-15.53786817292646
 31
0.0
  0
LINE
  5
7A
330
2
100
AcDbEntity
  8
GAIKEI
100
AcDbLine
 10
-14.58003785324206
 20
-15.42849210432424
 30
0.0
 11
-14.58003785324206
 21
-15.53786817292646
 31
0.0
  0
LINE
  5
7B
330
2
100
AcDbEntity
  8
GAIKEI
100
AcDbLine
 10
-14.57980807158526
 20
-15.42849210432424
 30
0.0
 11
-14.57980807158526
 21
-16.25294868866225
 31
0.0
  0
LINE
  5
7C
330
2
100
AcDbEntity
  8
GAIKEI
100
AcDbLine
 10
-15.37485260386222
 20
-15.42849210432424
 30
0.0
 11
-15.37485260386222
 21
-16.25294868866225
 31
0.0
  0
LINE
  5
7D
330
2
100
AcDbEntity
  8
GAIKEI
100
AcDbLine
 10
-14.57980807158526
 20
-15.8370438899856
 30
0.0
 11
-15.37703552960113
 21
-15.8370438899856
 31
0.0
  0
LINE
  5
7E
330
2
100
AcDbEntity
  8
GAIKEI
100
AcDbLine
 10
-12.59840084562466
 20
-15.42849210432424
 30
0.0
 11
-14.58003785324206
 21
-15.42849210432424
 31
0.0
  0
LINE
  5
7F
330
2
100
AcDbEntity
  8
GAIKEI
100
AcDbLine
 10
-12.59840084562466
 20
-16.25294868866225
 30
0.0
 11
-12.59840084562466
 21
-15.42849210432424
 31
0.0
  0
LINE
  5
80
330
2
100
AcDbEntity
  8
GAIKEI
100
AcDbLine
 10
-14.58003785324206
 20
-16.25294868866225
 30
0.0
 11
-12.59840084562466
 21
-16.25294868866225
 31
0.0
  0
LINE
  5
81
330
2
100
AcDbEntity
  8
GAIKEI
100
AcDbLine
 10
-14.58003785324206
 20
-16.13277288219379
 30
0.0
 11
-14.58003785324206
 21
-16.25294868866225
 31
0.0
  0
LINE
  5
82
330
2
100
AcDbEntity
  8
GAIKEI
100
AcDbLine
 10
-15.37703552960113
 20
-16.13277288219379
 30
0.0
 11
-14.57980807158526
 21
-16.13277288219379
 31
0.0
  0
LINE
  5
83
330
2
100
AcDbEntity
  8
GAIKEI
100
AcDbLine
 10
-15.37703552960113
 20
-16.25294868866225
 30
0.0
 11
-15.37703552960113
 21
-16.13277288219379
 31
0.0
  0
LINE
  5
84
330
2
100
AcDbEntity
  8
GAIKEI
100
AcDbLine
 10
-17.35844275556178
 20
-16.25294868866225
 30
0.0
 11
-15.37703552960113
 21
-16.25294868866225
 31
0.0
  0
LINE
  5
85
330
2
100
AcDbEntity
  8
GAIKEI
100
AcDbLine
 10
-17.35844275556178
 20
-15.42849210432424
 30
0.0
 11
-17.35844275556178
 21
-16.25294868866225
 31
0.0
  0
LINE
  5
86
330
2
100
AcDbEntity
  8
GAIKEI
100
AcDbLine
 10
-15.37703552960113
 20
-15.42849210432424
 30
0.0
 11
-17.35844275556178
 21
-15.42849210432424
 31
0.0
  0
LINE
  5
87
330
2
100
AcDbEntity
  8
GAIKEI
100
AcDbLine
 10
-15.37703552960113
 20
-15.53786817292646
 30
0.0
 11
-15.37703552960113
 21
-15.42849210432424
 31
0.0
  0
LINE
  5
88
330
2
100
AcDbEntity
  8
GAIKEI
100
AcDbLine
 10
-14.57980807158526
 20
-15.53786817292646
 30
0.0
 11
-15.37703552960113
 21
-15.53786817292646
 31
0.0
  0
LINE
  5
89
330
2
100
AcDbEntity
  8
GAIKEI
100
AcDbLine
 10
-14.58003785324206
 20
-15.42849210432424
 30
0.0
 11
-14.58003785324206
 21
-15.53786817292646
 31
0.0
  0
LINE
  5
8A
330
2
100
AcDbEntity
  8
GAIKEI
100
AcDbLine
 10
-17.35844275556178
 20
-16.19307648352179
 30
0.0
 11
-18.17859975044894
 21
-16.19307648352179
 31
0.0
  0
LINE
  5
8B
330
2
100
AcDbEntity
  8
GAIKEI
100
AcDbLine
 10
-17.35844275556178
 20
-15.8464923396271
 30
0.0
 11
-18.24332701485207
 21
-15.8464923396271
 31
0.0
  0
LINE
  5
8C
330
2
100
AcDbEntity
  8
GAIKEI
100
AcDbLine
 10
-17.35844275556178
 20
-15.49579199449857
 30
0.0
 11
-18.17859975044894
 21
-15.49579199449857
 31
0.0
  0
LINE
  5
8D
330
2
100
AcDbEntity
  8
GAIKEI
100
AcDbLine
 10
-9.392781795436974
 20
20.8305824610916
 30
0.0
 11
-9.392781795436974
 21
20.19655687743143
 31
0.0
  0
CIRCLE
  5
8E
330
2
100
AcDbEntity
  8
GAIKEI
 62
     1
100
AcDbCircle
 10
-7.592781795437019
 20
5.309363207085681
 30
0.0
 40
0.309775056856801
  0
CIRCLE
  5
8F
330
2
100
AcDbEntity
  8
GAIKEI
 62
     1
100
AcDbCircle
 10
-11.86046052433033
 20
3.012106126563509
 30
0.0
 40
0.822723674035237
  0
CIRCLE
  5
90
330
2
100
AcDbEntity
  8
GAIKEI
 62
     1
100
AcDbCircle
 10
-11.86046052433033
 20
17.8225798061924
 30
0.0
 40
0.822723674035237
  0
CIRCLE
  5
91
330
2
100
AcDbEntity
  8
GAIKEI
 62
     1
100
AcDbCircle
 10
-9.653364942332586
 20
10.41734296637794
 30
0.0
 40
0.822723674035237
  0
ARC
  5
92
330
2
100
AcDbEntity
  8
GAIKEI
100
AcDbCircle
 10
-7.592781795437019
 20
10.41734296637795
 30
0.0
 40
9.960114177239471
100
AcDbArc
 50
100.936657109455
 51
259.0633428905449
  0
LINE
  5
93
330
2
100
AcDbEntity
  8
GAIKEI
100
AcDbLine
 10
-9.392781795436974
 20
0.0041034716643082
 30
0.0
 11
-9.392781795436974
 21
0.6381290553244697
 31
0.0
  0
LINE
  5
94
330
2
100
AcDbEntity
  8
GAIKEI
100
AcDbLine
 10
-17.55289597267648
 20
41.58654712422552
 30
0.0
 11
-17.55289597267648
 21
41.30282791327255
 31
0.0
  0
LINE
  5
95
330
2
100
AcDbEntity
  8
GAIKEI
100
AcDbLine
 10
-17.55289597267648
 20
41.30282791327255
 30
0.0
 11
-9.37980324819938
 21
41.30282791327256
 31
0.0
  0
LINE
  5
96
330
2
100
AcDbEntity
  8
GAIKEI
100
AcDbLine
 10
-9.37980324819938
 20
41.58654712422552
 30
0.0
 11
-9.37980324819938
 21
39.38005785060672
 31
0.0
  0
CIRCLE
  5
97
330
2
100
AcDbEntity
  8
GAIKEI
 62
     1
100
AcDbCircle
 10
-7.593737049219271
 20
39.38654712422551
 30
0.0
 40
0.8344074462064021
  0
DIMENSION
  5
98
330
2
100
AcDbEntity
  8
SUNPO
100
AcDbDimension
  2
*D7
 10
25.02166347957794
 20
31.50135994912969
 30
0.0
 11
31.60499681291127
 21
33.25135994912969
 31
0.0
 70
    33
  1
20
 71
     5
 42
4.002053855373702
  3
STANDARD
100
AcDbAlignedDimension
 13
21.01960962420423
 23
20.87719167954836
 33
0.0
 14
25.02166347957794
 24
20.87719167954836
 34
0.0
1001
ACAD
1000
DSTYLE
1002
{
1070
    40
1040
1.0
1070
   140
1040
2.5
1070
   147
1040
0.5
1070
   172
1070
     1
1070
   279
1070
     0
1070
   288
1070
     0
1002
}
  0
LINE
  5
A7
330
2
100
AcDbEntity
  8
GAIKEI
100
AcDbLine
 10
15.14352306310274
 20
-15.84761384619508
 30
0.0
 11
22.0432359327242
 21
-15.84761384619506
 31
0.0
  0
LINE
  5
A8
330
2
100
AcDbEntity
  8
GAIKEI
100
AcDbLine
 10
15.03633784920589
 20
-15.55395288889744
 30
0.0
 11
22.0432359327242
 21
-15.55395288889738
 31
0.0
  0
LINE
  5
A9
330
2
100
AcDbEntity
  8
GAIKEI
  6
HIDDEN2
 62
     1
100
AcDbLine
 10
4.217923912093738
 20
-15.55395288889738
 30
0.0
 11
11.14181968343302
 21
-15.55395288889738
 31
0.0
  0
LINE
  5
AA
330
2
100
AcDbEntity
  8
GAIKEI
  6
HIDDEN2
 62
     1
100
AcDbLine
 10
4.217923912093738
 20
-15.84761384619511
 30
0.0
 11
11.14181968343302
 21
-15.84761384619508
 31
0.0
  0
LINE
  5
AB
330
2
100
AcDbEntity
  8
GAIKEI
100
AcDbLine
 10
7.100994359052833
 20
-16.45906283474673
 30
0.0
 11
5.996778607649162
 21
-16.26351864487171
 31
0.0
  0
LINE
  5
AC
330
2
100
AcDbEntity
  8
GAIKEI
100
AcDbLine
 10
7.100994359052833
 20
-14.94273368200239
 30
0.0
 11
5.996778607649162
 21
-15.13804809022073
 31
0.0
  0
ARC
  5
AD
330
2
100
AcDbEntity
  8
GAIKEI
100
AcDbCircle
 10
4.417923912093783
 20
-15.26957315651597
 30
0.0
 40
0.2
100
AcDbArc
 50
90.0
 51
180.0
  0
ARC
  5
AE
330
2
100
AcDbEntity
  8
GAIKEI
100
AcDbCircle
 10
4.417923912093783
 20
-16.13199357857644
 30
0.0
 40
0.2
100
AcDbArc
 50
180.0
 51
270.0
  0
LINE
  5
AF
330
2
100
AcDbEntity
  8
GAIKEI
100
AcDbLine
 10
4.217923912093738
 20
-15.26957315651597
 30
0.0
 11
4.217923912093738
 21
-16.13199357857644
 31
0.0
  0
LINE
  5
B0
330
2
100
AcDbEntity
  8
GAIKEI
100
AcDbLine
 10
5.996778607649162
 20
-16.33199357857646
 30
0.0
 11
4.417923912093783
 21
-16.33199357857643
 31
0.0
  0
LINE
  5
B1
330
2
100
AcDbEntity
  8
GAIKEI
100
AcDbLine
 10
5.996778607649162
 20
-15.06957315651598
 30
0.0
 11
4.417923912093783
 21
-15.06957315651598
 31
0.0
  0
LINE
  5
B2
330
2
100
AcDbEntity
  8
GAIKEI
100
AcDbLine
 10
5.996778607649162
 20
-16.33199357857646
 30
0.0
 11
5.996778607649162
 21
-15.06957315651598
 31
0.0
  0
LINE
  5
B3
330
2
100
AcDbEntity
  8
GAIKEI
 62
     1
100
AcDbLine
 10
5.017219405020114
 20
-16.16999751058361
 30
0.0
 11
5.619592018131129
 21
-16.16999751058361
 31
0.0
  0
LINE
  5
B4
330
2
100
AcDbEntity
  8
GAIKEI
 62
     1
100
AcDbLine
 10
5.017219405020114
 20
-16.08291026268395
 30
0.0
 11
5.619592018131129
 21
-16.08291026268395
 31
0.0
  0
LINE
  5
B5
330
2
100
AcDbEntity
  8
GAIKEI
 62
     1
100
AcDbLine
 10
5.017219405020114
 20
-15.99582301478423
 30
0.0
 11
5.619592018131129
 21
-15.99582301478423
 31
0.0
  0
LINE
  5
B6
330
2
100
AcDbEntity
  8
GAIKEI
 62
     1
100
AcDbLine
 10
5.017219405020114
 20
-15.90896554854126
 30
0.0
 11
5.619592018131129
 21
-15.90896554854126
 31
0.0
  0
LINE
  5
B7
330
2
100
AcDbEntity
  8
GAIKEI
 62
     1
100
AcDbLine
 10
5.017219405020114
 20
-15.82210808229828
 30
0.0
 11
5.619592018131129
 21
-15.82210808229828
 31
0.0
  0
LINE
  5
B8
330
2
100
AcDbEntity
  8
GAIKEI
 62
     1
100
AcDbLine
 10
5.017219405020114
 20
-15.73525061605531
 30
0.0
 11
5.619592018131129
 21
-15.73525061605531
 31
0.0
  0
LINE
  5
B9
330
2
100
AcDbEntity
  8
GAIKEI
 62
     1
100
AcDbLine
 10
5.017219405020114
 20
-15.64816336815565
 30
0.0
 11
5.619592018131129
 21
-15.64816336815565
 31
0.0
  0
LINE
  5
BA
330
2
100
AcDbEntity
  8
GAIKEI
 62
     1
100
AcDbLine
 10
5.017219405020114
 20
-15.56107612025593
 30
0.0
 11
5.619592018131129
 21
-15.56107612025593
 31
0.0
  0
LINE
  5
BB
330
2
100
AcDbEntity
  8
GAIKEI
 62
     1
100
AcDbLine
 10
5.017219405020114
 20
-15.47398887235621
 30
0.0
 11
5.619592018131129
 21
-15.47398887235621
 31
0.0
  0
LINE
  5
BC
330
2
100
AcDbEntity
  8
GAIKEI
 62
     1
100
AcDbLine
 10
5.017219405020114
 20
-15.38713140611329
 30
0.0
 11
5.619592018131129
 21
-15.38713140611329
 31
0.0
  0
LINE
  5
BD
330
2
100
AcDbEntity
  8
GAIKEI
 62
     1
100
AcDbLine
 10
5.017219405020114
 20
-15.30004415821358
 30
0.0
 11
5.619592018131129
 21
-15.30004415821358
 31
0.0
  0
LINE
  5
BE
330
2
100
AcDbEntity
  8
GAIKEI
 62
     1
100
AcDbLine
 10
5.017219405020114
 20
-15.21295691031386
 30
0.0
 11
5.619592018131129
 21
-15.21295691031386
 31
0.0
  0
LINE
  5
BF
330
2
100
AcDbEntity
  8
GAIKEI
  6
HIDDEN2
 62
     1
 48
0.5
100
AcDbLine
 10
14.39226949897863
 20
-15.84761384619508
 30
0.0
 11
15.14352306310274
 21
-15.84761384619508
 31
0.0
  0
LINE
  5
C0
330
2
100
AcDbEntity
  8
GAIKEI
  6
HIDDEN2
 62
     1
 48
0.5
100
AcDbLine
 10
13.98011779566513
 20
-15.55395288889744
 30
0.0
 11
15.03633784920594
 21
-15.55395288889747
 31
0.0
  0
LINE
  5
C1
330
2
100
AcDbEntity
  8
GAIKEI
100
AcDbLine
 10
11.14181968343302
 20
-15.84761384619508
 30
0.0
 11
14.39226949897863
 21
-15.84761384619508
 31
0.0
  0
LINE
  5
C2
330
2
100
AcDbEntity
  8
GAIKEI
100
AcDbLine
 10
11.14181968343302
 20
-15.55395288889741
 30
0.0
 11
13.98011779566519
 21
-15.55395288889744
 31
0.0
  0
ARC
  5
C3
330
2
100
AcDbEntity
  8
GAIKEI
100
AcDbCircle
 10
13.86955773044439
 20
-16.14621510911237
 30
0.0
 40
1.308491644234365
100
AcDbArc
 50
269.9999833265721
 51
90.00000003079067
  0
ARC
  5
C4
330
2
100
AcDbEntity
  8
GAIKEI
100
AcDbCircle
 10
13.86898415216092
 20
-16.14598532745563
 30
0.0
 40
0.6023728870257071
100
AcDbArc
 50
270.0545985917392
 51
89.94535975381976
  0
ARC
  5
C5
330
2
100
AcDbEntity
  8
GAIKEI
100
AcDbCircle
 10
11.52555505016789
 20
-15.19066808961133
 30
0.0
 40
0.3529446247333396
100
AcDbArc
 50
90.0
 51
270.0000123518677
  0
ARC
  5
C6
330
2
100
AcDbEntity
  8
GAIKEI
100
AcDbCircle
 10
12.78441385654912
 20
-17.10176212861336
 30
0.0
 40
0.3529446247333396
100
AcDbArc
 50
90.0
 51
270.000012351817
  0
LINE
  5
C7
330
2
100
AcDbEntity
  8
GAIKEI
100
AcDbLine
 10
12.78441385654912
 20
-16.74881750388002
 30
0.0
 11
12.87609673758334
 21
-16.74881750388002
 31
0.0
  0
LINE
  5
C8
330
2
100
AcDbEntity
  8
GAIKEI
100
AcDbLine
 10
11.52555505016789
 20
-14.83772346487799
 30
0.0
 11
13.86955773044439
 21
-14.83772346487799
 31
0.0
  0
LINE
  5
C9
330
2
100
AcDbEntity
  8
GAIKEI
100
AcDbLine
 10
13.86955773044439
 20
-15.54361271434467
 30
0.0
 11
11.52555505016789
 21
-15.5436127143447
 31
0.0
  0
LINE
  5
CA
330
2
100
AcDbEntity
  8
GAIKEI
100
AcDbLine
 10
13.03051001090421
 20
-16.74881750388002
 30
0.0
 11
13.86955773044439
 21
-16.74881750388002
 31
0.0
  0
LINE
  5
CB
330
2
100
AcDbEntity
  8
GAIKEI
100
AcDbLine
 10
12.78441385654912
 20
-17.4547067533467
 30
0.0
 11
13.86955773044439
 21
-17.45470675334672
 31
0.0
  0
ELLIPSE
  5
CC
330
2
100
AcDbEntity
  8
GAIKEI
100
AcDbEllipse
 10
10.61763630996767
 20
-14.94273368200241
 30
0.0
 11
0.5072932259570282
 21
0.0432780809979958
 31
0.0
210
0.0
220
0.0
230
1.0
 40
0.3462662120884594
 41
-0.2415651645358265
 42
2.900027489053966
  0
ARC
  5
CD
330
2
100
AcDbEntity
  8
GAIKEI
100
AcDbCircle
 10
12.96777961861755
 20
-16.66598121662977
 30
0.0
 40
0.1059187513340996
100
AcDbArc
 50
253.1670138227327
 51
73.29480297418588
  0
ARC
  5
CE
330
2
100
AcDbEntity
  8
GAIKEI
100
AcDbCircle
 10
10.25388591642411
 20
-15.84830319116522
 30
0.0
 40
0.1058252584711747
100
AcDbArc
 50
73.22223841708534
 51
253.2471331583114
  0
LINE
  5
CF
330
2
100
AcDbEntity
  8
GAIKEI
100
AcDbLine
 10
10.22338240149349
 20
-15.94963690178204
 30
0.0
 11
12.93733354910119
 21
-16.76742981807493
 31
0.0
  0
LINE
  5
D0
330
2
100
AcDbEntity
  8
GAIKEI
100
AcDbLine
 10
10.28438943135461
 20
-15.74696948054841
 30
0.0
 11
12.99822568813397
 21
-16.56453261518461
 31
0.0
  0
LINE
  5
D1
330
2
100
AcDbEntity
  8
GAIKEI
100
AcDbLine
 10
11.14181968343302
 20
-16.45906283474673
 30
0.0
 11
7.100994359052833
 21
-16.45906283474673
 31
0.0
  0
LINE
  5
D2
330
2
100
AcDbEntity
  8
GAIKEI
100
AcDbLine
 10
11.14181968343302
 20
-16.00524406271003
 30
0.0
 11
11.14181968343302
 21
-14.94273368200239
 31
0.0
  0
LINE
  5
D3
330
2
100
AcDbEntity
  8
GAIKEI
100
AcDbLine
 10
11.14181968343302
 20
-16.45906283474673
 30
0.0
 11
11.14181968343302
 21
-16.22629401648188
 31
0.0
  0
LINE
  5
D4
330
2
100
AcDbEntity
  8
GAIKEI
100
AcDbLine
 10
11.14181968343302
 20
-14.94273368200239
 30
0.0
 11
7.100994359052833
 21
-14.94273368200239
 31
0.0
  0
DIMENSION
  5
D5
330
2
100
AcDbEntity
  8
SUNPO
100
AcDbDimension
  2
*D8
 10
9.257085798019971
 20
0.004103471664306
 30
0.0
 11
7.507085798019972
 21
10.41734296637795
 31
0.0
 70
    33
  1
104
 71
     5
 42
20.8264789894273
  3
STANDARD
100
AcDbAlignedDimension
 13
1.257085798019971
 23
20.8305824610916
 33
0.0
 14
1.257085798019971
 24
0.0041034716643082
 34
0.0
1001
ACAD
1000
DSTYLE
1002
{
1070
    40
1040
1.0
1070
   140
1040
2.5
1070
   147
1040
0.5
1070
   172
1070
     1
1070
   279
1070
     0
1070
   288
1070
     0
1002
}
  0
LINE
  5
E2
330
2
100
AcDbEntity
  8
GAIKEI
100
AcDbLine
 10
-5.792781795437008
 20
20.8305824610916
 30
0.0
 11
-5.792781795437008
 21
20.19655687743143
 31
0.0
  0
ARC
  5
E3
330
2
100
AcDbEntity
  8
GAIKEI
100
AcDbCircle
 10
-7.592781795437019
 20
10.41734296637795
 30
0.0
 40
9.960114177239471
100
AcDbArc
 50
280.9366571094546
 51
354.0104373695915
  0
LINE
  5
E4
330
2
100
AcDbEntity
  8
GAIKEI
100
AcDbLine
 10
2.312959326155521
 20
9.378032014045743
 30
0.0
 11
2.096477409519877
 21
9.594722688556629
 31
0.0
  0
LINE
  5
E5
330
2
100
AcDbEntity
  8
GAIKEI
100
AcDbLine
 10
2.096477409519877
 20
9.594722688556629
 30
0.0
 11
0.9580850944352619
 21
9.594722688556629
 31
0.0
  0
LINE
  5
E6
330
2
100
AcDbEntity
  8
GAIKEI
100
AcDbLine
 10
2.309170366735884
 20
11.49215355512667
 30
0.0
 11
2.05698005580848
 21
11.23996324419928
 31
0.0
  0
LINE
  5
E7
330
2
100
AcDbEntity
  8
GAIKEI
100
AcDbLine
 10
2.05698005580848
 20
11.23996324419928
 30
0.0
 11
0.9580850944352619
 21
11.23996324419928
 31
0.0
  0
ARC
  5
E8
330
2
100
AcDbEntity
  8
GAIKEI
100
AcDbCircle
 10
0.9580850944352619
 20
10.41734296637794
 30
0.0
 40
0.8226202778213341
100
AcDbArc
 50
89.99999910491316
 51
270.0
  0
ARC
  5
E9
330
2
100
AcDbEntity
  8
GAIKEI
100
AcDbCircle
 10
-7.592781795437019
 20
10.41734296637795
 30
0.0
 40
9.960114177239471
100
AcDbArc
 50
6.194935071716392
 51
79.06334289054533
  0
LINE
  5
EA
330
2
100
AcDbEntity
  8
GAIKEI
100
AcDbLine
 10
-5.792781795437008
 20
0.0041034716643082
 30
0.0
 11
-5.792781795437008
 21
0.6381290553244697
 31
0.0
  0
LINE
  5
EB
330
2
100
AcDbEntity
  8
GAIKEI
100
AcDbLine
 10
24.03751093146155
 20
-15.40942022681585
 30
0.0
 11
22.0432359327242
 21
-15.40942022681585
 31
0.0
  0
LINE
  5
EC
330
2
100
AcDbEntity
  8
GAIKEI
100
AcDbLine
 10
24.03751093146155
 20
-15.9919167266199
 30
0.0
 11
24.03751093146155
 21
-15.40942022681585
 31
0.0
  0
LINE
  5
ED
330
2
100
AcDbEntity
  8
GAIKEI
100
AcDbLine
 10
22.0432359327242
 20
-15.9919167266199
 30
0.0
 11
24.03751093146155
 21
-15.9919167266199
 31
0.0
  0
LINE
  5
EE
330
2
100
AcDbEntity
  8
GAIKEI
100
AcDbLine
 10
22.0432359327242
 20
-15.40942022681585
 30
0.0
 11
22.0432359327242
 21
-15.9919167266199
 31
0.0
  0
LINE
  5
EF
330
2
100
AcDbEntity
  8
GAIKEI
100
AcDbLine
 10
24.66166347957789
 20
20.82582623525201
 30
0.0
 11
21.01960962420423
 21
20.82582623525201
 31
0.0
  0
LINE
  5
F0
330
2
100
AcDbEntity
  8
GAIKEI
100
AcDbLine
 10
21.01960962420423
 20
20.82582623525201
 30
0.0
 11
21.01960962420423
 21
20.54210702429905
 31
0.0
  0
LINE
  5
F1
330
2
100
AcDbEntity
  8
GAIKEI
100
AcDbLine
 10
21.01960962420423
 20
20.54210702429905
 30
0.0
 11
24.73815106105269
 21
20.54210702429905
 31
0.0
  0
LINE
  5
F2
330
2
100
AcDbEntity
  8
GAIKEI
100
AcDbLine
 10
24.73815106105269
 20
0.3097426799648986
 30
0.0
 11
21.01960962420423
 21
0.3097426799648986
 31
0.0
  0
LINE
  5
F3
330
2
100
AcDbEntity
  8
GAIKEI
100
AcDbLine
 10
21.01960962420423
 20
0.3097426799648986
 30
0.0
 11
21.01960962420423
 21
0.0258166765841566
 31
0.0
  0
LINE
  5
F4
330
2
100
AcDbEntity
  8
GAIKEI
100
AcDbLine
 10
21.01960962420423
 20
0.0258166765841566
 30
0.0
 11
24.66166347957789
 21
0.0258166765841566
 31
0.0
  0
LINE
  5
F5
330
2
100
AcDbEntity
  8
GAIKEI
100
AcDbLine
 10
25.02166347957785
 20
0.3858166765841417
 30
0.0
 11
25.02166347957791
 21
20.46582623525201
 31
0.0
  0
LINE
  5
F6
330
2
100
AcDbEntity
  8
GAIKEI
100
AcDbLine
 10
24.73815106105269
 20
20.54210702429905
 30
0.0
 11
24.73815106105269
 21
0.3097426799648986
 31
0.0
  0
ARC
  5
F7
330
2
100
AcDbEntity
  8
GAIKEI
100
AcDbCircle
 10
24.66166347957789
 20
20.46582623525201
 30
0.0
 40
0.36
100
AcDbArc
 50
0.0
 51
90.0
  0
ARC
  5
F8
330
2
100
AcDbEntity
  8
GAIKEI
100
AcDbCircle
 10
24.66166347957789
 20
0.3858166765841417
 30
0.0
 40
0.36
100
AcDbArc
 50
270.0
 51
359.9999999999999
  0
LINE
  5
F9
330
2
100
AcDbEntity
  8
GAIKEI
 62
     1
100
AcDbLine
 10
24.73815106105269
 20
0.6370950931854225
 30
0.0
 11
25.02166347957785
 21
0.6370950931854225
 31
0.0
  0
LINE
  5
FA
330
2
100
AcDbEntity
  8
GAIKEI
 62
     1
100
AcDbLine
 10
24.73815106105269
 20
20.19759083957049
 30
0.0
 11
25.02166347957785
 21
20.19759083957049
 31
0.0
  0
LINE
  5
FB
330
2
100
AcDbEntity
  8
GAIKEI
100
AcDbLine
 10
2.367332381802441
 20
41.58654712422552
 30
0.0
 11
2.367332381802441
 21
41.30282791327255
 31
0.0
  0
LINE
  5
FC
330
2
100
AcDbEntity
  8
GAIKEI
100
AcDbLine
 10
2.367332381802441
 20
41.30282791327255
 30
0.0
 11
-5.792781795437008
 21
41.30282791327256
 31
0.0
  0
LINE
  5
FD
330
2
100
AcDbEntity
  8
GAIKEI
100
AcDbLine
 10
-5.792781795437036
 20
41.58654712422552
 30
0.0
 11
-5.792781795437008
 21
39.38005785060672
 31
0.0
  0
LINE
  5
FE
330
2
100
AcDbEntity
  8
WAKU
 62
     1
100
AcDbLine
 10
-60.80428355221375
 20
-54.54133722090929
 30
0.0
 11
64.1957164477862
 21
-54.54133722090929
 31
0.0
  0
LINE
  5
100
330
2
100
AcDbEntity
  8
WAKU
 62
     1
100
AcDbLine
 10
-60.80428355221375
 20
-29.54133722090929
 30
0.0
 11
64.1957164477862
 21
-29.54133722090929
 31
0.0
  0
LINE
  5
101
330
2
100
AcDbEntity
  8
WAKU
 62
     1
100
AcDbLine
 10
-60.80428355221375
 20
-34.54133722090929
 30
0.0
 11
64.1957164477862
 21
-34.54133722090929
 31
0.0
  0
LINE
  5
102
330
2
100
AcDbEntity
  8
WAKU
 62
     1
100
AcDbLine
 10
-60.80428355221375
 20
-39.54133722090929
 30
0.0
 11
64.1957164477862
 21
-39.54133722090929
 31
0.0
  0
LINE
  5
103
330
2
100
AcDbEntity
  8
WAKU
 62
     1
100
AcDbLine
 10
-60.80428355221375
 20
-44.54133722090929
 30
0.0
 11
64.1957164477862
 21
-44.54133722090929
 31
0.0
  0
LINE
  5
104
330
2
100
AcDbEntity
  8
WAKU
 62
     1
100
AcDbLine
 10
-60.80428355221375
 20
-49.54133722090929
 30
0.0
 11
64.1957164477862
 21
-49.54133722090929
 31
0.0
  0
LINE
  5
105
330
2
100
AcDbEntity
  8
WAKU
 62
     4
100
AcDbLine
 10
-60.80428355221375
 20
-59.54133722090929
 30
0.0
 11
64.1957164477862
 21
-59.54133722090929
 31
0.0
  0
LINE
  5
106
330
2
100
AcDbEntity
  8
WAKU
 62
     4
100
AcDbLine
 10
64.1957164477862
 20
-24.54133722090929
 30
0.0
 11
-60.80428355221375
 21
-24.54133722090929
 31
0.0
  0
LINE
  5
107
330
2
100
AcDbEntity
  8
WAKU
 62
     4
100
AcDbLine
 10
-60.80428355221375
 20
-24.54133722090929
 30
0.0
 11
-60.80428355221375
 21
-59.54133722090929
 31
0.0
  0
LINE
  5
108
330
2
100
AcDbEntity
  8
WAKU
 62
     4
100
AcDbLine
 10
-20.80428355221374
 20
-59.54133722090929
 30
0.0
 11
-20.80428355221374
 21
-24.54133722090929
 31
0.0
  0
LINE
  5
109
330
2
100
AcDbEntity
  8
WAKU
 62
     4
100
AcDbLine
 10
64.1957164477862
 20
-59.54133722090929
 30
0.0
 11
64.1957164477862
 21
-24.54133722090929
 31
0.0
  0
TEXT
  5
10A
330
2
100
AcDbEntity
  8
MOJI1
100
AcDbText
 10
-18.30428355221374
 20
-28.5413372209093
 30
0.0
 40
3.0
  1
天井用カメラ取付台ＷＶ－７０１０Ａと組合わせ
100
AcDbText
  0
TEXT
  5
10B
330
2
100
AcDbEntity
  8
MOJI1
100
AcDbText
 10
-58.30428355221375
 20
-28.5413372209093
 30
0.0
 40
3.0
  1
組合わせ
100
AcDbText
  0
ENDSEC
  0
SECTION
  2
OBJECTS
  0
DICTIONARY
  5
9
330
0
100
AcDbDictionary
281
     1
  3
ACAD_GROUP
350
30
  3
ACAD_LAYOUT
350
D
  3
ACAD_MLINESTYLE
350
31
  3
ACAD_PLOTSETTINGS
350
32
  3
ACAD_PLOTSTYLENAME
350
8
  3
AcDbVariableDictionary
350
10E
  0
DICTIONARY
  5
19
330
18
100
AcDbDictionary
280
     1
281
     1
  3
ACAD_LAYERFILTERS
360
1A
  0
DICTIONARY
  5
3
330
2
100
AcDbDictionary
280
     1
281
     1
  0
DICTIONARY
  5
11
330
10
100
AcDbDictionary
280
     1
281
     1
  0
DICTIONARY
  5
30
102
{ACAD_REACTORS
330
9
102
}
330
9
100
AcDbDictionary
281
     1
  0
DICTIONARY
  5
D
102
{ACAD_REACTORS
330
9
102
}
330
9
100
AcDbDictionary
281
     1
  3
Model
350
C
  3
ﾚｲｱｳﾄ1
350
15
  0
DICTIONARY
  5
31
102
{ACAD_REACTORS
330
9
102
}
330
9
100
AcDbDictionary
281
     1
  3
STANDARD
350
33
  0
DICTIONARY
  5
32
102
{ACAD_REACTORS
330
9
102
}
330
9
100
AcDbDictionary
281
     1
  0
ACDBDICTIONARYWDFLT
  5
8
102
{ACAD_REACTORS
330
9
102
}
330
9
100
AcDbDictionary
281
     1
  3
Normal
350
7
100
AcDbDictionaryWithDefault
340
7
  0
DICTIONARY
  5
10E
102
{ACAD_REACTORS
330
9
102
}
330
9
100
AcDbDictionary
281
     1
  3
DIMASSOC
350
110
  3
HIDETEXT
350
10F
  0
DICTIONARY
  5
1A
102
{ACAD_REACTORS
330
19
102
}
330
19
100
AcDbDictionary
280
     1
281
     1
  0
LAYOUT
  5
C
102
{ACAD_XDICTIONARY
360
E
102
}
102
{ACAD_REACTORS
330
D
102
}
330
D
100
AcDbPlotSettings
  1

  2
\\URANUS\8FPAM09
  4
A4
  6

 40
4.180416584014892
 41
4.349743366241455
 42
4.222747802734375
 43
4.349761962890625
 44
210.0156707763671
 45
297.0106506347656
 46
6.099999999999999
 47
0.0
 48
0.0
 49
0.0
140
0.0
141
0.0
142
1.0
143
1.368200290487455
 70
 11956
 72
     1
 73
     0
 74
     1
  7
tmsacad.ctb
 75
     0
147
0.7308871420015012
148
0.5978404244324338
149
0.1466903054924842
100
AcDbLayout
  1
Model
 70
     1
 71
     0
 10
0.0
 20
0.0
 11
12.0
 21
9.0
 12
0.0
 22
0.0
 32
0.0
 14
0.0
 24
0.0
 34
0.0
 15
0.0
 25
0.0
 35
0.0
146
0.0
 13
0.0
 23
0.0
 33
0.0
 16
1.0
 26
0.0
 36
0.0
 17
0.0
 27
1.0
 37
0.0
 76
     0
330
2
  0
LAYOUT
  5
15
102
{ACAD_XDICTIONARY
360
16
102
}
102
{ACAD_REACTORS
330
D
102
}
330
D
100
AcDbPlotSettings
  1

  2
C:\Program Files\ACAD2000\plotters\DWF ePlot.pc3
  4

  6

 40
0.0
 41
0.0
 42
0.0
 43
0.0
 44
0.0
 45
0.0
 46
0.0
 47
0.0
 48
0.0
 49
0.0
140
0.0
141
0.0
142
1.0
143
1.0
 70
   688
 72
     0
 73
     0
 74
     5
  7
tmsacad.ctb
 75
    16
147
1.0
148
0.0
149
0.0
100
AcDbLayout
  1
ﾚｲｱｳﾄ1
 70
     1
 71
     1
 10
0.0
 20
0.0
 11
12.0
 21
9.0
 12
0.0
 22
0.0
 32
0.0
 14
1.000000000000000E+20
 24
1.000000000000000E+20
 34
1.000000000000000E+20
 15
-1.000000000000000E+20
 25
-1.000000000000000E+20
 35
-1.000000000000000E+20
146
0.0
 13
0.0
 23
0.0
 33
0.0
 16
1.0
 26
0.0
 36
0.0
 17
0.0
 27
1.0
 37
0.0
 76
     0
330
10
  0
MLINESTYLE
  5
33
102
{ACAD_REACTORS
330
31
102
}
330
31
100
AcDbMlineStyle
  2
STANDARD
 70
     0
  3

 62
   256
 51
90.0
 52
90.0
 71
     2
 49
0.5
 62
   256
  6
BYLAYER
 49
-0.5
 62
   256
  6
BYLAYER
  0
ACDBPLACEHOLDER
  5
7
102
{ACAD_REACTORS
330
8
102
}
330
8
  0
DICTIONARYVAR
  5
110
102
{ACAD_REACTORS
330
10E
102
}
330
10E
100
DictionaryVariables
280
     0
  1
1
  0
DICTIONARYVAR
  5
10F
102
{ACAD_REACTORS
330
10E
102
}
330
10E
100
DictionaryVariables
280
     0
  1
1
  0
DICTIONARY
  5
E
330
C
100
AcDbDictionary
280
     1
281
     1
  3
ACAD_XREC_ROUNDTRIP
360
F
  0
DICTIONARY
  5
16
330
15
100
AcDbDictionary
280
     1
281
     1
  3
ACAD_XREC_ROUNDTRIP
360
17
  0
XRECORD
  5
F
102
{ACAD_REACTORS
330
E
102
}
330
E
100
AcDbXrecord
280
     1
102
SHADEPLOT
 70
     0
102
SHADEPLOTRESLEVEL
 70
     2
102
SHADEPLOTCUSTOMDPI
 70
   300
  0
XRECORD
  5
17
102
{ACAD_REACTORS
330
16
102
}
330
16
100
AcDbXrecord
280
     1
102
SHADEPLOT
 70
     0
102
SHADEPLOTRESLEVEL
 70
     2
102
SHADEPLOTCUSTOMDPI
 70
   300
  0
ENDSEC
  0
EOF
