  0
SECTION
  2
HEADER
  9
$ACADVER
  1
AC1015
  9
$ACADMAINTVER
 70
    20
  9
$DWGCODEPAGE
  3
ANSI_932
  9
$INSBASE
 10
0.0
 20
120.4992141396419
 30
0.0
  9
$EXTMIN
 10
-57.26548851695497
 20
-59.18008329178883
 30
-0.0015258207003583
  9
$EXTMAX
 10
67.79117833684495
 20
54.0560213218705
 30
0.0000000349246037
  9
$LIMMIN
 10
-1101.784450318844
 20
-1579.160531687244
  9
$LIMMAX
 10
-508.2420711400536
 20
-1161.440814074914
  9
$ORTHOMODE
 70
     0
  9
$REGENMODE
 70
     1
  9
$FILLMODE
 70
     1
  9
$QTEXTMODE
 70
     0
  9
$MIRRTEXT
 70
     1
  9
$LTSCALE
 40
1.0
  9
$ATTMODE
 70
     1
  9
$TEXTSIZE
 40
3.0
  9
$TRACEWID
 40
0.5
  9
$TEXTSTYLE
  7
STANDARD
  9
$CLAYER
  8
GAIKEI
  9
$CELTYPE
  6
BYLAYER
  9
$CECOLOR
 62
   256
  9
$CELTSCALE
 40
1.0
  9
$DISPSILH
 70
     0
  9
$DIMSCALE
 40
1.0
  9
$DIMASZ
 40
2.0
  9
$DIMEXO
 40
2.0
  9
$DIMDLI
 40
8.0
  9
$DIMRND
 40
0.0
  9
$DIMDLE
 40
0.0
  9
$DIMEXE
 40
2.0
  9
$DIMTP
 40
0.0
  9
$DIMTM
 40
0.0
  9
$DIMTXT
 40
2.5
  9
$DIMCEN
 40
0.0
  9
$DIMTSZ
 40
0.0
  9
$DIMTOL
 70
     0
  9
$DIMLIM
 70
     0
  9
$DIMTIH
 70
     0
  9
$DIMTOH
 70
     0
  9
$DIMSE1
 70
     0
  9
$DIMSE2
 70
     0
  9
$DIMTAD
 70
     3
  9
$DIMZIN
 70
     0
  9
$DIMBLK
  1

  9
$DIMASO
 70
     1
  9
$DIMSHO
 70
     1
  9
$DIMPOST
  1

  9
$DIMAPOST
  1

  9
$DIMALT
 70
     0
  9
$DIMALTD
 70
     2
  9
$DIMALTF
 40
25.4
  9
$DIMLFAC
 40
1.0
  9
$DIMTOFL
 70
     1
  9
$DIMTVP
 40
0.0
  9
$DIMTIX
 70
     0
  9
$DIMSOXD
 70
     0
  9
$DIMSAH
 70
     1
  9
$DIMBLK1
  1
OPEN30
  9
$DIMBLK2
  1
OPEN30
  9
$DIMSTYLE
  2
STANDARD
  9
$DIMCLRD
 70
     0
  9
$DIMCLRE
 70
     0
  9
$DIMCLRT
 70
     0
  9
$DIMTFAC
 40
1.0
  9
$DIMGAP
 40
0.5
  9
$DIMJUST
 70
     0
  9
$DIMSD1
 70
     0
  9
$DIMSD2
 70
     0
  9
$DIMTOLJ
 70
     1
  9
$DIMTZIN
 70
     0
  9
$DIMALTZ
 70
     0
  9
$DIMALTTZ
 70
     0
  9
$DIMUPT
 70
     0
  9
$DIMDEC
 70
     4
  9
$DIMTDEC
 70
     4
  9
$DIMALTU
 70
     2
  9
$DIMALTTD
 70
     2
  9
$DIMTXSTY
  7
STANDARD
  9
$DIMAUNIT
 70
     0
  9
$DIMADEC
 70
     0
  9
$DIMALTRND
 40
0.0
  9
$DIMAZIN
 70
     0
  9
$DIMDSEP
 70
    46
  9
$DIMATFIT
 70
     3
  9
$DIMFRAC
 70
     0
  9
$DIMLDRBLK
  1
OPEN30
  9
$DIMLUNIT
 70
     2
  9
$DIMLWD
 70
    -2
  9
$DIMLWE
 70
    -2
  9
$DIMTMOVE
 70
     0
  9
$LUNITS
 70
     2
  9
$LUPREC
 70
     4
  9
$SKETCHINC
 40
0.1
  9
$FILLETRAD
 40
0.0
  9
$AUNITS
 70
     0
  9
$AUPREC
 70
     0
  9
$MENU
  1
ACAD
  9
$ELEVATION
 40
0.0
  9
$PELEVATION
 40
0.0
  9
$THICKNESS
 40
0.0
  9
$LIMCHECK
 70
     0
  9
$CHAMFERA
 40
0.0
  9
$CHAMFERB
 40
0.0
  9
$CHAMFERC
 40
0.0
  9
$CHAMFERD
 40
0.0
  9
$SKPOLY
 70
     0
  9
$TDCREATE
 40
2451815.565532581
  9
$TDUCREATE
 40
2451815.190532581
  9
$TDUPDATE
 40
2456703.647609422
  9
$TDUUPDATE
 40
2456703.272609422
  9
$TDINDWG
 40
0.5324579167
  9
$TDUSRTIMER
 40
0.5324579167
  9
$USRTIMER
 70
     1
  9
$ANGBASE
 50
0.0
  9
$ANGDIR
 70
     0
  9
$PDMODE
 70
     0
  9
$PDSIZE
 40
0.0
  9
$PLINEWID
 40
0.0
  9
$SPLFRAME
 70
     0
  9
$SPLINETYPE
 70
     6
  9
$SPLINESEGS
 70
     8
  9
$HANDSEED
  5
358
  9
$SURFTAB1
 70
     6
  9
$SURFTAB2
 70
     6
  9
$SURFTYPE
 70
     6
  9
$SURFU
 70
     6
  9
$SURFV
 70
     6
  9
$UCSBASE
  2

  9
$UCSNAME
  2

  9
$UCSORG
 10
0.0
 20
0.0
 30
0.0
  9
$UCSXDIR
 10
1.0
 20
0.0
 30
0.0
  9
$UCSYDIR
 10
0.0
 20
1.0
 30
0.0
  9
$UCSORTHOREF
  2

  9
$UCSORTHOVIEW
 70
     0
  9
$UCSORGTOP
 10
0.0
 20
0.0
 30
0.0
  9
$UCSORGBOTTOM
 10
0.0
 20
0.0
 30
0.0
  9
$UCSORGLEFT
 10
0.0
 20
0.0
 30
0.0
  9
$UCSORGRIGHT
 10
0.0
 20
0.0
 30
0.0
  9
$UCSORGFRONT
 10
0.0
 20
0.0
 30
0.0
  9
$UCSORGBACK
 10
0.0
 20
0.0
 30
0.0
  9
$PUCSBASE
  2

  9
$PUCSNAME
  2

  9
$PUCSORG
 10
0.0
 20
0.0
 30
0.0
  9
$PUCSXDIR
 10
1.0
 20
0.0
 30
0.0
  9
$PUCSYDIR
 10
0.0
 20
1.0
 30
0.0
  9
$PUCSORTHOREF
  2

  9
$PUCSORTHOVIEW
 70
     0
  9
$PUCSORGTOP
 10
0.0
 20
0.0
 30
0.0
  9
$PUCSORGBOTTOM
 10
0.0
 20
0.0
 30
0.0
  9
$PUCSORGLEFT
 10
0.0
 20
0.0
 30
0.0
  9
$PUCSORGRIGHT
 10
0.0
 20
0.0
 30
0.0
  9
$PUCSORGFRONT
 10
0.0
 20
0.0
 30
0.0
  9
$PUCSORGBACK
 10
0.0
 20
0.0
 30
0.0
  9
$USERI1
 70
     0
  9
$USERI2
 70
     0
  9
$USERI3
 70
     0
  9
$USERI4
 70
     0
  9
$USERI5
 70
     0
  9
$USERR1
 40
0.0
  9
$USERR2
 40
0.0
  9
$USERR3
 40
0.0
  9
$USERR4
 40
0.0
  9
$USERR5
 40
0.0
  9
$WORLDVIEW
 70
     1
  9
$SHADEDGE
 70
     3
  9
$SHADEDIF
 70
    70
  9
$TILEMODE
 70
     1
  9
$MAXACTVP
 70
    48
  9
$PINSBASE
 10
0.0
 20
0.0
 30
0.0
  9
$PLIMCHECK
 70
     0
  9
$PEXTMIN
 10
1.000000000000000E+20
 20
1.000000000000000E+20
 30
1.000000000000000E+20
  9
$PEXTMAX
 10
-1.000000000000000E+20
 20
-1.000000000000000E+20
 30
-1.000000000000000E+20
  9
$PLIMMIN
 10
0.0
 20
0.0
  9
$PLIMMAX
 10
12.0
 20
9.0
  9
$UNITMODE
 70
     0
  9
$VISRETAIN
 70
     1
  9
$PLINEGEN
 70
     0
  9
$PSLTSCALE
 70
     1
  9
$TREEDEPTH
 70
  3020
  9
$CMLSTYLE
  2
STANDARD
  9
$CMLJUST
 70
     0
  9
$CMLSCALE
 40
1.0
  9
$PROXYGRAPHICS
 70
     1
  9
$MEASUREMENT
 70
     0
  9
$CELWEIGHT
370
    -1
  9
$ENDCAPS
280
     0
  9
$JOINSTYLE
280
     0
  9
$LWDISPLAY
290
     0
  9
$INSUNITS
 70
     6
  9
$HYPERLINKBASE
  1

  9
$STYLESHEET
  1

  9
$XEDIT
290
     1
  9
$CEPSNTYPE
380
     0
  9
$PSTYLEMODE
290
     1
  9
$FINGERPRINTGUID
  2
{2C5CABBE-55E0-4F3B-A510-BDD2AAD5A916}
  9
$VERSIONGUID
  2
{8E7D3978-AAA7-4983-A3F2-CAA7CB50EF36}
  9
$EXTNAMES
290
     1
  9
$PSVPSCALE
 40
0.0
  9
$OLESTARTUP
290
     0
  0
ENDSEC
  0
SECTION
  2
CLASSES
  0
CLASS
  1
ACDBDICTIONARYWDFLT
  2
AcDbDictionaryWithDefault
  3
ObjectDBX Classes
 90
        0
280
     0
281
     0
  0
CLASS
  1
ACDBPLACEHOLDER
  2
AcDbPlaceHolder
  3
ObjectDBX Classes
 90
        0
280
     0
281
     0
  0
CLASS
  1
LAYOUT
  2
AcDbLayout
  3
ObjectDBX Classes
 90
        0
280
     0
281
     0
  0
CLASS
  1
DICTIONARYVAR
  2
AcDbDictionaryVar
  3
ObjectDBX Classes
 90
        0
280
     0
281
     0
  0
CLASS
  1
MATERIAL
  2
AcDbMaterial
  3
ObjectDBX Classes
 90
     1153
280
     0
281
     0
  0
CLASS
  1
VISUALSTYLE
  2
AcDbVisualStyle
  3
ObjectDBX Classes
 90
     4095
280
     0
281
     0
  0
CLASS
  1
TABLESTYLE
  2
AcDbTableStyle
  3
ObjectDBX Classes
 90
     4095
280
     0
281
     0
  0
CLASS
  1
SCALE
  2
AcDbScale
  3
ObjectDBX Classes
 90
     1153
280
     0
281
     0
  0
CLASS
  1
MLEADERSTYLE
  2
AcDbMLeaderStyle
  3
ACDB_MLEADERSTYLE_CLASS
 90
     4095
280
     0
281
     0
  0
CLASS
  1
CELLSTYLEMAP
  2
AcDbCellStyleMap
  3
ObjectDBX Classes
 90
     1152
280
     0
281
     0
  0
CLASS
  1
SORTENTSTABLE
  2
AcDbSortentsTable
  3
ObjectDBX Classes
 90
        0
280
     0
281
     0
  0
CLASS
  1
AEC_REFEDIT_STATUS_TRACKER
  2
AecDbRefEditStatusTracker
  3
AecArchBase60|Product Desc: Autodesk Architectural Desktop 2007 |Company: Autodesk,Inc. |WEB Address: www.autodesk.com
 90
    32897
280
     0
281
     0
  0
CLASS
  1
NPOCOLLECTION
  2
AcDbImpNonPersistentObjectsCollection
  3
ObjectDBX Classes
 90
    33921
280
     0
281
     0
  0
CLASS
  1
SOLID_BACKGROUND
  2
AcDbSolidBackground
  3
SCENEOE
 90
    36863
280
     0
281
     0
  0
ENDSEC
  0
SECTION
  2
TABLES
  0
TABLE
  2
VPORT
  5
2E
102
{ACAD_XDICTIONARY
360
32
102
}
330
0
100
AcDbSymbolTable
 70
     1
  0
VPORT
  5
2F
330
2E
100
AcDbSymbolTableRecord
100
AcDbViewportTableRecord
  2
*Active
 70
     0
 10
0.0
 20
0.0
 11
1.0
 21
1.0
 12
5.262844909944988
 22
-2.562030984959164
 13
0.0
 23
0.0
 14
1.0
 24
1.0
 15
0.0
 25
0.0
 16
0.0
 26
0.0
 36
1.0
 17
0.0
 27
0.0
 37
0.0
 40
114.0656731456275
 41
2.266503667481662
 42
50.0
 43
0.0
 44
0.0
 50
0.0
 51
0.0
 71
     0
 72
  1000
 73
     1
 74
     0
 75
     0
 76
     0
 77
     0
 78
     0
281
     0
 65
     1
110
0.0
120
0.0
130
0.0
111
1.0
121
0.0
131
0.0
112
0.0
122
1.0
132
0.0
 79
     0
146
0.0
  0
ENDTAB
  0
TABLE
  2
LTYPE
  5
29
330
0
100
AcDbSymbolTable
 70
     2
  0
LTYPE
  5
2A
330
29
100
AcDbSymbolTableRecord
100
AcDbLinetypeTableRecord
  2
BYBLOCK
 70
     0
  3

 72
    65
 73
     0
 40
0.0
  0
LTYPE
  5
2B
330
29
100
AcDbSymbolTableRecord
100
AcDbLinetypeTableRecord
  2
BYLAYER
 70
     0
  3

 72
    65
 73
     0
 40
0.0
  0
LTYPE
  5
16
330
29
100
AcDbSymbolTableRecord
100
AcDbLinetypeTableRecord
  2
CONTINUOUS
 70
     0
  3
Solid line
 72
    65
 73
     0
 40
0.0
  0
LTYPE
  5
8A
330
29
100
AcDbSymbolTableRecord
100
AcDbLinetypeTableRecord
  2
S10
 70
     0
  3
- - - - - - - - - 1,-1,1,-1
 72
    65
 73
     4
 40
4.0
 49
1.0
 74
     0
 49
-1.0
 74
     0
 49
1.0
 74
     0
 49
-1.0
 74
     0
  0
ENDTAB
  0
TABLE
  2
LAYER
  5
21
102
{ACAD_XDICTIONARY
360
22
102
}
330
0
100
AcDbSymbolTable
 70
     7
  0
LAYER
  5
7
102
{ACAD_XDICTIONARY
360
8
102
}
330
21
100
AcDbSymbolTableRecord
100
AcDbLayerTableRecord
  2
0
 70
     0
 62
     7
  6
CONTINUOUS
370
    -3
390
A
  0
LAYER
  5
286
330
21
100
AcDbSymbolTableRecord
100
AcDbLayerTableRecord
  2
DEFPOINTS
 70
     0
 62
     7
  6
CONTINUOUS
290
     0
370
    -3
390
A
  0
LAYER
  5
77
102
{ACAD_XDICTIONARY
360
78
102
}
330
21
100
AcDbSymbolTableRecord
100
AcDbLayerTableRecord
  2
WAKU
 70
     0
 62
     4
  6
CONTINUOUS
370
    -3
390
A
  0
LAYER
  5
6F
102
{ACAD_XDICTIONARY
360
70
102
}
330
21
100
AcDbSymbolTableRecord
100
AcDbLayerTableRecord
  2
MOJI1
 70
     0
 62
     2
  6
CONTINUOUS
370
    -3
390
A
  0
LAYER
  5
55
102
{ACAD_XDICTIONARY
360
56
102
}
330
21
100
AcDbSymbolTableRecord
100
AcDbLayerTableRecord
  2
GAIKEI
 70
     0
 62
     7
  6
CONTINUOUS
370
    -3
390
A
  0
LAYER
  5
73
102
{ACAD_XDICTIONARY
360
74
102
}
330
21
100
AcDbSymbolTableRecord
100
AcDbLayerTableRecord
  2
TOUROKU
 70
     0
 62
     1
  6
CONTINUOUS
370
    -3
390
A
  0
LAYER
  5
27C
330
21
100
AcDbSymbolTableRecord
100
AcDbLayerTableRecord
  2
SUNPO
 70
     0
 62
     3
  6
CONTINUOUS
370
    -3
390
A
  0
ENDTAB
  0
TABLE
  2
STYLE
  5
26
330
0
100
AcDbSymbolTable
 70
     2
  0
STYLE
  5
27
330
26
100
AcDbSymbolTableRecord
100
AcDbTextStyleTableRecord
  2
STANDARD
 70
     0
 40
0.0
 41
1.0
 50
0.0
 71
     0
 42
3.0
  3
MONOTXT.shx
  4
BIGFONT.shx
  0
STYLE
  5
85
330
26
100
AcDbSymbolTableRecord
100
AcDbTextStyleTableRecord
  2
KANJI
 70
     0
 40
0.0
 41
1.0
 50
0.0
 71
     0
 42
3.5
  3
MONOTXT
  4
BIGFONT
  0
ENDTAB
  0
TABLE
  2
VIEW
  5
2C
330
0
100
AcDbSymbolTable
 70
     0
  0
ENDTAB
  0
TABLE
  2
UCS
  5
2D
330
0
100
AcDbSymbolTable
 70
     0
  0
ENDTAB
  0
TABLE
  2
APPID
  5
33
330
0
100
AcDbSymbolTable
 70
     3
  0
APPID
  5
34
330
33
100
AcDbSymbolTableRecord
100
AcDbRegAppTableRecord
  2
ACAD
 70
     0
  0
APPID
  5
1A
330
33
100
AcDbSymbolTableRecord
100
AcDbRegAppTableRecord
  2
ACAD_PSEXT
 70
     0
  0
APPID
  5
357
330
33
100
AcDbSymbolTableRecord
100
AcDbRegAppTableRecord
  2
ACAD_MLEADERVER
 70
     0
  0
ENDTAB
  0
TABLE
  2
DIMSTYLE
  5
35
330
0
100
AcDbSymbolTable
 70
     1
100
AcDbDimStyleTable
 71
     1
340
36
  0
DIMSTYLE
105
36
102
{ACAD_REACTORS
330
27B
330
28A
102
}
330
35
100
AcDbSymbolTableRecord
100
AcDbDimStyleTableRecord
  2
STANDARD
 70
     0
 40
0.0
 41
2.0
 42
2.0
 43
8.0
 44
2.0
 73
     0
 74
     0
 77
     3
140
3.0
141
0.0
173
     1
279
     2
288
     1
340
27
341
37
343
37
344
37
  0
ENDTAB
  0
TABLE
  2
BLOCK_RECORD
  5
1
330
0
100
AcDbSymbolTable
 70
     5
  0
BLOCK_RECORD
  5
2
102
{ACAD_XDICTIONARY
360
3
102
}
330
1
100
AcDbSymbolTableRecord
100
AcDbBlockTableRecord
  2
*MODEL_SPACE
340
18
  0
BLOCK_RECORD
  5
1B
102
{ACAD_XDICTIONARY
360
1C
102
}
330
1
100
AcDbSymbolTableRecord
100
AcDbBlockTableRecord
  2
*PAPER_SPACE
340
20
  0
BLOCK_RECORD
  5
37
330
1
100
AcDbSymbolTableRecord
100
AcDbBlockTableRecord
  2
_OPEN30
340
0
102
{BLKREFS
331
282
331
283
331
290
331
291
331
305
331
306
331
311
331
312
102
}
  0
BLOCK_RECORD
  5
27D
330
1
100
AcDbSymbolTableRecord
100
AcDbBlockTableRecord
  2
*D1
340
0
  0
BLOCK_RECORD
  5
28B
330
1
100
AcDbSymbolTableRecord
100
AcDbBlockTableRecord
  2
*D2
340
0
  0
BLOCK_RECORD
  5
2FF
330
1
100
AcDbSymbolTableRecord
100
AcDbBlockTableRecord
  2
*D3
340
0
  0
BLOCK_RECORD
  5
30B
330
1
100
AcDbSymbolTableRecord
100
AcDbBlockTableRecord
  2
*D4
340
0
  0
ENDTAB
  0
ENDSEC
  0
SECTION
  2
BLOCKS
  0
BLOCK
  5
6
330
2
100
AcDbEntity
  8
0
100
AcDbBlockBegin
  2
*MODEL_SPACE
 70
     0
 10
0.0
 20
0.0
 30
0.0
  3
*MODEL_SPACE
  1

  0
ENDBLK
  5
17
330
2
100
AcDbEntity
  8
0
100
AcDbBlockEnd
  0
BLOCK
  5
1E
330
1B
100
AcDbEntity
 67
     1
  8
0
100
AcDbBlockBegin
  2
*PAPER_SPACE
 70
     0
 10
0.0
 20
0.0
 30
0.0
  3
*PAPER_SPACE
  1

  0
ENDBLK
  5
1F
330
1B
100
AcDbEntity
 67
     1
  8
0
100
AcDbBlockEnd
  0
BLOCK
  5
38
330
37
100
AcDbEntity
  8
0
100
AcDbBlockBegin
  2
_OPEN30
 70
     0
 10
0.0
 20
0.0
 30
0.0
  3
_OPEN30
  1

  0
LINE
  5
39
330
37
100
AcDbEntity
  8
0
  6
ByBlock
 62
     0
100
AcDbLine
 10
-1.0
 20
0.26794919
 30
0.0
 11
0.0
 21
0.0
 31
0.0
  0
LINE
  5
3A
330
37
100
AcDbEntity
  8
0
  6
ByBlock
 62
     0
100
AcDbLine
 10
0.0
 20
0.0
 30
0.0
 11
-1.0
 21
-0.26794919
 31
0.0
  0
LINE
  5
3B
330
37
100
AcDbEntity
  8
0
  6
ByBlock
 62
     0
100
AcDbLine
 10
0.0
 20
0.0
 30
0.0
 11
-1.0
 21
0.0
 31
0.0
  0
ENDBLK
  5
3C
330
37
100
AcDbEntity
  8
0
100
AcDbBlockEnd
  0
BLOCK
  5
27E
330
27D
100
AcDbEntity
  8
0
100
AcDbBlockBegin
  2
*D1
 70
     1
 10
0.0
 20
0.0
 30
0.0
  3
*D1
  1

  0
LINE
  5
27F
330
27D
100
AcDbEntity
  8
SUNPO
 62
     0
370
    -2
100
AcDbLine
 10
53.81118832622906
 20
83.32231090639437
 30
0.0
 11
61.81118832622907
 21
83.32231090639437
 31
0.0
  0
LINE
  5
280
330
27D
100
AcDbEntity
  8
SUNPO
 62
     0
370
    -2
100
AcDbLine
 10
53.81118832622906
 20
67.02225803734444
 30
0.0
 11
61.81118832622906
 21
67.02225803734444
 31
0.0
  0
LINE
  5
281
330
27D
100
AcDbEntity
  8
SUNPO
 62
     0
370
    -2
100
AcDbLine
 10
59.81118832622907
 20
81.32231090639436
 30
0.0
 11
59.81118832622906
 21
69.02225803734444
 31
0.0
  0
INSERT
  5
282
330
27D
100
AcDbEntity
  8
SUNPO
 62
     0
370
    -2
100
AcDbBlockReference
  2
_OPEN30
 10
59.81118832622907
 20
83.32231090639437
 30
0.0
 41
2.0
 42
2.0
 43
2.0
 50
90.0
  0
INSERT
  5
283
330
27D
100
AcDbEntity
  8
SUNPO
 62
     0
370
    -2
100
AcDbBlockReference
  2
_OPEN30
 10
59.81118832622906
 20
67.02225803734444
 30
0.0
 41
2.0
 42
2.0
 43
2.0
 50
270.0
  0
MTEXT
  5
284
330
27D
100
AcDbEntity
  8
SUNPO
 62
     0
100
AcDbMText
 10
58.06118832622905
 20
75.17228447186941
 30
0.0
 40
2.5
 41
0.0
 71
     5
 72
     1
  1
\A1;163
 11
0.0000000000000001
 21
1.0
 31
0.0
 73
     1
 44
1.0
1001
ACAD
1000
MTEXTBEGIN
1070
    73
1070
     1
1070
    44
1040
1.0
1070
    74
1070
     0
1000
MTEXTEND
  0
POINT
  5
285
330
27D
100
AcDbEntity
  8
DEFPOINTS
 62
     0
100
AcDbPoint
 10
51.81118832622906
 20
83.32231090639437
 30
0.0
  0
POINT
  5
287
330
27D
100
AcDbEntity
  8
DEFPOINTS
 62
     0
100
AcDbPoint
 10
51.81118832622906
 20
67.02225803734444
 30
0.0
  0
POINT
  5
288
330
27D
100
AcDbEntity
  8
DEFPOINTS
 62
     0
100
AcDbPoint
 10
59.81118832622906
 20
67.02225803734444
 30
0.0
  0
ENDBLK
  5
289
330
27D
100
AcDbEntity
  8
0
100
AcDbBlockEnd
  0
BLOCK
  5
28C
330
28B
100
AcDbEntity
  8
0
100
AcDbBlockBegin
  2
*D2
 70
     1
 10
0.0
 20
0.0
 30
0.0
  3
*D2
  1

  0
LINE
  5
28D
330
28B
100
AcDbEntity
  8
SUNPO
 62
     0
370
    -2
100
AcDbLine
 10
51.72975436115996
 20
85.28417476148314
 30
0.0
 11
51.72975436115996
 21
93.28417476148315
 31
0.0
  0
LINE
  5
28E
330
28B
100
AcDbEntity
  8
SUNPO
 62
     0
370
    -2
100
AcDbLine
 10
33.22975077764307
 20
85.28417476148314
 30
0.0
 11
33.22975077764307
 21
93.28417476148315
 31
0.0
  0
LINE
  5
28F
330
28B
100
AcDbEntity
  8
SUNPO
 62
     0
370
    -2
100
AcDbLine
 10
49.72975436115996
 20
91.28417476148314
 30
0.0
 11
35.22975077764306
 21
91.28417476148314
 31
0.0
  0
INSERT
  5
290
330
28B
100
AcDbEntity
  8
SUNPO
 62
     0
370
    -2
100
AcDbBlockReference
  2
_OPEN30
 10
51.72975436115996
 20
91.28417476148314
 30
0.0
 41
2.0
 42
2.0
 43
2.0
  0
INSERT
  5
291
330
28B
100
AcDbEntity
  8
SUNPO
 62
     0
370
    -2
100
AcDbBlockReference
  2
_OPEN30
 10
33.22975077764307
 20
91.28417476148314
 30
0.0
 41
2.0
 42
2.0
 43
2.0
 50
180.0
  0
MTEXT
  5
292
330
28B
100
AcDbEntity
  8
SUNPO
 62
     0
100
AcDbMText
 10
42.47975256940151
 20
93.03417476148315
 30
0.0
 40
2.5
 41
0.0
 71
     5
 72
     1
  1
\A1;\U+03C6185
 73
     1
 44
1.0
1001
ACAD
1000
MTEXTBEGIN
1070
    73
1070
     1
1070
    44
1040
1.0
1070
    74
1070
     0
1000
MTEXTEND
  0
POINT
  5
293
330
28B
100
AcDbEntity
  8
DEFPOINTS
 62
     0
100
AcDbPoint
 10
51.72975436115996
 20
83.28417476148315
 30
0.0
  0
POINT
  5
294
330
28B
100
AcDbEntity
  8
DEFPOINTS
 62
     0
100
AcDbPoint
 10
33.22975077764307
 20
83.28417476148315
 30
0.0
  0
POINT
  5
295
330
28B
100
AcDbEntity
  8
DEFPOINTS
 62
     0
100
AcDbPoint
 10
33.22975077764307
 20
91.28417476148314
 30
0.0
  0
ENDBLK
  5
296
330
28B
100
AcDbEntity
  8
0
100
AcDbBlockEnd
  0
BLOCK
  5
300
330
2FF
100
AcDbEntity
  8
0
100
AcDbBlockBegin
  2
*D3
 70
     1
 10
0.0
 20
0.0
 30
0.0
  3
*D3
  1

  0
LINE
  5
302
330
2FF
100
AcDbEntity
  8
SUNPO
 62
     0
370
    -2
100
AcDbLine
 10
-5.421870612640987
 20
18.79254190727317
 30
0.0
 11
2.578129387359016
 21
18.79254190727317
 31
0.0
  0
LINE
  5
303
330
2FF
100
AcDbEntity
  8
SUNPO
 62
     0
370
    -2
100
AcDbLine
 10
-5.421870612640987
 20
2.492489038223254
 30
0.0
 11
2.578129387359012
 21
2.492489038223252
 31
0.0
  0
LINE
  5
304
330
2FF
100
AcDbEntity
  8
SUNPO
 62
     0
370
    -2
100
AcDbLine
 10
0.5781293873590162
 20
16.79254190727317
 30
0.0
 11
0.5781293873590135
 21
4.492489038223252
 31
0.0
  0
INSERT
  5
305
330
2FF
100
AcDbEntity
  8
SUNPO
 62
     0
370
    -2
100
AcDbBlockReference
  2
_OPEN30
 10
0.5781293873590167
 20
18.79254190727317
 30
0.0
 41
2.0
 42
2.0
 43
2.0
 50
90.0
  0
INSERT
  5
306
330
2FF
100
AcDbEntity
  8
SUNPO
 62
     0
370
    -2
100
AcDbBlockReference
  2
_OPEN30
 10
0.578129387359013
 20
2.492489038223252
 30
0.0
 41
2.0
 42
2.0
 43
2.0
 50
270.0
  0
MTEXT
  5
307
330
2FF
100
AcDbEntity
  8
SUNPO
 62
     0
100
AcDbMText
 10
-1.171870612640987
 20
10.64251547274821
 30
0.0
 40
2.5
 41
0.0
 71
     5
 72
     1
  1
\A1;163
 11
0.0000000000000001
 21
1.0
 31
0.0
 73
     1
 44
1.0
1001
ACAD
1000
MTEXTBEGIN
1070
    73
1070
     1
1070
    44
1040
1.0
1070
    74
1070
     0
1000
MTEXTEND
  0
POINT
  5
308
330
2FF
100
AcDbEntity
  8
DEFPOINTS
 62
     0
100
AcDbPoint
 10
-7.421870612640987
 20
18.79254190727317
 30
0.0
  0
POINT
  5
309
330
2FF
100
AcDbEntity
  8
DEFPOINTS
 62
     0
100
AcDbPoint
 10
-7.421870612640987
 20
2.492489038223254
 30
0.0
  0
POINT
  5
30A
330
2FF
100
AcDbEntity
  8
DEFPOINTS
 62
     0
100
AcDbPoint
 10
0.578129387359013
 20
2.492489038223252
 30
0.0
  0
ENDBLK
  5
301
330
2FF
100
AcDbEntity
  8
0
100
AcDbBlockEnd
  0
BLOCK
  5
30C
330
30B
100
AcDbEntity
  8
0
100
AcDbBlockBegin
  2
*D4
 70
     1
 10
0.0
 20
0.0
 30
0.0
  3
*D4
  1

  0
LINE
  5
30E
330
30B
100
AcDbEntity
  8
SUNPO
 62
     0
370
    -2
100
AcDbLine
 10
-7.503304577710082
 20
20.75440576236196
 30
0.0
 11
-7.503304577710081
 21
28.75440576236196
 31
0.0
  0
LINE
  5
30F
330
30B
100
AcDbEntity
  8
SUNPO
 62
     0
370
    -2
100
AcDbLine
 10
-26.00330816122698
 20
20.75440576236196
 30
0.0
 11
-26.00330816122698
 21
28.75440576236196
 31
0.0
  0
LINE
  5
310
330
30B
100
AcDbEntity
  8
SUNPO
 62
     0
370
    -2
100
AcDbLine
 10
-9.503304577710082
 20
26.75440576236196
 30
0.0
 11
-24.00330816122699
 21
26.75440576236196
 31
0.0
  0
INSERT
  5
311
330
30B
100
AcDbEntity
  8
SUNPO
 62
     0
370
    -2
100
AcDbBlockReference
  2
_OPEN30
 10
-7.503304577710081
 20
26.75440576236196
 30
0.0
 41
2.0
 42
2.0
 43
2.0
  0
INSERT
  5
312
330
30B
100
AcDbEntity
  8
SUNPO
 62
     0
370
    -2
100
AcDbBlockReference
  2
_OPEN30
 10
-26.00330816122698
 20
26.75440576236196
 30
0.0
 41
2.0
 42
2.0
 43
2.0
 50
180.0
  0
MTEXT
  5
313
330
30B
100
AcDbEntity
  8
SUNPO
 62
     0
100
AcDbMText
 10
-16.75330636946853
 20
28.50440576236195
 30
0.0
 40
2.5
 41
0.0
 71
     5
 72
     1
  1
\A1;\U+03C6185
 73
     1
 44
1.0
1001
ACAD
1000
MTEXTBEGIN
1070
    73
1070
     1
1070
    44
1040
1.0
1070
    74
1070
     0
1000
MTEXTEND
  0
POINT
  5
314
330
30B
100
AcDbEntity
  8
DEFPOINTS
 62
     0
100
AcDbPoint
 10
-7.503304577710082
 20
18.75440576236195
 30
0.0
  0
POINT
  5
315
330
30B
100
AcDbEntity
  8
DEFPOINTS
 62
     0
100
AcDbPoint
 10
-26.00330816122698
 20
18.75440576236195
 30
0.0
  0
POINT
  5
316
330
30B
100
AcDbEntity
  8
DEFPOINTS
 62
     0
100
AcDbPoint
 10
-26.00330816122698
 20
26.75440576236196
 30
0.0
  0
ENDBLK
  5
30D
330
30B
100
AcDbEntity
  8
0
100
AcDbBlockEnd
  0
ENDSEC
  0
SECTION
  2
ENTITIES
  0
TEXT
  5
6E
330
2
100
AcDbEntity
  8
MOJI1
100
AcDbText
 10
-30.23305893887027
 20
49.96944514052097
 30
0.0
 40
4.0
  1
カメラ天井直付金具
100
AcDbText
  0
TEXT
  5
72
330
2
100
AcDbEntity
  8
TOUROKU
100
AcDbText
 10
51.7668910940572
 20
43.96944514052068
 30
0.0
 40
2.0
  1
ＷＶＱ１５６Ｓ
 72
     2
 11
67.7668910940572
 21
43.96944514052068
 31
0.0
100
AcDbText
  0
LINE
  5
76
330
2
100
AcDbEntity
  8
WAKU
 62
     4
100
AcDbLine
 10
-57.23305893887005
 20
-59.03055485947954
 30
0.0
 11
67.76694106112995
 21
-59.03055485947954
 31
0.0
  0
LINE
  5
7A
330
2
100
AcDbEntity
  8
WAKU
 62
     4
100
AcDbLine
 10
67.76694106112995
 20
-24.03055485947954
 30
0.0
 11
-57.23305893887005
 21
-24.03055485947954
 31
0.0
  0
LINE
  5
7B
330
2
100
AcDbEntity
  8
WAKU
 62
     1
100
AcDbLine
 10
-57.23305893887005
 20
-54.03055485947954
 30
0.0
 11
67.76694106112995
 21
-54.03055485947954
 31
0.0
  0
LINE
  5
7C
330
2
100
AcDbEntity
  8
WAKU
 62
     1
100
AcDbLine
 10
-57.23305893887005
 20
-49.03055485947954
 30
0.0
 11
67.76694106112995
 21
-49.03055485947954
 31
0.0
  0
LINE
  5
7D
330
2
100
AcDbEntity
  8
WAKU
 62
     1
100
AcDbLine
 10
-57.23305893887005
 20
-44.03055485947954
 30
0.0
 11
67.76694106112995
 21
-44.03055485947954
 31
0.0
  0
LINE
  5
7E
330
2
100
AcDbEntity
  8
WAKU
 62
     1
100
AcDbLine
 10
-57.23305893887005
 20
-39.03055485947954
 30
0.0
 11
67.76694106112995
 21
-39.03055485947954
 31
0.0
  0
LINE
  5
7F
330
2
100
AcDbEntity
  8
WAKU
 62
     1
100
AcDbLine
 10
-57.23305893887005
 20
-34.03055485947954
 30
0.0
 11
67.76694106112995
 21
-34.03055485947954
 31
0.0
  0
LINE
  5
80
330
2
100
AcDbEntity
  8
WAKU
 62
     1
100
AcDbLine
 10
-57.23305893887005
 20
-29.03055485947954
 30
0.0
 11
67.76694106112995
 21
-29.03055485947954
 31
0.0
  0
LINE
  5
81
330
2
100
AcDbEntity
  8
WAKU
 62
     4
100
AcDbLine
 10
-17.23305893887004
 20
-59.03055485947954
 30
0.0
 11
-17.23305893887004
 21
-24.03055485947954
 31
0.0
  0
LINE
  5
82
330
2
100
AcDbEntity
  8
WAKU
 62
     4
100
AcDbLine
 10
-57.23305893887005
 20
-24.03055485947954
 30
0.0
 11
-57.23305893887005
 21
-59.03055485947954
 31
0.0
  0
LINE
  5
83
330
2
100
AcDbEntity
  8
WAKU
 62
     4
100
AcDbLine
 10
67.76694106112995
 20
-59.03055485947954
 30
0.0
 11
67.76694106112995
 21
-24.03055485947954
 31
0.0
  0
TEXT
  5
84
330
2
100
AcDbEntity
  8
MOJI1
100
AcDbText
 10
-55.73305893887004
 20
-33.03055485947954
 30
0.0
 40
3.0
  1
仕上げ
  7
KANJI
100
AcDbText
  0
TEXT
  5
86
330
2
100
AcDbEntity
  8
MOJI1
100
AcDbText
 10
-55.73305893887004
 20
-28.03055485947954
 30
0.0
 40
3.0
  1
質　量
  7
KANJI
100
AcDbText
  0
TEXT
  5
87
330
2
100
AcDbEntity
  8
MOJI1
100
AcDbText
 10
-15.73305893887004
 20
-28.03055485947954
 30
0.0
 40
3.0
  1
約２３０ｇ
  7
KANJI
100
AcDbText
  0
TEXT
  5
88
330
2
100
AcDbEntity
  8
MOJI1
100
AcDbText
 10
-15.73305893887004
 20
-38.03055485947954
 30
0.0
 40
3.0
  1
ドームカバー：アクリル樹脂
  7
KANJI
100
AcDbText
  0
LINE
  5
89
330
2
100
AcDbEntity
  8
GAIKEI
  6
S10
 62
     1
100
AcDbLine
 10
24.12942278063236
 20
3.073774773757406
 30
0.0
 11
24.12942278063236
 21
3.071759874762108
 31
0.0
  0
LINE
  5
8B
330
2
100
AcDbEntity
  8
GAIKEI
  6
S10
 62
     1
100
AcDbLine
 10
18.71902090541073
 20
8.185722763846854
 30
0.0
 11
18.71693846077642
 21
8.185640278919379
 31
0.0
  0
LINE
  5
8C
330
2
100
AcDbEntity
  8
GAIKEI
  6
S10
 62
     1
100
AcDbLine
 10
18.71901999078784
 20
8.185723596889658
 30
0.0
 11
29.77551807472298
 21
8.185722728966823
 31
0.0
  0
LINE
  5
8D
330
2
100
AcDbEntity
  8
GAIKEI
  6
S10
 62
     1
100
AcDbLine
 10
24.12942278063236
 20
3.073774773757406
 30
0.0
 11
25.74347294178711
 21
3.073773009411695
 31
0.0
  0
LINE
  5
8E
330
2
100
AcDbEntity
  8
GAIKEI
  6
S10
 62
     1
100
AcDbLine
 10
24.12942278063236
 20
3.071759874762108
 30
0.0
 11
25.72260263015448
 21
3.071759874762108
 31
0.0
  0
LINE
  5
8F
330
2
100
AcDbEntity
  8
GAIKEI
  6
S10
 62
     1
100
AcDbLine
 10
25.72942797023234
 20
3.071759874762108
 30
0.0
 11
25.74347313366764
 21
3.073773063691874
 31
0.0
  0
LINE
  5
90
330
2
100
AcDbEntity
  8
GAIKEI
  6
Continuous
 62
     7
100
AcDbLine
 10
15.19380147970662
 20
16.63707939781528
 30
0.0
 11
32.9962285291781
 21
16.63707939781528
 31
0.0
  0
LINE
  5
91
330
2
100
AcDbEntity
  8
GAIKEI
  6
Continuous
 62
     1
100
AcDbLine
 10
17.09480323124569
 20
15.77147340276002
 30
0.0
 11
31.09508745788537
 21
15.77147340276002
 31
0.0
  0
LINE
  5
92
330
2
100
AcDbEntity
  8
GAIKEI
  6
Continuous
 62
     1
100
AcDbLine
 10
-23.78792591885019
 20
15.77147340276002
 30
0.0
 11
-9.787641692210513
 21
15.77147340276002
 31
0.0
  0
LINE
  5
93
330
2
100
AcDbEntity
  8
GAIKEI
  6
Continuous
 62
     7
100
AcDbLine
 10
-25.68892767038926
 20
16.63707939781528
 30
0.0
 11
-7.8865006209179
 21
16.63707939781528
 31
0.0
  0
LINE
  5
94
330
2
100
AcDbEntity
  8
GAIKEI
  6
Continuous
 62
     7
100
AcDbLine
 10
-26.00330816123199
 20
18.49254209733692
 30
0.0
 11
-25.85389838280298
 21
18.6425414207481
 31
0.0
  0
LINE
  5
95
330
2
100
AcDbEntity
  8
GAIKEI
  6
Continuous
 62
     7
100
AcDbLine
 10
-25.91413941657413
 20
16.75177512387762
 30
0.0
 11
-26.00330816123199
 21
18.49254209733692
 31
0.0
  0
LINE
  5
96
330
2
100
AcDbEntity
  8
GAIKEI
  6
Continuous
 62
     1
100
AcDbLine
 10
-24.79963369592656
 20
18.79254190727312
 30
0.0
 11
-24.79963369592656
 21
18.67254151805315
 31
0.0
  0
LINE
  5
97
330
2
100
AcDbEntity
  8
GAIKEI
  6
Continuous
 62
     1
100
AcDbLine
 10
-20.34572178535007
 20
18.74662078169842
 30
0.0
 11
-20.35282804413919
 21
18.74096019806842
 31
0.0
  0
LINE
  5
98
330
2
100
AcDbEntity
  8
GAIKEI
  6
Continuous
 62
     1
100
AcDbLine
 10
-21.12375820277305
 20
18.74288077688777
 30
0.0
 11
-21.1158670379881
 21
18.74613121198052
 31
0.0
  0
LINE
  5
99
330
2
100
AcDbEntity
  8
GAIKEI
  6
Continuous
 62
     1
100
AcDbLine
 10
-20.98124257330505
 20
18.74355624733869
 30
0.0
 11
-20.99077359505884
 21
18.73963034179502
 31
0.0
  0
LINE
  5
9A
330
2
100
AcDbEntity
  8
GAIKEI
  6
Continuous
 62
     1
100
AcDbLine
 10
-21.10635349712106
 20
18.74694748445807
 30
0.0
 11
-21.1204113414276
 21
18.74150217741629
 31
0.0
  0
LINE
  5
9B
330
2
100
AcDbEntity
  8
GAIKEI
  6
Continuous
 62
     1
100
AcDbLine
 10
-23.95332972266851
 20
18.67254151805315
 30
0.0
 11
-23.95332972266851
 21
18.79254190727312
 31
0.0
  0
LINE
  5
9C
330
2
100
AcDbEntity
  8
GAIKEI
  6
Continuous
 62
     7
100
AcDbLine
 10
-23.33332771169853
 20
8.611097644445919
 30
0.0
 11
-23.42687796670782
 21
8.77481059070709
 31
0.0
  0
LINE
  5
9D
330
2
100
AcDbEntity
  8
GAIKEI
  6
Continuous
 62
     1
100
AcDbLine
 10
-23.07332686838856
 20
18.6425414207481
 30
0.0
 11
-23.07332686838856
 21
18.67254151805315
 31
0.0
  0
LINE
  5
9E
330
2
100
AcDbEntity
  8
GAIKEI
  6
Continuous
 62
     1
100
AcDbLine
 10
-22.95332647916848
 20
18.67254151805315
 30
0.0
 11
-22.95332647916848
 21
18.6425414207481
 31
0.0
  0
LINE
  5
9F
330
2
100
AcDbEntity
  8
GAIKEI
  6
Continuous
 62
     1
100
AcDbLine
 10
-20.56331872720353
 20
18.75254006647759
 30
0.0
 11
-20.56091495548697
 21
18.7584593512567
 31
0.0
  0
LINE
  5
A0
330
2
100
AcDbEntity
  8
GAIKEI
  6
Continuous
 62
     1
100
AcDbLine
 10
-20.34331801363351
 20
18.75254006647759
 30
0.0
 11
-20.34572178535007
 21
18.74662078169842
 31
0.0
  0
LINE
  5
A1
330
2
100
AcDbEntity
  8
GAIKEI
  6
Continuous
 62
     1
100
AcDbLine
 10
-22.44276047526307
 20
18.67254151805315
 30
0.0
 11
-22.44276047526307
 21
18.6425414207481
 31
0.0
  0
LINE
  5
A2
330
2
100
AcDbEntity
  8
GAIKEI
  6
Continuous
 62
     1
100
AcDbLine
 10
-22.2559983423921
 20
18.67254151805315
 30
0.0
 11
-22.2559983423921
 21
18.6425414207481
 31
0.0
  0
LINE
  5
A3
330
2
100
AcDbEntity
  8
GAIKEI
  6
Continuous
 62
     1
100
AcDbLine
 10
-22.09476097854042
 20
18.67254151805315
 30
0.0
 11
-22.09476097854042
 21
18.6425414207481
 31
0.0
  0
LINE
  5
A4
330
2
100
AcDbEntity
  8
GAIKEI
  6
Continuous
 62
     1
100
AcDbLine
 10
-21.55332193826848
 20
18.67254151805315
 30
0.0
 11
-21.55332193826848
 21
18.79254190727312
 31
0.0
  0
LINE
  5
A5
330
2
100
AcDbEntity
  8
GAIKEI
  6
Continuous
 62
     1
100
AcDbLine
 10
-21.3533212895685
 20
18.6425414207481
 30
0.0
 11
-21.3533212895685
 21
18.80430404339347
 31
0.0
  0
LINE
  5
A6
330
2
100
AcDbEntity
  8
GAIKEI
  6
Continuous
 62
     1
100
AcDbLine
 10
-20.75331934346855
 20
18.68145751038207
 30
0.0
 11
-20.75331934346855
 21
18.70724658667865
 31
0.0
  0
LINE
  5
A7
330
2
100
AcDbEntity
  8
GAIKEI
  6
Continuous
 62
     1
100
AcDbLine
 10
-20.60331885694347
 20
18.6425414207481
 30
0.0
 11
-20.60331885694347
 21
18.70724658667865
 31
0.0
  0
LINE
  5
A8
330
2
100
AcDbEntity
  8
GAIKEI
  6
Continuous
 62
     1
100
AcDbLine
 10
-20.55331869476856
 20
18.74074053621592
 30
0.0
 11
-20.55331869476856
 21
18.781517935257
 31
0.0
  0
LINE
  5
A9
330
2
100
AcDbEntity
  8
GAIKEI
  6
Continuous
 62
     1
100
AcDbLine
 10
-20.35331804606847
 20
18.74074053621592
 30
0.0
 11
-20.35331804606847
 21
18.781517935257
 31
0.0
  0
LINE
  5
AA
330
2
100
AcDbEntity
  8
GAIKEI
  6
Continuous
 62
     1
100
AcDbLine
 10
-20.30331788389355
 20
18.6425414207481
 30
0.0
 11
-20.30331788389355
 21
18.70724658667865
 31
0.0
  0
LINE
  5
AB
330
2
100
AcDbEntity
  8
GAIKEI
  6
Continuous
 62
     1
100
AcDbLine
 10
-20.15331739736848
 20
18.6425414207481
 30
0.0
 11
-20.15331739736848
 21
18.80430404339347
 31
0.0
  0
LINE
  5
AC
330
2
100
AcDbEntity
  8
GAIKEI
  6
Continuous
 62
     1
100
AcDbLine
 10
-12.59524843281133
 20
18.6425414207481
 30
0.0
 11
-12.55329274676853
 21
18.67254151805315
 31
0.0
  0
LINE
  5
AD
330
2
100
AcDbEntity
  8
GAIKEI
  6
Continuous
 62
     1
100
AcDbLine
 10
-19.9533167486685
 20
18.79254190727312
 30
0.0
 11
-19.9533167486685
 21
18.67254151805315
 31
0.0
  0
LINE
  5
AE
330
2
100
AcDbEntity
  8
GAIKEI
  6
Continuous
 62
     7
100
AcDbLine
 10
-23.33332771169853
 20
8.611097644445919
 30
0.0
 11
-10.17328502723853
 21
8.611097644445919
 31
0.0
  0
LINE
  5
AF
330
2
100
AcDbEntity
  8
GAIKEI
  6
Continuous
 62
     1
100
AcDbLine
 10
-23.42687796670782
 20
8.77481059070709
 30
0.0
 11
-10.07973477222924
 21
8.77481059070709
 31
0.0
  0
LINE
  5
B0
330
2
100
AcDbEntity
  8
GAIKEI
  6
Continuous
 62
     7
100
AcDbLine
 10
-9.502563279349601
 20
15.80678684176809
 30
0.0
 11
-7.702748276608531
 21
16.59146629951766
 31
0.0
  0
LINE
  5
B1
330
2
100
AcDbEntity
  8
GAIKEI
  6
Continuous
 62
     1
100
AcDbLine
 10
-21.13131480247273
 20
18.74793263908344
 30
0.0
 11
-21.13332057599848
 21
18.75254006647759
 31
0.0
  0
LINE
  5
B2
330
2
100
AcDbEntity
  8
GAIKEI
  6
Continuous
 62
     1
100
AcDbLine
 10
-20.34572178535007
 20
18.7584593512567
 30
0.0
 11
-20.34331801363351
 21
18.75254006647759
 31
0.0
  0
LINE
  5
B3
330
2
100
AcDbEntity
  8
GAIKEI
  6
Continuous
 62
     7
100
AcDbLine
 10
-24.00404945959747
 20
15.80678684176809
 30
0.0
 11
-25.80386446233854
 21
16.59146629951766
 31
0.0
  0
LINE
  5
B4
330
2
100
AcDbEntity
  8
GAIKEI
  6
Continuous
 62
     1
100
AcDbLine
 10
-20.98622929161945
 20
18.74150217741629
 30
0.0
 11
-21.00028713591598
 21
18.74694748445807
 31
0.0
  0
LINE
  5
B5
330
2
100
AcDbEntity
  8
GAIKEI
  6
Continuous
 62
     1
100
AcDbLine
 10
-20.54231052844364
 20
18.73580571024985
 30
0.0
 11
-20.55380869669784
 21
18.74096019806842
 31
0.0
  0
LINE
  5
B6
330
2
100
AcDbEntity
  8
GAIKEI
  6
Continuous
 62
     1
100
AcDbLine
 10
-8.988498682496469
 20
17.34253720419815
 30
0.0
 11
-7.83212263192297
 21
17.34253720419815
 31
0.0
  0
LINE
  5
B7
330
2
100
AcDbEntity
  8
GAIKEI
  6
Continuous
 62
     1
100
AcDbLine
 10
-8.238362910038972
 20
17.49253769072311
 30
0.0
 11
-8.265918627935661
 21
17.49253769072311
 31
0.0
  0
LINE
  5
B8
330
2
100
AcDbEntity
  8
GAIKEI
  6
Continuous
 62
     1
100
AcDbLine
 10
-8.399852624609252
 20
17.49253769072311
 30
0.0
 11
-8.427414849356978
 21
17.49253769072311
 31
0.0
  0
LINE
  5
B9
330
2
100
AcDbEntity
  8
GAIKEI
  6
Continuous
 62
     1
100
AcDbLine
 10
-8.395127422763039
 20
17.5925380150731
 30
0.0
 11
-8.233638819466477
 21
17.5925380150731
 31
0.0
  0
LINE
  5
BA
330
2
100
AcDbEntity
  8
GAIKEI
  6
Continuous
 62
     1
100
AcDbLine
 10
-21.10319966245163
 20
18.73635178375105
 30
0.0
 11
-21.1158670379881
 21
18.73963034179502
 31
0.0
  0
LINE
  5
BB
330
2
100
AcDbEntity
  8
GAIKEI
  6
Continuous
 62
     1
100
AcDbLine
 10
-10.55328625976858
 20
18.67254151805315
 30
0.0
 11
-10.55328625976847
 21
18.6425414207481
 31
0.0
  0
LINE
  5
BC
330
2
100
AcDbEntity
  8
GAIKEI
  6
Continuous
 62
     1
100
AcDbLine
 10
-10.4332858705485
 20
18.67254151805315
 30
0.0
 11
-10.4332858705485
 21
18.6425414207481
 31
0.0
  0
LINE
  5
BD
330
2
100
AcDbEntity
  8
GAIKEI
  6
Continuous
 62
     1
100
AcDbLine
 10
-8.477572427362588
 20
17.69253833942309
 30
0.0
 11
-8.505143842830079
 21
17.69253833942309
 31
0.0
  0
LINE
  5
BE
330
2
100
AcDbEntity
  8
GAIKEI
  6
Continuous
 62
     1
100
AcDbLine
 10
-8.387057769559191
 20
17.79253866377314
 30
0.0
 11
-8.225571061188816
 21
17.79253866377314
 31
0.0
  0
LINE
  5
BF
330
2
100
AcDbEntity
  8
GAIKEI
  6
Continuous
 62
     1
100
AcDbLine
 10
-8.222226785661632
 20
17.89253898812313
 30
0.0
 11
-8.249758199609573
 21
17.89253898812313
 31
0.0
  0
LINE
  5
C0
330
2
100
AcDbEntity
  8
GAIKEI
  6
Continuous
 62
     1
100
AcDbLine
 10
-8.383712709599535
 20
17.89253898812313
 30
0.0
 11
-8.411250599848358
 21
17.89253898812313
 31
0.0
  0
LINE
  5
C1
330
2
100
AcDbEntity
  8
GAIKEI
  6
Continuous
 62
     1
100
AcDbLine
 10
-8.85476439178069
 20
18.04253947464815
 30
0.0
 11
-8.675921291174972
 21
18.04253947464815
 31
0.0
  0
LINE
  5
C2
330
2
100
AcDbEntity
  8
GAIKEI
  6
Continuous
 62
     1
100
AcDbLine
 10
-8.017201869315499
 20
18.04253947464815
 30
0.0
 11
-7.898382036434554
 21
18.04253947464815
 31
0.0
  0
LINE
  5
C3
330
2
100
AcDbEntity
  8
GAIKEI
  6
Continuous
 62
     1
100
AcDbLine
 10
-7.937605971987068
 20
18.34254044769813
 30
0.0
 11
-7.96526644682342
 21
18.34254044769813
 31
0.0
  0
LINE
  5
C4
330
2
100
AcDbEntity
  8
GAIKEI
  6
Continuous
 62
     1
100
AcDbLine
 10
-8.745080778102988
 20
18.34254044769813
 30
0.0
 11
-8.772774099716002
 21
18.34254044769813
 31
0.0
  0
LINE
  5
C5
330
2
100
AcDbEntity
  8
GAIKEI
  6
Continuous
 62
     7
100
AcDbLine
 10
-10.17328502723853
 20
8.611097644445919
 30
0.0
 11
-10.07973477222924
 21
8.77481059070709
 31
0.0
  0
LINE
  5
C6
330
2
100
AcDbEntity
  8
GAIKEI
  6
Continuous
 62
     1
100
AcDbLine
 10
-7.503304577704966
 20
18.49254209733692
 30
0.0
 11
-7.725880222686782
 21
18.49254151578503
 31
0.0
  0
LINE
  5
C7
330
2
100
AcDbEntity
  8
GAIKEI
  6
Continuous
 62
     1
100
AcDbLine
 10
-7.753900581510492
 20
18.49254093422314
 30
0.0
 11
-26.00330816123199
 21
18.49254209733692
 31
0.0
  0
LINE
  5
C8
330
2
100
AcDbEntity
  8
GAIKEI
  6
Continuous
 62
     1
100
AcDbLine
 10
-8.523388798997416
 20
18.51254099909312
 30
0.0
 11
-9.140113676728105
 21
18.51254099909312
 31
0.0
  0
LINE
  5
C9
330
2
100
AcDbEntity
  8
GAIKEI
  6
Continuous
 62
     7
100
AcDbLine
 10
-25.85382629296919
 20
18.6425414207481
 30
0.0
 11
-7.652779703326018
 21
18.6425414207481
 31
0.0
  0
LINE
  5
CA
330
2
100
AcDbEntity
  8
GAIKEI
  6
Continuous
 62
     1
100
AcDbLine
 10
-21.25332096521856
 20
18.6555755219141
 30
0.0
 11
-20.85331966781848
 21
18.6555755219141
 31
0.0
  0
LINE
  5
CB
330
2
100
AcDbEntity
  8
GAIKEI
  6
Continuous
 62
     1
100
AcDbLine
 10
-24.79961368744171
 20
18.67254151805315
 30
0.0
 11
-21.3533212895685
 21
18.67254151805315
 31
0.0
  0
LINE
  5
CC
330
2
100
AcDbEntity
  8
GAIKEI
  6
Continuous
 62
     1
100
AcDbLine
 10
-20.15331739736848
 20
18.67254151805315
 30
0.0
 11
-8.704167825962372
 21
18.67254151805315
 31
0.0
  0
LINE
  5
CD
330
2
100
AcDbEntity
  8
GAIKEI
  6
Continuous
 62
     1
100
AcDbLine
 10
-21.25332096521856
 20
18.67489410110369
 30
0.0
 11
-20.85331966781848
 21
18.67489410110369
 31
0.0
  0
LINE
  5
CE
330
2
100
AcDbEntity
  8
GAIKEI
  6
Continuous
 62
     1
100
AcDbLine
 10
-24.79960130766154
 20
18.79254190727312
 30
0.0
 11
-21.3533212895685
 21
18.79254190727312
 31
0.0
  0
LINE
  5
CF
330
2
100
AcDbEntity
  8
GAIKEI
  6
Continuous
 62
     1
100
AcDbLine
 10
-20.15331739736848
 20
18.79254190727312
 30
0.0
 11
-8.704180205742432
 21
18.79254190727312
 31
0.0
  0
LINE
  5
D0
330
2
100
AcDbEntity
  8
GAIKEI
  6
Continuous
 62
     1
100
AcDbLine
 10
-21.25332096521856
 20
18.83018603185144
 30
0.0
 11
-20.25331772171853
 21
18.83018603185144
 31
0.0
  0
LINE
  5
D1
330
2
100
AcDbEntity
  8
GAIKEI
  6
Continuous
 62
     1
100
AcDbLine
 10
-8.70414781748741
 20
18.79254190727312
 30
0.0
 11
-8.70414781748741
 21
18.67254151805315
 31
0.0
  0
LINE
  5
D2
330
2
100
AcDbEntity
  8
GAIKEI
  6
Continuous
 62
     1
100
AcDbLine
 10
-8.523279675463527
 20
18.51254099909312
 30
0.0
 11
-8.523279675463527
 21
18.49254093422314
 31
0.0
  0
LINE
  5
D3
330
2
100
AcDbEntity
  8
GAIKEI
  6
Continuous
 62
     1
100
AcDbLine
 10
-20.99077359505884
 20
18.73963034179502
 30
0.0
 11
-21.00344097058542
 21
18.73635178375105
 31
0.0
  0
LINE
  5
D4
330
2
100
AcDbEntity
  8
GAIKEI
  6
Continuous
 62
     7
100
AcDbLine
 10
-7.592473322362934
 20
16.75177512387762
 30
0.0
 11
-7.503304577704966
 21
18.49254209733692
 31
0.0
  0
LINE
  5
D5
330
2
100
AcDbEntity
  8
GAIKEI
  6
Continuous
 62
     7
100
AcDbLine
 10
-7.503304577704966
 20
18.49254209733692
 30
0.0
 11
-7.652714356144088
 21
18.6425414207481
 31
0.0
  0
LINE
  5
D6
330
2
100
AcDbEntity
  8
GAIKEI
  6
Continuous
 62
     1
100
AcDbLine
 10
-20.56091495548697
 20
18.7584593512567
 30
0.0
 11
-20.55380869669784
 21
18.76411993488676
 31
0.0
  0
LINE
  5
D7
330
2
100
AcDbEntity
  8
GAIKEI
  6
Continuous
 62
     1
100
AcDbLine
 10
-20.55380869669784
 20
18.76411993488676
 30
0.0
 11
-20.55331869476856
 21
18.76433959674921
 31
0.0
  0
LINE
  5
D8
330
2
100
AcDbEntity
  8
GAIKEI
  6
Continuous
 62
     1
100
AcDbLine
 10
-20.55621977848807
 20
18.74288077688777
 30
0.0
 11
-20.55380869669784
 21
18.74480135570718
 31
0.0
  0
LINE
  5
D9
330
2
100
AcDbEntity
  8
GAIKEI
  6
Continuous
 62
     1
100
AcDbLine
 10
-20.55380869669784
 20
18.74480135570718
 30
0.0
 11
-20.55331869476856
 21
18.74502101755962
 31
0.0
  0
LINE
  5
DA
330
2
100
AcDbEntity
  8
GAIKEI
  6
Continuous
 62
     1
100
AcDbLine
 10
-20.35282804413919
 20
18.74096019806842
 30
0.0
 11
-20.36432621239339
 21
18.73580571024985
 31
0.0
  0
LINE
  5
DB
330
2
100
AcDbEntity
  8
GAIKEI
  6
Continuous
 62
     1
100
AcDbLine
 10
-20.36432621239339
 20
18.73580571024985
 30
0.0
 11
-20.37971376498274
 21
18.73138259410359
 31
0.0
  0
LINE
  5
DC
330
2
100
AcDbEntity
  8
GAIKEI
  6
Continuous
 62
     1
100
AcDbLine
 10
-20.37971376498274
 20
18.73138259410359
 30
0.0
 11
-20.39831819202607
 21
18.72788416102639
 31
0.0
  0
LINE
  5
DD
330
2
100
AcDbEntity
  8
GAIKEI
  6
Continuous
 62
     1
100
AcDbLine
 10
-20.39831819202607
 20
18.72788416102639
 30
0.0
 11
-20.41932639078584
 21
18.72546330932442
 31
0.0
  0
LINE
  5
DE
330
2
100
AcDbEntity
  8
GAIKEI
  6
Continuous
 62
     1
100
AcDbLine
 10
-20.41932639078584
 20
18.72546330932442
 30
0.0
 11
-20.44182020216431
 21
18.72422584184068
 31
0.0
  0
LINE
  5
DF
330
2
100
AcDbEntity
  8
GAIKEI
  6
Continuous
 62
     1
100
AcDbLine
 10
-20.44182020216431
 20
18.72422584184068
 30
0.0
 11
-20.46481653867272
 21
18.72422584184068
 31
0.0
  0
LINE
  5
E0
330
2
100
AcDbEntity
  8
GAIKEI
  6
Continuous
 62
     1
100
AcDbLine
 10
-20.46481653867272
 20
18.72422584184068
 30
0.0
 11
-20.48731035005119
 21
18.72546330932442
 31
0.0
  0
LINE
  5
E1
330
2
100
AcDbEntity
  8
GAIKEI
  6
Continuous
 62
     1
100
AcDbLine
 10
-20.48731035005119
 20
18.72546330932442
 30
0.0
 11
-20.50831854881096
 21
18.72788416102639
 31
0.0
  0
LINE
  5
E2
330
2
100
AcDbEntity
  8
GAIKEI
  6
Continuous
 62
     1
100
AcDbLine
 10
-20.50831854881096
 20
18.72788416102639
 30
0.0
 11
-20.52692297585429
 21
18.73138259410359
 31
0.0
  0
LINE
  5
E3
330
2
100
AcDbEntity
  8
GAIKEI
  6
Continuous
 62
     1
100
AcDbLine
 10
-20.52692297585429
 20
18.73138259410359
 30
0.0
 11
-20.54231052844364
 21
18.73580571024985
 31
0.0
  0
LINE
  5
E4
330
2
100
AcDbEntity
  8
GAIKEI
  6
Continuous
 62
     1
100
AcDbLine
 10
-21.13332057599848
 20
18.75254006647759
 30
0.0
 11
-21.13131480247273
 21
18.75714749387174
 31
0.0
  0
LINE
  5
E5
330
2
100
AcDbEntity
  8
GAIKEI
  6
Continuous
 62
     1
100
AcDbLine
 10
-21.13131480247273
 20
18.75714749387174
 30
0.0
 11
-21.12539805974188
 21
18.76152388561649
 31
0.0
  0
LINE
  5
E6
330
2
100
AcDbEntity
  8
GAIKEI
  6
Continuous
 62
     1
100
AcDbLine
 10
-21.12539805974188
 20
18.76152388561649
 30
0.0
 11
-21.1158670379881
 21
18.76544979116016
 31
0.0
  0
LINE
  5
E7
330
2
100
AcDbEntity
  8
GAIKEI
  6
Continuous
 62
     1
100
AcDbLine
 10
-21.1158670379881
 20
18.76544979116016
 30
0.0
 11
-21.10319966245163
 21
18.76872834920408
 31
0.0
  0
LINE
  5
E8
330
2
100
AcDbEntity
  8
GAIKEI
  6
Continuous
 62
     1
100
AcDbLine
 10
-21.10319966245163
 20
18.76872834920408
 30
0.0
 11
-21.08803112823261
 21
18.77119515915518
 31
0.0
  0
LINE
  5
E9
330
2
100
AcDbEntity
  8
GAIKEI
  6
Continuous
 62
     1
100
AcDbLine
 10
-21.08803112823261
 20
18.77119515915518
 30
0.0
 11
-21.07112204897828
 21
18.77272652485214
 31
0.0
  0
LINE
  5
EA
330
2
100
AcDbEntity
  8
GAIKEI
  6
Continuous
 62
     1
100
AcDbLine
 10
-21.07112204897828
 20
18.77272652485214
 30
0.0
 11
-21.05332031651858
 21
18.77324565724598
 31
0.0
  0
LINE
  5
EB
330
2
100
AcDbEntity
  8
GAIKEI
  6
Continuous
 62
     1
100
AcDbLine
 10
-21.05332031651858
 20
18.77324565724598
 30
0.0
 11
-21.03551858406877
 21
18.77272652485214
 31
0.0
  0
LINE
  5
EC
330
2
100
AcDbEntity
  8
GAIKEI
  6
Continuous
 62
     1
100
AcDbLine
 10
-21.03551858406877
 20
18.77272652485214
 30
0.0
 11
-21.01860950480443
 21
18.77119515915518
 31
0.0
  0
LINE
  5
ED
330
2
100
AcDbEntity
  8
GAIKEI
  6
Continuous
 62
     1
100
AcDbLine
 10
-21.01860950480443
 20
18.77119515915518
 30
0.0
 11
-21.00344097058542
 21
18.76872834920408
 31
0.0
  0
LINE
  5
EE
330
2
100
AcDbEntity
  8
GAIKEI
  6
Continuous
 62
     1
100
AcDbLine
 10
-21.00344097058542
 20
18.76872834920408
 30
0.0
 11
-20.99077359505884
 21
18.76544979116016
 31
0.0
  0
LINE
  5
EF
330
2
100
AcDbEntity
  8
GAIKEI
  6
Continuous
 62
     1
100
AcDbLine
 10
-20.99077359505884
 20
18.76544979116016
 30
0.0
 11
-20.98124257330505
 21
18.76152388561649
 31
0.0
  0
LINE
  5
F0
330
2
100
AcDbEntity
  8
GAIKEI
  6
Continuous
 62
     1
100
AcDbLine
 10
-20.98124257330505
 20
18.76152388561649
 30
0.0
 11
-20.97532583057421
 21
18.75714749387174
 31
0.0
  0
LINE
  5
F1
330
2
100
AcDbEntity
  8
GAIKEI
  6
Continuous
 62
     1
100
AcDbLine
 10
-20.97532583057421
 20
18.75714749387174
 30
0.0
 11
-20.97332005703856
 21
18.75254006647759
 31
0.0
  0
LINE
  5
F2
330
2
100
AcDbEntity
  8
GAIKEI
  6
Continuous
 62
     1
100
AcDbLine
 10
-20.97332005703856
 20
18.75254006647759
 30
0.0
 11
-20.97532583057421
 21
18.74793263908344
 31
0.0
  0
LINE
  5
F3
330
2
100
AcDbEntity
  8
GAIKEI
  6
Continuous
 62
     1
100
AcDbLine
 10
-20.97532583057421
 20
18.74793263908344
 30
0.0
 11
-20.98124257330505
 21
18.74355624733869
 31
0.0
  0
LINE
  5
F4
330
2
100
AcDbEntity
  8
GAIKEI
  6
Continuous
 62
     1
100
AcDbLine
 10
-20.75331934346855
 20
18.68145751038207
 30
0.0
 11
-20.75515185096231
 21
18.67652536320469
 31
0.0
  0
LINE
  5
F5
330
2
100
AcDbEntity
  8
GAIKEI
  6
Continuous
 62
     1
100
AcDbLine
 10
-20.75515185096231
 20
18.67652536320469
 30
0.0
 11
-20.76090131393062
 21
18.67157173158767
 31
0.0
  0
LINE
  5
F6
330
2
100
AcDbEntity
  8
GAIKEI
  6
Continuous
 62
     1
100
AcDbLine
 10
-20.76090131393062
 20
18.67157173158767
 30
0.0
 11
-20.77020191234703
 21
18.66706683725607
 31
0.0
  0
LINE
  5
F7
330
2
100
AcDbEntity
  8
GAIKEI
  6
Continuous
 62
     1
100
AcDbLine
 10
-20.77020191234703
 20
18.66706683725607
 30
0.0
 11
-20.78258205557176
 21
18.66316309514434
 31
0.0
  0
LINE
  5
F8
330
2
100
AcDbEntity
  8
GAIKEI
  6
Continuous
 62
     1
100
AcDbLine
 10
-20.78258205557176
 20
18.66316309514434
 30
0.0
 11
-20.79765236046217
 21
18.65995649185373
 31
0.0
  0
LINE
  5
F9
330
2
100
AcDbEntity
  8
GAIKEI
  6
Continuous
 62
     1
100
AcDbLine
 10
-20.79765236046217
 20
18.65995649185373
 30
0.0
 11
-20.81505701259402
 21
18.65754504794222
 31
0.0
  0
LINE
  5
FA
330
2
100
AcDbEntity
  8
GAIKEI
  6
Continuous
 62
     1
100
AcDbLine
 10
-20.81505701259402
 20
18.65754504794222
 30
0.0
 11
-20.83422186020505
 21
18.65605189484921
 31
0.0
  0
LINE
  5
FB
330
2
100
AcDbEntity
  8
GAIKEI
  6
Continuous
 62
     1
100
AcDbLine
 10
-20.83422186020505
 20
18.65605189484921
 30
0.0
 11
-20.85331966781848
 21
18.6555755219141
 31
0.0
  0
LINE
  5
FC
330
2
100
AcDbEntity
  8
GAIKEI
  6
Continuous
 62
     1
100
AcDbLine
 10
-20.15331739736848
 20
18.72675099018102
 30
0.0
 11
-20.15515413978596
 21
18.72248134948245
 31
0.0
  0
LINE
  5
FD
330
2
100
AcDbEntity
  8
GAIKEI
  6
Continuous
 62
     1
100
AcDbLine
 10
-20.15515413978596
 20
18.72248134948245
 30
0.0
 11
-20.1607498431955
 21
18.71832592639441
 31
0.0
  0
LINE
  5
FE
330
2
100
AcDbEntity
  8
GAIKEI
  6
Continuous
 62
     1
100
AcDbLine
 10
-20.1607498431955
 20
18.71832592639441
 30
0.0
 11
-20.16975223735471
 21
18.71462474468961
 31
0.0
  0
LINE
  5
FF
330
2
100
AcDbEntity
  8
GAIKEI
  6
Continuous
 62
     1
100
AcDbLine
 10
-20.16975223735471
 20
18.71462474468961
 30
0.0
 11
-20.18145070207856
 21
18.71159619784657
 31
0.0
  0
LINE
  5
100
330
2
100
AcDbEntity
  8
GAIKEI
  6
Continuous
 62
     1
100
AcDbLine
 10
-20.18145070207856
 20
18.71159619784657
 30
0.0
 11
-20.19575535334559
 21
18.70926444698358
 31
0.0
  0
LINE
  5
101
330
2
100
AcDbEntity
  8
GAIKEI
  6
Continuous
 62
     1
100
AcDbLine
 10
-20.19575535334559
 20
18.70926444698358
 30
0.0
 11
-20.21181619831884
 21
18.70781516393282
 31
0.0
  0
LINE
  5
102
330
2
100
AcDbEntity
  8
GAIKEI
  6
Continuous
 62
     1
100
AcDbLine
 10
-20.21181619831884
 20
18.70781516393282
 30
0.0
 11
-20.24500676481205
 21
18.70685281222143
 31
0.0
  0
LINE
  5
103
330
2
100
AcDbEntity
  8
GAIKEI
  6
Continuous
 62
     1
100
AcDbLine
 10
-20.75331934346855
 20
18.70724658667865
 30
0.0
 11
-20.75143893078939
 21
18.71156604985879
 31
0.0
  0
LINE
  5
104
330
2
100
AcDbEntity
  8
GAIKEI
  6
Continuous
 62
     1
100
AcDbLine
 10
-20.75143893078939
 20
18.71156604985879
 30
0.0
 11
-20.74589198447791
 21
18.71566891712638
 31
0.0
  0
LINE
  5
105
330
2
100
AcDbEntity
  8
GAIKEI
  6
Continuous
 62
     1
100
AcDbLine
 10
-20.74589198447791
 20
18.71566891712638
 30
0.0
 11
-20.7369566515863
 21
18.71934945356418
 31
0.0
  0
LINE
  5
106
330
2
100
AcDbEntity
  8
GAIKEI
  6
Continuous
 62
     1
100
AcDbLine
 10
-20.7369566515863
 20
18.71934945356418
 30
0.0
 11
-20.72508098701769
 21
18.72242310173351
 31
0.0
  0
LINE
  5
107
330
2
100
AcDbEntity
  8
GAIKEI
  6
Continuous
 62
     1
100
AcDbLine
 10
-20.72508098701769
 20
18.72242310173351
 30
0.0
 11
-20.71086048619361
 21
18.72473573605453
 31
0.0
  0
LINE
  5
108
330
2
100
AcDbEntity
  8
GAIKEI
  6
Continuous
 62
     1
100
AcDbLine
 10
-20.71086048619361
 20
18.72473573605453
 30
0.0
 11
-20.69500822438704
 21
18.72617139140107
 31
0.0
  0
LINE
  5
109
330
2
100
AcDbEntity
  8
GAIKEI
  6
Continuous
 62
     1
100
AcDbLine
 10
-20.69500822438704
 20
18.72617139140107
 30
0.0
 11
-20.67831910020607
 21
18.72665807801962
 31
0.0
  0
LINE
  5
10A
330
2
100
AcDbEntity
  8
GAIKEI
  6
Continuous
 62
     1
100
AcDbLine
 10
-20.67831910020607
 20
18.72665807801962
 30
0.0
 11
-20.66162997603499
 21
18.72617139140107
 31
0.0
  0
LINE
  5
10B
330
2
100
AcDbEntity
  8
GAIKEI
  6
Continuous
 62
     1
100
AcDbLine
 10
-20.66162997603499
 20
18.72617139140107
 30
0.0
 11
-20.64577771422841
 21
18.72473573605453
 31
0.0
  0
LINE
  5
10C
330
2
100
AcDbEntity
  8
GAIKEI
  6
Continuous
 62
     1
100
AcDbLine
 10
-20.64577771422841
 20
18.72473573605453
 30
0.0
 11
-20.63155721339433
 21
18.72242310173351
 31
0.0
  0
LINE
  5
10D
330
2
100
AcDbEntity
  8
GAIKEI
  6
Continuous
 62
     1
100
AcDbLine
 10
-20.63155721339433
 20
18.72242310173351
 30
0.0
 11
-20.61968154883573
 21
18.71934945356418
 31
0.0
  0
LINE
  5
10E
330
2
100
AcDbEntity
  8
GAIKEI
  6
Continuous
 62
     1
100
AcDbLine
 10
-20.61968154883573
 20
18.71934945356418
 30
0.0
 11
-20.61074621594412
 21
18.71566891712638
 31
0.0
  0
LINE
  5
10F
330
2
100
AcDbEntity
  8
GAIKEI
  6
Continuous
 62
     1
100
AcDbLine
 10
-20.61074621594412
 20
18.71566891712638
 30
0.0
 11
-20.60519926963264
 21
18.71156604985879
 31
0.0
  0
LINE
  5
110
330
2
100
AcDbEntity
  8
GAIKEI
  6
Continuous
 62
     1
100
AcDbLine
 10
-20.60519926963264
 20
18.71156604985879
 30
0.0
 11
-20.60331885694347
 21
18.70724658667865
 31
0.0
  0
LINE
  5
111
330
2
100
AcDbEntity
  8
GAIKEI
  6
Continuous
 62
     1
100
AcDbLine
 10
-20.75331934346855
 20
18.68792800748906
 30
0.0
 11
-20.75143893078939
 21
18.6922474706792
 31
0.0
  0
LINE
  5
112
330
2
100
AcDbEntity
  8
GAIKEI
  6
Continuous
 62
     1
100
AcDbLine
 10
-20.75143893078939
 20
18.6922474706792
 30
0.0
 11
-20.74589198447791
 21
18.69635033793679
 31
0.0
  0
LINE
  5
113
330
2
100
AcDbEntity
  8
GAIKEI
  6
Continuous
 62
     1
100
AcDbLine
 10
-20.74589198447791
 20
18.69635033793679
 30
0.0
 11
-20.7369566515863
 21
18.70003087438459
 31
0.0
  0
LINE
  5
114
330
2
100
AcDbEntity
  8
GAIKEI
  6
Continuous
 62
     1
100
AcDbLine
 10
-20.7369566515863
 20
18.70003087438459
 30
0.0
 11
-20.72508098701769
 21
18.70310452254392
 31
0.0
  0
LINE
  5
115
330
2
100
AcDbEntity
  8
GAIKEI
  6
Continuous
 62
     1
100
AcDbLine
 10
-20.72508098701769
 20
18.70310452254392
 30
0.0
 11
-20.71086048619361
 21
18.70541715687489
 31
0.0
  0
LINE
  5
116
330
2
100
AcDbEntity
  8
GAIKEI
  6
Continuous
 62
     1
100
AcDbLine
 10
-20.71086048619361
 20
18.70541715687489
 30
0.0
 11
-20.69500822438704
 21
18.70685281222143
 31
0.0
  0
LINE
  5
117
330
2
100
AcDbEntity
  8
GAIKEI
  6
Continuous
 62
     1
100
AcDbLine
 10
-20.69500822438704
 20
18.70685281222143
 30
0.0
 11
-20.67831910020607
 21
18.70733949884004
 31
0.0
  0
LINE
  5
118
330
2
100
AcDbEntity
  8
GAIKEI
  6
Continuous
 62
     1
100
AcDbLine
 10
-20.67831910020607
 20
18.70733949884004
 30
0.0
 11
-20.66162997603499
 21
18.70685281222143
 31
0.0
  0
LINE
  5
119
330
2
100
AcDbEntity
  8
GAIKEI
  6
Continuous
 62
     1
100
AcDbLine
 10
-20.66162997603499
 20
18.70685281222143
 30
0.0
 11
-20.64577771422841
 21
18.70541715687489
 31
0.0
  0
LINE
  5
11A
330
2
100
AcDbEntity
  8
GAIKEI
  6
Continuous
 62
     1
100
AcDbLine
 10
-20.64577771422841
 20
18.70541715687489
 30
0.0
 11
-20.63155721339433
 21
18.70310452254392
 31
0.0
  0
LINE
  5
11B
330
2
100
AcDbEntity
  8
GAIKEI
  6
Continuous
 62
     1
100
AcDbLine
 10
-20.63155721339433
 20
18.70310452254392
 30
0.0
 11
-20.61968154883573
 21
18.70003087438459
 31
0.0
  0
LINE
  5
11C
330
2
100
AcDbEntity
  8
GAIKEI
  6
Continuous
 62
     1
100
AcDbLine
 10
-20.61968154883573
 20
18.70003087438459
 30
0.0
 11
-20.61074621594412
 21
18.69635033793679
 31
0.0
  0
LINE
  5
11D
330
2
100
AcDbEntity
  8
GAIKEI
  6
Continuous
 62
     1
100
AcDbLine
 10
-20.61074621594412
 20
18.69635033793679
 30
0.0
 11
-20.60519926963264
 21
18.6922474706792
 31
0.0
  0
LINE
  5
11E
330
2
100
AcDbEntity
  8
GAIKEI
  6
Continuous
 62
     1
100
AcDbLine
 10
-20.60519926963264
 20
18.6922474706792
 30
0.0
 11
-20.60331885694347
 21
18.68792800748906
 31
0.0
  0
LINE
  5
11F
330
2
100
AcDbEntity
  8
GAIKEI
  6
Continuous
 62
     1
100
AcDbLine
 10
-20.30331788389355
 20
18.70724658667865
 30
0.0
 11
-20.3014374712144
 21
18.71156604985879
 31
0.0
  0
LINE
  5
120
330
2
100
AcDbEntity
  8
GAIKEI
  6
Continuous
 62
     1
100
AcDbLine
 10
-20.3014374712144
 20
18.71156604985879
 30
0.0
 11
-20.29589052490292
 21
18.71566891712638
 31
0.0
  0
LINE
  5
121
330
2
100
AcDbEntity
  8
GAIKEI
  6
Continuous
 62
     1
100
AcDbLine
 10
-20.29589052490292
 20
18.71566891712638
 30
0.0
 11
-20.2869551920113
 21
18.71934945356418
 31
0.0
  0
LINE
  5
122
330
2
100
AcDbEntity
  8
GAIKEI
  6
Continuous
 62
     1
100
AcDbLine
 10
-20.2869551920113
 20
18.71934945356418
 30
0.0
 11
-20.2750795274427
 21
18.72242310173351
 31
0.0
  0
LINE
  5
123
330
2
100
AcDbEntity
  8
GAIKEI
  6
Continuous
 62
     1
100
AcDbLine
 10
-20.2750795274427
 20
18.72242310173351
 30
0.0
 11
-20.26085902661873
 21
18.72473573605453
 31
0.0
  0
LINE
  5
124
330
2
100
AcDbEntity
  8
GAIKEI
  6
Continuous
 62
     1
100
AcDbLine
 10
-20.26085902661873
 20
18.72473573605453
 30
0.0
 11
-20.24500676481205
 21
18.72617139140107
 31
0.0
  0
LINE
  5
125
330
2
100
AcDbEntity
  8
GAIKEI
  6
Continuous
 62
     1
100
AcDbLine
 10
-20.30331788389355
 20
18.68792800748906
 30
0.0
 11
-20.3014374712144
 21
18.6922474706792
 31
0.0
  0
LINE
  5
126
330
2
100
AcDbEntity
  8
GAIKEI
  6
Continuous
 62
     1
100
AcDbLine
 10
-20.3014374712144
 20
18.6922474706792
 30
0.0
 11
-20.29589052490292
 21
18.69635033793679
 31
0.0
  0
LINE
  5
127
330
2
100
AcDbEntity
  8
GAIKEI
  6
Continuous
 62
     1
100
AcDbLine
 10
-20.29589052490292
 20
18.69635033793679
 30
0.0
 11
-20.2869551920113
 21
18.70003087438459
 31
0.0
  0
LINE
  5
128
330
2
100
AcDbEntity
  8
GAIKEI
  6
Continuous
 62
     1
100
AcDbLine
 10
-20.2869551920113
 20
18.70003087438459
 30
0.0
 11
-20.2750795274427
 21
18.70310452254392
 31
0.0
  0
LINE
  5
129
330
2
100
AcDbEntity
  8
GAIKEI
  6
Continuous
 62
     1
100
AcDbLine
 10
-20.2750795274427
 20
18.70310452254392
 30
0.0
 11
-20.26085902661873
 21
18.70541715687489
 31
0.0
  0
LINE
  5
12A
330
2
100
AcDbEntity
  8
GAIKEI
  6
Continuous
 62
     1
100
AcDbLine
 10
-20.26085902661873
 20
18.70541715687489
 30
0.0
 11
-20.24500676481205
 21
18.70685281222143
 31
0.0
  0
LINE
  5
12B
330
2
100
AcDbEntity
  8
GAIKEI
  6
Continuous
 62
     1
100
AcDbLine
 10
-21.3533212895685
 20
18.70077608956171
 30
0.0
 11
-21.35148878208486
 21
18.69584394238427
 31
0.0
  0
LINE
  5
12C
330
2
100
AcDbEntity
  8
GAIKEI
  6
Continuous
 62
     1
100
AcDbLine
 10
-21.35148878208486
 20
18.69584394238427
 30
0.0
 11
-21.34573931911643
 21
18.69089031077726
 31
0.0
  0
LINE
  5
12D
330
2
100
AcDbEntity
  8
GAIKEI
  6
Continuous
 62
     1
100
AcDbLine
 10
-21.34573931911643
 20
18.69089031077726
 30
0.0
 11
-21.33643872069013
 21
18.68638541643571
 31
0.0
  0
LINE
  5
12E
330
2
100
AcDbEntity
  8
GAIKEI
  6
Continuous
 62
     1
100
AcDbLine
 10
-21.33643872069013
 20
18.68638541643571
 30
0.0
 11
-21.32405857746528
 21
18.68248167433393
 31
0.0
  0
LINE
  5
12F
330
2
100
AcDbEntity
  8
GAIKEI
  6
Continuous
 62
     1
100
AcDbLine
 10
-21.32405857746528
 20
18.68248167433393
 30
0.0
 11
-21.30898827258477
 21
18.67927507104332
 31
0.0
  0
LINE
  5
130
330
2
100
AcDbEntity
  8
GAIKEI
  6
Continuous
 62
     1
100
AcDbLine
 10
-21.30898827258477
 20
18.67927507104332
 30
0.0
 11
-21.29158362045302
 21
18.67686362712186
 31
0.0
  0
LINE
  5
131
330
2
100
AcDbEntity
  8
GAIKEI
  6
Continuous
 62
     1
100
AcDbLine
 10
-21.29158362045302
 20
18.67686362712186
 30
0.0
 11
-21.272418772842
 21
18.6753704740388
 31
0.0
  0
LINE
  5
132
330
2
100
AcDbEntity
  8
GAIKEI
  6
Continuous
 62
     1
100
AcDbLine
 10
-21.272418772842
 20
18.6753704740388
 30
0.0
 11
-21.25332096521856
 21
18.67489410110369
 31
0.0
  0
LINE
  5
133
330
2
100
AcDbEntity
  8
GAIKEI
  6
Continuous
 62
     1
100
AcDbLine
 10
-20.15331739736848
 20
18.80430404339347
 30
0.0
 11
-20.15514990486224
 21
18.80923619057085
 31
0.0
  0
LINE
  5
134
330
2
100
AcDbEntity
  8
GAIKEI
  6
Continuous
 62
     1
100
AcDbLine
 10
-20.15514990486224
 20
18.80923619057085
 30
0.0
 11
-20.16089936783055
 21
18.81418982217792
 31
0.0
  0
LINE
  5
135
330
2
100
AcDbEntity
  8
GAIKEI
  6
Continuous
 62
     1
100
AcDbLine
 10
-20.16089936783055
 20
18.81418982217792
 30
0.0
 11
-20.17019996624697
 21
18.81869471651947
 31
0.0
  0
LINE
  5
136
330
2
100
AcDbEntity
  8
GAIKEI
  6
Continuous
 62
     1
100
AcDbLine
 10
-20.17019996624697
 20
18.81869471651947
 30
0.0
 11
-20.18258010947182
 21
18.82259845863126
 31
0.0
  0
LINE
  5
137
330
2
100
AcDbEntity
  8
GAIKEI
  6
Continuous
 62
     1
100
AcDbLine
 10
-20.18258010947182
 20
18.82259845863126
 30
0.0
 11
-20.19765041436222
 21
18.82580506192187
 31
0.0
  0
LINE
  5
138
330
2
100
AcDbEntity
  8
GAIKEI
  6
Continuous
 62
     1
100
AcDbLine
 10
-20.19765041436222
 20
18.82580506192187
 30
0.0
 11
-20.21505506649408
 21
18.82821650583332
 31
0.0
  0
LINE
  5
139
330
2
100
AcDbEntity
  8
GAIKEI
  6
Continuous
 62
     1
100
AcDbLine
 10
-20.21505506649408
 20
18.82821650583332
 30
0.0
 11
-20.23421991410498
 21
18.82970965891633
 31
0.0
  0
LINE
  5
13A
330
2
100
AcDbEntity
  8
GAIKEI
  6
Continuous
 62
     1
100
AcDbLine
 10
-20.23421991410498
 20
18.82970965891633
 30
0.0
 11
-20.25331772171853
 21
18.83018603185144
 31
0.0
  0
LINE
  5
13B
330
2
100
AcDbEntity
  8
GAIKEI
  6
Continuous
 62
     1
100
AcDbLine
 10
-20.55331869476856
 20
18.781517935257
 30
0.0
 11
-20.54341554943778
 21
18.77028816133332
 31
0.0
  0
LINE
  5
13C
330
2
100
AcDbEntity
  8
GAIKEI
  6
Continuous
 62
     1
100
AcDbLine
 10
-20.54341554943778
 20
18.77028816133332
 30
0.0
 11
-20.51566755283738
 21
18.76128258185383
 31
0.0
  0
LINE
  5
13D
330
2
100
AcDbEntity
  8
GAIKEI
  6
Continuous
 62
     1
100
AcDbLine
 10
-20.51566755283738
 20
18.76128258185383
 30
0.0
 11
-20.47557053599314
 21
18.75628486228379
 31
0.0
  0
LINE
  5
13E
330
2
100
AcDbEntity
  8
GAIKEI
  6
Continuous
 62
     1
100
AcDbLine
 10
-20.47557053599314
 20
18.75628486228379
 30
0.0
 11
-20.43106620485389
 21
18.75628486228379
 31
0.0
  0
LINE
  5
13F
330
2
100
AcDbEntity
  8
GAIKEI
  6
Continuous
 62
     1
100
AcDbLine
 10
-20.43106620485389
 20
18.75628486228379
 30
0.0
 11
-20.39096918800954
 21
18.76128258185383
 31
0.0
  0
LINE
  5
140
330
2
100
AcDbEntity
  8
GAIKEI
  6
Continuous
 62
     1
100
AcDbLine
 10
-20.39096918800954
 20
18.76128258185383
 30
0.0
 11
-20.36322119139925
 21
18.77028816133332
 31
0.0
  0
LINE
  5
141
330
2
100
AcDbEntity
  8
GAIKEI
  6
Continuous
 62
     1
100
AcDbLine
 10
-20.36322119139925
 20
18.77028816133332
 30
0.0
 11
-20.35331804606847
 21
18.781517935257
 31
0.0
  0
LINE
  5
142
330
2
100
AcDbEntity
  8
GAIKEI
  6
Continuous
 62
     1
100
AcDbLine
 10
-20.50331853259354
 20
18.781517935257
 30
0.0
 11
-20.49836695993315
 21
18.77590304829516
 31
0.0
  0
LINE
  5
143
330
2
100
AcDbEntity
  8
GAIKEI
  6
Continuous
 62
     1
100
AcDbLine
 10
-20.49836695993315
 20
18.77590304829516
 30
0.0
 11
-20.48449296163301
 21
18.77140025855044
 31
0.0
  0
LINE
  5
144
330
2
100
AcDbEntity
  8
GAIKEI
  6
Continuous
 62
     1
100
AcDbLine
 10
-20.48449296163301
 20
18.77140025855044
 30
0.0
 11
-20.46444445320583
 21
18.76890139877537
 31
0.0
  0
LINE
  5
145
330
2
100
AcDbEntity
  8
GAIKEI
  6
Continuous
 62
     1
100
AcDbLine
 10
-20.46444445320583
 20
18.76890139877537
 30
0.0
 11
-20.4421922876412
 21
18.76890139877537
 31
0.0
  0
LINE
  5
146
330
2
100
AcDbEntity
  8
GAIKEI
  6
Continuous
 62
     1
100
AcDbLine
 10
-20.4421922876412
 20
18.76890139877537
 30
0.0
 11
-20.42214377921403
 21
18.77140025855044
 31
0.0
  0
LINE
  5
147
330
2
100
AcDbEntity
  8
GAIKEI
  6
Continuous
 62
     1
100
AcDbLine
 10
-20.42214377921403
 20
18.77140025855044
 30
0.0
 11
-20.40826978091388
 21
18.77590304829516
 31
0.0
  0
LINE
  5
148
330
2
100
AcDbEntity
  8
GAIKEI
  6
Continuous
 62
     1
100
AcDbLine
 10
-20.40826978091388
 20
18.77590304829516
 30
0.0
 11
-20.40331820824349
 21
18.781517935257
 31
0.0
  0
LINE
  5
149
330
2
100
AcDbEntity
  8
GAIKEI
  6
Continuous
 62
     1
100
AcDbLine
 10
-20.40331820824349
 20
18.781517935257
 30
0.0
 11
-20.40826978091388
 21
18.78713282221884
 31
0.0
  0
LINE
  5
14A
330
2
100
AcDbEntity
  8
GAIKEI
  6
Continuous
 62
     1
100
AcDbLine
 10
-20.40826978091388
 20
18.78713282221884
 30
0.0
 11
-20.42214377921403
 21
18.79163561196361
 31
0.0
  0
LINE
  5
14B
330
2
100
AcDbEntity
  8
GAIKEI
  6
Continuous
 62
     1
100
AcDbLine
 10
-20.42214377921403
 20
18.79163561196361
 30
0.0
 11
-20.4421922876412
 21
18.79413447173863
 31
0.0
  0
LINE
  5
14C
330
2
100
AcDbEntity
  8
GAIKEI
  6
Continuous
 62
     1
100
AcDbLine
 10
-20.4421922876412
 20
18.79413447173863
 30
0.0
 11
-20.46444445320583
 21
18.79413447173863
 31
0.0
  0
LINE
  5
14D
330
2
100
AcDbEntity
  8
GAIKEI
  6
Continuous
 62
     1
100
AcDbLine
 10
-20.46444445320583
 20
18.79413447173863
 30
0.0
 11
-20.48449296163301
 21
18.79163561196361
 31
0.0
  0
LINE
  5
14E
330
2
100
AcDbEntity
  8
GAIKEI
  6
Continuous
 62
     1
100
AcDbLine
 10
-20.48449296163301
 20
18.79163561196361
 30
0.0
 11
-20.49836695993315
 21
18.78713282221884
 31
0.0
  0
LINE
  5
14F
330
2
100
AcDbEntity
  8
GAIKEI
  6
Continuous
 62
     1
100
AcDbLine
 10
-20.49836695993315
 20
18.78713282221884
 30
0.0
 11
-20.50331853259354
 21
18.781517935257
 31
0.0
  0
LINE
  5
150
330
2
100
AcDbEntity
  8
GAIKEI
  6
Continuous
 62
     1
100
AcDbLine
 10
-20.35331804606847
 20
18.781517935257
 30
0.0
 11
-20.36322119139925
 21
18.79274770918067
 31
0.0
  0
LINE
  5
151
330
2
100
AcDbEntity
  8
GAIKEI
  6
Continuous
 62
     1
100
AcDbLine
 10
-20.36322119139925
 20
18.79274770918067
 30
0.0
 11
-20.39096918800954
 21
18.80175328866016
 31
0.0
  0
LINE
  5
152
330
2
100
AcDbEntity
  8
GAIKEI
  6
Continuous
 62
     1
100
AcDbLine
 10
-20.39096918800954
 20
18.80175328866016
 30
0.0
 11
-20.43106620485389
 21
18.80675100823021
 31
0.0
  0
LINE
  5
153
330
2
100
AcDbEntity
  8
GAIKEI
  6
Continuous
 62
     1
100
AcDbLine
 10
-20.43106620485389
 20
18.80675100823021
 30
0.0
 11
-20.47557053599314
 21
18.80675100823021
 31
0.0
  0
LINE
  5
154
330
2
100
AcDbEntity
  8
GAIKEI
  6
Continuous
 62
     1
100
AcDbLine
 10
-20.47557053599314
 20
18.80675100823021
 30
0.0
 11
-20.51566755283738
 21
18.80175328866016
 31
0.0
  0
LINE
  5
155
330
2
100
AcDbEntity
  8
GAIKEI
  6
Continuous
 62
     1
100
AcDbLine
 10
-20.51566755283738
 20
18.80175328866016
 30
0.0
 11
-20.54341554943778
 21
18.79274770918067
 31
0.0
  0
LINE
  5
156
330
2
100
AcDbEntity
  8
GAIKEI
  6
Continuous
 62
     1
100
AcDbLine
 10
-20.54341554943778
 20
18.79274770918067
 30
0.0
 11
-20.55331869476856
 21
18.781517935257
 31
0.0
  0
LINE
  5
157
330
2
100
AcDbEntity
  8
GAIKEI
  6
Continuous
 62
     1
100
AcDbLine
 10
-20.55380869669784
 20
18.74096019806842
 30
0.0
 11
-20.56091495548697
 21
18.74662078169842
 31
0.0
  0
LINE
  5
158
330
2
100
AcDbEntity
  8
GAIKEI
  6
Continuous
 62
     1
100
AcDbLine
 10
-20.56091495548697
 20
18.74662078169842
 30
0.0
 11
-20.56331872720353
 21
18.75254006647759
 31
0.0
  0
LINE
  5
159
330
2
100
AcDbEntity
  8
GAIKEI
  6
Continuous
 62
     1
100
AcDbLine
 10
-21.1158670379881
 20
18.73963034179502
 30
0.0
 11
-21.12539805974188
 21
18.74355624733869
 31
0.0
  0
LINE
  5
15A
330
2
100
AcDbEntity
  8
GAIKEI
  6
Continuous
 62
     1
100
AcDbLine
 10
-21.12539805974188
 20
18.74355624733869
 30
0.0
 11
-21.13131480247273
 21
18.74793263908344
 31
0.0
  0
LINE
  5
15B
330
2
100
AcDbEntity
  8
GAIKEI
  6
Continuous
 62
     1
100
AcDbLine
 10
-20.35331804606847
 20
18.74502101755962
 30
0.0
 11
-20.35282804413919
 21
18.74480135570718
 31
0.0
  0
LINE
  5
15C
330
2
100
AcDbEntity
  8
GAIKEI
  6
Continuous
 62
     1
100
AcDbLine
 10
-20.35282804413919
 20
18.74480135570718
 30
0.0
 11
-20.35041696234884
 21
18.74288077688777
 31
0.0
  0
LINE
  5
15D
330
2
100
AcDbEntity
  8
GAIKEI
  6
Continuous
 62
     1
100
AcDbLine
 10
-20.35331804606847
 20
18.76433959674921
 30
0.0
 11
-20.35282804413919
 21
18.76411993488676
 31
0.0
  0
LINE
  5
15E
330
2
100
AcDbEntity
  8
GAIKEI
  6
Continuous
 62
     1
100
AcDbLine
 10
-20.35282804413919
 20
18.76411993488676
 30
0.0
 11
-20.34572178535007
 21
18.7584593512567
 31
0.0
  0
LINE
  5
15F
330
2
100
AcDbEntity
  8
GAIKEI
  6
Continuous
 62
     1
100
AcDbLine
 10
-21.00344097058542
 20
18.74940977001449
 30
0.0
 11
-20.99077359505884
 21
18.74613121198052
 31
0.0
  0
LINE
  5
160
330
2
100
AcDbEntity
  8
GAIKEI
  6
Continuous
 62
     1
100
AcDbLine
 10
-20.99077359505884
 20
18.74613121198052
 30
0.0
 11
-20.98288243027389
 21
18.74288077688777
 31
0.0
  0
LINE
  5
161
330
2
100
AcDbEntity
  8
GAIKEI
  6
Continuous
 62
     1
100
AcDbLine
 10
-21.00028713591598
 20
18.74694748445807
 30
0.0
 11
-21.02461896600596
 21
18.75115536684632
 31
0.0
  0
LINE
  5
162
330
2
100
AcDbEntity
  8
GAIKEI
  6
Continuous
 62
     1
100
AcDbLine
 10
-21.02461896600596
 20
18.75115536684632
 30
0.0
 11
-21.05332031651858
 21
18.75263297863898
 31
0.0
  0
LINE
  5
163
330
2
100
AcDbEntity
  8
GAIKEI
  6
Continuous
 62
     1
100
AcDbLine
 10
-21.05332031651858
 20
18.75263297863898
 30
0.0
 11
-21.08202166704097
 21
18.75115536684632
 31
0.0
  0
LINE
  5
164
330
2
100
AcDbEntity
  8
GAIKEI
  6
Continuous
 62
     1
100
AcDbLine
 10
-21.08202166704097
 20
18.75115536684632
 30
0.0
 11
-21.10635349712106
 21
18.74694748445807
 31
0.0
  0
LINE
  5
165
330
2
100
AcDbEntity
  8
GAIKEI
  6
Continuous
 62
     1
100
AcDbLine
 10
-21.00344097058542
 20
18.73635178375105
 30
0.0
 11
-21.01860950480443
 21
18.73388497381
 31
0.0
  0
LINE
  5
166
330
2
100
AcDbEntity
  8
GAIKEI
  6
Continuous
 62
     1
100
AcDbLine
 10
-21.01860950480443
 20
18.73388497381
 30
0.0
 11
-21.03551858406877
 21
18.73235360810304
 31
0.0
  0
LINE
  5
167
330
2
100
AcDbEntity
  8
GAIKEI
  6
Continuous
 62
     1
100
AcDbLine
 10
-21.03551858406877
 20
18.73235360810304
 30
0.0
 11
-21.05332031651858
 21
18.7318344757092
 31
0.0
  0
LINE
  5
168
330
2
100
AcDbEntity
  8
GAIKEI
  6
Continuous
 62
     1
100
AcDbLine
 10
-21.05332031651858
 20
18.7318344757092
 30
0.0
 11
-21.07112204897828
 21
18.73235360810304
 31
0.0
  0
LINE
  5
169
330
2
100
AcDbEntity
  8
GAIKEI
  6
Continuous
 62
     1
100
AcDbLine
 10
-21.07112204897828
 20
18.73235360810304
 30
0.0
 11
-21.08803112823261
 21
18.73388497381
 31
0.0
  0
LINE
  5
16A
330
2
100
AcDbEntity
  8
GAIKEI
  6
Continuous
 62
     1
100
AcDbLine
 10
-21.08803112823261
 20
18.73388497381
 30
0.0
 11
-21.10319966245163
 21
18.73635178375105
 31
0.0
  0
LINE
  5
16B
330
2
100
AcDbEntity
  8
GAIKEI
  6
Continuous
 62
     1
100
AcDbLine
 10
-20.24500676481205
 20
18.72617139140107
 30
0.0
 11
-20.21181619831884
 21
18.72713374311252
 31
0.0
  0
LINE
  5
16C
330
2
100
AcDbEntity
  8
GAIKEI
  6
Continuous
 62
     1
100
AcDbLine
 10
-20.21181619831884
 20
18.72713374311252
 30
0.0
 11
-20.19575535334559
 21
18.72858302617317
 31
0.0
  0
LINE
  5
16D
330
2
100
AcDbEntity
  8
GAIKEI
  6
Continuous
 62
     1
100
AcDbLine
 10
-20.19575535334559
 20
18.72858302617317
 30
0.0
 11
-20.18145070207856
 21
18.73091477702621
 31
0.0
  0
LINE
  5
16E
330
2
100
AcDbEntity
  8
GAIKEI
  6
Continuous
 62
     1
100
AcDbLine
 10
-20.18145070207856
 20
18.73091477702621
 30
0.0
 11
-20.16975223735471
 21
18.7339433238792
 31
0.0
  0
LINE
  5
16F
330
2
100
AcDbEntity
  8
GAIKEI
  6
Continuous
 62
     1
100
AcDbLine
 10
-20.16975223735471
 20
18.7339433238792
 30
0.0
 11
-20.1607498431955
 21
18.737644505584
 31
0.0
  0
LINE
  5
170
330
2
100
AcDbEntity
  8
GAIKEI
  6
Continuous
 62
     1
100
AcDbLine
 10
-20.1607498431955
 20
18.737644505584
 30
0.0
 11
-20.15515413978596
 21
18.74179992866209
 31
0.0
  0
LINE
  5
171
330
2
100
AcDbEntity
  8
GAIKEI
  6
Continuous
 62
     1
100
AcDbLine
 10
-20.15515413978596
 20
18.74179992866209
 30
0.0
 11
-20.15331739736848
 21
18.7460695693606
 31
0.0
  0
LINE
  5
172
330
2
100
AcDbEntity
  8
GAIKEI
  6
Continuous
 62
     1
100
AcDbLine
 10
-20.85331966781848
 20
18.67489410110369
 30
0.0
 11
-20.83422186020505
 21
18.6753704740388
 31
0.0
  0
LINE
  5
173
330
2
100
AcDbEntity
  8
GAIKEI
  6
Continuous
 62
     1
100
AcDbLine
 10
-20.83422186020505
 20
18.6753704740388
 30
0.0
 11
-20.81505701259402
 21
18.67686362712186
 31
0.0
  0
LINE
  5
174
330
2
100
AcDbEntity
  8
GAIKEI
  6
Continuous
 62
     1
100
AcDbLine
 10
-20.81505701259402
 20
18.67686362712186
 30
0.0
 11
-20.79765236046217
 21
18.67927507104332
 31
0.0
  0
LINE
  5
175
330
2
100
AcDbEntity
  8
GAIKEI
  6
Continuous
 62
     1
100
AcDbLine
 10
-20.79765236046217
 20
18.67927507104332
 30
0.0
 11
-20.78258205557176
 21
18.68248167433393
 31
0.0
  0
LINE
  5
176
330
2
100
AcDbEntity
  8
GAIKEI
  6
Continuous
 62
     1
100
AcDbLine
 10
-20.78258205557176
 20
18.68248167433393
 30
0.0
 11
-20.77020191234703
 21
18.68638541643571
 31
0.0
  0
LINE
  5
177
330
2
100
AcDbEntity
  8
GAIKEI
  6
Continuous
 62
     1
100
AcDbLine
 10
-20.77020191234703
 20
18.68638541643571
 30
0.0
 11
-20.76090131393062
 21
18.69089031077726
 31
0.0
  0
LINE
  5
178
330
2
100
AcDbEntity
  8
GAIKEI
  6
Continuous
 62
     1
100
AcDbLine
 10
-20.76090131393062
 20
18.69089031077726
 30
0.0
 11
-20.75515185096231
 21
18.69584394238427
 31
0.0
  0
LINE
  5
179
330
2
100
AcDbEntity
  8
GAIKEI
  6
Continuous
 62
     1
100
AcDbLine
 10
-20.75515185096231
 20
18.69584394238427
 30
0.0
 11
-20.75331934346855
 21
18.70077608956171
 31
0.0
  0
LINE
  5
17A
330
2
100
AcDbEntity
  8
GAIKEI
  6
Continuous
 62
     1
100
AcDbLine
 10
-21.25332096521856
 20
18.83018603185144
 30
0.0
 11
-21.272418772842
 21
18.82970965891633
 31
0.0
  0
LINE
  5
17B
330
2
100
AcDbEntity
  8
GAIKEI
  6
Continuous
 62
     1
100
AcDbLine
 10
-21.272418772842
 20
18.82970965891633
 30
0.0
 11
-21.29158362045302
 21
18.82821650583332
 31
0.0
  0
LINE
  5
17C
330
2
100
AcDbEntity
  8
GAIKEI
  6
Continuous
 62
     1
100
AcDbLine
 10
-21.29158362045302
 20
18.82821650583332
 30
0.0
 11
-21.30898827258477
 21
18.82580506192187
 31
0.0
  0
LINE
  5
17D
330
2
100
AcDbEntity
  8
GAIKEI
  6
Continuous
 62
     1
100
AcDbLine
 10
-21.30898827258477
 20
18.82580506192187
 30
0.0
 11
-21.32405857746528
 21
18.82259845863126
 31
0.0
  0
LINE
  5
17E
330
2
100
AcDbEntity
  8
GAIKEI
  6
Continuous
 62
     1
100
AcDbLine
 10
-21.32405857746528
 20
18.82259845863126
 30
0.0
 11
-21.33643872069013
 21
18.81869471651947
 31
0.0
  0
LINE
  5
17F
330
2
100
AcDbEntity
  8
GAIKEI
  6
Continuous
 62
     1
100
AcDbLine
 10
-21.33643872069013
 20
18.81869471651947
 30
0.0
 11
-21.34573931911643
 21
18.81418982217792
 31
0.0
  0
LINE
  5
180
330
2
100
AcDbEntity
  8
GAIKEI
  6
Continuous
 62
     1
100
AcDbLine
 10
-21.34573931911643
 20
18.81418982217792
 30
0.0
 11
-21.35148878208486
 21
18.80923619057085
 31
0.0
  0
LINE
  5
181
330
2
100
AcDbEntity
  8
GAIKEI
  6
Continuous
 62
     1
100
AcDbLine
 10
-21.35148878208486
 20
18.80923619057085
 30
0.0
 11
-21.3533212895685
 21
18.80430404339347
 31
0.0
  0
LINE
  5
182
330
2
100
AcDbEntity
  8
GAIKEI
  6
Continuous
 62
     1
100
AcDbLine
 10
-21.25332096521856
 20
18.6555755219141
 30
0.0
 11
-21.272418772842
 21
18.65605189484921
 31
0.0
  0
LINE
  5
183
330
2
100
AcDbEntity
  8
GAIKEI
  6
Continuous
 62
     1
100
AcDbLine
 10
-21.272418772842
 20
18.65605189484921
 30
0.0
 11
-21.29158362045302
 21
18.65754504794222
 31
0.0
  0
LINE
  5
184
330
2
100
AcDbEntity
  8
GAIKEI
  6
Continuous
 62
     1
100
AcDbLine
 10
-21.29158362045302
 20
18.65754504794222
 30
0.0
 11
-21.30898827258477
 21
18.65995649185373
 31
0.0
  0
LINE
  5
185
330
2
100
AcDbEntity
  8
GAIKEI
  6
Continuous
 62
     1
100
AcDbLine
 10
-21.30898827258477
 20
18.65995649185373
 30
0.0
 11
-21.32405857746528
 21
18.66316309514434
 31
0.0
  0
LINE
  5
186
330
2
100
AcDbEntity
  8
GAIKEI
  6
Continuous
 62
     1
100
AcDbLine
 10
-21.32405857746528
 20
18.66316309514434
 30
0.0
 11
-21.33643872069013
 21
18.66706683725607
 31
0.0
  0
LINE
  5
187
330
2
100
AcDbEntity
  8
GAIKEI
  6
Continuous
 62
     1
100
AcDbLine
 10
-21.33643872069013
 20
18.66706683725607
 30
0.0
 11
-21.34573931911643
 21
18.67157173158767
 31
0.0
  0
LINE
  5
188
330
2
100
AcDbEntity
  8
GAIKEI
  6
Continuous
 62
     1
100
AcDbLine
 10
-21.34573931911643
 20
18.67157173158767
 30
0.0
 11
-21.35148878208486
 21
18.67652536320469
 31
0.0
  0
LINE
  5
189
330
2
100
AcDbEntity
  8
GAIKEI
  6
Continuous
 62
     1
100
AcDbLine
 10
-21.35148878208486
 20
18.67652536320469
 30
0.0
 11
-21.3533212895685
 21
18.68145751038207
 31
0.0
  0
LINE
  5
18A
330
2
100
AcDbEntity
  8
GAIKEI
  6
S10
 62
     1
100
AcDbLine
 10
-15.20330134204357
 20
8.611097644445919
 30
0.0
 11
-15.20330134204357
 21
3.190349019984637
 31
0.0
  0
LINE
  5
18B
330
2
100
AcDbEntity
  8
GAIKEI
  6
S10
 62
     1
100
AcDbLine
 10
-18.30331139689349
 20
3.190349019984637
 30
0.0
 11
-18.30331139689349
 21
8.611097644445919
 31
0.0
  0
LINE
  5
18C
330
2
100
AcDbEntity
  8
GAIKEI
  6
S10
 62
     1
100
AcDbLine
 10
-15.13901578415402
 20
8.254312579937277
 30
0.0
 11
-11.10721107535789
 21
8.254311712014498
 31
0.0
  0
LINE
  5
18D
330
2
100
AcDbEntity
  8
GAIKEI
  6
S10
 62
     1
100
AcDbLine
 10
-22.39940166355916
 20
8.254311712014498
 30
0.0
 11
-18.36759695474302
 21
8.254312597057321
 31
0.0
  0
LINE
  5
18E
330
2
100
AcDbEntity
  8
GAIKEI
  6
S10
 62
     1
100
AcDbLine
 10
-16.04968326317441
 20
3.829667665168074
 30
0.0
 11
-15.20330134204357
 21
3.829667665168074
 31
0.0
  0
LINE
  5
18F
330
2
100
AcDbEntity
  8
GAIKEI
  6
S10
 62
     1
100
AcDbLine
 10
-18.30331139689349
 20
3.829667665168074
 30
0.0
 11
-17.45692947574264
 21
3.829667665168074
 31
0.0
  0
LINE
  5
190
330
2
100
AcDbEntity
  8
GAIKEI
  6
S10
 62
     1
100
AcDbLine
 10
-15.20330134204357
 20
3.529803438421595
 30
0.0
 11
-18.30331139689349
 21
3.529803438421595
 31
0.0
  0
LINE
  5
191
330
2
100
AcDbEntity
  8
GAIKEI
  6
S10
 62
     1
100
AcDbLine
 10
-18.35331155906851
 20
3.140348857809669
 30
0.0
 11
-18.36736256382278
 21
3.142363756805082
 31
0.0
  0
LINE
  5
192
330
2
100
AcDbEntity
  8
GAIKEI
  6
S10
 62
     1
100
AcDbLine
 10
-15.20330134204357
 20
3.190349019984637
 30
0.0
 11
-18.30331139689349
 21
3.190349019984637
 31
0.0
  0
LINE
  5
193
330
2
100
AcDbEntity
  8
GAIKEI
  6
S10
 62
     1
100
AcDbLine
 10
-15.15330117986855
 20
3.140348857809669
 30
0.0
 11
-18.35331155906851
 21
3.140348857809669
 31
0.0
  0
LINE
  5
194
330
2
100
AcDbEntity
  8
GAIKEI
  6
S10
 62
     1
100
AcDbLine
 10
-15.13925017511428
 20
3.142363756805082
 30
0.0
 11
-15.15330118074848
 21
3.140348857809669
 31
0.0
  0
LINE
  5
195
330
2
100
AcDbEntity
  8
GAIKEI
  6
Continuous
 62
     7
100
AcDbLine
 10
33.3794245723858
 20
18.49254209733698
 30
0.0
 11
33.29025582772795
 21
16.68318614075991
 31
0.0
  0
LINE
  5
196
330
2
100
AcDbEntity
  8
GAIKEI
  6
Continuous
 62
     7
100
AcDbLine
 10
14.8794209888689
 20
18.49254209733698
 30
0.0
 11
15.02883076729801
 21
18.64254142074816
 31
0.0
  0
LINE
  5
197
330
2
100
AcDbEntity
  8
GAIKEI
  6
Continuous
 62
     7
100
AcDbLine
 10
14.96858973352675
 20
16.68318614075991
 30
0.0
 11
14.8794209888689
 21
18.49254209733698
 31
0.0
  0
LINE
  5
198
330
2
100
AcDbEntity
  8
GAIKEI
  6
Continuous
 62
     1
100
AcDbLine
 10
19.47682348439559
 20
18.64079463999252
 30
0.0
 11
19.1588923863693
 21
18.4925409342232
 31
0.0
  0
LINE
  5
199
330
2
100
AcDbEntity
  8
GAIKEI
  6
Continuous
 62
     1
100
AcDbLine
 10
19.20621657153481
 20
18.4925409342232
 30
0.0
 11
19.48369003875711
 21
18.62192893692185
 31
0.0
  0
LINE
  5
19A
330
2
100
AcDbEntity
  8
GAIKEI
  6
Continuous
 62
     7
100
AcDbLine
 10
17.54940143840235
 20
8.542508661398244
 30
0.0
 11
17.45585124655326
 21
8.706221497129092
 31
0.0
  0
LINE
  5
19B
330
2
100
AcDbEntity
  8
GAIKEI
  6
Continuous
 62
     1
100
AcDbLine
 10
19.41110620663221
 20
18.79254190727317
 30
0.0
 11
19.41110620663221
 21
18.67254151805321
 31
0.0
  0
LINE
  5
19C
330
2
100
AcDbEntity
  8
GAIKEI
  6
Continuous
 62
     1
100
AcDbLine
 10
20.0294094822824
 20
18.4925409342232
 30
0.0
 11
20.0294094822824
 21
18.54254109639817
 31
0.0
  0
LINE
  5
19D
330
2
100
AcDbEntity
  8
GAIKEI
  6
Continuous
 62
     1
100
AcDbLine
 10
20.52941110403242
 20
18.4925409342232
 30
0.0
 11
20.52941110403242
 21
18.54254109639817
 31
0.0
  0
LINE
  5
19E
330
2
100
AcDbEntity
  8
GAIKEI
  6
Continuous
 62
     1
100
AcDbLine
 10
28.28748071728956
 20
18.64254142074816
 30
0.0
 11
28.32943640333235
 21
18.67254151805321
 31
0.0
  0
LINE
  5
19F
330
2
100
AcDbEntity
  8
GAIKEI
  6
Continuous
 62
     7
100
AcDbLine
 10
17.54947853778242
 20
8.542508661398244
 30
0.0
 11
30.70936702347228
 21
8.542508661398244
 31
0.0
  0
LINE
  5
1A0
330
2
100
AcDbEntity
  8
GAIKEI
  6
Continuous
 62
     1
100
AcDbLine
 10
17.45585124582328
 20
8.706221498409092
 30
0.0
 11
30.80299431543142
 21
8.706221498409092
 31
0.0
  0
LINE
  5
1A1
330
2
100
AcDbEntity
  8
GAIKEI
  6
Continuous
 62
     1
100
AcDbLine
 10
19.5256089017605
 20
18.5813970854972
 30
0.0
 11
19.54941783574452
 21
18.4925409342232
 31
0.0
  0
LINE
  5
1A2
330
2
100
AcDbEntity
  8
GAIKEI
  6
Continuous
 62
     1
100
AcDbLine
 10
21.67941483405741
 20
18.79254190727317
 30
0.0
 11
21.67941483405741
 21
18.67254151805321
 31
0.0
  0
LINE
  5
1A3
330
2
100
AcDbEntity
  8
GAIKEI
  6
Continuous
 62
     1
100
AcDbLine
 10
21.87941548275739
 20
18.51254099909317
 30
0.0
 11
21.87941548275739
 21
18.79254190727317
 31
0.0
  0
LINE
  5
1A4
330
2
100
AcDbEntity
  8
GAIKEI
  6
Continuous
 62
     1
100
AcDbLine
 10
19.81538758954468
 20
18.65904305087105
 30
0.0
 11
19.8117706861633
 21
18.67254151805321
 31
0.0
  0
LINE
  5
1A5
330
2
100
AcDbEntity
  8
GAIKEI
  6
Continuous
 62
     1
100
AcDbLine
 10
19.98667258644571
 20
18.79254190727317
 30
0.0
 11
19.98269139294268
 21
18.80739992371497
 31
0.0
  0
LINE
  5
1A6
330
2
100
AcDbEntity
  8
GAIKEI
  6
Continuous
 62
     1
100
AcDbLine
 10
20.18881817902286
 20
18.81086745267191
 30
0.0
 11
20.18364178133322
 21
18.83018603185155
 31
0.0
  0
LINE
  5
1A7
330
2
100
AcDbEntity
  8
GAIKEI
  6
Continuous
 62
     7
100
AcDbLine
 10
31.38016586916137
 20
15.73819785811037
 30
0.0
 11
33.17998087300237
 21
16.52287731621987
 31
0.0
  0
LINE
  5
1A8
330
2
100
AcDbEntity
  8
GAIKEI
  6
Continuous
 62
     7
100
AcDbLine
 10
16.87867969210344
 20
15.73819785811037
 30
0.0
 11
15.07886468826245
 21
16.52287731621987
 31
0.0
  0
LINE
  5
1A9
330
2
100
AcDbEntity
  8
GAIKEI
  6
Continuous
 62
     1
100
AcDbLine
 10
26.37943007850731
 20
18.64254142074816
 30
0.0
 11
26.37943007850731
 21
18.79254190727317
 31
0.0
  0
LINE
  5
1AA
330
2
100
AcDbEntity
  8
GAIKEI
  6
Continuous
 62
     1
100
AcDbLine
 10
26.5794307272073
 20
18.67254151805321
 30
0.0
 11
26.5794307272073
 21
18.79254190727317
 31
0.0
  0
LINE
  5
1AB
330
2
100
AcDbEntity
  8
GAIKEI
  6
Continuous
 62
     1
100
AcDbLine
 10
20.11121713075465
 20
18.54254109639817
 30
0.0
 11
19.92940915793235
 21
18.67254151805321
 31
0.0
  0
LINE
  5
1AC
330
2
100
AcDbEntity
  8
GAIKEI
  6
Continuous
 62
     1
100
AcDbLine
 10
28.84193656293121
 20
18.64254142074816
 30
0.0
 11
28.84193656293121
 21
18.67254151805321
 31
0.0
  0
LINE
  5
1AD
330
2
100
AcDbEntity
  8
GAIKEI
  6
Continuous
 62
     1
100
AcDbLine
 10
28.93386219426111
 20
18.67254151805321
 30
0.0
 11
28.93386219426111
 21
18.64254142074816
 31
0.0
  0
LINE
  5
1AE
330
2
100
AcDbEntity
  8
GAIKEI
  6
Continuous
 62
     1
100
AcDbLine
 10
29.0624201331774
 20
18.64254142074816
 30
0.0
 11
29.0624201331774
 21
18.67254151805321
 31
0.0
  0
LINE
  5
1AF
330
2
100
AcDbEntity
  8
GAIKEI
  6
Continuous
 62
     1
100
AcDbLine
 10
29.15100568689377
 20
18.67254151805321
 30
0.0
 11
29.15100568689377
 21
18.79254190727317
 31
0.0
  0
LINE
  5
1B0
330
2
100
AcDbEntity
  8
GAIKEI
  6
Continuous
 62
     1
100
AcDbLine
 10
29.22761037967018
 20
18.67254151805321
 30
0.0
 11
29.22761037967018
 21
18.64254142074816
 31
0.0
  0
LINE
  5
1B1
330
2
100
AcDbEntity
  8
GAIKEI
  6
Continuous
 62
     1
100
AcDbLine
 10
29.31953601100008
 20
18.64254142074816
 30
0.0
 11
29.31953601100008
 21
18.67254151805321
 31
0.0
  0
LINE
  5
1B2
330
2
100
AcDbEntity
  8
GAIKEI
  6
Continuous
 62
     1
100
AcDbLine
 10
29.44809394991637
 20
18.67254151805321
 30
0.0
 11
29.44809394991637
 21
18.64254142074816
 31
0.0
  0
LINE
  5
1B3
330
2
100
AcDbEntity
  8
GAIKEI
  6
Continuous
 62
     1
100
AcDbLine
 10
19.17204357983507
 20
17.34253720419815
 30
0.0
 11
21.83152642154971
 21
17.34253720419815
 31
0.0
  0
LINE
  5
1B4
330
2
100
AcDbEntity
  8
GAIKEI
  6
Continuous
 62
     1
100
AcDbLine
 10
20.22462655847687
 20
17.49253769072317
 30
0.0
 11
20.23661095487819
 21
17.49253769072317
 31
0.0
  0
LINE
  5
1B5
330
2
100
AcDbEntity
  8
GAIKEI
  6
Continuous
 62
     1
100
AcDbLine
 10
20.59058668851481
 20
17.49253769072317
 30
0.0
 11
20.60256825565682
 21
17.49253769072317
 31
0.0
  0
LINE
  5
1B6
330
2
100
AcDbEntity
  8
GAIKEI
  6
Continuous
 62
     1
100
AcDbLine
 10
20.22257198224293
 20
17.59253801507316
 30
0.0
 11
20.58853259547232
 21
17.59253801507316
 31
0.0
  0
LINE
  5
1B7
330
2
100
AcDbEntity
  8
GAIKEI
  6
Continuous
 62
     1
100
AcDbLine
 10
20.77225204111448
 20
17.69253833942315
 30
0.0
 11
20.7842347780603
 21
17.69253833942315
 31
0.0
  0
LINE
  5
1B8
330
2
100
AcDbEntity
  8
GAIKEI
  6
Continuous
 62
     1
100
AcDbLine
 10
20.2190631971622
 20
17.7925386637732
 30
0.0
 11
20.58502463433433
 21
17.7925386637732
 31
0.0
  0
LINE
  5
1B9
330
2
100
AcDbEntity
  8
GAIKEI
  6
Continuous
 62
     1
100
AcDbLine
 10
20.21760872369464
 20
17.89253898812313
 30
0.0
 11
20.22958253915169
 21
17.89253898812313
 31
0.0
  0
LINE
  5
1BA
330
2
100
AcDbEntity
  8
GAIKEI
  6
Continuous
 62
     1
100
AcDbLine
 10
20.58357050194775
 20
17.89253898812313
 30
0.0
 11
20.59554150143561
 21
17.89253898812313
 31
0.0
  0
LINE
  5
1BB
330
2
100
AcDbEntity
  8
GAIKEI
  6
Continuous
 62
     1
100
AcDbLine
 10
19.37443623718354
 20
18.04253947464815
 30
0.0
 11
19.64789963567921
 21
18.04253947464815
 31
0.0
  0
LINE
  5
1BC
330
2
100
AcDbEntity
  8
GAIKEI
  6
Continuous
 62
     1
100
AcDbLine
 10
21.19120022515847
 20
18.04253947464815
 30
0.0
 11
21.49073383976258
 21
18.04253947464815
 31
0.0
  0
LINE
  5
1BD
330
2
100
AcDbEntity
  8
GAIKEI
  6
Continuous
 62
     1
100
AcDbLine
 10
19.50238031907895
 20
18.34254044769818
 30
0.0
 11
19.514421718015
 21
18.34254044769818
 31
0.0
  0
LINE
  5
1BE
330
2
100
AcDbEntity
  8
GAIKEI
  6
Continuous
 62
     1
100
AcDbLine
 10
21.33216956271099
 20
18.34254044769818
 30
0.0
 11
21.34419667947077
 21
18.34254044769818
 31
0.0
  0
LINE
  5
1BF
330
2
100
AcDbEntity
  8
GAIKEI
  6
Continuous
 62
     7
100
AcDbLine
 10
30.70944412286235
 20
8.542508661398244
 30
0.0
 11
30.80299431470155
 21
8.706221497129092
 31
0.0
  0
LINE
  5
1C0
330
2
100
AcDbEntity
  8
GAIKEI
  6
Continuous
 62
     1
100
AcDbLine
 10
18.90274360503349
 20
18.49254166117555
 30
0.0
 11
14.8794209888689
 21
18.49254209733698
 31
0.0
  0
LINE
  5
1C1
330
2
100
AcDbEntity
  8
GAIKEI
  6
Continuous
 62
     1
100
AcDbLine
 10
33.37437558799957
 20
18.49254209733698
 30
0.0
 11
18.91492722727093
 21
18.4925409342232
 31
0.0
  0
LINE
  5
1C2
330
2
100
AcDbEntity
  8
GAIKEI
  6
Continuous
 62
     1
100
AcDbLine
 10
22.12055493431069
 20
18.51254099909317
 30
0.0
 11
21.03547581660803
 21
18.51254099909317
 31
0.0
  0
LINE
  5
1C3
330
2
100
AcDbEntity
  8
GAIKEI
  6
Continuous
 62
     1
100
AcDbLine
 10
20.0294094822824
 20
18.54254109639817
 30
0.0
 11
20.52941110403242
 21
18.54254109639817
 31
0.0
  0
LINE
  5
1C4
330
2
100
AcDbEntity
  8
GAIKEI
  6
Continuous
 62
     7
100
AcDbLine
 10
33.22715909911437
 20
18.62254252022194
 30
0.0
 11
33.24294262530805
 21
18.62254252022194
 31
0.0
  0
LINE
  5
1C5
330
2
100
AcDbEntity
  8
GAIKEI
  6
Continuous
 62
     7
100
AcDbLine
 10
19.7538026675046
 20
18.64254142074816
 30
0.0
 11
19.56061687564852
 21
18.64254142074816
 31
0.0
  0
LINE
  5
1C6
330
2
100
AcDbEntity
  8
GAIKEI
  6
Continuous
 62
     7
100
AcDbLine
 10
15.02883133047987
 20
18.64254142074816
 30
0.0
 11
19.48369003875711
 21
18.64254142074816
 31
0.0
  0
LINE
  5
1C7
330
2
100
AcDbEntity
  8
GAIKEI
  6
Continuous
 62
     7
100
AcDbLine
 10
19.97136484396833
 20
18.6425414207481
 30
0.0
 11
33.22999144709115
 21
18.64254142074816
 31
0.0
  0
LINE
  5
1C8
330
2
100
AcDbEntity
  8
GAIKEI
  6
Continuous
 62
     1
100
AcDbLine
 10
28.84193656293121
 20
18.67254151805321
 30
0.0
 11
26.37943007850731
 21
18.67254151805321
 31
0.0
  0
LINE
  5
1C9
330
2
100
AcDbEntity
  8
GAIKEI
  6
Continuous
 62
     1
100
AcDbLine
 10
19.41113859488735
 20
18.67254151805321
 30
0.0
 11
21.87941548275739
 21
18.67254151805321
 31
0.0
  0
LINE
  5
1CA
330
2
100
AcDbEntity
  8
GAIKEI
  6
Continuous
 62
     1
100
AcDbLine
 10
21.87941548275739
 20
18.67254151805321
 30
0.0
 11
26.37943007850731
 21
18.67254151805321
 31
0.0
  0
LINE
  5
1CB
330
2
100
AcDbEntity
  8
GAIKEI
  6
Continuous
 62
     1
100
AcDbLine
 10
29.0624201331774
 20
18.67254151805321
 30
0.0
 11
29.22761037967018
 21
18.67254151805321
 31
0.0
  0
LINE
  5
1CC
330
2
100
AcDbEntity
  8
GAIKEI
  6
Continuous
 62
     1
100
AcDbLine
 10
19.41112621510717
 20
18.79254190727317
 30
0.0
 11
29.35616831857658
 21
18.79254190727317
 31
0.0
  0
LINE
  5
1CD
330
2
100
AcDbEntity
  8
GAIKEI
  6
Continuous
 62
     1
100
AcDbLine
 10
20.03844367865474
 20
18.59457720521681
 30
0.0
 11
19.65763913108924
 21
18.4925409342232
 31
0.0
  0
LINE
  5
1CE
330
2
100
AcDbEntity
  8
GAIKEI
  6
Continuous
 62
     1
100
AcDbLine
 10
19.22272826570031
 20
18.50024046365655
 30
0.0
 11
19.86576455488182
 21
18.67254151805321
 31
0.0
  0
LINE
  5
1CF
330
2
100
AcDbEntity
  8
GAIKEI
  6
Continuous
 62
     1
100
AcDbLine
 10
20.18881817902286
 20
18.81086745267191
 30
0.0
 11
20.1204263125245
 21
18.79254190727317
 31
0.0
  0
LINE
  5
1D0
330
2
100
AcDbEntity
  8
GAIKEI
  6
Continuous
 62
     1
100
AcDbLine
 10
19.48369003875711
 20
18.62192893692185
 30
0.0
 11
19.67257876302574
 21
18.67254151805321
 31
0.0
  0
LINE
  5
1D1
330
2
100
AcDbEntity
  8
GAIKEI
  6
Continuous
 62
     1
100
AcDbLine
 10
19.47682348439559
 20
18.64079463999252
 30
0.0
 11
19.59530444628729
 21
18.67254151805321
 31
0.0
  0
LINE
  5
1D2
330
2
100
AcDbEntity
  8
GAIKEI
  6
Continuous
 62
     1
100
AcDbLine
 10
20.04315199578605
 20
18.79254190727317
 30
0.0
 11
20.18364178133322
 21
18.83018603185155
 31
0.0
  0
LINE
  5
1D3
330
2
100
AcDbEntity
  8
GAIKEI
  6
Continuous
 62
     1
100
AcDbLine
 10
19.93434978614732
 20
18.79444682921183
 30
0.0
 11
19.98260107528983
 21
18.80737572317656
 31
0.0
  0
LINE
  5
1D4
330
2
100
AcDbEntity
  8
GAIKEI
  6
Continuous
 62
     7
100
AcDbLine
 10
33.37942457188899
 20
18.49254209774312
 30
0.0
 11
33.23001479396692
 21
18.64254142074816
 31
0.0
  0
LINE
  5
1D5
330
2
100
AcDbEntity
  8
GAIKEI
  6
Continuous
 62
     1
100
AcDbLine
 10
28.93386219426111
 20
18.67254151805321
 30
0.0
 11
28.9293649908044
 21
18.70961581349326
 31
0.0
  0
LINE
  5
1D6
330
2
100
AcDbEntity
  8
GAIKEI
  6
Continuous
 62
     1
100
AcDbLine
 10
28.9293649908044
 20
18.70961581349326
 30
0.0
 11
28.91626906135798
 21
18.74314222836585
 31
0.0
  0
LINE
  5
1D7
330
2
100
AcDbEntity
  8
GAIKEI
  6
Continuous
 62
     1
100
AcDbLine
 10
28.91626906135798
 20
18.74314222836585
 30
0.0
 11
28.89597508190457
 21
18.76961819201034
 31
0.0
  0
LINE
  5
1D8
330
2
100
AcDbEntity
  8
GAIKEI
  6
Continuous
 62
     1
100
AcDbLine
 10
28.89597508190457
 20
18.76961819201034
 30
0.0
 11
28.870353389471
 21
18.7866643241893
 31
0.0
  0
LINE
  5
1D9
330
2
100
AcDbEntity
  8
GAIKEI
  6
Continuous
 62
     1
100
AcDbLine
 10
28.870353389471
 20
18.7866643241893
 30
0.0
 11
28.84193656293121
 21
18.79254190727317
 31
0.0
  0
LINE
  5
1DA
330
2
100
AcDbEntity
  8
GAIKEI
  6
Continuous
 62
     1
100
AcDbLine
 10
29.31953601100008
 20
18.67254151805321
 30
0.0
 11
29.31503880754338
 21
18.70961581349326
 31
0.0
  0
LINE
  5
1DB
330
2
100
AcDbEntity
  8
GAIKEI
  6
Continuous
 62
     1
100
AcDbLine
 10
29.31503880754338
 20
18.70961581349326
 30
0.0
 11
29.30194287810696
 21
18.74314222836585
 31
0.0
  0
LINE
  5
1DC
330
2
100
AcDbEntity
  8
GAIKEI
  6
Continuous
 62
     1
100
AcDbLine
 10
29.30194287810696
 20
18.74314222836585
 30
0.0
 11
29.28164889864354
 21
18.76961819201034
 31
0.0
  0
LINE
  5
1DD
330
2
100
AcDbEntity
  8
GAIKEI
  6
Continuous
 62
     1
100
AcDbLine
 10
29.28164889864354
 20
18.76961819201034
 30
0.0
 11
29.25602720620998
 21
18.7866643241893
 31
0.0
  0
LINE
  5
1DE
330
2
100
AcDbEntity
  8
GAIKEI
  6
Continuous
 62
     1
100
AcDbLine
 10
29.25602720620998
 20
18.7866643241893
 30
0.0
 11
29.22761037967018
 21
18.79254190727317
 31
0.0
  0
LINE
  5
1DF
330
2
100
AcDbEntity
  8
GAIKEI
  6
Continuous
 62
     1
100
AcDbLine
 10
28.97049450183761
 20
18.79254190727317
 30
0.0
 11
28.9989113283873
 21
18.7866643241893
 31
0.0
  0
LINE
  5
1E0
330
2
100
AcDbEntity
  8
GAIKEI
  6
Continuous
 62
     1
100
AcDbLine
 10
28.9989113283873
 20
18.7866643241893
 30
0.0
 11
29.02453302082097
 21
18.76961819201034
 31
0.0
  0
LINE
  5
1E1
330
2
100
AcDbEntity
  8
GAIKEI
  6
Continuous
 62
     1
100
AcDbLine
 10
29.02453302082097
 20
18.76961819201034
 30
0.0
 11
29.04482700027427
 21
18.74314222836585
 31
0.0
  0
LINE
  5
1E2
330
2
100
AcDbEntity
  8
GAIKEI
  6
Continuous
 62
     1
100
AcDbLine
 10
29.04482700027427
 20
18.74314222836585
 30
0.0
 11
29.0579229297208
 21
18.70961581349326
 31
0.0
  0
LINE
  5
1E3
330
2
100
AcDbEntity
  8
GAIKEI
  6
Continuous
 62
     1
100
AcDbLine
 10
29.0579229297208
 20
18.70961581349326
 30
0.0
 11
29.0624201331774
 21
18.67254151805321
 31
0.0
  0
LINE
  5
1E4
330
2
100
AcDbEntity
  8
GAIKEI
  6
Continuous
 62
     1
100
AcDbLine
 10
29.35616831857658
 20
18.79254190727317
 30
0.0
 11
29.38458514512627
 21
18.7866643241893
 31
0.0
  0
LINE
  5
1E5
330
2
100
AcDbEntity
  8
GAIKEI
  6
Continuous
 62
     1
100
AcDbLine
 10
29.38458514512627
 20
18.7866643241893
 30
0.0
 11
29.41020683755994
 21
18.76961819201034
 31
0.0
  0
LINE
  5
1E6
330
2
100
AcDbEntity
  8
GAIKEI
  6
Continuous
 62
     1
100
AcDbLine
 10
29.41020683755994
 20
18.76961819201034
 30
0.0
 11
29.43050081701324
 21
18.74314222836585
 31
0.0
  0
LINE
  5
1E7
330
2
100
AcDbEntity
  8
GAIKEI
  6
Continuous
 62
     1
100
AcDbLine
 10
29.43050081701324
 20
18.74314222836585
 30
0.0
 11
29.44359674645978
 21
18.70961581349326
 31
0.0
  0
LINE
  5
1E8
330
2
100
AcDbEntity
  8
GAIKEI
  6
Continuous
 62
     1
100
AcDbLine
 10
29.44359674645978
 20
18.70961581349326
 30
0.0
 11
29.44809394991637
 21
18.67254151805321
 31
0.0
  0
ARC
  5
1E9
330
2
100
AcDbEntity
  8
GAIKEI
  6
S10
 62
     1
100
AcDbCircle
 10
69.74686535900753
 20
6.668562389313194
 30
0.0
 40
40.00012974000012
100
AcDbArc
 50
177.3144217013886
 51
177.8263135507114
  0
ARC
  5
1EA
330
2
100
AcDbEntity
  8
GAIKEI
  6
S10
 62
     1
100
AcDbCircle
 10
-16.75330636946853
 20
8.811098293145903
 30
0.0
 40
6.250020271874897
100
AcDbArc
 50
181.8377246752993
 51
358.1622753247007
  0
ARC
  5
1EB
330
2
100
AcDbEntity
  8
GAIKEI
  6
Continuous
 62
     7
100
AcDbCircle
 10
-23.25322877505846
 20
8.87403870023246
 30
0.0
 40
0.2000006487000038
100
AcDbArc
 50
179.7873667477191
 51
209.7448812969103
  0
ARC
  5
1EC
330
2
100
AcDbEntity
  8
GAIKEI
  6
Continuous
 62
     7
100
AcDbCircle
 10
-10.25338396388861
 20
8.87403870023246
 30
0.0
 40
0.2000006486999739
100
AcDbArc
 50
330.255118702101
 51
0.2126332522808587
  0
ARC
  5
1ED
330
2
100
AcDbEntity
  8
GAIKEI
  6
Continuous
 62
     7
100
AcDbCircle
 10
-24.14571807190816
 20
15.43271326316437
 30
0.0
 40
0.4000012973999687
100
AcDbArc
 50
43.42945585320976
 51
69.25739241629554
  0
ARC
  5
1EE
330
2
100
AcDbEntity
  8
GAIKEI
  6
Continuous
 62
     7
100
AcDbCircle
 10
-9.360894667028901
 20
15.43271326316437
 30
0.0
 40
0.4000012973999848
100
AcDbArc
 50
110.742607583634
 51
136.5705441466969
  0
ARC
  5
1EF
330
2
100
AcDbEntity
  8
GAIKEI
  6
Continuous
 62
     7
100
AcDbCircle
 10
-25.71503200615132
 20
16.7706562942385
 30
0.0
 40
0.2000006487000705
100
AcDbArc
 50
185.4171063131872
 51
243.6303379372051
  0
ARC
  5
1F0
330
2
100
AcDbEntity
  8
GAIKEI
  6
Continuous
 62
     7
100
AcDbCircle
 10
-7.79158073279575
 20
16.7706562942385
 30
0.0
 40
0.2000006486999613
100
AcDbArc
 50
296.3696620627862
 51
354.5828936868128
  0
ARC
  5
1F1
330
2
100
AcDbEntity
  8
GAIKEI
  6
S10
 62
     1
100
AcDbCircle
 10
28.86413620890653
 20
6.737151372360756
 30
0.0
 40
40.00012973999992
100
AcDbArc
 50
177.3144217013886
 51
177.8263135507114
  0
ARC
  5
1F2
330
2
100
AcDbEntity
  8
GAIKEI
  6
S10
 62
     1
100
AcDbCircle
 10
-62.3707489478436
 20
6.737151372360756
 30
0.0
 40
40.00012974000008
100
AcDbArc
 50
2.173686449288533
 51
2.685578298611414
  0
ARC
  5
1F3
330
2
100
AcDbEntity
  8
GAIKEI
  6
S10
 62
     1
100
AcDbCircle
 10
-15.15330117986855
 20
3.190349019984637
 30
0.0
 40
0.050000162175
100
AcDbArc
 50
180.0
 51
269.9999989925143
  0
ARC
  5
1F4
330
2
100
AcDbEntity
  8
GAIKEI
  6
S10
 62
     1
100
AcDbCircle
 10
-18.35331155906851
 20
3.190349120125063
 30
0.0
 40
0.050000162175
100
AcDbArc
 50
270.0000005147186
 51
359.9998852411415
  0
ARC
  5
1F5
330
2
100
AcDbEntity
  8
GAIKEI
  6
S10
 62
     1
100
AcDbCircle
 10
-16.75330636946853
 20
8.461097157920903
 30
0.0
 40
1.68359529920379
100
AcDbArc
 50
202.579998917406
 51
337.420001082594
  0
ARC
  5
1F6
330
2
100
AcDbEntity
  8
GAIKEI
  6
S10
 62
     1
100
AcDbCircle
 10
-16.75330636946853
 20
8.461097157920903
 30
0.0
 40
1.630005286905
100
AcDbArc
 50
197.5161153145034
 51
342.4838846854949
  0
ARC
  5
1F7
330
2
100
AcDbEntity
  8
GAIKEI
  6
S10
 62
     1
100
AcDbCircle
 10
-16.75330636946853
 20
8.461097157920903
 30
0.0
 40
1.600005189599907
100
AcDbArc
 50
193.5559206063136
 51
346.4440793937166
  0
ARC
  5
1F8
330
2
100
AcDbEntity
  8
GAIKEI
  6
S10
 62
     1
100
AcDbCircle
 10
-16.75330636946853
 20
7.861095211820895
 30
0.0
 40
4.100013298350022
100
AcDbArc
 50
247.780628595876
 51
292.219371404124
  0
ARC
  5
1F9
330
2
100
AcDbEntity
  8
GAIKEI
  6
S10
 62
     1
100
AcDbCircle
 10
-16.75330636946853
 20
8.461097157920903
 30
0.0
 40
1.700005513949903
100
AcDbArc
 50
203.8505155949105
 51
336.1494575907095
  0
ARC
  5
1FA
330
2
100
AcDbEntity
  8
GAIKEI
  6
S10
 62
     1
100
AcDbCircle
 10
24.12942278063236
 20
8.742509310098228
 30
0.0
 40
6.250020271874993
100
AcDbArc
 50
181.8377246752993
 51
269.9999999999349
  0
ARC
  5
1FB
330
2
100
AcDbEntity
  8
GAIKEI
  6
S10
 62
     1
100
AcDbCircle
 10
24.12942278063236
 20
8.742509310098228
 30
0.0
 40
6.250020271874999
100
AcDbArc
 50
269.9999999999349
 51
358.1622753247007
  0
ARC
  5
1FC
330
2
100
AcDbEntity
  8
GAIKEI
  6
Continuous
 62
     7
100
AcDbCircle
 10
30.62934518621228
 20
8.805449717184785
 30
0.0
 40
0.2000006487000256
100
AcDbArc
 50
330.2550822309091
 51
0.2126315456923666
  0
ARC
  5
1FD
330
2
100
AcDbEntity
  8
GAIKEI
  6
Continuous
 62
     7
100
AcDbCircle
 10
17.62950037504242
 20
8.805449717184785
 30
0.0
 40
0.2000006487000451
100
AcDbArc
 50
179.7873684543076
 51
209.7449177690898
  0
ARC
  5
1FE
330
2
100
AcDbEntity
  8
GAIKEI
  6
Continuous
 62
     7
100
AcDbCircle
 10
31.52183448307198
 20
15.36412428011664
 30
0.0
 40
0.4000012973999477
100
AcDbArc
 50
110.7426078286029
 51
136.5705443455868
  0
ARC
  5
1FF
330
2
100
AcDbEntity
  8
GAIKEI
  6
Continuous
 62
     7
100
AcDbCircle
 10
16.73701107819272
 20
15.36412428011664
 30
0.0
 40
0.4000012973999981
100
AcDbArc
 50
43.42945565441316
 51
69.25739217139707
  0
ARC
  5
200
330
2
100
AcDbEntity
  8
GAIKEI
  6
Continuous
 62
     7
100
AcDbCircle
 10
33.09114841730514
 20
16.70206731119089
 30
0.0
 40
0.2000006487000338
100
AcDbArc
 50
296.3696619055323
 51
354.5828936667259
  0
ARC
  5
201
330
2
100
AcDbEntity
  8
GAIKEI
  6
Continuous
 62
     7
100
AcDbCircle
 10
15.16769714394957
 20
16.70206731119089
 30
0.0
 40
0.2000006487000008
100
AcDbArc
 50
185.4171063332742
 51
243.6303380944677
  0
SPLINE
  5
202
330
2
100
AcDbEntity
  8
GAIKEI
  6
S10
 62
     1
100
AcDbSpline
210
0.0
220
0.0
230
1.0
 70
    40
 71
     3
 72
    27
 73
    23
 74
    21
 42
0.0000000001
 43
0.0000000001
 44
0.00000001
 40
0.0
 40
0.0
 40
0.0
 40
0.0
 40
0.5373684388277705
 40
1.074037364095127
 40
1.444964064933242
 40
1.815804089137854
 40
2.188111563248953
 40
2.560431959816522
 40
2.934481091466277
 40
3.308525890430433
 40
3.684485994934202
 40
4.060444586306835
 40
4.438411646723854
 40
4.816376305824221
 40
5.196216286580422
 40
5.576056581872213
 40
5.957467690277748
 40
6.338862722907266
 40
6.721549139744211
 40
7.104321343919142
 40
7.663856831034213
 40
8.224120735202344
 40
8.224120735202344
 40
8.224120735202344
 40
8.224120735202344
 10
18.71693848849657
 20
8.185640280019299
 30
0.0
 10
18.72933634038334
 20
8.006791546442528
 30
0.0
 10
18.75411591987142
 20
7.649326895024074
 30
0.0
 10
18.85002377514459
 20
7.175941197846526
 30
0.0
 10
18.96739170514431
 20
6.766071909019615
 30
0.0
 10
19.09532836153558
 20
6.417070708879975
 30
0.0
 10
19.24750509037048
 20
6.077491772305407
 30
0.0
 10
19.42386478550014
 20
5.748586091559076
 30
0.0
 10
19.62315433068392
 20
5.432365917612727
 30
0.0
 10
19.84499359548934
 20
5.130029557726544
 30
0.0
 10
20.08786349566623
 20
4.843475773338042
 30
0.0
 10
20.35122847793426
 20
4.573808678558663
 30
0.0
 10
20.63328659921338
 20
4.322749961672911
 30
0.0
 10
20.93331462646228
 20
4.091346237213102
 30
0.0
 10
21.24926359413158
 20
3.881069653495643
 30
0.0
 10
21.58017756206033
 20
3.69290312092832
 30
0.0
 10
21.92384631733856
 20
3.52797043025825
 30
0.0
 10
22.27908685214162
 20
3.387172733865241
 30
0.0
 10
22.64369561761605
 20
3.27109203501574
 30
0.0
 10
23.0732339219237
 20
3.167464158213448
 30
0.0
 10
23.56916742151418
 20
3.088150402737142
 30
0.0
 10
23.94259002492721
 20
3.077225967747381
 30
0.0
 10
24.12942278063236
 20
3.071760204443194
 30
0.0
 11
18.71693848849657
 21
8.185640280019299
 31
0.0
 11
18.76577430816758
 21
7.650495529809063
 31
0.0
 11
18.86909523796748
 21
7.123866322032711
 31
0.0
 11
18.97167153170653
 21
6.767404932882698
 31
0.0
 11
19.09915466356847
 21
6.419165970173651
 31
0.0
 11
19.25145457145902
 21
6.079434320516554
 31
0.0
 11
19.42734787906033
 21
5.751281882711168
 31
0.0
 11
19.62679930991408
 21
5.43484566483562
 31
0.0
 11
19.84803742205599
 21
5.133244587734111
 31
0.0
 11
20.0911328513198
 21
4.846450911415502
 31
0.0
 11
20.35377912978345
 21
4.577449433441643
 31
0.0
 11
20.63611631590732
 21
4.326163117845737
 31
0.0
 11
20.93537543014179
 21
4.095292447577321
 31
0.0
 11
21.25159492622822
 21
3.884855659923459
 31
0.0
 11
21.58176283327657
 21
3.697058419749566
 31
0.0
 11
21.9256351827413
 21
3.532054658441097
 31
0.0
 11
22.28017140117186
 21
3.391462193768234
 31
0.0
 11
22.64486608669847
 21
3.275502371350455
 31
0.0
 11
23.01684407233506
 21
3.185241975883286
 31
0.0
 11
23.5698821451507
 21
3.10021931568059
 31
0.0
 11
24.12942278063236
 21
3.071760204443194
 31
0.0
  0
SPLINE
  5
203
330
2
100
AcDbEntity
  8
GAIKEI
  6
S10
 62
     1
100
AcDbSpline
210
0.0
220
0.0
230
1.0
 70
    56
 71
     3
 72
     9
 73
     5
 74
     3
 42
0.0000000001
 43
0.0000000001
 44
0.00000001
 40
0.0
 40
0.0
 40
0.0
 40
0.0
 40
0.0256193555462903
 40
0.0512387110925812
 40
0.0512387110925812
 40
0.0512387110925812
 40
0.0512387110925812
 10
24.07818462360194
 20
3.074013147030484
 30
0.0
 10
24.08672431644035
 20
3.073973433278396
 30
0.0
 10
24.10380370211716
 20
3.073894005774192
 30
0.0
 10
24.12088308779396
 20
3.07381457826986
 30
0.0
 10
24.12942278063236
 20
3.073774864517702
 30
0.0
 11
24.07818462360194
 21
3.074013147030484
 31
0.0
 11
24.10380370211715
 21
3.07389400577415
 31
0.0
 11
24.12942278063236
 21
3.073774864517702
 31
0.0
  0
SPLINE
  5
204
330
2
100
AcDbEntity
  8
GAIKEI
  6
S10
 62
     1
100
AcDbSpline
210
0.0
220
0.0
230
1.0
 70
    40
 71
     3
 72
    19
 73
    15
 74
    13
 42
0.0000000001
 43
0.0000000001
 44
0.00000001
 40
0.0
 40
0.0
 40
0.0
 40
0.0
 40
0.5660987949570254
 40
1.132678914208297
 40
1.684192012706815
 40
2.235626639787936
 40
2.785177774446164
 40
3.334767522750495
 40
3.882496318851588
 40
4.430208853866591
 40
4.976420452115072
 40
5.522843358766727
 40
6.236212183728632
 40
6.950467787874623
 40
6.950467787874623
 40
6.950467787874623
 40
6.950467787874623
 10
25.743467059208
 20
3.073793808879145
 30
0.0
 10
25.92313062777999
 20
3.131996535053673
 30
0.0
 10
26.28261051870138
 20
3.248451487928278
 30
0.0
 10
26.79193155460358
 20
3.487904345519865
 30
0.0
 10
27.27265188008222
 20
3.769614252698602
 30
0.0
 10
27.71847338117971
 20
4.094747993919298
 30
0.0
 10
28.13027090033731
 20
4.460911257717199
 30
0.0
 10
28.50305829195132
 20
4.865092565671076
 30
0.0
 10
28.8342752753411
 20
5.303225770489461
 30
0.0
 10
29.11964082366299
 20
5.771153251986675
 30
0.0
 10
29.35775074699454
 20
6.264494137188222
 30
0.0
 10
29.56285809107014
 20
6.831141293048005
 30
0.0
 10
29.72147833803511
 20
7.472788717181373
 30
0.0
 10
29.75749181869779
 20
7.947979879732159
 30
0.0
 10
29.77550973677603
 20
8.185723045967847
 30
0.0
 11
25.743467059208
 21
3.073793808879145
 31
0.0
 11
26.27822551005056
 21
3.25953891946898
 31
0.0
 11
26.79233219376204
 21
3.497671971885097
 31
0.0
 11
27.26766869634605
 21
3.777353769967987
 31
0.0
 11
27.71337515856738
 21
4.102047315335596
 31
0.0
 11
28.1239070271763
 21
4.467382825938443
 31
0.0
 11
28.4965932651412
 21
4.87130591303503
 31
0.0
 11
28.82674286921861
 21
5.308350617632356
 31
0.0
 11
29.11203952640449
 21
5.775891887734644
 31
0.0
 11
29.34909474539859
 21
6.267981243540361
 31
0.0
 11
29.53602548574543
 21
6.781435128715372
 31
0.0
 11
29.701756489775
 21
7.475285484870425
 31
0.0
 11
29.77550973677603
 21
8.185723045967847
 31
0.0
  0
SPLINE
  5
205
330
2
100
AcDbEntity
  8
GAIKEI
  6
S10
 62
     1
100
AcDbSpline
210
0.0
220
0.0
230
1.0
 70
    40
 71
     3
 72
     9
 73
     5
 74
     3
 42
0.0000000001
 43
0.0000000001
 44
0.00000001
 40
0.0
 40
0.0
 40
0.0
 40
0.0
 40
0.1786144598715875
 40
0.3572294263318238
 40
0.3572294263318238
 40
0.3572294263318238
 40
0.3572294263318238
 10
18.70113780930717
 20
8.542519130912126
 30
0.0
 10
18.70397865234676
 20
8.4830485895489
 30
0.0
 10
18.70966032650392
 20
8.364107337243581
 30
0.0
 10
18.71451178007733
 20
8.245129329528907
 30
0.0
 10
18.71693750031329
 20
8.185640240879308
 30
0.0
 11
18.70113780930717
 21
8.542519130912126
 31
0.0
 11
18.70945277387966
 21
8.364098317530704
 31
0.0
 11
18.71693750031329
 21
8.185640240879308
 31
0.0
  0
SPLINE
  5
206
330
2
100
AcDbEntity
  8
GAIKEI
  6
Continuous
 62
     1
100
AcDbSpline
210
0.0
220
0.0
230
1.0
 70
    40
 71
     3
 72
    11
 73
     7
 74
     5
 42
0.0000000001
 43
0.0000000001
 44
0.00000001
 40
0.0
 40
0.0
 40
0.0
 40
0.0
 40
0.2125595289163831
 40
0.4251167285182486
 40
0.6377024850343818
 40
0.8502905692139757
 40
0.8502905692139757
 40
0.8502905692139757
 40
0.8502905692139757
 10
-9.141514110120397
 20
17.64253817724813
 30
0.0
 10
-9.138641418755632
 20
17.71333375396972
 30
0.0
 10
-9.132896082495008
 20
17.85492413217153
 30
0.0
 10
-9.126989834196038
 20
18.0674141040773
 30
0.0
 10
-9.122891901847346
 20
18.27995615890688
 30
0.0
 10
-9.121968670919322
 20
18.42167908377811
 30
0.0
 10
-9.121507060427688
 20
18.49254093422314
 30
0.0
 11
-9.141514110120397
 21
17.64253817724813
 31
0.0
 11
-9.133348047605977
 21
17.85494078734604
 31
0.0
 11
-9.127291470415684
 21
18.0674116818667
 31
0.0
 11
-9.123344114676683
 21
18.27996078748538
 31
0.0
 11
-9.121507060427688
 21
18.49254093422314
 31
0.0
  0
SPLINE
  5
207
330
2
100
AcDbEntity
  8
GAIKEI
  6
Continuous
 62
     7
100
AcDbSpline
210
0.0
220
0.0
230
1.0
 70
    40
 71
     3
 72
    13
 73
     9
 74
     7
 42
0.0000000001
 43
0.0000000001
 44
0.00000001
 40
0.0
 40
0.0
 40
0.0
 40
0.0
 40
0.093500892260844
 40
0.1870160797276871
 40
0.2832581105052387
 40
0.3794612948589994
 40
0.4569260625463541
 40
0.5343437686748973
 40
0.5343437686748973
 40
0.5343437686748973
 40
0.5343437686748973
 10
-23.85522859283856
 20
15.70769853636625
 30
0.0
 10
-23.83396007448333
 20
15.68489423291615
 30
0.0
 10
-23.7914197969429
 20
15.63928212969233
 30
0.0
 10
-23.73396666900637
 20
15.56419141473036
 30
0.0
 10
-23.6806989711455
 20
15.48509668572154
 30
0.0
 10
-23.634863316494
 20
15.40762262809167
 30
0.0
 10
-23.59568072468499
 20
15.33362485673773
 30
0.0
 10
-23.5739706827942
 20
15.28677551543292
 30
0.0
 10
-23.56311896678403
 20
15.26335795931226
 30
0.0
 11
-23.85522859283856
 21
15.70769853636625
 31
0.0
 11
-23.79257483520837
 21
15.6382944758804
 31
0.0
 11
-23.73528260667774
 21
15.56438445622933
 31
0.0
 11
-23.68148387048518
 21
15.4845832993729
 31
0.0
 11
-23.63241477370616
 21
15.40183502729525
 31
0.0
 11
-23.59628869136134
 21
15.33330987540756
 31
0.0
 11
-23.56311896678403
 21
15.26335795931226
 31
0.0
  0
SPLINE
  5
208
330
2
100
AcDbEntity
  8
GAIKEI
  6
Continuous
 62
     7
100
AcDbSpline
210
0.0
220
0.0
230
1.0
 70
    40
 71
     3
 72
    13
 73
     9
 74
     7
 42
0.0000000001
 43
0.0000000001
 44
0.00000001
 40
0.0
 40
0.0
 40
0.0
 40
0.0
 40
0.1817349954685403
 40
0.3635608164230668
 40
0.6096322312710531
 40
0.8553854793725346
 40
1.496539397289013
 40
2.138482953766288
 40
2.138482953766288
 40
2.138482953766288
 40
2.138482953766288
 10
-23.56311896678403
 20
15.26335795931226
 30
0.0
 10
-23.53982544057523
 20
15.20738205562367
 30
0.0
 10
-23.49322676570182
 20
15.09540226634056
 30
0.0
 10
-23.43794577785026
 20
14.89948688313258
 30
0.0
 10
-23.39027451522076
 20
14.67998716719913
 30
0.0
 10
-23.32870539281844
 20
14.30729225778658
 30
0.0
 10
-23.27353513006185
 20
13.79996868622734
 30
0.0
 10
-23.26169443931787
 20
13.37231848658014
 30
0.0
 10
-23.2557704459623
 20
13.15836179546932
 30
0.0
 11
-23.56311896678403
 21
15.26335795931226
 31
0.0
 11
-23.49664450875502
 21
15.09421672910781
 31
0.0
 11
-23.44531011346646
 21
14.91978791446399
 31
0.0
 11
-23.39227391425197
 21
14.67949996062867
 31
0.0
 11
-23.35143574195604
 21
14.43716361914329
 31
0.0
 11
-23.28216835471653
 21
13.79976234959571
 31
0.0
 11
-23.2557704459623
 21
13.15836179546932
 31
0.0
  0
SPLINE
  5
209
330
2
100
AcDbEntity
  8
GAIKEI
  6
Continuous
 62
     7
100
AcDbSpline
210
0.0
220
0.0
230
1.0
 70
    56
 71
     3
 72
     9
 73
     5
 74
     3
 42
0.0000000001
 43
0.0000000001
 44
0.00000001
 40
0.0
 40
0.0
 40
0.0
 40
0.0
 40
0.5344416052936165
 40
1.068883210587291
 40
1.068883210587291
 40
1.068883210587291
 40
1.068883210587291
 10
-23.2557704459623
 20
13.15836179546932
 30
0.0
 10
-23.25925709146451
 20
12.98024871678143
 30
0.0
 10
-23.26623038246895
 20
12.62402255940564
 30
0.0
 10
-23.27320367347347
 20
12.26779640202986
 30
0.0
 10
-23.27669031897574
 20
12.08968332334194
 30
0.0
 11
-23.2557704459623
 21
13.15836179546932
 31
0.0
 11
-23.26623038246896
 21
12.62402255940566
 31
0.0
 11
-23.27669031897574
 21
12.08968332334194
 31
0.0
  0
SPLINE
  5
20A
330
2
100
AcDbEntity
  8
GAIKEI
  6
Continuous
 62
     7
100
AcDbSpline
210
0.0
220
0.0
230
1.0
 70
    56
 71
     3
 72
     9
 73
     5
 74
     3
 42
0.0000000001
 43
0.0000000001
 44
0.00000001
 40
0.0
 40
0.0
 40
0.0
 40
0.0
 40
0.2681113474571393
 40
0.5362226949143412
 40
0.5362226949143412
 40
0.5362226949143412
 40
0.5362226949143412
 10
-23.27669031897574
 20
12.08968332334194
 30
0.0
 10
-23.281788518645
 20
12.00045840786521
 30
0.0
 10
-23.29198491798354
 20
11.82200857691171
 30
0.0
 10
-23.30218131732214
 20
11.64355874595824
 30
0.0
 10
-23.30727951699146
 20
11.55433383048148
 30
0.0
 11
-23.27669031897574
 21
12.08968332334194
 31
0.0
 11
-23.29198491798354
 21
11.82200857691174
 31
0.0
 11
-23.30727951699146
 21
11.55433383048148
 31
0.0
  0
SPLINE
  5
20B
330
2
100
AcDbEntity
  8
GAIKEI
  6
Continuous
 62
     7
100
AcDbSpline
210
0.0
220
0.0
230
1.0
 70
    56
 71
     3
 72
     9
 73
     5
 74
     3
 42
0.0000000001
 43
0.0000000001
 44
0.00000001
 40
0.0
 40
0.0
 40
0.0
 40
0.0
 40
1.341762340578999
 40
2.683524681158032
 40
2.683524681158032
 40
2.683524681158032
 40
2.683524681158032
 10
-23.30727951699146
 20
11.55433383048148
 30
0.0
 10
-23.33160427190852
 20
11.10774168056788
 30
0.0
 10
-23.38025378174266
 20
10.21455738074068
 30
0.0
 10
-23.4289032915769
 20
9.321373080913474
 30
0.0
 10
-23.45322804649402
 20
8.874780930999861
 30
0.0
 11
-23.30727951699146
 21
11.55433383048148
 31
0.0
 11
-23.38025378174268
 21
10.2145573807407
 31
0.0
 11
-23.45322804649402
 21
8.874780930999861
 31
0.0
  0
SPLINE
  5
20C
330
2
100
AcDbEntity
  8
GAIKEI
  6
Continuous
 62
     7
100
AcDbSpline
210
0.0
220
0.0
230
1.0
 70
    40
 71
     3
 72
    20
 73
    16
 74
    14
 42
0.0000000001
 43
0.0000000001
 44
0.00000001
 40
0.0
 40
0.0
 40
0.0
 40
0.0
 40
0.0935008833622144
 40
0.1870162349610962
 40
0.2832579824544604
 40
0.3794589665909076
 40
0.4785842169933916
 40
0.5777126974865597
 40
0.7377831546381123
 40
0.8979774392671123
 40
1.144001569153277
 40
1.389730625514872
 40
3.240672871284397
 40
5.095076084188179
 40
6.972843347348831
 40
6.972843347348831
 40
6.972843347348831
 40
6.972843347348831
 10
-9.651384146098507
 20
15.70769853636625
 30
0.0
 10
-9.672652560268304
 20
15.68489422156173
 30
0.0
 10
-9.715192681239059
 20
15.63928206492017
 30
0.0
 10
-9.772647336320062
 20
15.56419159289875
 30
0.0
 10
-9.825901134835461
 20
15.48509094882222
 30
0.0
 10
-9.875476216963228
 20
15.4014323392942
 30
0.0
 10
-9.920732793222072
 20
15.31427624600064
 30
0.0
 10
-9.969815687178673
 20
15.20533716280266
 30
0.0
 10
-10.01904613955144
 20
15.07430264955442
 30
0.0
 10
-10.07045282395852
 20
14.89253088803295
 30
0.0
 10
-10.11651334077816
 20
14.67999136143396
 30
0.0
 10
-10.23953229404867
 20
13.90868024502063
 30
0.0
 10
-10.34044216318334
 20
12.59276077405319
 30
0.0
 10
-10.31998406062593
 20
10.72754143886648
 30
0.0
 10
-10.14262125272988
 20
9.494939868971584
 30
0.0
 10
-10.05338469245305
 20
8.874780930999861
 30
0.0
 11
-9.651384146098507
 21
15.70769853636625
 31
0.0
 11
-9.714037905064628
 21
15.63829447715767
 31
0.0
 11
-9.771329034672703
 21
15.56438340679369
 31
0.0
 11
-9.825128989830886
 21
15.48458341542709
 31
0.0
 11
-9.874205135344709
 21
15.40184188285718
 31
0.0
 11
-9.919903755155814
 21
15.31387909896767
 31
0.0
 11
-9.960725080605925
 21
15.22354596565287
 31
0.0
 11
-10.01690294295167
 21
15.07365734401509
 31
0.0
 11
-10.06138981177435
 21
14.91976411090166
 31
0.0
 11
-10.11430153249739
 21
14.67949713009244
 31
0.0
 11
-10.15446301758936
 21
14.43707224667952
 31
0.0
 11
-10.31335142158843
 21
12.59296225248778
 31
0.0
 11
-10.279658646543
 21
10.73886514726132
 31
0.0
 11
-10.05338469245305
 21
8.874780930999861
 31
0.0
  0
SPLINE
  5
20D
330
2
100
AcDbEntity
  8
GAIKEI
  6
Continuous
 62
     1
100
AcDbSpline
210
0.0
220
0.0
230
1.0
 70
    40
 71
     3
 72
     9
 73
     5
 74
     3
 42
0.0000000001
 43
0.0000000001
 44
0.00000001
 40
0.0
 40
0.0
 40
0.0
 40
0.0
 40
0.0750003619480137
 40
0.1500007238960174
 40
0.1500007238960174
 40
0.1500007238960174
 40
0.1500007238960174
 10
-7.912744797180039
 20
18.49254093422314
 30
0.0
 10
-7.91267397180448
 20
18.51754100351508
 30
0.0
 10
-7.912532341053292
 20
18.56754114212016
 30
0.0
 10
-7.912656212346924
 20
18.61754132787685
 30
0.0
 10
-7.912718157993708
 20
18.6425414207481
 30
0.0
 11
-7.912744797180039
 21
18.49254093422314
 31
0.0
 11
-7.912598706564494
 21
18.56754115390629
 31
0.0
 11
-7.912718157993708
 21
18.6425414207481
 31
0.0
  0
SPLINE
  5
20E
330
2
100
AcDbEntity
  8
GAIKEI
  6
Continuous
 62
     1
100
AcDbSpline
210
0.0
220
0.0
230
1.0
 70
    56
 71
     3
 72
     9
 73
     5
 74
     3
 42
0.0000000001
 43
0.0000000001
 44
0.00000001
 40
0.0
 40
0.0
 40
0.0
 40
0.0
 40
0.0250282465354527
 40
0.0500564930709067
 40
0.0500564930709067
 40
0.0500564930709067
 40
0.0500564930709067
 10
-8.395127422763039
 20
17.5925380150731
 30
0.0
 10
-8.395511620612509
 20
17.58420411740721
 30
0.0
 10
-8.396280016311465
 20
17.5675363220754
 30
0.0
 10
-8.397048412010462
 20
17.55086852674358
 30
0.0
 10
-8.397432609859947
 20
17.54253462907769
 30
0.0
 11
-8.395127422763039
 21
17.5925380150731
 31
0.0
 11
-8.396280016311493
 21
17.5675363220754
 31
0.0
 11
-8.397432609859947
 21
17.54253462907769
 31
0.0
  0
SPLINE
  5
20F
330
2
100
AcDbEntity
  8
GAIKEI
  6
Continuous
 62
     1
100
AcDbSpline
210
0.0
220
0.0
230
1.0
 70
    56
 71
     3
 72
     9
 73
     5
 74
     3
 42
0.0000000001
 43
0.0000000001
 44
0.00000001
 40
0.0
 40
0.0
 40
0.0
 40
0.0
 40
0.0250277361951731
 40
0.0500554723903261
 40
0.0500554723903261
 40
0.0500554723903261
 40
0.0500554723903261
 10
-8.397432609859947
 20
17.54253462907769
 30
0.0
 10
-8.397835945651436
 20
17.5342018060186
 30
0.0
 10
-8.398642617234486
 20
17.51753615990039
 30
0.0
 10
-8.399449288817642
 20
17.50087051378219
 30
0.0
 10
-8.399852624609252
 20
17.49253769072311
 30
0.0
 11
-8.397432609859947
 21
17.54253462907769
 31
0.0
 11
-8.398642617234486
 21
17.51753615990037
 31
0.0
 11
-8.399852624609252
 21
17.49253769072311
 31
0.0
  0
SPLINE
  5
210
330
2
100
AcDbEntity
  8
GAIKEI
  6
Continuous
 62
     1
100
AcDbSpline
210
0.0
220
0.0
230
1.0
 70
    56
 71
     3
 72
     9
 73
     5
 74
     3
 42
0.0000000001
 43
0.0000000001
 44
0.00000001
 40
0.0
 40
0.0
 40
0.0
 40
0.0
 40
0.0250142601089049
 40
0.0500285202178637
 40
0.0500285202178637
 40
0.0500285202178637
 40
0.0500285202178637
 10
-8.383712709599535
 20
17.89253898812313
 30
0.0
 10
-8.383981901961007
 20
17.88420524794608
 30
0.0
 10
-8.384520286683923
 20
17.86753776759195
 30
0.0
 10
-8.38505867140681
 20
17.85087028723779
 30
0.0
 10
-8.385327863768225
 20
17.84253654706072
 30
0.0
 11
-8.383712709599535
 21
17.89253898812313
 31
0.0
 11
-8.384520286683937
 21
17.86753776759195
 31
0.0
 11
-8.385327863768225
 21
17.84253654706072
 31
0.0
  0
SPLINE
  5
211
330
2
100
AcDbEntity
  8
GAIKEI
  6
Continuous
 62
     1
100
AcDbSpline
210
0.0
220
0.0
230
1.0
 70
    56
 71
     3
 72
     9
 73
     5
 74
     3
 42
0.0000000001
 43
0.0000000001
 44
0.00000001
 40
0.0
 40
0.0
 40
0.0
 40
0.0
 40
0.0250139006717888
 40
0.0500278013436879
 40
0.0500278013436879
 40
0.0500278013436879
 40
0.0500278013436879
 10
-8.385327863768225
 20
17.84253654706072
 30
0.0
 10
-8.385616181400088
 20
17.8342035665128
 30
0.0
 10
-8.386192816663779
 20
17.81753760541696
 30
0.0
 10
-8.386769451927392
 20
17.8008716443211
 30
0.0
 10
-8.387057769559191
 20
17.79253866377314
 30
0.0
 11
-8.385327863768225
 21
17.84253654706072
 31
0.0
 11
-8.386192816663765
 21
17.81753760541699
 31
0.0
 11
-8.387057769559191
 21
17.79253866377314
 31
0.0
  0
SPLINE
  5
212
330
2
100
AcDbEntity
  8
GAIKEI
  6
Continuous
 62
     1
100
AcDbSpline
210
0.0
220
0.0
230
1.0
 70
    56
 71
     3
 72
     9
 73
     5
 74
     3
 42
0.0000000001
 43
0.0000000001
 44
0.00000001
 40
0.0
 40
0.0
 40
0.0
 40
0.0
 40
0.035310937147675
 40
0.0706218742954398
 40
0.0706218742954398
 40
0.0706218742954398
 40
0.0706218742954398
 10
-8.222226785661632
 20
17.89253898812313
 30
0.0
 10
-8.218359629081874
 20
17.88142209316227
 30
0.0
 10
-8.210625315922357
 20
17.85918830324054
 30
0.0
 10
-8.202891002762846
 20
17.83695451331881
 30
0.0
 10
-8.199023846183081
 20
17.82583761835792
 30
0.0
 11
-8.222226785661632
 21
17.89253898812313
 31
0.0
 11
-8.210625315922357
 21
17.85918830324056
 31
0.0
 11
-8.199023846183081
 21
17.82583761835792
 31
0.0
  0
SPLINE
  5
213
330
2
100
AcDbEntity
  8
GAIKEI
  6
Continuous
 62
     1
100
AcDbSpline
210
0.0
220
0.0
230
1.0
 70
    40
 71
     3
 72
     9
 73
     5
 74
     3
 42
0.0000000001
 43
0.0000000001
 44
0.00000001
 40
0.0
 40
0.0
 40
0.0
 40
0.0
 40
0.0702549817778629
 40
0.1405099588796375
 40
0.1405099588796375
 40
0.1405099588796375
 40
0.1405099588796375
 10
-8.199023846183081
 20
17.82583761835792
 30
0.0
 10
-8.191473316789945
 20
17.80366960879891
 30
0.0
 10
-8.176372277465901
 20
17.75933358479096
 30
0.0
 10
-8.161853700136312
 20
17.71480342281256
 30
0.0
 10
-8.154594421206752
 20
17.69253833942309
 30
0.0
 11
-8.199023846183081
 21
17.82583761835792
 31
0.0
 11
-8.17651788298474
 21
17.75928505198169
 31
0.0
 11
-8.154594421206752
 21
17.69253833942309
 31
0.0
  0
SPLINE
  5
214
330
2
100
AcDbEntity
  8
GAIKEI
  6
Continuous
 62
     1
100
AcDbSpline
210
0.0
220
0.0
230
1.0
 70
    40
 71
     3
 72
     9
 73
     5
 74
     3
 42
0.0000000001
 43
0.0000000001
 44
0.00000001
 40
0.0
 40
0.0
 40
0.0
 40
0.0
 40
0.072158122945527
 40
0.1443162500676151
 40
0.1443162500676151
 40
0.1443162500676151
 40
0.1443162500676151
 10
-8.154594421206752
 20
17.69253833942309
 30
0.0
 10
-8.163657033541447
 20
17.67025798573238
 30
0.0
 10
-8.181782277229913
 20
17.62569728467325
 30
0.0
 10
-8.200458689092464
 20
17.58136476638715
 30
0.0
 10
-8.209796904525433
 20
17.55919851044678
 30
0.0
 11
-8.154594421206752
 21
17.69253833942309
 31
0.0
 11
-8.181920059501408
 21
17.62575432782768
 31
0.0
 11
-8.209796904525433
 21
17.55919851044678
 31
0.0
  0
SPLINE
  5
215
330
2
100
AcDbEntity
  8
GAIKEI
  6
Continuous
 62
     1
100
AcDbSpline
210
0.0
220
0.0
230
1.0
 70
    56
 71
     3
 72
     9
 73
     5
 74
     3
 42
0.0000000001
 43
0.0000000001
 44
0.00000001
 40
0.0
 40
0.0
 40
0.0
 40
0.0
 40
0.0362618310253061
 40
0.0725236620506067
 40
0.0725236620506067
 40
0.0725236620506067
 40
0.0725236620506067
 10
-8.209796904525433
 20
17.55919851044678
 30
0.0
 10
-8.214557905444358
 20
17.54808837382616
 30
0.0
 10
-8.224079907282217
 20
17.52586810058494
 30
0.0
 10
-8.233601909120054
 20
17.50364782734372
 30
0.0
 10
-8.238362910038972
 20
17.49253769072311
 30
0.0
 11
-8.209796904525433
 21
17.55919851044678
 31
0.0
 11
-8.224079907282202
 21
17.52586810058494
 31
0.0
 11
-8.238362910038972
 21
17.49253769072311
 31
0.0
  0
SPLINE
  5
216
330
2
100
AcDbEntity
  8
GAIKEI
  6
Continuous
 62
     1
100
AcDbSpline
210
0.0
220
0.0
230
1.0
 70
    40
 71
     3
 72
    11
 73
     7
 74
     5
 42
0.0000000001
 43
0.0000000001
 44
0.00000001
 40
0.0
 40
0.0
 40
0.0
 40
0.0
 40
0.0770200394807938
 40
0.1540398611438496
 40
0.2309570313582468
 40
0.3078744229310465
 40
0.3078744229310465
 40
0.3078744229310465
 40
0.3078744229310465
 10
-8.745080778102988
 20
18.34254044769813
 30
0.0
 10
-8.739096680250341
 20
18.31757418095824
 30
0.0
 10
-8.727128516061199
 20
18.26764171460931
 30
0.0
 10
-8.709671325379886
 20
18.19266100560323
 30
0.0
 10
-8.692547574323782
 20
18.11763853769099
 30
0.0
 10
-8.681463385994504
 20
18.0675725207642
 30
0.0
 10
-8.675921291174972
 20
18.04253947464815
 30
0.0
 11
-8.745080778102988
 21
18.34254044769813
 31
0.0
 11
-8.7272097043558
 21
18.26762241776907
 31
0.0
 11
-8.709717921180867
 21
18.19261514839917
 31
0.0
 11
-8.692629224509687
 21
18.11762029839042
 31
0.0
 11
-8.675921291174972
 21
18.04253947464815
 31
0.0
  0
SPLINE
  5
217
330
2
100
AcDbEntity
  8
GAIKEI
  6
Continuous
 62
     1
100
AcDbSpline
210
0.0
220
0.0
230
1.0
 70
    40
 71
     3
 72
    11
 73
     7
 74
     5
 42
0.0000000001
 43
0.0000000001
 44
0.00000001
 40
0.0
 40
0.0
 40
0.0
 40
0.0
 40
0.0757309807599067
 40
0.151461729412528
 40
0.227010531531154
 40
0.3025595706106718
 40
0.3025595706106718
 40
0.3025595706106718
 40
0.3025595706106718
 10
-7.937605971987068
 20
18.34254044769813
 30
0.0
 10
-7.934107154825554
 20
18.31754036770985
 30
0.0
 10
-7.927109546085965
 20
18.26754028229901
 30
0.0
 10
-7.917129320879162
 20
18.19253068443021
 30
0.0
 10
-7.907496561401352
 20
18.11753681484661
 30
0.0
 10
-7.901420209637969
 20
18.06753861479501
 30
0.0
 10
-7.898382036434554
 20
18.04253947464815
 30
0.0
 11
-7.937605971987068
 21
18.34254044769813
 31
0.0
 11
-7.927194223006267
 21
18.26752860240822
 31
0.0
 11
-7.917178048598088
 21
18.19246314730492
 31
0.0
 11
-7.907581646294602
 21
18.11752630341254
 31
0.0
 11
-7.898382036434554
 21
18.04253947464815
 31
0.0
  0
SPLINE
  5
218
330
2
100
AcDbEntity
  8
GAIKEI
  6
Continuous
 62
     1
100
AcDbSpline
210
0.0
220
0.0
230
1.0
 70
    40
 71
     3
 72
    15
 73
    11
 74
     9
 42
0.0000000001
 43
0.0000000001
 44
0.00000001
 40
0.0
 40
0.0
 40
0.0
 40
0.0
 40
0.0428194581390109
 40
0.0846546039783222
 40
0.119589655186303
 40
0.1541256032003405
 40
0.1940625309914716
 40
0.2339828677478574
 40
0.3008914468037906
 40
0.36793294519143
 40
0.36793294519143
 40
0.36793294519143
 40
0.36793294519143
 10
-8.988498682496469
 20
17.34253720419815
 30
0.0
 10
-9.002802699922959
 20
17.34482284109752
 30
0.0
 10
-9.031081917278513
 20
17.34934158691428
 30
0.0
 10
-9.063583625975226
 20
17.37471368784007
 30
0.0
 10
-9.086790565895881
 20
17.40367361402634
 30
0.0
 10
-9.10510684504787
 20
17.43539117373682
 30
0.0
 10
-9.119481416219073
 20
17.47081866574997
 30
0.0
 10
-9.132844556617676
 20
17.51793181765004
 30
0.0
 10
-9.14212934386726
 20
17.57545531961504
 30
0.0
 10
-9.141719326520352
 20
17.6201624369171
 30
0.0
 10
-9.141514110120397
 20
17.64253817724813
 30
0.0
 11
-8.988498682496469
 21
17.34253720419815
 31
0.0
 11
-9.030061897890504
 21
17.35283310774685
 31
0.0
 11
-9.064016277247674
 21
17.37727242302588
 31
0.0
 11
-9.086152030237713
 21
17.40429956413516
 31
0.0
 11
-9.103533949368852
 21
17.43414249654358
 31
0.0
 11
-9.118792282155368
 21
17.47104969764814
 31
0.0
 11
-9.129825610384386
 21
17.5094150330259
 31
0.0
 11
-9.140235243516144
 21
17.57550888604856
 31
0.0
 11
-9.141514110120397
 21
17.64253817724813
 31
0.0
  0
SPLINE
  5
219
330
2
100
AcDbEntity
  8
GAIKEI
  6
Continuous
 62
     1
100
AcDbSpline
210
0.0
220
0.0
230
1.0
 70
    40
 71
     3
 72
    11
 73
     7
 74
     5
 42
0.0000000001
 43
0.0000000001
 44
0.00000001
 40
0.0
 40
0.0
 40
0.0
 40
0.0
 40
0.051111934901314
 40
0.1022238697794214
 40
0.1440177346325057
 40
0.1858115994956023
 40
0.1858115994956023
 40
0.1858115994956023
 40
0.1858115994956023
 10
-9.261087320214869
 20
18.6425414207481
 30
0.0
 10
-9.249479455035206
 20
18.6300703560795
 30
0.0
 10
-9.226263735777727
 20
18.60512821641995
 30
0.0
 10
-9.193559681789722
 20
18.56998547318868
 30
0.0
 10
-9.162973716332075
 20
18.53711453341279
 30
0.0
 10
-9.143995575030061
 20
18.5167146969727
 30
0.0
 10
-9.134506509821335
 20
18.50651477368717
 30
0.0
 11
-9.261087320214869
 21
18.6425414207481
 31
0.0
 11
-9.226264319246297
 21
18.60512767336945
 31
0.0
 11
-9.191444134473385
 21
18.56771130503358
 31
0.0
 11
-9.162974195550759
 21
18.53711408755936
 31
0.0
 11
-9.134506509821335
 21
18.50651477368717
 31
0.0
  0
SPLINE
  5
21A
330
2
100
AcDbEntity
  8
GAIKEI
  6
Continuous
 62
     1
100
AcDbSpline
210
0.0
220
0.0
230
1.0
 70
    56
 71
     3
 72
     9
 73
     5
 74
     3
 42
0.0000000001
 43
0.0000000001
 44
0.00000001
 40
0.0
 40
0.0
 40
0.0
 40
0.0
 40
0.0095427180863695
 40
0.0190854361727583
 40
0.0190854361727583
 40
0.0190854361727583
 40
0.0190854361727583
 10
-9.134506509821335
 20
18.50651477368717
 30
0.0
 10
-9.132339934922399
 20
18.50418580044317
 30
0.0
 10
-9.128006785124512
 20
18.49952785395517
 30
0.0
 10
-9.123673635326639
 20
18.49486990746713
 30
0.0
 10
-9.121507060427688
 20
18.49254093422314
 30
0.0
 11
-9.134506509821335
 21
18.50651477368717
 31
0.0
 11
-9.128006785124512
 21
18.49952785395515
 31
0.0
 11
-9.121507060427688
 21
18.49254093422314
 31
0.0
  0
SPLINE
  5
21B
330
2
100
AcDbEntity
  8
GAIKEI
  6
Continuous
 62
     1
100
AcDbSpline
210
0.0
220
0.0
230
1.0
 70
    56
 71
     3
 72
     9
 73
     5
 74
     3
 42
0.0000000001
 43
0.0000000001
 44
0.00000001
 40
0.0
 40
0.0
 40
0.0
 40
0.0
 40
0.0356466900148178
 40
0.0712933800296694
 40
0.0712933800296694
 40
0.0712933800296694
 40
0.0712933800296694
 10
-8.399852624609252
 20
17.49253769072311
 30
0.0
 10
-8.404062828626607
 20
17.50364901701759
 30
0.0
 10
-8.412483236661394
 20
17.52587166960654
 30
0.0
 10
-8.420903644696281
 20
17.54809432219547
 30
0.0
 10
-8.425113848713749
 20
17.55920564848992
 30
0.0
 11
-8.399852624609252
 21
17.49253769072311
 31
0.0
 11
-8.412483236661387
 21
17.52587166960654
 31
0.0
 11
-8.425113848713749
 21
17.55920564848992
 31
0.0
  0
SPLINE
  5
21C
330
2
100
AcDbEntity
  8
GAIKEI
  6
Continuous
 62
     1
100
AcDbSpline
210
0.0
220
0.0
230
1.0
 70
    40
 71
     3
 72
     9
 73
     5
 74
     3
 42
0.0000000001
 43
0.0000000001
 44
0.00000001
 40
0.0
 40
0.0
 40
0.0
 40
0.0
 40
0.0716412396214654
 40
0.1432824833112287
 40
0.1432824833112287
 40
0.1432824833112287
 40
0.1432824833112287
 10
-8.425113848713749
 20
17.55920564848992
 30
0.0
 10
-8.433717146363697
 20
17.58148276551101
 30
0.0
 10
-8.450923760778501
 20
17.62603699353499
 30
0.0
 10
-8.468689532134526
 20
17.67037122616123
 30
0.0
 10
-8.477572427362588
 20
17.69253833942309
 30
0.0
 11
-8.425113848713749
 21
17.55920564848992
 31
0.0
 11
-8.451063540211634
 21
17.62598199708486
 31
0.0
 11
-8.477572427362588
 21
17.69253833942309
 31
0.0
  0
SPLINE
  5
21D
330
2
100
AcDbEntity
  8
GAIKEI
  6
Continuous
 62
     1
100
AcDbSpline
210
0.0
220
0.0
230
1.0
 70
    40
 71
     3
 72
     9
 73
     5
 74
     3
 42
0.0000000001
 43
0.0000000001
 44
0.00000001
 40
0.0
 40
0.0
 40
0.0
 40
0.0
 40
0.0737592151493149
 40
0.1475184267074713
 40
0.1475184267074713
 40
0.1475184267074713
 40
0.1475184267074713
 10
-8.477572427362588
 20
17.69253833942309
 30
0.0
 10
-8.46690649841571
 20
17.7146910183053
 30
0.0
 10
-8.445574659095427
 20
17.75899638359563
 30
0.0
 10
-8.424771948259007
 20
17.80355263999304
 30
0.0
 10
-8.414370602138092
 20
17.82583077191577
 30
0.0
 11
-8.477572427362588
 21
17.69253833942309
 31
0.0
 11
-8.445706931667814
 21
17.75905910316964
 31
0.0
 11
-8.414370602138092
 21
17.82583077191577
 31
0.0
  0
SPLINE
  5
21E
330
2
100
AcDbEntity
  8
GAIKEI
  6
Continuous
 62
     1
100
AcDbSpline
210
0.0
220
0.0
230
1.0
 70
    56
 71
     3
 72
     9
 73
     5
 74
     3
 42
0.0000000001
 43
0.0000000001
 44
0.00000001
 40
0.0
 40
0.0
 40
0.0
 40
0.0
 40
0.0367079435697515
 40
0.0734158871394574
 40
0.0734158871394574
 40
0.0734158871394574
 40
0.0734158871394574
 10
-8.414370602138092
 20
17.82583077191577
 30
0.0
 10
-8.409260953381675
 20
17.83694880795033
 30
0.0
 10
-8.399041655868835
 20
17.85918488001947
 30
0.0
 10
-8.388822358355966
 20
17.88142095208859
 30
0.0
 10
-8.383712709599535
 20
17.89253898812313
 30
0.0
 11
-8.414370602138092
 21
17.82583077191577
 31
0.0
 11
-8.399041655868813
 21
17.85918488001948
 31
0.0
 11
-8.383712709599535
 21
17.89253898812313
 31
0.0
  0
SPLINE
  5
21F
330
2
100
AcDbEntity
  8
GAIKEI
  6
Continuous
 62
     1
100
AcDbSpline
210
0.0
220
0.0
230
1.0
 70
    40
 71
     3
 72
     9
 73
     5
 74
     3
 42
0.0000000001
 43
0.0000000001
 44
0.00000001
 40
0.0
 40
0.0
 40
0.0
 40
0.0
 40
0.050028147642352
 40
0.1000562952856564
 40
0.1000562952856564
 40
0.1000562952856564
 40
0.1000562952856564
 10
-8.225571061188816
 20
17.79253866377314
 30
0.0
 10
-8.224984994773869
 20
17.80920442511959
 30
0.0
 10
-8.22381288193236
 20
17.84253594849274
 30
0.0
 10
-8.222755477755484
 20
17.87587130802723
 30
0.0
 10
-8.222226785661632
 20
17.89253898812313
 30
0.0
 11
-8.225571061188816
 21
17.79253866377314
 31
0.0
 11
-8.223841549104122
 21
17.8425369071985
 31
0.0
 11
-8.222226785661632
 21
17.89253898812313
 31
0.0
  0
SPLINE
  5
220
330
2
100
AcDbEntity
  8
GAIKEI
  6
Continuous
 62
     1
100
AcDbSpline
210
0.0
220
0.0
230
1.0
 70
    40
 71
     3
 72
     9
 73
     5
 74
     3
 42
0.0000000001
 43
0.0000000001
 44
0.00000001
 40
0.0
 40
0.0
 40
0.0
 40
0.0
 40
0.0500559564802703
 40
0.1001119129618761
 40
0.1001119129618761
 40
0.1001119129618761
 40
0.1001119129618761
 10
-8.238362910038972
 20
17.49253769072311
 30
0.0
 10
-8.237546849452954
 20
17.50920305506014
 30
0.0
 10
-8.235914748258075
 20
17.54253378468988
 30
0.0
 10
-8.234397455737607
 20
17.57586993796777
 30
0.0
 10
-8.233638819466477
 20
17.5925380150731
 30
0.0
 11
-8.238362910038972
 21
17.49253769072311
 31
0.0
 11
-8.235943440437836
 21
17.54253514012958
 31
0.0
 11
-8.233638819466477
 21
17.5925380150731
 31
0.0
  0
SPLINE
  5
221
330
2
100
AcDbEntity
  8
GAIKEI
  6
Continuous
 62
     1
100
AcDbSpline
210
0.0
220
0.0
230
1.0
 70
    40
 71
     3
 72
    11
 73
     7
 74
     5
 42
0.0000000001
 43
0.0000000001
 44
0.00000001
 40
0.0
 40
0.0
 40
0.0
 40
0.0
 40
0.0777929476027069
 40
0.1555856798133649
 40
0.2332883546830036
 40
0.31099124824616
 40
0.31099124824616
 40
0.31099124824616
 40
0.31099124824616
 10
-8.827007181990438
 20
18.04253947464815
 30
0.0
 10
-8.81996142367344
 20
18.06749496146196
 30
0.0
 10
-8.805869940989779
 20
18.11740587004843
 30
0.0
 10
-8.785222629441371
 20
18.19237789746634
 30
0.0
 10
-8.764905458001749
 20
18.26740896865752
 30
0.0
 10
-8.751689006103092
 20
18.31749659657356
 30
0.0
 10
-8.745080778102988
 20
18.34254044769813
 30
0.0
 11
-8.827007181990438
 21
18.04253947464815
 31
0.0
 11
-8.805950234132865
 21
18.11742837667873
 31
0.0
 11
-8.785268416736471
 21
18.19242152051157
 31
0.0
 11
-8.764986243328053
 21
18.26743044752487
 31
0.0
 11
-8.745080778102988
 21
18.34254044769813
 31
0.0
  0
SPLINE
  5
222
330
2
100
AcDbEntity
  8
GAIKEI
  6
Continuous
 62
     1
100
AcDbSpline
210
0.0
220
0.0
230
1.0
 70
    40
 71
     3
 72
    11
 73
     7
 74
     5
 42
0.0000000001
 43
0.0000000001
 44
0.00000001
 40
0.0
 40
0.0
 40
0.0
 40
0.0
 40
0.0762038891550511
 40
0.15240755424944
 40
0.2284408160280248
 40
0.3044743063725643
 40
0.3044743063725643
 40
0.3044743063725643
 40
0.3044743063725643
 10
-7.989576338702363
 20
18.04253947464815
 30
0.0
 10
-7.985019119520231
 20
18.06752868938224
 30
0.0
 10
-7.975904709317475
 20
18.1175070480448
 30
0.0
 10
-7.962740445502205
 20
18.1925078840087
 30
0.0
 10
-7.949918424035224
 20
18.26751036742479
 30
0.0
 10
-7.941710121850078
 20
18.31753039506238
 30
0.0
 10
-7.937605971987068
 20
18.34254044769813
 30
0.0
 11
-7.989576338702363
 21
18.04253947464815
 31
0.0
 11
-7.975987607196429
 21
18.11752199995999
 31
0.0
 11
-7.962786164465683
 21
18.1925734522556
 31
0.0
 11
-7.950001760594659
 21
18.26752420890551
 31
0.0
 11
-7.937605971987068
 21
18.34254044769813
 31
0.0
  0
SPLINE
  5
223
330
2
100
AcDbEntity
  8
GAIKEI
  6
Continuous
 62
     1
100
AcDbSpline
210
0.0
220
0.0
230
1.0
 70
    40
 71
     3
 72
    15
 73
    11
 74
     9
 42
0.0000000001
 43
0.0000000001
 44
0.00000001
 40
0.0
 40
0.0
 40
0.0
 40
0.0
 40
0.0675512706980629
 40
0.1351534804619543
 40
0.1735736779341048
 40
0.2118517461995328
 40
0.2412415171303483
 40
0.2712438373705142
 40
0.2969250447917631
 40
0.3231811027992782
 40
0.3231811027992782
 40
0.3231811027992782
 40
0.3231811027992782
 10
-7.745887842191336
 20
17.64253817724813
 30
0.0
 10
-7.747196110325134
 20
17.62005453809574
 30
0.0
 10
-7.749813623587556
 20
17.57507030468379
 30
0.0
 10
-7.757188651331183
 20
17.51762601337714
 30
0.0
 10
-7.765893206379061
 20
17.47030601043622
 30
0.0
 10
-7.77411992258451
 20
17.43589558353598
 30
0.0
 10
-7.784040605085863
 20
17.40481962466025
 30
0.0
 10
-7.793378680102257
 20
17.37822328730544
 30
0.0
 10
-7.808063116815922
 20
17.35393446159645
 30
0.0
 10
-7.824043831887429
 20
17.34636421696706
 30
0.0
 10
-7.83212263192297
 20
17.34253720419815
 30
0.0
 11
-7.745887842191336
 21
17.64253817724813
 31
0.0
 11
-7.750593320845041
 21
17.57515100026097
 31
0.0
 11
-7.759197271334983
 21
17.50809855187589
 31
0.0
 11
-7.766233268243809
 21
17.47032810950054
 31
0.0
 11
-7.775329442115548
 21
17.43314652643903
 31
0.0
 11
-7.784097527188237
 21
17.4050951574668
 31
0.0
 11
-7.794975596270091
 21
17.37713435017099
 31
0.0
 11
-7.80959161566443
 21
17.35601809389681
 31
0.0
 11
-7.83212263192297
 21
17.34253720419815
 31
0.0
  0
SPLINE
  5
224
330
2
100
AcDbEntity
  8
GAIKEI
  6
Continuous
 62
     1
100
AcDbSpline
210
0.0
220
0.0
230
1.0
 70
    56
 71
     3
 72
     9
 73
     5
 74
     3
 42
0.0000000001
 43
0.0000000001
 44
0.00000001
 40
0.0
 40
0.0
 40
0.0
 40
0.0
 40
0.0142840357370941
 40
0.0285680714741881
 40
0.0285680714741881
 40
0.0285680714741881
 40
0.0285680714741881
 10
-7.860035746928815
 20
17.34253720419815
 30
0.0
 10
-7.856005509211783
 20
17.34507247390627
 30
0.0
 10
-7.847945033777712
 20
17.35014301332251
 30
0.0
 10
-7.839884558343626
 20
17.35521355273874
 30
0.0
 10
-7.835854320626594
 20
17.35774882244686
 30
0.0
 11
-7.860035746928815
 21
17.34253720419815
 31
0.0
 11
-7.847945033777705
 21
17.35014301332251
 31
0.0
 11
-7.835854320626594
 21
17.35774882244686
 31
0.0
  0
SPLINE
  5
225
330
2
100
AcDbEntity
  8
GAIKEI
  6
Continuous
 62
     1
100
AcDbSpline
210
0.0
220
0.0
230
1.0
 70
    40
 71
     3
 72
    13
 73
     9
 74
     7
 42
0.0000000001
 43
0.0000000001
 44
0.00000001
 40
0.0
 40
0.0
 40
0.0
 40
0.0
 40
0.0421458361082257
 40
0.0841337621829741
 40
0.1224807957766633
 40
0.1607340025744594
 40
0.2274658615168973
 40
0.2942616064943247
 40
0.2942616064943247
 40
0.2942616064943247
 40
0.2942616064943247
 10
-7.835854320626594
 20
17.35774882244686
 30
0.0
 10
-7.828808624048512
 20
17.36994613004103
 30
0.0
 10
-7.814743641891489
 20
17.39429505176721
 30
0.0
 10
-7.802261058472147
 20
17.43342556043633
 30
0.0
 10
-7.793691885395269
 20
17.47199854147564
 30
0.0
 10
-7.785123545020908
 20
17.51901718503173
 30
0.0
 10
-7.777753476021437
 20
17.57585682218962
 30
0.0
 10
-7.775211667888179
 20
17.6203039704077
 30
0.0
 10
-7.773940154218621
 20
17.64253817724813
 30
0.0
 11
-7.835854320626594
 21
17.35774882244686
 31
0.0
 11
-7.816095021731371
 21
17.39497571832851
 31
0.0
 11
-7.802540775156899
 21
17.43471573567757
 31
0.0
 11
-7.793924695212012
 21
17.4720822730984
 31
0.0
 11
-7.787061212751495
 21
17.50971471084335
 31
0.0
 11
-7.778552219027801
 21
17.57590185740037
 31
0.0
 11
-7.773940154218621
 21
17.64253817724813
 31
0.0
  0
SPLINE
  5
226
330
2
100
AcDbEntity
  8
GAIKEI
  6
Continuous
 62
     1
100
AcDbSpline
210
0.0
220
0.0
230
1.0
 70
    40
 71
     3
 72
     9
 73
     5
 74
     3
 42
0.0000000001
 43
0.0000000001
 44
0.00000001
 40
0.0
 40
0.0
 40
0.0
 40
0.0
 40
0.0716429184386061
 40
0.1432858327691782
 40
0.1432858327691782
 40
0.1432858327691782
 40
0.1432858327691782
 10
-8.505143842830079
 20
17.69253833942309
 30
0.0
 10
-8.496259233214573
 20
17.67037131029269
 30
0.0
 10
-8.478490033088263
 20
17.62603724594054
 30
0.0
 10
-8.461281486606438
 20
17.58148256422146
 30
0.0
 10
-8.452677222925217
 20
17.55920522035853
 30
0.0
 11
-8.505143842830079
 21
17.69253833942309
 31
0.0
 11
-8.478630186692498
 21
17.62598209398629
 31
0.0
 11
-8.452677222925217
 21
17.55920522035853
 31
0.0
  0
SPLINE
  5
227
330
2
100
AcDbEntity
  8
GAIKEI
  6
Continuous
 62
     1
100
AcDbSpline
210
0.0
220
0.0
230
1.0
 70
    56
 71
     3
 72
     9
 73
     5
 74
     3
 42
0.0000000001
 43
0.0000000001
 44
0.00000001
 40
0.0
 40
0.0
 40
0.0
 40
0.0
 40
0.0356466934861802
 40
0.0712933869723654
 40
0.0712933869723654
 40
0.0712933869723654
 40
0.0712933869723654
 10
-8.452677222925217
 20
17.55920522035853
 30
0.0
 10
-8.448466827330513
 20
17.54809396541929
 30
0.0
 10
-8.440046036141119
 20
17.52587145554081
 30
0.0
 10
-8.431625244951689
 20
17.50364894566235
 30
0.0
 10
-8.427414849356978
 20
17.49253769072311
 30
0.0
 11
-8.452677222925217
 21
17.55920522035853
 31
0.0
 11
-8.440046036141097
 21
17.52587145554082
 31
0.0
 11
-8.427414849356978
 21
17.49253769072311
 31
0.0
  0
SPLINE
  5
228
330
2
100
AcDbEntity
  8
GAIKEI
  6
Continuous
 62
     1
100
AcDbSpline
210
0.0
220
0.0
230
1.0
 70
    56
 71
     3
 72
     9
 73
     5
 74
     3
 42
0.0000000001
 43
0.0000000001
 44
0.00000001
 40
0.0
 40
0.0
 40
0.0
 40
0.0
 40
0.0367102892099205
 40
0.0734205784197576
 40
0.0734205784197576
 40
0.0734205784197576
 40
0.0734205784197576
 10
-8.411250599848358
 20
17.89253898812313
 30
0.0
 10
-8.416361870908374
 20
17.88142083726151
 30
0.0
 10
-8.426584413028407
 20
17.8591845355383
 30
0.0
 10
-8.436806955148469
 20
17.83694823381511
 30
0.0
 10
-8.441918226208485
 20
17.82583008295353
 30
0.0
 11
-8.411250599848358
 21
17.89253898812313
 31
0.0
 11
-8.426584413028422
 21
17.8591845355383
 31
0.0
 11
-8.441918226208485
 21
17.82583008295353
 31
0.0
  0
SPLINE
  5
229
330
2
100
AcDbEntity
  8
GAIKEI
  6
Continuous
 62
     1
100
AcDbSpline
210
0.0
220
0.0
230
1.0
 70
    40
 71
     3
 72
     9
 73
     5
 74
     3
 42
0.0000000001
 43
0.0000000001
 44
0.00000001
 40
0.0
 40
0.0
 40
0.0
 40
0.0
 40
0.0737640006965692
 40
0.1475280050021342
 40
0.1475280050021342
 40
0.1475280050021342
 40
0.1475280050021342
 10
-8.441918226208485
 20
17.82583008295353
 30
0.0
 10
-8.452323195793972
 20
17.80355187980976
 30
0.0
 10
-8.473133153560972
 20
17.75899548096751
 30
0.0
 10
-8.494473606882081
 20
17.7146907174301
 30
0.0
 10
-8.505143842830079
 20
17.69253833942309
 30
0.0
 11
-8.441918226208485
 21
17.82583008295353
 31
0.0
 11
-8.473265767898851
 21
17.75905838659491
 31
0.0
 11
-8.505143842830079
 21
17.69253833942309
 31
0.0
  0
SPLINE
  5
22A
330
2
100
AcDbEntity
  8
GAIKEI
  6
Continuous
 62
     1
100
AcDbSpline
210
0.0
220
0.0
230
1.0
 70
    56
 71
     3
 72
     9
 73
     5
 74
     3
 42
0.0000000001
 43
0.0000000001
 44
0.00000001
 40
0.0
 40
0.0
 40
0.0
 40
0.0
 40
0.0250142786932136
 40
0.050028557386456
 40
0.050028557386456
 40
0.050028557386456
 40
0.050028557386456
 10
-8.249758199609573
 20
17.89253898812313
 30
0.0
 10
-8.250027733730462
 20
17.88420525279441
 30
0.0
 10
-8.250566801972212
 20
17.86753778213703
 30
0.0
 10
-8.251105870214011
 20
17.85087031147957
 30
0.0
 10
-8.251375404334908
 20
17.84253657615085
 30
0.0
 11
-8.249758199609573
 21
17.89253898812313
 31
0.0
 11
-8.25056680197224
 21
17.86753778213699
 31
0.0
 11
-8.251375404334908
 21
17.84253657615085
 31
0.0
  0
SPLINE
  5
22B
330
2
100
AcDbEntity
  8
GAIKEI
  6
Continuous
 62
     1
100
AcDbSpline
210
0.0
220
0.0
230
1.0
 70
    56
 71
     3
 72
     9
 73
     5
 74
     3
 42
0.0000000001
 43
0.0000000001
 44
0.00000001
 40
0.0
 40
0.0
 40
0.0
 40
0.0
 40
0.0250139532443052
 40
0.0500279064886353
 40
0.0500279064886353
 40
0.0500279064886353
 40
0.0500279064886353
 10
-8.251375404334908
 20
17.84253657615085
 30
0.0
 10
-8.251664088394605
 20
17.83420359075457
 30
0.0
 10
-8.252241456513964
 20
17.81753761996199
 30
0.0
 10
-8.252818824633266
 20
17.80087164916944
 30
0.0
 10
-8.253107508692892
 20
17.79253866377314
 30
0.0
 11
-8.251375404334908
 21
17.84253657615085
 31
0.0
 11
-8.252241456513957
 21
17.81753761996202
 31
0.0
 11
-8.253107508692892
 21
17.79253866377314
 31
0.0
  0
SPLINE
  5
22C
330
2
100
AcDbEntity
  8
GAIKEI
  6
Continuous
 62
     1
100
AcDbSpline
210
0.0
220
0.0
230
1.0
 70
    56
 71
     3
 72
     9
 73
     5
 74
     3
 42
0.0000000001
 43
0.0000000001
 44
0.00000001
 40
0.0
 40
0.0
 40
0.0
 40
0.0
 40
0.0250283002905107
 40
0.0500566005809726
 40
0.0500566005809726
 40
0.0500566005809726
 40
0.0500566005809726
 10
-8.261187417570113
 20
17.5925380150731
 30
0.0
 10
-8.261572103694433
 20
17.58420412199388
 30
0.0
 10
-8.262341475943109
 20
17.56753633583544
 30
0.0
 10
-8.263110848191914
 20
17.55086854967702
 30
0.0
 10
-8.263495534316348
 20
17.54253465659781
 30
0.0
 11
-8.261187417570113
 21
17.5925380150731
 31
0.0
 11
-8.262341475943117
 21
17.56753633583542
 31
0.0
 11
-8.263495534316348
 21
17.54253465659781
 31
0.0
  0
SPLINE
  5
22D
330
2
100
AcDbEntity
  8
GAIKEI
  6
Continuous
 62
     1
100
AcDbSpline
210
0.0
220
0.0
230
1.0
 70
    56
 71
     3
 72
     9
 73
     5
 74
     3
 42
0.0000000001
 43
0.0000000001
 44
0.00000001
 40
0.0
 40
0.0
 40
0.0
 40
0.0
 40
0.0250278244128609
 40
0.0500556488257184
 40
0.0500556488257184
 40
0.0500556488257184
 40
0.0500556488257184
 10
-8.263495534316348
 20
17.54253465659781
 30
0.0
 10
-8.263899383252919
 20
17.53420182895203
 30
0.0
 10
-8.264707081126047
 20
17.51753617366046
 30
0.0
 10
-8.265514778999133
 20
17.5008705183689
 30
0.0
 10
-8.265918627935661
 20
17.49253769072311
 30
0.0
 11
-8.263495534316348
 21
17.54253465659781
 31
0.0
 11
-8.264707081126061
 21
17.51753617366046
 31
0.0
 11
-8.265918627935661
 21
17.49253769072311
 31
0.0
  0
SPLINE
  5
22E
330
2
100
AcDbEntity
  8
GAIKEI
  6
Continuous
 62
     1
100
AcDbSpline
210
0.0
220
0.0
230
1.0
 70
    40
 71
     3
 72
    11
 73
     7
 74
     5
 42
0.0000000001
 43
0.0000000001
 44
0.00000001
 40
0.0
 40
0.0
 40
0.0
 40
0.0
 40
0.0777074003724863
 40
0.1554145759839927
 40
0.2294629644262956
 40
0.3035114962064066
 40
0.3035114962064066
 40
0.3035114962064066
 40
0.3035114962064066
 10
-8.772774099716002
 20
18.34254044769813
 30
0.0
 10
-8.779387218344425
 20
18.31749633410083
 30
0.0
 10
-8.792613451004825
 20
18.26740818320365
 30
0.0
 10
-8.812619475866625
 20
18.1935828095221
 30
0.0
 10
-8.832611575084406
 20
18.1210180288178
 30
0.0
 10
-8.84601541396136
 20
18.07350682909224
 30
0.0
 10
-8.852717347091129
 20
18.04975120825935
 30
0.0
 11
-8.772774099716002
 21
18.34254044769813
 31
0.0
 11
-8.792694407665635
 21
18.26742972005309
 31
0.0
 11
-8.812992221905801
 21
18.1924203613936
 31
0.0
 11
-8.832684484638889
 21
18.12103844052683
 31
0.0
 11
-8.852717347091129
 21
18.04975120825935
 31
0.0
  0
SPLINE
  5
22F
330
2
100
AcDbEntity
  8
GAIKEI
  6
Continuous
 62
     1
100
AcDbSpline
210
0.0
220
0.0
230
1.0
 70
    56
 71
     3
 72
     9
 73
     5
 74
     3
 42
0.0000000001
 43
0.0000000001
 44
0.00000001
 40
0.0
 40
0.0
 40
0.0
 40
0.0
 40
0.0037483160765978
 40
0.0074966321531722
 40
0.0074966321531722
 40
0.0074966321531722
 40
0.0074966321531722
 10
-8.852717347091129
 20
18.04975120825935
 30
0.0
 10
-8.853058521206051
 20
18.04854925265748
 30
0.0
 10
-8.853740869435895
 20
18.04614534145375
 30
0.0
 10
-8.854423217665754
 20
18.04374143025001
 30
0.0
 10
-8.85476439178069
 20
18.04253947464815
 30
0.0
 11
-8.852717347091129
 21
18.04975120825935
 31
0.0
 11
-8.85374086943591
 21
18.04614534145372
 31
0.0
 11
-8.85476439178069
 21
18.04253947464815
 31
0.0
  0
SPLINE
  5
230
330
2
100
AcDbEntity
  8
GAIKEI
  6
Continuous
 62
     1
100
AcDbSpline
210
0.0
220
0.0
230
1.0
 70
    40
 71
     3
 72
    11
 73
     7
 74
     5
 42
0.0000000001
 43
0.0000000001
 44
0.00000001
 40
0.0
 40
0.0
 40
0.0
 40
0.0
 40
0.0760319620154573
 40
0.1520636908990213
 40
0.2258159116929705
 40
0.2995683055395381
 40
0.2995683055395381
 40
0.2995683055395381
 40
0.2995683055395381
 10
-7.96526644682342
 20
18.34254044769813
 30
0.0
 10
-7.969367197833655
 20
18.31753035390547
 30
0.0
 10
-7.977568702100626
 20
18.26751024545977
 30
0.0
 10
-7.990244095774684
 20
18.1933127309761
 30
0.0
 10
-8.003112554504753
 20
18.11991983291958
 30
0.0
 10
-8.011915453675754
 20
18.07154594703048
 30
0.0
 10
-8.016316915795187
 20
18.04735897704017
 30
0.0
 11
-7.96526644682342
 21
18.34254044769813
 31
0.0
 11
-7.977652221085463
 21
18.26752410382886
 31
0.0
 11
-7.990427463676496
 21
18.19257334011172
 31
0.0
 11
-8.003190386337792
 21
18.11993383374801
 31
0.0
 11
-8.016316915795187
 21
18.04735897704017
 31
0.0
  0
SPLINE
  5
231
330
2
100
AcDbEntity
  8
GAIKEI
  6
Continuous
 62
     1
100
AcDbSpline
210
0.0
220
0.0
230
1.0
 70
    56
 71
     3
 72
     9
 73
     5
 74
     3
 42
0.0000000001
 43
0.0000000001
 44
0.00000001
 40
0.0
 40
0.0
 40
0.0
 40
0.0
 40
0.0024500380629399
 40
0.0049000761259231
 40
0.0049000761259231
 40
0.0049000761259231
 40
0.0049000761259231
 10
-8.016316915795187
 20
18.04735897704017
 30
0.0
 10
-8.016464408048548
 20
18.0465557266415
 30
0.0
 10
-8.0167593925553
 20
18.04494922584416
 30
0.0
 10
-8.017054377062081
 20
18.04334272504682
 30
0.0
 10
-8.017201869315499
 20
18.04253947464815
 30
0.0
 11
-8.016316915795187
 21
18.04735897704017
 31
0.0
 11
-8.016759392555286
 21
18.04494922584416
 31
0.0
 11
-8.017201869315499
 21
18.04253947464815
 31
0.0
  0
SPLINE
  5
232
330
2
100
AcDbEntity
  8
GAIKEI
  6
Continuous
 62
     1
100
AcDbSpline
210
0.0
220
0.0
230
1.0
 70
    40
 71
     3
 72
    11
 73
     7
 74
     5
 42
0.0000000001
 43
0.0000000001
 44
0.00000001
 40
0.0
 40
0.0
 40
0.0
 40
0.0
 40
0.2125850980046542
 40
0.4251678611072549
 40
0.6377285148112814
 40
0.8502915056625941
 40
0.8502915056625941
 40
0.8502915056625941
 40
0.8502915056625941
 10
-7.753900581510492
 20
18.49254093422314
 30
0.0
 10
-7.75436293205751
 20
18.42168008189709
 30
0.0
 10
-7.75528764307235
 20
18.27995915567688
 30
0.0
 10
-7.759392165439969
 20
18.06741805543061
 30
0.0
 10
-7.765307994580567
 20
17.85492702697107
 30
0.0
 10
-7.771062752130596
 20
17.71333471977149
 30
0.0
 10
-7.773940154218621
 20
17.64253817724813
 30
0.0
 11
-7.753900581510492
 21
18.49254093422314
 31
0.0
 11
-7.755740577402775
 21
18.27996379921325
 31
0.0
 11
-7.7596942414483
 21
18.06741780477415
 31
0.0
 11
-7.765760708168272
 21
17.85494373687931
 31
0.0
 11
-7.773940154218621
 21
17.64253817724813
 31
0.0
  0
SPLINE
  5
233
330
2
100
AcDbEntity
  8
GAIKEI
  6
Continuous
 62
     1
100
AcDbSpline
210
0.0
220
0.0
230
1.0
 70
    56
 71
     3
 72
     9
 73
     5
 74
     3
 42
0.0000000001
 43
0.0000000001
 44
0.00000001
 40
0.0
 40
0.0
 40
0.0
 40
0.0
 40
0.0095427180793047
 40
0.0190854361585417
 40
0.0190854361585417
 40
0.0190854361585417
 40
0.0190854361585417
 10
-7.725880792488624
 20
18.49254093422314
 30
0.0
 10
-7.728047367385904
 20
18.49486990746547
 30
0.0
 10
-7.73238051718043
 20
18.49952785395013
 30
0.0
 10
-7.736713666974921
 20
18.50418580043482
 30
0.0
 10
-7.738880241872152
 20
18.50651477367717
 30
0.0
 11
-7.725880792488624
 21
18.49254093422314
 31
0.0
 11
-7.732380517180445
 21
18.49952785395015
 31
0.0
 11
-7.738880241872152
 21
18.50651477367717
 31
0.0
  0
SPLINE
  5
234
330
2
100
AcDbEntity
  8
GAIKEI
  6
Continuous
 62
     1
100
AcDbSpline
210
0.0
220
0.0
230
1.0
 70
    40
 71
     3
 72
    11
 73
     7
 74
     5
 42
0.0000000001
 43
0.0000000001
 44
0.00000001
 40
0.0
 40
0.0
 40
0.0
 40
0.0
 40
0.0417935689429223
 40
0.0835871378757902
 40
0.1346993686812681
 40
0.1858115995097418
 40
0.1858115995097418
 40
0.1858115995097418
 40
0.1858115995097418
 10
-7.738880241872152
 20
18.50651477367717
 30
0.0
 10
-7.74836923988964
 20
18.51671462474635
 30
0.0
 10
-7.76734724680918
 20
18.53711431675377
 30
0.0
 10
-7.797933145055459
 20
18.56998518433531
 30
0.0
 10
-7.830637266226474
 20
18.605127999797
 30
0.0
 10
-7.853853119892008
 20
18.63007028387187
 30
0.0
 10
-7.865461052275691
 20
18.6425414207481
 30
0.0
 11
-7.738880241872152
 21
18.50651477367717
 31
0.0
 11
-7.767347726023558
 21
18.53711387090436
 31
0.0
 11
-7.795817463346907
 21
18.56771087175332
 31
0.0
 11
-7.830637849700337
 21
18.60512745674168
 31
0.0
 11
-7.865461052275691
 21
18.6425414207481
 31
0.0
  0
SPLINE
  5
235
330
2
100
AcDbEntity
  8
GAIKEI
  6
Continuous
 62
     1
100
AcDbSpline
210
0.0
220
0.0
230
1.0
 70
    56
 71
     3
 72
     9
 73
     5
 74
     3
 42
0.0000000001
 43
0.0000000001
 44
0.00000001
 40
0.0
 40
0.0
 40
0.0
 40
0.0
 40
0.0053350469302687
 40
0.0106700938606272
 40
0.0106700938606272
 40
0.0106700938606272
 40
0.0106700938606272
 10
-9.12706958334968
 20
18.51254099909312
 30
0.0
 10
-9.127694420002995
 20
18.51087603535785
 30
0.0
 10
-9.128944093309655
 20
18.50754610788724
 30
0.0
 10
-9.130193766616308
 20
18.50421618041666
 30
0.0
 10
-9.130818603269631
 20
18.50255121668135
 30
0.0
 11
-9.12706958334968
 21
18.51254099909312
 31
0.0
 11
-9.128944093309655
 21
18.50754610788726
 31
0.0
 11
-9.130818603269631
 21
18.50255121668135
 31
0.0
  0
SPLINE
  5
236
330
2
100
AcDbEntity
  8
GAIKEI
  6
Continuous
 62
     1
100
AcDbSpline
210
0.0
220
0.0
230
1.0
 70
    40
 71
     3
 72
    11
 73
     7
 74
     5
 42
0.0000000001
 43
0.0000000001
 44
0.00000001
 40
0.0
 40
0.0
 40
0.0
 40
0.0
 40
0.2125883703537276
 40
0.4251744130329766
 40
0.6377313264859273
 40
0.8502905692142553
 40
0.8502905692142553
 40
0.8502905692142553
 40
0.8502905692142553
 10
-7.725880792488624
 20
18.49254093422314
 30
0.0
 10
-7.726342403874163
 20
18.42167898838821
 30
0.0
 10
-7.727265636589947
 20
18.27995587274083
 30
0.0
 10
-7.731363575239356
 20
18.06741372259961
 30
0.0
 10
-7.737269825348199
 20
17.85492384619158
 30
0.0
 10
-7.743015154420824
 20
17.7133336586387
 30
0.0
 10
-7.745887842191336
 20
17.64253817724813
 30
0.0
 11
-7.725880792488624
 21
18.49254093422314
 31
0.0
 11
-7.727717850635485
 21
18.27996050133424
 31
0.0
 11
-7.731665215948169
 21
18.0674111096809
 31
0.0
 11
-7.73772178924446
 21
17.85494050131439
 31
0.0
 11
-7.745887842191336
 21
17.64253817724813
 31
0.0
  0
SPLINE
  5
237
330
2
100
AcDbEntity
  8
GAIKEI
  6
S10
 62
     1
100
AcDbSpline
210
0.0
220
0.0
230
1.0
 70
    40
 71
     3
 72
    37
 73
    33
 74
    31
 42
0.0000000001
 43
0.0000000001
 44
0.00000001
 40
0.0
 40
0.0
 40
0.0
 40
0.0
 40
0.0385043528974291
 40
0.0770087057949042
 40
0.117297179106544
 40
0.1575856524181389
 40
0.2152803132404331
 40
0.2729749740628501
 40
0.354276796930825
 40
0.4355786197987593
 40
0.5372846363218625
 40
0.638990652844988
 40
0.7472162195036145
 40
0.8554417861622072
 40
0.9640740574547363
 40
1.072706328747249
 40
1.187598810782498
 40
1.302491292817603
 40
1.435546770910922
 40
1.568602249004398
 40
1.729081365380804
 40
1.889560481757343
 40
2.082759648266162
 40
2.275958814775175
 40
2.508859270530944
 40
2.741759726287094
 40
3.022313182766962
 40
3.302866639247283
 40
3.635151710332043
 40
3.967436781418439
 40
4.522633346351473
 40
5.077829911292782
 40
5.077829911292782
 40
5.077829911292782
 40
5.077829911292782
 10
-18.36736549369232
 20
3.176481843046587
 30
0.0
 10
-18.36736659041996
 20
3.189316627298865
 30
0.0
 10
-18.36736877449957
 20
3.214986195804257
 30
0.0
 10
-18.367372087058
 20
3.254085255366135
 30
0.0
 10
-18.36737542968176
 20
3.293779021732262
 30
0.0
 10
-18.36737928248837
 20
3.339869557386435
 30
0.0
 10
-18.36738358305323
 20
3.391762155527004
 30
0.0
 10
-18.36738896130301
 20
3.457325870143975
 30
0.0
 10
-18.36739490898249
 20
3.530758638755912
 30
0.0
 10
-18.36740193646593
 20
3.618861859228658
 30
0.0
 10
-18.36740937589438
 20
3.713766477575177
 30
0.0
 10
-18.36741736082544
 20
3.817645677169934
 30
0.0
 10
-18.3674253443549
 20
3.923698060149604
 30
0.0
 10
-18.36743332280873
 20
4.03205919472586
 30
0.0
 10
-18.36744113107349
 20
4.140555897526141
 30
0.0
 10
-18.36744891416385
 20
4.251274905459396
 30
0.0
 10
-18.36745664888352
 20
4.364080650315258
 30
0.0
 10
-18.36746472587979
 20
4.485027464100141
 30
0.0
 10
-18.3674729609574
 20
4.612028609907241
 30
0.0
 10
-18.36748188413613
 20
4.754225300481763
 30
0.0
 10
-18.36749102964901
 20
4.90556320382106
 30
0.0
 10
-18.36750094989893
 20
5.076949003288078
 30
0.0
 10
-18.36751098531422
 20
5.259241486143608
 30
0.0
 10
-18.36752170781085
 20
5.465674415456632
 30
0.0
 10
-18.36753235842186
 20
5.685341107872631
 30
0.0
 10
-18.36754347586964
 20
5.934125896955379
 30
0.0
 10
-18.36755418572902
 20
6.19879501964516
 30
0.0
 10
-18.36756484883081
 20
6.496592347470198
 30
0.0
 10
-18.36757453304459
 20
6.811633546873792
 30
0.0
 10
-18.36758473993082
 20
7.218222449114577
 30
0.0
 10
-18.36759347275192
 20
7.699115182701063
 30
0.0
 10
-18.36759562112242
 20
8.069246225989132
 30
0.0
 10
-18.36759668794218
 20
8.254311747634574
 30
0.0
 11
-18.36736549369232
 21
3.176481843046587
 31
0.0
 11
-18.36736877933833
 21
3.214986195803874
 31
0.0
 11
-18.36737204346241
 21
3.253490548563036
 31
0.0
 11
-18.36737543553102
 21
3.293779021731893
 31
0.0
 11
-18.36737880351791
 21
3.33406749490274
 31
0.0
 11
-18.36738358494278
 21
3.391762155526919
 31
0.0
 11
-18.36738831752757
 21
3.449456816155247
 31
0.0
 11
-18.36739490230627
 21
3.530758638756594
 31
0.0
 11
-18.36740138739469
 21
3.612060461365899
 31
0.0
 11
-18.36740936011176
 21
3.713766477576541
 31
0.0
 11
-18.3674171776903
 21
3.815472493799234
 31
0.0
 11
-18.36742532457947
 21
3.923698060151252
 31
0.0
 11
-18.36743329292983
 21
4.031923626516515
 31
0.0
 11
-18.36744111080349
 21
4.140555897527747
 31
0.0
 11
-18.36744874704448
 21
4.249188168551881
 31
0.0
 11
-18.36745662469673
 21
4.364080650317077
 31
0.0
 11
-18.36746429715629
 21
4.478973132096029
 31
0.0
 11
-18.36747292460575
 21
4.612028609909657
 31
0.0
 11
-18.367481273836
 21
4.74508408774119
 31
0.0
 11
-18.36749097148515
 21
4.905563203824613
 31
0.0
 11
-18.36750025986828
 21
5.066042319932364
 31
0.0
 11
-18.36751089519259
 21
5.259241486148482
 31
0.0
 11
-18.36752092949769
 21
5.452440652396944
 31
0.0
 11
-18.36753222098355
 21
5.685341107879025
 31
0.0
 11
-18.36754262737474
 21
5.918241563402716
 31
0.0
 11
-18.36755397790193
 21
6.198795019653005
 31
0.0
 11
-18.36756402445678
 21
6.479348475953486
 31
0.0
 11
-18.36757423092842
 21
6.811633546881523
 31
0.0
 11
-18.36758259665328
 21
7.143918617862652
 31
0.0
 11
-18.36759233948635
 21
7.699115182710272
 31
0.0
 11
-18.36759668794218
 21
8.254311747634574
 31
0.0
  0
SPLINE
  5
238
330
2
100
AcDbEntity
  8
GAIKEI
  6
S10
 62
     1
100
AcDbSpline
210
0.0
220
0.0
230
1.0
 70
    56
 71
     3
 72
     9
 73
     5
 74
     3
 42
0.0000000001
 43
0.0000000001
 44
0.00000001
 40
0.0
 40
0.0
 40
0.0
 40
0.0
 40
0.0128071075267809
 40
0.0256142150536471
 40
0.0256142150536471
 40
0.0256142150536471
 40
0.0256142150536471
 10
-18.36736329544521
 20
3.150867628087269
 30
0.0
 10
-18.36736366181972
 20
3.155136663913808
 30
0.0
 10
-18.36736439456877
 20
3.1636747355669
 30
0.0
 10
-18.36736512731781
 20
3.17221280722002
 30
0.0
 10
-18.36736549369232
 20
3.176481843046587
 30
0.0
 11
-18.36736329544521
 21
3.150867628087269
 31
0.0
 11
-18.36736439456877
 21
3.163674735566871
 31
0.0
 11
-18.36736549369232
 21
3.176481843046587
 31
0.0
  0
SPLINE
  5
239
330
2
100
AcDbEntity
  8
GAIKEI
  6
S10
 62
     1
100
AcDbSpline
210
0.0
220
0.0
230
1.0
 70
    56
 71
     3
 72
     9
 73
     5
 74
     3
 42
0.0000000001
 43
0.0000000001
 44
0.00000001
 40
0.0
 40
0.0
 40
0.0
 40
0.0
 40
0.004251889407881
 40
0.008503778815762
 40
0.008503778815762
 40
0.008503778815762
 40
0.008503778815762
 10
-18.36736253672268
 20
3.142363849305354
 30
0.0
 10
-18.36736266317643
 20
3.143781145769011
 30
0.0
 10
-18.36736291608395
 20
3.146615738696311
 30
0.0
 10
-18.36736316899147
 20
3.149450331623611
 30
0.0
 10
-18.36736329544521
 20
3.150867628087269
 30
0.0
 11
-18.36736253672268
 21
3.142363849305354
 31
0.0
 11
-18.36736291608395
 21
3.146615738696311
 31
0.0
 11
-18.36736329544521
 21
3.150867628087269
 31
0.0
  0
SPLINE
  5
23A
330
2
100
AcDbEntity
  8
GAIKEI
  6
S10
 62
     1
100
AcDbSpline
210
0.0
220
0.0
230
1.0
 70
    40
 71
     3
 72
    13
 73
     9
 74
     7
 42
0.0000000001
 43
0.0000000001
 44
0.00000001
 40
0.0
 40
0.0
 40
0.0
 40
0.0
 40
0.0167963350284387
 40
0.0335857484522615
 40
0.0425837178811299
 40
0.0515937383216585
 40
0.057988009064723
 40
0.0643844196050386
 40
0.0643844196050386
 40
0.0643844196050386
 40
0.0643844196050386
 10
-15.13901604551483
 20
8.254311746894472
 30
0.0
 10
-15.14461477583783
 20
8.254262000082434
 30
0.0
 10
-15.15580992916775
 20
8.254162513051582
 30
0.0
 10
-15.17000390205879
 20
8.254339306885398
 30
0.0
 10
-15.18160113498137
 20
8.254608327791132
 30
0.0
 10
-15.18973157997737
 20
8.254694753564479
 30
0.0
 10
-15.19700229543453
 20
8.255063002553541
 30
0.0
 10
-15.20120142658013
 20
8.255826392737702
 30
0.0
 10
-15.20330134202356
 20
8.256208162445489
 30
0.0
 11
-15.13901604551483
 21
8.254311746894472
 31
0.0
 11
-15.15581214082215
 21
8.254222258140146
 31
0.0
 11
-15.17260049581011
 21
8.254410790995109
 31
0.0
 11
-15.18159669216493
 21
8.254589409343793
 31
0.0
 11
-15.19060481327471
 21
8.25477438151546
 31
0.0
 11
-15.19698491996416
 21
8.255199744384469
 31
0.0
 11
-15.20330134202356
 21
8.256208162445489
 31
0.0
  0
SPLINE
  5
23B
330
2
100
AcDbEntity
  8
GAIKEI
  6
S10
 62
     1
100
AcDbSpline
210
0.0
220
0.0
230
1.0
 70
    40
 71
     3
 72
     9
 73
     5
 74
     3
 42
0.0000000001
 43
0.0000000001
 44
0.00000001
 40
0.0
 40
0.0
 40
0.0
 40
0.0
 40
0.0168481330800922
 40
0.0336962661600475
 40
0.0336962661600475
 40
0.0336962661600475
 40
0.0336962661600475
 10
-15.13924728136487
 20
3.17606011359885
 30
0.0
 10
-15.13924775385559
 20
3.170444069258678
 30
0.0
 10
-15.13924871306791
 20
3.159211980579627
 30
0.0
 10
-15.13924970074194
 20
3.147979891903034
 30
0.0
 10
-15.13925020169438
 20
3.142363847565377
 30
0.0
 11
-15.13924728136487
 21
3.17606011359885
 31
0.0
 11
-15.1392487130679
 21
3.159211980579584
 31
0.0
 11
-15.13925020169438
 21
3.142363847565377
 31
0.0
  0
SPLINE
  5
23C
330
2
100
AcDbEntity
  8
GAIKEI
  6
S10
 62
     1
100
AcDbSpline
210
0.0
220
0.0
230
1.0
 70
    40
 71
     3
 72
    37
 73
    33
 74
    31
 42
0.0000000001
 43
0.0000000001
 44
0.00000001
 40
0.0
 40
0.0
 40
0.0
 40
0.0
 40
0.5539538831053089
 40
1.107907766202372
 40
1.440855825264273
 40
1.773803884324337
 40
2.055197428225132
 40
2.336590972125396
 40
2.570203382246712
 40
2.803815792367747
 40
2.997604738476021
 40
3.191393684584035
 40
3.352343466983418
 40
3.513293249382658
 40
3.646741537741558
 40
3.780189826100466
 40
3.895584130495137
 40
4.010978434889789
 40
4.120320727692821
 40
4.229663020495839
 40
4.338514316296754
 40
4.447365612097585
 40
4.54852002835572
 40
4.649674444613799
 40
4.729593668603528
 40
4.809512892593207
 40
4.866224358178627
 40
4.922935823763937
 40
4.962608985752757
 40
5.002282147741646
 40
5.040266893871859
 40
5.078251640002036
 40
5.078251640002036
 40
5.078251640002036
 40
5.078251640002036
 10
-15.13901604551483
 20
8.254311746894472
 30
0.0
 10
-15.13901711033486
 20
8.069660452527685
 30
0.0
 10
-15.1390192547052
 20
7.700357863796995
 30
0.0
 10
-15.13902796121738
 20
7.220072588775678
 30
0.0
 10
-15.13903815371383
 20
6.813455921829572
 30
0.0
 10
-15.13904785229722
 20
6.497692701302298
 30
0.0
 10
-15.13905853973753
 20
6.199114319205563
 30
0.0
 10
-15.13906928229943
 20
5.933647820114444
 30
0.0
 10
-15.13908043704786
 20
5.684108365649009
 30
0.0
 10
-15.13909112590845
 20
5.463770443790821
 30
0.0
 10
-15.1391018886621
 20
5.256707009957779
 30
0.0
 10
-15.13911196266724
 20
5.073864452029766
 30
0.0
 10
-15.13912192166994
 20
4.901968282015872
 30
0.0
 10
-15.13913110325968
 20
4.750185664574217
 30
0.0
 10
-15.13914006228685
 20
4.607570211816522
 30
0.0
 10
-15.1391483344955
 20
4.480139918380757
 30
0.0
 10
-15.13915645224397
 20
4.35872761960266
 30
0.0
 10
-15.13916423599075
 20
4.245350652672343
 30
0.0
 10
-15.13917207478602
 20
4.133991022947952
 30
0.0
 10
-15.13917994373133
 20
4.024812396095811
 30
0.0
 10
-15.13918798294383
 20
3.915797434923916
 30
0.0
 10
-15.13919599719178
 20
3.809511765939419
 30
0.0
 10
-15.13920398277285
 20
3.705791723474419
 30
0.0
 10
-15.13921136831094
 20
3.611715704928968
 30
0.0
 10
-15.13921831651484
 20
3.524718083793942
 30
0.0
 10
-15.13922416865191
 20
3.452534779509534
 30
0.0
 10
-15.13922945919925
 20
3.38808739467322
 30
0.0
 10
-15.13923369087271
 20
3.337055363795457
 30
0.0
 10
-15.1392374835786
 20
3.291702767433051
 30
0.0
 10
-15.1392407782209
 20
3.252592410869169
 30
0.0
 10
-15.13924404428925
 20
3.214044859591083
 30
0.0
 10
-15.13924619933185
 20
3.188721695596029
 30
0.0
 10
-15.13924728136487
 20
3.17606011359885
 30
0.0
 11
-15.13901604551483
 21
8.254311746894472
 31
0.0
 11
-15.13902038227286
 21
7.700357863806118
 31
0.0
 11
-15.13903008693387
 21
7.146403980793991
 31
0.0
 11
-15.13903845713651
 21
6.81345592183726
 31
0.0
 11
-15.13904867565839
 21
6.480507862933961
 31
0.0
 11
-15.13905874886393
 21
6.199114319213435
 31
0.0
 11
-15.13907013383902
 21
5.917720775543443
 31
0.0
 11
-15.13908057538685
 21
5.684108365655447
 31
0.0
 11
-15.1390919074297
 21
5.45049595580923
 31
0.0
 11
-15.13910197938583
 21
5.256707009962667
 31
0.0
 11
-15.13911265597812
 21
5.062918064148732
 31
0.0
 11
-15.13912198022262
 21
4.901968282019424
 31
0.0
 11
-15.13913171607237
 21
4.741018499914616
 31
0.0
 11
-15.13914009890675
 21
4.607570211818995
 31
0.0
 11
-15.13914876156571
 21
4.474121923741222
 31
0.0
 11
-15.13915647672149
 21
4.358727619604451
 31
0.0
 11
-15.13916439881495
 21
4.24333331548172
 31
0.0
 11
-15.13917209544433
 21
4.133991022949544
 31
0.0
 11
-15.13917997603084
 21
4.024648730430499
 31
0.0
 11
-15.13918800303725
 21
3.915797434925536
 31
0.0
 11
-15.13919621052741
 21
3.806946139434103
 31
0.0
 11
-15.13920399830385
 21
3.705791723475726
 31
0.0
 11
-15.13921193963529
 21
3.604637307529344
 31
0.0
 11
-15.13921832258768
 21
3.524718083794482
 31
0.0
 11
-15.13922480168605
 21
3.444798860067407
 31
0.0
 11
-15.13922945705337
 21
3.38808739467305
 31
0.0
 11
-15.13923415966587
 21
3.331375929282671
 31
0.0
 11
-15.13923747762885
 21
3.291702767432582
 31
0.0
 11
-15.13924081893276
 21
3.252029605584368
 31
0.0
 11
-15.13924403967974
 21
3.214044859590671
 31
0.0
 11
-15.13924728136487
 21
3.17606011359885
 31
0.0
  0
SPLINE
  5
23D
330
2
100
AcDbEntity
  8
GAIKEI
  6
S10
 62
     1
100
AcDbSpline
210
0.0
220
0.0
230
1.0
 70
    40
 71
     3
 72
     9
 73
     5
 74
     3
 42
0.0000000001
 43
0.0000000001
 44
0.00000001
 40
0.0
 40
0.0
 40
0.0
 40
0.0
 40
0.1783925336078457
 40
0.3567850672288673
 40
0.3567850672288673
 40
0.3567850672288673
 40
0.3567850672288673
 10
-15.13905978565674
 20
8.611097644445919
 30
0.0
 10
-15.13905189147557
 20
8.551633467099165
 30
0.0
 10
-15.13903612311323
 20
8.43270511239875
 30
0.0
 10
-15.13902255714043
 20
8.313776757426694
 30
0.0
 10
-15.13901578415402
 20
8.254312579937277
 30
0.0
 11
-15.13905978565674
 21
8.611097644445919
 31
0.0
 11
-15.13903666371061
 21
8.432705112336464
 31
0.0
 11
-15.13901578415402
 21
8.254312579937277
 31
0.0
  0
SPLINE
  5
23E
330
2
100
AcDbEntity
  8
GAIKEI
  6
S10
 62
     1
100
AcDbSpline
210
0.0
220
0.0
230
1.0
 70
    40
 71
     3
 72
    13
 73
     9
 74
     7
 42
0.0000000001
 43
0.0000000001
 44
0.00000001
 40
0.0
 40
0.0
 40
0.0
 40
0.0
 40
0.0167965439233893
 40
0.0335861648441028
 40
0.0425841995334309
 40
0.0515942877927594
 40
0.0579884197022534
 40
0.0643846912263237
 40
0.0643846912263237
 40
0.0643846912263237
 40
0.0643846912263237
 10
-18.36759695656303
 20
8.254311711934349
 30
0.0
 10
-18.36199815660239
 20
8.254261962404314
 30
0.0
 10
-18.35080286446323
 20
8.254162469942542
 30
0.0
 10
-18.33660873120965
 20
8.254339273972391
 30
0.0
 10
-18.32501138460773
 20
8.254608303023829
 30
0.0
 10
-18.31688094194028
 20
8.254694706862466
 30
0.0
 10
-18.30961029433752
 20
8.255062952998159
 30
0.0
 10
-18.30541126260143
 20
8.255826376220156
 30
0.0
 10
-18.30331139689349
 20
8.256208162445489
 30
0.0
 11
-18.36759695656303
 21
8.254311711934349
 31
0.0
 11
-18.3508006523831
 21
8.254222218438201
 31
0.0
 11
-18.33401208998691
 21
8.254410760353323
 31
0.0
 11
-18.32501582837801
 21
8.254589379670903
 31
0.0
 11
-18.31600763918129
 21
8.254774339480206
 31
0.0
 11
-18.30962767175492
 21
8.255199704162862
 31
0.0
 11
-18.30331139689349
 21
8.256208162445489
 31
0.0
  0
SPLINE
  5
23F
330
2
100
AcDbEntity
  8
GAIKEI
  6
S10
 62
     1
100
AcDbSpline
210
0.0
220
0.0
230
1.0
 70
    40
 71
     3
 72
     9
 73
     5
 74
     3
 42
0.0000000001
 43
0.0000000001
 44
0.00000001
 40
0.0
 40
0.0
 40
0.0
 40
0.0
 40
0.1783925250613105
 40
0.356785050108821
 40
0.356785050108821
 40
0.356785050108821
 40
0.356785050108821
 10
-18.36759695474302
 20
8.254312597057321
 30
0.0
 10
-18.36759018176245
 20
8.313776771693497
 30
0.0
 10
-18.36757661580134
 20
8.432705120958871
 30
0.0
 10
-18.36756084744064
 20
8.551633469952619
 30
0.0
 10
-18.36755295326031
 20
8.611097644445919
 30
0.0
 11
-18.36759695474302
 21
8.254312597057321
 31
0.0
 11
-18.36757607520144
 21
8.432705120896798
 31
0.0
 11
-18.36755295326031
 21
8.611097644445919
 31
0.0
  0
SPLINE
  5
240
330
2
100
AcDbEntity
  8
GAIKEI
  6
S10
 62
     1
100
AcDbSpline
210
0.0
220
0.0
230
1.0
 70
    40
 71
     3
 72
    19
 73
    15
 74
    13
 42
0.0000000001
 43
0.0000000001
 44
0.00000001
 40
0.0
 40
0.0
 40
0.0
 40
0.0
 40
0.5660957491401414
 40
1.132672837394906
 40
1.684185933998261
 40
2.235620560764833
 40
2.785171695724559
 40
3.334761444080356
 40
3.882490240135523
 40
4.430202775142968
 40
4.976414373396147
 40
5.522837280046629
 40
6.236206105013694
 40
6.950461709163663
 40
6.950461709163663
 40
6.950461709163663
 40
6.950461709163663
 10
-15.13925624997398
 20
3.142384502292259
 30
0.0
 10
-14.95959370267051
 20
3.200587078648055
 30
0.0
 10
-14.60011584962906
 20
3.317041733547853
 30
0.0
 10
-14.0907967221588
 20
3.556493837947897
 30
0.0
 10
-13.61007726942303
 20
3.838203236724112
 30
0.0
 10
-13.16425576919195
 20
4.163336976908908
 30
0.0
 10
-12.75245824977645
 20
4.529500240715492
 30
0.0
 10
-12.37967085810072
 20
4.933681548691893
 30
0.0
 10
-12.04845387474337
 20
5.371814753549784
 30
0.0
 10
-11.76308832642471
 20
5.83974223502382
 30
0.0
 10
-11.52497840307905
 20
6.3330831202191
 30
0.0
 10
-11.3198710590205
 20
6.899730276088931
 30
0.0
 10
-11.16125081207456
 20
7.541377700227712
 30
0.0
 10
-11.12523733139276
 20
8.016568862779507
 30
0.0
 10
-11.10721941330496
 20
8.254312029015466
 30
0.0
 11
-15.13925624997398
 21
3.142384502292259
 31
0.0
 11
-14.6045008245909
 21
3.328129040359101
 31
0.0
 11
-14.09039695440731
 21
3.566260955390532
 31
0.0
 11
-13.61506045375302
 21
3.845942753015947
 31
0.0
 11
-13.16935399186422
 21
4.170636298305851
 31
0.0
 11
-12.75882212292265
 21
4.535971808988392
 31
0.0
 11
-12.38613588489409
 21
4.939894896096291
 31
0.0
 11
-12.05598628086647
 21
5.376939600673665
 31
0.0
 11
-11.77068962368355
 21
5.844480870768904
 31
0.0
 11
-11.53363440467944
 21
6.33657022657502
 31
0.0
 11
-11.3467036643442
 21
6.850024111752986
 31
0.0
 11
-11.18097266032646
 21
7.543874467916168
 31
0.0
 11
-11.10721941330496
 21
8.254312029015466
 31
0.0
  0
SPLINE
  5
241
330
2
100
AcDbEntity
  8
GAIKEI
  6
S10
 62
     1
100
AcDbSpline
210
0.0
220
0.0
230
1.0
 70
    40
 71
     3
 72
    19
 73
    15
 74
    13
 42
0.0000000001
 43
0.0000000001
 44
0.00000001
 40
0.0
 40
0.0
 40
0.0
 40
0.0
 40
0.5660957491401787
 40
1.132672837394785
 40
1.684185933998221
 40
2.235620560764991
 40
2.785171695721348
 40
3.334761444073782
 40
3.882490240125965
 40
4.430202775129937
 40
4.97641437338475
 40
5.522837280037586
 40
6.236206105003748
 40
6.950461709154393
 40
6.950461709154393
 40
6.950461709154393
 40
6.950461709154393
 10
-18.36735648896308
 20
3.142384502292259
 30
0.0
 10
-18.54701903626655
 20
3.200587078648084
 30
0.0
 10
-18.90649688930797
 20
3.317041733547895
 30
0.0
 10
-19.41581601677808
 20
3.556493837948224
 30
0.0
 10
-19.89653546951388
 20
3.83820323672441
 30
0.0
 10
-20.34235696974523
 20
4.163336976906975
 30
0.0
 10
-20.75415448915927
 20
4.52950024071228
 30
0.0
 10
-21.12694188082643
 20
4.933681548692433
 30
0.0
 10
-21.45815886417446
 20
5.37181475355311
 30
0.0
 10
-21.74352441248978
 20
5.839742235027046
 30
0.0
 10
-21.98163433583689
 20
6.333083120221544
 30
0.0
 10
-22.18674167990998
 20
6.899730276086728
 30
0.0
 10
-22.34536192686757
 20
7.541377700224984
 30
0.0
 10
-22.38137540753271
 20
8.016568862778413
 30
0.0
 10
-22.39939332561221
 20
8.254312029015466
 30
0.0
 11
-18.36735648896308
 21
3.142384502292259
 31
0.0
 11
-18.90211191434616
 21
3.328129040359215
 31
0.0
 11
-19.41621578452952
 21
3.56626095539076
 31
0.0
 11
-19.89155228518405
 21
3.845942753015947
 31
0.0
 11
-20.33725874707375
 21
4.170636298304941
 31
0.0
 11
-20.74779061601203
 21
4.535971808986118
 31
0.0
 11
-21.12047685403286
 21
4.939894896096575
 31
0.0
 11
-21.45062645805229
 21
5.376939600676394
 31
0.0
 11
-21.73592311523078
 21
5.844480870770269
 31
0.0
 11
-21.97297833423829
 21
6.336570226576554
 31
0.0
 11
-22.15990907458479
 21
6.850024111752929
 31
0.0
 11
-22.32564007860935
 21
7.543874467913553
 31
0.0
 11
-22.39939332561221
 21
8.254312029015466
 31
0.0
  0
SPLINE
  5
242
330
2
100
AcDbEntity
  8
GAIKEI
  6
S10
 62
     1
100
AcDbSpline
210
0.0
220
0.0
230
1.0
 70
    40
 71
     3
 72
    33
 73
    29
 74
    27
 42
0.0000000001
 43
0.0000000001
 44
0.00000001
 40
0.0
 40
0.0
 40
0.0
 40
0.0
 40
0.1017540976482755
 40
0.203508195296666
 40
0.2956077011554455
 40
0.3877072070143328
 40
0.4974817308218046
 40
0.6072562546292673
 40
0.7313699073157142
 40
0.8554835600019334
 40
0.9901628340728244
 40
1.124842108143601
 40
1.265988371994998
 40
1.407134635846394
 40
1.550445113717463
 40
1.693755591588418
 40
1.834861341058475
 40
1.975967090528532
 40
2.110572193138713
 40
2.245177295749007
 40
2.369198340959959
 40
2.493219386170913
 40
2.602902369746483
 40
2.712585353322169
 40
2.80461102136142
 40
2.896636689400681
 40
2.998323372125359
 40
3.100010054850045
 40
3.100010054850045
 40
3.100010054850045
 40
3.100010054850045
 10
-18.30331139689349
 20
3.691177057415245
 30
0.0
 10
-18.26939336434407
 20
3.691177041925143
 30
0.0
 10
-18.20155729924518
 20
3.691176996286301
 30
0.0
 10
-18.10302139886004
 20
3.691177055485695
 30
0.0
 10
-18.00770369573806
 20
3.691177130141511
 30
0.0
 10
-17.90971251722969
 20
3.691177191915414
 30
0.0
 10
-17.80582966607176
 20
3.691177243171466
 30
0.0
 10
-17.69127543263797
 20
3.691177268635797
 30
0.0
 10
-17.57194148957792
 20
3.691177276413725
 30
0.0
 10
-17.44430596309674
 20
3.69117727020702
 30
0.0
 10
-17.31314856282078
 20
3.691177260567471
 30
0.0
 10
-17.17631362548975
 20
3.69117726694904
 30
0.0
 10
-17.03732302489856
 20
3.691177274128421
 30
0.0
 10
-16.89545535637395
 20
3.69117726892783
 30
0.0
 10
-16.75286628317615
 20
3.691177262603105
 30
0.0
 10
-16.6102907147721
 20
3.691177265548702
 30
0.0
 10
-16.46845005583509
 20
3.691177267811085
 30
0.0
 10
-16.32951118865166
 20
3.691177259469398
 30
0.0
 10
-16.19273920375481
 20
3.691177251449232
 30
0.0
 10
-16.06166212027769
 20
3.691177256921065
 30
0.0
 10
-15.93411305593359
 20
3.691177257871544
 30
0.0
 10
-15.81487136460113
 20
3.691177240809864
 30
0.0
 10
-15.70040902714704
 20
3.691177212913046
 30
0.0
 10
-15.59661181541689
 20
3.691177180042345
 30
0.0
 10
-15.49870037553216
 20
3.691177137878696
 30
0.0
 10
-15.40345436926446
 20
3.691177071841167
 30
0.0
 10
-15.30498802476825
 20
3.691177012081951
 30
0.0
 10
-15.2371969029518
 20
3.691177044510354
 30
0.0
 10
-15.20330134204357
 20
3.691177053395222
 30
0.0
 11
-18.30331139689349
 21
3.691177057415245
 31
0.0
 11
-18.20155729924522
 21
3.691177027884805
 31
0.0
 11
-18.09980320159684
 21
3.691177070667265
 31
0.0
 11
-18.00770369573809
 21
3.691177137795591
 31
0.0
 11
-17.91560418987922
 21
3.691177196282467
 31
0.0
 11
-17.80582966607176
 21
3.691177248211261
 31
0.0
 11
-17.6960551422643
 21
3.69117727487503
 31
0.0
 11
-17.57194148957785
 21
3.691177284059563
 31
0.0
 11
-17.44782783689163
 21
3.691177279884868
 31
0.0
 11
-17.31314856282074
 21
3.691177273264031
 31
0.0
 11
-17.17846928874996
 21
3.691177276958455
 31
0.0
 11
-17.03732302489857
 21
3.691177282050944
 31
0.0
 11
-16.89617676104717
 21
3.691177278774546
 31
0.0
 11
-16.7528662831761
 21
3.691177274156018
 31
0.0
 11
-16.60955580530515
 21
3.691177275450513
 31
0.0
 11
-16.46845005583509
 21
3.691177276024006
 31
0.0
 11
-16.32734430636503
 21
3.691177269372985
 31
0.0
 11
-16.19273920375485
 21
3.691177263701263
 31
0.0
 11
-16.05813410114456
 21
3.691177266267516
 31
0.0
 11
-15.93411305593361
 21
3.691177264759915
 31
0.0
 11
-15.81009201072265
 21
3.691177247918233
 31
0.0
 11
-15.70040902714709
 21
3.691177221579266
 31
0.0
 11
-15.5907260435714
 21
3.691177185913034
 31
0.0
 11
-15.49870037553217
 21
3.691177143849415
 31
0.0
 11
-15.40667470749292
 21
3.691177085333549
 31
0.0
 11
-15.30498802476825
 21
3.691177040474656
 31
0.0
 11
-15.20330134204357
 21
3.691177053395222
 31
0.0
  0
SPLINE
  5
243
330
2
100
AcDbEntity
  8
GAIKEI
  6
Continuous
 62
     1
100
AcDbSpline
210
0.0
220
0.0
230
1.0
 70
    40
 71
     3
 72
    11
 73
     7
 74
     5
 42
0.0000000001
 43
0.0000000001
 44
0.00000001
 40
0.0
 40
0.0
 40
0.0
 40
0.0
 40
0.2125648727040113
 40
0.4251293058591052
 40
0.637593023879191
 40
0.8500571832351885
 40
0.8500571832351885
 40
0.8500571832351885
 40
0.8500571832351885
 10
22.11246454729963
 20
18.4925409342232
 30
0.0
 10
22.11266522428326
 20
18.42168613620923
 30
0.0
 10
22.11306659283573
 20
18.27997668675829
 30
0.0
 10
22.11484811756037
 20
18.06745228675964
 30
0.0
 10
22.11741602959192
 20
17.8549695059277
 30
0.0
 10
22.11991457739696
 20
17.71334866908911
 30
0.0
 10
22.12116386009575
 20
17.64253817724818
 30
0.0
 11
22.11246454729963
 21
18.4925409342232
 31
0.0
 11
22.11326320931119
 21
18.27997756189524
 31
0.0
 11
22.11497957284052
 21
18.06742005824617
 31
0.0
 11
22.11761273648699
 21
17.85497265783169
 31
0.0
 11
22.12116386009575
 21
17.64253817724818
 31
0.0
  0
SPLINE
  5
244
330
2
100
AcDbEntity
  8
GAIKEI
  6
Continuous
 62
     7
100
AcDbSpline
210
0.0
220
0.0
230
1.0
 70
    56
 71
     3
 72
     9
 73
     5
 74
     3
 42
0.0000000001
 43
0.0000000001
 44
0.00000001
 40
0.0
 40
0.0
 40
0.0
 40
0.0
 40
0.114203067287644
 40
0.2284061345752308
 40
0.2284061345752308
 40
0.2284061345752308
 40
0.2284061345752308
 10
17.43205981976609
 20
9.034583744138615
 30
0.0
 10
17.43163336706955
 20
8.996518443782548
 30
0.0
 10
17.43078046167645
 20
8.920387843070415
 30
0.0
 10
17.42992755628339
 20
8.844257242358267
 30
0.0
 10
17.42950110358686
 20
8.806191942002215
 30
0.0
 11
17.43205981976609
 21
9.034583744138615
 31
0.0
 11
17.43078046167648
 21
8.920387843070386
 31
0.0
 11
17.42950110358686
 21
8.806191942002215
 31
0.0
  0
SPLINE
  5
245
330
2
100
AcDbEntity
  8
GAIKEI
  6
Continuous
 62
     7
100
AcDbSpline
210
0.0
220
0.0
230
1.0
 70
    40
 71
     3
 72
    20
 73
    16
 74
    14
 42
0.0000000001
 43
0.0000000001
 44
0.00000001
 40
0.0
 40
0.0
 40
0.0
 40
0.0
 40
0.0935008821010471
 40
0.1870162421139436
 40
0.2832579805318141
 40
0.3794589167198075
 40
0.4785842107449041
 40
0.5777129158545971
 40
0.7377826239120111
 40
0.8979745670214246
 40
1.144001569460963
 40
1.389741491929282
 40
3.041944698901557
 40
4.697116967898792
 40
6.37304843417101
 40
6.37304843417101
 40
6.37304843417101
 40
6.37304843417101
 10
17.02750055821241
 20
15.63910955230847
 30
0.0
 10
17.04876897100213
 20
15.61630523693785
 30
0.0
 10
17.09130908803749
 20
15.57069307384611
 30
0.0
 10
17.14876376291532
 20
15.49560261845202
 30
0.0
 10
17.20201755372905
 20
15.41650198747956
 30
0.0
 10
17.25159253244259
 20
15.33284331605803
 30
0.0
 10
17.29684907039541
 20
15.24568713976374
 30
0.0
 10
17.34593297739515
 20
15.13674868434545
 30
0.0
 10
17.39516201963674
 20
15.00571459142239
 30
0.0
 10
17.44655658964032
 20
14.82393858396062
 30
0.0
 10
17.49259586179273
 20
14.61139434602353
 30
0.0
 10
17.60579791011292
 20
13.9056074674024
 30
0.0
 10
17.69771689497899
 20
12.72235316520934
 30
0.0
 10
17.68000811454692
 20
11.05747477161684
 30
0.0
 10
17.5221188532508
 20
9.957277855667982
 30
0.0
 10
17.44268225023984
 20
9.40375122333944
 30
0.0
 11
17.02750055821241
 21
15.63910955230847
 31
0.0
 11
17.09015431665364
 21
15.56970549357794
 31
0.0
 11
17.14744546182646
 21
15.49579442454387
 31
0.0
 11
17.20124539922676
 21
15.41599443229143
 31
0.0
 11
17.25032144207318
 21
15.33325289461362
 31
0.0
 11
17.29602016648175
 21
15.24529011592796
 31
0.0
 11
17.3368421048101
 21
15.15495701310288
 31
0.0
 11
17.3930175059287
 21
15.00506826902307
 31
0.0
 11
17.43749418900347
 21
14.85117452918541
 31
0.0
 11
17.49042316041198
 21
14.61090840656948
 31
0.0
 11
17.53067950482875
 21
14.368488242252
 31
0.0
 11
17.67335502356263
 21
12.72245691443055
 31
0.0
 11
17.64402260536633
 21
11.06754457479309
 31
0.0
 11
17.44268225023984
 21
9.40375122333944
 31
0.0
  0
SPLINE
  5
246
330
2
100
AcDbEntity
  8
GAIKEI
  6
Continuous
 62
     7
100
AcDbSpline
210
0.0
220
0.0
230
1.0
 70
    56
 71
     3
 72
     9
 73
     5
 74
     3
 42
0.0000000001
 43
0.0000000001
 44
0.00000001
 40
0.0
 40
0.0
 40
0.0
 40
0.0
 40
0.0309624034809694
 40
0.0619248069619062
 40
0.0619248069619062
 40
0.0619248069619062
 40
0.0619248069619062
 10
17.44268225023984
 20
9.40375122333944
 30
0.0
 10
17.44230192659957
 20
9.393437432061759
 30
0.0
 10
17.44154127931901
 20
9.37280984950641
 30
0.0
 10
17.44078063203857
 20
9.352182266951047
 30
0.0
 10
17.44040030839835
 20
9.341868475673379
 30
0.0
 11
17.44268225023984
 21
9.40375122333944
 31
0.0
 11
17.44154127931904
 21
9.372809849506381
 31
0.0
 11
17.44040030839835
 21
9.341868475673379
 31
0.0
  0
SPLINE
  5
247
330
2
100
AcDbEntity
  8
GAIKEI
  6
Continuous
 62
     7
100
AcDbSpline
210
0.0
220
0.0
230
1.0
 70
    40
 71
     3
 72
     9
 73
     5
 74
     3
 42
0.0000000001
 43
0.0000000001
 44
0.00000001
 40
0.0
 40
0.0
 40
0.0
 40
0.0
 40
0.0144120088671007
 40
0.3073983243928685
 40
0.3073983243928685
 40
0.3073983243928685
 40
0.3073983243928685
 10
17.44040030839835
 20
9.341868475673379
 30
0.0
 10
17.44023317487513
 20
9.337067377375703
 30
0.0
 10
17.43666844258546
 20
9.234663219749933
 30
0.0
 10
17.43430876247032
 20
9.132222067281915
 30
0.0
 10
17.43205981976609
 20
9.034583744138615
 30
0.0
 11
17.44040030839835
 21
9.341868475673379
 31
0.0
 11
17.43990155713561
 21
9.327465099406197
 31
0.0
 11
17.43205981976609
 21
9.034583744138615
 31
0.0
  0
SPLINE
  5
248
330
2
100
AcDbEntity
  8
GAIKEI
  6
Continuous
 62
     7
100
AcDbSpline
210
0.0
220
0.0
230
1.0
 70
    40
 71
     3
 72
    20
 73
    16
 74
    14
 42
0.0000000001
 43
0.0000000001
 44
0.00000001
 40
0.0
 40
0.0
 40
0.0
 40
0.0
 40
0.0935008826681575
 40
0.1870162335747734
 40
0.283257981068428
 40
0.3794589652049311
 40
0.4785842156072702
 40
0.5777126961004822
 40
0.737783153252048
 40
0.8979774378809956
 40
1.144001567767136
 40
1.389730624128694
 40
3.240672871877356
 40
5.09507608676435
 40
6.972843351927686
 40
6.972843351927686
 40
6.972843351927686
 40
6.972843351927686
 10
31.23134500305241
 20
15.63910955230847
 30
0.0
 10
31.21007658905543
 20
15.6163052376595
 30
0.0
 10
31.1675364684298
 20
15.57069308132855
 30
0.0
 10
31.11008181364804
 20
15.49560260966245
 30
0.0
 10
31.05682801526632
 20
15.41650196577399
 30
0.0
 10
31.00725293313836
 20
15.3328433562461
 30
0.0
 10
30.96199635687863
 20
15.24568726295297
 30
0.0
 10
30.91291346292211
 20
15.136748179755
 30
0.0
 10
30.86368301054948
 20
15.00571366650669
 30
0.0
 10
30.81227632614242
 20
14.8239419049853
 30
0.0
 10
30.76621580932242
 20
14.61140237838636
 30
0.0
 10
30.64319685595466
 20
13.84009126132034
 30
0.0
 10
30.54228698672277
 20
12.5241717890333
 30
0.0
 10
30.56274508927089
 20
10.65895245185503
 30
0.0
 10
30.74010789731611
 20
9.426350880638167
 30
0.0
 10
30.82934445766785
 20
8.806191942002215
 30
0.0
 11
31.23134500305241
 21
15.63910955230847
 31
0.0
 11
31.16869124459163
 21
15.56970549357874
 31
0.0
 11
31.111400115425
 21
15.49579442374846
 31
0.0
 11
31.05760016027
 21
15.41599443237936
 31
0.0
 11
31.00852401475675
 21
15.33325289980905
 31
0.0
 11
30.96282539494507
 21
15.24529011592
 31
0.0
 11
30.92200406949485
 21
15.1549569826052
 31
0.0
 11
30.86582620714921
 21
15.00506836096735
 31
0.0
 11
30.82133933832654
 21
14.85117512785399
 31
0.0
 11
30.76842761760361
 21
14.61090814704476
 31
0.0
 11
30.72826613251255
 21
14.36848326363173
 31
0.0
 11
30.56937772834056
 21
12.52437326746843
 31
0.0
 11
30.60307050339236
 21
10.67027616025854
 31
0.0
 11
30.82934445766785
 21
8.806191942002215
 31
0.0
  0
SPLINE
  5
249
330
2
100
AcDbEntity
  8
GAIKEI
  6
Continuous
 62
     1
100
AcDbSpline
210
0.0
220
0.0
230
1.0
 70
    40
 71
     3
 72
     9
 73
     5
 74
     3
 42
0.0000000001
 43
0.0000000001
 44
0.00000001
 40
0.0
 40
0.0
 40
0.0
 40
0.0
 40
0.0750002656970423
 40
0.1500005313940884
 40
0.1500005313940884
 40
0.1500005313940884
 40
0.1500005313940884
 10
18.98398307488287
 20
18.64254142074816
 30
0.0
 10
18.98395614014853
 20
18.61754133743424
 30
0.0
 10
18.98390229067991
 20
18.56754117080029
 30
0.0
 10
18.9839638621802
 20
18.51754101307915
 30
0.0
 10
18.98399465793034
 20
18.4925409342232
 30
0.0
 11
18.98398307488287
 21
18.64254142074816
 31
0.0
 11
18.98393113592215
 21
18.56754117302773
 31
0.0
 11
18.98399465793034
 21
18.4925409342232
 31
0.0
  0
SPLINE
  5
24A
330
2
100
AcDbEntity
  8
GAIKEI
  6
Continuous
 62
     1
100
AcDbSpline
210
0.0
220
0.0
230
1.0
 70
    56
 71
     3
 72
     9
 73
     5
 74
     3
 42
0.0000000001
 43
0.0000000001
 44
0.00000001
 40
0.0
 40
0.0
 40
0.0
 40
0.0
 40
0.033320873699109
 40
0.066641747398099
 40
0.066641747398099
 40
0.066641747398099
 40
0.066641747398099
 10
20.22462655847687
 20
17.49253769072317
 30
0.0
 10
20.21707899130641
 20
17.50068623314455
 30
0.0
 10
20.20198385696554
 20
17.51698331798732
 30
0.0
 10
20.18688872262467
 20
17.5332804028301
 30
0.0
 10
20.17934115545427
 20
17.54142894525148
 30
0.0
 11
20.22462655847687
 21
17.49253769072317
 31
0.0
 11
20.20198385696551
 21
17.51698331798735
 31
0.0
 11
20.17934115545427
 21
17.54142894525148
 31
0.0
  0
SPLINE
  5
24B
330
2
100
AcDbEntity
  8
GAIKEI
  6
Continuous
 62
     1
100
AcDbSpline
210
0.0
220
0.0
230
1.0
 70
    40
 71
     3
 72
    11
 73
     7
 74
     5
 42
0.0000000001
 43
0.0000000001
 44
0.00000001
 40
0.0
 40
0.0
 40
0.0
 40
0.0
 40
0.0347670380346238
 40
0.0695340879638891
 40
0.1374289922531291
 40
0.2053239230258478
 40
0.2053239230258478
 40
0.2053239230258478
 40
0.2053239230258478
 10
20.17934115545427
 20
17.54142894525148
 30
0.0
 10
20.17147520682602
 20
17.54993964967237
 30
0.0
 10
20.15574331764033
 20
17.56696107136808
 30
0.0
 10
20.12468803336132
 20
17.60063739920954
 30
0.0
 10
20.08619301938744
 20
17.64247425238946
 30
0.0
 10
20.0556184461426
 20
17.67585030470914
 30
0.0
 10
20.04033116231676
 20
17.69253833942315
 30
0.0
 11
20.17934115545427
 21
17.54142894525148
 31
0.0
 11
20.15574807327005
 21
17.56696545651249
 31
0.0
 11
20.13217723243872
 21
17.59252251471622
 31
0.0
 11
20.08621138081389
 21
17.6424910899924
 31
0.0
 11
20.04033116231676
 21
17.69253833942315
 31
0.0
  0
SPLINE
  5
24C
330
2
100
AcDbEntity
  8
GAIKEI
  6
Continuous
 62
     1
100
AcDbSpline
210
0.0
220
0.0
230
1.0
 70
    40
 71
     3
 72
    11
 73
     7
 74
     5
 42
0.0000000001
 43
0.0000000001
 44
0.00000001
 40
0.0
 40
0.0
 40
0.0
 40
0.0
 40
0.0666933113378286
 40
0.1333865945243699
 40
0.1674507739917724
 40
0.2015149408255698
 40
0.2015149408255698
 40
0.2015149408255698
 40
0.2015149408255698
 10
20.04033116231676
 20
17.69253833942315
 30
0.0
 10
20.05502659955127
 20
17.70921965737581
 30
0.0
 10
20.08441747957966
 20
17.74258227586489
 30
0.0
 10
20.1214100314202
 20
17.78438042577812
 30
0.0
 10
20.15123294381844
 20
17.81799956826245
 30
0.0
 10
20.16632277100271
 20
17.83497061042962
 30
0.0
 10
20.17386768867106
 20
17.84345612507343
 30
0.0
 11
20.04033116231676
 21
17.69253833942315
 31
0.0
 11
20.08443656584654
 21
17.74256544364658
 31
0.0
 11
20.1286309730591
 21
17.79251390103678
 31
0.0
 11
20.15123785189576
 21
17.81799521483344
 31
0.0
 11
20.17386768867106
 21
17.84345612507343
 31
0.0
  0
SPLINE
  5
24D
330
2
100
AcDbEntity
  8
GAIKEI
  6
Continuous
 62
     1
100
AcDbSpline
210
0.0
220
0.0
230
1.0
 70
    56
 71
     3
 72
     9
 73
     5
 74
     3
 42
0.0000000001
 43
0.0000000001
 44
0.00000001
 40
0.0
 40
0.0
 40
0.0
 40
0.0
 40
0.0328725021488515
 40
0.065745004297585
 40
0.065745004297585
 40
0.065745004297585
 40
0.065745004297585
 10
20.17386768867106
 20
17.84345612507343
 30
0.0
 10
20.18115786117502
 20
17.85163660224839
 30
0.0
 10
20.1957382061829
 20
17.86799755659827
 30
0.0
 10
20.21031855119073
 20
17.88435851094819
 30
0.0
 10
20.21760872369464
 20
17.89253898812313
 30
0.0
 11
20.17386768867106
 21
17.84345612507343
 31
0.0
 11
20.19573820618291
 21
17.86799755659831
 31
0.0
 11
20.21760872369464
 21
17.89253898812313
 31
0.0
  0
SPLINE
  5
24E
330
2
100
AcDbEntity
  8
GAIKEI
  6
Continuous
 62
     1
100
AcDbSpline
210
0.0
220
0.0
230
1.0
 70
    56
 71
     3
 72
     9
 73
     5
 74
     3
 42
0.0000000001
 43
0.0000000001
 44
0.00000001
 40
0.0
 40
0.0
 40
0.0
 40
0.0
 40
0.0250017645334227
 40
0.0500035290669034
 40
0.0500035290669034
 40
0.0500035290669034
 40
0.0500035290669034
 10
20.58502463433433
 20
17.7925386637732
 30
0.0
 10
20.58489929968616
 20
17.80087164277114
 30
0.0
 10
20.58464863038979
 20
17.81753760076701
 30
0.0
 10
20.58439796109334
 20
17.83420355876284
 30
0.0
 10
20.58427262644511
 20
17.84253653776079
 30
0.0
 11
20.58502463433433
 21
17.7925386637732
 31
0.0
 11
20.58464863038978
 21
17.81753760076697
 31
0.0
 11
20.58427262644511
 21
17.84253653776079
 31
0.0
  0
SPLINE
  5
24F
330
2
100
AcDbEntity
  8
GAIKEI
  6
Continuous
 62
     1
100
AcDbSpline
210
0.0
220
0.0
230
1.0
 70
    56
 71
     3
 72
     9
 73
     5
 74
     3
 42
0.0000000001
 43
0.0000000001
 44
0.00000001
 40
0.0
 40
0.0
 40
0.0
 40
0.0
 40
0.0250036898329297
 40
0.0500073796658883
 40
0.0500073796658883
 40
0.0500073796658883
 40
0.0500073796658883
 10
20.58427262644511
 20
17.84253653776079
 30
0.0
 10
20.58415560569556
 20
17.85087027948785
 30
0.0
 10
20.58392156419646
 20
17.86753776294193
 30
0.0
 10
20.5836875226973
 20
17.88420524639608
 30
0.0
 10
20.58357050194775
 20
17.89253898812313
 30
0.0
 11
20.58427262644511
 21
17.84253653776079
 31
0.0
 11
20.58392156419643
 21
17.86753776294193
 31
0.0
 11
20.58357050194775
 21
17.89253898812313
 31
0.0
  0
SPLINE
  5
250
330
2
100
AcDbEntity
  8
GAIKEI
  6
Continuous
 62
     1
100
AcDbSpline
210
0.0
220
0.0
230
1.0
 70
    56
 71
     3
 72
     9
 73
     5
 74
     3
 42
0.0000000001
 43
0.0000000001
 44
0.00000001
 40
0.0
 40
0.0
 40
0.0
 40
0.0
 40
0.0250039984387027
 40
0.0500079968774036
 40
0.0500079968774036
 40
0.0500079968774036
 40
0.0500079968774036
 10
20.59058668851481
 20
17.49253769072317
 30
0.0
 10
20.59041135440441
 20
17.50087051243727
 30
0.0
 10
20.59006068618362
 20
17.51753615586546
 30
0.0
 10
20.58971001796289
 20
17.53420179929364
 30
0.0
 10
20.58953468385255
 20
17.54253462100774
 30
0.0
 11
20.59058668851481
 21
17.49253769072317
 31
0.0
 11
20.59006068618362
 21
17.51753615586546
 31
0.0
 11
20.58953468385255
 21
17.54253462100774
 31
0.0
  0
SPLINE
  5
251
330
2
100
AcDbEntity
  8
GAIKEI
  6
Continuous
 62
     1
100
AcDbSpline
210
0.0
220
0.0
230
1.0
 70
    56
 71
     3
 72
     9
 73
     5
 74
     3
 42
0.0000000001
 43
0.0000000001
 44
0.00000001
 40
0.0
 40
0.0
 40
0.0
 40
0.0
 40
0.0250067170935406
 40
0.0500134341870544
 40
0.0500134341870544
 40
0.0500134341870544
 40
0.0500134341870544
 10
20.58953468385255
 20
17.54253462100774
 30
0.0
 10
20.58936766912254
 20
17.55086852001865
 30
0.0
 10
20.58903363966249
 20
17.56753631804047
 30
0.0
 10
20.58869961020239
 20
17.58420411606225
 30
0.0
 10
20.58853259547232
 20
17.59253801507316
 30
0.0
 11
20.58953468385255
 21
17.54253462100774
 31
0.0
 11
20.58903363966249
 21
17.56753631804048
 31
0.0
 11
20.58853259547232
 21
17.59253801507316
 31
0.0
  0
SPLINE
  5
252
330
2
100
AcDbEntity
  8
GAIKEI
  6
Continuous
 62
     1
100
AcDbSpline
210
0.0
220
0.0
230
1.0
 70
    40
 71
     3
 72
    11
 73
     7
 74
     5
 42
0.0000000001
 43
0.0000000001
 44
0.00000001
 40
0.0
 40
0.0
 40
0.0
 40
0.0
 40
0.081423129032751
 40
0.162846222057986
 40
0.2444957720001424
 40
0.326145357091332
 40
0.326145357091332
 40
0.326145357091332
 40
0.326145357091332
 10
19.37443623718354
 20
18.04253947464815
 30
0.0
 10
19.38499844100519
 20
18.06754100691562
 30
0.0
 10
19.40612285778995
 20
18.11754405454976
 30
0.0
 10
19.43803060097093
 20
18.19253690473059
 30
0.0
 10
19.47009535403613
 20
18.26754485601201
 30
0.0
 10
19.49161865792619
 20
18.31754191552365
 30
0.0
 10
19.50238031907895
 20
18.34254044769818
 30
0.0
 11
19.37443623718354
 21
18.04253947464815
 31
0.0
 11
19.40615478106167
 21
18.11753054023137
 31
0.0
 11
19.4380222121481
 21
18.19245841833458
 31
0.0
 11
19.47012709504804
 21
18.26753121968789
 31
0.0
 11
19.50238031907895
 21
18.34254044769818
 31
0.0
  0
SPLINE
  5
253
330
2
100
AcDbEntity
  8
GAIKEI
  6
Continuous
 62
     1
100
AcDbSpline
210
0.0
220
0.0
230
1.0
 70
    40
 71
     3
 72
    11
 73
     7
 74
     5
 42
0.0000000001
 43
0.0000000001
 44
0.00000001
 40
0.0
 40
0.0
 40
0.0
 40
0.0
 40
0.0828289910249154
 40
0.1656579486888282
 40
0.2485647660738526
 40
0.3314716164263411
 40
0.3314716164263411
 40
0.3314716164263411
 40
0.3314716164263411
 10
21.19120022515847
 20
18.04253947464815
 30
0.0
 10
21.20286076831182
 20
18.0675659762279
 30
0.0
 10
21.22618186351457
 20
18.11761896296535
 30
0.0
 10
21.26135784627809
 20
18.19263628822229
 30
0.0
 10
21.29666687180588
 20
18.26761977225165
 30
0.0
 10
21.32033532632096
 20
18.31756688804455
 30
0.0
 10
21.33216956271099
 20
18.34254044769818
 30
0.0
 11
21.19120022515847
 21
18.04253947464815
 31
0.0
 11
21.2262124131471
 21
18.11760470260338
 31
0.0
 11
21.26136713391407
 21
18.1926032481806
 31
0.0
 11
21.29669729094792
 21
18.26760538399077
 31
0.0
 11
21.33216956271099
 21
18.34254044769818
 31
0.0
  0
SPLINE
  5
254
330
2
100
AcDbEntity
  8
GAIKEI
  6
Continuous
 62
     7
100
AcDbSpline
210
0.0
220
0.0
230
1.0
 70
    56
 71
     3
 72
     9
 73
     5
 74
     3
 42
0.0000000001
 43
0.0000000001
 44
0.00000001
 40
0.0
 40
0.0
 40
0.0
 40
0.0
 40
0.0320943266714623
 40
0.0641886533428783
 40
0.0641886533428783
 40
0.0641886533428783
 40
0.0641886533428783
 10
33.22715909911437
 20
18.62254252022194
 30
0.0
 10
33.23529703641972
 20
18.61559820526314
 30
0.0
 10
33.25157291103039
 20
18.60170957534552
 30
0.0
 10
33.267848785641
 20
18.58782094542788
 30
0.0
 10
33.2759867229463
 20
18.58087663046905
 30
0.0
 11
33.22715909911437
 21
18.62254252022194
 31
0.0
 11
33.25157291103039
 21
18.60170957534552
 31
0.0
 11
33.2759867229463
 21
18.58087663046905
 31
0.0
  0
SPLINE
  5
255
330
2
100
AcDbEntity
  8
GAIKEI
  6
Continuous
 62
     7
100
AcDbSpline
210
0.0
220
0.0
230
1.0
 70
    56
 71
     3
 72
     9
 73
     5
 74
     3
 42
0.0000000001
 43
0.0000000001
 44
0.00000001
 40
0.0
 40
0.0
 40
0.0
 40
0.0
 40
0.0164707220844141
 40
0.0329414441688656
 40
0.0329414441688656
 40
0.0329414441688656
 40
0.0329414441688656
 10
33.2759867229463
 20
18.58087663046905
 30
0.0
 10
33.28011706762472
 20
18.5772595880689
 30
0.0
 10
33.28837775698151
 20
18.57002550326859
 30
0.0
 10
33.29663844633831
 20
18.56279141846825
 30
0.0
 10
33.30076879101671
 20
18.55917437606808
 30
0.0
 11
33.2759867229463
 21
18.58087663046905
 31
0.0
 11
33.28837775698151
 21
18.57002550326859
 31
0.0
 11
33.30076879101671
 21
18.55917437606808
 31
0.0
  0
SPLINE
  5
256
330
2
100
AcDbEntity
  8
GAIKEI
  6
Continuous
 62
     7
100
AcDbSpline
210
0.0
220
0.0
230
1.0
 70
    56
 71
     3
 72
     9
 73
     5
 74
     3
 42
0.0000000001
 43
0.0000000001
 44
0.00000001
 40
0.0
 40
0.0
 40
0.0
 40
0.0
 40
0.0162583629490157
 40
0.0325167258978898
 40
0.0325167258978898
 40
0.0325167258978898
 40
0.0325167258978898
 10
33.30076879101671
 20
18.55917437606808
 30
0.0
 10
33.30481606647402
 20
18.55557020536464
 30
0.0
 10
33.31291061738861
 20
18.54836186395781
 30
0.0
 10
33.32100516830319
 20
18.54115352255094
 30
0.0
 10
33.32505244376046
 20
18.53754935184753
 30
0.0
 11
33.30076879101671
 21
18.55917437606808
 31
0.0
 11
33.31291061738864
 21
18.54836186395778
 31
0.0
 11
33.32505244376046
 21
18.53754935184753
 31
0.0
  0
SPLINE
  5
257
330
2
100
AcDbEntity
  8
GAIKEI
  6
Continuous
 62
     7
100
AcDbSpline
210
0.0
220
0.0
230
1.0
 70
    56
 71
     3
 72
     9
 73
     5
 74
     3
 42
0.0000000001
 43
0.0000000001
 44
0.00000001
 40
0.0
 40
0.0
 40
0.0
 40
0.0
 40
0.0333857211851791
 40
0.0667714423702952
 40
0.0667714423702952
 40
0.0667714423702952
 40
0.0667714423702952
 10
33.32505244376046
 20
18.53754935184753
 30
0.0
 10
33.33327296780033
 20
18.53004814276244
 30
0.0
 10
33.34971401588004
 20
18.51504572459228
 30
0.0
 10
33.36615506395974
 20
18.50004330642208
 30
0.0
 10
33.37437558799957
 20
18.49254209733698
 30
0.0
 11
33.32505244376046
 21
18.53754935184753
 31
0.0
 11
33.34971401588007
 21
18.51504572459225
 31
0.0
 11
33.37437558799957
 21
18.49254209733698
 31
0.0
  0
SPLINE
  5
258
330
2
100
AcDbEntity
  8
GAIKEI
  6
Continuous
 62
     1
100
AcDbSpline
210
0.0
220
0.0
230
1.0
 70
    40
 71
     3
 72
    15
 73
    11
 74
     9
 42
0.0000000001
 43
0.0000000001
 44
0.00000001
 40
0.0
 40
0.0
 40
0.0
 40
0.0
 40
0.070213367447421
 40
0.13990851827302
 40
0.1863667211546925
 40
0.2327682520469185
 40
0.2789376666448803
 40
0.3251689674387732
 40
0.3884115427637708
 40
0.4519539049924774
 40
0.4519539049924774
 40
0.4519539049924774
 40
0.4519539049924774
 10
22.12116386009575
 20
17.64253817724818
 30
0.0
 10
22.12005564073654
 20
17.61905131050251
 30
0.0
 10
22.11784736690056
 20
17.57225092554003
 30
0.0
 10
22.09644875605397
 20
17.51297063268586
 30
0.0
 10
22.06929772340419
 20
17.46592938622242
 30
0.0
 10
22.03970335936979
 20
17.4299837551312
 30
0.0
 10
22.0049452647545
 20
17.39911952806665
 30
0.0
 10
21.96085437389176
 20
17.3715164371191
 30
0.0
 10
21.90678202560623
 20
17.34943140361237
 30
0.0
 10
21.86457479155313
 20
17.34500474111397
 30
0.0
 10
21.84342127327056
 20
17.34278618352579
 30
0.0
 11
22.12116386009575
 21
17.64253817724818
 31
0.0
 11
22.11434948604176
 21
17.57265626621733
 31
0.0
 11
22.09159745953423
 21
17.50677941415228
 31
0.0
 11
22.0682228500774
 21
17.46662978946057
 31
0.0
 11
22.03878058348391
 21
17.43076539038594
 31
0.0
 11
22.00420254777839
 21
17.40017169155209
 31
0.0
 11
21.96510237354027
 21
17.37550370268258
 31
0.0
 11
21.90623291075451
 21
17.35239504668948
 31
0.0
 11
21.84342127327056
 21
17.34278618352579
 31
0.0
  0
SPLINE
  5
259
330
2
100
AcDbEntity
  8
GAIKEI
  6
Continuous
 62
     1
100
AcDbSpline
210
0.0
220
0.0
230
1.0
 70
    56
 71
     3
 72
     9
 73
     5
 74
     3
 42
0.0000000001
 43
0.0000000001
 44
0.00000001
 40
0.0
 40
0.0
 40
0.0
 40
0.0
 40
0.0059487286071618
 40
0.0118974572143247
 40
0.0118974572143247
 40
0.0118974572143247
 40
0.0118974572143247
 10
21.84342127327056
 20
17.34278618352579
 30
0.0
 10
21.84143879798376
 20
17.3427446869712
 30
0.0
 10
21.83747384741014
 20
17.34266169386202
 30
0.0
 10
21.83350889683652
 20
17.34257870075277
 30
0.0
 10
21.83152642154971
 20
17.34253720419815
 30
0.0
 11
21.84342127327056
 21
17.34278618352579
 31
0.0
 11
21.83747384741014
 21
17.342661693862
 31
0.0
 11
21.83152642154971
 21
17.34253720419815
 31
0.0
  0
SPLINE
  5
25A
330
2
100
AcDbEntity
  8
GAIKEI
  6
Continuous
 62
     1
100
AcDbSpline
210
0.0
220
0.0
230
1.0
 70
    56
 71
     3
 72
     9
 73
     5
 74
     3
 42
0.0000000001
 43
0.0000000001
 44
0.00000001
 40
0.0
 40
0.0
 40
0.0
 40
0.0
 40
0.0022843691937015
 40
0.0045687383874719
 40
0.0045687383874719
 40
0.0045687383874719
 40
0.0045687383874719
 10
22.11246454729963
 20
18.4925409342232
 30
0.0
 10
22.11275007434402
 20
18.49324683092443
 30
0.0
 10
22.11332112843287
 20
18.49465862432696
 30
0.0
 10
22.11389218252175
 20
18.49607041772938
 30
0.0
 10
22.11417770956621
 20
18.49677631443063
 30
0.0
 11
22.11246454729963
 21
18.4925409342232
 31
0.0
 11
22.11332112843286
 21
18.49465862432692
 31
0.0
 11
22.11417770956621
 21
18.49677631443063
 31
0.0
  0
SPLINE
  5
25B
330
2
100
AcDbEntity
  8
GAIKEI
  6
Continuous
 62
     1
100
AcDbSpline
210
0.0
220
0.0
230
1.0
 70
    40
 71
     3
 72
    11
 73
     7
 74
     5
 42
0.0000000001
 43
0.0000000001
 44
0.00000001
 40
0.0
 40
0.0
 40
0.0
 40
0.0
 40
0.0382593373076461
 40
0.0765186746008293
 40
0.1168816593645458
 40
0.1572446441373872
 40
0.1572446441373872
 40
0.1572446441373872
 40
0.1572446441373872
 10
22.11417770956621
 20
18.49677631443063
 30
0.0
 10
22.11895988751885
 20
18.50859886284188
 30
0.0
 10
22.12852425729325
 20
18.53224395404889
 30
0.0
 10
22.14313642980814
 20
18.56836055848663
 30
0.0
 10
22.15801334619812
 20
18.60512648396519
 30
0.0
 10
22.16810829179265
 20
18.63006977703354
 30
0.0
 10
22.17315577156091
 20
18.64254142074816
 30
0.0
 11
22.11417770956621
 21
18.49677631443063
 31
0.0
 11
22.12852468578365
 21
18.53224378071542
 31
0.0
 11
22.1428737034646
 21
18.56771042112228
 31
0.0
 11
22.15801375021294
 21
18.60512632046385
 31
0.0
 11
22.17315577156091
 21
18.64254142074816
 31
0.0
  0
SPLINE
  5
25C
330
2
100
AcDbEntity
  8
GAIKEI
  6
Continuous
 62
     1
100
AcDbSpline
210
0.0
220
0.0
230
1.0
 70
    56
 71
     3
 72
     9
 73
     5
 74
     3
 42
0.0000000001
 43
0.0000000001
 44
0.00000001
 40
0.0
 40
0.0
 40
0.0
 40
0.0
 40
0.0136347417602305
 40
0.0272694835204238
 40
0.0272694835204238
 40
0.0272694835204238
 40
0.0272694835204238
 10
21.03547581660803
 20
18.51254099909317
 30
0.0
 10
21.0323859636311
 20
18.50920797477255
 30
0.0
 10
21.02620625767726
 20
18.50254192613131
 30
0.0
 10
21.02002655172346
 20
18.49587587749002
 30
0.0
 10
21.01693669874657
 20
18.49254285316937
 30
0.0
 11
21.03547581660803
 21
18.51254099909317
 31
0.0
 11
21.02620625767725
 21
18.5025419261313
 31
0.0
 11
21.01693669874657
 21
18.49254285316937
 31
0.0
  0
SPLINE
  5
25D
330
2
100
AcDbEntity
  8
GAIKEI
  6
Continuous
 62
     1
100
AcDbSpline
210
0.0
220
0.0
230
1.0
 70
    40
 71
     3
 72
     9
 73
     5
 74
     3
 42
0.0000000001
 43
0.0000000001
 44
0.00000001
 40
0.0
 40
0.0
 40
0.0
 40
0.0
 40
0.0500107204929444
 40
0.1000214409846491
 40
0.1000214409846491
 40
0.1000214409846491
 40
0.1000214409846491
 10
20.22257198224293
 20
17.59253801507316
 30
0.0
 10
20.22290190165518
 20
17.57587103732378
 30
0.0
 10
20.22356176047552
 20
17.54253708223129
 30
0.0
 10
20.22427161914453
 20
17.50920415442047
 30
0.0
 10
20.22462655847687
 20
17.49253769072317
 30
0.0
 11
20.22257198224293
 21
17.59253801507316
 31
0.0
 11
20.22357425043981
 21
17.54253733884587
 31
0.0
 11
20.22462655847687
 21
17.49253769072317
 31
0.0
  0
SPLINE
  5
25E
330
2
100
AcDbEntity
  8
GAIKEI
  6
Continuous
 62
     1
100
AcDbSpline
210
0.0
220
0.0
230
1.0
 70
    40
 71
     3
 72
     9
 73
     5
 74
     3
 42
0.0000000001
 43
0.0000000001
 44
0.00000001
 40
0.0
 40
0.0
 40
0.0
 40
0.0
 40
0.050005456844626
 40
0.1000109136884972
 40
0.1000109136884972
 40
0.1000109136884972
 40
0.1000109136884972
 10
20.21760872369464
 20
17.89253898812313
 30
0.0
 10
20.21783864815012
 20
17.87587208576869
 30
0.0
 10
20.2182985170591
 20
17.84253828134595
 30
0.0
 10
20.21880829712859
 20
17.80920520286541
 30
0.0
 10
20.2190631971622
 20
17.7925386637732
 30
0.0
 11
20.21760872369464
 21
17.89253898812313
 31
0.0
 11
20.21831098485029
 21
17.84253846268581
 31
0.0
 11
20.2190631971622
 21
17.7925386637732
 31
0.0
  0
SPLINE
  5
25F
330
2
100
AcDbEntity
  8
GAIKEI
  6
Continuous
 62
     1
100
AcDbSpline
210
0.0
220
0.0
230
1.0
 70
    40
 71
     3
 72
    11
 73
     7
 74
     5
 42
0.0000000001
 43
0.0000000001
 44
0.00000001
 40
0.0
 40
0.0
 40
0.0
 40
0.0
 40
0.0686670094855402
 40
0.1373339972887782
 40
0.2061453934185669
 40
0.2749568107285566
 40
0.2749568107285566
 40
0.2749568107285566
 40
0.2749568107285566
 10
20.58357050194775
 20
17.89253898812313
 30
0.0
 10
20.59922953518789
 20
17.87584463510173
 30
0.0
 10
20.6305476076581
 20
17.84245594459655
 30
0.0
 10
20.67766576294959
 20
17.79243940269873
 30
0.0
 10
20.72488874087242
 20
17.74245557554837
 30
0.0
 10
20.75646426911818
 20
17.7091774163986
 30
0.0
 10
20.77225204111448
 20
17.69253833942315
 30
0.0
 11
20.58357050194775
 21
17.89253898812313
 31
0.0
 11
20.63056561232293
 21
17.84247285392416
 31
0.0
 11
20.67764468857956
 21
17.79248569762234
 31
0.0
 11
20.7249066045373
 21
17.74247250396621
 31
0.0
 11
20.77225204111448
 21
17.69253833942315
 31
0.0
  0
SPLINE
  5
260
330
2
100
AcDbEntity
  8
GAIKEI
  6
Continuous
 62
     1
100
AcDbSpline
210
0.0
220
0.0
230
1.0
 70
    40
 71
     3
 72
    11
 73
     7
 74
     5
 42
0.0000000001
 43
0.0000000001
 44
0.00000001
 40
0.0
 40
0.0
 40
0.0
 40
0.0
 40
0.0676454610746739
 40
0.1352908999940374
 40
0.2027406208818895
 40
0.2701903645873428
 40
0.2701903645873428
 40
0.2701903645873428
 40
0.2701903645873428
 10
20.77225204111448
 20
17.69253833942315
 30
0.0
 10
20.75704194793782
 20
17.67589239042731
 30
0.0
 10
20.72662177764607
 20
17.64260048777335
 30
0.0
 10
20.68114621051961
 20
17.59260985806034
 30
0.0
 10
20.63578869097292
 20
17.54260013637598
 30
0.0
 10
20.60565402065765
 20
17.50922517784133
 30
0.0
 10
20.59058668851481
 20
17.49253769072317
 30
0.0
 11
20.77225204111448
 21
17.69253833942315
 31
0.0
 11
20.72664022952279
 21
17.64258364946886
 31
0.0
 11
20.68111470245867
 21
17.59255034261719
 31
0.0
 11
20.6358073033133
 21
17.54258330915593
 31
0.0
 11
20.59058668851481
 21
17.49253769072317
 31
0.0
  0
SPLINE
  5
261
330
2
100
AcDbEntity
  8
GAIKEI
  6
Continuous
 62
     1
100
AcDbSpline
210
0.0
220
0.0
230
1.0
 70
    40
 71
     3
 72
    11
 73
     7
 74
     5
 42
0.0000000001
 43
0.0000000001
 44
0.00000001
 40
0.0
 40
0.0
 40
0.0
 40
0.0
 40
0.0819973194975537
 40
0.1639946044319604
 40
0.246178650882241
 40
0.3283627312129539
 40
0.3283627312129539
 40
0.3283627312129539
 40
0.3283627312129539
 10
19.50238031907895
 20
18.34254044769818
 30
0.0
 10
19.5134092010193
 20
18.31753191790916
 30
0.0
 10
19.53546697397095
 20
18.26751487493217
 30
0.0
 10
19.5687660841432
 20
18.19251520786349
 30
0.0
 10
19.60221502559189
 20
18.11751407512797
 30
0.0
 10
19.62465541205873
 20
18.0675310095301
 30
0.0
 10
19.63587561444944
 20
18.04253947464815
 30
0.0
 11
19.50238031907895
 21
18.34254044769818
 31
0.0
 11
19.53549816798397
 21
18.26752865868985
 31
0.0
 11
19.5687615193782
 21
18.19258131588248
 31
0.0
 11
19.60224605841915
 21
18.11752798058416
 31
0.0
 11
19.63587561444944
 21
18.04253947464815
 31
0.0
  0
SPLINE
  5
262
330
2
100
AcDbEntity
  8
GAIKEI
  6
Continuous
 62
     1
100
AcDbSpline
210
0.0
220
0.0
230
1.0
 70
    40
 71
     3
 72
    11
 73
     7
 74
     5
 42
0.0000000001
 43
0.0000000001
 44
0.00000001
 40
0.0
 40
0.0
 40
0.0
 40
0.0
 40
0.0834474065739806
 40
0.1668947800124741
 40
0.2503805497473304
 40
0.3338663523552623
 40
0.3338663523552623
 40
0.3338663523552623
 40
0.3338663523552623
 10
21.33216956271099
 20
18.34254044769818
 30
0.0
 10
21.34429516933507
 20
18.31750668976679
 30
0.0
 10
21.36854639126429
 20
18.26743919039045
 30
0.0
 10
21.4051110090692
 20
18.19241491646288
 30
0.0
 10
21.44180251647465
 20
18.11743836861305
 30
0.0
 10
21.46638830357767
 20
18.06750577370699
 30
0.0
 10
21.47868120627993
 20
18.04253947464815
 30
0.0
 11
21.33216956271099
 21
18.34254044769818
 31
0.0
 11
21.36857675044416
 21
18.2674539219642
 31
0.0
 11
21.40512559571778
 21
18.1924362837305
 31
0.0
 11
21.44183276016838
 21
18.11745323344957
 31
0.0
 11
21.47868120627993
 21
18.04253947464815
 31
0.0
  0
SPLINE
  5
263
330
2
100
AcDbEntity
  8
GAIKEI
  6
Continuous
 62
     7
100
AcDbSpline
210
0.0
220
0.0
230
1.0
 70
    56
 71
     3
 72
     9
 73
     5
 74
     3
 42
0.0000000001
 43
0.0000000001
 44
0.00000001
 40
0.0
 40
0.0
 40
0.0
 40
0.0
 40
0.0308219597496066
 40
0.0616439194992341
 40
0.0616439194992341
 40
0.0616439194992341
 40
0.0616439194992341
 10
33.24294262530805
 20
18.62254252022194
 30
0.0
 10
33.25047980756649
 20
18.61556070928817
 30
0.0
 10
33.26555417208337
 20
18.60159708742064
 30
0.0
 10
33.28062853660029
 20
18.58763346555314
 30
0.0
 10
33.28816571885875
 20
18.58065165461937
 30
0.0
 11
33.24294262530805
 21
18.62254252022194
 31
0.0
 11
33.2655541720834
 21
18.60159708742066
 31
0.0
 11
33.28816571885875
 21
18.58065165461937
 31
0.0
  0
SPLINE
  5
264
330
2
100
AcDbEntity
  8
GAIKEI
  6
Continuous
 62
     7
100
AcDbSpline
210
0.0
220
0.0
230
1.0
 70
    56
 71
     3
 72
     9
 73
     5
 74
     3
 42
0.0000000001
 43
0.0000000001
 44
0.00000001
 40
0.0
 40
0.0
 40
0.0
 40
0.0
 40
0.0313981565327729
 40
0.062796313065686
 40
0.062796313065686
 40
0.062796313065686
 40
0.062796313065686
 10
33.28816571885875
 20
18.58065165461937
 30
0.0
 10
33.29574146042059
 20
18.57343040902236
 30
0.0
 10
33.31089294354429
 20
18.5589879178283
 30
0.0
 10
33.32604442666795
 20
18.5445454266342
 30
0.0
 10
33.3336201682298
 20
18.53732418103715
 30
0.0
 11
33.28816571885875
 21
18.58065165461937
 31
0.0
 11
33.31089294354422
 21
18.55898791782829
 31
0.0
 11
33.3336201682298
 21
18.53732418103715
 31
0.0
  0
SPLINE
  5
265
330
2
100
AcDbEntity
  8
GAIKEI
  6
Continuous
 62
     7
100
AcDbSpline
210
0.0
220
0.0
230
1.0
 70
    56
 71
     3
 72
     9
 73
     5
 74
     3
 42
0.0000000001
 43
0.0000000001
 44
0.00000001
 40
0.0
 40
0.0
 40
0.0
 40
0.0
 40
0.0302260984467274
 40
0.0604521968934739
 40
0.0604521968934739
 40
0.0604521968934739
 40
0.0604521968934739
 10
33.3336201682298
 20
18.53732418103715
 30
0.0
 10
33.34081923910493
 20
18.53027532428095
 30
0.0
 10
33.35521738085518
 20
18.51617761076855
 30
0.0
 10
33.36961552260542
 20
18.50207989725608
 30
0.0
 10
33.37681459348051
 20
18.49503104049984
 30
0.0
 11
33.3336201682298
 21
18.53732418103715
 31
0.0
 11
33.35521738085515
 21
18.51617761076852
 31
0.0
 11
33.37681459348051
 21
18.49503104049984
 31
0.0
  0
SPLINE
  5
266
330
2
100
AcDbEntity
  8
GAIKEI
  6
Continuous
 62
     7
100
AcDbSpline
210
0.0
220
0.0
230
1.0
 70
    56
 71
     3
 72
     9
 73
     5
 74
     3
 42
0.0000000001
 43
0.0000000001
 44
0.00000001
 40
0.0
 40
0.0
 40
0.0
 40
0.0
 40
0.0017667240073306
 40
0.0035334480146406
 40
0.0035334480146406
 40
0.0035334480146406
 40
0.0035334480146406
 10
33.37681459348051
 20
18.49503104049984
 30
0.0
 10
33.37723260520299
 20
18.49461621663938
 30
0.0
 10
33.37806862864795
 20
18.49378656891846
 30
0.0
 10
33.37890465209284
 20
18.49295692119747
 30
0.0
 10
33.37932266381529
 20
18.49254209733698
 30
0.0
 11
33.37681459348051
 21
18.49503104049984
 31
0.0
 11
33.37806862864795
 21
18.49378656891843
 31
0.0
 11
33.37932266381529
 21
18.49254209733698
 31
0.0
  0
SPLINE
  5
267
330
2
100
AcDbEntity
  8
GAIKEI
  6
Continuous
 62
     7
100
AcDbSpline
210
0.0
220
0.0
230
1.0
 70
    56
 71
     3
 72
     9
 73
     5
 74
     3
 42
0.0000000001
 43
0.0000000001
 44
0.00000001
 40
0.0
 40
0.0
 40
0.0
 40
0.0
 40
0.006709507792821
 40
0.0134190155856706
 40
0.0134190155856706
 40
0.0134190155856706
 40
0.0134190155856706
 10
33.24294262530805
 20
18.62254252022194
 30
0.0
 10
33.24293293758998
 20
18.62030603860627
 30
0.0
 10
33.24291356215383
 20
18.61583307537491
 30
0.0
 10
33.24289418671769
 20
18.61136011214358
 30
0.0
 10
33.24288449899962
 20
18.6091236305279
 30
0.0
 11
33.24294262530805
 21
18.62254252022194
 31
0.0
 11
33.24291356215383
 21
18.61583307537495
 31
0.0
 11
33.24288449899962
 21
18.6091236305279
 31
0.0
  0
SPLINE
  5
268
330
2
100
AcDbEntity
  8
GAIKEI
  6
Continuous
 62
     1
100
AcDbSpline
210
0.0
220
0.0
230
1.0
 70
    40
 71
     3
 72
    15
 73
    11
 74
     9
 42
0.0000000001
 43
0.0000000001
 44
0.00000001
 40
0.0
 40
0.0
 40
0.0
 40
0.0
 40
0.0627728722846317
 40
0.1248669193077685
 40
0.168361735237416
 40
0.2117002186508671
 40
0.256283625721601
 40
0.3008663862676165
 40
0.3695230532249298
 40
0.4385313808619392
 40
0.4385313808619392
 40
0.4385313808619392
 40
0.4385313808619392
 10
19.17204357983507
 20
17.34253720419815
 30
0.0
 10
19.15105680384973
 20
17.34432874101313
 30
0.0
 10
19.10931020476146
 20
17.34789245495578
 30
0.0
 10
19.0574849693608
 20
17.37205886080755
 30
0.0
 10
19.01724489387411
 20
17.40131454371868
 30
0.0
 10
18.98643567016035
 20
17.43274386072315
 30
0.0
 10
18.96045507718963
 20
17.46867325391785
 30
0.0
 10
18.9361298305478
 20
17.51543266336851
 30
0.0
 10
18.91655115889358
 20
17.57361847479308
 30
0.0
 10
18.91314873793708
 20
17.6195258529065
 30
0.0
 10
18.91144318905048
 20
17.64253817724818
 30
0.0
 11
19.17204357983507
 21
17.34253720419815
 31
0.0
 11
19.10991976369064
 21
17.35154083465829
 31
0.0
 11
19.0531335106408
 21
17.37666040000988
 31
0.0
 11
19.01798173632403
 21
17.40227586267372
 31
0.0
 11
18.98754711270226
 21
17.43312967851892
 31
0.0
 11
18.96138992815145
 21
17.46923344544859
 31
0.0
 11
18.94066005172522
 21
17.50870362208263
 31
0.0
 11
18.9194210961565
 21
17.57399255556254
 31
0.0
 11
18.91144318905048
 21
17.64253817724818
 31
0.0
  0
SPLINE
  5
269
330
2
100
AcDbEntity
  8
GAIKEI
  6
Continuous
 62
     1
100
AcDbSpline
210
0.0
220
0.0
230
1.0
 70
    40
 71
     3
 72
    15
 73
    11
 74
     9
 42
0.0000000001
 43
0.0000000001
 44
0.00000001
 40
0.0
 40
0.0
 40
0.0
 40
0.0
 40
0.0698650104163765
 40
0.1393719935249158
 40
0.1843077090860517
 40
0.2292392345172904
 40
0.2722206442011768
 40
0.3153309329569056
 40
0.3708798745195736
 40
0.4267599692077696
 40
0.4267599692077696
 40
0.4267599692077696
 40
0.4267599692077696
 10
18.92364068147299
 20
17.64253817724818
 30
0.0
 10
18.92538305616031
 20
17.61923944243062
 30
0.0
 10
18.92885889113727
 20
17.57276137021837
 30
0.0
 10
18.94889198812561
 20
17.51397883971154
 30
0.0
 10
18.97372303605401
 20
17.4668973895847
 30
0.0
 10
19.0000446067698
 20
17.43106723643079
 30
0.0
 10
19.03099713907177
 20
17.39997357821016
 30
0.0
 10
19.06949083550094
 20
17.37242802220429
 30
0.0
 10
19.11674705331849
 20
17.3500663801597
 30
0.0
 10
19.15377690148005
 20
17.34527061718097
 30
0.0
 10
19.17234685089875
 20
17.34286561647337
 30
0.0
 11
18.92364068147299
 21
17.64253817724818
 31
0.0
 11
18.93180108014371
 21
17.57315138087233
 31
0.0
 11
18.95355146491045
 21
17.50713515864663
 31
0.0
 11
18.97467475657788
 21
17.46747377742099
 31
0.0
 11
19.00130602461775
 21
17.4312851377087
 31
0.0
 11
19.03172917368067
 21
17.40092342328148
 31
0.0
 11
19.06675117988629
 21
17.37578468352666
 31
0.0
 11
19.11738045586003
 21
17.35292945021604
 31
0.0
 11
19.17234685089875
 21
17.34286561647337
 31
0.0
  0
SPLINE
  5
26A
330
2
100
AcDbEntity
  8
GAIKEI
  6
Continuous
 62
     1
100
AcDbSpline
210
0.0
220
0.0
230
1.0
 70
    56
 71
     3
 72
     9
 73
     5
 74
     3
 42
0.0000000001
 43
0.0000000001
 44
0.00000001
 40
0.0
 40
0.0
 40
0.0
 40
0.0
 40
0.0250039942441001
 40
0.0500079884882292
 40
0.0500079884882292
 40
0.0500079884882292
 40
0.0500079884882292
 10
20.23661095487819
 20
17.49253769072317
 30
0.0
 10
20.23643531505685
 20
17.50087050460057
 30
0.0
 10
20.23608403541418
 20
17.51753613235537
 30
0.0
 10
20.23573275577144
 20
17.53420176011015
 30
0.0
 10
20.23555711595009
 20
17.54253457398755
 30
0.0
 11
20.23661095487819
 21
17.49253769072317
 31
0.0
 11
20.23608403541414
 21
17.51753613235536
 31
0.0
 11
20.23555711595009
 21
17.54253457398755
 31
0.0
  0
SPLINE
  5
26B
330
2
100
AcDbEntity
  8
GAIKEI
  6
Continuous
 62
     1
100
AcDbSpline
210
0.0
220
0.0
230
1.0
 70
    56
 71
     3
 72
     9
 73
     5
 74
     3
 42
0.0000000001
 43
0.0000000001
 44
0.00000001
 40
0.0
 40
0.0
 40
0.0
 40
0.0
 40
0.0250067581319624
 40
0.0500135162638657
 40
0.0500135162638657
 40
0.0500135162638657
 40
0.0500135162638657
 10
20.23555711595009
 20
17.54253457398755
 30
0.0
 10
20.23538980978741
 20
17.55086848083516
 30
0.0
 10
20.23505519746206
 20
17.56753629453037
 30
0.0
 10
20.23472058513683
 20
17.58420410822556
 30
0.0
 10
20.2345532789742
 20
17.59253801507316
 30
0.0
 11
20.23555711595009
 21
17.54253457398755
 31
0.0
 11
20.23505519746209
 21
17.56753629453038
 31
0.0
 11
20.2345532789742
 21
17.59253801507316
 31
0.0
  0
SPLINE
  5
26C
330
2
100
AcDbEntity
  8
GAIKEI
  6
Continuous
 62
     1
100
AcDbSpline
210
0.0
220
0.0
230
1.0
 70
    56
 71
     3
 72
     9
 73
     5
 74
     3
 42
0.0000000001
 43
0.0000000001
 44
0.00000001
 40
0.0
 40
0.0
 40
0.0
 40
0.0
 40
0.0250017529588853
 40
0.0500035059176842
 40
0.0500035059176842
 40
0.0500035059176842
 40
0.0500035059176842
 10
20.23103920402627
 20
17.7925386637732
 30
0.0
 10
20.23091365118069
 20
17.80087163562778
 30
0.0
 10
20.23066254548949
 20
17.81753757933693
 30
0.0
 10
20.2304114397984
 20
17.83420352304607
 30
0.0
 10
20.23028588695286
 20
17.84253649490063
 30
0.0
 11
20.23103920402627
 21
17.7925386637732
 31
0.0
 11
20.23066254548951
 21
17.81753757933694
 31
0.0
 11
20.23028588695286
 21
17.84253649490063
 31
0.0
  0
SPLINE
  5
26D
330
2
100
AcDbEntity
  8
GAIKEI
  6
Continuous
 62
     1
100
AcDbSpline
210
0.0
220
0.0
230
1.0
 70
    56
 71
     3
 72
     9
 73
     5
 74
     3
 42
0.0000000001
 43
0.0000000001
 44
0.00000001
 40
0.0
 40
0.0
 40
0.0
 40
0.0
 40
0.0250037198562635
 40
0.0500074397124698
 40
0.0500074397124698
 40
0.0500074397124698
 40
0.0500074397124698
 10
20.23028588695286
 20
17.84253649490063
 30
0.0
 10
20.23016866231933
 20
17.85087024377105
 30
0.0
 10
20.22993421305224
 20
17.86753774151191
 30
0.0
 10
20.2296997637852
 20
17.88420523925272
 30
0.0
 10
20.22958253915169
 20
17.89253898812313
 30
0.0
 11
20.23028588695286
 21
17.84253649490063
 31
0.0
 11
20.22993421305228
 21
17.86753774151191
 31
0.0
 11
20.22958253915169
 21
17.89253898812313
 31
0.0
  0
SPLINE
  5
26E
330
2
100
AcDbEntity
  8
GAIKEI
  6
Continuous
 62
     1
100
AcDbSpline
210
0.0
220
0.0
230
1.0
 70
    40
 71
     3
 72
    11
 73
     7
 74
     5
 42
0.0000000001
 43
0.0000000001
 44
0.00000001
 40
0.0
 40
0.0
 40
0.0
 40
0.0
 40
0.0688138618679112
 40
0.1376276982507312
 40
0.1734508329034206
 40
0.2092739560316063
 40
0.2092739560316063
 40
0.2092739560316063
 40
0.2092739560316063
 10
20.7842347780603
 20
17.69253833942315
 30
0.0
 10
20.76844579914824
 20
17.70917739378205
 30
0.0
 10
20.73686785853589
 20
17.74245550710883
 30
0.0
 10
20.69716087208229
 20
17.78448120339516
 30
0.0
 10
20.66504352877719
 20
17.81854866668779
 30
0.0
 10
20.6486806371873
 20
17.83594435305397
 30
0.0
 10
20.64049919804552
 20
17.84464219986051
 30
0.0
 11
20.7842347780603
 21
17.69253833942315
 31
0.0
 11
20.73688577407779
 21
17.74247249013507
 31
0.0
 11
20.689620527991
 21
17.79248589426186
 31
0.0
 11
20.6650484209074
 21
17.81855327868345
 31
0.0
 11
20.64049919804552
 21
17.84464219986051
 31
0.0
  0
SPLINE
  5
26F
330
2
100
AcDbEntity
  8
GAIKEI
  6
Continuous
 62
     1
100
AcDbSpline
210
0.0
220
0.0
230
1.0
 70
    56
 71
     3
 72
     9
 73
     5
 74
     3
 42
0.0000000001
 43
0.0000000001
 44
0.00000001
 40
0.0
 40
0.0
 40
0.0
 40
0.0
 40
0.0328454593907345
 40
0.06569091878139
 40
0.06569091878139
 40
0.06569091878139
 40
0.06569091878139
 10
20.64049919804552
 20
17.84464219986051
 30
0.0
 10
20.63300624861051
 20
17.85262499790428
 30
0.0
 10
20.61802034974054
 20
17.86859059399181
 30
0.0
 10
20.60303445087057
 20
17.88455619007936
 30
0.0
 10
20.59554150143561
 20
17.89253898812313
 30
0.0
 11
20.64049919804552
 21
17.84464219986051
 31
0.0
 11
20.6180203497405
 21
17.86859059399182
 31
0.0
 11
20.59554150143561
 21
17.89253898812313
 31
0.0
  0
SPLINE
  5
270
330
2
100
AcDbEntity
  8
GAIKEI
  6
Continuous
 62
     1
100
AcDbSpline
210
0.0
220
0.0
230
1.0
 70
    56
 71
     3
 72
     9
 73
     5
 74
     3
 42
0.0000000001
 43
0.0000000001
 44
0.00000001
 40
0.0
 40
0.0
 40
0.0
 40
0.0
 40
0.0323825296212015
 40
0.0647650592423247
 40
0.0647650592423247
 40
0.0647650592423247
 40
0.0647650592423247
 10
20.60256825565682
 20
17.49253769072317
 30
0.0
 10
20.60980472799661
 20
17.50054691760601
 30
0.0
 10
20.62427767267613
 20
17.5165653713717
 30
0.0
 10
20.63875061735564
 20
17.53258382513741
 30
0.0
 10
20.64598708969538
 20
17.54059305202025
 30
0.0
 11
20.60256825565682
 21
17.49253769072317
 31
0.0
 11
20.62427767267616
 21
17.51656537137171
 31
0.0
 11
20.64598708969538
 21
17.54059305202025
 31
0.0
  0
SPLINE
  5
271
330
2
100
AcDbEntity
  8
GAIKEI
  6
Continuous
 62
     1
100
AcDbSpline
210
0.0
220
0.0
230
1.0
 70
    40
 71
     3
 72
    11
 73
     7
 74
     5
 42
0.0000000001
 43
0.0000000001
 44
0.00000001
 40
0.0
 40
0.0
 40
0.0
 40
0.0
 40
0.0350674519188187
 40
0.0701349159128389
 40
0.1377804954780484
 40
0.2054261017535465
 40
0.2054261017535465
 40
0.2054261017535465
 40
0.2054261017535465
 10
20.64598708969538
 20
17.54059305202025
 30
0.0
 10
20.65383306037472
 20
17.54925775118035
 30
0.0
 10
20.66952501529674
 20
17.56658714264429
 30
0.0
 10
20.70039150276114
 20
17.60059499906711
 30
0.0
 10
20.73860384850666
 20
17.64260090397646
 30
0.0
 10
20.76902446235061
 20
17.67589252893637
 30
0.0
 10
20.7842347780603
 20
17.69253833942315
 30
0.0
 11
20.64598708969538
 21
17.54059305202025
 31
0.0
 11
20.66953003706647
 21
17.56658258479439
 31
0.0
 11
20.69309647020089
 21
17.59255083966582
 31
0.0
 11
20.73862235653542
 21
17.64258400976803
 31
0.0
 11
20.7842347780603
 21
17.69253833942315
 31
0.0
  0
SPLINE
  5
272
330
2
100
AcDbEntity
  8
GAIKEI
  6
Continuous
 62
     1
100
AcDbSpline
210
0.0
220
0.0
230
1.0
 70
    56
 71
     3
 72
     9
 73
     5
 74
     3
 42
0.0000000001
 43
0.0000000001
 44
0.00000001
 40
0.0
 40
0.0
 40
0.0
 40
0.0
 40
0.0024580953392731
 40
0.0049161906784997
 40
0.0049161906784997
 40
0.0049161906784997
 40
0.0049161906784997
 10
19.64789963567921
 20
18.04253947464815
 30
0.0
 10
19.64756370591628
 20
18.04328681017048
 30
0.0
 10
19.64689184639039
 20
18.0447814812151
 30
0.0
 10
19.6462199868646
 20
18.04627615225975
 30
0.0
 10
19.64588405710174
 20
18.0470234877821
 30
0.0
 11
19.64789963567921
 21
18.04253947464815
 31
0.0
 11
19.64689184639041
 21
18.04478148121512
 31
0.0
 11
19.64588405710174
 21
18.0470234877821
 31
0.0
  0
SPLINE
  5
273
330
2
100
AcDbEntity
  8
GAIKEI
  6
Continuous
 62
     1
100
AcDbSpline
210
0.0
220
0.0
230
1.0
 70
    40
 71
     3
 72
    11
 73
     7
 74
     5
 42
0.0000000001
 43
0.0000000001
 44
0.00000001
 40
0.0
 40
0.0
 40
0.0
 40
0.0
 40
0.0797247200352248
 40
0.1594494133778678
 40
0.2414444299000757
 40
0.3234394816388036
 40
0.3234394816388036
 40
0.3234394816388036
 40
0.3234394816388036
 10
19.64588405710174
 20
18.0470234877821
 30
0.0
 10
19.63500301841107
 20
18.07126867565438
 30
0.0
 10
19.61324095834308
 20
18.11975904940773
 30
0.0
 10
19.58046538291965
 20
18.19326442012414
 30
0.0
 10
19.54750327764246
 20
18.26751510680354
 30
0.0
 10
19.52544890155613
 20
18.31753199513036
 30
0.0
 10
19.514421718015
 20
18.34254044769818
 30
0.0
 11
19.64588405710174
 21
18.0470234877821
 31
0.0
 11
19.61327022966122
 21
18.11977215956278
 31
0.0
 11
19.5807931854041
 21
18.19258196884681
 31
0.0
 11
19.54753454021295
 21
18.26752891846962
 31
0.0
 11
19.514421718015
 21
18.34254044769818
 31
0.0
  0
SPLINE
  5
274
330
2
100
AcDbEntity
  8
GAIKEI
  6
Continuous
 62
     1
100
AcDbSpline
210
0.0
220
0.0
230
1.0
 70
    56
 71
     3
 72
     9
 73
     5
 74
     3
 42
0.0000000001
 43
0.0000000001
 44
0.00000001
 40
0.0
 40
0.0
 40
0.0
 40
0.0
 40
0.0026585575792707
 40
0.005317115158377
 40
0.005317115158377
 40
0.005317115158377
 40
0.005317115158377
 10
21.49073383976258
 20
18.04253947464815
 30
0.0
 10
21.49034193867975
 20
18.04333429470282
 30
0.0
 10
21.48955813651413
 20
18.04492393481215
 30
0.0
 10
21.48877433434861
 20
18.04651357492147
 30
0.0
 10
21.48838243326588
 20
18.04730839497614
 30
0.0
 11
21.49073383976258
 21
18.04253947464815
 31
0.0
 11
21.48955813651412
 21
18.04492393481217
 31
0.0
 11
21.48838243326588
 21
18.04730839497614
 31
0.0
  0
SPLINE
  5
275
330
2
100
AcDbEntity
  8
GAIKEI
  6
Continuous
 62
     1
100
AcDbSpline
210
0.0
220
0.0
230
1.0
 70
    40
 71
     3
 72
    11
 73
     7
 74
     5
 42
0.0000000001
 43
0.0000000001
 44
0.00000001
 40
0.0
 40
0.0
 40
0.0
 40
0.0
 40
0.0808301395258999
 40
0.1616602535675624
 40
0.2451103304325258
 40
0.3285604410957319
 40
0.3285604410957319
 40
0.3285604410957319
 40
0.3285604410957319
 10
21.48838243326588
 20
18.04730839497614
 30
0.0
 10
21.47648122868908
 20
18.07148084847088
 30
0.0
 10
21.45267883672831
 20
18.11982575444801
 30
0.0
 10
21.41676187760474
 20
18.19321127257419
 30
0.0
 10
21.38057932405105
 20
18.26743900337791
 30
0.0
 10
21.35632422479593
 20
18.31750662735941
 30
0.0
 10
21.34419667947077
 20
18.34254044769818
 30
0.0
 11
21.48838243326588
 21
18.04730839497614
 31
0.0
 11
21.45270724737043
 21
18.11983971626961
 31
0.0
 11
21.41716477688726
 21
18.19243613581614
 31
0.0
 11
21.38060974815255
 21
18.26745376845127
 31
0.0
 11
21.34419667947077
 21
18.34254044769818
 31
0.0
  0
SPLINE
  5
276
330
2
100
AcDbEntity
  8
GAIKEI
  6
Continuous
 62
     1
100
AcDbSpline
210
0.0
220
0.0
230
1.0
 70
    40
 71
     3
 72
    11
 73
     7
 74
     5
 42
0.0000000001
 43
0.0000000001
 44
0.00000001
 40
0.0
 40
0.0
 40
0.0
 40
0.0
 40
0.2124680891669746
 40
0.4249357354928851
 40
0.6374963274734832
 40
0.8500573603601388
 40
0.8500573603601388
 40
0.8500573603601388
 40
0.8500573603601388
 10
18.92364068147299
 20
17.64253817724818
 30
0.0
 10
18.92238934524111
 20
17.71334994338457
 30
0.0
 10
18.91988669038304
 20
17.85497332831289
 30
0.0
 10
18.91731461563961
 20
18.06745740073326
 30
0.0
 10
18.91553023445662
 20
18.2799805285715
 30
0.0
 10
18.91512822480511
 20
18.42168741666282
 30
0.0
 10
18.91492722727093
 20
18.4925409342232
 30
0.0
 11
18.92364068147299
 21
17.64253817724818
 31
0.0
 11
18.92008372512896
 21
17.85497649061153
 31
0.0
 11
18.91744625830358
 21
18.0674277662556
 31
0.0
 11
18.91572716318956
 21
18.27998140653
 31
0.0
 11
18.91492722727093
 21
18.4925409342232
 31
0.0
  0
SPLINE
  5
277
330
2
100
AcDbEntity
  8
GAIKEI
  6
Continuous
 62
     1
100
AcDbSpline
210
0.0
220
0.0
230
1.0
 70
    40
 71
     3
 72
    11
 73
     7
 74
     5
 42
0.0000000001
 43
0.0000000001
 44
0.00000001
 40
0.0
 40
0.0
 40
0.0
 40
0.0
 40
0.040362751069896
 40
0.0807255021305995
 40
0.1189850731248059
 40
0.1572446441336773
 40
0.1572446441336773
 40
0.1572446441336773
 40
0.1572446441336773
 10
18.96343510051577
 20
18.64254142074816
 30
0.0
 10
18.95838764997238
 20
18.6300698492448
 30
0.0
 10
18.94829276282763
 20
18.60512670059907
 30
0.0
 10
18.93341587564278
 20
18.56836084734053
 30
0.0
 10
18.91880367389534
 20
18.53224417069589
 30
0.0
 10
18.90923924569607
 20
18.50859893505756
 30
0.0
 10
18.90445703853095
 20
18.49677631443063
 30
0.0
 11
18.96343510051577
 21
18.64254142074816
 31
0.0
 11
18.94829316683751
 21
18.60512653709969
 31
0.0
 11
18.93315320773547
 21
18.56771085440351
 31
0.0
 11
18.91880410239048
 21
18.53224399736058
 31
0.0
 11
18.90445703853095
 21
18.49677631443063
 31
0.0
  0
SPLINE
  5
278
330
2
100
AcDbEntity
  8
GAIKEI
  6
Continuous
 62
     1
100
AcDbSpline
210
0.0
220
0.0
230
1.0
 70
    56
 71
     3
 72
     9
 73
     5
 74
     3
 42
0.0000000001
 43
0.0000000001
 44
0.00000001
 40
0.0
 40
0.0
 40
0.0
 40
0.0
 40
0.0022843691956276
 40
0.0045687383912233
 40
0.0045687383912233
 40
0.0045687383912233
 40
0.0045687383912233
 10
18.90445703853095
 20
18.49677631443063
 30
0.0
 10
18.90417151148483
 20
18.4960704177294
 30
0.0
 10
18.90360045739261
 20
18.49465862432693
 30
0.0
 10
18.90302940330042
 20
18.49324683092445
 30
0.0
 10
18.90274387625436
 20
18.4925409342232
 30
0.0
 11
18.90445703853095
 21
18.49677631443063
 31
0.0
 11
18.9036004573926
 21
18.49465862432692
 31
0.0
 11
18.90274387625436
 21
18.4925409342232
 31
0.0
  0
SPLINE
  5
279
330
2
100
AcDbEntity
  8
GAIKEI
  6
Continuous
 62
     1
100
AcDbSpline
210
0.0
220
0.0
230
1.0
 70
    40
 71
     3
 72
    11
 73
     7
 74
     5
 42
0.0000000001
 43
0.0000000001
 44
0.00000001
 40
0.0
 40
0.0
 40
0.0
 40
0.0
 40
0.2124644454491689
 40
0.4249284495549287
 40
0.6374925966216868
 40
0.8500571832352106
 40
0.8500571832352106
 40
0.8500571832352106
 40
0.8500571832352106
 10
18.91144318905048
 20
17.64253817724818
 30
0.0
 10
18.91019390478404
 20
17.71334876444112
 30
0.0
 10
18.90769535384376
 20
17.85496979198129
 30
0.0
 10
18.90512744260911
 20
18.06745266819693
 30
0.0
 10
18.90334592063403
 20
18.27997697284729
 30
0.0
 10
18.90294455285252
 20
18.42168623157246
 30
0.0
 10
18.90274387625436
 20
18.4925409342232
 30
0.0
 11
18.91144318905048
 21
17.64253817724818
 31
0.0
 11
18.90789206127124
 21
17.85497294389512
 31
0.0
 11
18.90525889593721
 21
18.06742063039633
 31
0.0
 11
18.90354253657745
 21
18.2799778479814
 31
0.0
 11
18.90274387625436
 21
18.4925409342232
 31
0.0
  0
TEXT
  5
27A
330
2
100
AcDbEntity
  8
MOJI1
100
AcDbText
 10
-15.73305893887004
 20
-33.03055485947954
 30
0.0
 40
3.0
  1
本　体　　 　：ＡＢＳ樹脂、シルバーメタリック塗装
 41
0.93
  7
KANJI
100
AcDbText
  0
DIMENSION
  5
27B
330
2
100
AcDbEntity
  8
SUNPO
100
AcDbDimension
  2
*D3
 10
0.578129387359013
 20
2.492489038223252
 30
0.0
 11
-1.171870612640987
 21
10.64251547274821
 31
0.0
 70
    33
  1
163
 71
     5
 42
16.30005286904992
  3
STANDARD
100
AcDbAlignedDimension
 13
-7.421870612640987
 23
18.79254190727317
 33
0.0
 14
-7.421870612640987
 24
2.492489038223254
 34
0.0
1001
ACAD
1000
DSTYLE
1002
{
1070
    40
1040
1.0
1070
   140
1040
2.5
1070
   147
1040
0.5
1070
   172
1070
     1
1070
   279
1070
     0
1070
   288
1070
     0
1002
}
  0
DIMENSION
  5
28A
330
2
100
AcDbEntity
  8
SUNPO
100
AcDbDimension
  2
*D4
 10
-26.00330816122698
 20
26.75440576236196
 30
0.0
 11
-16.75330636946853
 21
28.50440576236195
 31
0.0
 70
    33
  1
\U+03C6185
 71
     5
 42
18.5000035835169
  3
STANDARD
100
AcDbAlignedDimension
 13
-7.503304577710082
 23
18.75440576236195
 33
0.0
 14
-26.00330816122698
 24
18.75440576236195
 34
0.0
1001
ACAD
1000
DSTYLE
1002
{
1070
    40
1040
1.0
1070
   140
1040
2.5
1070
   147
1040
0.5
1070
   172
1070
     1
1070
   279
1070
     0
1070
   288
1070
     0
1002
}
  0
ENDSEC
  0
SECTION
  2
OBJECTS
  0
DICTIONARY
  5
C
330
0
100
AcDbDictionary
281
     1
  3
ACAD_COLOR
350
51
  3
ACAD_GROUP
350
3E
  3
ACAD_LAYOUT
350
19
  3
ACAD_MATERIAL
350
E
  3
ACAD_MLEADERSTYLE
350
54
  3
ACAD_MLINESTYLE
350
3F
  3
ACAD_PLOTSETTINGS
350
40
  3
ACAD_PLOTSTYLENAME
350
B
  3
ACAD_SCALELIST
350
52
  3
ACAD_TABLESTYLE
350
53
  3
ACAD_VISUALSTYLE
350
31
  3
ACDB_RECOMPOSE_DATA
350
31D
  3
AcDbVariableDictionary
350
29A
  3
DWGPROPS
350
31E
  0
DICTIONARY
  5
32
330
2E
100
AcDbDictionary
280
     1
281
     1
  0
DICTIONARY
  5
22
330
21
100
AcDbDictionary
280
     1
281
     1
  3
ACAD_LAYERFILTERS
360
23
  3
ACAD_LAYERSTATES
360
25
  0
DICTIONARY
  5
8
330
7
100
AcDbDictionary
280
     1
281
     1
  3
ADSK_XREC_LAYER_RECONCILED
360
9
  0
DICTIONARY
  5
78
330
77
100
AcDbDictionary
280
     1
281
     1
  3
ADSK_XREC_LAYER_RECONCILED
360
79
  0
DICTIONARY
  5
70
330
6F
100
AcDbDictionary
280
     1
281
     1
  3
ADSK_XREC_LAYER_RECONCILED
360
71
  0
DICTIONARY
  5
56
330
55
100
AcDbDictionary
280
     1
281
     1
  3
ADSK_XREC_LAYER_RECONCILED
360
57
  0
DICTIONARY
  5
74
330
73
100
AcDbDictionary
280
     1
281
     1
  3
ADSK_XREC_LAYER_RECONCILED
360
75
  0
DICTIONARY
  5
3
330
2
100
AcDbDictionary
280
     1
281
     1
  3
ACAD_LAYOUTSELFREF
360
4
  3
ACAD_SORTENTS
360
297
  0
DICTIONARY
  5
1C
330
1B
100
AcDbDictionary
280
     1
281
     1
  3
ACAD_LAYOUTSELFREF
360
1D
  0
DICTIONARY
  5
51
102
{ACAD_REACTORS
330
C
102
}
330
C
100
AcDbDictionary
281
     1
  0
DICTIONARY
  5
3E
102
{ACAD_REACTORS
330
C
102
}
330
C
100
AcDbDictionary
281
     1
  0
DICTIONARY
  5
19
102
{ACAD_REACTORS
330
C
102
}
330
C
100
AcDbDictionary
281
     1
  3
Model
350
18
  3
ﾚｲｱｳﾄ1
350
20
  0
DICTIONARY
  5
E
102
{ACAD_REACTORS
330
C
102
}
330
C
100
AcDbDictionary
281
     1
  3
ByBlock
350
49
  3
ByLayer
350
41
  3
Global
350
D
  0
DICTIONARY
  5
54
102
{ACAD_REACTORS
330
C
102
}
330
C
100
AcDbDictionary
281
     1
  3
Standard
350
2B8
  0
DICTIONARY
  5
3F
102
{ACAD_REACTORS
330
C
102
}
330
C
100
AcDbDictionary
281
     1
  3
STANDARD
350
58
  0
DICTIONARY
  5
40
102
{ACAD_REACTORS
330
C
102
}
330
C
100
AcDbDictionary
281
     1
  0
ACDBDICTIONARYWDFLT
  5
B
102
{ACAD_REACTORS
330
C
102
}
330
C
100
AcDbDictionary
281
     1
  3
Normal
350
A
100
AcDbDictionaryWithDefault
340
A
  0
DICTIONARY
  5
52
102
{ACAD_REACTORS
330
C
102
}
330
C
100
AcDbDictionary
281
     1
  3
A0
350
5D
  3
A1
350
5E
  3
A2
350
5F
  3
A3
350
60
  3
A4
350
61
  3
A5
350
62
  3
A6
350
63
  3
A7
350
64
  3
A8
350
65
  3
A9
350
66
  3
B0
350
67
  3
B1
350
68
  3
B2
350
69
  3
B3
350
6A
  3
B4
350
6B
  3
B5
350
6C
  3
B6
350
6D
  0
DICTIONARY
  5
53
102
{ACAD_REACTORS
330
C
102
}
330
C
100
AcDbDictionary
281
     1
  3
Standard
350
59
  0
DICTIONARY
  5
31
102
{ACAD_REACTORS
330
C
102
}
330
C
100
AcDbDictionary
281
     1
  3
2dWireframe
350
30
  3
Basic
350
2A7
  3
Brighten
350
2AB
  3
ColorChange
350
2AF
  3
Conceptual
350
2A9
  3
Dim
350
2AA
  3
EdgeColorOff
350
2B7
  3
Facepattern
350
2AE
  3
Flat
350
2A3
  3
FlatWithEdges
350
2A4
  3
Gouraud
350
2A5
  3
GouraudWithEdges
350
2A6
  3
Hidden
350
2A8
  3
JitterOff
350
2B5
  3
Linepattern
350
2AD
  3
OverhangOff
350
2B6
  3
Realistic
350
5B
  3
Shaded
350
2B4
  3
Shaded with edges
350
2B3
  3
Shades of Gray
350
2B0
  3
Sketchy
350
2B1
  3
Thicken
350
2AC
  3
Wireframe
350
5C
  3
X-Ray
350
2B2
  0
XRECORD
  5
31D
102
{ACAD_REACTORS
330
C
102
}
330
C
100
AcDbXrecord
280
     1
 90
        1
330
59
  0
DICTIONARY
  5
29A
102
{ACAD_REACTORS
330
C
102
}
330
C
100
AcDbDictionary
281
     1
  3
CANNOSCALE
350
29E
  3
CMLEADERSTYLE
350
29C
  3
CTABLESTYLE
350
29B
  3
DIMASSOC
350
31A
  3
HIDETEXT
350
319
  3
INDEXCTL
350
318
  3
LAYEREVAL
350
2A0
  3
LAYERNOTIFY
350
2A1
  3
LIGHTINGUNITS
350
29F
  3
MSLTSCALE
350
29D
  3
SORTENTS
350
317
  3
XCLIPFRAME
350
31B
  0
XRECORD
  5
31E
102
{ACAD_REACTORS
330
C
102
}
330
C
100
AcDbXrecord
280
     1
  1
DWGPROPS COOKIE
  2

  3

  4

  6

  7

  8
7009729
  9

300
=
301
=
302
=
303
=
304
=
305
=
306
=
307
=
308
=
309
=
 40
0.5324577430555557
 41
2451815.565532581
 42
2456703.647609422
  1

 90
        0
  0
DICTIONARY
  5
23
102
{ACAD_REACTORS
330
22
102
}
330
22
100
AcDbDictionary
280
     1
281
     1
  3
ロック画層
360
24
  0
DICTIONARY
  5
25
102
{ACAD_REACTORS
330
22
102
}
330
22
100
AcDbDictionary
281
     1
  0
XRECORD
  5
9
102
{ACAD_REACTORS
330
8
102
}
330
8
100
AcDbXrecord
280
     1
290
     1
  0
XRECORD
  5
79
102
{ACAD_REACTORS
330
78
102
}
330
78
100
AcDbXrecord
280
     1
290
     1
  0
XRECORD
  5
71
102
{ACAD_REACTORS
330
70
102
}
330
70
100
AcDbXrecord
280
     1
290
     1
  0
XRECORD
  5
57
102
{ACAD_REACTORS
330
56
102
}
330
56
100
AcDbXrecord
280
     1
290
     1
  0
XRECORD
  5
75
102
{ACAD_REACTORS
330
74
102
}
330
74
100
AcDbXrecord
280
     1
290
     1
  0
XRECORD
  5
4
102
{ACAD_REACTORS
330
3
102
}
330
3
100
AcDbXrecord
280
     1
340
2
  0
SORTENTSTABLE
  5
297
102
{ACAD_REACTORS
330
3
102
}
330
3
100
AcDbSortentsTable
330
2
  0
XRECORD
  5
1D
102
{ACAD_REACTORS
330
1C
102
}
330
1C
100
AcDbXrecord
280
     1
340
1B
  0
LAYOUT
  5
18
102
{ACAD_XDICTIONARY
360
320
102
}
102
{ACAD_REACTORS
330
19
102
}
330
19
100
AcDbPlotSettings
  1

  2
ＰＤＦ　Ａ4縦.pc3
  4
ISO_full_bleed_A4_(210.00_x_297.00_MM)
  6

 40
0.7937499880790711
 41
0.7937499880790711
 42
0.7937469482421875
 43
0.79376220703125
 44
210.0
 45
297.0
 46
11.68683960015752
 47
7.689921816674939
 48
0.0
 49
0.0
140
0.0
141
0.0
142
1.0
143
1.399999999999999
 70
  3748
 72
     1
 73
     0
 74
     1
  7
全て黄色設定.ctb
 75
     0
147
0.7535074615942122
148
0.5335901474040839
149
0.0599820891675336
100
AcDbLayout
  1
Model
 70
     1
 71
     0
 10
0.0
 20
0.0
 11
12.0
 21
9.0
 12
0.0
 22
0.0
 32
0.0
 14
0.0
 24
0.0
 34
0.0
 15
0.0
 25
0.0
 35
0.0
146
0.0
 13
0.0
 23
0.0
 33
0.0
 16
1.0
 26
0.0
 36
0.0
 17
0.0
 27
1.0
 37
0.0
 76
     0
330
2
331
2F
1001
ACAD_PSEXT
1000
ＰＤＦ　Ａ4縦.pc3
1000
DWG To PDF
1000
ファイル
1000

1070
     0
  0
LAYOUT
  5
20
102
{ACAD_XDICTIONARY
360
322
102
}
102
{ACAD_REACTORS
330
19
102
}
330
19
100
AcDbPlotSettings
  1

  2
C:\Program Files\ACAD2000\plotters\DWF ePlot.pc3
  4

  6

 40
0.0
 41
0.0
 42
0.0
 43
0.0
 44
0.0
 45
0.0
 46
0.0
 47
0.0
 48
0.0
 49
0.0
140
0.0
141
0.0
142
1.0
143
1.0
 70
   688
 72
     0
 73
     0
 74
     5
  7
tmsacad.ctb
 75
    16
147
1.0
148
0.0
149
0.0
100
AcDbLayout
  1
ﾚｲｱｳﾄ1
 70
     1
 71
     1
 10
0.0
 20
0.0
 11
12.0
 21
9.0
 12
0.0
 22
0.0
 32
0.0
 14
1.000000000000000E+20
 24
1.000000000000000E+20
 34
1.000000000000000E+20
 15
-1.000000000000000E+20
 25
-1.000000000000000E+20
 35
-1.000000000000000E+20
146
0.0
 13
0.0
 23
0.0
 33
0.0
 16
1.0
 26
0.0
 36
0.0
 17
0.0
 27
1.0
 37
0.0
 76
     0
330
1B
  0
MATERIAL
  5
49
102
{ACAD_XDICTIONARY
360
4A
102
}
102
{ACAD_REACTORS
330
E
102
}
330
E
100
AcDbMaterial
  1
ByBlock
 72
     0
 43
0.0208333333333333
 43
0.0
 43
0.0
 43
0.0
 43
0.0
 43
0.0208333333333333
 43
0.0
 43
0.0
 43
0.0
 43
0.0
 43
1.0
 43
0.0
 43
0.0
 43
0.0
 43
0.0
 43
1.0
 77
     0
 47
0.0208333333333333
 47
0.0
 47
0.0
 47
0.0
 47
0.0
 47
0.0208333333333333
 47
0.0
 47
0.0
 47
0.0
 47
0.0
 47
1.0
 47
0.0
 47
0.0
 47
0.0
 47
0.0
 47
1.0
171
     0
 49
0.0208333333333333
 49
0.0
 49
0.0
 49
0.0
 49
0.0
 49
0.0208333333333333
 49
0.0
 49
0.0
 49
0.0
 49
0.0
 49
1.0
 49
0.0
 49
0.0
 49
0.0
 49
0.0
 49
1.0
175
     0
142
0.0208333333333333
142
0.0
142
0.0
142
0.0
142
0.0
142
0.0208333333333333
142
0.0
142
0.0
142
0.0
142
0.0
142
1.0
142
0.0
142
0.0
142
0.0
142
0.0
142
1.0
179
     0
144
0.0208333333333333
144
0.0
144
0.0
144
0.0
144
0.0
144
0.0208333333333333
144
0.0
144
0.0
144
0.0
144
0.0
144
1.0
144
0.0
144
0.0
144
0.0
144
0.0
144
1.0
147
0.0208333333333333
147
0.0
147
0.0
147
0.0
147
0.0
147
0.0208333333333333
147
0.0
147
0.0
147
0.0
147
0.0
147
1.0
147
0.0
147
0.0
147
0.0
147
0.0
147
1.0
  0
MATERIAL
  5
41
102
{ACAD_XDICTIONARY
360
42
102
}
102
{ACAD_REACTORS
330
E
102
}
330
E
100
AcDbMaterial
  1
ByLayer
 72
     0
 43
0.0208333333333333
 43
0.0
 43
0.0
 43
0.0
 43
0.0
 43
0.0208333333333333
 43
0.0
 43
0.0
 43
0.0
 43
0.0
 43
1.0
 43
0.0
 43
0.0
 43
0.0
 43
0.0
 43
1.0
 77
     0
 47
0.0208333333333333
 47
0.0
 47
0.0
 47
0.0
 47
0.0
 47
0.0208333333333333
 47
0.0
 47
0.0
 47
0.0
 47
0.0
 47
1.0
 47
0.0
 47
0.0
 47
0.0
 47
0.0
 47
1.0
171
     0
 49
0.0208333333333333
 49
0.0
 49
0.0
 49
0.0
 49
0.0
 49
0.0208333333333333
 49
0.0
 49
0.0
 49
0.0
 49
0.0
 49
1.0
 49
0.0
 49
0.0
 49
0.0
 49
0.0
 49
1.0
175
     0
142
0.0208333333333333
142
0.0
142
0.0
142
0.0
142
0.0
142
0.0208333333333333
142
0.0
142
0.0
142
0.0
142
0.0
142
1.0
142
0.0
142
0.0
142
0.0
142
0.0
142
1.0
179
     0
144
0.0208333333333333
144
0.0
144
0.0
144
0.0
144
0.0
144
0.0208333333333333
144
0.0
144
0.0
144
0.0
144
0.0
144
1.0
144
0.0
144
0.0
144
0.0
144
0.0
144
1.0
147
0.0208333333333333
147
0.0
147
0.0
147
0.0
147
0.0
147
0.0208333333333333
147
0.0
147
0.0
147
0.0
147
0.0
147
1.0
147
0.0
147
0.0
147
0.0
147
0.0
147
1.0
  0
MATERIAL
  5
D
102
{ACAD_XDICTIONARY
360
F
102
}
102
{ACAD_REACTORS
330
E
102
}
330
E
100
AcDbMaterial
  1
Global
 72
     0
 43
0.0208333333333333
 43
0.0
 43
0.0
 43
0.0
 43
0.0
 43
0.0208333333333333
 43
0.0
 43
0.0
 43
0.0
 43
0.0
 43
1.0
 43
0.0
 43
0.0
 43
0.0
 43
0.0
 43
1.0
 77
     0
 47
0.0208333333333333
 47
0.0
 47
0.0
 47
0.0
 47
0.0
 47
0.0208333333333333
 47
0.0
 47
0.0
 47
0.0
 47
0.0
 47
1.0
 47
0.0
 47
0.0
 47
0.0
 47
0.0
 47
1.0
171
     0
 49
0.0208333333333333
 49
0.0
 49
0.0
 49
0.0
 49
0.0
 49
0.0208333333333333
 49
0.0
 49
0.0
 49
0.0
 49
0.0
 49
1.0
 49
0.0
 49
0.0
 49
0.0
 49
0.0
 49
1.0
175
     0
142
0.0208333333333333
142
0.0
142
0.0
142
0.0
142
0.0
142
0.0208333333333333
142
0.0
142
0.0
142
0.0
142
0.0
142
1.0
142
0.0
142
0.0
142
0.0
142
0.0
142
1.0
179
     0
144
0.0208333333333333
144
0.0
144
0.0
144
0.0
144
0.0
144
0.0208333333333333
144
0.0
144
0.0
144
0.0
144
0.0
144
1.0
144
0.0
144
0.0
144
0.0
144
0.0
144
1.0
147
0.0208333333333333
147
0.0
147
0.0
147
0.0
147
0.0
147
0.0208333333333333
147
0.0
147
0.0
147
0.0
147
0.0
147
1.0
147
0.0
147
0.0
147
0.0
147
0.0
147
1.0
  0
MLEADERSTYLE
  5
2B8
102
{ACAD_REACTORS
330
54
102
}
330
54
100
AcDbMLeaderStyle
170
     2
171
     1
172
     0
 90
        2
 40
0.0
 41
0.0
173
     1
 91
-1056964608
340
2A
 92
       -2
290
     1
 42
0.09
291
     1
 43
0.36
  3
Standard
 44
0.18
300

342
27
174
     1
178
     6
175
     1
176
     0
 93
-1056964608
 45
0.18
292
     0
297
     0
 46
0.18
 94
-1056964608
 47
1.0
 49
1.0
140
1.0
293
     1
141
0.0
294
     1
177
     0
142
1.0
295
     0
296
     0
143
0.125
1001
ACAD_MLEADERVER
1070
     2
  0
MLINESTYLE
  5
58
102
{ACAD_REACTORS
330
3F
102
}
330
3F
100
AcDbMlineStyle
  2
STANDARD
 70
     0
  3

 62
   256
 51
90.0
 52
90.0
 71
     2
 49
0.5
 62
   256
  6
BYLAYER
 49
-0.5
 62
   256
  6
BYLAYER
  0
ACDBPLACEHOLDER
  5
A
102
{ACAD_REACTORS
330
B
102
}
330
B
  0
SCALE
  5
5D
102
{ACAD_REACTORS
330
52
102
}
330
52
100
AcDbScale
 70
     0
300
1:1
140
1.0
141
1.0
290
     1
  0
SCALE
  5
5E
102
{ACAD_REACTORS
330
52
102
}
330
52
100
AcDbScale
 70
     0
300
1/128" = 1'-0"
140
0.0078125
141
12.0
290
     0
  0
SCALE
  5
5F
102
{ACAD_REACTORS
330
52
102
}
330
52
100
AcDbScale
 70
     0
300
1/64" = 1'-0"
140
0.015625
141
12.0
290
     0
  0
SCALE
  5
60
102
{ACAD_REACTORS
330
52
102
}
330
52
100
AcDbScale
 70
     0
300
1/32" = 1'-0"
140
0.03125
141
12.0
290
     0
  0
SCALE
  5
61
102
{ACAD_REACTORS
330
52
102
}
330
52
100
AcDbScale
 70
     0
300
1/16" = 1'-0"
140
0.0625
141
12.0
290
     0
  0
SCALE
  5
62
102
{ACAD_REACTORS
330
52
102
}
330
52
100
AcDbScale
 70
     0
300
3/32" = 1'-0"
140
0.09375
141
12.0
290
     0
  0
SCALE
  5
63
102
{ACAD_REACTORS
330
52
102
}
330
52
100
AcDbScale
 70
     0
300
1/8" = 1'-0"
140
0.125
141
12.0
290
     0
  0
SCALE
  5
64
102
{ACAD_REACTORS
330
52
102
}
330
52
100
AcDbScale
 70
     0
300
3/16" = 1'-0"
140
0.1875
141
12.0
290
     0
  0
SCALE
  5
65
102
{ACAD_REACTORS
330
52
102
}
330
52
100
AcDbScale
 70
     0
300
1/4" = 1'-0"
140
0.25
141
12.0
290
     0
  0
SCALE
  5
66
102
{ACAD_REACTORS
330
52
102
}
330
52
100
AcDbScale
 70
     0
300
3/8" = 1'-0"
140
0.375
141
12.0
290
     0
  0
SCALE
  5
67
102
{ACAD_REACTORS
330
52
102
}
330
52
100
AcDbScale
 70
     0
300
1/2" = 1'-0"
140
0.5
141
12.0
290
     0
  0
SCALE
  5
68
102
{ACAD_REACTORS
330
52
102
}
330
52
100
AcDbScale
 70
     0
300
3/4" = 1'-0"
140
0.75
141
12.0
290
     0
  0
SCALE
  5
69
102
{ACAD_REACTORS
330
52
102
}
330
52
100
AcDbScale
 70
     0
300
1" = 1'-0"
140
1.0
141
12.0
290
     0
  0
SCALE
  5
6A
102
{ACAD_REACTORS
330
52
102
}
330
52
100
AcDbScale
 70
     0
300
1-1/2" = 1'-0"
140
1.5
141
12.0
290
     0
  0
SCALE
  5
6B
102
{ACAD_REACTORS
330
52
102
}
330
52
100
AcDbScale
 70
     0
300
3" = 1'-0"
140
3.0
141
12.0
290
     0
  0
SCALE
  5
6C
102
{ACAD_REACTORS
330
52
102
}
330
52
100
AcDbScale
 70
     0
300
6" = 1'-0"
140
6.0
141
12.0
290
     0
  0
SCALE
  5
6D
102
{ACAD_REACTORS
330
52
102
}
330
52
100
AcDbScale
 70
     0
300
1'-0" = 1'-0"
140
12.0
141
12.0
290
     0
  0
TABLESTYLE
  5
59
102
{ACAD_XDICTIONARY
360
5A
102
}
102
{ACAD_REACTORS
330
53
102
}
330
53
100
AcDbTableStyle
  3
Standard
 70
     0
 71
     0
 40
0.06
 41
0.06
280
     0
281
     0
  7
STANDARD
140
0.18
170
     2
 62
     0
 63
     7
283
     0
274
    -2
284
     1
 64
     0
275
    -2
285
     1
 65
     0
276
    -2
286
     1
 66
     0
277
    -2
287
     1
 67
     0
278
    -2
288
     1
 68
     0
279
    -2
289
     1
 69
     0
  7
STANDARD
140
0.25
170
     5
 62
     0
 63
     7
283
     0
274
    -2
284
     1
 64
     0
275
    -2
285
     1
 65
     0
276
    -2
286
     1
 66
     0
277
    -2
287
     1
 67
     0
278
    -2
288
     1
 68
     0
279
    -2
289
     1
 69
     0
  7
STANDARD
140
0.18
170
     5
 62
     0
 63
     7
283
     0
274
    -2
284
     1
 64
     0
275
    -2
285
     1
 65
     0
276
    -2
286
     1
 66
     0
277
    -2
287
     1
 67
     0
278
    -2
288
     1
 68
     0
279
    -2
289
     1
 69
     0
  0
VISUALSTYLE
  5
30
102
{ACAD_XDICTIONARY
360
324
102
}
102
{ACAD_REACTORS
330
31
102
}
330
31
100
AcDbVisualStyle
  2
2dWireframe
 70
     4
 71
     0
 72
     2
 73
     0
 90
        0
 40
-0.6
 41
-30.0
 62
     5
 63
     7
 74
     1
 91
        4
 64
     7
 65
   257
 75
     1
175
     1
 42
1.0
 92
        0
 66
   257
 43
1.0
 76
     1
 77
     6
 78
     2
 67
     7
 79
     5
170
     0
171
     0
290
     0
174
     0
 93
        1
 44
0.0
173
     0
291
     0
 45
0.0
1001
ACAD
1000
AcDbSavedByObjectVersion
1070
     0
  0
VISUALSTYLE
  5
2A7
102
{ACAD_XDICTIONARY
360
335
102
}
102
{ACAD_REACTORS
330
31
102
}
330
31
100
AcDbVisualStyle
  2
Basic
 70
     7
 71
     1
 72
     0
 73
     1
 90
        0
 40
-0.6
 41
-30.0
 62
     5
 63
     7
 74
     0
 91
        4
 64
     7
 65
   257
 75
     1
175
     1
 42
1.0
 92
        8
 66
     7
 43
1.0
 76
     1
 77
     6
 78
     2
 67
     7
 79
     5
170
     0
171
     0
290
     0
174
     0
 93
        1
 44
0.0
173
     0
291
     1
 45
0.0
1001
ACAD
1000
AcDbSavedByObjectVersion
1070
     0
  0
VISUALSTYLE
  5
2AB
102
{ACAD_XDICTIONARY
360
33D
102
}
102
{ACAD_REACTORS
330
31
102
}
330
31
100
AcDbVisualStyle
  2
Brighten
 70
    12
 71
     2
 72
     2
 73
     0
 90
        0
 40
-0.6
 41
-30.0
 62
     5
 63
     7
 74
     1
 91
        4
 64
     7
 65
   257
 75
     1
175
     1
 42
1.0
 92
        8
 66
     7
 43
1.0
 76
     1
 77
     6
 78
     2
 67
     7
 79
     5
170
     0
171
     0
290
     0
174
     0
 93
        1
 44
50.0
173
     0
291
     1
 45
0.0
1001
ACAD
1000
AcDbSavedByObjectVersion
1070
     0
  0
VISUALSTYLE
  5
2AF
102
{ACAD_XDICTIONARY
360
345
102
}
102
{ACAD_REACTORS
330
31
102
}
330
31
100
AcDbVisualStyle
  2
ColorChange
 70
    16
 71
     2
 72
     2
 73
     3
 90
        0
 40
-0.6
 41
-30.0
 62
     5
 63
     8
 74
     1
 91
        4
 64
     7
 65
   257
 75
     1
175
     1
 42
1.0
 92
        8
 66
     8
 43
1.0
 76
     1
 77
     6
 78
     2
 67
     7
 79
     5
170
     0
171
     0
290
     0
174
     0
 93
        1
 44
0.0
173
     0
291
     1
 45
0.0
1001
ACAD
1000
AcDbSavedByObjectVersion
1070
     0
  0
VISUALSTYLE
  5
2A9
102
{ACAD_XDICTIONARY
360
339
102
}
102
{ACAD_REACTORS
330
31
102
}
330
31
100
AcDbVisualStyle
  2
Conceptual
 70
     9
 71
     3
 72
     2
 73
     0
 90
        0
 40
-0.6
 41
-30.0
 62
     5
 63
     7
 74
     2
 91
        2
 64
     7
 65
   257
 75
     1
175
     1
 42
179.0
 92
        8
 66
     7
 43
1.0
 76
     1
 77
     6
 78
     2
 67
     7
 79
     3
170
     0
171
     0
290
     0
174
     0
 93
        1
 44
0.0
173
     0
291
     0
 45
0.0
1001
ACAD
1000
AcDbSavedByObjectVersion
1070
     0
  0
VISUALSTYLE
  5
2AA
102
{ACAD_XDICTIONARY
360
33B
102
}
102
{ACAD_REACTORS
330
31
102
}
330
31
100
AcDbVisualStyle
  2
Dim
 70
    11
 71
     2
 72
     2
 73
     0
 90
        0
 40
-0.6
 41
-30.0
 62
     5
 63
     7
 74
     1
 91
        4
 64
     7
 65
   257
 75
     1
175
     1
 42
1.0
 92
        8
 66
     7
 43
1.0
 76
     1
 77
     6
 78
     2
 67
     7
 79
     5
170
     0
171
     0
290
     0
174
     0
 93
        1
 44
-50.0
173
     0
291
     1
 45
0.0
1001
ACAD
1000
AcDbSavedByObjectVersion
1070
     0
  0
VISUALSTYLE
  5
2B7
102
{ACAD_XDICTIONARY
360
355
102
}
102
{ACAD_REACTORS
330
31
102
}
330
31
100
AcDbVisualStyle
  2
EdgeColorOff
 70
    22
 71
     2
 72
     2
 73
     0
 90
        0
 40
-0.6
 41
-30.0
 62
     5
 63
     7
 74
     1
 91
        4
 64
     7
 65
   257
 75
     1
175
     1
 42
1.0
 92
        8
 66
     7
 43
1.0
 76
     1
 77
     6
 78
     2
 67
     7
 79
     5
170
     0
171
     0
290
     0
174
     0
 93
        1
 44
0.0
173
     0
291
     1
 45
0.0
1001
ACAD
1000
AcDbSavedByObjectVersion
1070
     0
  0
VISUALSTYLE
  5
2AE
102
{ACAD_XDICTIONARY
360
343
102
}
102
{ACAD_REACTORS
330
31
102
}
330
31
100
AcDbVisualStyle
  2
Facepattern
 70
    15
 71
     2
 72
     2
 73
     0
 90
        0
 40
-0.6
 41
-30.0
 62
     5
 63
     7
 74
     1
 91
        4
 64
     7
 65
   257
 75
     1
175
     1
 42
1.0
 92
        8
 66
     7
 43
1.0
 76
     1
 77
     6
 78
     2
 67
     7
 79
     5
170
     0
171
     0
290
     0
174
     0
 93
        1
 44
0.0
173
     0
291
     1
 45
0.0
1001
ACAD
1000
AcDbSavedByObjectVersion
1070
     0
  0
VISUALSTYLE
  5
2A3
102
{ACAD_XDICTIONARY
360
32D
102
}
102
{ACAD_REACTORS
330
31
102
}
330
31
100
AcDbVisualStyle
  2
Flat
 70
     0
 71
     2
 72
     1
 73
     1
 90
        2
 40
-0.6
 41
30.0
 62
     5
 63
     7
 74
     0
 91
        0
 64
     7
 65
   257
 75
     1
175
     1
 42
1.0
 92
        8
 66
     7
 43
1.0
 76
     1
 77
     6
 78
     2
 67
     7
 79
     5
170
     0
171
     0
290
     0
174
     0
 93
       13
 44
0.0
173
     0
291
     1
 45
0.0
1001
ACAD
1000
AcDbSavedByObjectVersion
1070
     0
  0
VISUALSTYLE
  5
2A4
102
{ACAD_XDICTIONARY
360
32F
102
}
102
{ACAD_REACTORS
330
31
102
}
330
31
100
AcDbVisualStyle
  2
FlatWithEdges
 70
     1
 71
     2
 72
     1
 73
     1
 90
        2
 40
-0.6
 41
30.0
 62
     5
 63
     7
 74
     1
 91
        0
 64
     7
 65
   257
 75
     1
175
     1
 42
1.0
 92
        0
 66
   257
 43
1.0
 76
     1
 77
     6
 78
     2
 67
     7
 79
     5
170
     0
171
     0
290
     0
174
     0
 93
       13
 44
0.0
173
     0
291
     1
 45
0.0
1001
ACAD
1000
AcDbSavedByObjectVersion
1070
     0
  0
VISUALSTYLE
  5
2A5
102
{ACAD_XDICTIONARY
360
331
102
}
102
{ACAD_REACTORS
330
31
102
}
330
31
100
AcDbVisualStyle
  2
Gouraud
 70
     2
 71
     2
 72
     2
 73
     1
 90
        2
 40
-0.6
 41
30.0
 62
     5
 63
     7
 74
     0
 91
        0
 64
     7
 65
   257
 75
     1
175
     1
 42
1.0
 92
        0
 66
     7
 43
1.0
 76
     1
 77
     6
 78
     2
 67
     7
 79
     5
170
     0
171
     0
290
     0
174
     0
 93
       13
 44
0.0
173
     0
291
     1
 45
0.0
1001
ACAD
1000
AcDbSavedByObjectVersion
1070
     0
  0
VISUALSTYLE
  5
2A6
102
{ACAD_XDICTIONARY
360
333
102
}
102
{ACAD_REACTORS
330
31
102
}
330
31
100
AcDbVisualStyle
  2
GouraudWithEdges
 70
     3
 71
     2
 72
     2
 73
     1
 90
        2
 40
-0.6
 41
30.0
 62
     5
 63
     7
 74
     1
 91
        0
 64
     7
 65
   257
 75
     1
175
     1
 42
1.0
 92
        0
 66
   257
 43
1.0
 76
     1
 77
     6
 78
     2
 67
     7
 79
     5
170
     0
171
     0
290
     0
174
     0
 93
       13
 44
0.0
173
     0
291
     1
 45
0.0
1001
ACAD
1000
AcDbSavedByObjectVersion
1070
     0
  0
VISUALSTYLE
  5
2A8
102
{ACAD_XDICTIONARY
360
337
102
}
102
{ACAD_REACTORS
330
31
102
}
330
31
100
AcDbVisualStyle
  2
Hidden
 70
     6
 71
     1
 72
     2
 73
     2
 90
        0
 40
-0.6
 41
-30.0
 62
     5
 63
     7
 74
     2
 91
        2
 64
     7
 65
   257
 75
     2
175
     1
 42
40.0
 92
        0
 66
   257
 43
1.0
 76
     1
 77
     6
 78
     2
 67
     7
 79
     3
170
     0
171
     0
290
     0
174
     0
 93
        1
 44
0.0
173
     0
291
     0
 45
0.0
1001
ACAD
1000
AcDbSavedByObjectVersion
1070
     0
  0
VISUALSTYLE
  5
2B5
102
{ACAD_XDICTIONARY
360
351
102
}
102
{ACAD_REACTORS
330
31
102
}
330
31
100
AcDbVisualStyle
  2
JitterOff
 70
    20
 71
     2
 72
     2
 73
     0
 90
        0
 40
-0.6
 41
-30.0
 62
     5
 63
     7
 74
     1
 91
        4
 64
     7
 65
   257
 75
     1
175
     1
 42
1.0
 92
       10
 66
     7
 43
1.0
 76
     1
 77
     6
 78
     2
 67
     7
 79
     5
170
     0
171
     0
290
     0
174
     0
 93
        1
 44
0.0
173
     0
291
     1
 45
0.0
1001
ACAD
1000
AcDbSavedByObjectVersion
1070
     0
  0
VISUALSTYLE
  5
2AD
102
{ACAD_XDICTIONARY
360
341
102
}
102
{ACAD_REACTORS
330
31
102
}
330
31
100
AcDbVisualStyle
  2
Linepattern
 70
    14
 71
     2
 72
     2
 73
     0
 90
        0
 40
-0.6
 41
-30.0
 62
     5
 63
     7
 74
     1
 91
        4
 64
     7
 65
   257
 75
     7
175
     7
 42
1.0
 92
        8
 66
     7
 43
1.0
 76
     1
 77
     6
 78
     2
 67
     7
 79
     5
170
     0
171
     0
290
     0
174
     0
 93
        1
 44
0.0
173
     0
291
     1
 45
0.0
1001
ACAD
1000
AcDbSavedByObjectVersion
1070
     0
  0
VISUALSTYLE
  5
2B6
102
{ACAD_XDICTIONARY
360
353
102
}
102
{ACAD_REACTORS
330
31
102
}
330
31
100
AcDbVisualStyle
  2
OverhangOff
 70
    21
 71
     2
 72
     2
 73
     0
 90
        0
 40
-0.6
 41
-30.0
 62
     5
 63
     7
 74
     1
 91
        4
 64
     7
 65
   257
 75
     1
175
     1
 42
1.0
 92
        9
 66
     7
 43
1.0
 76
     1
 77
     6
 78
     2
 67
     7
 79
     5
170
     0
171
     0
290
     0
174
     0
 93
        1
 44
0.0
173
     0
291
     1
 45
0.0
1001
ACAD
1000
AcDbSavedByObjectVersion
1070
     0
  0
VISUALSTYLE
  5
5B
102
{ACAD_XDICTIONARY
360
329
102
}
102
{ACAD_REACTORS
330
31
102
}
330
31
100
AcDbVisualStyle
  2
Realistic
 70
     8
 71
     2
 72
     2
 73
     0
 90
        2
 40
-0.6
 41
30.0
 62
     5
 63
     7
 74
     0
 91
        0
 64
     7
 65
   257
 75
     1
175
     1
 42
1.0
 92
        8
 66
   257
 43
1.0
 76
     1
 77
     6
 78
     2
 67
     7
 79
     3
170
     0
171
     0
290
     0
174
     0
 93
       13
 44
0.0
173
     0
291
     0
 45
0.0
1001
ACAD
1000
AcDbSavedByObjectVersion
1070
     0
  0
VISUALSTYLE
  5
2B4
102
{ACAD_XDICTIONARY
360
34F
102
}
102
{ACAD_REACTORS
330
31
102
}
330
31
100
AcDbVisualStyle
  2
Shaded
 70
    27
 71
     2
 72
     2
 73
     1
 90
        2
 40
-0.6
 41
30.0
 62
     5
 63
     7
 74
     0
 91
        4
 64
     7
 65
   257
 75
     1
175
     1
 42
1.0
 92
        8
 66
   257
 43
1.0
 76
     1
 77
     6
 78
     2
 67
     8
 79
     3
170
     0
171
     0
290
     0
174
     0
 93
        5
 44
0.0
173
     0
291
     0
 45
0.0
1001
ACAD
1000
AcDbSavedByObjectVersion
1070
     0
  0
VISUALSTYLE
  5
2B3
102
{ACAD_XDICTIONARY
360
34D
102
}
102
{ACAD_REACTORS
330
31
102
}
330
31
100
AcDbVisualStyle
  2
Shaded with edges
 70
    26
 71
     2
 72
     2
 73
     1
 90
        2
 40
-0.6
 41
30.0
 62
     5
 63
     7
 74
     1
 91
       10
 64
     7
 65
   257
 75
     2
175
     1
 42
1.0
 92
        8
 66
   257
 43
1.0
 76
     1
 77
     6
 78
     2
 67
     7
 79
     3
170
     0
171
     0
290
     0
174
     0
 93
        5
 44
0.0
173
     0
291
     0
 45
0.0
1001
ACAD
1000
AcDbSavedByObjectVersion
1070
     0
  0
VISUALSTYLE
  5
2B0
102
{ACAD_XDICTIONARY
360
347
102
}
102
{ACAD_REACTORS
330
31
102
}
330
31
100
AcDbVisualStyle
  2
Shades of Gray
 70
    23
 71
     2
 72
     2
 73
     3
 90
        0
 40
-0.6
 41
-30.0
 62
     5
 63
     7
 74
     2
 91
        2
 64
     7
 65
     7
 75
     1
175
     1
 42
40.0
 92
        8
 66
     7
 43
1.0
 76
     1
 77
     6
 78
     2
 67
     7
 79
     3
170
     0
171
     0
290
     0
174
     0
 93
        1
 44
0.0
173
     0
291
     0
 45
0.0
1001
ACAD
1000
AcDbSavedByObjectVersion
1070
     0
  0
VISUALSTYLE
  5
2B1
102
{ACAD_XDICTIONARY
360
349
102
}
102
{ACAD_REACTORS
330
31
102
}
330
31
100
AcDbVisualStyle
  2
Sketchy
 70
    24
 71
     1
 72
     2
 73
     2
 90
        0
 40
-0.6
 41
-30.0
 62
     5
 63
     7
 74
     2
 91
        2
 64
     7
 65
     7
 75
     1
175
     1
 42
40.0
 92
       11
 66
     7
 43
1.0
 76
     1
 77
     6
 78
     2
 67
     7
 79
     6
170
     0
171
     0
290
     0
174
     0
 93
        1
 44
0.0
173
     0
291
     0
 45
0.0
1001
ACAD
1000
AcDbSavedByObjectVersion
1070
     0
  0
VISUALSTYLE
  5
2AC
102
{ACAD_XDICTIONARY
360
33F
102
}
102
{ACAD_REACTORS
330
31
102
}
330
31
100
AcDbVisualStyle
  2
Thicken
 70
    13
 71
     2
 72
     2
 73
     0
 90
        0
 40
-0.6
 41
-30.0
 62
     5
 63
     7
 74
     1
 91
        4
 64
     7
 65
   257
 75
     1
175
     1
 42
1.0
 92
       12
 66
     7
 43
1.0
 76
     1
 77
     6
 78
     2
 67
     7
 79
     5
170
     0
171
     0
290
     0
174
     0
 93
        1
 44
0.0
173
     0
291
     1
 45
0.0
1001
ACAD
1000
AcDbSavedByObjectVersion
1070
     0
  0
VISUALSTYLE
  5
5C
102
{ACAD_XDICTIONARY
360
32B
102
}
102
{ACAD_REACTORS
330
31
102
}
330
31
100
AcDbVisualStyle
  2
Wireframe
 70
     5
 71
     0
 72
     2
 73
     0
 90
        0
 40
-0.6
 41
-30.0
 62
     5
 63
     7
 74
     1
 91
        4
 64
     7
 65
   257
 75
     1
175
     1
 42
1.0
 92
        0
 66
   257
 43
1.0
 76
     1
 77
     6
 78
     2
 67
     7
 79
     3
170
     0
171
     0
290
     0
174
     0
 93
        1
 44
0.0
173
     0
291
     0
 45
0.0
1001
ACAD
1000
AcDbSavedByObjectVersion
1070
     0
  0
VISUALSTYLE
  5
2B2
102
{ACAD_XDICTIONARY
360
34B
102
}
102
{ACAD_REACTORS
330
31
102
}
330
31
100
AcDbVisualStyle
  2
X-Ray
 70
    25
 71
     2
 72
     2
 73
     1
 90
        1
 40
0.5
 41
-30.0
 62
     5
 63
     7
 74
     1
 91
        0
 64
     7
 65
   257
 75
     1
175
     1
 42
1.0
 92
        8
 66
     7
 43
1.0
 76
     1
 77
     6
 78
     2
 67
     7
 79
     3
170
     0
171
     0
290
     0
174
     0
 93
       13
 44
0.0
173
     0
291
     0
 45
0.0
1001
ACAD
1000
AcDbSavedByObjectVersion
1070
     0
  0
DICTIONARYVAR
  5
29E
102
{ACAD_REACTORS
330
29A
102
}
330
29A
100
DictionaryVariables
280
     0
  1
1:1
  0
DICTIONARYVAR
  5
29C
102
{ACAD_REACTORS
330
29A
102
}
330
29A
100
DictionaryVariables
280
     0
  1
STANDARD
  0
DICTIONARYVAR
  5
29B
102
{ACAD_REACTORS
330
29A
102
}
330
29A
100
DictionaryVariables
280
     0
  1
STANDARD
  0
DICTIONARYVAR
  5
31A
102
{ACAD_REACTORS
330
29A
102
}
330
29A
100
DictionaryVariables
280
     0
  1
1
  0
DICTIONARYVAR
  5
319
102
{ACAD_REACTORS
330
29A
102
}
330
29A
100
DictionaryVariables
280
     0
  1
1
  0
DICTIONARYVAR
  5
318
102
{ACAD_REACTORS
330
29A
102
}
330
29A
100
DictionaryVariables
280
     0
  1
0
  0
DICTIONARYVAR
  5
2A0
102
{ACAD_REACTORS
330
29A
102
}
330
29A
100
DictionaryVariables
280
     0
  1
1
  0
DICTIONARYVAR
  5
2A1
102
{ACAD_REACTORS
330
29A
102
}
330
29A
100
DictionaryVariables
280
     0
  1
15
  0
DICTIONARYVAR
  5
29F
102
{ACAD_REACTORS
330
29A
102
}
330
29A
100
DictionaryVariables
280
     0
  1
0
  0
DICTIONARYVAR
  5
29D
102
{ACAD_REACTORS
330
29A
102
}
330
29A
100
DictionaryVariables
280
     0
  1
0
  0
DICTIONARYVAR
  5
317
102
{ACAD_REACTORS
330
29A
102
}
330
29A
100
DictionaryVariables
280
     0
  1
127
  0
DICTIONARYVAR
  5
31B
102
{ACAD_REACTORS
330
29A
102
}
330
29A
100
DictionaryVariables
280
     0
  1
2
  0
XRECORD
  5
24
102
{ACAD_REACTORS
330
23
102
}
330
23
100
AcDbXrecord
280
     1
  1
ロック画層
  1
*
  1
*
  1
*
 70
   256
  1
*
  1
*
  0
DICTIONARY
  5
320
330
18
100
AcDbDictionary
280
     1
281
     1
  3
ACAD_XREC_ROUNDTRIP
360
321
  0
DICTIONARY
  5
322
330
20
100
AcDbDictionary
280
     1
281
     1
  3
ACAD_XREC_ROUNDTRIP
360
323
  0
DICTIONARY
  5
4A
330
49
100
AcDbDictionary
280
     1
281
     1
  3
ACAD_XREC_ROUNDTRIP
360
327
  3
BUMPTILE
360
4B
  3
DIFFUSETILE
360
4C
  3
OPACITYTILE
360
4D
  3
REFLECTIONTILE
360
4E
  3
REFRACTIONTILE
360
4F
  3
SPECULARTILE
360
50
  0
DICTIONARY
  5
42
330
41
100
AcDbDictionary
280
     1
281
     1
  3
ACAD_XREC_ROUNDTRIP
360
326
  3
BUMPTILE
360
43
  3
DIFFUSETILE
360
44
  3
OPACITYTILE
360
45
  3
REFLECTIONTILE
360
46
  3
REFRACTIONTILE
360
47
  3
SPECULARTILE
360
48
  0
DICTIONARY
  5
F
330
D
100
AcDbDictionary
280
     1
281
     1
  3
ACAD_XREC_ROUNDTRIP
360
31F
  3
BUMPTILE
360
10
  3
DIFFUSETILE
360
11
  3
OPACITYTILE
360
12
  3
REFLECTIONTILE
360
13
  3
REFRACTIONTILE
360
14
  3
SPECULARTILE
360
15
  0
DICTIONARY
  5
5A
330
59
100
AcDbDictionary
280
     1
281
     1
  3
ACAD_ROUNDTRIP_2008_TABLESTYLE_CELLSTYLEMAP
360
31C
  3
ACAD_XREC_ROUNDTRIP
360
328
  0
DICTIONARY
  5
324
330
30
100
AcDbDictionary
280
     1
281
     1
  3
ACAD_XREC_ROUNDTRIP
360
325
  0
DICTIONARY
  5
335
330
2A7
100
AcDbDictionary
280
     1
281
     1
  3
ACAD_XREC_ROUNDTRIP
360
336
  0
DICTIONARY
  5
33D
330
2AB
100
AcDbDictionary
280
     1
281
     1
  3
ACAD_XREC_ROUNDTRIP
360
33E
  0
DICTIONARY
  5
345
330
2AF
100
AcDbDictionary
280
     1
281
     1
  3
ACAD_XREC_ROUNDTRIP
360
346
  0
DICTIONARY
  5
339
330
2A9
100
AcDbDictionary
280
     1
281
     1
  3
ACAD_XREC_ROUNDTRIP
360
33A
  0
DICTIONARY
  5
33B
330
2AA
100
AcDbDictionary
280
     1
281
     1
  3
ACAD_XREC_ROUNDTRIP
360
33C
  0
DICTIONARY
  5
355
330
2B7
100
AcDbDictionary
280
     1
281
     1
  3
ACAD_XREC_ROUNDTRIP
360
356
  0
DICTIONARY
  5
343
330
2AE
100
AcDbDictionary
280
     1
281
     1
  3
ACAD_XREC_ROUNDTRIP
360
344
  0
DICTIONARY
  5
32D
330
2A3
100
AcDbDictionary
280
     1
281
     1
  3
ACAD_XREC_ROUNDTRIP
360
32E
  0
DICTIONARY
  5
32F
330
2A4
100
AcDbDictionary
280
     1
281
     1
  3
ACAD_XREC_ROUNDTRIP
360
330
  0
DICTIONARY
  5
331
330
2A5
100
AcDbDictionary
280
     1
281
     1
  3
ACAD_XREC_ROUNDTRIP
360
332
  0
DICTIONARY
  5
333
330
2A6
100
AcDbDictionary
280
     1
281
     1
  3
ACAD_XREC_ROUNDTRIP
360
334
  0
DICTIONARY
  5
337
330
2A8
100
AcDbDictionary
280
     1
281
     1
  3
ACAD_XREC_ROUNDTRIP
360
338
  0
DICTIONARY
  5
351
330
2B5
100
AcDbDictionary
280
     1
281
     1
  3
ACAD_XREC_ROUNDTRIP
360
352
  0
DICTIONARY
  5
341
330
2AD
100
AcDbDictionary
280
     1
281
     1
  3
ACAD_XREC_ROUNDTRIP
360
342
  0
DICTIONARY
  5
353
330
2B6
100
AcDbDictionary
280
     1
281
     1
  3
ACAD_XREC_ROUNDTRIP
360
354
  0
DICTIONARY
  5
329
330
5B
100
AcDbDictionary
280
     1
281
     1
  3
ACAD_XREC_ROUNDTRIP
360
32A
  0
DICTIONARY
  5
34F
330
2B4
100
AcDbDictionary
280
     1
281
     1
  3
ACAD_XREC_ROUNDTRIP
360
350
  0
DICTIONARY
  5
34D
330
2B3
100
AcDbDictionary
280
     1
281
     1
  3
ACAD_XREC_ROUNDTRIP
360
34E
  0
DICTIONARY
  5
347
330
2B0
100
AcDbDictionary
280
     1
281
     1
  3
ACAD_XREC_ROUNDTRIP
360
348
  0
DICTIONARY
  5
349
330
2B1
100
AcDbDictionary
280
     1
281
     1
  3
ACAD_XREC_ROUNDTRIP
360
34A
  0
DICTIONARY
  5
33F
330
2AC
100
AcDbDictionary
280
     1
281
     1
  3
ACAD_XREC_ROUNDTRIP
360
340
  0
DICTIONARY
  5
32B
330
5C
100
AcDbDictionary
280
     1
281
     1
  3
ACAD_XREC_ROUNDTRIP
360
32C
  0
DICTIONARY
  5
34B
330
2B2
100
AcDbDictionary
280
     1
281
     1
  3
ACAD_XREC_ROUNDTRIP
360
34C
  0
XRECORD
  5
321
102
{ACAD_REACTORS
330
320
102
}
330
320
100
AcDbXrecord
280
     1
102
SHADEPLOT
 70
     1
102
SHADEPLOTRESLEVEL
 70
     2
102
SHADEPLOTCUSTOMDPI
 70
   300
  0
XRECORD
  5
323
102
{ACAD_REACTORS
330
322
102
}
330
322
100
AcDbXrecord
280
     1
102
SHADEPLOT
 70
     0
102
SHADEPLOTRESLEVEL
 70
     2
102
SHADEPLOTCUSTOMDPI
 70
   300
  0
XRECORD
  5
327
102
{ACAD_REACTORS
330
4A
102
}
330
4A
100
AcDbXrecord
280
     1
102
MATERIAL
148
0.0
149
0.0
149
0.0
 93
        0
 94
      127
282
     0
 72
     0
 77
     0
171
     0
175
     0
179
     0
273
     0
  0
XRECORD
  5
4B
102
{ACAD_REACTORS
330
4A
102
}
330
4A
100
AcDbXrecord
280
     1
270
     1
271
     1
  0
XRECORD
  5
4C
102
{ACAD_REACTORS
330
4A
102
}
330
4A
100
AcDbXrecord
280
     1
270
     1
271
     1
  0
XRECORD
  5
4D
102
{ACAD_REACTORS
330
4A
102
}
330
4A
100
AcDbXrecord
280
     1
270
     1
271
     1
  0
XRECORD
  5
4E
102
{ACAD_REACTORS
330
4A
102
}
330
4A
100
AcDbXrecord
280
     1
270
     1
271
     1
  0
XRECORD
  5
4F
102
{ACAD_REACTORS
330
4A
102
}
330
4A
100
AcDbXrecord
280
     1
270
     1
271
     1
  0
XRECORD
  5
50
102
{ACAD_REACTORS
330
4A
102
}
330
4A
100
AcDbXrecord
280
     1
270
     1
271
     1
  0
XRECORD
  5
326
102
{ACAD_REACTORS
330
42
102
}
330
42
100
AcDbXrecord
280
     1
102
MATERIAL
148
0.0
149
0.0
149
0.0
 93
        0
 94
      127
282
     0
 72
     0
 77
     0
171
     0
175
     0
179
     0
273
     0
  0
XRECORD
  5
43
102
{ACAD_REACTORS
330
42
102
}
330
42
100
AcDbXrecord
280
     1
270
     1
271
     1
  0
XRECORD
  5
44
102
{ACAD_REACTORS
330
42
102
}
330
42
100
AcDbXrecord
280
     1
270
     1
271
     1
  0
XRECORD
  5
45
102
{ACAD_REACTORS
330
42
102
}
330
42
100
AcDbXrecord
280
     1
270
     1
271
     1
  0
XRECORD
  5
46
102
{ACAD_REACTORS
330
42
102
}
330
42
100
AcDbXrecord
280
     1
270
     1
271
     1
  0
XRECORD
  5
47
102
{ACAD_REACTORS
330
42
102
}
330
42
100
AcDbXrecord
280
     1
270
     1
271
     1
  0
XRECORD
  5
48
102
{ACAD_REACTORS
330
42
102
}
330
42
100
AcDbXrecord
280
     1
270
     1
271
     1
  0
XRECORD
  5
31F
102
{ACAD_REACTORS
330
F
102
}
330
F
100
AcDbXrecord
280
     1
102
MATERIAL
148
0.0
149
0.0
149
0.0
 93
        0
 94
      127
282
     0
 72
     0
 77
     0
171
     0
175
     0
179
     0
273
     0
  0
XRECORD
  5
10
102
{ACAD_REACTORS
330
F
102
}
330
F
100
AcDbXrecord
280
     1
270
     1
271
     1
  0
XRECORD
  5
11
102
{ACAD_REACTORS
330
F
102
}
330
F
100
AcDbXrecord
280
     1
270
     1
271
     1
  0
XRECORD
  5
12
102
{ACAD_REACTORS
330
F
102
}
330
F
100
AcDbXrecord
280
     1
270
     1
271
     1
  0
XRECORD
  5
13
102
{ACAD_REACTORS
330
F
102
}
330
F
100
AcDbXrecord
280
     1
270
     1
271
     1
  0
XRECORD
  5
14
102
{ACAD_REACTORS
330
F
102
}
330
F
100
AcDbXrecord
280
     1
270
     1
271
     1
  0
XRECORD
  5
15
102
{ACAD_REACTORS
330
F
102
}
330
F
100
AcDbXrecord
280
     1
270
     1
271
     1
  0
CELLSTYLEMAP
  5
31C
102
{ACAD_REACTORS
330
5A
102
}
330
5A
100
AcDbCellStyleMap
 90
        3
300
CELLSTYLE
  1
TABLEFORMAT_BEGIN
 90
        5
170
     1
 91
        0
 92
    32768
 62
   257
 93
        1
300
CONTENTFORMAT
  1
CONTENTFORMAT_BEGIN
 90
        0
 91
        0
 92
      512
 93
        0
300

 40
0.0
140
1.0
 94
        5
 62
     0
340
27
144
0.25
309
CONTENTFORMAT_END
171
     0
 94
        0
309
TABLEFORMAT_END
  1
CELLSTYLE_BEGIN
 90
        1
 91
        1
300
_TITLE
309
CELLSTYLE_END
300
CELLSTYLE
  1
TABLEFORMAT_BEGIN
 90
        5
170
     1
 91
        0
 92
        0
 62
   257
 93
        1
300
CONTENTFORMAT
  1
CONTENTFORMAT_BEGIN
 90
        0
 91
        0
 92
      512
 93
        0
300

 40
0.0
140
1.0
 94
        5
 62
     0
340
27
144
0.18
309
CONTENTFORMAT_END
171
     0
 94
        0
309
TABLEFORMAT_END
  1
CELLSTYLE_BEGIN
 90
        2
 91
        1
300
_HEADER
309
CELLSTYLE_END
300
CELLSTYLE
  1
TABLEFORMAT_BEGIN
 90
        5
170
     1
 91
        0
 92
        0
 62
   257
 93
        1
300
CONTENTFORMAT
  1
CONTENTFORMAT_BEGIN
 90
        0
 91
        0
 92
      512
 93
        0
300

 40
0.0
140
1.0
 94
        2
 62
     0
340
27
144
0.18
309
CONTENTFORMAT_END
171
     0
 94
        0
309
TABLEFORMAT_END
  1
CELLSTYLE_BEGIN
 90
        3
 91
        2
300
_DATA
309
CELLSTYLE_END
  0
XRECORD
  5
328
102
{ACAD_REACTORS
330
5A
102
}
330
5A
100
AcDbXrecord
280
     1
102
ACAD_ROUNDTRIP_PRE2007_TABLESTYLE
 90
      512
 91
        0
  1

 92
      512
 93
        0
  2

 94
      512
 95
        0
  3

  0
XRECORD
  5
325
102
{ACAD_REACTORS
330
324
102
}
330
324
100
AcDbXrecord
280
     1
102
RTVSPropertyOp0
 70
     1
102
RTVSPropertyOp1
 70
     1
102
RTVSPropertyOp2
 70
     1
102
RTVSPropertyOp3
 70
     1
102
RTVSPropertyOp4
 70
     1
102
RTVSPropertyOp5
 70
     1
102
RTVSPropertyOp6
 70
     1
102
RTVSPropertyOp7
 70
     1
102
RTVSPropertyOp8
 70
     1
102
RTVSPropertyOp9
 70
     1
102
RTVSPropertyOp10
 70
     1
102
RTVSPropertyOp11
 70
     1
102
RTVSPropertyOp12
 70
     1
102
RTVSPropertyOp13
 70
     1
102
RTVSPropertyOp14
 70
     1
102
RTVSPropertyOp15
 70
     1
102
RTVSPropertyOp16
 70
     1
102
RTVSPropertyOp17
 70
     1
102
RTVSPropertyOp18
 70
     1
102
RTVSPropertyOp19
 70
     1
102
RTVSPropertyOp20
 70
     1
102
RTVSPropertyOp21
 70
     1
102
RTVSPropertyOp22
 70
     1
102
RTVSPropertyOp23
 70
     1
102
RTVSPropertyOp24
 70
     1
102
RTVSPropertyOp25
 70
     1
102
RTVSPropertyOp26
 70
     1
102
RTVSPropertyOp27
 70
     1
102
RTVSPropertyOp28
 70
     1
102
RTVSPropertyOp29
 70
     1
102
RTVSPropertyOp30
 70
     1
102
RTVSPropertyOp31
 70
     1
102
RTVSPropertyOp32
 70
     1
  0
XRECORD
  5
336
102
{ACAD_REACTORS
330
335
102
}
330
335
100
AcDbXrecord
280
     1
102
RTVSPropertyOp0
 70
     1
102
RTVSPropertyOp1
 70
     1
102
RTVSPropertyOp2
 70
     1
102
RTVSPropertyOp3
 70
     1
102
RTVSPropertyOp4
 70
     1
102
RTVSPropertyOp5
 70
     1
102
RTVSPropertyOp6
 70
     1
102
RTVSPropertyOp7
 70
     1
102
RTVSPropertyOp8
 70
     1
102
RTVSPropertyOp9
 70
     1
102
RTVSPropertyOp10
 70
     1
102
RTVSPropertyOp11
 70
     1
102
RTVSPropertyOp12
 70
     1
102
RTVSPropertyOp13
 70
     1
102
RTVSPropertyOp14
 70
     1
102
RTVSPropertyOp15
 70
     1
102
RTVSPropertyOp16
 70
     1
102
RTVSPropertyOp17
 70
     1
102
RTVSPropertyOp18
 70
     1
102
RTVSPropertyOp19
 70
     1
102
RTVSPropertyOp20
 70
     1
102
RTVSPropertyOp21
 70
     1
102
RTVSPropertyOp22
 70
     1
102
RTVSPropertyOp23
 70
     1
102
RTVSPropertyOp24
 70
     1
102
RTVSPropertyOp25
 70
     1
102
RTVSPropertyOp26
 70
     1
102
RTVSPropertyOp27
 70
     1
102
RTVSPropertyOp28
 70
     1
102
RTVSPropertyOp29
 70
     1
102
RTVSPropertyOp30
 70
     1
102
RTVSPropertyOp31
 70
     1
102
RTVSPropertyOp32
 70
     1
  0
XRECORD
  5
33E
102
{ACAD_REACTORS
330
33D
102
}
330
33D
100
AcDbXrecord
280
     1
102
RTVSPropertyOp0
 70
     1
102
RTVSPropertyOp1
 70
     1
102
RTVSPropertyOp2
 70
     1
102
RTVSPropertyOp3
 70
     1
102
RTVSPropertyOp4
 70
     1
102
RTVSPropertyOp5
 70
     1
102
RTVSPropertyOp6
 70
     1
102
RTVSPropertyOp7
 70
     1
102
RTVSPropertyOp8
 70
     1
102
RTVSPropertyOp9
 70
     1
102
RTVSPropertyOp10
 70
     1
102
RTVSPropertyOp11
 70
     1
102
RTVSPropertyOp12
 70
     1
102
RTVSPropertyOp13
 70
     1
102
RTVSPropertyOp14
 70
     1
102
RTVSPropertyOp15
 70
     1
102
RTVSPropertyOp16
 70
     1
102
RTVSPropertyOp17
 70
     1
102
RTVSPropertyOp18
 70
     1
102
RTVSPropertyOp19
 70
     1
102
RTVSPropertyOp20
 70
     1
102
RTVSPropertyOp21
 70
     1
102
RTVSPropertyOp22
 70
     1
102
RTVSPropertyOp23
 70
     1
102
RTVSPropertyOp24
 70
     1
102
RTVSPropertyOp25
 70
     1
102
RTVSPropertyOp26
 70
     1
102
RTVSPropertyOp27
 70
     1
102
RTVSPropertyOp28
 70
     1
102
RTVSPropertyOp29
 70
     1
102
RTVSPropertyOp30
 70
     1
102
RTVSPropertyOp31
 70
     1
102
RTVSPropertyOp32
 70
     1
  0
XRECORD
  5
346
102
{ACAD_REACTORS
330
345
102
}
330
345
100
AcDbXrecord
280
     1
102
RTVSPropertyOp0
 70
     1
102
RTVSPropertyOp1
 70
     1
102
RTVSPropertyOp2
 70
     1
102
RTVSPropertyOp3
 70
     1
102
RTVSPropertyOp4
 70
     1
102
RTVSPropertyOp5
 70
     1
102
RTVSPropertyOp6
 70
     1
102
RTVSPropertyOp7
 70
     1
102
RTVSPropertyOp8
 70
     1
102
RTVSPropertyOp9
 70
     1
102
RTVSPropertyOp10
 70
     1
102
RTVSPropertyOp11
 70
     1
102
RTVSPropertyOp12
 70
     1
102
RTVSPropertyOp13
 70
     1
102
RTVSPropertyOp14
 70
     1
102
RTVSPropertyOp15
 70
     1
102
RTVSPropertyOp16
 70
     1
102
RTVSPropertyOp17
 70
     1
102
RTVSPropertyOp18
 70
     1
102
RTVSPropertyOp19
 70
     1
102
RTVSPropertyOp20
 70
     1
102
RTVSPropertyOp21
 70
     1
102
RTVSPropertyOp22
 70
     1
102
RTVSPropertyOp23
 70
     1
102
RTVSPropertyOp24
 70
     1
102
RTVSPropertyOp25
 70
     1
102
RTVSPropertyOp26
 70
     1
102
RTVSPropertyOp27
 70
     1
102
RTVSPropertyOp28
 70
     1
102
RTVSPropertyOp29
 70
     1
102
RTVSPropertyOp30
 70
     1
102
RTVSPropertyOp31
 70
     1
102
RTVSPropertyOp32
 70
     1
  0
XRECORD
  5
33A
102
{ACAD_REACTORS
330
339
102
}
330
339
100
AcDbXrecord
280
     1
102
RTVSPropertyOp0
 70
     1
102
RTVSPropertyOp1
 70
     1
102
RTVSPropertyOp2
 70
     1
102
RTVSPropertyOp3
 70
     1
102
RTVSPropertyOp4
 70
     1
102
RTVSPropertyOp5
 70
     1
102
RTVSPropertyOp6
 70
     1
102
RTVSPropertyOp7
 70
     1
102
RTVSPropertyOp8
 70
     1
102
RTVSPropertyOp9
 70
     1
102
RTVSPropertyOp10
 70
     1
102
RTVSPropertyOp11
 70
     1
102
RTVSPropertyOp12
 70
     1
102
RTVSPropertyOp13
 70
     1
102
RTVSPropertyOp14
 70
     1
102
RTVSPropertyOp15
 70
     1
102
RTVSPropertyOp16
 70
     1
102
RTVSPropertyOp17
 70
     1
102
RTVSPropertyOp18
 70
     1
102
RTVSPropertyOp19
 70
     1
102
RTVSPropertyOp20
 70
     1
102
RTVSPropertyOp21
 70
     1
102
RTVSPropertyOp22
 70
     1
102
RTVSPropertyOp23
 70
     1
102
RTVSPropertyOp24
 70
     1
102
RTVSPropertyOp25
 70
     1
102
RTVSPropertyOp26
 70
     1
102
RTVSPropertyOp27
 70
     1
102
RTVSPropertyOp28
 70
     1
102
RTVSPropertyOp29
 70
     1
102
RTVSPropertyOp30
 70
     1
102
RTVSPropertyOp31
 70
     1
102
RTVSPropertyOp32
 70
     1
  0
XRECORD
  5
33C
102
{ACAD_REACTORS
330
33B
102
}
330
33B
100
AcDbXrecord
280
     1
102
RTVSPropertyOp0
 70
     1
102
RTVSPropertyOp1
 70
     1
102
RTVSPropertyOp2
 70
     1
102
RTVSPropertyOp3
 70
     1
102
RTVSPropertyOp4
 70
     1
102
RTVSPropertyOp5
 70
     1
102
RTVSPropertyOp6
 70
     1
102
RTVSPropertyOp7
 70
     1
102
RTVSPropertyOp8
 70
     1
102
RTVSPropertyOp9
 70
     1
102
RTVSPropertyOp10
 70
     1
102
RTVSPropertyOp11
 70
     1
102
RTVSPropertyOp12
 70
     1
102
RTVSPropertyOp13
 70
     1
102
RTVSPropertyOp14
 70
     1
102
RTVSPropertyOp15
 70
     1
102
RTVSPropertyOp16
 70
     1
102
RTVSPropertyOp17
 70
     1
102
RTVSPropertyOp18
 70
     1
102
RTVSPropertyOp19
 70
     1
102
RTVSPropertyOp20
 70
     1
102
RTVSPropertyOp21
 70
     1
102
RTVSPropertyOp22
 70
     1
102
RTVSPropertyOp23
 70
     1
102
RTVSPropertyOp24
 70
     1
102
RTVSPropertyOp25
 70
     1
102
RTVSPropertyOp26
 70
     1
102
RTVSPropertyOp27
 70
     1
102
RTVSPropertyOp28
 70
     1
102
RTVSPropertyOp29
 70
     1
102
RTVSPropertyOp30
 70
     1
102
RTVSPropertyOp31
 70
     1
102
RTVSPropertyOp32
 70
     1
  0
XRECORD
  5
356
102
{ACAD_REACTORS
330
355
102
}
330
355
100
AcDbXrecord
280
     1
102
RTVSPropertyOp0
 70
     0
102
RTVSPropertyOp1
 70
     0
102
RTVSPropertyOp2
 70
     0
102
RTVSPropertyOp3
 70
     0
102
RTVSPropertyOp4
 70
     0
102
RTVSPropertyOp5
 70
     0
102
RTVSPropertyOp6
 70
     0
102
RTVSPropertyOp7
 70
     0
102
RTVSPropertyOp8
 70
     0
102
RTVSPropertyOp9
 70
     0
102
RTVSPropertyOp10
 70
     0
102
RTVSPropertyOp11
 70
     0
102
RTVSPropertyOp12
 70
     0
102
RTVSPropertyOp13
 70
     0
102
RTVSPropertyOp14
 70
     2
102
RTVSPropertyOp15
 70
     0
102
RTVSPropertyOp16
 70
     0
102
RTVSPropertyOp17
 70
     0
102
RTVSPropertyOp18
 70
     0
102
RTVSPropertyOp19
 70
     0
102
RTVSPropertyOp20
 70
     0
102
RTVSPropertyOp21
 70
     0
102
RTVSPropertyOp22
 70
     0
102
RTVSPropertyOp23
 70
     0
102
RTVSPropertyOp24
 70
     0
102
RTVSPropertyOp25
 70
     0
102
RTVSPropertyOp26
 70
     0
102
RTVSPropertyOp27
 70
     0
102
RTVSPropertyOp28
 70
     0
102
RTVSPropertyOp29
 70
     0
102
RTVSPropertyOp30
 70
     0
102
RTVSPropertyOp31
 70
     0
102
RTVSPropertyOp32
 70
     0
  0
XRECORD
  5
344
102
{ACAD_REACTORS
330
343
102
}
330
343
100
AcDbXrecord
280
     1
102
RTVSPropertyOp0
 70
     1
102
RTVSPropertyOp1
 70
     1
102
RTVSPropertyOp2
 70
     1
102
RTVSPropertyOp3
 70
     1
102
RTVSPropertyOp4
 70
     1
102
RTVSPropertyOp5
 70
     1
102
RTVSPropertyOp6
 70
     1
102
RTVSPropertyOp7
 70
     1
102
RTVSPropertyOp8
 70
     1
102
RTVSPropertyOp9
 70
     1
102
RTVSPropertyOp10
 70
     1
102
RTVSPropertyOp11
 70
     1
102
RTVSPropertyOp12
 70
     1
102
RTVSPropertyOp13
 70
     1
102
RTVSPropertyOp14
 70
     1
102
RTVSPropertyOp15
 70
     1
102
RTVSPropertyOp16
 70
     1
102
RTVSPropertyOp17
 70
     1
102
RTVSPropertyOp18
 70
     1
102
RTVSPropertyOp19
 70
     1
102
RTVSPropertyOp20
 70
     1
102
RTVSPropertyOp21
 70
     1
102
RTVSPropertyOp22
 70
     1
102
RTVSPropertyOp23
 70
     1
102
RTVSPropertyOp24
 70
     1
102
RTVSPropertyOp25
 70
     1
102
RTVSPropertyOp26
 70
     1
102
RTVSPropertyOp27
 70
     1
102
RTVSPropertyOp28
 70
     1
102
RTVSPropertyOp29
 70
     1
102
RTVSPropertyOp30
 70
     1
102
RTVSPropertyOp31
 70
     1
102
RTVSPropertyOp32
 70
     1
  0
XRECORD
  5
32E
102
{ACAD_REACTORS
330
32D
102
}
330
32D
100
AcDbXrecord
280
     1
102
RTVSPropertyOp0
 70
     1
102
RTVSPropertyOp1
 70
     1
102
RTVSPropertyOp2
 70
     1
102
RTVSPropertyOp3
 70
     1
102
RTVSPropertyOp4
 70
     1
102
RTVSPropertyOp5
 70
     1
102
RTVSPropertyOp6
 70
     1
102
RTVSPropertyOp7
 70
     1
102
RTVSPropertyOp8
 70
     1
102
RTVSPropertyOp9
 70
     1
102
RTVSPropertyOp10
 70
     1
102
RTVSPropertyOp11
 70
     1
102
RTVSPropertyOp12
 70
     1
102
RTVSPropertyOp13
 70
     1
102
RTVSPropertyOp14
 70
     1
102
RTVSPropertyOp15
 70
     1
102
RTVSPropertyOp16
 70
     1
102
RTVSPropertyOp17
 70
     1
102
RTVSPropertyOp18
 70
     1
102
RTVSPropertyOp19
 70
     1
102
RTVSPropertyOp20
 70
     1
102
RTVSPropertyOp21
 70
     1
102
RTVSPropertyOp22
 70
     1
102
RTVSPropertyOp23
 70
     1
102
RTVSPropertyOp24
 70
     1
102
RTVSPropertyOp25
 70
     1
102
RTVSPropertyOp26
 70
     1
102
RTVSPropertyOp27
 70
     1
102
RTVSPropertyOp28
 70
     1
102
RTVSPropertyOp29
 70
     1
102
RTVSPropertyOp30
 70
     1
102
RTVSPropertyOp31
 70
     1
102
RTVSPropertyOp32
 70
     1
  0
XRECORD
  5
330
102
{ACAD_REACTORS
330
32F
102
}
330
32F
100
AcDbXrecord
280
     1
102
RTVSPropertyOp0
 70
     1
102
RTVSPropertyOp1
 70
     1
102
RTVSPropertyOp2
 70
     1
102
RTVSPropertyOp3
 70
     1
102
RTVSPropertyOp4
 70
     1
102
RTVSPropertyOp5
 70
     1
102
RTVSPropertyOp6
 70
     1
102
RTVSPropertyOp7
 70
     1
102
RTVSPropertyOp8
 70
     1
102
RTVSPropertyOp9
 70
     1
102
RTVSPropertyOp10
 70
     1
102
RTVSPropertyOp11
 70
     1
102
RTVSPropertyOp12
 70
     1
102
RTVSPropertyOp13
 70
     1
102
RTVSPropertyOp14
 70
     1
102
RTVSPropertyOp15
 70
     1
102
RTVSPropertyOp16
 70
     1
102
RTVSPropertyOp17
 70
     1
102
RTVSPropertyOp18
 70
     1
102
RTVSPropertyOp19
 70
     1
102
RTVSPropertyOp20
 70
     1
102
RTVSPropertyOp21
 70
     1
102
RTVSPropertyOp22
 70
     1
102
RTVSPropertyOp23
 70
     1
102
RTVSPropertyOp24
 70
     1
102
RTVSPropertyOp25
 70
     1
102
RTVSPropertyOp26
 70
     1
102
RTVSPropertyOp27
 70
     1
102
RTVSPropertyOp28
 70
     1
102
RTVSPropertyOp29
 70
     1
102
RTVSPropertyOp30
 70
     1
102
RTVSPropertyOp31
 70
     1
102
RTVSPropertyOp32
 70
     1
  0
XRECORD
  5
332
102
{ACAD_REACTORS
330
331
102
}
330
331
100
AcDbXrecord
280
     1
102
RTVSPropertyOp0
 70
     1
102
RTVSPropertyOp1
 70
     1
102
RTVSPropertyOp2
 70
     1
102
RTVSPropertyOp3
 70
     1
102
RTVSPropertyOp4
 70
     1
102
RTVSPropertyOp5
 70
     1
102
RTVSPropertyOp6
 70
     1
102
RTVSPropertyOp7
 70
     1
102
RTVSPropertyOp8
 70
     1
102
RTVSPropertyOp9
 70
     1
102
RTVSPropertyOp10
 70
     1
102
RTVSPropertyOp11
 70
     1
102
RTVSPropertyOp12
 70
     1
102
RTVSPropertyOp13
 70
     1
102
RTVSPropertyOp14
 70
     1
102
RTVSPropertyOp15
 70
     1
102
RTVSPropertyOp16
 70
     1
102
RTVSPropertyOp17
 70
     1
102
RTVSPropertyOp18
 70
     1
102
RTVSPropertyOp19
 70
     1
102
RTVSPropertyOp20
 70
     1
102
RTVSPropertyOp21
 70
     1
102
RTVSPropertyOp22
 70
     1
102
RTVSPropertyOp23
 70
     1
102
RTVSPropertyOp24
 70
     1
102
RTVSPropertyOp25
 70
     1
102
RTVSPropertyOp26
 70
     1
102
RTVSPropertyOp27
 70
     1
102
RTVSPropertyOp28
 70
     1
102
RTVSPropertyOp29
 70
     1
102
RTVSPropertyOp30
 70
     1
102
RTVSPropertyOp31
 70
     1
102
RTVSPropertyOp32
 70
     1
  0
XRECORD
  5
334
102
{ACAD_REACTORS
330
333
102
}
330
333
100
AcDbXrecord
280
     1
102
RTVSPropertyOp0
 70
     1
102
RTVSPropertyOp1
 70
     1
102
RTVSPropertyOp2
 70
     1
102
RTVSPropertyOp3
 70
     1
102
RTVSPropertyOp4
 70
     1
102
RTVSPropertyOp5
 70
     1
102
RTVSPropertyOp6
 70
     1
102
RTVSPropertyOp7
 70
     1
102
RTVSPropertyOp8
 70
     1
102
RTVSPropertyOp9
 70
     1
102
RTVSPropertyOp10
 70
     1
102
RTVSPropertyOp11
 70
     1
102
RTVSPropertyOp12
 70
     1
102
RTVSPropertyOp13
 70
     1
102
RTVSPropertyOp14
 70
     1
102
RTVSPropertyOp15
 70
     1
102
RTVSPropertyOp16
 70
     1
102
RTVSPropertyOp17
 70
     1
102
RTVSPropertyOp18
 70
     1
102
RTVSPropertyOp19
 70
     1
102
RTVSPropertyOp20
 70
     1
102
RTVSPropertyOp21
 70
     1
102
RTVSPropertyOp22
 70
     1
102
RTVSPropertyOp23
 70
     1
102
RTVSPropertyOp24
 70
     1
102
RTVSPropertyOp25
 70
     1
102
RTVSPropertyOp26
 70
     1
102
RTVSPropertyOp27
 70
     1
102
RTVSPropertyOp28
 70
     1
102
RTVSPropertyOp29
 70
     1
102
RTVSPropertyOp30
 70
     1
102
RTVSPropertyOp31
 70
     1
102
RTVSPropertyOp32
 70
     1
  0
XRECORD
  5
338
102
{ACAD_REACTORS
330
337
102
}
330
337
100
AcDbXrecord
280
     1
102
RTVSPropertyOp0
 70
     1
102
RTVSPropertyOp1
 70
     1
102
RTVSPropertyOp2
 70
     1
102
RTVSPropertyOp3
 70
     1
102
RTVSPropertyOp4
 70
     1
102
RTVSPropertyOp5
 70
     1
102
RTVSPropertyOp6
 70
     1
102
RTVSPropertyOp7
 70
     1
102
RTVSPropertyOp8
 70
     1
102
RTVSPropertyOp9
 70
     1
102
RTVSPropertyOp10
 70
     1
102
RTVSPropertyOp11
 70
     1
102
RTVSPropertyOp12
 70
     1
102
RTVSPropertyOp13
 70
     1
102
RTVSPropertyOp14
 70
     1
102
RTVSPropertyOp15
 70
     1
102
RTVSPropertyOp16
 70
     1
102
RTVSPropertyOp17
 70
     1
102
RTVSPropertyOp18
 70
     1
102
RTVSPropertyOp19
 70
     1
102
RTVSPropertyOp20
 70
     1
102
RTVSPropertyOp21
 70
     1
102
RTVSPropertyOp22
 70
     1
102
RTVSPropertyOp23
 70
     1
102
RTVSPropertyOp24
 70
     1
102
RTVSPropertyOp25
 70
     1
102
RTVSPropertyOp26
 70
     1
102
RTVSPropertyOp27
 70
     1
102
RTVSPropertyOp28
 70
     1
102
RTVSPropertyOp29
 70
     1
102
RTVSPropertyOp30
 70
     1
102
RTVSPropertyOp31
 70
     1
102
RTVSPropertyOp32
 70
     1
  0
XRECORD
  5
352
102
{ACAD_REACTORS
330
351
102
}
330
351
100
AcDbXrecord
280
     1
102
RTVSPropertyOp0
 70
     0
102
RTVSPropertyOp1
 70
     0
102
RTVSPropertyOp2
 70
     0
102
RTVSPropertyOp3
 70
     0
102
RTVSPropertyOp4
 70
     0
102
RTVSPropertyOp5
 70
     0
102
RTVSPropertyOp6
 70
     0
102
RTVSPropertyOp7
 70
     0
102
RTVSPropertyOp8
 70
     0
102
RTVSPropertyOp9
 70
     0
102
RTVSPropertyOp10
 70
     0
102
RTVSPropertyOp11
 70
     0
102
RTVSPropertyOp12
 70
     0
102
RTVSPropertyOp13
 70
     0
102
RTVSPropertyOp14
 70
     2
102
RTVSPropertyOp15
 70
     0
102
RTVSPropertyOp16
 70
     0
102
RTVSPropertyOp17
 70
     0
102
RTVSPropertyOp18
 70
     0
102
RTVSPropertyOp19
 70
     0
102
RTVSPropertyOp20
 70
     0
102
RTVSPropertyOp21
 70
     0
102
RTVSPropertyOp22
 70
     0
102
RTVSPropertyOp23
 70
     0
102
RTVSPropertyOp24
 70
     0
102
RTVSPropertyOp25
 70
     0
102
RTVSPropertyOp26
 70
     0
102
RTVSPropertyOp27
 70
     0
102
RTVSPropertyOp28
 70
     0
102
RTVSPropertyOp29
 70
     0
102
RTVSPropertyOp30
 70
     0
102
RTVSPropertyOp31
 70
     0
102
RTVSPropertyOp32
 70
     0
  0
XRECORD
  5
342
102
{ACAD_REACTORS
330
341
102
}
330
341
100
AcDbXrecord
280
     1
102
RTVSPropertyOp0
 70
     1
102
RTVSPropertyOp1
 70
     1
102
RTVSPropertyOp2
 70
     1
102
RTVSPropertyOp3
 70
     1
102
RTVSPropertyOp4
 70
     1
102
RTVSPropertyOp5
 70
     1
102
RTVSPropertyOp6
 70
     1
102
RTVSPropertyOp7
 70
     1
102
RTVSPropertyOp8
 70
     1
102
RTVSPropertyOp9
 70
     1
102
RTVSPropertyOp10
 70
     1
102
RTVSPropertyOp11
 70
     1
102
RTVSPropertyOp12
 70
     1
102
RTVSPropertyOp13
 70
     1
102
RTVSPropertyOp14
 70
     1
102
RTVSPropertyOp15
 70
     1
102
RTVSPropertyOp16
 70
     1
102
RTVSPropertyOp17
 70
     1
102
RTVSPropertyOp18
 70
     1
102
RTVSPropertyOp19
 70
     1
102
RTVSPropertyOp20
 70
     1
102
RTVSPropertyOp21
 70
     1
102
RTVSPropertyOp22
 70
     1
102
RTVSPropertyOp23
 70
     1
102
RTVSPropertyOp24
 70
     1
102
RTVSPropertyOp25
 70
     1
102
RTVSPropertyOp26
 70
     1
102
RTVSPropertyOp27
 70
     1
102
RTVSPropertyOp28
 70
     1
102
RTVSPropertyOp29
 70
     1
102
RTVSPropertyOp30
 70
     1
102
RTVSPropertyOp31
 70
     1
102
RTVSPropertyOp32
 70
     1
  0
XRECORD
  5
354
102
{ACAD_REACTORS
330
353
102
}
330
353
100
AcDbXrecord
280
     1
102
RTVSPropertyOp0
 70
     0
102
RTVSPropertyOp1
 70
     0
102
RTVSPropertyOp2
 70
     0
102
RTVSPropertyOp3
 70
     0
102
RTVSPropertyOp4
 70
     0
102
RTVSPropertyOp5
 70
     0
102
RTVSPropertyOp6
 70
     0
102
RTVSPropertyOp7
 70
     0
102
RTVSPropertyOp8
 70
     0
102
RTVSPropertyOp9
 70
     0
102
RTVSPropertyOp10
 70
     0
102
RTVSPropertyOp11
 70
     0
102
RTVSPropertyOp12
 70
     0
102
RTVSPropertyOp13
 70
     0
102
RTVSPropertyOp14
 70
     2
102
RTVSPropertyOp15
 70
     0
102
RTVSPropertyOp16
 70
     0
102
RTVSPropertyOp17
 70
     0
102
RTVSPropertyOp18
 70
     0
102
RTVSPropertyOp19
 70
     0
102
RTVSPropertyOp20
 70
     0
102
RTVSPropertyOp21
 70
     0
102
RTVSPropertyOp22
 70
     0
102
RTVSPropertyOp23
 70
     0
102
RTVSPropertyOp24
 70
     0
102
RTVSPropertyOp25
 70
     0
102
RTVSPropertyOp26
 70
     0
102
RTVSPropertyOp27
 70
     0
102
RTVSPropertyOp28
 70
     0
102
RTVSPropertyOp29
 70
     0
102
RTVSPropertyOp30
 70
     0
102
RTVSPropertyOp31
 70
     0
102
RTVSPropertyOp32
 70
     0
  0
XRECORD
  5
32A
102
{ACAD_REACTORS
330
329
102
}
330
329
100
AcDbXrecord
280
     1
102
RTVSPropertyOp0
 70
     1
102
RTVSPropertyOp1
 70
     1
102
RTVSPropertyOp2
 70
     1
102
RTVSPropertyOp3
 70
     1
102
RTVSPropertyOp4
 70
     1
102
RTVSPropertyOp5
 70
     1
102
RTVSPropertyOp6
 70
     1
102
RTVSPropertyOp7
 70
     1
102
RTVSPropertyOp8
 70
     1
102
RTVSPropertyOp9
 70
     1
102
RTVSPropertyOp10
 70
     1
102
RTVSPropertyOp11
 70
     1
102
RTVSPropertyOp12
 70
     1
102
RTVSPropertyOp13
 70
     1
102
RTVSPropertyOp14
 70
     1
102
RTVSPropertyOp15
 70
     1
102
RTVSPropertyOp16
 70
     1
102
RTVSPropertyOp17
 70
     1
102
RTVSPropertyOp18
 70
     1
102
RTVSPropertyOp19
 70
     1
102
RTVSPropertyOp20
 70
     1
102
RTVSPropertyOp21
 70
     1
102
RTVSPropertyOp22
 70
     1
102
RTVSPropertyOp23
 70
     1
102
RTVSPropertyOp24
 70
     1
102
RTVSPropertyOp25
 70
     1
102
RTVSPropertyOp26
 70
     1
102
RTVSPropertyOp27
 70
     1
102
RTVSPropertyOp28
 70
     1
102
RTVSPropertyOp29
 70
     1
102
RTVSPropertyOp30
 70
     1
102
RTVSPropertyOp31
 70
     1
102
RTVSPropertyOp32
 70
     1
  0
XRECORD
  5
350
102
{ACAD_REACTORS
330
34F
102
}
330
34F
100
AcDbXrecord
280
     1
102
RTVSPropertyOp0
 70
     1
102
RTVSPropertyOp1
 70
     1
102
RTVSPropertyOp2
 70
     1
102
RTVSPropertyOp3
 70
     1
102
RTVSPropertyOp4
 70
     1
102
RTVSPropertyOp5
 70
     1
102
RTVSPropertyOp6
 70
     1
102
RTVSPropertyOp7
 70
     1
102
RTVSPropertyOp8
 70
     1
102
RTVSPropertyOp9
 70
     1
102
RTVSPropertyOp10
 70
     1
102
RTVSPropertyOp11
 70
     1
102
RTVSPropertyOp12
 70
     1
102
RTVSPropertyOp13
 70
     1
102
RTVSPropertyOp14
 70
     1
102
RTVSPropertyOp15
 70
     1
102
RTVSPropertyOp16
 70
     1
102
RTVSPropertyOp17
 70
     1
102
RTVSPropertyOp18
 70
     1
102
RTVSPropertyOp19
 70
     1
102
RTVSPropertyOp20
 70
     1
102
RTVSPropertyOp21
 70
     1
102
RTVSPropertyOp22
 70
     1
102
RTVSPropertyOp23
 70
     1
102
RTVSPropertyOp24
 70
     1
102
RTVSPropertyOp25
 70
     1
102
RTVSPropertyOp26
 70
     1
102
RTVSPropertyOp27
 70
     1
102
RTVSPropertyOp28
 70
     1
102
RTVSPropertyOp29
 70
     1
102
RTVSPropertyOp30
 70
     1
102
RTVSPropertyOp31
 70
     1
102
RTVSPropertyOp32
 70
     1
  0
XRECORD
  5
34E
102
{ACAD_REACTORS
330
34D
102
}
330
34D
100
AcDbXrecord
280
     1
102
RTVSPropertyOp0
 70
     1
102
RTVSPropertyOp1
 70
     1
102
RTVSPropertyOp2
 70
     1
102
RTVSPropertyOp3
 70
     1
102
RTVSPropertyOp4
 70
     1
102
RTVSPropertyOp5
 70
     1
102
RTVSPropertyOp6
 70
     1
102
RTVSPropertyOp7
 70
     1
102
RTVSPropertyOp8
 70
     1
102
RTVSPropertyOp9
 70
     1
102
RTVSPropertyOp10
 70
     1
102
RTVSPropertyOp11
 70
     1
102
RTVSPropertyOp12
 70
     1
102
RTVSPropertyOp13
 70
     1
102
RTVSPropertyOp14
 70
     1
102
RTVSPropertyOp15
 70
     1
102
RTVSPropertyOp16
 70
     1
102
RTVSPropertyOp17
 70
     1
102
RTVSPropertyOp18
 70
     1
102
RTVSPropertyOp19
 70
     1
102
RTVSPropertyOp20
 70
     1
102
RTVSPropertyOp21
 70
     1
102
RTVSPropertyOp22
 70
     1
102
RTVSPropertyOp23
 70
     1
102
RTVSPropertyOp24
 70
     1
102
RTVSPropertyOp25
 70
     1
102
RTVSPropertyOp26
 70
     1
102
RTVSPropertyOp27
 70
     1
102
RTVSPropertyOp28
 70
     1
102
RTVSPropertyOp29
 70
     1
102
RTVSPropertyOp30
 70
     1
102
RTVSPropertyOp31
 70
     1
102
RTVSPropertyOp32
 70
     1
  0
XRECORD
  5
348
102
{ACAD_REACTORS
330
347
102
}
330
347
100
AcDbXrecord
280
     1
102
RTVSPropertyOp0
 70
     1
102
RTVSPropertyOp1
 70
     1
102
RTVSPropertyOp2
 70
     1
102
RTVSPropertyOp3
 70
     1
102
RTVSPropertyOp4
 70
     1
102
RTVSPropertyOp5
 70
     1
102
RTVSPropertyOp6
 70
     1
102
RTVSPropertyOp7
 70
     1
102
RTVSPropertyOp8
 70
     1
102
RTVSPropertyOp9
 70
     1
102
RTVSPropertyOp10
 70
     1
102
RTVSPropertyOp11
 70
     1
102
RTVSPropertyOp12
 70
     1
102
RTVSPropertyOp13
 70
     1
102
RTVSPropertyOp14
 70
     1
102
RTVSPropertyOp15
 70
     1
102
RTVSPropertyOp16
 70
     1
102
RTVSPropertyOp17
 70
     1
102
RTVSPropertyOp18
 70
     1
102
RTVSPropertyOp19
 70
     1
102
RTVSPropertyOp20
 70
     1
102
RTVSPropertyOp21
 70
     1
102
RTVSPropertyOp22
 70
     1
102
RTVSPropertyOp23
 70
     1
102
RTVSPropertyOp24
 70
     1
102
RTVSPropertyOp25
 70
     1
102
RTVSPropertyOp26
 70
     1
102
RTVSPropertyOp27
 70
     1
102
RTVSPropertyOp28
 70
     1
102
RTVSPropertyOp29
 70
     1
102
RTVSPropertyOp30
 70
     1
102
RTVSPropertyOp31
 70
     1
102
RTVSPropertyOp32
 70
     1
  0
XRECORD
  5
34A
102
{ACAD_REACTORS
330
349
102
}
330
349
100
AcDbXrecord
280
     1
102
RTVSPropertyOp0
 70
     1
102
RTVSPropertyOp1
 70
     1
102
RTVSPropertyOp2
 70
     1
102
RTVSPropertyOp3
 70
     1
102
RTVSPropertyOp4
 70
     1
102
RTVSPropertyOp5
 70
     1
102
RTVSPropertyOp6
 70
     1
102
RTVSPropertyOp7
 70
     1
102
RTVSPropertyOp8
 70
     1
102
RTVSPropertyOp9
 70
     1
102
RTVSPropertyOp10
 70
     1
102
RTVSPropertyOp11
 70
     1
102
RTVSPropertyOp12
 70
     1
102
RTVSPropertyOp13
 70
     1
102
RTVSPropertyOp14
 70
     1
102
RTVSPropertyOp15
 70
     1
102
RTVSPropertyOp16
 70
     1
102
RTVSPropertyOp17
 70
     1
102
RTVSPropertyOp18
 70
     1
102
RTVSPropertyOp19
 70
     1
102
RTVSPropertyOp20
 70
     1
102
RTVSPropertyOp21
 70
     1
102
RTVSPropertyOp22
 70
     1
102
RTVSPropertyOp23
 70
     1
102
RTVSPropertyOp24
 70
     1
102
RTVSPropertyOp25
 70
     1
102
RTVSPropertyOp26
 70
     1
102
RTVSPropertyOp27
 70
     1
102
RTVSPropertyOp28
 70
     1
102
RTVSPropertyOp29
 70
     1
102
RTVSPropertyOp30
 70
     1
102
RTVSPropertyOp31
 70
     1
102
RTVSPropertyOp32
 70
     1
  0
XRECORD
  5
340
102
{ACAD_REACTORS
330
33F
102
}
330
33F
100
AcDbXrecord
280
     1
102
RTVSPropertyOp0
 70
     1
102
RTVSPropertyOp1
 70
     1
102
RTVSPropertyOp2
 70
     1
102
RTVSPropertyOp3
 70
     1
102
RTVSPropertyOp4
 70
     1
102
RTVSPropertyOp5
 70
     1
102
RTVSPropertyOp6
 70
     1
102
RTVSPropertyOp7
 70
     1
102
RTVSPropertyOp8
 70
     1
102
RTVSPropertyOp9
 70
     1
102
RTVSPropertyOp10
 70
     1
102
RTVSPropertyOp11
 70
     1
102
RTVSPropertyOp12
 70
     1
102
RTVSPropertyOp13
 70
     1
102
RTVSPropertyOp14
 70
     1
102
RTVSPropertyOp15
 70
     1
102
RTVSPropertyOp16
 70
     1
102
RTVSPropertyOp17
 70
     1
102
RTVSPropertyOp18
 70
     1
102
RTVSPropertyOp19
 70
     1
102
RTVSPropertyOp20
 70
     1
102
RTVSPropertyOp21
 70
     1
102
RTVSPropertyOp22
 70
     1
102
RTVSPropertyOp23
 70
     1
102
RTVSPropertyOp24
 70
     1
102
RTVSPropertyOp25
 70
     1
102
RTVSPropertyOp26
 70
     1
102
RTVSPropertyOp27
 70
     1
102
RTVSPropertyOp28
 70
     1
102
RTVSPropertyOp29
 70
     1
102
RTVSPropertyOp30
 70
     1
102
RTVSPropertyOp31
 70
     1
102
RTVSPropertyOp32
 70
     1
  0
XRECORD
  5
32C
102
{ACAD_REACTORS
330
32B
102
}
330
32B
100
AcDbXrecord
280
     1
102
RTVSPropertyOp0
 70
     1
102
RTVSPropertyOp1
 70
     1
102
RTVSPropertyOp2
 70
     1
102
RTVSPropertyOp3
 70
     1
102
RTVSPropertyOp4
 70
     1
102
RTVSPropertyOp5
 70
     1
102
RTVSPropertyOp6
 70
     1
102
RTVSPropertyOp7
 70
     1
102
RTVSPropertyOp8
 70
     1
102
RTVSPropertyOp9
 70
     1
102
RTVSPropertyOp10
 70
     1
102
RTVSPropertyOp11
 70
     1
102
RTVSPropertyOp12
 70
     1
102
RTVSPropertyOp13
 70
     1
102
RTVSPropertyOp14
 70
     1
102
RTVSPropertyOp15
 70
     1
102
RTVSPropertyOp16
 70
     1
102
RTVSPropertyOp17
 70
     1
102
RTVSPropertyOp18
 70
     1
102
RTVSPropertyOp19
 70
     1
102
RTVSPropertyOp20
 70
     1
102
RTVSPropertyOp21
 70
     1
102
RTVSPropertyOp22
 70
     1
102
RTVSPropertyOp23
 70
     1
102
RTVSPropertyOp24
 70
     1
102
RTVSPropertyOp25
 70
     1
102
RTVSPropertyOp26
 70
     1
102
RTVSPropertyOp27
 70
     1
102
RTVSPropertyOp28
 70
     1
102
RTVSPropertyOp29
 70
     1
102
RTVSPropertyOp30
 70
     1
102
RTVSPropertyOp31
 70
     1
102
RTVSPropertyOp32
 70
     1
  0
XRECORD
  5
34C
102
{ACAD_REACTORS
330
34B
102
}
330
34B
100
AcDbXrecord
280
     1
102
RTVSPropertyOp0
 70
     1
102
RTVSPropertyOp1
 70
     1
102
RTVSPropertyOp2
 70
     1
102
RTVSPropertyOp3
 70
     1
102
RTVSPropertyOp4
 70
     1
102
RTVSPropertyOp5
 70
     1
102
RTVSPropertyOp6
 70
     1
102
RTVSPropertyOp7
 70
     1
102
RTVSPropertyOp8
 70
     1
102
RTVSPropertyOp9
 70
     1
102
RTVSPropertyOp10
 70
     1
102
RTVSPropertyOp11
 70
     1
102
RTVSPropertyOp12
 70
     1
102
RTVSPropertyOp13
 70
     1
102
RTVSPropertyOp14
 70
     1
102
RTVSPropertyOp15
 70
     1
102
RTVSPropertyOp16
 70
     1
102
RTVSPropertyOp17
 70
     1
102
RTVSPropertyOp18
 70
     1
102
RTVSPropertyOp19
 70
     1
102
RTVSPropertyOp20
 70
     1
102
RTVSPropertyOp21
 70
     1
102
RTVSPropertyOp22
 70
     1
102
RTVSPropertyOp23
 70
     1
102
RTVSPropertyOp24
 70
     1
102
RTVSPropertyOp25
 70
     1
102
RTVSPropertyOp26
 70
     1
102
RTVSPropertyOp27
 70
     1
102
RTVSPropertyOp28
 70
     1
102
RTVSPropertyOp29
 70
     1
102
RTVSPropertyOp30
 70
     1
102
RTVSPropertyOp31
 70
     1
102
RTVSPropertyOp32
 70
     1
  0
ENDSEC
  0
EOF
