  0
SECTION
  2
HEADER
  9
$ACADVER
  1
AC1015
  9
$ACADMAINTVER
 70
    20
  9
$DWGCODEPAGE
  3
ANSI_932
  9
$INSBASE
 10
129.499999944041
 20
372.5008351249344
 30
0.0
  9
$EXTMIN
 10
-65.38146882478781
 20
-54.34606870769767
 30
-0.0015258207003583
  9
$EXTMAX
 10
59.65210016776359
 20
58.67852824609554
 30
0.0000000349246037
  9
$LIMMIN
 10
0.0
 20
0.0
  9
$LIMMAX
 10
420.0
 20
297.0
  9
$ORTHOMODE
 70
     1
  9
$REGENMODE
 70
     0
  9
$FILLMODE
 70
     1
  9
$QTEXTMODE
 70
     0
  9
$MIRRTEXT
 70
     0
  9
$LTSCALE
 40
1.0
  9
$ATTMODE
 70
     1
  9
$TEXTSIZE
 40
2.5
  9
$TRACEWID
 40
1.0
  9
$TEXTSTYLE
  7
Standard
  9
$CLAYER
  8
SUNPO
  9
$CELTYPE
  6
ByLayer
  9
$CECOLOR
 62
   256
  9
$CELTSCALE
 40
1.0
  9
$DISPSILH
 70
     0
  9
$DIMSCALE
 40
1.0
  9
$DIMASZ
 40
2.0
  9
$DIMEXO
 40
2.0
  9
$DIMDLI
 40
8.0
  9
$DIMRND
 40
0.0
  9
$DIMDLE
 40
0.0
  9
$DIMEXE
 40
2.0
  9
$DIMTP
 40
0.0
  9
$DIMTM
 40
0.0
  9
$DIMTXT
 40
2.5
  9
$DIMCEN
 40
0.0
  9
$DIMTSZ
 40
0.0
  9
$DIMTOL
 70
     0
  9
$DIMLIM
 70
     0
  9
$DIMTIH
 70
     0
  9
$DIMTOH
 70
     0
  9
$DIMSE1
 70
     0
  9
$DIMSE2
 70
     0
  9
$DIMTAD
 70
     3
  9
$DIMZIN
 70
     0
  9
$DIMBLK
  1

  9
$DIMASO
 70
     1
  9
$DIMSHO
 70
     1
  9
$DIMPOST
  1

  9
$DIMAPOST
  1

  9
$DIMALT
 70
     0
  9
$DIMALTD
 70
     2
  9
$DIMALTF
 40
25.4
  9
$DIMLFAC
 40
1.0
  9
$DIMTOFL
 70
     1
  9
$DIMTVP
 40
0.0
  9
$DIMTIX
 70
     0
  9
$DIMSOXD
 70
     0
  9
$DIMSAH
 70
     1
  9
$DIMBLK1
  1
OPEN30
  9
$DIMBLK2
  1
OPEN30
  9
$DIMSTYLE
  2
STANDARD
  9
$DIMCLRD
 70
     0
  9
$DIMCLRE
 70
     0
  9
$DIMCLRT
 70
     0
  9
$DIMTFAC
 40
1.0
  9
$DIMGAP
 40
0.5
  9
$DIMJUST
 70
     0
  9
$DIMSD1
 70
     0
  9
$DIMSD2
 70
     0
  9
$DIMTOLJ
 70
     1
  9
$DIMTZIN
 70
     0
  9
$DIMALTZ
 70
     0
  9
$DIMALTTZ
 70
     0
  9
$DIMUPT
 70
     0
  9
$DIMDEC
 70
     4
  9
$DIMTDEC
 70
     4
  9
$DIMALTU
 70
     2
  9
$DIMALTTD
 70
     2
  9
$DIMTXSTY
  7
Standard
  9
$DIMAUNIT
 70
     0
  9
$DIMADEC
 70
     0
  9
$DIMALTRND
 40
0.0
  9
$DIMAZIN
 70
     0
  9
$DIMDSEP
 70
    46
  9
$DIMATFIT
 70
     3
  9
$DIMFRAC
 70
     0
  9
$DIMLDRBLK
  1
OPEN30
  9
$DIMLUNIT
 70
     2
  9
$DIMLWD
 70
    -2
  9
$DIMLWE
 70
    -2
  9
$DIMTMOVE
 70
     0
  9
$LUNITS
 70
     2
  9
$LUPREC
 70
     4
  9
$SKETCHINC
 40
1.0
  9
$FILLETRAD
 40
0.0
  9
$AUNITS
 70
     0
  9
$AUPREC
 70
     0
  9
$MENU
  1
.
  9
$ELEVATION
 40
0.0
  9
$PELEVATION
 40
0.0
  9
$THICKNESS
 40
0.0
  9
$LIMCHECK
 70
     0
  9
$CHAMFERA
 40
0.0
  9
$CHAMFERB
 40
0.0
  9
$CHAMFERC
 40
0.0
  9
$CHAMFERD
 40
0.0
  9
$SKPOLY
 70
     0
  9
$TDCREATE
 40
2454349.434269746
  9
$TDUCREATE
 40
2454349.059269746
  9
$TDUPDATE
 40
2454643.678872338
  9
$TDUUPDATE
 40
2454643.303872338
  9
$TDINDWG
 40
0.3670808102
  9
$TDUSRTIMER
 40
0.3670808102
  9
$USRTIMER
 70
     1
  9
$ANGBASE
 50
0.0
  9
$ANGDIR
 70
     0
  9
$PDMODE
 70
     0
  9
$PDSIZE
 40
0.0
  9
$PLINEWID
 40
0.0
  9
$SPLFRAME
 70
     0
  9
$SPLINETYPE
 70
     6
  9
$SPLINESEGS
 70
     8
  9
$HANDSEED
  5
283
  9
$SURFTAB1
 70
     6
  9
$SURFTAB2
 70
     6
  9
$SURFTYPE
 70
     6
  9
$SURFU
 70
     6
  9
$SURFV
 70
     6
  9
$UCSBASE
  2

  9
$UCSNAME
  2

  9
$UCSORG
 10
0.0
 20
0.0
 30
0.0
  9
$UCSXDIR
 10
1.0
 20
0.0
 30
0.0
  9
$UCSYDIR
 10
0.0
 20
1.0
 30
0.0
  9
$UCSORTHOREF
  2

  9
$UCSORTHOVIEW
 70
     0
  9
$UCSORGTOP
 10
0.0
 20
0.0
 30
0.0
  9
$UCSORGBOTTOM
 10
0.0
 20
0.0
 30
0.0
  9
$UCSORGLEFT
 10
0.0
 20
0.0
 30
0.0
  9
$UCSORGRIGHT
 10
0.0
 20
0.0
 30
0.0
  9
$UCSORGFRONT
 10
0.0
 20
0.0
 30
0.0
  9
$UCSORGBACK
 10
0.0
 20
0.0
 30
0.0
  9
$PUCSBASE
  2

  9
$PUCSNAME
  2

  9
$PUCSORG
 10
0.0
 20
0.0
 30
0.0
  9
$PUCSXDIR
 10
1.0
 20
0.0
 30
0.0
  9
$PUCSYDIR
 10
0.0
 20
1.0
 30
0.0
  9
$PUCSORTHOREF
  2

  9
$PUCSORTHOVIEW
 70
     0
  9
$PUCSORGTOP
 10
0.0
 20
0.0
 30
0.0
  9
$PUCSORGBOTTOM
 10
0.0
 20
0.0
 30
0.0
  9
$PUCSORGLEFT
 10
0.0
 20
0.0
 30
0.0
  9
$PUCSORGRIGHT
 10
0.0
 20
0.0
 30
0.0
  9
$PUCSORGFRONT
 10
0.0
 20
0.0
 30
0.0
  9
$PUCSORGBACK
 10
0.0
 20
0.0
 30
0.0
  9
$USERI1
 70
     0
  9
$USERI2
 70
     0
  9
$USERI3
 70
     0
  9
$USERI4
 70
     0
  9
$USERI5
 70
     0
  9
$USERR1
 40
0.0
  9
$USERR2
 40
0.0
  9
$USERR3
 40
0.0
  9
$USERR4
 40
0.0
  9
$USERR5
 40
0.0
  9
$WORLDVIEW
 70
     1
  9
$SHADEDGE
 70
     3
  9
$SHADEDIF
 70
    70
  9
$TILEMODE
 70
     1
  9
$MAXACTVP
 70
    64
  9
$PINSBASE
 10
0.0
 20
0.0
 30
0.0
  9
$PLIMCHECK
 70
     0
  9
$PEXTMIN
 10
0.0
 20
0.0
 30
0.0
  9
$PEXTMAX
 10
0.0
 20
0.0
 30
0.0
  9
$PLIMMIN
 10
0.0
 20
0.0
  9
$PLIMMAX
 10
12.0
 20
9.0
  9
$UNITMODE
 70
     0
  9
$VISRETAIN
 70
     1
  9
$PLINEGEN
 70
     0
  9
$PSLTSCALE
 70
     1
  9
$TREEDEPTH
 70
  3020
  9
$CMLSTYLE
  2
Standard
  9
$CMLJUST
 70
     0
  9
$CMLSCALE
 40
20.0
  9
$PROXYGRAPHICS
 70
     1
  9
$MEASUREMENT
 70
     1
  9
$CELWEIGHT
370
    -1
  9
$ENDCAPS
280
     0
  9
$JOINSTYLE
280
     0
  9
$LWDISPLAY
290
     0
  9
$INSUNITS
 70
     4
  9
$HYPERLINKBASE
  1

  9
$STYLESHEET
  1

  9
$XEDIT
290
     1
  9
$CEPSNTYPE
380
     0
  9
$PSTYLEMODE
290
     1
  9
$FINGERPRINTGUID
  2
{FDEAD578-A652-11D2-9A35-0060089B3A3F}
  9
$VERSIONGUID
  2
{BBDD42A2-CB0B-451C-A90F-387C2BDC44FE}
  9
$EXTNAMES
290
     1
  9
$PSVPSCALE
 40
0.0
  9
$OLESTARTUP
290
     0
  0
ENDSEC
  0
SECTION
  2
CLASSES
  0
CLASS
  1
ACDBDICTIONARYWDFLT
  2
AcDbDictionaryWithDefault
  3
ObjectDBX Classes
 90
        0
280
     0
281
     0
  0
CLASS
  1
ACDBPLACEHOLDER
  2
AcDbPlaceHolder
  3
ObjectDBX Classes
 90
        0
280
     0
281
     0
  0
CLASS
  1
LAYOUT
  2
AcDbLayout
  3
ObjectDBX Classes
 90
        0
280
     0
281
     0
  0
CLASS
  1
DICTIONARYVAR
  2
AcDbDictionaryVar
  3
ObjectDBX Classes
 90
        0
280
     0
281
     0
  0
CLASS
  1
SORTENTSTABLE
  2
AcDbSortentsTable
  3
ObjectDBX Classes
 90
        0
280
     0
281
     0
  0
CLASS
  1
DIMASSOC
  2
AcDbDimAssoc
  3
"AcDbDimAssoc|Product Desc:     AcDim ARX App For Dimension|Company:          Autodesk, Inc.|WEB Address:      www.autodesk.com"
 90
    32768
280
     0
281
     0
  0
ENDSEC
  0
SECTION
  2
TABLES
  0
TABLE
  2
VPORT
  5
1D
330
0
100
AcDbSymbolTable
 70
     3
  0
VPORT
  5
27B
330
1D
100
AcDbSymbolTableRecord
100
AcDbViewportTableRecord
  2
*Active
 70
     0
 10
0.0
 20
0.0
 11
1.0
 21
1.0
 12
-2.864684328512105
 22
2.166229769198935
 13
0.0
 23
0.0
 14
10.0
 24
10.0
 15
10.0
 25
10.0
 16
0.0
 26
0.0
 36
1.0
 17
0.0
 27
0.0
 37
0.0
 40
113.9180720285267
 41
1.439313984168865
 42
50.0
 43
0.0
 44
0.0
 50
0.0
 51
0.0
 71
     0
 72
 10000
 73
     1
 74
     2
 75
     0
 76
     0
 77
     0
 78
     0
281
     0
 65
     1
110
0.0
120
0.0
130
0.0
111
1.0
121
0.0
131
0.0
112
0.0
122
1.0
132
0.0
 79
     0
146
0.0
  0
ENDTAB
  0
TABLE
  2
LTYPE
  5
18
330
0
100
AcDbSymbolTable
 70
     1
  0
LTYPE
  5
19
330
18
100
AcDbSymbolTableRecord
100
AcDbLinetypeTableRecord
  2
ByBlock
 70
     0
  3

 72
    65
 73
     0
 40
0.0
  0
LTYPE
  5
1A
330
18
100
AcDbSymbolTableRecord
100
AcDbLinetypeTableRecord
  2
ByLayer
 70
     0
  3

 72
    65
 73
     0
 40
0.0
  0
LTYPE
  5
A
330
18
100
AcDbSymbolTableRecord
100
AcDbLinetypeTableRecord
  2
Continuous
 70
     0
  3
Solid line
 72
    65
 73
     0
 40
0.0
  0
ENDTAB
  0
TABLE
  2
LAYER
  5
12
102
{ACAD_XDICTIONARY
360
13
102
}
330
0
100
AcDbSymbolTable
 70
     7
  0
LAYER
  5
6
330
12
100
AcDbSymbolTableRecord
100
AcDbLayerTableRecord
  2
0
 70
     0
 62
     7
  6
Continuous
370
    -3
390
7
  0
LAYER
  5
37
330
12
100
AcDbSymbolTableRecord
100
AcDbLayerTableRecord
  2
WAKU
 70
     0
 62
     4
  6
Continuous
370
    -3
390
7
  0
LAYER
  5
34
330
12
100
AcDbSymbolTableRecord
100
AcDbLayerTableRecord
  2
MOJI1
 70
     0
 62
     2
  6
Continuous
370
    -3
390
7
  0
LAYER
  5
32
330
12
100
AcDbSymbolTableRecord
100
AcDbLayerTableRecord
  2
TOUROKU
 70
     0
 62
     1
  6
Continuous
370
    -3
390
7
  0
LAYER
  5
4B
330
12
100
AcDbSymbolTableRecord
100
AcDbLayerTableRecord
  2
GAIKEI
 70
     0
 62
     7
  6
Continuous
370
    -3
390
7
  0
LAYER
  5
233
330
12
100
AcDbSymbolTableRecord
100
AcDbLayerTableRecord
  2
DEFPOINTS
 70
     0
 62
     7
  6
Continuous
290
     0
370
    -3
390
7
  0
LAYER
  5
2F
330
12
100
AcDbSymbolTableRecord
100
AcDbLayerTableRecord
  2
SUNPO
 70
     0
 62
     3
  6
Continuous
370
    -3
390
7
  0
ENDTAB
  0
TABLE
  2
STYLE
  5
15
330
0
100
AcDbSymbolTable
 70
     1
  0
STYLE
  5
16
330
15
100
AcDbSymbolTableRecord
100
AcDbTextStyleTableRecord
  2
Standard
 70
     0
 40
0.0
 41
1.0
 50
0.0
 71
     0
 42
2.5
  3
MONOTXT.shx
  4
BIGFONT.shx
  0
ENDTAB
  0
TABLE
  2
VIEW
  5
1B
330
0
100
AcDbSymbolTable
 70
     0
  0
ENDTAB
  0
TABLE
  2
UCS
  5
1C
330
0
100
AcDbSymbolTable
 70
     0
  0
ENDTAB
  0
TABLE
  2
APPID
  5
1F
330
0
100
AcDbSymbolTable
 70
     2
  0
APPID
  5
20
330
1F
100
AcDbSymbolTableRecord
100
AcDbRegAppTableRecord
  2
ACAD
 70
     0
  0
APPID
  5
24F
330
1F
100
AcDbSymbolTableRecord
100
AcDbRegAppTableRecord
  2
DCO15
 70
     0
  0
ENDTAB
  0
TABLE
  2
DIMSTYLE
  5
21
330
0
100
AcDbSymbolTable
 70
     1
100
AcDbDimStyleTable
 71
     1
340
22
  0
DIMSTYLE
105
22
102
{ACAD_REACTORS
330
229
330
237
102
}
330
21
100
AcDbSymbolTableRecord
100
AcDbDimStyleTableRecord
  2
STANDARD
 70
     0
 40
0.0
 41
2.0
 42
2.0
 43
8.0
 44
2.0
 73
     0
 74
     0
 77
     3
140
3.0
141
0.0
173
     1
279
     2
288
     1
340
16
341
23
343
23
344
23
  0
ENDTAB
  0
TABLE
  2
BLOCK_RECORD
  5
1
330
0
100
AcDbSymbolTable
 70
     5
  0
BLOCK_RECORD
  5
2
102
{ACAD_XDICTIONARY
360
3
102
}
330
1
100
AcDbSymbolTableRecord
100
AcDbBlockTableRecord
  2
*Model_Space
340
C
  0
BLOCK_RECORD
  5
E
330
1
100
AcDbSymbolTableRecord
100
AcDbBlockTableRecord
  2
*Paper_Space
340
11
  0
BLOCK_RECORD
  5
23
330
1
100
AcDbSymbolTableRecord
100
AcDbBlockTableRecord
  2
_OPEN30
340
0
102
{BLKREFS
331
22F
331
230
331
23F
331
240
331
263
331
264
331
26F
331
270
102
}
  0
BLOCK_RECORD
  5
22A
330
1
100
AcDbSymbolTableRecord
100
AcDbBlockTableRecord
  2
*D1
340
0
  0
BLOCK_RECORD
  5
238
330
1
100
AcDbSymbolTableRecord
100
AcDbBlockTableRecord
  2
*D2
340
0
  0
BLOCK_RECORD
  5
25D
330
1
100
AcDbSymbolTableRecord
100
AcDbBlockTableRecord
  2
*D3
340
0
  0
BLOCK_RECORD
  5
26B
330
1
100
AcDbSymbolTableRecord
100
AcDbBlockTableRecord
  2
*D4
340
0
  0
ENDTAB
  0
ENDSEC
  0
SECTION
  2
BLOCKS
  0
BLOCK
  5
5
330
2
100
AcDbEntity
  8
0
100
AcDbBlockBegin
  2
*Model_Space
 70
     0
 10
0.0
 20
0.0
 30
0.0
  3
*Model_Space
  1

  0
ENDBLK
  5
B
330
2
100
AcDbEntity
  8
0
100
AcDbBlockEnd
  0
BLOCK
  5
F
330
E
100
AcDbEntity
 67
     1
  8
0
100
AcDbBlockBegin
  2
*Paper_Space
 70
     0
 10
0.0
 20
0.0
 30
0.0
  3
*Paper_Space
  1

  0
ENDBLK
  5
10
330
E
100
AcDbEntity
 67
     1
  8
0
100
AcDbBlockEnd
  0
BLOCK
  5
24
330
23
100
AcDbEntity
  8
0
100
AcDbBlockBegin
  2
_OPEN30
 70
     0
 10
0.0
 20
0.0
 30
0.0
  3
_OPEN30
  1

  0
LINE
  5
25
330
23
100
AcDbEntity
  8
0
  6
ByBlock
 62
     0
100
AcDbLine
 10
-1.0
 20
0.26794919
 30
0.0
 11
0.0
 21
0.0
 31
0.0
  0
LINE
  5
26
330
23
100
AcDbEntity
  8
0
  6
ByBlock
 62
     0
100
AcDbLine
 10
0.0
 20
0.0
 30
0.0
 11
-1.0
 21
-0.26794919
 31
0.0
  0
LINE
  5
27
330
23
100
AcDbEntity
  8
0
  6
ByBlock
 62
     0
100
AcDbLine
 10
0.0
 20
0.0
 30
0.0
 11
-1.0
 21
0.0
 31
0.0
  0
ENDBLK
  5
28
330
23
100
AcDbEntity
  8
0
100
AcDbBlockEnd
  0
BLOCK
  5
22B
330
22A
100
AcDbEntity
  8
0
100
AcDbBlockBegin
  2
*D1
 70
     1
 10
0.0
 20
0.0
 30
0.0
  3
*D1
  1

  0
LINE
  5
22C
330
22A
100
AcDbEntity
  8
SUNPO
 62
     0
370
    -2
100
AcDbLine
 10
161.2681008733464
 20
344.8243862014729
 30
0.0
 11
161.2681008733464
 21
352.8243862014729
 31
0.0
  0
LINE
  5
22D
330
22A
100
AcDbEntity
  8
SUNPO
 62
     0
370
    -2
100
AcDbLine
 10
198.4681008733464
 20
344.8243862014729
 30
0.0
 11
198.4681008733464
 21
352.8243862014729
 31
0.0
  0
LINE
  5
22E
330
22A
100
AcDbEntity
  8
SUNPO
 62
     0
370
    -2
100
AcDbLine
 10
163.2681008733464
 20
350.8243862014729
 30
0.0
 11
196.4681008733464
 21
350.8243862014729
 31
0.0
  0
INSERT
  5
22F
330
22A
100
AcDbEntity
  8
SUNPO
 62
     0
370
    -2
100
AcDbBlockReference
  2
_OPEN30
 10
161.2681008733464
 20
350.8243862014729
 30
0.0
 41
2.0
 42
2.0
 43
2.0
 50
180.0
  0
INSERT
  5
230
330
22A
100
AcDbEntity
  8
SUNPO
 62
     0
370
    -2
100
AcDbBlockReference
  2
_OPEN30
 10
198.4681008733464
 20
350.8243862014729
 30
0.0
 41
2.0
 42
2.0
 43
2.0
  0
MTEXT
  5
231
330
22A
100
AcDbEntity
  8
SUNPO
 62
     0
100
AcDbMText
 10
179.8681008733464
 20
352.5743862014729
 30
0.0
 40
2.5
 41
0.0
 71
     5
 72
     1
  1
\A1;φ186
 73
     1
 44
1.0
1001
ACAD
1000
MTEXTBEGIN
1070
    73
1070
     1
1070
    44
1040
1.0
1070
    74
1070
     0
1000
MTEXTEND
  0
POINT
  5
232
330
22A
100
AcDbEntity
  8
DEFPOINTS
 62
     0
100
AcDbPoint
 10
161.2681008733464
 20
342.8243862014729
 30
0.0
  0
POINT
  5
234
330
22A
100
AcDbEntity
  8
DEFPOINTS
 62
     0
100
AcDbPoint
 10
198.4681008733464
 20
342.8243862014729
 30
0.0
  0
POINT
  5
235
330
22A
100
AcDbEntity
  8
DEFPOINTS
 62
     0
100
AcDbPoint
 10
198.4681008733464
 20
350.8243862014729
 30
0.0
  0
ENDBLK
  5
236
330
22A
100
AcDbEntity
  8
0
100
AcDbBlockEnd
  0
BLOCK
  5
239
330
238
100
AcDbEntity
  8
0
100
AcDbBlockBegin
  2
*D2
 70
     1
 10
0.0
 20
0.0
 30
0.0
  3
*D2
  1

  0
LINE
  5
23A
330
238
100
AcDbEntity
  8
SUNPO
 62
     0
370
    -2
100
AcDbLine
 10
221.7656093200535
 20
344.8243862014729
 30
0.0
 11
221.7656093200535
 21
352.8243862014729
 31
0.0
  0
LINE
  5
23B
330
238
100
AcDbEntity
  8
SUNPO
 62
     0
370
    -2
100
AcDbLine
 10
223.2695263827201
 20
344.8243862014729
 30
0.0
 11
223.2695263827201
 21
352.8243862014729
 31
0.0
  0
LINE
  5
23C
330
238
100
AcDbEntity
  8
SUNPO
 62
     0
370
    -2
100
AcDbLine
 10
219.7656093200535
 20
350.8243862014729
 30
0.0
 11
217.7656093200535
 21
350.8243862014729
 31
0.0
  0
LINE
  5
23D
330
238
100
AcDbEntity
  8
SUNPO
 62
     0
370
    -2
100
AcDbLine
 10
225.2695263827201
 20
350.8243862014729
 30
0.0
 11
234.9361930493868
 21
350.8243862014729
 31
0.0
  0
LINE
  5
23E
330
238
100
AcDbEntity
  8
SUNPO
 62
     0
370
    -2
100
AcDbLine
 10
221.7656093200535
 20
350.8243862014729
 30
0.0
 11
223.2695263827201
 21
350.8243862014729
 31
0.0
  0
INSERT
  5
23F
330
238
100
AcDbEntity
  8
SUNPO
 62
     0
370
    -2
100
AcDbBlockReference
  2
_OPEN30
 10
221.7656093200535
 20
350.8243862014729
 30
0.0
 41
2.0
 42
2.0
 43
2.0
  0
INSERT
  5
240
330
238
100
AcDbEntity
  8
SUNPO
 62
     0
370
    -2
100
AcDbBlockReference
  2
_OPEN30
 10
223.2695263827201
 20
350.8243862014729
 30
0.0
 41
2.0
 42
2.0
 43
2.0
 50
180.0
  0
MTEXT
  5
241
330
238
100
AcDbEntity
  8
SUNPO
 62
     0
100
AcDbMText
 10
231.1028597160535
 20
352.5743862014729
 30
0.0
 40
2.5
 41
0.0
 71
     5
 72
     1
  1
\A1;7.5
 73
     1
 44
1.0
1001
ACAD
1000
MTEXTBEGIN
1070
    73
1070
     1
1070
    44
1040
1.0
1070
    74
1070
     0
1000
MTEXTEND
  0
POINT
  5
242
330
238
100
AcDbEntity
  8
DEFPOINTS
 62
     0
100
AcDbPoint
 10
221.7656093200535
 20
342.8243862014729
 30
0.0
  0
POINT
  5
243
330
238
100
AcDbEntity
  8
DEFPOINTS
 62
     0
100
AcDbPoint
 10
223.2695263827201
 20
342.8243862014729
 30
0.0
  0
POINT
  5
244
330
238
100
AcDbEntity
  8
DEFPOINTS
 62
     0
100
AcDbPoint
 10
223.2695263827201
 20
350.8243862014729
 30
0.0
  0
ENDBLK
  5
245
330
238
100
AcDbEntity
  8
0
100
AcDbBlockEnd
  0
BLOCK
  5
269
330
25D
100
AcDbEntity
  8
0
100
AcDbBlockBegin
  2
*D3
 70
     1
 10
0.0
 20
0.0
 30
0.0
  3
*D3
  1

  0
LINE
  5
25E
330
25D
100
AcDbEntity
  8
SUNPO
 62
     0
370
    -2
100
AcDbLine
 10
24.90628182049457
 20
32.98259359314119
 30
0.0
 11
24.90628182049457
 21
40.98259359314119
 31
0.0
  0
LINE
  5
25F
330
25D
100
AcDbEntity
  8
SUNPO
 62
     0
370
    -2
100
AcDbLine
 10
26.41019888316114
 20
32.98259359314119
 30
0.0
 11
26.41019888316114
 21
40.98259359314119
 31
0.0
  0
LINE
  5
260
330
25D
100
AcDbEntity
  8
SUNPO
 62
     0
370
    -2
100
AcDbLine
 10
22.90628182049457
 20
38.98259359314119
 30
0.0
 11
20.90628182049457
 21
38.98259359314119
 31
0.0
  0
LINE
  5
261
330
25D
100
AcDbEntity
  8
SUNPO
 62
     0
370
    -2
100
AcDbLine
 10
28.41019888316115
 20
38.98259359314119
 30
0.0
 11
38.07686554982782
 21
38.98259359314119
 31
0.0
  0
LINE
  5
262
330
25D
100
AcDbEntity
  8
SUNPO
 62
     0
370
    -2
100
AcDbLine
 10
24.90628182049457
 20
38.98259359314119
 30
0.0
 11
26.41019888316114
 21
38.98259359314119
 31
0.0
  0
INSERT
  5
263
330
25D
100
AcDbEntity
  8
SUNPO
 62
     0
370
    -2
100
AcDbBlockReference
  2
_OPEN30
 10
24.90628182049457
 20
38.98259359314119
 30
0.0
 41
2.0
 42
2.0
 43
2.0
  0
INSERT
  5
264
330
25D
100
AcDbEntity
  8
SUNPO
 62
     0
370
    -2
100
AcDbBlockReference
  2
_OPEN30
 10
26.41019888316114
 20
38.98259359314119
 30
0.0
 41
2.0
 42
2.0
 43
2.0
 50
180.0
  0
MTEXT
  5
265
330
25D
100
AcDbEntity
  8
SUNPO
 62
     0
100
AcDbMText
 10
34.24353221649448
 20
40.73259359314119
 30
0.0
 40
2.5
 41
0.0
 71
     5
 72
     1
  1
\A1;7.5
 73
     1
 44
1.0
1001
ACAD
1000
MTEXTBEGIN
1070
    73
1070
     1
1070
    44
1040
1.0
1070
    74
1070
     0
1000
MTEXTEND
  0
POINT
  5
266
330
25D
100
AcDbEntity
  8
DEFPOINTS
 62
     0
100
AcDbPoint
 10
24.90628182049457
 20
30.98259359314119
 30
0.0
  0
POINT
  5
267
330
25D
100
AcDbEntity
  8
DEFPOINTS
 62
     0
100
AcDbPoint
 10
26.41019888316114
 20
30.98259359314119
 30
0.0
  0
POINT
  5
268
330
25D
100
AcDbEntity
  8
DEFPOINTS
 62
     0
100
AcDbPoint
 10
26.41019888316114
 20
38.98259359314119
 30
0.0
  0
ENDBLK
  5
26A
330
25D
100
AcDbEntity
  8
0
100
AcDbBlockEnd
  0
BLOCK
  5
275
330
26B
100
AcDbEntity
  8
0
100
AcDbBlockBegin
  2
*D4
 70
     1
 10
0.0
 20
0.0
 30
0.0
  3
*D4
  1

  0
LINE
  5
26C
330
26B
100
AcDbEntity
  8
SUNPO
 62
     0
370
    -2
100
AcDbLine
 10
-35.59122662621258
 20
32.98259359314119
 30
0.0
 11
-35.59122662621258
 21
40.98259359314119
 31
0.0
  0
LINE
  5
26D
330
26B
100
AcDbEntity
  8
SUNPO
 62
     0
370
    -2
100
AcDbLine
 10
1.608773373787414
 20
32.98259359314119
 30
0.0
 11
1.608773373787415
 21
40.98259359314119
 31
0.0
  0
LINE
  5
26E
330
26B
100
AcDbEntity
  8
SUNPO
 62
     0
370
    -2
100
AcDbLine
 10
-33.59122662621258
 20
38.98259359314119
 30
0.0
 11
-0.391226626212585
 21
38.98259359314119
 31
0.0
  0
INSERT
  5
26F
330
26B
100
AcDbEntity
  8
SUNPO
 62
     0
370
    -2
100
AcDbBlockReference
  2
_OPEN30
 10
-35.59122662621258
 20
38.98259359314119
 30
0.0
 41
2.0
 42
2.0
 43
2.0
 50
180.0
  0
INSERT
  5
270
330
26B
100
AcDbEntity
  8
SUNPO
 62
     0
370
    -2
100
AcDbBlockReference
  2
_OPEN30
 10
1.608773373787415
 20
38.98259359314119
 30
0.0
 41
2.0
 42
2.0
 43
2.0
  0
MTEXT
  5
271
330
26B
100
AcDbEntity
  8
SUNPO
 62
     0
100
AcDbMText
 10
-16.99122662621258
 20
40.73259359314119
 30
0.0
 40
2.5
 41
0.0
 71
     5
 72
     1
  1
\A1;φ186
 73
     1
 44
1.0
1001
ACAD
1000
MTEXTBEGIN
1070
    73
1070
     1
1070
    44
1040
1.0
1070
    74
1070
     0
1000
MTEXTEND
  0
POINT
  5
272
330
26B
100
AcDbEntity
  8
DEFPOINTS
 62
     0
100
AcDbPoint
 10
-35.59122662621258
 20
30.98259359314119
 30
0.0
  0
POINT
  5
273
330
26B
100
AcDbEntity
  8
DEFPOINTS
 62
     0
100
AcDbPoint
 10
1.608773373787414
 20
30.98259359314119
 30
0.0
  0
POINT
  5
274
330
26B
100
AcDbEntity
  8
DEFPOINTS
 62
     0
100
AcDbPoint
 10
1.608773373787415
 20
38.98259359314119
 30
0.0
  0
ENDBLK
  5
276
330
26B
100
AcDbEntity
  8
0
100
AcDbBlockEnd
  0
ENDSEC
  0
SECTION
  2
ENTITIES
  0
TEXT
  5
31
330
2
100
AcDbEntity
  8
TOUROKU
100
AcDbText
 10
46.0406224774094
 20
48.65904251660265
 30
0.0
 40
2.0
  1
ＷＶＱ１６８
 72
     2
 11
59.6406224774094
 21
48.65904251660265
 31
0.0
100
AcDbText
  0
TEXT
  5
33
330
2
100
AcDbEntity
  8
MOJI1
100
AcDbText
 10
-22.65374632499959
 20
-33.34095748339701
 30
0.0
 40
3.0
  1
本体  ：表面処理鋼板
100
AcDbText
  0
TEXT
  5
35
330
2
100
AcDbEntity
  8
MOJI1
100
AcDbText
 10
-62.65374632499981
 20
-33.34095748339723
 30
0.0
 40
3.0
  1
仕上げ
100
AcDbText
  0
LINE
  5
36
330
2
100
AcDbEntity
  8
WAKU
 62
     4
100
AcDbLine
 10
59.64067244448177
 20
-54.34095748339723
 30
0.0
 11
59.64067244448177
 21
-19.34095748339746
 31
0.0
  0
TEXT
  5
38
330
2
100
AcDbEntity
  8
MOJI1
100
AcDbText
 10
-22.72313194802712
 20
-23.28467157778141
 30
0.0
 40
3.0
  1
φ１８６ｍｍ　埋込深さ６０ｍｍ
100
AcDbText
  0
TEXT
  5
39
330
2
100
AcDbEntity
  8
MOJI1
100
AcDbText
 10
-22.72313194802712
 20
-43.27783409143876
 30
0.0
 40
3.0
  1
カメラＷＶ－ＣＦ１５、ＷＶ－ＣＦ２８４専用
 41
0.9399999999999998
100
AcDbText
  0
LINE
  5
3A
330
2
100
AcDbEntity
  8
WAKU
 62
     4
100
AcDbLine
 10
-25.15374632499982
 20
-54.34095748339723
 30
0.0
 11
-25.15374632499982
 21
-19.34095748339746
 31
0.0
  0
TEXT
  5
3B
330
2
100
AcDbEntity
  8
MOJI1
100
AcDbText
 10
-22.65374632499959
 20
-38.34095748339701
 30
0.0
 40
3.0
  1
カバー：ＡＢＳ樹脂シルバーメタリック色塗装
100
AcDbText
  0
TEXT
  5
3C
330
2
100
AcDbEntity
  8
MOJI1
100
AcDbText
 10
-22.65374632499982
 20
-28.18510508851478
 30
0.0
 40
3.0
  1
約２８０ｇ
100
AcDbText
  0
TEXT
  5
3D
330
2
100
AcDbEntity
  8
MOJI1
100
AcDbText
 10
-62.65374632499981
 20
-23.21583853228185
 30
0.0
 40
3.0
  1
寸　法
100
AcDbText
  0
TEXT
  5
3E
330
2
100
AcDbEntity
  8
MOJI1
100
AcDbText
 10
-62.65374632499981
 20
-28.21241978911053
 30
0.0
 40
3.0
  1
質　量
100
AcDbText
  0
TEXT
  5
3F
330
2
100
AcDbEntity
  8
MOJI1
100
AcDbText
 10
-62.65374632499981
 20
-43.2090010459392
 30
0.0
 40
3.0
  1
その他
100
AcDbText
  0
LINE
  5
40
330
2
100
AcDbEntity
  8
WAKU
 62
     4
100
AcDbLine
 10
-65.35932755551823
 20
-19.34095748339746
 30
0.0
 11
-65.35932755551823
 21
-54.34095748339723
 31
0.0
  0
LINE
  5
41
330
2
100
AcDbEntity
  8
WAKU
 62
     1
100
AcDbLine
 10
59.64067244448177
 20
-49.34095748339746
 30
0.0
 11
-65.35932755551823
 21
-49.34095748339746
 31
0.0
  0
LINE
  5
42
330
2
100
AcDbEntity
  8
WAKU
 62
     4
100
AcDbLine
 10
-65.35932755551823
 20
-54.34095748339723
 30
0.0
 11
59.64067244448177
 21
-54.34095748339723
 31
0.0
  0
LINE
  5
43
330
2
100
AcDbEntity
  8
WAKU
 62
     1
100
AcDbLine
 10
59.64067244448177
 20
-44.34095748339745
 30
0.0
 11
-65.35932755551823
 21
-44.34095748339745
 31
0.0
  0
LINE
  5
44
330
2
100
AcDbEntity
  8
WAKU
 62
     1
100
AcDbLine
 10
59.64067244448177
 20
-39.34095748339746
 30
0.0
 11
-65.35932755551823
 21
-39.34095748339746
 31
0.0
  0
LINE
  5
45
330
2
100
AcDbEntity
  8
WAKU
 62
     1
100
AcDbLine
 10
59.64067244448177
 20
-34.34095748339746
 30
0.0
 11
-65.35932755551823
 21
-34.34095748339746
 31
0.0
  0
LINE
  5
46
330
2
100
AcDbEntity
  8
WAKU
 62
     1
100
AcDbLine
 10
59.64067244448177
 20
-29.34095748339746
 30
0.0
 11
-65.35932755551823
 21
-29.34095748339746
 31
0.0
  0
LINE
  5
47
330
2
100
AcDbEntity
  8
WAKU
 62
     1
100
AcDbLine
 10
59.64067244448177
 20
-24.34095748339746
 30
0.0
 11
-65.35932755551823
 21
-24.34095748339746
 31
0.0
  0
LINE
  5
48
330
2
100
AcDbEntity
  8
WAKU
 62
     4
100
AcDbLine
 10
59.64067244448177
 20
-19.34095748339746
 30
0.0
 11
-65.35932755551823
 21
-19.34095748339746
 31
0.0
  0
TEXT
  5
49
330
2
100
AcDbEntity
  8
MOJI1
100
AcDbText
 10
-38.35932755551823
 20
54.65904251660276
 30
0.0
 40
4.0
  1
カメラ天井埋込金具
100
AcDbText
  0
SPLINE
  5
4A
330
2
100
AcDbEntity
  8
GAIKEI
 62
     7
100
AcDbSpline
210
0.0
220
0.0
230
1.0
 70
    24
 71
     3
 72
     8
 73
     4
 74
     0
 42
0.0000000001
 43
0.0000000001
 40
7.0
 40
7.0
 40
7.0
 40
7.0
 40
8.0
 40
8.0
 40
8.0
 40
8.0
 10
26.41019888316114
 20
-6.380921174762761
 30
0.0
 10
26.41019888316114
 20
-6.380921174762761
 30
0.0
 10
26.41019888316114
 20
30.81916623967101
 30
0.0
 10
26.41019888316114
 20
30.81916623967101
 30
0.0
  0
SPLINE
  5
4C
330
2
100
AcDbEntity
  8
GAIKEI
 62
     7
100
AcDbSpline
210
0.0
220
0.0
230
1.0
 70
    24
 71
     3
 72
     8
 73
     4
 74
     0
 42
0.0000000001
 43
0.0000000001
 40
6.0
 40
6.0
 40
6.0
 40
6.0
 40
7.0
 40
7.0
 40
7.0
 40
7.0
 10
26.0410102927203
 20
-6.361618793131526
 30
0.0
 10
26.0410102927203
 20
-6.361618793131526
 30
0.0
 10
26.41019888316114
 20
-6.380921174762761
 30
0.0
 10
26.41019888316114
 20
-6.380921174762761
 30
0.0
  0
SPLINE
  5
4D
330
2
100
AcDbEntity
  8
GAIKEI
 62
     7
100
AcDbSpline
210
0.0
220
0.0
230
1.0
 70
     8
 71
     3
 72
     8
 73
     4
 74
     0
 42
0.0000000001
 43
0.0000000001
 40
5.0
 40
5.0
 40
5.0
 40
5.0
 40
6.0
 40
6.0
 40
6.0
 40
6.0
 10
25.65223335366196
 20
-6.015886261381808
 30
0.0
 10
25.67788841785543
 20
-6.206466738247343
 30
0.0
 10
25.83572814613129
 20
-6.351601101398841
 30
0.0
 10
26.0410102927203
 20
-6.361618793131526
 30
0.0
  0
SPLINE
  5
4E
330
2
100
AcDbEntity
  8
GAIKEI
 62
     1
100
AcDbSpline
210
0.0
220
0.0
230
1.0
 70
    24
 71
     3
 72
     8
 73
     4
 74
     0
 42
0.0000000001
 43
0.0000000001
 40
4.0
 40
4.0
 40
4.0
 40
4.0
 40
5.0
 40
5.0
 40
5.0
 40
5.0
 10
24.90628182049457
 20
0.8518522562299608
 30
0.0
 10
24.90628182049457
 20
0.8518522562299608
 30
0.0
 10
25.65223335366196
 20
-6.015886261381808
 30
0.0
 10
25.65223335366196
 20
-6.015886261381808
 30
0.0
  0
SPLINE
  5
4F
330
2
100
AcDbEntity
  8
GAIKEI
 62
     1
100
AcDbSpline
210
0.0
220
0.0
230
1.0
 70
    24
 71
     3
 72
     8
 73
     4
 74
     0
 42
0.0000000001
 43
0.0000000001
 40
3.0
 40
3.0
 40
3.0
 40
3.0
 40
4.0
 40
4.0
 40
4.0
 40
4.0
 10
24.90628182049457
 20
23.61742321965511
 30
0.0
 10
24.90628182049457
 20
23.61742321965511
 30
0.0
 10
24.90628182049457
 20
0.8518522562299608
 30
0.0
 10
24.90628182049457
 20
0.8518522562299608
 30
0.0
  0
SPLINE
  5
50
330
2
100
AcDbEntity
  8
GAIKEI
 62
     7
100
AcDbSpline
210
0.0
220
0.0
230
1.0
 70
    24
 71
     3
 72
     8
 73
     4
 74
     0
 42
0.0000000001
 43
0.0000000001
 40
2.0
 40
2.0
 40
2.0
 40
2.0
 40
3.0
 40
3.0
 40
3.0
 40
3.0
 10
25.65223335366196
 20
30.45388699234536
 30
0.0
 10
25.65223335366196
 20
30.45388699234536
 30
0.0
 10
24.90628182049457
 20
23.61742321965511
 30
0.0
 10
24.90628182049457
 20
23.61742321965511
 30
0.0
  0
SPLINE
  5
51
330
2
100
AcDbEntity
  8
GAIKEI
 62
     7
100
AcDbSpline
210
0.0
220
0.0
230
1.0
 70
     8
 71
     3
 72
     8
 73
     4
 74
     0
 42
0.0000000001
 43
0.0000000001
 40
1.0
 40
1.0
 40
1.0
 40
1.0
 40
2.0
 40
2.0
 40
2.0
 40
2.0
 10
26.0410102927203
 20
30.79986385803977
 30
0.0
 10
25.83572814613129
 20
30.78960183236239
 30
0.0
 10
25.67788841785543
 20
30.64446746921095
 30
0.0
 10
25.65223335366196
 20
30.45388699234536
 30
0.0
  0
SPLINE
  5
52
330
2
100
AcDbEntity
  8
GAIKEI
 62
     7
100
AcDbSpline
210
0.0
220
0.0
230
1.0
 70
    24
 71
     3
 72
     8
 73
     4
 74
     0
 42
0.0000000001
 43
0.0000000001
 40
0.0
 40
0.0
 40
0.0
 40
0.0
 40
1.0
 40
1.0
 40
1.0
 40
1.0
 10
26.41019888316114
 20
30.81916623967101
 30
0.0
 10
26.41019888316114
 20
30.81916623967101
 30
0.0
 10
26.0410102927203
 20
30.79986385803977
 30
0.0
 10
26.0410102927203
 20
30.79986385803977
 30
0.0
  0
LINE
  5
53
330
2
100
AcDbEntity
  8
GAIKEI
 62
     7
100
AcDbLine
 10
25.71307250589214
 20
-6.151980268579393
 30
0.0
 11
25.71307250589214
 21
30.60366370044614
 31
0.0
  0
CIRCLE
  5
54
330
2
100
AcDbEntity
  8
GAIKEI
100
AcDbCircle
 10
-16.99122662621258
 20
12.22119937098404
 30
0.0
 40
18.59998262373072
  0
CIRCLE
  5
55
330
2
100
AcDbEntity
  8
GAIKEI
100
AcDbCircle
 10
-16.99122662621258
 20
12.22119937098404
 30
0.0
 40
11.01145705507215
  0
CIRCLE
  5
56
330
2
100
AcDbEntity
  8
GAIKEI
100
AcDbCircle
 10
-16.99122662621258
 20
12.22119937098404
 30
0.0
 40
8.210276557301053
  0
LINE
  5
57
330
2
100
AcDbEntity
  8
GAIKEI
 62
     1
100
AcDbLine
 10
-22.83942067607975
 20
13.22101387269407
 30
0.0
 11
-17.01449943444524
 21
13.22101387269407
 31
0.0
  0
ARC
  5
58
330
2
100
AcDbEntity
  8
GAIKEI
 62
     1
100
AcDbCircle
 10
-22.8402180098814
 20
14.62051246306737
 30
0.0
 40
1.399498817505018
100
AcDbArc
 50
190.100104707942
 51
270.0326430173397
  0
ARC
  5
59
330
2
100
AcDbEntity
  8
GAIKEI
 62
     1
100
AcDbCircle
 10
-22.84770844961733
 20
14.62120990500455
 30
0.0
 40
1.392248204373755
100
AcDbArc
 50
157.4918118045782
 51
190.182420675516
  0
ARC
  5
5A
330
2
100
AcDbEntity
  8
GAIKEI
 62
     1
100
AcDbCircle
 10
-17.01450784053551
 20
12.22181345719144
 30
0.0
 40
7.699647345322862
100
AcDbArc
 50
118.562821518595
 51
157.6139792110896
  0
ARC
  5
5B
330
2
100
AcDbEntity
  8
GAIKEI
 62
     1
100
AcDbCircle
 10
-21.51960548079475
 20
20.40732411114351
 30
0.0
 40
1.644184839453464
100
AcDbArc
 50
300.0657747500258
 51
340.0969451442397
  0
LINE
  5
5C
330
2
100
AcDbEntity
  8
GAIKEI
 62
     1
100
AcDbLine
 10
-17.01449943444524
 20
13.22101387269407
 30
0.0
 11
-13.53029738303124
 21
14.48935137962888
 31
0.0
  0
LINE
  5
5D
330
2
100
AcDbEntity
  8
GAIKEI
 62
     1
100
AcDbLine
 10
-13.98769052750859
 20
19.83928743276777
 30
0.0
 11
-12.69357578940801
 21
16.28373986950157
 31
0.0
  0
ARC
  5
5E
330
2
100
AcDbEntity
  8
GAIKEI
 62
     1
100
AcDbCircle
 10
-14.00889578516879
 20
15.80479681966346
 30
0.0
 40
1.39980467788769
100
AcDbArc
 50
289.9929004254413
 51
20.00791267874312
  0
LINE
  5
5F
330
2
100
AcDbEntity
  8
GAIKEI
 62
     1
100
AcDbLine
 10
-24.32985773874631
 20
8.549837517930313
 30
0.0
 11
-24.04630819592259
 21
8.652946442593474
 31
0.0
  0
LINE
  5
60
330
2
100
AcDbEntity
  8
GAIKEI
 62
     1
100
AcDbLine
 10
-24.04630819592259
 20
8.652946442593474
 30
0.0
 11
-23.28019911231755
 21
8.010348168033942
 31
0.0
  0
LINE
  5
61
330
2
100
AcDbEntity
  8
GAIKEI
 62
     1
100
AcDbLine
 10
-23.28019911231755
 20
8.010348168033942
 30
0.0
 11
-23.12614656018454
 21
8.194087294447911
 31
0.0
  0
LINE
  5
62
330
2
100
AcDbEntity
  8
GAIKEI
 62
     1
100
AcDbLine
 10
-23.12614656018454
 20
8.194087294447911
 30
0.0
 11
-23.89225564378964
 21
8.83644123506275
 31
0.0
  0
LINE
  5
63
330
2
100
AcDbEntity
  8
GAIKEI
 62
     1
100
AcDbLine
 10
-24.434188333133
 20
8.76729472871284
 30
0.0
 11
-24.12840440134161
 21
8.878222339606338
 31
0.0
  0
ARC
  5
64
330
2
100
AcDbEntity
  8
GAIKEI
 62
     1
100
AcDbCircle
 10
-24.04630623012801
 20
8.653992579094278
 30
0.0
 40
0.2387867149066686
100
AcDbArc
 50
49.82391333490141
 51
110.1094033843227
  0
ARC
  5
65
330
2
100
AcDbEntity
  8
GAIKEI
 62
     1
100
AcDbCircle
 10
-23.53054264445527
 20
7.819146344989178
 30
0.0
 40
1.200479573230619
100
AcDbArc
 50
292.3721617012322
 51
22.35258164548642
  0
ARC
  5
66
330
2
100
AcDbEntity
  8
GAIKEI
 62
     1
100
AcDbCircle
 10
-23.53003472539379
 20
7.819333520507655
 30
0.0
 40
1.199938635018081
100
AcDbArc
 50
22.35353914739359
 51
110.0037444058476
  0
LINE
  5
67
330
2
100
AcDbEntity
  8
GAIKEI
 62
     1
100
AcDbLine
 10
-23.94051159786775
 20
8.946880178066919
 30
0.0
 11
-24.434188333133
 21
8.76729472871284
 31
0.0
  0
LINE
  5
68
330
2
100
AcDbEntity
  8
GAIKEI
 62
     1
100
AcDbLine
 10
-24.91125036015862
 20
10.08352168880873
 30
0.0
 11
-24.434188333133
 21
8.76729472871284
 31
0.0
  0
LINE
  5
69
330
2
100
AcDbEntity
  8
GAIKEI
 62
     1
100
AcDbLine
 10
-9.558404777997253
 20
15.67143900408479
 30
0.0
 11
-9.077555574828721
 21
14.35667804765711
 31
0.0
  0
LINE
  5
6A
330
2
100
AcDbEntity
  8
GAIKEI
 62
     1
100
AcDbLine
 10
-24.97287629494051
 20
10.31652207533631
 30
0.0
 11
-24.6893873938923
 21
10.41979761243607
 31
0.0
  0
LINE
  5
6B
330
2
100
AcDbEntity
  8
GAIKEI
 62
     1
100
AcDbLine
 10
-24.6893873938923
 20
10.41979761243607
 30
0.0
 11
-24.51556599229585
 21
11.40450152265282
 31
0.0
  0
LINE
  5
6C
330
2
100
AcDbEntity
  8
GAIKEI
 62
     1
100
AcDbLine
 10
-24.51556599229585
 20
11.40450152265282
 30
0.0
 11
-24.27944974184473
 21
11.36277177706347
 31
0.0
  0
LINE
  5
6D
330
2
100
AcDbEntity
  8
GAIKEI
 62
     1
100
AcDbLine
 10
-24.27944974184473
 20
11.36277177706347
 30
0.0
 11
-24.45342819789252
 21
10.37825503782699
 31
0.0
  0
LINE
  5
6E
330
2
100
AcDbEntity
  8
GAIKEI
 62
     1
100
AcDbLine
 10
-24.91301984182664
 20
10.0828776521908
 30
0.0
 11
-24.60747263913268
 21
10.19445567299334
 31
0.0
  0
ARC
  5
6F
330
2
100
AcDbEntity
  8
GAIKEI
 62
     1
100
AcDbCircle
 10
-24.68871344605404
 20
10.41899748759959
 30
0.0
 40
0.2387867149066686
100
AcDbArc
 50
289.8904800014368
 51
350.1759700508582
  0
ARC
  5
70
330
2
100
AcDbEntity
  8
GAIKEI
 62
     1
100
AcDbCircle
 10
-24.83024245617011
 20
11.39005353654892
 30
0.0
 40
1.200479573230619
100
AcDbArc
 50
17.64730174027315
 51
107.6277216845273
  0
ARC
  5
71
330
2
100
AcDbEntity
  8
GAIKEI
 62
     1
100
AcDbCircle
 10
-24.8297330531187
 20
11.39023663482578
 30
0.0
 40
1.199938635018081
100
AcDbArc
 50
289.9961389799119
 51
17.64634423836598
  0
LINE
  5
72
330
2
100
AcDbEntity
  8
GAIKEI
 62
     1
100
AcDbLine
 10
-24.41940585449217
 20
10.26263550061367
 30
0.0
 11
-24.91301984182664
 21
10.0828776521908
 31
0.0
  0
LINE
  5
73
330
2
100
AcDbEntity
  8
GAIKEI
 62
     1
100
AcDbLine
 10
-9.017827101745496
 20
14.12296089597089
 30
0.0
 11
-9.301315792596113
 21
14.0196847818857
 31
0.0
  0
LINE
  5
74
330
2
100
AcDbEntity
  8
GAIKEI
 62
     1
100
AcDbLine
 10
-9.301315792596113
 20
14.0196847818857
 30
0.0
 11
-9.475135190021916
 21
13.03498051789188
 31
0.0
  0
LINE
  5
75
330
2
100
AcDbEntity
  8
GAIKEI
 62
     1
100
AcDbLine
 10
-9.475135190021916
 20
13.03498051789188
 30
0.0
 11
-9.711251525405231
 21
13.07670978291315
 31
0.0
  0
LINE
  5
76
330
2
100
AcDbEntity
  8
GAIKEI
 62
     1
100
AcDbLine
 10
-9.711251525405231
 20
13.07670978291315
 30
0.0
 11
-9.537275073147128
 21
14.06122687624639
 31
0.0
  0
LINE
  5
77
330
2
100
AcDbEntity
  8
GAIKEI
 62
     1
100
AcDbLine
 10
-9.077684030396284
 20
14.35660519728998
 30
0.0
 11
-9.383231005994588
 21
14.24502655460668
 31
0.0
  0
ARC
  5
78
330
2
100
AcDbEntity
  8
GAIKEI
 62
     1
100
AcDbCircle
 10
-9.301989742062886
 20
14.02048490535048
 30
0.0
 40
0.2387867149066686
100
AcDbArc
 50
109.8905966156779
 51
170.1760866650993
  0
ARC
  5
79
330
2
100
AcDbEntity
  8
GAIKEI
 62
     1
100
AcDbCircle
 10
-9.160458755554344
 20
13.04942914445752
 30
0.0
 40
1.200479573230619
100
AcDbArc
 50
197.6474183545143
 51
287.6278382987685
  0
ARC
  5
7A
330
2
100
AcDbEntity
  8
GAIKEI
 62
     1
100
AcDbCircle
 10
-9.160968158233089
 20
13.04924604514389
 30
0.0
 40
1.199938635018081
100
AcDbArc
 50
109.9962555941531
 51
197.6464608526071
  0
LINE
  5
7B
330
2
100
AcDbEntity
  8
GAIKEI
 62
     1
100
AcDbLine
 10
-9.571297651868093
 20
14.17684634421368
 30
0.0
 11
-9.077684030396284
 21
14.35660519728998
 31
0.0
  0
LINE
  5
7C
330
2
100
AcDbEntity
  8
GAIKEI
 62
     1
100
AcDbLine
 10
-9.660849253675706
 20
15.88964414463601
 30
0.0
 11
-9.944398586640971
 21
15.78653464286395
 31
0.0
  0
LINE
  5
7D
330
2
100
AcDbEntity
  8
GAIKEI
 62
     1
100
AcDbLine
 10
-9.944398586640971
 20
15.78653464286395
 30
0.0
 11
-10.71050897812634
 21
16.42913135815848
 31
0.0
  0
LINE
  5
7E
330
2
100
AcDbEntity
  8
GAIKEI
 62
     1
100
AcDbLine
 10
-10.71050897812634
 20
16.42913135815848
 30
0.0
 11
-10.86456115629428
 21
16.24539191820133
 31
0.0
  0
LINE
  5
7F
330
2
100
AcDbEntity
  8
GAIKEI
 62
     1
100
AcDbLine
 10
-10.86456115629428
 20
16.24539191820133
 30
0.0
 11
-10.09845076530629
 21
15.60303953685155
 31
0.0
  0
LINE
  5
80
330
2
100
AcDbEntity
  8
GAIKEI
 62
     1
100
AcDbLine
 10
-9.556518216698094
 20
15.67218714619827
 30
0.0
 11
-9.862301922717534
 21
15.56125891294215
 31
0.0
  0
ARC
  5
81
330
2
100
AcDbEntity
  8
GAIKEI
 62
     1
100
AcDbCircle
 10
-9.944400550306369
 20
15.78548850635917
 30
0.0
 40
0.2387867149066686
100
AcDbArc
 50
229.8240299491426
 51
290.1095199985639
  0
ARC
  5
82
330
2
100
AcDbEntity
  8
GAIKEI
 62
     1
100
AcDbCircle
 10
-10.46016583514264
 20
16.6203336907277
 30
0.0
 40
1.200479573230619
100
AcDbArc
 50
112.3722783154733
 51
202.3526982597276
  0
ARC
  5
83
330
2
100
AcDbEntity
  8
GAIKEI
 62
     1
100
AcDbCircle
 10
-10.46067375382321
 20
16.62014651417542
 30
0.0
 40
1.199938635018081
100
AcDbArc
 50
202.3536557616347
 51
290.0038610200888
  0
LINE
  5
84
330
2
100
AcDbEntity
  8
GAIKEI
 62
     1
100
AcDbLine
 10
-10.05019458645157
 20
15.49260069206309
 30
0.0
 11
-9.556518216698094
 21
15.67218714619827
 31
0.0
  0
LINE
  5
85
330
2
100
AcDbEntity
  8
GAIKEI
 62
     7
100
AcDbLine
 10
26.41019888316114
 20
30.81916623967095
 30
0.0
 11
26.41019888316114
 21
-6.380921174762818
 31
0.0
  0
LINE
  5
86
330
2
100
AcDbEntity
  8
GAIKEI
 62
     7
100
AcDbLine
 10
24.90628182049457
 20
23.61742321965511
 30
0.0
 11
24.90628182049457
 21
0.851852256229904
 31
0.0
  0
LINE
  5
87
330
2
100
AcDbEntity
  8
GAIKEI
 62
     1
100
AcDbLine
 10
25.71307250589214
 20
-6.151980268579393
 30
0.0
 11
25.71307250589214
 21
30.60366370044614
 31
0.0
  0
LINE
  5
88
330
2
100
AcDbEntity
  8
GAIKEI
 62
     7
100
AcDbLine
 10
24.90628182049457
 20
0.851852256229904
 30
0.0
 11
25.65223335366196
 21
-6.015886261381865
 31
0.0
  0
LINE
  5
89
330
2
100
AcDbEntity
  8
GAIKEI
 62
     7
100
AcDbLine
 10
26.41019888316114
 20
-6.380921174762818
 30
0.0
 11
26.0410102927203
 21
-6.361618793131526
 31
0.0
  0
ARC
  5
8A
330
2
100
AcDbEntity
  8
GAIKEI
 62
     7
100
AcDbCircle
 10
26.05073527310239
 20
-5.959226535370589
 30
0.0
 40
0.4025097568374907
100
AcDbArc
 50
188.0921791821639
 51
268.615550189313
  0
LINE
  5
8B
330
2
100
AcDbEntity
  8
GAIKEI
 62
     7
100
AcDbLine
 10
24.90628182049457
 20
23.61742321965511
 30
0.0
 11
25.65223335366196
 21
30.45388699234531
 31
0.0
  0
LINE
  5
8C
330
2
100
AcDbEntity
  8
GAIKEI
 62
     7
100
AcDbLine
 10
26.41019888316114
 20
30.81916623967095
 30
0.0
 11
26.0410102927203
 21
30.79986385803972
 31
0.0
  0
ARC
  5
8D
330
2
100
AcDbEntity
  8
GAIKEI
 62
     7
100
AcDbCircle
 10
26.0511517626604
 20
30.3970435153247
 30
0.0
 40
0.4029479841339656
100
AcDbArc
 50
91.44218313671034
 51
171.8902894909794
  0
LINE
  5
8E
330
2
100
AcDbEntity
  8
GAIKEI
 62
     1
100
AcDbLine
 10
27.51019888316128
 20
25.74336717974626
 30
0.0
 11
34.89212848380609
 21
25.74336717974626
 31
0.0
  0
LINE
  5
8F
330
2
100
AcDbEntity
  8
GAIKEI
 62
     1
100
AcDbLine
 10
34.85358294383443
 20
22.14375656548629
 30
0.0
 11
34.85358294383443
 21
25.74336717974626
 31
0.0
  0
LINE
  5
90
330
2
100
AcDbEntity
  8
GAIKEI
 62
     1
100
AcDbLine
 10
26.41019888316114
 20
25.94509647540628
 30
0.0
 11
27.81019888316123
 21
25.94509647540628
 31
0.0
  0
LINE
  5
91
330
2
100
AcDbEntity
  8
GAIKEI
 62
     1
100
AcDbLine
 10
27.81019888316123
 20
25.94509647540628
 30
0.0
 11
27.81019888316123
 21
25.74336717974626
 31
0.0
  0
LINE
  5
92
330
2
100
AcDbEntity
  8
GAIKEI
 62
     1
100
AcDbLine
 10
26.41019888316114
 20
25.79082744908618
 30
0.0
 11
27.81019888316123
 21
25.79082744908618
 31
0.0
  0
LINE
  5
93
330
2
100
AcDbEntity
  8
GAIKEI
 62
     1
100
AcDbLine
 10
27.51019888316128
 20
25.74336717974626
 30
0.0
 11
26.7101988831611
 21
25.48625213586621
 31
0.0
  0
LINE
  5
94
330
2
100
AcDbEntity
  8
GAIKEI
 62
     1
100
AcDbLine
 10
26.7101988831611
 20
25.48625213586621
 30
0.0
 11
26.41019888316114
 21
25.48625213586621
 31
0.0
  0
LINE
  5
95
330
2
100
AcDbEntity
  8
GAIKEI
 62
     1
100
AcDbLine
 10
26.41019888316114
 20
24.45779196036625
 30
0.0
 11
26.61019888316119
 21
24.45779196036625
 31
0.0
  0
LINE
  5
96
330
2
100
AcDbEntity
  8
GAIKEI
 62
     1
100
AcDbLine
 10
26.61019888316119
 20
24.45779196036625
 30
0.0
 11
26.97184816464111
 21
24.22532828318623
 31
0.0
  0
LINE
  5
97
330
2
100
AcDbEntity
  8
GAIKEI
 62
     1
100
AcDbLine
 10
26.41019888316114
 20
24.2739412940262
 30
0.0
 11
26.61019888316119
 21
24.2739412940262
 31
0.0
  0
LINE
  5
98
330
2
100
AcDbEntity
  8
GAIKEI
 62
     1
100
AcDbLine
 10
26.61019888316119
 20
24.2739412940262
 30
0.0
 11
26.68582730242102
 21
24.22532828318623
 31
0.0
  0
LINE
  5
99
330
2
100
AcDbEntity
  8
GAIKEI
 62
     1
100
AcDbLine
 10
26.61019888316119
 20
24.2739412940262
 30
0.0
 11
26.61019888316119
 21
24.45779196036625
 31
0.0
  0
LINE
  5
9A
330
2
100
AcDbEntity
  8
GAIKEI
 62
     1
100
AcDbLine
 10
26.41019888316114
 20
24.22532828318623
 30
0.0
 11
27.81019888316123
 21
24.22532828318623
 31
0.0
  0
LINE
  5
9B
330
2
100
AcDbEntity
  8
GAIKEI
 62
     1
100
AcDbLine
 10
27.81019888316123
 20
24.22532828318623
 30
0.0
 11
27.81019888316123
 21
24.09677076124621
 31
0.0
  0
LINE
  5
9C
330
2
100
AcDbEntity
  8
GAIKEI
 62
     1
100
AcDbLine
 10
27.81019888316123
 20
24.09677076124621
 30
0.0
 11
26.41019888316114
 21
24.09677076124621
 31
0.0
  0
LINE
  5
9D
330
2
100
AcDbEntity
  8
GAIKEI
 62
     1
100
AcDbLine
 10
27.81019888316123
 20
24.09677076124621
 30
0.0
 11
28.17801880940115
 21
23.81500435068625
 31
0.0
  0
LINE
  5
9E
330
2
100
AcDbEntity
  8
GAIKEI
 62
     1
100
AcDbLine
 10
27.81019888316123
 20
24.22532828318623
 30
0.0
 11
28.2101988831611
 21
23.91891050592613
 31
0.0
  0
LINE
  5
9F
330
2
100
AcDbEntity
  8
GAIKEI
 62
     1
100
AcDbLine
 10
28.2101988831611
 20
23.91891050592613
 30
0.0
 11
28.2101988831611
 21
23.81500435068625
 31
0.0
  0
LINE
  5
A0
330
2
100
AcDbEntity
  8
GAIKEI
 62
     1
100
AcDbLine
 10
28.01019888316128
 20
24.07211939454618
 30
0.0
 11
28.61019888316119
 21
24.07211939454618
 31
0.0
  0
LINE
  5
A1
330
2
100
AcDbEntity
  8
GAIKEI
 62
     1
100
AcDbLine
 10
28.61019888316119
 20
24.07211939454618
 30
0.0
 11
28.61019888316119
 21
23.81500435068625
 31
0.0
  0
LINE
  5
A2
330
2
100
AcDbEntity
  8
GAIKEI
 62
     1
100
AcDbLine
 10
28.61019888316119
 20
23.81500435068625
 30
0.0
 11
27.2101988831611
 21
23.81500435068625
 31
0.0
  0
LINE
  5
A3
330
2
100
AcDbEntity
  8
GAIKEI
 62
     1
100
AcDbLine
 10
27.2101988831611
 20
23.81500435068625
 30
0.0
 11
26.61019888316119
 21
23.42933178486618
 31
0.0
  0
LINE
  5
A4
330
2
100
AcDbEntity
  8
GAIKEI
 62
     1
100
AcDbLine
 10
26.61019888316119
 20
23.42933178486618
 30
0.0
 11
26.41019888316114
 21
23.42933178486618
 31
0.0
  0
LINE
  5
A5
330
2
100
AcDbEntity
  8
GAIKEI
 62
     1
100
AcDbLine
 10
28.2101988831611
 20
23.88826872820624
 30
0.0
 11
28.61019888316119
 21
23.88826872820624
 31
0.0
  0
LINE
  5
A6
330
2
100
AcDbEntity
  8
GAIKEI
 62
     1
100
AcDbLine
 10
28.51019888316128
 20
23.88826872820624
 30
0.0
 11
28.51019888316128
 21
23.81500435068625
 31
0.0
  0
LINE
  5
A7
330
2
100
AcDbEntity
  8
GAIKEI
 62
     1
100
AcDbLine
 10
26.41019888316114
 20
25.7647705085862
 30
0.0
 11
26.2101988831611
 21
25.7647705085862
 31
0.0
  0
LINE
  5
A8
330
2
100
AcDbEntity
  8
GAIKEI
 62
     1
100
AcDbLine
 10
26.2101988831611
 20
26.04060959254622
 30
0.0
 11
26.2101988831611
 21
24.6403717275262
 31
0.0
  0
LINE
  5
A9
330
2
100
AcDbEntity
  8
GAIKEI
 62
     1
100
AcDbLine
 10
26.2101988831611
 20
24.6403717275262
 30
0.0
 11
26.41019888316114
 21
24.6403717275262
 31
0.0
  0
LINE
  5
AA
330
2
100
AcDbEntity
  8
GAIKEI
 62
     1
100
AcDbLine
 10
26.2101988831611
 20
26.04060959254622
 30
0.0
 11
26.41019888316114
 21
26.04060959254622
 31
0.0
  0
LINE
  5
AB
330
2
100
AcDbEntity
  8
GAIKEI
 62
     1
100
AcDbLine
 10
27.51019888316128
 20
22.14375656548629
 30
0.0
 11
34.89280677057647
 21
22.14375656548629
 31
0.0
  0
LINE
  5
AC
330
2
100
AcDbEntity
  8
GAIKEI
 62
     1
100
AcDbLine
 10
27.81019888316123
 20
21.95990589914623
 30
0.0
 11
34.85358294383443
 21
21.95990589914623
 31
0.0
  0
LINE
  5
AD
330
2
100
AcDbEntity
  8
GAIKEI
 62
     1
100
AcDbLine
 10
26.41019888316114
 20
21.53352523678615
 30
0.0
 11
27.81019888316123
 21
21.53352523678615
 31
0.0
  0
LINE
  5
AE
330
2
100
AcDbEntity
  8
GAIKEI
 62
     1
100
AcDbLine
 10
27.81019888316123
 20
21.53352523678615
 30
0.0
 11
27.81019888316123
 21
22.12693807386614
 31
0.0
  0
LINE
  5
AF
330
2
100
AcDbEntity
  8
GAIKEI
 62
     1
100
AcDbLine
 10
27.81019888316123
 20
22.12693807386614
 30
0.0
 11
26.41019888316114
 21
22.12693807386614
 31
0.0
  0
LINE
  5
B0
330
2
100
AcDbEntity
  8
GAIKEI
 62
     1
100
AcDbLine
 10
26.41019888316114
 20
21.97266904754616
 30
0.0
 11
27.81019888316123
 21
21.97266904754616
 31
0.0
  0
LINE
  5
B1
330
2
100
AcDbEntity
  8
GAIKEI
 62
     1
100
AcDbLine
 10
26.41019888316114
 20
21.60496771484628
 30
0.0
 11
27.81019888316123
 21
21.60496771484628
 31
0.0
  0
LINE
  5
B2
330
2
100
AcDbEntity
  8
GAIKEI
 62
     1
100
AcDbLine
 10
26.41019888316114
 20
22.40087160936611
 30
0.0
 11
26.7101988831611
 21
22.40087160936611
 31
0.0
  0
LINE
  5
B3
330
2
100
AcDbEntity
  8
GAIKEI
 62
     1
100
AcDbLine
 10
26.7101988831611
 20
22.40087160936611
 30
0.0
 11
27.51019888316128
 21
22.14375656548629
 31
0.0
  0
LINE
  5
B4
330
2
100
AcDbEntity
  8
GAIKEI
 62
     1
100
AcDbLine
 10
26.41019888316114
 20
22.21702094302628
 30
0.0
 11
26.7101988831611
 21
22.21702094302628
 31
0.0
  0
LINE
  5
B5
330
2
100
AcDbEntity
  8
GAIKEI
 62
     1
100
AcDbLine
 10
26.7101988831611
 20
22.21702094302628
 30
0.0
 11
26.99048701502116
 21
22.12693807386614
 31
0.0
  0
LINE
  5
B6
330
2
100
AcDbEntity
  8
GAIKEI
 62
     1
100
AcDbLine
 10
26.7101988831611
 20
22.21702094302628
 30
0.0
 11
26.7101988831611
 21
22.40087160936611
 31
0.0
  0
LINE
  5
B7
330
2
100
AcDbEntity
  8
GAIKEI
 62
     1
100
AcDbLine
 10
34.85358294383443
 20
21.95990589914623
 30
0.0
 11
34.85358294383443
 21
18.20773743702619
 31
0.0
  0
LINE
  5
B8
330
2
100
AcDbEntity
  8
GAIKEI
 62
     1
100
AcDbLine
 10
35.09358294383444
 20
21.05776100402619
 30
0.0
 11
35.33358294383444
 21
21.05776100402619
 31
0.0
  0
LINE
  5
B9
330
2
100
AcDbEntity
  8
GAIKEI
 62
     1
100
AcDbLine
 10
35.33358294383444
 20
21.05776100402619
 30
0.0
 11
35.33358294383444
 21
20.0577570723662
 31
0.0
  0
LINE
  5
BA
330
2
100
AcDbEntity
  8
GAIKEI
 62
     1
100
AcDbLine
 10
35.33358294383444
 20
20.0577570723662
 30
0.0
 11
35.09358294383444
 21
20.0577570723662
 31
0.0
  0
LINE
  5
BB
330
2
100
AcDbEntity
  8
GAIKEI
 62
     1
100
AcDbLine
 10
35.09361488878946
 20
17.65516029103293
 30
0.0
 11
35.09212848025547
 21
25.54340486642019
 31
0.0
  0
ARC
  5
BC
330
2
100
AcDbEntity
  8
GAIKEI
 62
     1
100
AcDbCircle
 10
34.89212848380609
 20
25.54336717974621
 30
0.0
 40
0.2
100
AcDbArc
 50
0.0107964368775732
 51
90.0
  0
ARC
  5
BD
330
2
100
AcDbEntity
  8
GAIKEI
 62
     1
100
AcDbCircle
 10
34.89280677057647
 20
21.94375656548624
 30
0.0
 40
0.2
100
AcDbArc
 50
0.0107964368773696
 51
90.0
  0
ARC
  5
BE
330
2
100
AcDbEntity
  8
GAIKEI
 62
     1
100
AcDbCircle
 10
26.2101988831611
 20
12.19586821280319
 30
0.0
 40
0.2000000000000192
100
AcDbArc
 50
112.6198649480224
 51
247.3801350519533
  0
LINE
  5
BF
330
2
100
AcDbEntity
  8
GAIKEI
 62
     1
100
AcDbLine
 10
26.133275806238
 20
12.01125282818776
 30
0.0
 11
26.41019888316114
 21
11.89586821280324
 31
0.0
  0
LINE
  5
C0
330
2
100
AcDbEntity
  8
GAIKEI
 62
     1
100
AcDbLine
 10
26.133275806238
 20
12.38048359741862
 30
0.0
 11
26.41019888316114
 21
12.49586821280314
 31
0.0
  0
LINE
  5
C1
330
2
100
AcDbEntity
  8
GAIKEI
 62
     1
100
AcDbLine
 10
32.01019888316128
 20
18.3285411321861
 30
0.0
 11
34.15884603994434
 21
18.32707811731626
 31
0.0
  0
ARC
  5
C2
330
2
100
AcDbEntity
  8
GAIKEI
 62
     1
100
AcDbCircle
 10
34.14738722855597
 20
16.11652944325095
 30
0.0
 40
2.210578373360696
100
AcDbArc
 50
72.81040016753776
 51
89.70299878124576
  0
ARC
  5
C3
330
2
100
AcDbEntity
  8
GAIKEI
 62
     1
100
AcDbCircle
 10
34.65409410535059
 20
17.68579099815753
 30
0.0
 40
0.5620299268561552
100
AcDbArc
 50
43.83477597152555
 51
74.88053993423891
  0
ARC
  5
C4
330
2
100
AcDbEntity
  8
GAIKEI
 62
     1
100
AcDbCircle
 10
34.87574172766787
 20
17.95348689158874
 30
0.0
 40
0.2203316750806875
100
AcDbArc
 50
8.62280928391593
 51
33.483231730143
  0
CIRCLE
  5
C5
330
2
100
AcDbEntity
  8
GAIKEI
 62
     1
100
AcDbCircle
 10
33.13967695201816
 20
13.07991254218598
 30
0.0
 40
0.3800099385189324
  0
ARC
  5
C6
330
2
100
AcDbEntity
  8
GAIKEI
 62
     1
100
AcDbCircle
 10
33.12580061776251
 20
13.16979283803323
 30
0.0
 40
0.9902611491844337
100
AcDbArc
 50
241.5318131857543
 51
323.3270592412558
  0
ARC
  5
C7
330
2
100
AcDbEntity
  8
GAIKEI
 62
     1
100
AcDbCircle
 10
33.18462680654719
 20
13.07491327797027
 30
0.0
 40
0.8873587561671564
100
AcDbArc
 50
325.9730750454203
 51
88.47345840365338
  0
ARC
  5
C8
330
2
100
AcDbEntity
  8
GAIKEI
 62
     1
100
AcDbCircle
 10
33.12601087536339
 20
12.97684936783264
 30
0.0
 40
0.9885358700172977
100
AcDbArc
 50
85.22695039205039
 51
154.8693640354527
  0
ARC
  5
C9
330
2
100
AcDbEntity
  8
GAIKEI
 62
     1
100
AcDbCircle
 10
32.06115669595309
 20
13.50431357373497
 30
0.0
 40
0.2011253666553603
100
AcDbArc
 50
248.3798444654941
 51
327.6401738081135
  0
LINE
  5
CA
330
2
100
AcDbEntity
  8
GAIKEI
 62
     1
100
AcDbLine
 10
32.65377211480407
 20
12.29927216856055
 30
0.0
 11
28.71057973594432
 21
14.43857937858058
 31
0.0
  0
LINE
  5
CB
330
2
100
AcDbEntity
  8
GAIKEI
 62
     1
100
AcDbLine
 10
31.95784290046416
 20
13.32787403432041
 30
0.0
 11
30.17077387101276
 21
14.29741578936898
 31
0.0
  0
LINE
  5
CC
330
2
100
AcDbEntity
  8
GAIKEI
 62
     1
100
AcDbLine
 10
31.78886110080126
 20
19.20253364275623
 30
0.0
 11
30.2101988831611
 21
19.20390563348616
 31
0.0
  0
LINE
  5
CD
330
2
100
AcDbEntity
  8
GAIKEI
 62
     1
100
AcDbLine
 10
30.2101988831611
 20
19.20390563348616
 30
0.0
 11
30.2101988831611
 21
18.97837940450614
 31
0.0
  0
LINE
  5
CE
330
2
100
AcDbEntity
  8
GAIKEI
 62
     1
100
AcDbLine
 10
30.2101988831611
 20
18.97837940450614
 30
0.0
 11
31.77019888316105
 21
18.97837940450614
 31
0.0
  0
LINE
  5
CF
330
2
100
AcDbEntity
  8
GAIKEI
 62
     1
100
AcDbLine
 10
32.01019888316128
 20
18.97837940450614
 30
0.0
 11
32.01019888316128
 21
15.32152474566618
 31
0.0
  0
LINE
  5
D0
330
2
100
AcDbEntity
  8
GAIKEI
 62
     1
100
AcDbLine
 10
32.01019888316128
 20
18.00705308224616
 30
0.0
 11
32.31019888316124
 21
18.00705308224616
 31
0.0
  0
LINE
  5
D1
330
2
100
AcDbEntity
  8
GAIKEI
 62
     1
100
AcDbLine
 10
32.31019888316124
 20
18.00705308224616
 30
0.0
 11
32.31019888316124
 21
16.32705338344618
 31
0.0
  0
LINE
  5
D2
330
2
100
AcDbEntity
  8
GAIKEI
 62
     1
100
AcDbLine
 10
32.31019888316124
 20
16.32705338344618
 30
0.0
 11
32.01019888316128
 21
16.32705308224621
 31
0.0
  0
LINE
  5
D3
330
2
100
AcDbEntity
  8
GAIKEI
 62
     1
100
AcDbLine
 10
32.31019888316124
 20
17.76472555972629
 30
0.0
 11
32.61019888316119
 21
17.76472555972629
 31
0.0
  0
LINE
  5
D4
330
2
100
AcDbEntity
  8
GAIKEI
 62
     1
100
AcDbLine
 10
32.61019888316119
 20
17.76472555972629
 30
0.0
 11
32.61019888316119
 21
15.88534031814612
 31
0.0
  0
LINE
  5
D5
330
2
100
AcDbEntity
  8
GAIKEI
 62
     1
100
AcDbLine
 10
32.61019888316119
 20
15.88534031814612
 30
0.0
 11
32.01019888316128
 21
15.88534031814612
 31
0.0
  0
LINE
  5
D6
330
2
100
AcDbEntity
  8
GAIKEI
 62
     1
100
AcDbLine
 10
31.77019888316105
 20
18.97837940450614
 30
0.0
 11
31.77019888316105
 21
15.97136301798611
 31
0.0
  0
LINE
  5
D7
330
2
100
AcDbEntity
  8
GAIKEI
 62
     1
100
AcDbLine
 10
31.77019888316105
 20
15.97136301798611
 30
0.0
 11
30.2101988831611
 21
15.97136301798611
 31
0.0
  0
LINE
  5
D8
330
2
100
AcDbEntity
  8
GAIKEI
 62
     1
100
AcDbLine
 10
30.2101988831611
 20
15.7458367890062
 30
0.0
 11
31.77019888316105
 21
15.7458367890062
 31
0.0
  0
ARC
  5
D9
330
2
100
AcDbEntity
  8
GAIKEI
 62
     1
100
AcDbCircle
 10
31.77844793427644
 20
18.97114899588501
 30
0.0
 40
0.2316188438896723
100
AcDbArc
 50
6.138636809509288
 51
87.42321628447111
  0
LINE
  5
DA
330
2
100
AcDbEntity
  8
GAIKEI
 62
     1
100
AcDbLine
 10
30.01019888316128
 20
18.86436272164616
 30
0.0
 11
30.41019888316114
 21
18.72755466432619
 31
0.0
  0
LINE
  5
DB
330
2
100
AcDbEntity
  8
GAIKEI
 62
     1
100
AcDbLine
 10
30.41019888316114
 20
18.72755466432619
 30
0.0
 11
31.77019888316105
 21
18.72755466432619
 31
0.0
  0
LINE
  5
DC
330
2
100
AcDbEntity
  8
GAIKEI
 62
     1
100
AcDbLine
 10
30.2101988831611
 20
18.59074660698621
 30
0.0
 11
31.77019888316105
 21
18.59074660698621
 31
0.0
  0
LINE
  5
DD
330
2
100
AcDbEntity
  8
GAIKEI
 62
     1
100
AcDbLine
 10
31.77019888316105
 20
18.39921532672616
 30
0.0
 11
30.2101988831611
 21
18.39921532672616
 31
0.0
  0
LINE
  5
DE
330
2
100
AcDbEntity
  8
GAIKEI
 62
     1
100
AcDbLine
 10
30.18050159284113
 20
18.80611576448615
 30
0.0
 11
30.01019888316128
 21
18.74786880730613
 31
0.0
  0
LINE
  5
DF
330
2
100
AcDbEntity
  8
GAIKEI
 62
     1
100
AcDbLine
 10
30.01019888316128
 20
18.74786880730613
 30
0.0
 11
30.01019888316128
 21
18.46761935538626
 31
0.0
  0
LINE
  5
E0
330
2
100
AcDbEntity
  8
GAIKEI
 62
     1
100
AcDbLine
 10
30.01019888316128
 20
18.52234257832612
 30
0.0
 11
30.2101988831611
 21
18.59074660698621
 31
0.0
  0
LINE
  5
E1
330
2
100
AcDbEntity
  8
GAIKEI
 62
     1
100
AcDbLine
 10
30.2101988831611
 20
18.59074660698621
 30
0.0
 11
30.2101988831611
 21
18.79595869298617
 31
0.0
  0
LINE
  5
E2
330
2
100
AcDbEntity
  8
GAIKEI
 62
     1
100
AcDbLine
 10
31.77019888316105
 20
18.22072910628623
 30
0.0
 11
32.01019888316128
 21
18.22072910628623
 31
0.0
  0
ARC
  5
E3
330
2
100
AcDbEntity
  8
GAIKEI
 62
     1
100
AcDbCircle
 10
30.10360850486942
 20
18.85346882761001
 30
0.0
 40
0.1111004330621357
100
AcDbArc
 50
101.4038549634891
 51
145.80127262022
  0
ARC
  5
E4
330
2
100
AcDbEntity
  8
GAIKEI
 62
     1
100
AcDbCircle
 10
30.20495451050525
 20
18.49614930152671
 30
0.0
 40
0.482258619066672
100
AcDbArc
 50
89.37691866949014
 51
104.8150207345282
  0
LINE
  5
E5
330
2
100
AcDbEntity
  8
GAIKEI
 62
     1
100
AcDbLine
 10
30.01019888316128
 20
19.13550160482617
 30
0.0
 11
30.01019888316128
 21
18.86436272164616
 31
0.0
  0
ARC
  5
E6
330
2
100
AcDbEntity
  8
GAIKEI
 62
     1
100
AcDbCircle
 10
30.20495451023399
 20
18.72167553268474
 30
0.0
 40
0.4822586168918298
100
AcDbArc
 50
89.37691863445376
 51
104.8150207695367
  0
ARC
  5
E7
330
2
100
AcDbEntity
  8
GAIKEI
 62
     1
100
AcDbCircle
 10
30.12406208170015
 20
19.02576851358736
 30
0.0
 40
0.1675912508939323
100
AcDbArc
 50
104.6622229727496
 51
127.4046677186215
  0
ARC
  5
E8
330
2
100
AcDbEntity
  8
GAIKEI
 62
     1
100
AcDbCircle
 10
30.04284295853873
 20
19.13347899358638
 30
0.0
 40
0.0327066753657345
100
AcDbArc
 50
128.9991474533759
 51
176.4545133903629
  0
LINE
  5
E9
330
2
100
AcDbEntity
  8
GAIKEI
 62
     1
100
AcDbLine
 10
33.28739510540677
 20
17.65516029103293
 30
0.0
 11
31.44453712364512
 21
17.65516029103293
 31
0.0
  0
LINE
  5
EA
330
2
100
AcDbEntity
  8
GAIKEI
 62
     1
100
AcDbLine
 10
31.44453712364512
 20
17.65516029103293
 30
0.0
 11
31.44453712364512
 21
16.65516029103293
 31
0.0
  0
LINE
  5
EB
330
2
100
AcDbEntity
  8
GAIKEI
 62
     1
100
AcDbLine
 10
31.44453712364512
 20
16.65516029103293
 30
0.0
 11
33.65136533967294
 21
16.65516029103293
 31
0.0
  0
LINE
  5
EC
330
2
100
AcDbEntity
  8
GAIKEI
 62
     1
100
AcDbLine
 10
32.8493389990231
 20
17.63838635094959
 30
0.0
 11
33.20830075025131
 21
16.65214427794063
 31
0.0
  0
LINE
  5
ED
330
2
100
AcDbEntity
  8
GAIKEI
 62
     1
100
AcDbLine
 10
33.03748114072781
 20
17.7062309816086
 30
0.0
 11
33.42139587637874
 21
16.65143391440875
 31
0.0
  0
LINE
  5
EE
330
2
100
AcDbEntity
  8
GAIKEI
 62
     1
100
AcDbLine
 10
32.91349942996229
 20
17.76361821631491
 30
0.0
 11
32.92122055886878
 21
17.76579506080025
 31
0.0
  0
ARC
  5
EF
330
2
100
AcDbEntity
  8
GAIKEI
 62
     1
100
AcDbCircle
 10
32.93954952022571
 20
17.67122020336415
 30
0.0
 40
0.096
100
AcDbArc
 50
105.7449195248011
 51
199.9999483350915
  0
ARC
  5
F0
330
2
100
AcDbEntity
  8
GAIKEI
 62
     1
100
AcDbCircle
 10
32.94727064913221
 20
17.6733970478495
 30
0.0
 40
0.096
100
AcDbArc
 50
19.99999999995374
 51
105.7449195247977
  0
LINE
  5
F1
330
2
100
AcDbEntity
  8
GAIKEI
 62
     1
100
AcDbLine
 10
33.24990643112804
 20
17.70735817294695
 30
0.0
 11
33.63423143089838
 21
16.65143391434418
 31
0.0
  0
LINE
  5
F2
330
2
100
AcDbEntity
  8
GAIKEI
 62
     1
100
AcDbLine
 10
33.48283922151657
 20
17.65214427743086
 30
0.0
 11
33.8470669853082
 21
16.65143391457883
 31
0.0
  0
LINE
  5
F3
330
2
100
AcDbEntity
  8
GAIKEI
 62
     1
100
AcDbLine
 10
33.67083267216029
 20
17.72039459052104
 30
0.0
 11
34.05990253986468
 21
16.65143391440784
 31
0.0
  0
LINE
  5
F4
330
2
100
AcDbEntity
  8
GAIKEI
 62
     1
100
AcDbLine
 10
33.88364740164096
 20
17.72045180677543
 30
0.0
 11
34.27273809435954
 21
16.65143391440875
 31
0.0
  0
LINE
  5
F5
330
2
100
AcDbEntity
  8
GAIKEI
 62
     1
100
AcDbLine
 10
34.12119315040903
 20
17.65256110598039
 30
0.0
 11
34.48516338466746
 21
16.65256110600154
 31
0.0
  0
LINE
  5
F6
330
2
100
AcDbEntity
  8
GAIKEI
 62
     1
100
AcDbLine
 10
34.30933933542545
 20
17.72039459112426
 30
0.0
 11
34.69840920328787
 21
16.65143391458224
 31
0.0
  0
LINE
  5
F7
330
2
100
AcDbEntity
  8
GAIKEI
 62
     1
100
AcDbLine
 10
34.52185624282746
 20
17.72127006681768
 30
0.0
 11
34.88634313209357
 21
16.71985056886916
 31
0.0
  0
ARC
  5
F8
330
2
100
AcDbEntity
  8
GAIKEI
 62
     1
100
AcDbCircle
 10
33.15969593953199
 20
17.6745242391874
 30
0.0
 40
0.096
100
AcDbArc
 50
19.99999999995374
 51
105.7449195247977
  0
ARC
  5
F9
330
2
100
AcDbEntity
  8
GAIKEI
 62
     1
100
AcDbCircle
 10
33.15197481062526
 20
17.67234739470206
 30
0.0
 40
0.096
100
AcDbArc
 50
105.7449195248011
 51
199.9999483350915
  0
LINE
  5
FA
330
2
100
AcDbEntity
  8
GAIKEI
 62
     1
100
AcDbLine
 10
33.12592472036184
 20
17.76474540765292
 30
0.0
 11
33.13364584926856
 21
17.76692225213838
 31
0.0
  0
ARC
  5
FB
330
2
100
AcDbEntity
  8
GAIKEI
 62
     1
100
AcDbCircle
 10
33.37294175799255
 20
17.67339704821262
 30
0.0
 40
0.096
100
AcDbArc
 50
19.99999999995374
 51
105.7449195247977
  0
ARC
  5
FC
330
2
100
AcDbEntity
  8
GAIKEI
 62
     1
100
AcDbCircle
 10
33.36522062908605
 20
17.67122020372727
 30
0.0
 40
0.096
100
AcDbArc
 50
105.7449195248011
 51
199.9999483350915
  0
LINE
  5
FD
330
2
100
AcDbEntity
  8
GAIKEI
 62
     1
100
AcDbLine
 10
33.3391705388224
 20
17.76361821667814
 30
0.0
 11
33.34689166772913
 21
17.7657950611636
 31
0.0
  0
LINE
  5
FE
330
2
100
AcDbEntity
  8
GAIKEI
 62
     1
100
AcDbLine
 10
33.54699965245576
 20
17.77737614279607
 30
0.0
 11
33.55472078136225
 21
17.77955298728153
 31
0.0
  0
ARC
  5
FF
330
2
100
AcDbEntity
  8
GAIKEI
 62
     1
100
AcDbCircle
 10
33.58077087162568
 20
17.68715497433055
 30
0.0
 40
0.096
100
AcDbArc
 50
19.99999999995374
 51
105.7449195247977
  0
ARC
  5
100
330
2
100
AcDbEntity
  8
GAIKEI
 62
     1
100
AcDbCircle
 10
33.57304974271918
 20
17.6849781298452
 30
0.0
 40
0.096
100
AcDbArc
 50
105.7449195248011
 51
199.9999483350915
  0
ARC
  5
101
330
2
100
AcDbEntity
  8
GAIKEI
 62
     1
100
AcDbCircle
 10
33.78573256256939
 20
17.68539495853889
 30
0.0
 40
0.096
100
AcDbArc
 50
105.7449195248011
 51
199.9999483350915
  0
ARC
  5
102
330
2
100
AcDbEntity
  8
GAIKEI
 62
     1
100
AcDbCircle
 10
33.79345369147612
 20
17.68757180302424
 30
0.0
 40
0.096
100
AcDbArc
 50
19.99999999995374
 51
105.7449195247977
  0
LINE
  5
103
330
2
100
AcDbEntity
  8
GAIKEI
 62
     1
100
AcDbLine
 10
33.7596824723062
 20
17.77779297148964
 30
0.0
 11
33.76740360121269
 21
17.77996981597499
 31
0.0
  0
LINE
  5
104
330
2
100
AcDbEntity
  8
GAIKEI
 62
     1
100
AcDbLine
 10
33.97236529221235
 20
17.77820980002849
 30
0.0
 11
33.98008642111884
 21
17.78038664451384
 31
0.0
  0
ARC
  5
105
330
2
100
AcDbEntity
  8
GAIKEI
 62
     1
100
AcDbCircle
 10
34.00613651138227
 20
17.68798863156297
 30
0.0
 40
0.096
100
AcDbArc
 50
19.99999999995374
 51
105.7449195247977
  0
ARC
  5
106
330
2
100
AcDbEntity
  8
GAIKEI
 62
     1
100
AcDbCircle
 10
33.99841538247577
 20
17.68581178707751
 30
0.0
 40
0.096
100
AcDbArc
 50
105.7449195248011
 51
199.9999483350915
  0
ARC
  5
107
330
2
100
AcDbEntity
  8
GAIKEI
 62
     1
100
AcDbCircle
 10
34.21155640586042
 20
17.6849781307838
 30
0.0
 40
0.096
100
AcDbArc
 50
105.7449195248011
 51
199.9999483350915
  0
ARC
  5
108
330
2
100
AcDbEntity
  8
GAIKEI
 62
     1
100
AcDbCircle
 10
34.21927753476714
 20
17.68715497526915
 30
0.0
 40
0.096
100
AcDbArc
 50
19.99999999995374
 51
105.7449195247977
  0
LINE
  5
109
330
2
100
AcDbEntity
  8
GAIKEI
 62
     1
100
AcDbLine
 10
34.185506315597
 20
17.77737614373467
 30
0.0
 11
34.19322744450372
 21
17.77955298822013
 31
0.0
  0
LINE
  5
10A
330
2
100
AcDbEntity
  8
GAIKEI
 62
     1
100
AcDbLine
 10
34.39802322301401
 20
17.77825161938818
 30
0.0
 11
34.40574435192051
 21
17.78042846387353
 31
0.0
  0
ARC
  5
10B
330
2
100
AcDbEntity
  8
GAIKEI
 62
     1
100
AcDbCircle
 10
34.43179444218393
 20
17.68803045092255
 30
0.0
 40
0.096
100
AcDbArc
 50
19.99999999995374
 51
105.7449195247977
  0
ARC
  5
10C
330
2
100
AcDbEntity
  8
GAIKEI
 62
     1
100
AcDbCircle
 10
34.42407331327721
 20
17.6858536064372
 30
0.0
 40
0.096
100
AcDbArc
 50
105.7449195248011
 51
199.9999483350915
  0
ARC
  5
10D
330
2
100
AcDbEntity
  8
GAIKEI
 62
     1
100
AcDbCircle
 10
34.78867180029264
 20
16.68412749619546
 30
0.0
 40
0.096
100
AcDbArc
 50
200.0000516649091
 51
294.2550804751995
  0
ARC
  5
10E
330
2
100
AcDbEntity
  8
GAIKEI
 62
     1
100
AcDbCircle
 10
34.79598577684945
 20
16.68742298256785
 30
0.0
 40
0.096
100
AcDbArc
 50
294.2550804752029
 51
20.00000000004688
  0
LINE
  5
10F
330
2
100
AcDbEntity
  8
GAIKEI
 62
     1
100
AcDbLine
 10
34.82810857128814
 20
16.59660183656666
 30
0.0
 11
34.83542254784496
 21
16.59989732293906
 31
0.0
  0
LINE
  5
110
330
2
100
AcDbEntity
  8
GAIKEI
 62
     1
100
AcDbLine
 10
34.61481061765133
 20
16.59786946147693
 30
0.0
 11
34.62212459420815
 21
16.60116494784921
 31
0.0
  0
ARC
  5
111
330
2
100
AcDbEntity
  8
GAIKEI
 62
     1
100
AcDbCircle
 10
34.58268782321264
 20
16.68869060747812
 30
0.0
 40
0.096
100
AcDbArc
 50
294.2550804752029
 51
20.00000000004688
  0
ARC
  5
112
330
2
100
AcDbEntity
  8
GAIKEI
 62
     1
100
AcDbCircle
 10
34.57537384665582
 20
16.68539512110561
 30
0.0
 40
0.096
100
AcDbArc
 50
200.0000516649091
 51
294.2550804751995
  0
ARC
  5
113
330
2
100
AcDbEntity
  8
GAIKEI
 62
     1
100
AcDbCircle
 10
34.3629485563479
 20
16.68426792951305
 30
0.0
 40
0.096
100
AcDbArc
 50
200.0000516649091
 51
294.2550804751995
  0
ARC
  5
114
330
2
100
AcDbEntity
  8
GAIKEI
 62
     1
100
AcDbCircle
 10
34.37026253290495
 20
16.68756341588533
 30
0.0
 40
0.096
100
AcDbArc
 50
294.2550804752029
 51
20.00000000004688
  0
LINE
  5
115
330
2
100
AcDbEntity
  8
GAIKEI
 62
     1
100
AcDbLine
 10
34.40238532734341
 20
16.59674226988414
 30
0.0
 11
34.40969930390023
 21
16.60003775625665
 31
0.0
  0
LINE
  5
116
330
2
100
AcDbEntity
  8
GAIKEI
 62
     1
100
AcDbLine
 10
34.18980898084945
 20
16.59603010175539
 30
0.0
 11
34.19712295740627
 21
16.5993255881279
 31
0.0
  0
ARC
  5
117
330
2
100
AcDbEntity
  8
GAIKEI
 62
     1
100
AcDbCircle
 10
34.15768618641076
 20
16.68685124775658
 30
0.0
 40
0.096
100
AcDbArc
 50
294.2550804752029
 51
20.00000000004688
  0
ARC
  5
118
330
2
100
AcDbEntity
  8
GAIKEI
 62
     1
100
AcDbCircle
 10
34.15037220985394
 20
16.6835557613843
 30
0.0
 40
0.096
100
AcDbArc
 50
200.0000516649091
 51
294.2550804751995
  0
ARC
  5
119
330
2
100
AcDbEntity
  8
GAIKEI
 62
     1
100
AcDbCircle
 10
33.93727744729657
 20
16.6842679296829
 30
0.0
 40
0.096
100
AcDbArc
 50
200.0000516649091
 51
294.2550804751995
  0
ARC
  5
11A
330
2
100
AcDbEntity
  8
GAIKEI
 62
     1
100
AcDbCircle
 10
33.94459142385338
 20
16.68756341605529
 30
0.0
 40
0.096
100
AcDbArc
 50
294.2550804752029
 51
20.00000000004688
  0
LINE
  5
11B
330
2
100
AcDbEntity
  8
GAIKEI
 62
     1
100
AcDbLine
 10
33.97671421829185
 20
16.5967422700541
 30
0.0
 11
33.98402819484889
 21
16.6000377564265
 31
0.0
  0
LINE
  5
11C
330
2
100
AcDbEntity
  8
GAIKEI
 62
     1
100
AcDbLine
 10
33.76387866388203
 20
16.59674226981957
 30
0.0
 11
33.77119264043907
 21
16.60003775619185
 31
0.0
  0
ARC
  5
11D
330
2
100
AcDbEntity
  8
GAIKEI
 62
     1
100
AcDbCircle
 10
33.72444189288675
 20
16.68426792944825
 30
0.0
 40
0.096
100
AcDbArc
 50
200.0000516649091
 51
294.2550804751995
  0
ARC
  5
11E
330
2
100
AcDbEntity
  8
GAIKEI
 62
     1
100
AcDbCircle
 10
33.73175586944356
 20
16.68756341582076
 30
0.0
 40
0.096
100
AcDbArc
 50
294.2550804752029
 51
20.00000000004688
  0
LINE
  5
11F
330
2
100
AcDbEntity
  8
GAIKEI
 62
     1
100
AcDbLine
 10
33.55104310936238
 20
16.59674226988414
 30
0.0
 11
33.55835708591943
 21
16.60003775625654
 31
0.0
  0
ARC
  5
120
330
2
100
AcDbEntity
  8
GAIKEI
 62
     1
100
AcDbCircle
 10
33.5116063383671
 20
16.68426792951294
 30
0.0
 40
0.096
100
AcDbArc
 50
200.0000516649091
 51
294.2550804751995
  0
ARC
  5
121
330
2
100
AcDbEntity
  8
GAIKEI
 62
     1
100
AcDbCircle
 10
33.51892031492392
 20
16.68756341588533
 30
0.0
 40
0.096
100
AcDbArc
 50
294.2550804752029
 51
20.00000000004688
  0
ARC
  5
122
330
2
100
AcDbEntity
  8
GAIKEI
 62
     1
100
AcDbCircle
 10
33.30582607811292
 20
16.68827410310183
 30
0.0
 40
0.096
100
AcDbArc
 50
294.2550804752029
 51
20.00000000004688
  0
ARC
  5
123
330
2
100
AcDbEntity
  8
GAIKEI
 62
     1
100
AcDbCircle
 10
33.2985121015561
 20
16.68497861672955
 30
0.0
 40
0.096
100
AcDbArc
 50
200.0000516649091
 51
294.2550804751995
  0
LINE
  5
124
330
2
100
AcDbEntity
  8
GAIKEI
 62
     1
100
AcDbLine
 10
33.33794887255161
 20
16.59745295710064
 30
0.0
 11
33.34526284910842
 21
16.60074844347315
 31
0.0
  0
LINE
  5
125
330
2
100
AcDbEntity
  8
GAIKEI
 62
     1
100
AcDbLine
 10
34.54591823340687
 20
17.65516029103293
 30
0.0
 11
35.09361488878946
 21
17.65516029103293
 31
0.0
  0
LINE
  5
126
330
2
100
AcDbEntity
  8
GAIKEI
 62
     1
100
AcDbLine
 10
34.90988846767303
 20
16.65516029103293
 30
0.0
 11
34.32375987635678
 21
16.65516029103293
 31
0.0
  0
ARC
  5
127
330
2
100
AcDbEntity
  8
GAIKEI
 62
     1
100
AcDbCircle
 10
34.76792118431828
 20
16.25516029103306
 30
0.0
 40
0.4000000000000114
100
AcDbArc
 50
0.0000000000015987
 51
89.99999999999671
  0
LINE
  5
128
330
2
100
AcDbEntity
  8
GAIKEI
 62
     1
100
AcDbLine
 10
36.16792118431837
 20
12.97017373272848
 30
0.0
 11
36.16792118431837
 21
11.43983296186826
 31
0.0
  0
LINE
  5
129
330
2
100
AcDbEntity
  8
GAIKEI
 62
     1
100
AcDbLine
 10
27.81019888316123
 20
-3.112238995973882
 30
0.0
 11
34.85358294383443
 21
-3.112238995973882
 31
0.0
  0
LINE
  5
12A
330
2
100
AcDbEntity
  8
GAIKEI
 62
     1
100
AcDbLine
 10
27.81019888316123
 20
-2.872238995973873
 30
0.0
 11
34.85358294383443
 21
-2.872238995973873
 31
0.0
  0
LINE
  5
12B
330
2
100
AcDbEntity
  8
GAIKEI
 62
     1
100
AcDbLine
 10
34.85358294383443
 20
-2.872238995973873
 30
0.0
 11
34.85358294383443
 21
8.498671605526226
 31
0.0
  0
LINE
  5
12C
330
2
100
AcDbEntity
  8
GAIKEI
 62
     1
100
AcDbLine
 10
28.01019888316128
 20
-3.112238995973882
 30
0.0
 11
27.81019888316123
 21
-3.312238995973814
 31
0.0
  0
LINE
  5
12D
330
2
100
AcDbEntity
  8
GAIKEI
 62
     7
100
AcDbLine
 10
27.81019888316123
 20
-3.312238995973814
 30
0.0
 11
26.41019888316114
 21
-3.312238995973814
 31
0.0
  0
LINE
  5
12E
330
2
100
AcDbEntity
  8
GAIKEI
 62
     1
100
AcDbLine
 10
26.41019888316114
 20
-3.132238995973864
 30
0.0
 11
27.81019888316123
 21
-3.132238995973864
 31
0.0
  0
LINE
  5
12F
330
2
100
AcDbEntity
  8
GAIKEI
 62
     1
100
AcDbLine
 10
27.81019888316123
 20
-3.132238995973864
 30
0.0
 11
27.81019888316123
 21
-1.572238995973805
 31
0.0
  0
LINE
  5
130
330
2
100
AcDbEntity
  8
GAIKEI
 62
     1
100
AcDbLine
 10
27.81019888316123
 20
-1.572238995973805
 30
0.0
 11
26.41019888316114
 21
-1.572238995973805
 31
0.0
  0
LINE
  5
131
330
2
100
AcDbEntity
  8
GAIKEI
 62
     1
100
AcDbLine
 10
27.81019888316123
 20
-1.572238995973805
 30
0.0
 11
26.31019888316123
 21
-1.272238995973737
 31
0.0
  0
LINE
  5
132
330
2
100
AcDbEntity
  8
GAIKEI
 62
     1
100
AcDbLine
 10
26.41019888316114
 20
-1.772238995973737
 30
0.0
 11
27.81019888316123
 21
-1.772238995973737
 31
0.0
  0
LINE
  5
133
330
2
100
AcDbEntity
  8
GAIKEI
 62
     1
100
AcDbLine
 10
26.41019888316114
 20
-2.032238995973727
 30
0.0
 11
27.81019888316123
 21
-2.4522389959738
 31
0.0
  0
LINE
  5
134
330
2
100
AcDbEntity
  8
GAIKEI
 62
     1
100
AcDbLine
 10
27.81019888316123
 20
-2.4522389959738
 30
0.0
 11
26.41019888316114
 21
-2.4522389959738
 31
0.0
  0
LINE
  5
135
330
2
100
AcDbEntity
  8
GAIKEI
 62
     1
100
AcDbLine
 10
26.41019888316114
 20
-2.652238995973846
 30
0.0
 11
27.81019888316123
 21
-2.652238995973846
 31
0.0
  0
LINE
  5
136
330
2
100
AcDbEntity
  8
GAIKEI
 62
     1
100
AcDbLine
 10
28.2101988831611
 20
-2.872238995973873
 30
0.0
 11
28.2101988831611
 21
-2.212238995973791
 31
0.0
  0
ARC
  5
137
330
2
100
AcDbEntity
  8
GAIKEI
 62
     1
100
AcDbCircle
 10
27.81019888316101
 20
-2.212238995973791
 30
0.0
 40
0.4000000000000057
100
AcDbArc
 50
0.0000000000007994
 51
89.99999999999671
  0
LINE
  5
138
330
2
100
AcDbEntity
  8
GAIKEI
 62
     1
100
AcDbLine
 10
26.41019888316114
 20
-1.632509904653886
 30
0.0
 11
26.2101988831611
 21
-1.625087584473874
 31
0.0
  0
LINE
  5
139
330
2
100
AcDbEntity
  8
GAIKEI
 62
     1
100
AcDbLine
 10
26.2101988831611
 20
-1.625087584473874
 30
0.0
 11
26.2101988831611
 21
-0.2108740221137282
 31
0.0
  0
LINE
  5
13A
330
2
100
AcDbEntity
  8
GAIKEI
 62
     1
100
AcDbLine
 10
26.2101988831611
 20
-0.2108740221137282
 30
0.0
 11
26.41019888316114
 21
-0.2182963422937405
 31
0.0
  0
LINE
  5
13B
330
2
100
AcDbEntity
  8
GAIKEI
 62
     1
100
AcDbLine
 10
26.31019888316123
 20
-0.2145851822037343
 30
0.0
 11
26.31019888316123
 21
-1.349248500513738
 31
0.0
  0
LINE
  5
13C
330
2
100
AcDbEntity
  8
GAIKEI
 62
     1
100
AcDbLine
 10
26.2101988831611
 20
-1.349248500513738
 30
0.0
 11
26.41019888316114
 21
-1.349248500513738
 31
0.0
  0
LINE
  5
13D
330
2
100
AcDbEntity
  8
GAIKEI
 62
     1
100
AcDbLine
 10
35.09358294383444
 20
9.289862427866239
 30
0.0
 11
35.09358294383444
 21
-2.872238995973873
 31
0.0
  0
ARC
  5
13E
330
2
100
AcDbEntity
  8
GAIKEI
 62
     1
100
AcDbCircle
 10
34.85358294383443
 20
-2.872238995973873
 30
0.0
 40
0.2400000000000261
100
AcDbArc
 50
270.0000000000108
 51
359.9999999999945
  0
LINE
  5
13F
330
2
100
AcDbEntity
  8
GAIKEI
 62
     1
100
AcDbLine
 10
35.09358294383444
 20
-0.1922389959738098
 30
0.0
 11
35.15358294383438
 21
-0.1922389959738098
 31
0.0
  0
LINE
  5
140
330
2
100
AcDbEntity
  8
GAIKEI
 62
     1
100
AcDbLine
 10
35.15358294383438
 20
-0.1922389959738098
 30
0.0
 11
35.15358294383438
 21
-1.792238995973718
 31
0.0
  0
LINE
  5
141
330
2
100
AcDbEntity
  8
GAIKEI
 62
     1
100
AcDbLine
 10
35.15358294383438
 20
-1.792238995973718
 30
0.0
 11
35.09358294383444
 21
-1.792238995973718
 31
0.0
  0
LINE
  5
142
330
2
100
AcDbEntity
  8
GAIKEI
 62
     1
100
AcDbLine
 10
34.85358294383443
 20
-0.5637960313937925
 30
0.0
 11
35.09358294383444
 21
-0.5637960313937925
 31
0.0
  0
LINE
  5
143
330
2
100
AcDbEntity
  8
GAIKEI
 62
     1
100
AcDbLine
 10
35.09358294383444
 20
4.357761004026144
 30
0.0
 11
35.33358294383444
 21
4.357761004026144
 31
0.0
  0
LINE
  5
144
330
2
100
AcDbEntity
  8
GAIKEI
 62
     1
100
AcDbLine
 10
35.33358294383444
 20
4.357761004026144
 30
0.0
 11
35.33358294383444
 21
3.357761004026144
 31
0.0
  0
LINE
  5
145
330
2
100
AcDbEntity
  8
GAIKEI
 62
     1
100
AcDbLine
 10
35.33358294383444
 20
3.357761004026144
 30
0.0
 11
35.09358294383444
 21
3.357761004026144
 31
0.0
  0
LINE
  5
146
330
2
100
AcDbEntity
  8
GAIKEI
 62
     1
100
AcDbLine
 10
28.41019888316115
 20
6.987036511006238
 30
0.0
 11
28.41019888316115
 21
11.18344150320621
 31
0.0
  0
LINE
  5
147
330
2
100
AcDbEntity
  8
GAIKEI
 62
     1
100
AcDbLine
 10
28.41019888316115
 20
6.987037843546261
 30
0.0
 11
28.65019888316115
 21
6.987037843546261
 31
0.0
  0
LINE
  5
148
330
2
100
AcDbEntity
  8
GAIKEI
 62
     1
100
AcDbLine
 10
28.65019888316115
 20
6.987037843546261
 30
0.0
 11
28.65019888316115
 21
12.19256000108618
 31
0.0
  0
LINE
  5
149
330
2
100
AcDbEntity
  8
GAIKEI
 62
     1
100
AcDbLine
 10
28.65019888316115
 20
12.19256000108618
 30
0.0
 11
28.05019888316124
 21
12.19256000108618
 31
0.0
  0
LINE
  5
14A
330
2
100
AcDbEntity
  8
GAIKEI
 62
     1
100
AcDbLine
 10
28.05019888316124
 20
12.19256000108618
 30
0.0
 11
28.05019888316124
 21
12.89904982210618
 31
0.0
  0
LINE
  5
14B
330
2
100
AcDbEntity
  8
GAIKEI
 62
     1
100
AcDbLine
 10
28.05019888316124
 20
12.89904982210618
 30
0.0
 11
28.65019888316115
 21
12.89904982210618
 31
0.0
  0
LINE
  5
14C
330
2
100
AcDbEntity
  8
GAIKEI
 62
     1
100
AcDbLine
 10
28.41019888316115
 20
12.19256000108618
 30
0.0
 11
28.41019888316115
 21
11.22511706584617
 31
0.0
  0
LINE
  5
14D
330
2
100
AcDbEntity
  8
GAIKEI
 62
     1
100
AcDbLine
 10
28.11019888316119
 20
12.19256000108618
 30
0.0
 11
28.11019888316119
 21
11.22511706584617
 31
0.0
  0
LINE
  5
14E
330
2
100
AcDbEntity
  8
GAIKEI
 62
     1
100
AcDbLine
 10
28.41019888316115
 20
11.61904016704619
 30
0.0
 11
28.65019888316115
 21
11.61904016704619
 31
0.0
  0
LINE
  5
14F
330
2
100
AcDbEntity
  8
GAIKEI
 62
     1
100
AcDbLine
 10
28.41019888316115
 20
7.482847604406117
 30
0.0
 11
28.65019888316115
 21
7.482847604406117
 31
0.0
  0
LINE
  5
150
330
2
100
AcDbEntity
  8
GAIKEI
 62
     1
100
AcDbLine
 10
28.65019888316115
 20
7.218421526606164
 30
0.0
 11
34.85358294383443
 21
7.218421526606164
 31
0.0
  0
LINE
  5
151
330
2
100
AcDbEntity
  8
GAIKEI
 62
     1
100
AcDbLine
 10
26.41019888316114
 20
7.835095142966167
 30
0.0
 11
28.41019888316115
 21
7.835095142966167
 31
0.0
  0
LINE
  5
152
330
2
100
AcDbEntity
  8
GAIKEI
 62
     1
100
AcDbLine
 10
26.41019888316114
 20
11.22511706584617
 30
0.0
 11
28.65019888316115
 21
11.22511706584617
 31
0.0
  0
LINE
  5
153
330
2
100
AcDbEntity
  8
GAIKEI
 62
     1
100
AcDbLine
 10
26.41019888316114
 20
11.18344150320621
 30
0.0
 11
28.46589972294115
 21
11.18471243445611
 31
0.0
  0
ARC
  5
154
330
2
100
AcDbEntity
  8
GAIKEI
 62
     1
100
AcDbCircle
 10
28.48975936128787
 20
11.53567537665532
 30
0.0
 40
0.3517730364013963
100
AcDbArc
 50
266.1108248866899
 51
296.8680697623927
  0
LINE
  5
155
330
2
100
AcDbEntity
  8
GAIKEI
 62
     1
100
AcDbLine
 10
31.05019888316125
 20
8.383792842846162
 30
0.0
 11
31.45019888316111
 21
8.383792842846162
 31
0.0
  0
LINE
  5
156
330
2
100
AcDbEntity
  8
GAIKEI
 62
     1
100
AcDbLine
 10
31.45019888316111
 20
8.383792842846162
 30
0.0
 11
31.45019888316111
 21
11.04761124644625
 31
0.0
  0
LINE
  5
157
330
2
100
AcDbEntity
  8
GAIKEI
 62
     1
100
AcDbLine
 10
31.05019888316125
 20
8.383795716566112
 30
0.0
 11
31.05019888316125
 21
11.44153434764627
 31
0.0
  0
LINE
  5
158
330
2
100
AcDbEntity
  8
GAIKEI
 62
     1
100
AcDbLine
 10
31.05019888316125
 20
8.549063207326128
 30
0.0
 11
31.45019888316111
 21
8.549063207326128
 31
0.0
  0
LINE
  5
159
330
2
100
AcDbEntity
  8
GAIKEI
 62
     1
100
AcDbLine
 10
31.05019888316125
 20
10.53808297602614
 30
0.0
 11
31.45019888316111
 21
10.53808297602614
 31
0.0
  0
LINE
  5
15A
330
2
100
AcDbEntity
  8
GAIKEI
 62
     1
100
AcDbLine
 10
31.05019888316125
 20
10.57281261156623
 30
0.0
 11
31.45019888316111
 21
10.57281261156623
 31
0.0
  0
LINE
  5
15B
330
2
100
AcDbEntity
  8
GAIKEI
 62
     1
100
AcDbLine
 10
31.45019888316111
 20
10.33986242786619
 30
0.0
 11
31.8501988831612
 21
10.33986242786619
 31
0.0
  0
LINE
  5
15C
330
2
100
AcDbEntity
  8
GAIKEI
 62
     1
100
AcDbLine
 10
31.8501988831612
 20
10.33986242786619
 30
0.0
 11
31.8501988831612
 21
9.039899949486255
 31
0.0
  0
LINE
  5
15D
330
2
100
AcDbEntity
  8
GAIKEI
 62
     1
100
AcDbLine
 10
31.8501988831612
 20
9.039899949486255
 30
0.0
 11
31.45019888316111
 21
9.039862427866239
 31
0.0
  0
LINE
  5
15E
330
2
100
AcDbEntity
  8
GAIKEI
 62
     1
100
AcDbLine
 10
29.84254117366109
 20
9.289862427866239
 30
0.0
 11
28.65019888316115
 21
9.289862427866239
 31
0.0
  0
LINE
  5
15F
330
2
100
AcDbEntity
  8
GAIKEI
 62
     1
100
AcDbLine
 10
28.65019888316115
 20
10.08986242786619
 30
0.0
 11
29.86986219194128
 21
10.08986242786619
 31
0.0
  0
LINE
  5
160
330
2
100
AcDbEntity
  8
GAIKEI
 62
     1
100
AcDbLine
 10
29.79239888316115
 20
10.08986242786619
 30
0.0
 11
29.79239888316115
 21
10.73504452664616
 31
0.0
  0
LINE
  5
161
330
2
100
AcDbEntity
  8
GAIKEI
 62
     1
100
AcDbLine
 10
29.91239888316128
 20
10.73504452664616
 30
0.0
 11
29.91239888316128
 21
10.34903410482622
 31
0.0
  0
LINE
  5
162
330
2
100
AcDbEntity
  8
GAIKEI
 62
     1
100
AcDbLine
 10
30.65019888316115
 20
10.73504452664616
 30
0.0
 11
29.05019888316124
 21
10.73504452664616
 31
0.0
  0
LINE
  5
163
330
2
100
AcDbEntity
  8
GAIKEI
 62
     1
100
AcDbLine
 10
29.05019888316124
 20
11.12896762784618
 30
0.0
 11
30.65019888316115
 21
11.12896762784618
 31
0.0
  0
LINE
  5
164
330
2
100
AcDbEntity
  8
GAIKEI
 62
     1
100
AcDbLine
 10
30.65019888316115
 20
10.73504452664616
 30
0.0
 11
30.65019888316115
 21
11.16369726338627
 31
0.0
  0
LINE
  5
165
330
2
100
AcDbEntity
  8
GAIKEI
 62
     1
100
AcDbLine
 10
30.65019888316115
 20
11.16369726338627
 30
0.0
 11
30.93019888316113
 21
11.16369726338627
 31
0.0
  0
LINE
  5
166
330
2
100
AcDbEntity
  8
GAIKEI
 62
     1
100
AcDbLine
 10
30.93019888316113
 20
10.76977416216624
 30
0.0
 11
30.65019888316115
 21
10.76977416216624
 31
0.0
  0
ARC
  5
167
330
2
100
AcDbEntity
  8
GAIKEI
 62
     1
100
AcDbCircle
 10
29.05933202667839
 20
11.14436543660355
 30
0.0
 40
0.4094227908150262
100
AcDbArc
 50
182.1553210506624
 51
268.7217761235329
  0
LINE
  5
168
330
2
100
AcDbEntity
  8
GAIKEI
 62
     1
100
AcDbLine
 10
29.05019888316124
 20
11.12896762784618
 30
0.0
 11
29.04502308733905
 21
12.57805895552616
 31
0.0
  0
LINE
  5
169
330
2
100
AcDbEntity
  8
GAIKEI
 62
     1
100
AcDbLine
 10
28.65019888316115
 20
12.5864831023062
 30
0.0
 11
28.05019888316124
 21
12.5864831023062
 31
0.0
  0
LINE
  5
16A
330
2
100
AcDbEntity
  8
GAIKEI
 62
     1
100
AcDbLine
 10
28.05019888316124
 20
12.5864831023062
 30
0.0
 11
28.69533727920126
 21
12.66238588976631
 31
0.0
  0
LINE
  5
16B
330
2
100
AcDbEntity
  8
GAIKEI
 62
     1
100
AcDbLine
 10
28.69533727920103
 20
12.8181146600262
 30
0.0
 11
28.05019888316124
 21
12.89904982210618
 31
0.0
  0
LINE
  5
16C
330
2
100
AcDbEntity
  8
GAIKEI
 62
     1
100
AcDbLine
 10
28.69533727920126
 20
12.8181146600262
 30
0.0
 11
28.86667473248113
 21
12.60830536778627
 31
0.0
  0
ARC
  5
16D
330
2
100
AcDbEntity
  8
GAIKEI
 62
     1
100
AcDbCircle
 10
28.65197127255456
 20
12.18702099747912
 30
0.0
 40
0.3994660368004992
100
AcDbArc
 50
9.297651160921731
 51
90.25421626805648
  0
ARC
  5
16E
330
2
100
AcDbEntity
  8
GAIKEI
 62
     1
100
AcDbCircle
 10
28.67243552386813
 20
12.27872922122805
 30
0.0
 40
0.3843396020593732
100
AcDbArc
 50
13.74670033134489
 51
86.5838761580043
  0
ARC
  5
16F
330
2
100
AcDbEntity
  8
GAIKEI
 62
     1
100
AcDbCircle
 10
28.63239693873689
 20
12.40948408716741
 30
0.0
 40
0.4134494304419082
100
AcDbArc
 50
2.089968246144142
 51
81.24368858273895
  0
ARC
  5
170
330
2
100
AcDbEntity
  8
GAIKEI
 62
     1
100
AcDbCircle
 10
28.65197127255456
 20
12.49958771727898
 30
0.0
 40
0.3994660368004992
100
AcDbArc
 50
11.3288756854526
 51
90.25421626805648
  0
LINE
  5
171
330
2
100
AcDbEntity
  8
GAIKEI
 62
     1
100
AcDbLine
 10
29.04502308733905
 20
12.57805895552616
 30
0.0
 11
34.72765594138647
 21
12.57805895552616
 31
0.0
  0
LINE
  5
172
330
2
100
AcDbEntity
  8
GAIKEI
 62
     1
100
AcDbLine
 10
29.04517194214114
 20
12.53638339288619
 30
0.0
 11
34.85358294383443
 21
12.53638339288619
 31
0.0
  0
LINE
  5
173
330
2
100
AcDbEntity
  8
GAIKEI
 62
     1
100
AcDbLine
 10
34.79358294383448
 20
12.57805895552616
 30
0.0
 11
34.79358294383448
 21
15.07952643614618
 31
0.0
  0
LINE
  5
174
330
2
100
AcDbEntity
  8
GAIKEI
 62
     1
100
AcDbLine
 10
34.85358294383443
 20
14.97950460234625
 30
0.0
 11
34.85358294383443
 21
12.57805895552616
 31
0.0
  0
LINE
  5
175
330
2
100
AcDbEntity
  8
GAIKEI
 62
     1
100
AcDbLine
 10
34.85358294383443
 20
12.64524844750627
 30
0.0
 11
35.09358294383444
 21
12.64524844750627
 31
0.0
  0
LINE
  5
176
330
2
100
AcDbEntity
  8
GAIKEI
 62
     1
100
AcDbLine
 10
34.85358294383443
 20
14.51442854450619
 30
0.0
 11
35.09358294383444
 21
14.51442854450619
 31
0.0
  0
LINE
  5
177
330
2
100
AcDbEntity
  8
GAIKEI
 62
     1
100
AcDbLine
 10
34.85358294383443
 20
14.6791446059662
 30
0.0
 11
35.09358294383444
 21
14.6791446059662
 31
0.0
  0
LINE
  5
178
330
2
100
AcDbEntity
  8
GAIKEI
 62
     1
100
AcDbLine
 10
31.94509882083517
 20
15.23947898416764
 30
0.0
 11
34.20174222093439
 21
15.23679414462623
 31
0.0
  0
LINE
  5
179
330
2
100
AcDbEntity
  8
GAIKEI
 62
     1
100
AcDbLine
 10
32.01019888316128
 20
15.32152474566618
 30
0.0
 11
34.15884603994434
 21
15.32006173079622
 31
0.0
  0
LINE
  5
17A
330
2
100
AcDbEntity
  8
GAIKEI
 62
     1
100
AcDbLine
 10
34.85358294383443
 20
14.97950460234625
 30
0.0
 11
35.09358294383444
 21
14.97950460234625
 31
0.0
  0
ARC
  5
17B
330
2
100
AcDbEntity
  8
GAIKEI
 62
     1
100
AcDbCircle
 10
34.63283749003105
 20
14.91509322969801
 30
0.0
 40
0.2299508214842448
100
AcDbArc
 50
16.26673051789722
 51
72.90213237537347
  0
ARC
  5
17C
330
2
100
AcDbEntity
  8
GAIKEI
 62
     1
100
AcDbCircle
 10
34.17958098561277
 20
13.85721782041781
 30
0.0
 40
1.379754309530253
100
AcDbArc
 50
67.82082337281083
 51
89.0796913298959
  0
ARC
  5
17D
330
2
100
AcDbEntity
  8
GAIKEI
 62
     1
100
AcDbCircle
 10
34.89314414553494
 20
14.9520414821207
 30
0.0
 40
0.2023114797441329
100
AcDbArc
 50
7.801801417219693
 51
61.8678402815883
  0
ARC
  5
17E
330
2
100
AcDbEntity
  8
GAIKEI
 62
     1
100
AcDbCircle
 10
34.45676612668396
 20
14.26998134992374
 30
0.0
 40
1.011528017847505
100
AcDbArc
 50
58.28402143055761
 51
79.1044881433849
  0
ARC
  5
17F
330
2
100
AcDbEntity
  8
GAIKEI
 62
     1
100
AcDbCircle
 10
34.11802183731558
 20
12.83359317441051
 30
0.0
 40
2.486803670862423
100
AcDbArc
 50
77.69582433522231
 51
89.05937102564054
  0
LINE
  5
180
330
2
100
AcDbEntity
  8
GAIKEI
 62
     1
100
AcDbLine
 10
35.09358294383444
 20
16.48741966843005
 30
0.0
 11
35.09358294383444
 21
10.08986242786619
 31
0.0
  0
LINE
  5
181
330
2
100
AcDbEntity
  8
GAIKEI
 62
     1
100
AcDbLine
 10
35.16792118431837
 20
16.25516029103306
 30
0.0
 11
35.16792118431837
 21
10.88713603292513
 31
0.0
  0
LINE
  5
182
330
2
100
AcDbEntity
  8
GAIKEI
 62
     1
100
AcDbLine
 10
30.41019888316114
 20
15.49501204880613
 30
0.0
 11
31.77019888316105
 21
15.49501204880613
 31
0.0
  0
LINE
  5
183
330
2
100
AcDbEntity
  8
GAIKEI
 62
     1
100
AcDbLine
 10
30.75890514932112
 20
15.35820399148616
 30
0.0
 11
31.77019888316105
 21
15.35820399148616
 31
0.0
  0
LINE
  5
184
330
2
100
AcDbEntity
  8
GAIKEI
 62
     1
100
AcDbLine
 10
31.77019888316105
 20
15.16667271122611
 30
0.0
 11
31.11193751470106
 21
15.16667271122611
 31
0.0
  0
LINE
  5
185
330
2
100
AcDbEntity
  8
GAIKEI
 62
     1
100
AcDbLine
 10
31.77019888316105
 20
15.35820399148616
 30
0.0
 11
31.77019888316105
 21
15.16667271122611
 31
0.0
  0
LINE
  5
186
330
2
100
AcDbEntity
  8
GAIKEI
 62
     1
100
AcDbLine
 10
31.77019888316105
 20
15.7458367890062
 30
0.0
 11
31.77019888316105
 21
15.49501204880613
 31
0.0
  0
LINE
  5
187
330
2
100
AcDbEntity
  8
GAIKEI
 62
     1
100
AcDbLine
 10
30.2101988831611
 20
15.97136301798611
 30
0.0
 11
30.2101988831611
 21
15.7458367890062
 31
0.0
  0
LINE
  5
188
330
2
100
AcDbEntity
  8
GAIKEI
 62
     1
100
AcDbLine
 10
30.41019888316114
 20
15.49501204880613
 30
0.0
 11
30.01019888316128
 21
15.6318201061461
 31
0.0
  0
LINE
  5
189
330
2
100
AcDbEntity
  8
GAIKEI
 62
     1
100
AcDbLine
 10
30.01019888316128
 20
15.6318201061461
 30
0.0
 11
30.01019888316128
 21
15.90295898932623
 31
0.0
  0
ARC
  5
18A
330
2
100
AcDbEntity
  8
GAIKEI
 62
     1
100
AcDbCircle
 10
31.77469534771231
 20
15.98151619856804
 30
0.0
 40
0.2357222990827569
100
AcDbArc
 50
268.9070017187246
 51
357.5313560665137
  0
ARC
  5
18B
330
2
100
AcDbEntity
  8
GAIKEI
 62
     1
100
AcDbCircle
 10
31.77469534771231
 20
15.73069145836808
 30
0.0
 40
0.2357222990827569
100
AcDbArc
 50
268.9070017187246
 51
357.5313560665137
  0
ARC
  5
18C
330
2
100
AcDbEntity
  8
GAIKEI
 62
     1
100
AcDbCircle
 10
31.77469534771231
 20
15.593883401048
 30
0.0
 40
0.2357222990827569
100
AcDbArc
 50
268.9070017187246
 51
357.5313560665137
  0
ARC
  5
18D
330
2
100
AcDbEntity
  8
GAIKEI
 62
     1
100
AcDbCircle
 10
31.77469534771231
 20
15.40235212078806
 30
0.0
 40
0.2357222990827569
100
AcDbArc
 50
268.9070017187246
 51
357.5313560665137
  0
LINE
  5
18E
330
2
100
AcDbEntity
  8
GAIKEI
 62
     1
100
AcDbLine
 10
30.03472359816513
 20
14.67988229205679
 30
0.0
 11
31.19072571934126
 21
16.77611152812625
 31
0.0
  0
ARC
  5
18F
330
2
100
AcDbEntity
  8
GAIKEI
 62
     1
100
AcDbCircle
 10
30.06199188308997
 20
15.66553800523053
 30
0.0
 40
0.0531413214070602
100
AcDbArc
 50
106.3954892652055
 51
167.0657652101146
  0
ARC
  5
190
330
2
100
AcDbEntity
  8
GAIKEI
 62
     1
100
AcDbCircle
 10
30.19499810166954
 20
15.3615329426853
 30
0.0
 40
0.3846043552209783
100
AcDbArc
 50
87.73489946472352
 51
112.6330107984669
  0
ARC
  5
191
330
2
100
AcDbEntity
  8
GAIKEI
 62
     1
100
AcDbCircle
 10
30.19499810166954
 20
15.58705917166532
 30
0.0
 40
0.3846043552209783
100
AcDbArc
 50
87.73489946472352
 51
112.6330107984669
  0
ARC
  5
192
330
2
100
AcDbEntity
  8
GAIKEI
 62
     1
100
AcDbCircle
 10
30.06199188308997
 20
15.89106423421054
 30
0.0
 40
0.0531413214070602
100
AcDbArc
 50
106.3954892652055
 51
167.0657652101146
  0
ARC
  5
193
330
2
100
AcDbEntity
  8
GAIKEI
 62
     1
100
AcDbCircle
 10
28.847082667553
 20
14.68810744388395
 30
0.0
 40
0.2844245167208067
100
AcDbArc
 50
166.2560871495793
 51
241.3193824818865
  0
LINE
  5
194
330
2
100
AcDbEntity
  8
GAIKEI
 62
     1
100
AcDbLine
 10
28.57080198806418
 20
14.7556817870406
 30
0.0
 11
29.54593481446105
 21
16.5061546288062
 31
0.0
  0
ARC
  5
195
330
2
100
AcDbEntity
  8
GAIKEI
 62
     1
100
AcDbCircle
 10
29.79409139382998
 20
16.35249856377624
 30
0.0
 40
0.2918764707963184
100
AcDbArc
 50
85.9702694752983
 51
148.2346238094073
  0
ARC
  5
196
330
2
100
AcDbEntity
  8
GAIKEI
 62
     1
100
AcDbCircle
 10
29.91835761958956
 20
18.2033179164344
 30
0.0
 40
1.565548145347493
100
AcDbArc
 50
264.5124186038062
 51
277.4281453138049
  0
ARC
  5
197
330
2
100
AcDbEntity
  8
GAIKEI
 62
     1
100
AcDbCircle
 10
30.00285688410455
 20
17.2029131623338
 30
0.0
 40
0.5644551898357383
100
AcDbArc
 50
282.0562744612082
 51
355.2901449405944
  0
ARC
  5
198
330
2
100
AcDbEntity
  8
GAIKEI
 62
     1
100
AcDbCircle
 10
30.00181710078314
 20
17.19000039352255
 30
0.0
 40
0.5636834857468961
100
AcDbArc
 50
354.3136307423499
 51
83.89143868777111
  0
ARC
  5
199
330
2
100
AcDbEntity
  8
GAIKEI
 62
     1
100
AcDbCircle
 10
29.96129925225719
 20
17.14722526520182
 30
0.0
 40
0.6115723227694148
100
AcDbArc
 50
80.54156904098096
 51
136.1380765401309
  0
ARC
  5
19A
330
2
100
AcDbEntity
  8
GAIKEI
 62
     1
100
AcDbCircle
 10
30.07118512600428
 20
17.19112242536386
 30
0.0
 40
1.193987095807651
100
AcDbArc
 50
339.6603827977971
 51
50.86067297846015
  0
ARC
  5
19B
330
2
100
AcDbEntity
  8
GAIKEI
 62
     1
100
AcDbCircle
 10
29.97232479103642
 20
17.03919347341394
 30
0.0
 40
1.374361103095524
100
AcDbArc
 50
51.66202164881305
 51
120.8582642194238
  0
ARC
  5
19C
330
2
100
AcDbEntity
  8
GAIKEI
 62
     1
100
AcDbCircle
 10
29.86001181890916
 20
17.18571063116491
 30
0.0
 40
1.191167757067051
100
AcDbArc
 50
119.8354582244394
 51
156.1931448895471
  0
LINE
  5
19D
330
2
100
AcDbEntity
  8
GAIKEI
 62
     1
100
AcDbLine
 10
28.77019888316104
 20
17.66653116998628
 30
0.0
 11
28.77019888316104
 21
17.19668485958624
 31
0.0
  0
LINE
  5
19E
330
2
100
AcDbEntity
  8
GAIKEI
 62
     1
100
AcDbLine
 10
28.77019888316104
 20
17.19668485958624
 30
0.0
 11
28.37280694037114
 21
16.7830257605562
 31
0.0
  0
LINE
  5
19F
330
2
100
AcDbEntity
  8
GAIKEI
 62
     1
100
AcDbLine
 10
29.37582477348101
 20
17.27371339442612
 30
0.0
 11
28.64972286102116
 21
16.51325993577626
 31
0.0
  0
ARC
  5
1A0
330
2
100
AcDbEntity
  8
GAIKEI
 62
     1
100
AcDbCircle
 10
29.83857686098614
 20
17.23213923589793
 30
0.0
 40
0.4646158683769292
100
AcDbArc
 50
132.0382302737004
 51
174.8662664765469
  0
ARC
  5
1A1
330
2
100
AcDbEntity
  8
GAIKEI
 62
     1
100
AcDbCircle
 10
27.96924213541175
 20
17.30655527028881
 30
0.0
 40
1.045165779044475
100
AcDbArc
 50
237.4823789366474
 51
310.6226592044148
  0
ARC
  5
1A2
330
2
100
AcDbEntity
  8
GAIKEI
 62
     1
100
AcDbCircle
 10
27.90759841888249
 20
17.21645117100689
 30
0.0
 40
0.936057219272169
100
AcDbArc
 50
190.3972826550525
 51
237.6992655032486
  0
ARC
  5
1A3
330
2
100
AcDbEntity
  8
GAIKEI
 62
     1
100
AcDbCircle
 10
27.97119244664569
 20
17.24498714940733
 30
0.0
 40
0.6121295012982304
100
AcDbArc
 50
239.4834071753849
 51
311.0026550573258
  0
ARC
  5
1A4
330
2
100
AcDbEntity
  8
GAIKEI
 62
     1
100
AcDbCircle
 10
27.91408495046122
 20
17.19746683547447
 30
0.0
 40
0.5435807584707724
100
AcDbArc
 50
170.8675252076695
 51
243.905665887836
  0
ARC
  5
1A5
330
2
100
AcDbEntity
  8
GAIKEI
 62
     1
100
AcDbCircle
 10
27.9253970047736
 20
17.18879289642387
 30
0.0
 40
0.5561673171973335
100
AcDbArc
 50
132.2386828193588
 51
170.1702174557205
  0
LINE
  5
1A6
330
2
100
AcDbEntity
  8
GAIKEI
 62
     1
100
AcDbLine
 10
27.31019888316124
 20
17.0475185867661
 30
0.0
 11
26.44622864890121
 21
17.0475185867661
 31
0.0
  0
LINE
  5
1A7
330
2
100
AcDbEntity
  8
GAIKEI
 62
     1
100
AcDbLine
 10
27.61019888316119
 20
17.25273067276617
 30
0.0
 11
26.81019888316124
 21
17.25273067276617
 31
0.0
  0
LINE
  5
1A8
330
2
100
AcDbEntity
  8
GAIKEI
 62
     1
100
AcDbLine
 10
26.81019888316124
 20
17.25273067276617
 30
0.0
 11
26.81019888316124
 21
17.18432664408618
 31
0.0
  0
LINE
  5
1A9
330
2
100
AcDbEntity
  8
GAIKEI
 62
     1
100
AcDbLine
 10
26.81019888316124
 20
17.18432664408618
 30
0.0
 11
26.41019888316114
 21
17.03397582476617
 31
0.0
  0
LINE
  5
1AA
330
2
100
AcDbEntity
  8
GAIKEI
 62
     1
100
AcDbLine
 10
26.81019888316124
 20
17.25273067276617
 30
0.0
 11
26.41019888316114
 21
17.10237985342615
 31
0.0
  0
LINE
  5
1AB
330
2
100
AcDbEntity
  8
GAIKEI
 62
     1
100
AcDbLine
 10
26.81019888316124
 20
17.6286077210662
 30
0.0
 11
26.41019888316114
 21
17.77895854040622
 31
0.0
  0
LINE
  5
1AC
330
2
100
AcDbEntity
  8
GAIKEI
 62
     1
100
AcDbLine
 10
26.81019888316124
 20
17.6286077210662
 30
0.0
 11
27.61019888316119
 21
17.6286077210662
 31
0.0
  0
LINE
  5
1AD
330
2
100
AcDbEntity
  8
GAIKEI
 62
     1
100
AcDbLine
 10
27.61019888316119
 20
17.6286077210662
 30
0.0
 11
27.61019888316119
 21
17.25273067276617
 31
0.0
  0
LINE
  5
1AE
330
2
100
AcDbEntity
  8
GAIKEI
 62
     1
100
AcDbLine
 10
27.81019888316123
 20
17.5602036924061
 30
0.0
 11
27.81019888316123
 21
16.77390247210616
 31
0.0
  0
LINE
  5
1AF
330
2
100
AcDbEntity
  8
GAIKEI
 62
     1
100
AcDbLine
 10
27.0730233437811
 20
16.70549844344617
 30
0.0
 11
26.81019888316124
 21
16.70549844344617
 31
0.0
  0
LINE
  5
1B0
330
2
100
AcDbEntity
  8
GAIKEI
 62
     1
100
AcDbLine
 10
26.81019888316124
 20
16.70549844344617
 30
0.0
 11
26.81019888316124
 21
16.77390247210616
 31
0.0
  0
LINE
  5
1B1
330
2
100
AcDbEntity
  8
GAIKEI
 62
     1
100
AcDbLine
 10
26.81019888316124
 20
16.77390247210616
 30
0.0
 11
26.41019888316114
 21
16.77390247210616
 31
0.0
  0
LINE
  5
1B2
330
2
100
AcDbEntity
  8
GAIKEI
 62
     1
100
AcDbLine
 10
26.41019888316114
 20
16.91071052942612
 30
0.0
 11
26.99853618764123
 21
16.91071052942612
 31
0.0
  0
LINE
  5
1B3
330
2
100
AcDbEntity
  8
GAIKEI
 62
     1
100
AcDbLine
 10
26.81019888316124
 20
16.77390247210616
 30
0.0
 11
26.41019888316114
 21
16.62355165278615
 31
0.0
  0
LINE
  5
1B4
330
2
100
AcDbEntity
  8
GAIKEI
 62
     1
100
AcDbLine
 10
26.81019888316124
 20
16.70549844344617
 30
0.0
 11
26.41019888316114
 21
16.55514762410627
 31
0.0
  0
ARC
  5
1B5
330
2
100
AcDbEntity
  8
GAIKEI
 62
     1
100
AcDbCircle
 10
27.85587394345603
 20
17.11169095011468
 30
0.0
 40
0.8847788339931478
100
AcDbArc
 50
185.0406475541065
 51
209.5760520662108
  0
ARC
  5
1B6
330
2
100
AcDbEntity
  8
GAIKEI
 62
     1
100
AcDbCircle
 10
27.67243439071231
 20
16.90865674311845
 30
0.0
 40
0.1991285978381516
100
AcDbArc
 50
271.7751683115925
 51
312.5768168761604
  0
ARC
  5
1B7
330
2
100
AcDbEntity
  8
GAIKEI
 62
     1
100
AcDbCircle
 10
27.73416584116663
 20
17.14906112304851
 30
0.0
 40
0.0851477022815608
100
AcDbArc
 50
28.94170905793997
 51
78.54083705754129
  0
ARC
  5
1B8
330
2
100
AcDbEntity
  8
GAIKEI
 62
     1
100
AcDbCircle
 10
27.61711606420377
 20
16.80356587212901
 30
0.0
 40
0.4492180601056332
100
AcDbArc
 50
70.99452144967052
 51
90.88229075950644
  0
ARC
  5
1B9
330
2
100
AcDbEntity
  8
GAIKEI
 62
     1
100
AcDbCircle
 10
27.61711606420377
 20
17.17944292042904
 30
0.0
 40
0.4492180601056332
100
AcDbArc
 50
70.99452144967052
 51
90.88229075950644
  0
ARC
  5
1BA
330
2
100
AcDbEntity
  8
GAIKEI
 62
     1
100
AcDbCircle
 10
27.73416584116663
 20
17.52493817134854
 30
0.0
 40
0.0851477022815608
100
AcDbArc
 50
28.94170905793997
 51
78.54083705754129
  0
LINE
  5
1BB
330
2
100
AcDbEntity
  8
GAIKEI
 62
     1
100
AcDbLine
 10
27.56966298574108
 20
17.64093858376628
 30
0.0
 11
27.56966298574108
 21
17.96672078518628
 31
0.0
  0
ARC
  5
1BC
330
2
100
AcDbEntity
  8
GAIKEI
 62
     1
100
AcDbCircle
 10
27.51457091593002
 20
17.64141008809366
 30
0.0
 40
0.0550940874541619
100
AcDbArc
 50
312.131441465846
 51
359.5096472412156
  0
ARC
  5
1BD
330
2
100
AcDbEntity
  8
GAIKEI
 62
     1
100
AcDbCircle
 10
28.01334335903689
 20
17.06929721902435
 30
0.0
 40
1.086358212306856
100
AcDbArc
 50
119.3866195058045
 51
148.9312674055787
  0
ARC
  5
1BE
330
2
100
AcDbEntity
  8
GAIKEI
 62
     1
100
AcDbCircle
 10
27.50838087184653
 20
17.96113324738309
 30
0.0
 40
0.0615363149862166
100
AcDbArc
 50
5.209669937798508
 51
117.1850021340866
  0
LINE
  5
1BF
330
2
100
AcDbEntity
  8
GAIKEI
 62
     1
100
AcDbLine
 10
34.85875418257294
 20
11.27122899399268
 30
0.0
 11
34.85358294383443
 21
12.53638339288619
 31
0.0
  0
ARC
  5
1C0
330
2
100
AcDbEntity
  8
GAIKEI
 62
     1
100
AcDbCircle
 10
34.89644598847119
 20
13.02980923506021
 30
0.0
 40
0.495284062251922
100
AcDbArc
 50
265.0352783506285
 51
293.270955300858
  0
LINE
  5
1C1
330
2
100
AcDbEntity
  8
GAIKEI
 62
     1
100
AcDbLine
 10
36.18453400691746
 20
10.08986242786619
 30
0.0
 11
31.8501988831612
 21
10.08986242786619
 31
0.0
  0
LINE
  5
1C2
330
2
100
AcDbEntity
  8
GAIKEI
 62
     1
100
AcDbLine
 10
31.8501988831612
 20
9.289862427866239
 30
0.0
 11
36.18453400691746
 21
9.289862427866182
 31
0.0
  0
LINE
  5
1C3
330
2
100
AcDbEntity
  8
GAIKEI
 62
     1
100
AcDbLine
 10
29.05019888316124
 20
11.44153434764627
 30
0.0
 11
29.73019888316108
 21
11.44153434764627
 31
0.0
  0
LINE
  5
1C4
330
2
100
AcDbEntity
  8
GAIKEI
 62
     1
100
AcDbLine
 10
30.13019888316117
 20
11.44153434764627
 30
0.0
 11
31.05019888316125
 21
11.44153434764627
 31
0.0
  0
ARC
  5
1C5
330
2
100
AcDbEntity
  8
GAIKEI
 62
     1
100
AcDbCircle
 10
31.04106573966206
 20
11.03221343770718
 30
0.0
 40
0.4094227907963364
100
AcDbArc
 50
2.155321048199274
 51
88.72177612599854
  0
ARC
  5
1C6
330
2
100
AcDbEntity
  8
GAIKEI
 62
     1
100
AcDbCircle
 10
31.04543791110805
 20
10.76137378418167
 30
0.0
 40
0.402351648156401
100
AcDbArc
 50
8.486525982463222
 51
89.32201105083708
  0
LINE
  5
1C7
330
2
100
AcDbEntity
  8
GAIKEI
 62
     1
100
AcDbLine
 10
29.79239888316115
 20
11.77097575474619
 30
0.0
 11
29.79239888316115
 21
11.38222299804619
 31
0.0
  0
LINE
  5
1C8
330
2
100
AcDbEntity
  8
GAIKEI
 62
     1
100
AcDbLine
 10
29.91239888316128
 20
11.77097575474619
 30
0.0
 11
29.91239888316128
 21
11.37256463298621
 31
0.0
  0
ELLIPSE
  5
1C9
330
2
100
AcDbEntity
  8
GAIKEI
 62
     1
100
AcDbEllipse
 10
29.8523988831611
 20
11.77097575474619
 30
0.0
 11
0.0599999999999909
 21
0.0
 31
0.0
210
0.0
220
0.0
230
1.0
 40
0.1976573406667433
 41
0.0
 42
6.283185307179586
  0
LINE
  5
1CA
330
2
100
AcDbEntity
  8
GAIKEI
 62
     1
100
AcDbLine
 10
29.73019888316108
 20
11.44153434764627
 30
0.0
 11
29.73019888316108
 21
11.40680471210618
 31
0.0
  0
LINE
  5
1CB
330
2
100
AcDbEntity
  8
GAIKEI
 62
     1
100
AcDbLine
 10
30.13019888316117
 20
11.44153434764627
 30
0.0
 11
30.13019888316117
 21
11.40680471210618
 31
0.0
  0
ELLIPSE
  5
1CC
330
2
100
AcDbEntity
  8
GAIKEI
 62
     1
100
AcDbEllipse
 10
29.93019888316112
 20
11.40680471210618
 30
0.0
 11
0.2
 21
0.0
 31
0.0
210
0.0
220
0.0
230
1.0
 40
0.1736481775999437
 41
3.141592653589793
 42
6.283185307179586
  0
LINE
  5
1CD
330
2
100
AcDbEntity
  8
GAIKEI
 62
     1
100
AcDbLine
 10
30.93019888316113
 20
11.40347509388613
 30
0.0
 11
30.93019888316113
 21
9.574265432197591
 31
0.0
  0
ELLIPSE
  5
1CE
330
2
100
AcDbEntity
  8
GAIKEI
 62
     1
100
AcDbEllipse
 10
30.99019888316135
 20
11.40347509388635
 30
0.0
 11
0.0599408669578924
 21
0.0026631688521681
 31
0.0
210
0.0
220
0.0
230
1.0
 40
0.3087124424175067
 41
0.0
 42
6.283185307179586
  0
ARC
  5
1CF
330
2
100
AcDbEntity
  8
GAIKEI
 62
     1
100
AcDbCircle
 10
29.94617776121245
 20
10.29833133814423
 30
0.0
 40
0.0615259181846637
100
AcDbArc
 50
12.46826699296068
 51
168.2968995984463
  0
ARC
  5
1D0
330
2
100
AcDbEntity
  8
GAIKEI
 62
     1
100
AcDbCircle
 10
114.036124515018
 20
5.860457688029157
 30
0.0
 40
84.26779183194168
100
AcDbArc
 50
176.9726849113748
 51
177.796495771777
  0
ARC
  5
1D1
330
2
100
AcDbEntity
  8
GAIKEI
 62
     1
100
AcDbCircle
 10
30.06617561723229
 20
10.29833906374421
 30
0.0
 40
0.0615259181846637
100
AcDbArc
 50
12.46826699296068
 51
168.2968995984463
  0
ARC
  5
1D2
330
2
100
AcDbEntity
  8
GAIKEI
 62
     1
100
AcDbCircle
 10
114.1561223710381
 20
5.860465413629128
 30
0.0
 40
84.26779183194168
100
AcDbArc
 50
176.9726849113748
 51
177.796495771777
  0
ARC
  5
1D3
330
2
100
AcDbEntity
  8
GAIKEI
 62
     1
100
AcDbCircle
 10
30.18617547125237
 20
10.29833982506426
 30
0.0
 40
0.0615259181846637
100
AcDbArc
 50
12.46826699296068
 51
168.2968995984463
  0
ARC
  5
1D4
330
2
100
AcDbEntity
  8
GAIKEI
 62
     1
100
AcDbCircle
 10
114.2761222250582
 20
5.860466174949067
 30
0.0
 40
84.26779183194168
100
AcDbArc
 50
176.9726849113748
 51
177.796495771777
  0
ARC
  5
1D5
330
2
100
AcDbEntity
  8
GAIKEI
 62
     1
100
AcDbCircle
 10
30.30616734237233
 20
10.29836948884423
 30
0.0
 40
0.0615259181846637
100
AcDbArc
 50
12.46826699296068
 51
168.2968995984463
  0
ARC
  5
1D6
330
2
100
AcDbEntity
  8
GAIKEI
 62
     1
100
AcDbCircle
 10
114.3961140961781
 20
5.86049583872915
 30
0.0
 40
84.26779183194168
100
AcDbArc
 50
176.9726849113748
 51
177.796495771777
  0
ARC
  5
1D7
330
2
100
AcDbEntity
  8
GAIKEI
 62
     1
100
AcDbCircle
 10
30.42617588197245
 20
10.29833845852425
 30
0.0
 40
0.0615259181846637
100
AcDbArc
 50
12.46826699296068
 51
168.2968995984463
  0
ARC
  5
1D8
330
2
100
AcDbEntity
  8
GAIKEI
 62
     1
100
AcDbCircle
 10
114.5161226357783
 20
5.860464808409062
 30
0.0
 40
84.26779183194168
100
AcDbArc
 50
176.9726849113748
 51
177.796495771777
  0
ARC
  5
1D9
330
2
100
AcDbEntity
  8
GAIKEI
 62
     1
100
AcDbCircle
 10
30.54617660129239
 20
10.29833546618425
 30
0.0
 40
0.0615259181846637
100
AcDbArc
 50
12.46826699296068
 51
168.2968995984463
  0
ARC
  5
1DA
330
2
100
AcDbEntity
  8
GAIKEI
 62
     1
100
AcDbCircle
 10
114.6361233550981
 20
5.860461816069062
 30
0.0
 40
84.26779183194168
100
AcDbArc
 50
176.9726849113748
 51
177.796495771777
  0
ARC
  5
1DB
330
2
100
AcDbEntity
  8
GAIKEI
 62
     1
100
AcDbCircle
 10
30.66616978241237
 20
10.29836062850432
 30
0.0
 40
0.0615259181846637
100
AcDbArc
 50
12.46826699296068
 51
168.2968995984463
  0
ARC
  5
1DC
330
2
100
AcDbEntity
  8
GAIKEI
 62
     1
100
AcDbCircle
 10
114.7561165362183
 20
5.860486978389019
 30
0.0
 40
84.26779183194168
100
AcDbArc
 50
176.9726849113748
 51
177.796495771777
  0
ARC
  5
1DD
330
2
100
AcDbEntity
  8
GAIKEI
 62
     1
100
AcDbCircle
 10
30.78617283299232
 20
10.29834942168423
 30
0.0
 40
0.0615259181846637
100
AcDbArc
 50
12.46826699296068
 51
168.2968995984463
  0
ARC
  5
1DE
330
2
100
AcDbEntity
  8
GAIKEI
 62
     1
100
AcDbCircle
 10
114.8761195867981
 20
5.860475771569156
 30
0.0
 40
84.26779183194168
100
AcDbArc
 50
176.9726849113748
 51
177.796495771777
  0
ARC
  5
1DF
330
2
100
AcDbEntity
  8
GAIKEI
 62
     1
100
AcDbCircle
 10
30.90649461470335
 20
10.29915286285137
 30
0.0
 40
0.0615259181846637
100
AcDbArc
 50
67.33931719964665
 51
168.2968995984463
  0
ARC
  5
1E0
330
2
100
AcDbEntity
  8
GAIKEI
 62
     1
100
AcDbCircle
 10
114.9961127679182
 20
5.860500933888999
 30
0.0
 40
84.26779183194168
100
AcDbArc
 50
176.9726849113748
 51
177.796495771777
  0
ARC
  5
1E1
330
2
100
AcDbEntity
  8
GAIKEI
 62
     1
100
AcDbCircle
 10
115.1161158184981
 20
5.860489727069136
 30
0.0
 40
84.26779183194168
100
AcDbArc
 50
177.4740928897164
 51
177.796495771777
  0
ARC
  5
1E2
330
2
100
AcDbEntity
  8
GAIKEI
 62
     1
100
AcDbCircle
 10
30.00595416782577
 20
9.08106175661743
 30
0.0
 40
0.0611940632456685
100
AcDbArc
 50
192.2405485734287
 51
324.9108524929604
  0
LINE
  5
1E3
330
2
100
AcDbEntity
  8
GAIKEI
 62
     1
100
AcDbLine
 10
30.05602673729314
 20
9.045884332558387
 30
0.0
 11
30.07064080190108
 21
9.100472120286269
 31
0.0
  0
ARC
  5
1E4
330
2
100
AcDbEntity
  8
GAIKEI
  6
Continuous
 62
     1
100
AcDbCircle
 10
29.88497874940563
 20
9.080059487357459
 30
0.0
 40
0.0611940632456685
100
AcDbArc
 50
192.2405485734287
 51
324.9108524929604
  0
LINE
  5
1E5
330
2
100
AcDbEntity
  8
GAIKEI
 62
     1
100
AcDbLine
 10
29.93505131887324
 20
9.044882063298416
 30
0.0
 11
29.94966538348118
 21
9.099469851026299
 31
0.0
  0
ARC
  5
1E6
330
2
100
AcDbEntity
  8
GAIKEI
 62
     1
100
AcDbCircle
 10
31.88142306967703
 20
9.320349705994942
 30
0.0
 40
2.071785558764843
100
AcDbArc
 50
180.843167731102
 51
187.0216562016359
  0
ARC
  5
1E7
330
2
100
AcDbEntity
  8
GAIKEI
 62
     1
100
AcDbCircle
 10
30.12594603894573
 20
9.081091420397399
 30
0.0
 40
0.0611940632456685
100
AcDbArc
 50
192.2405485734287
 51
324.9108524929604
  0
ARC
  5
1E8
330
2
100
AcDbEntity
  8
GAIKEI
 62
     1
100
AcDbCircle
 10
30.24486278660575
 20
9.079046791177404
 30
0.0
 40
0.0611940632456685
100
AcDbArc
 50
192.2405485734287
 51
324.9108524929604
  0
ARC
  5
1E9
330
2
100
AcDbEntity
  8
GAIKEI
 62
     1
100
AcDbCircle
 10
30.3662239030256
 20
9.083846715497486
 30
0.0
 40
0.0611940632456685
100
AcDbArc
 50
192.2405485734287
 51
324.9108524929604
  0
ARC
  5
1EA
330
2
100
AcDbEntity
  8
GAIKEI
 62
     1
100
AcDbCircle
 10
30.48656025744563
 20
9.087332120137318
 30
0.0
 40
0.0611940632456685
100
AcDbArc
 50
192.2405485734287
 51
324.9108524929604
  0
ARC
  5
1EB
330
2
100
AcDbEntity
  8
GAIKEI
 62
     1
100
AcDbCircle
 10
30.6064232606656
 20
9.086026172877438
 30
0.0
 40
0.0611940632456685
100
AcDbArc
 50
192.2405485734287
 51
324.9108524929604
  0
ARC
  5
1EC
330
2
100
AcDbEntity
  8
GAIKEI
 62
     1
100
AcDbCircle
 10
30.72641644178558
 20
9.086051335197396
 30
0.0
 40
0.0611940632456685
100
AcDbArc
 50
192.2405485734287
 51
324.9108524929604
  0
ARC
  5
1ED
330
2
100
AcDbEntity
  8
GAIKEI
 62
     1
100
AcDbCircle
 10
30.84641949236553
 20
9.086040128377419
 30
0.0
 40
0.0611940632456685
100
AcDbArc
 50
192.2405485734287
 51
324.9108524929604
  0
ARC
  5
1EE
330
2
100
AcDbEntity
  8
GAIKEI
 62
     1
100
AcDbCircle
 10
30.96642254294548
 20
9.086028921557328
 30
0.0
 40
0.0611940632456685
100
AcDbArc
 50
192.2405485734287
 51
324.9108524929604
  0
ARC
  5
1EF
330
2
100
AcDbEntity
  8
GAIKEI
 62
     1
100
AcDbCircle
 10
21.93203066009951
 20
9.724793607303752
 30
0.0
 40
9.120880022909876
100
AcDbArc
 50
356.0756024512941
 51
358.595101037854
  0
ARC
  5
1F0
330
2
100
AcDbEntity
  8
GAIKEI
 62
     1
100
AcDbCircle
 10
30.26954225191705
 20
14.546779646233
 30
0.0
 40
0.2699187182757181
100
AcDbArc
 50
150.4540628451341
 51
250.4837319389917
  0
LINE
  5
1F1
330
2
100
AcDbEntity
  8
GAIKEI
 62
     1
100
AcDbLine
 10
35.09358294383444
 20
16.33456132999902
 30
0.0
 11
35.49355761130741
 21
16.33456132999902
 31
0.0
  0
LINE
  5
1F2
330
2
100
AcDbEntity
  8
GAIKEI
 62
     1
100
AcDbLine
 10
35.09358294383444
 20
16.10904109904146
 30
0.0
 11
35.49355761130736
 21
16.10904109904146
 31
0.0
  0
LINE
  5
1F3
330
2
100
AcDbEntity
  8
GAIKEI
 62
     1
100
AcDbLine
 10
35.2848964225341
 20
14.99145763598625
 30
0.0
 11
35.2848964225341
 21
16.26639215942788
 31
0.0
  0
LINE
  5
1F4
330
2
100
AcDbEntity
  8
GAIKEI
 62
     1
100
AcDbLine
 10
35.08478692182527
 20
15.49918357307166
 30
0.0
 11
35.4845172553535
 21
15.49918357307166
 31
0.0
  0
LINE
  5
1F5
330
2
100
AcDbEntity
  8
GAIKEI
 62
     1
100
AcDbLine
 10
35.4845172553535
 20
15.49918357307166
 30
0.0
 11
35.4845172553535
 21
14.7898821316092
 31
0.0
  0
LINE
  5
1F6
330
2
100
AcDbEntity
  8
GAIKEI
 62
     1
100
AcDbLine
 10
35.4845172553535
 20
14.7898821316092
 30
0.0
 11
35.08478692182527
 21
14.7898821316092
 31
0.0
  0
LINE
  5
1F7
330
2
100
AcDbEntity
  8
GAIKEI
 62
     1
100
AcDbLine
 10
35.08478692182527
 20
14.99145763598625
 30
0.0
 11
35.48451725535355
 21
14.99145763598625
 31
0.0
  0
LINE
  5
1F8
330
2
100
AcDbEntity
  8
GAIKEI
 62
     1
100
AcDbLine
 10
35.09358294383444
 20
14.15730154878235
 30
0.0
 11
35.49355761130736
 21
14.15730154878235
 31
0.0
  0
LINE
  5
1F9
330
2
100
AcDbEntity
  8
GAIKEI
 62
     1
100
AcDbLine
 10
35.29369244454327
 20
14.15730154878235
 30
0.0
 11
35.29369244454327
 21
13.92713897287552
 31
0.0
  0
LINE
  5
1FA
330
2
100
AcDbEntity
  8
GAIKEI
 62
     1
100
AcDbLine
 10
35.29369244454327
 20
13.92713897287552
 30
0.0
 11
35.49355761130741
 21
13.92713897287552
 31
0.0
  0
LINE
  5
1FB
330
2
100
AcDbEntity
  8
GAIKEI
 62
     1
100
AcDbLine
 10
35.49355761130736
 20
14.15730154878235
 30
0.0
 11
35.49355761130736
 21
13.76490123359508
 31
0.0
  0
LINE
  5
1FC
330
2
100
AcDbEntity
  8
GAIKEI
 62
     1
100
AcDbLine
 10
35.49355761130736
 20
13.76490123359508
 30
0.0
 11
35.49355761130741
 21
13.98748945721627
 31
0.0
  0
LINE
  5
1FD
330
2
100
AcDbEntity
  8
GAIKEI
 62
     1
100
AcDbLine
 10
35.49355761130741
 20
13.98748945721627
 30
0.0
 11
37.093700615144
 21
13.98748945721627
 31
0.0
  0
ARC
  5
1FE
330
2
100
AcDbEntity
  8
GAIKEI
 62
     1
100
AcDbCircle
 10
36.29362911322565
 20
13.79043966521527
 30
0.0
 40
0.8004789938976635
100
AcDbArc
 50
181.8282712002281
 51
358.1717287997719
  0
LINE
  5
1FF
330
2
100
AcDbEntity
  8
GAIKEI
 62
     1
100
AcDbLine
 10
37.09370061514395
 20
13.76490123359508
 30
0.0
 11
37.093700615144
 21
16.62654039391481
 31
0.0
  0
LINE
  5
200
330
2
100
AcDbEntity
  8
GAIKEI
 62
     1
100
AcDbLine
 10
37.093700615144
 20
16.51365811146377
 30
0.0
 11
36.28495525818889
 21
16.51365811146377
 31
0.0
  0
LINE
  5
201
330
2
100
AcDbEntity
  8
GAIKEI
 62
     1
100
AcDbLine
 10
35.49355761130741
 20
15.2304162339023
 30
0.0
 11
37.093700615144
 21
15.2304162339023
 31
0.0
  0
ARC
  5
202
330
2
100
AcDbEntity
  8
GAIKEI
 62
     1
100
AcDbCircle
 10
36.29362911322571
 20
15.56666975067116
 30
0.0
 40
0.8827069215739831
100
AcDbArc
 50
204.9896545653786
 51
335.0103454346213
  0
ARC
  5
203
330
2
100
AcDbEntity
  8
GAIKEI
 62
     1
100
AcDbCircle
 10
36.29161887041093
 20
15.39308157971624
 30
0.0
 40
0.8888565262086983
100
AcDbArc
 50
206.122908261742
 51
334.4720036337234
  0
LINE
  5
204
330
2
100
AcDbEntity
  8
GAIKEI
 62
     1
100
AcDbLine
 10
36.28226758479716
 20
15.26486732010488
 30
0.0
 11
36.28226758479716
 21
16.74430935525998
 31
0.0
  0
ARC
  5
205
330
2
100
AcDbEntity
  8
GAIKEI
 62
     1
100
AcDbCircle
 10
36.29362911322565
 20
16.66729081195188
 30
0.0
 40
0.8011086098351404
100
AcDbArc
 50
357.0842467440048
 51
182.9157532559955
  0
LINE
  5
206
330
2
100
AcDbEntity
  8
GAIKEI
 62
     1
100
AcDbLine
 10
35.49355761130736
 20
16.62654039391481
 30
0.0
 11
35.49355761130736
 21
16.10904109904146
 31
0.0
  0
ARC
  5
207
330
2
100
AcDbEntity
  8
GAIKEI
 62
     1
100
AcDbCircle
 10
35.26562705059215
 20
16.64716473292316
 30
0.0
 40
1.021271292770723
100
AcDbArc
 50
5.458299677447761
 51
93.59563494100031
  0
LINE
  5
208
330
2
100
AcDbEntity
  8
GAIKEI
 62
     1
100
AcDbLine
 10
35.08478692182527
 20
11.27122899399268
 30
0.0
 11
34.40480555372673
 21
11.27122899399268
 31
0.0
  0
LINE
  5
209
330
2
100
AcDbEntity
  8
GAIKEI
 62
     1
100
AcDbLine
 10
34.40480555372673
 20
11.27122899399268
 30
0.0
 11
34.40480555372673
 21
10.88713603292513
 31
0.0
  0
LINE
  5
20A
330
2
100
AcDbEntity
  8
GAIKEI
 62
     1
100
AcDbLine
 10
34.40480555372673
 20
10.88713603292513
 30
0.0
 11
36.42446994061223
 21
10.88713603292513
 31
0.0
  0
LINE
  5
20B
330
2
100
AcDbEntity
  8
GAIKEI
 62
     1
100
AcDbLine
 10
36.42446994061223
 20
10.88713603292513
 30
0.0
 11
36.42446994061223
 21
8.893859712067126
 31
0.0
  0
LINE
  5
20C
330
2
100
AcDbEntity
  8
GAIKEI
 62
     1
100
AcDbLine
 10
36.18453400691746
 20
10.88713603292513
 30
0.0
 11
36.18453400691746
 21
8.893859712067126
 31
0.0
  0
LINE
  5
20D
330
2
100
AcDbEntity
  8
GAIKEI
 62
     1
100
AcDbLine
 10
36.42446994061223
 20
8.893859712067126
 30
0.0
 11
34.40480555372673
 21
8.893859712067126
 31
0.0
  0
LINE
  5
20E
330
2
100
AcDbEntity
  8
GAIKEI
 62
     1
100
AcDbLine
 10
34.40480555372673
 20
8.893859712067126
 30
0.0
 11
34.40480555372673
 21
8.510255418889016
 31
0.0
  0
LINE
  5
20F
330
2
100
AcDbEntity
  8
GAIKEI
 62
     1
100
AcDbLine
 10
34.40480555372673
 20
8.510255418889016
 30
0.0
 11
35.09358294383444
 21
8.510255418889016
 31
0.0
  0
LINE
  5
210
330
2
100
AcDbEntity
  8
GAIKEI
 62
     1
100
AcDbLine
 10
34.84485098813045
 20
8.893859712067126
 30
0.0
 11
34.84485098813045
 21
8.510255418889016
 31
0.0
  0
LINE
  5
211
330
2
100
AcDbEntity
  8
GAIKEI
 62
     1
100
AcDbLine
 10
35.09333860988974
 20
8.893859712067126
 30
0.0
 11
35.09358294383444
 21
9.301164397881109
 31
0.0
  0
LINE
  5
212
330
2
100
AcDbEntity
  8
GAIKEI
 62
     1
100
AcDbLine
 10
34.84485098813045
 20
11.27122899399268
 30
0.0
 11
34.84485098813045
 21
10.88713603292513
 31
0.0
  0
ARC
  5
213
330
2
100
AcDbEntity
  8
GAIKEI
 62
     1
100
AcDbCircle
 10
36.29362911322571
 20
7.922384790842386
 30
0.0
 40
0.8001311548760757
100
AcDbArc
 50
180.6996417687133
 51
359.3003582312867
  0
ARC
  5
214
330
2
100
AcDbEntity
  8
GAIKEI
 62
     1
100
AcDbCircle
 10
36.29455736389699
 20
10.64917652624734
 30
0.0
 40
0.8018233047996933
100
AcDbArc
 50
355.3141209949939
 51
162.8823217336901
  0
ARC
  5
215
330
2
100
AcDbEntity
  8
GAIKEI
 62
     1
100
AcDbCircle
 10
37.57784830524494
 20
9.701261232326373
 30
0.0
 40
0.5999620136432279
100
AcDbArc
 50
269.9883352109002
 51
90.01166478910191
  0
LINE
  5
216
330
2
100
AcDbEntity
  8
GAIKEI
 62
     1
100
AcDbLine
 10
36.93781555842574
 20
10.51135042597741
 30
0.0
 11
37.5777261595936
 21
10.51135042597735
 31
0.0
  0
LINE
  5
217
330
2
100
AcDbEntity
  8
GAIKEI
 62
     1
100
AcDbLine
 10
37.5777261595936
 20
10.51135042597735
 30
0.0
 11
37.5777261595936
 21
8.891172038675449
 31
0.0
  0
LINE
  5
218
330
2
100
AcDbEntity
  8
GAIKEI
 62
     1
100
AcDbLine
 10
37.5777261595936
 20
8.891172038675449
 30
0.0
 11
36.93781555842574
 21
8.891172038675449
 31
0.0
  0
LINE
  5
219
330
2
100
AcDbEntity
  8
GAIKEI
 62
     1
100
AcDbLine
 10
36.93781555842574
 20
8.891172038675449
 30
0.0
 11
36.93781555842574
 21
10.51135042597735
 31
0.0
  0
LINE
  5
21A
330
2
100
AcDbEntity
  8
GAIKEI
 62
     1
100
AcDbLine
 10
36.42446994061223
 20
10.10111373282706
 30
0.0
 11
37.5777261595936
 21
10.10697774749985
 31
0.0
  0
LINE
  5
21B
330
2
100
AcDbEntity
  8
GAIKEI
 62
     1
100
AcDbLine
 10
36.42446994061223
 20
9.301164397881109
 30
0.0
 11
37.5777261595936
 21
9.295056049263621
 31
0.0
  0
LINE
  5
21C
330
2
100
AcDbEntity
  8
GAIKEI
 62
     1
100
AcDbLine
 10
35.49355761130741
 20
8.109547749581963
 30
0.0
 11
37.093700615144
 21
8.109547749581963
 31
0.0
  0
LINE
  5
21D
330
2
100
AcDbEntity
  8
GAIKEI
 62
     1
100
AcDbLine
 10
35.49355761130736
 20
7.912614590154134
 30
0.0
 11
35.49355761130736
 21
8.319674942023482
 31
0.0
  0
LINE
  5
21E
330
2
100
AcDbEntity
  8
GAIKEI
 62
     1
100
AcDbLine
 10
35.49355761130736
 20
8.319674942023482
 30
0.0
 11
35.09358294383444
 21
8.319674942023482
 31
0.0
  0
LINE
  5
21F
330
2
100
AcDbEntity
  8
GAIKEI
 62
     1
100
AcDbLine
 10
35.08478692182527
 20
8.729667301229085
 30
0.0
 11
35.4845172553535
 21
8.729667301229085
 31
0.0
  0
LINE
  5
220
330
2
100
AcDbEntity
  8
GAIKEI
 62
     1
100
AcDbLine
 10
35.4845172553535
 20
8.729667301229085
 30
0.0
 11
35.49600095075439
 21
8.893859712067182
 31
0.0
  0
ARC
  5
221
330
2
100
AcDbEntity
  8
GAIKEI
 62
     1
100
AcDbCircle
 10
36.29603663538742
 20
9.736772432224427
 30
0.0
 40
1.096210898120284
100
AcDbArc
 50
230.0588346962619
 51
308.6097035887121
  0
LINE
  5
222
330
2
100
AcDbEntity
  8
GAIKEI
 62
     1
100
AcDbLine
 10
37.08832526836065
 20
8.881398680887514
 30
0.0
 11
37.093700615144
 21
7.912614590154134
 31
0.0
  0
LINE
  5
223
330
2
100
AcDbEntity
  8
GAIKEI
 62
     1
100
AcDbLine
 10
35.2848964225341
 20
8.319430608078789
 30
0.0
 11
35.2848964225341
 21
7.272703988986449
 31
0.0
  0
ARC
  5
224
330
2
100
AcDbEntity
  8
GAIKEI
 62
     1
100
AcDbCircle
 10
35.78169884489037
 20
7.27268885990145
 30
0.0
 40
0.4968024225866758
100
AcDbArc
 50
179.9982551761468
 51
342.455226572392
  0
ARC
  5
225
330
2
100
AcDbEntity
  8
GAIKEI
 62
     1
100
AcDbCircle
 10
36.29583259150181
 20
9.356531428452569
 30
0.0
 40
0.9240106983599625
100
AcDbArc
 50
210.0477235898279
 51
329.0555370802546
  0
ARC
  5
226
330
2
100
AcDbEntity
  8
GAIKEI
 62
     1
100
AcDbCircle
 10
26.21019888316116
 20
12.19586821280319
 30
0.0
 40
0.200000000000028
100
AcDbArc
 50
112.6198649480284
 51
247.3801350519498
  0
LINE
  5
227
330
2
100
AcDbEntity
  8
GAIKEI
 62
     1
100
AcDbLine
 10
26.133275806238
 20
12.38048359741862
 30
0.0
 11
26.41019888316114
 21
12.49586821280314
 31
0.0
  0
LINE
  5
228
330
2
100
AcDbEntity
  8
GAIKEI
 62
     1
100
AcDbLine
 10
26.133275806238
 20
12.01125282818776
 30
0.0
 11
26.41019888316114
 21
11.89586821280324
 31
0.0
  0
DIMENSION
  5
229
330
2
100
AcDbEntity
  8
SUNPO
100
AcDbDimension
  2
*D4
 10
1.608773373787415
 20
38.98259359314119
 30
0.0
 11
-16.99122662621258
 21
40.73259359314119
 31
0.0
 70
    33
  1
φ186
 71
     5
 42
37.19999999999999
  3
STANDARD
100
AcDbAlignedDimension
 13
-35.59122662621258
 23
30.98259359314119
 33
0.0
 14
1.608773373787414
 24
30.98259359314119
 34
0.0
1001
ACAD
1000
DSTYLE
1002
{
1070
    40
1040
1.0
1070
   140
1040
2.5
1070
   147
1040
0.5
1070
   172
1070
     1
1070
   279
1070
     0
1070
   288
1070
     0
1002
}
  0
DIMENSION
  5
237
330
2
100
AcDbEntity
  8
SUNPO
100
AcDbDimension
  2
*D3
 10
26.41019888316114
 20
38.98259359314119
 30
0.0
 11
34.24353221649448
 21
40.73259359314119
 31
0.0
 70
    33
  1
7.5
 71
     5
 42
1.503917062666573
  3
STANDARD
100
AcDbAlignedDimension
 13
24.90628182049457
 23
30.98259359314119
 33
0.0
 14
26.41019888316114
 24
30.98259359314119
 34
0.0
1001
ACAD
1000
DSTYLE
1002
{
1070
    40
1040
1.0
1070
   140
1040
2.5
1070
   147
1040
0.5
1070
   172
1070
     1
1070
   279
1070
     0
1070
   288
1070
     0
1002
}
  0
ENDSEC
  0
SECTION
  2
OBJECTS
  0
DICTIONARY
  5
9
330
0
100
AcDbDictionary
281
     1
  3
ACAD_COLOR
350
2E
  3
ACAD_GROUP
350
2A
  3
ACAD_LAYOUT
350
D
  3
ACAD_MATERIAL
350
2D
  3
ACAD_MLINESTYLE
350
2B
  3
ACAD_PLOTSETTINGS
350
2C
  3
ACAD_PLOTSTYLENAME
350
8
  3
ACDBHEADERROUNDTRIPXREC
350
27C
  3
AcDbVariableDictionary
350
277
  3
ASE_INDEX_DICTIONARY
350
24E
  0
DICTIONARY
  5
13
330
12
100
AcDbDictionary
280
     1
281
     1
  3
ACAD_LAYERSTATES
360
14
  0
DICTIONARY
  5
3
330
2
100
AcDbDictionary
280
     1
281
     1
  3
ACAD_SORTENTS
360
4
  0
DICTIONARY
  5
2E
102
{ACAD_REACTORS
330
9
102
}
330
9
100
AcDbDictionary
281
     1
  0
DICTIONARY
  5
2A
102
{ACAD_REACTORS
330
9
102
}
330
9
100
AcDbDictionary
281
     1
  0
DICTIONARY
  5
D
102
{ACAD_REACTORS
330
9
102
}
330
9
100
AcDbDictionary
281
     1
  3
Model
350
C
  3
レイアウト1
350
11
  0
DICTIONARY
  5
2D
102
{ACAD_REACTORS
330
9
102
}
330
9
100
AcDbDictionary
281
     1
  0
DICTIONARY
  5
2B
102
{ACAD_REACTORS
330
9
102
}
330
9
100
AcDbDictionary
281
     1
  3
Standard
350
30
  0
DICTIONARY
  5
2C
102
{ACAD_REACTORS
330
9
102
}
330
9
100
AcDbDictionary
281
     1
  0
ACDBDICTIONARYWDFLT
  5
8
102
{ACAD_REACTORS
330
9
102
}
330
9
100
AcDbDictionary
281
     1
  3
Normal
350
7
100
AcDbDictionaryWithDefault
340
7
  0
DICTIONARY
  5
27C
102
{ACAD_REACTORS
330
9
102
}
330
9
100
AcDbDictionary
281
     1
  3
COLORDICT
350
27E
  3
MATERIALDICT
350
27D
  0
DICTIONARY
  5
277
102
{ACAD_REACTORS
330
9
102
}
330
9
100
AcDbDictionary
281
     1
  3
DIMASSOC
350
279
  3
HIDETEXT
350
278
  3
PROJECTNAME
350
27A
  0
DICTIONARY
  5
24E
102
{ACAD_REACTORS
330
9
102
}
330
9
100
AcDbDictionary
281
     1
  3
ASEBlockHierarchyIndexRecord
350
250
1001
DCO15
1040
1627816350.57
  0
DICTIONARY
  5
14
102
{ACAD_REACTORS
330
13
102
}
330
13
100
AcDbDictionary
281
     1
  0
SORTENTSTABLE
  5
4
102
{ACAD_REACTORS
330
3
102
}
330
3
100
AcDbSortentsTable
330
2
  0
LAYOUT
  5
C
102
{ACAD_XDICTIONARY
360
27F
102
}
102
{ACAD_REACTORS
330
D
102
}
330
D
100
AcDbPlotSettings
  1

  2
Ａ４－縦3FRIM01.pc3
  4
A4
  6

 40
5.873749732971191
 41
5.873747825622558
 42
5.873748779296875
 43
5.873748779296875
 44
209.9733276367187
 45
296.9259948730469
 46
5.429999999999999
 47
0.0
 48
0.0
 49
0.0
140
0.0
141
0.0
142
1.0
143
1.382519875882017
 70
 11956
 72
     1
 73
     0
 74
     1
  7
tmsacad.ctb
 75
     0
147
0.7233169066462946
148
0.0108013803875338
149
0.0238800872667753
100
AcDbLayout
  1
Model
 70
     1
 71
     0
 10
0.0
 20
0.0
 11
12.0
 21
9.0
 12
0.0
 22
0.0
 32
0.0
 14
0.0
 24
0.0
 34
0.0
 15
0.0
 25
0.0
 35
0.0
146
0.0
 13
0.0
 23
0.0
 33
0.0
 16
1.0
 26
0.0
 36
0.0
 17
0.0
 27
1.0
 37
0.0
 76
     0
330
2
  0
LAYOUT
  5
11
102
{ACAD_XDICTIONARY
360
281
102
}
102
{ACAD_REACTORS
330
D
102
}
330
D
100
AcDbPlotSettings
  1

  2
None
  4

  6

 40
0.0
 41
0.0
 42
0.0
 43
0.0
 44
0.0
 45
0.0
 46
0.0
 47
0.0
 48
0.0
 49
0.0
140
0.0
141
0.0
142
1.0
143
1.0
 70
   688
 72
     0
 73
     0
 74
     5
  7
tmsacad.ctb
 75
    16
147
1.0
148
0.0
149
0.0
100
AcDbLayout
  1
レイアウト1
 70
     1
 71
     1
 10
0.0
 20
0.0
 11
12.0
 21
9.0
 12
0.0
 22
0.0
 32
0.0
 14
0.0
 24
0.0
 34
0.0
 15
0.0
 25
0.0
 35
0.0
146
0.0
 13
0.0
 23
0.0
 33
0.0
 16
1.0
 26
0.0
 36
0.0
 17
0.0
 27
1.0
 37
0.0
 76
     0
330
E
  0
MLINESTYLE
  5
30
102
{ACAD_REACTORS
330
2B
102
}
330
2B
100
AcDbMlineStyle
  2
STANDARD
 70
     0
  3

 62
   256
 51
90.0
 52
90.0
 71
     2
 49
0.5
 62
   256
  6
BYLAYER
 49
-0.5
 62
   256
  6
BYLAYER
  0
ACDBPLACEHOLDER
  5
7
102
{ACAD_REACTORS
330
8
102
}
330
8
  0
XRECORD
  5
27E
102
{ACAD_REACTORS
330
27C
102
}
330
27C
100
AcDbXrecord
280
     1
340
2E
  0
XRECORD
  5
27D
102
{ACAD_REACTORS
330
27C
102
}
330
27C
100
AcDbXrecord
280
     1
340
2D
  0
DICTIONARYVAR
  5
279
102
{ACAD_REACTORS
330
277
102
}
330
277
100
DictionaryVariables
280
     0
  1
1
  0
DICTIONARYVAR
  5
278
102
{ACAD_REACTORS
330
277
102
}
330
277
100
DictionaryVariables
280
     0
  1
1
  0
DICTIONARYVAR
  5
27A
102
{ACAD_REACTORS
330
277
102
}
330
277
100
DictionaryVariables
280
     0
  1

  0
XRECORD
  5
250
102
{ACAD_REACTORS
330
24E
102
}
330
24E
100
AcDbXrecord
280
     1
330
22F
330
230
330
23F
330
240
330
263
330
264
330
26F
330
270
  0
DICTIONARY
  5
27F
330
C
100
AcDbDictionary
280
     1
281
     1
  3
ACAD_XREC_ROUNDTRIP
360
280
  0
DICTIONARY
  5
281
330
11
100
AcDbDictionary
280
     1
281
     1
  3
ACAD_XREC_ROUNDTRIP
360
282
  0
XRECORD
  5
280
102
{ACAD_REACTORS
330
27F
102
}
330
27F
100
AcDbXrecord
280
     1
102
SHADEPLOT
 70
     0
102
SHADEPLOTRESLEVEL
 70
     2
102
SHADEPLOTCUSTOMDPI
 70
   300
  0
XRECORD
  5
282
102
{ACAD_REACTORS
330
281
102
}
330
281
100
AcDbXrecord
280
     1
102
SHADEPLOT
 70
     0
102
SHADEPLOTRESLEVEL
 70
     2
102
SHADEPLOTCUSTOMDPI
 70
   300
  0
ENDSEC
  0
EOF
