  0
SECTION
  2
HEADER
  9
$ACADVER
  1
AC1015
  9
$ACADMAINTVER
 70
     6
  9
$DWGCODEPAGE
  3
ANSI_932
  9
$INSBASE
 10
0.0
 20
0.0
 30
0.0
  9
$EXTMIN
 10
1.966995743039206
 20
-115.0105722820545
 30
-0.0015258207003583
  9
$EXTMAX
 10
127.0475047130039
 20
-1.999970753812704
 30
0.0000000349246037
  9
$LIMMIN
 10
-1101.784450318844
 20
-1579.160531687244
  9
$LIMMAX
 10
-508.2420711400537
 20
-1161.440814074914
  9
$ORTHOMODE
 70
     0
  9
$REGENMODE
 70
     1
  9
$FILLMODE
 70
     1
  9
$QTEXTMODE
 70
     0
  9
$MIRRTEXT
 70
     1
  9
$LTSCALE
 40
1.0
  9
$ATTMODE
 70
     1
  9
$TEXTSIZE
 40
3.0
  9
$TRACEWID
 40
0.5
  9
$TEXTSTYLE
  7
STANDARD
  9
$CLAYER
  8
SUNPO
  9
$CELTYPE
  6
ByLayer
  9
$CECOLOR
 62
   256
  9
$CELTSCALE
 40
1.0
  9
$DISPSILH
 70
     0
  9
$DIMSCALE
 40
1.0
  9
$DIMASZ
 40
2.0
  9
$DIMEXO
 40
2.0
  9
$DIMDLI
 40
8.0
  9
$DIMRND
 40
0.0
  9
$DIMDLE
 40
0.0
  9
$DIMEXE
 40
2.0
  9
$DIMTP
 40
0.0
  9
$DIMTM
 40
0.0
  9
$DIMTXT
 40
2.5
  9
$DIMCEN
 40
0.0
  9
$DIMTSZ
 40
0.0
  9
$DIMTOL
 70
     0
  9
$DIMLIM
 70
     0
  9
$DIMTIH
 70
     0
  9
$DIMTOH
 70
     0
  9
$DIMSE1
 70
     0
  9
$DIMSE2
 70
     0
  9
$DIMTAD
 70
     3
  9
$DIMZIN
 70
     0
  9
$DIMBLK
  1

  9
$DIMASO
 70
     1
  9
$DIMSHO
 70
     1
  9
$DIMPOST
  1

  9
$DIMAPOST
  1

  9
$DIMALT
 70
     0
  9
$DIMALTD
 70
     2
  9
$DIMALTF
 40
25.4
  9
$DIMLFAC
 40
1.0
  9
$DIMTOFL
 70
     1
  9
$DIMTVP
 40
0.0
  9
$DIMTIX
 70
     0
  9
$DIMSOXD
 70
     0
  9
$DIMSAH
 70
     1
  9
$DIMBLK1
  1
OPEN30
  9
$DIMBLK2
  1
OPEN30
  9
$DIMSTYLE
  2
STANDARD
  9
$DIMCLRD
 70
     0
  9
$DIMCLRE
 70
     0
  9
$DIMCLRT
 70
     0
  9
$DIMTFAC
 40
1.0
  9
$DIMGAP
 40
0.5
  9
$DIMJUST
 70
     0
  9
$DIMSD1
 70
     0
  9
$DIMSD2
 70
     0
  9
$DIMTOLJ
 70
     1
  9
$DIMTZIN
 70
     0
  9
$DIMALTZ
 70
     0
  9
$DIMALTTZ
 70
     0
  9
$DIMUPT
 70
     0
  9
$DIMDEC
 70
     4
  9
$DIMTDEC
 70
     4
  9
$DIMALTU
 70
     2
  9
$DIMALTTD
 70
     2
  9
$DIMTXSTY
  7
STANDARD
  9
$DIMAUNIT
 70
     0
  9
$DIMADEC
 70
     0
  9
$DIMALTRND
 40
0.0
  9
$DIMAZIN
 70
     0
  9
$DIMDSEP
 70
    46
  9
$DIMATFIT
 70
     3
  9
$DIMFRAC
 70
     0
  9
$DIMLDRBLK
  1
OPEN30
  9
$DIMLUNIT
 70
     2
  9
$DIMLWD
 70
    -2
  9
$DIMLWE
 70
    -2
  9
$DIMTMOVE
 70
     2
  9
$LUNITS
 70
     2
  9
$LUPREC
 70
     4
  9
$SKETCHINC
 40
0.1
  9
$FILLETRAD
 40
10.0
  9
$AUNITS
 70
     0
  9
$AUPREC
 70
     0
  9
$MENU
  1
ACAD
  9
$ELEVATION
 40
0.0
  9
$PELEVATION
 40
0.0
  9
$THICKNESS
 40
0.0
  9
$LIMCHECK
 70
     0
  9
$CHAMFERA
 40
0.0
  9
$CHAMFERB
 40
0.0
  9
$CHAMFERC
 40
0.0
  9
$CHAMFERD
 40
0.0
  9
$SKPOLY
 70
     0
  9
$TDCREATE
 40
2451815.565532581
  9
$TDUCREATE
 40
2451815.190532581
  9
$TDUPDATE
 40
2457017.709092963
  9
$TDUUPDATE
 40
2457017.334092963
  9
$TDINDWG
 40
0.4723605787
  9
$TDUSRTIMER
 40
0.4723605787
  9
$USRTIMER
 70
     1
  9
$ANGBASE
 50
0.0
  9
$ANGDIR
 70
     0
  9
$PDMODE
 70
     0
  9
$PDSIZE
 40
0.0
  9
$PLINEWID
 40
0.0
  9
$SPLFRAME
 70
     0
  9
$SPLINETYPE
 70
     6
  9
$SPLINESEGS
 70
     8
  9
$HANDSEED
  5
4E1
  9
$SURFTAB1
 70
     6
  9
$SURFTAB2
 70
     6
  9
$SURFTYPE
 70
     6
  9
$SURFU
 70
     6
  9
$SURFV
 70
     6
  9
$UCSBASE
  2

  9
$UCSNAME
  2

  9
$UCSORG
 10
0.0
 20
0.0
 30
0.0
  9
$UCSXDIR
 10
1.0
 20
0.0
 30
0.0
  9
$UCSYDIR
 10
0.0
 20
1.0
 30
0.0
  9
$UCSORTHOREF
  2

  9
$UCSORTHOVIEW
 70
     1
  9
$UCSORGTOP
 10
0.0
 20
0.0
 30
0.0
  9
$UCSORGBOTTOM
 10
0.0
 20
0.0
 30
0.0
  9
$UCSORGLEFT
 10
0.0
 20
0.0
 30
0.0
  9
$UCSORGRIGHT
 10
0.0
 20
0.0
 30
0.0
  9
$UCSORGFRONT
 10
0.0
 20
0.0
 30
0.0
  9
$UCSORGBACK
 10
0.0
 20
0.0
 30
0.0
  9
$PUCSBASE
  2

  9
$PUCSNAME
  2

  9
$PUCSORG
 10
0.0
 20
0.0
 30
0.0
  9
$PUCSXDIR
 10
1.0
 20
0.0
 30
0.0
  9
$PUCSYDIR
 10
0.0
 20
1.0
 30
0.0
  9
$PUCSORTHOREF
  2

  9
$PUCSORTHOVIEW
 70
     0
  9
$PUCSORGTOP
 10
0.0
 20
0.0
 30
0.0
  9
$PUCSORGBOTTOM
 10
0.0
 20
0.0
 30
0.0
  9
$PUCSORGLEFT
 10
0.0
 20
0.0
 30
0.0
  9
$PUCSORGRIGHT
 10
0.0
 20
0.0
 30
0.0
  9
$PUCSORGFRONT
 10
0.0
 20
0.0
 30
0.0
  9
$PUCSORGBACK
 10
0.0
 20
0.0
 30
0.0
  9
$USERI1
 70
     0
  9
$USERI2
 70
     0
  9
$USERI3
 70
     0
  9
$USERI4
 70
     0
  9
$USERI5
 70
     0
  9
$USERR1
 40
0.0
  9
$USERR2
 40
0.0
  9
$USERR3
 40
0.0
  9
$USERR4
 40
0.0
  9
$USERR5
 40
0.0
  9
$WORLDVIEW
 70
     1
  9
$SHADEDGE
 70
     3
  9
$SHADEDIF
 70
    70
  9
$TILEMODE
 70
     1
  9
$MAXACTVP
 70
    48
  9
$PINSBASE
 10
0.0
 20
0.0
 30
0.0
  9
$PLIMCHECK
 70
     0
  9
$PEXTMIN
 10
1.000000000000000E+20
 20
1.000000000000000E+20
 30
1.000000000000000E+20
  9
$PEXTMAX
 10
-1.000000000000000E+20
 20
-1.000000000000000E+20
 30
-1.000000000000000E+20
  9
$PLIMMIN
 10
0.0
 20
0.0
  9
$PLIMMAX
 10
12.0
 20
9.0
  9
$UNITMODE
 70
     0
  9
$VISRETAIN
 70
     1
  9
$PLINEGEN
 70
     0
  9
$PSLTSCALE
 70
     1
  9
$TREEDEPTH
 70
  3020
  9
$CMLSTYLE
  2
Standard
  9
$CMLJUST
 70
     0
  9
$CMLSCALE
 40
1.0
  9
$PROXYGRAPHICS
 70
     1
  9
$MEASUREMENT
 70
     0
  9
$CELWEIGHT
370
    -1
  9
$ENDCAPS
280
     0
  9
$JOINSTYLE
280
     0
  9
$LWDISPLAY
290
     0
  9
$INSUNITS
 70
     0
  9
$HYPERLINKBASE
  1

  9
$STYLESHEET
  1

  9
$XEDIT
290
     1
  9
$CEPSNTYPE
380
     0
  9
$PSTYLEMODE
290
     1
  9
$FINGERPRINTGUID
  2
{0EF3C4CD-E692-4C46-A7FE-644CB6DAD2A8}
  9
$VERSIONGUID
  2
{C2153AD6-4235-45EA-AAFB-3EAEFC3DEEBD}
  9
$EXTNAMES
290
     1
  9
$PSVPSCALE
 40
0.0
  9
$OLESTARTUP
290
     0
  0
ENDSEC
  0
SECTION
  2
CLASSES
  0
CLASS
  1
ACDBDICTIONARYWDFLT
  2
AcDbDictionaryWithDefault
  3
ObjectDBX Classes
 90
        0
280
     0
281
     0
  0
CLASS
  1
MATERIAL
  2
AcDbMaterial
  3
ObjectDBX Classes
 90
     1153
280
     0
281
     0
  0
CLASS
  1
VISUALSTYLE
  2
AcDbVisualStyle
  3
ObjectDBX Classes
 90
     4095
280
     0
281
     0
  0
CLASS
  1
SCALE
  2
AcDbScale
  3
ObjectDBX Classes
 90
     1153
280
     0
281
     0
  0
CLASS
  1
TABLESTYLE
  2
AcDbTableStyle
  3
ObjectDBX Classes
 90
     4095
280
     0
281
     0
  0
CLASS
  1
MLEADERSTYLE
  2
AcDbMLeaderStyle
  3
ACDB_MLEADERSTYLE_CLASS
 90
     4095
280
     0
281
     0
  0
CLASS
  1
ACDBSECTIONVIEWSTYLE
  2
AcDbSectionViewStyle
  3
ObjectDBX Classes
 90
     1025
280
     1
281
     0
  0
CLASS
  1
ACDBDETAILVIEWSTYLE
  2
AcDbDetailViewStyle
  3
ObjectDBX Classes
 90
     1025
280
     1
281
     0
  0
CLASS
  1
SORTENTSTABLE
  2
AcDbSortentsTable
  3
ObjectDBX Classes
 90
        0
280
     0
281
     0
  0
CLASS
  1
CELLSTYLEMAP
  2
AcDbCellStyleMap
  3
ObjectDBX Classes
 90
     1152
280
     0
281
     0
  0
CLASS
  1
DICTIONARYVAR
  2
AcDbDictionaryVar
  3
ObjectDBX Classes
 90
        0
280
     0
281
     0
  0
CLASS
  1
ACDBPLACEHOLDER
  2
AcDbPlaceHolder
  3
ObjectDBX Classes
 90
        0
280
     0
281
     0
  0
CLASS
  1
LAYOUT
  2
AcDbLayout
  3
ObjectDBX Classes
 90
        0
280
     0
281
     0
  0
CLASS
  1
EXACXREFPANELOBJECT
  2
ExAcXREFPanelObject
  3
EXAC_ESW
 90
     1025
280
     1
281
     0
  0
CLASS
  1
NPOCOLLECTION
  2
AcDbImpNonPersistentObjectsCollection
  3
ObjectDBX Classes
 90
     1153
280
     1
281
     0
  0
ENDSEC
  0
SECTION
  2
TABLES
  0
TABLE
  2
VPORT
  5
314
102
{ACAD_XDICTIONARY
360
4D9
102
}
330
0
100
AcDbSymbolTable
 70
     1
  0
VPORT
  5
386
330
314
100
AcDbSymbolTableRecord
100
AcDbViewportTableRecord
  2
*ACTIVE
 70
     0
 10
0.0
 20
0.0
 11
1.0
 21
1.0
 12
64.50725022802158
 22
-58.50527151793358
 13
0.0
 23
0.0
 14
1.0
 24
1.0
 15
0.0
 25
0.0
 16
0.0
 26
0.0
 36
1.0
 17
0.0
 27
0.0
 37
0.0
 40
113.7864180147056
 41
2.13631156930126
 42
50.0
 43
0.0
 44
0.0
 50
0.0
 51
0.0
 71
     0
 72
   100
 73
     1
 74
     0
 75
     0
 76
     0
 77
     0
 78
     0
281
     0
 65
     1
110
0.0
120
0.0
130
0.0
111
1.0
121
0.0
131
0.0
112
0.0
122
1.0
132
0.0
 79
     0
146
0.0
1001
ACAD_NAV_VCDISPLAY
1070
     3
  0
ENDTAB
  0
TABLE
  2
LTYPE
  5
311
330
0
100
AcDbSymbolTable
 70
     5
  0
LTYPE
  5
366
330
311
100
AcDbSymbolTableRecord
100
AcDbLinetypeTableRecord
  2
ByBlock
 70
     0
  3

 72
    65
 73
     0
 40
0.0
  0
LTYPE
  5
367
330
311
100
AcDbSymbolTableRecord
100
AcDbLinetypeTableRecord
  2
ByLayer
 70
     0
  3

 72
    65
 73
     0
 40
0.0
  0
LTYPE
  5
368
330
311
100
AcDbSymbolTableRecord
100
AcDbLinetypeTableRecord
  2
CONTINUOUS
 70
     0
  3
Solid line
 72
    65
 73
     0
 40
0.0
  0
LTYPE
  5
382
330
311
100
AcDbSymbolTableRecord
100
AcDbLinetypeTableRecord
  2
DASHED
 70
     0
  3
- - - - - - - - - - - - - - - - - - - -
 72
    65
 73
     2
 40
0.2
 49
0.1
 74
     0
 49
-0.1
 74
     0
  0
LTYPE
  5
383
330
311
100
AcDbSymbolTableRecord
100
AcDbLinetypeTableRecord
  2
DIVIDE
 70
     0
  3
__ . . __ . . 
 72
    65
 73
     6
 40
13.75000000000001
 49
5.500000000000003
 74
     0
 49
-2.750000000000001
 74
     0
 49
0.0
 74
     0
 49
-2.750000000000001
 74
     0
 49
0.0
 74
     0
 49
-2.750000000000001
 74
     0
  0
LTYPE
  5
384
330
311
100
AcDbSymbolTableRecord
100
AcDbLinetypeTableRecord
  2
DASHDOT
 70
     0
  3
__ . __ . __ . __ . __ . __ . __ . __ . __ . __
 72
    65
 73
     4
 40
1.0
 49
0.5
 74
     0
 49
-0.25
 74
     0
 49
0.0
 74
     0
 49
-0.25
 74
     0
  0
LTYPE
  5
385
330
311
100
AcDbSymbolTableRecord
100
AcDbLinetypeTableRecord
  2
S10
 70
     0
  3
- - - - - - - - - 1,-1,1,-1
 72
    65
 73
     4
 40
4.0
 49
1.0
 74
     0
 49
-1.0
 74
     0
 49
1.0
 74
     0
 49
-1.0
 74
     0
  0
ENDTAB
  0
TABLE
  2
LAYER
  5
30E
102
{ACAD_XDICTIONARY
360
3BE
102
}
330
0
100
AcDbSymbolTable
 70
     7
  0
LAYER
  5
360
330
30E
100
AcDbSymbolTableRecord
100
AcDbLayerTableRecord
  2
0
 70
     0
 62
     7
  6
CONTINUOUS
370
    -3
390
31B
  0
LAYER
  5
387
330
30E
100
AcDbSymbolTableRecord
100
AcDbLayerTableRecord
  2
DEFPOINTS
 70
     0
 62
     7
  6
CONTINUOUS
290
     0
370
    -3
390
31B
  0
LAYER
  5
388
330
30E
100
AcDbSymbolTableRecord
100
AcDbLayerTableRecord
  2
WAKU
 70
     0
 62
     4
  6
CONTINUOUS
370
    -3
390
31B
  0
LAYER
  5
389
330
30E
100
AcDbSymbolTableRecord
100
AcDbLayerTableRecord
  2
MOJI1
 70
     0
 62
     2
  6
CONTINUOUS
370
    -3
390
31B
  0
LAYER
  5
38A
330
30E
100
AcDbSymbolTableRecord
100
AcDbLayerTableRecord
  2
GAIKEI
 70
     0
 62
     7
  6
CONTINUOUS
370
    -3
390
31B
  0
LAYER
  5
38B
330
30E
100
AcDbSymbolTableRecord
100
AcDbLayerTableRecord
  2
SUNPO
 70
     0
 62
     3
  6
CONTINUOUS
370
    -3
390
31B
  0
LAYER
  5
3B3
330
30E
100
AcDbSymbolTableRecord
100
AcDbLayerTableRecord
  2
TOUROKU
 70
     0
 62
     1
  6
CONTINUOUS
370
    -3
390
31B
  0
ENDTAB
  0
TABLE
  2
STYLE
  5
30F
330
0
100
AcDbSymbolTable
 70
     4
  0
STYLE
  5
361
330
30F
100
AcDbSymbolTableRecord
100
AcDbTextStyleTableRecord
  2
STANDARD
 70
     0
 40
0.0
 41
1.0
 50
0.0
 71
     0
 42
3.0
  3
txt.shx
  4
bigfont.shx
  0
STYLE
  5
365
330
30F
100
AcDbSymbolTableRecord
100
AcDbTextStyleTableRecord
  2
Annotative
 70
     0
 40
0.0
 41
1.0
 50
0.0
 71
     0
 42
3.0
  3
txt
  4

1001
AcadAnnotative
1000
AnnotativeData
1002
{
1070
     1
1070
     1
1002
}
  0
STYLE
  5
3B5
330
30F
100
AcDbSymbolTableRecord
100
AcDbTextStyleTableRecord
  2
r_DIM
 70
     0
 40
0.0
 41
0.6
 50
0.0
 71
     0
 42
2.5
  3
monotxt.shx
  4
extfont2.shx
  0
STYLE
  5
3B6
330
30F
100
AcDbSymbolTableRecord
100
AcDbTextStyleTableRecord
  2
r_DIM2
 70
     0
 40
0.0
 41
0.6
 50
0.0
 71
     0
 42
2.5
  3
monotxt.shx
  4
bigfont.shx
  0
ENDTAB
  0
TABLE
  2
VIEW
  5
312
330
0
100
AcDbSymbolTable
 70
     0
  0
ENDTAB
  0
TABLE
  2
UCS
  5
313
330
0
100
AcDbSymbolTable
 70
     0
  0
ENDTAB
  0
TABLE
  2
APPID
  5
315
330
0
100
AcDbSymbolTable
 70
     8
  0
APPID
  5
362
330
315
100
AcDbSymbolTableRecord
100
AcDbRegAppTableRecord
  2
ACAD
 70
     0
  0
APPID
  5
369
330
315
100
AcDbSymbolTableRecord
100
AcDbRegAppTableRecord
  2
AcadAnnotative
 70
     0
  0
APPID
  5
3B9
330
315
100
AcDbSymbolTableRecord
100
AcDbRegAppTableRecord
  2
ACAD_PSEXT
 70
     0
  0
APPID
  5
3BA
330
315
100
AcDbSymbolTableRecord
100
AcDbRegAppTableRecord
  2
ACAD_DSTYLE_DIMBREAK
 70
     0
  0
APPID
  5
3BB
330
315
100
AcDbSymbolTableRecord
100
AcDbRegAppTableRecord
  2
ACAD_DSTYLE_DIMJAG
 70
     0
  0
APPID
  5
3BC
330
315
100
AcDbSymbolTableRecord
100
AcDbRegAppTableRecord
  2
ACAD_DSTYLE_DIMTALN
 70
     0
  0
APPID
  5
3BD
330
315
100
AcDbSymbolTableRecord
100
AcDbRegAppTableRecord
  2
ACAD_NAV_VCDISPLAY
 70
     0
  0
APPID
  5
460
330
315
100
AcDbSymbolTableRecord
100
AcDbRegAppTableRecord
  2
ACAD_MLEADERVER
 70
     0
  0
ENDTAB
  0
TABLE
  2
DIMSTYLE
  5
316
330
0
100
AcDbSymbolTable
 70
     4
100
AcDbDimStyleTable
  0
DIMSTYLE
105
363
102
{ACAD_REACTORS
330
26
330
E7
102
}
330
316
100
AcDbSymbolTableRecord
100
AcDbDimStyleTableRecord
  2
STANDARD
 70
     0
 40
0.0
 41
2.0
 42
2.0
 43
8.0
 44
2.0
 73
     0
 74
     0
 77
     3
140
3.0
141
0.0
173
     1
279
     2
340
361
341
37F
343
37F
344
37F
  0
DIMSTYLE
105
364
330
316
100
AcDbSymbolTableRecord
100
AcDbDimStyleTableRecord
  2
Annotative
 70
     0
340
361
1001
AcadAnnotative
1000
AnnotativeData
1002
{
1070
     1
1070
     1
1002
}
  0
DIMSTYLE
105
3B7
330
316
100
AcDbSymbolTableRecord
100
AcDbDimStyleTableRecord
  2
S1
 70
     0
 40
0.0
 41
2.5
 42
0.625
 43
3.75
 44
1.25
 73
     0
 74
     0
 77
     1
 78
     8
 79
     2
140
2.5
141
2.5
143
0.03937007874016
147
0.625
171
     3
172
     1
179
     8
271
     8
272
     8
274
     3
276
     2
278
    44
283
     0
284
     8
340
3B5
342
3AC
  0
DIMSTYLE
105
3B8
330
316
100
AcDbSymbolTableRecord
100
AcDbDimStyleTableRecord
  2
r_Dim_S2
 70
     0
 40
0.0
 41
2.5
 42
2.0
 43
3.75
 44
1.25
 73
     0
 74
     0
 77
     1
 78
     8
 79
     2
140
2.5
141
2.5
143
0.03937007874016
147
0.625
171
     3
172
     1
179
     8
271
     8
272
     8
274
     3
276
     2
278
    44
283
     0
284
     8
340
3B6
341
37F
342
37F
1001
ACAD_DSTYLE_DIMBREAK
1070
   391
1040
3.75
1001
ACAD_DSTYLE_DIMJAG
1070
   388
1040
1.5
1001
ACAD_DSTYLE_DIMTALN
1070
   392
1070
     0
  0
ENDTAB
  0
TABLE
  2
BLOCK_RECORD
  5
30D
330
0
100
AcDbSymbolTable
 70
     6
  0
BLOCK_RECORD
  5
37B
330
30D
100
AcDbSymbolTableRecord
100
AcDbBlockTableRecord
  2
*Model_Space
340
37E
  0
BLOCK_RECORD
  5
377
330
30D
100
AcDbSymbolTableRecord
100
AcDbBlockTableRecord
  2
*Paper_Space
340
37A
  0
BLOCK_RECORD
  5
37F
330
30D
100
AcDbSymbolTableRecord
100
AcDbBlockTableRecord
  2
_OPEN30
340
0
102
{BLKREFS
331
39A
331
39B
331
3A6
331
3A7
102
}
  0
BLOCK_RECORD
  5
394
330
30D
100
AcDbSymbolTableRecord
100
AcDbBlockTableRecord
  2
*D3
340
0
  0
BLOCK_RECORD
  5
3A0
330
30D
100
AcDbSymbolTableRecord
100
AcDbBlockTableRecord
  2
*D4
340
0
  0
BLOCK_RECORD
  5
3AC
102
{ACAD_XDICTIONARY
360
3AD
102
}
330
30D
100
AcDbSymbolTableRecord
100
AcDbBlockTableRecord
  2
DimSolid_1
340
0
310
2800000020000000200000000100080000000000000400000000000000000000000000000000000000000000000080000080000000808000800000008000800080800000C0C0C000C0DCC000F0CAA6000020400000206000002080000020A0000020C0000020E00000400000004020000040400000406000004080000040A0
310
000040C0000040E00000600000006020000060400000606000006080000060A0000060C0000060E00000800000008020000080400000806000008080000080A0000080C0000080E00000A0000000A0200000A0400000A0600000A0800000A0A00000A0C00000A0E00000C0000000C0200000C0400000C0600000C0800000C0
310
A00000C0C00000C0E00000E0000000E0200000E0400000E0600000E0800000E0A00000E0C00000E0E00040000000400020004000400040006000400080004000A0004000C0004000E00040200000402020004020400040206000402080004020A0004020C0004020E000404000004040200040404000404060004040800040
310
40A0004040C0004040E00040600000406020004060400040606000406080004060A0004060C0004060E00040800000408020004080400040806000408080004080A0004080C0004080E00040A0000040A0200040A0400040A0600040A0800040A0A00040A0C00040A0E00040C0000040C0200040C0400040C0600040C08000
310
40C0A00040C0C00040C0E00040E0000040E0200040E0400040E0600040E0800040E0A00040E0C00040E0E00080000000800020008000400080006000800080008000A0008000C0008000E00080200000802020008020400080206000802080008020A0008020C0008020E00080400000804020008040400080406000804080
310
008040A0008040C0008040E00080600000806020008060400080606000806080008060A0008060C0008060E00080800000808020008080400080806000808080008080A0008080C0008080E00080A0000080A0200080A0400080A0600080A0800080A0A00080A0C00080A0E00080C0000080C0200080C0400080C0600080C0
310
800080C0A00080C0C00080C0E00080E0000080E0200080E0400080E0600080E0800080E0A00080E0C00080E0E000C0000000C0002000C0004000C0006000C0008000C000A000C000C000C000E000C0200000C0202000C0204000C0206000C0208000C020A000C020C000C020E000C0400000C0402000C0404000C0406000C0
310
408000C040A000C040C000C040E000C0600000C0602000C0604000C0606000C0608000C060A000C060C000C060E000C0800000C0802000C0804000C0806000C0808000C080A000C080C000C080E000C0A00000C0A02000C0A04000C0A06000C0A08000C0A0A000C0A0C000C0A0E000C0C00000C0C02000C0C04000C0C06000
310
C0C08000C0C0A000F0FBFF00A4A0A000808080000000FF0000FF000000FFFF00FF000000FF00FF00FFFF0000FFFFFF0000000000000000000000000000000000000000000000000000000000000000000000000000000000000000000000000000000000000000000000000000000000000000000000000000000000000000
310
00000000000000000000000000000000000000000000000000000000000000000000000000000000000000000000000000000000000000000000000000000000000000000000000000000000000000000000000000000000000000000000000000000000000000000000000000000000000000000000000000000000000000
310
000000000000000000000000000000000000000000000000000000000000000000000000000000000000000000000000000000FF0000000000000000000000000000000000000000000000000000000000000000FF0000000000000000000000000000000000000000000000000000000000000000FF000000000000000000
310
0000000000000000000000000000000000000000000000FF00000000000000000000000000000000000000000000000000000000000000FF0000000000000000000000000000000000000000000000000000000000000000FF0000000000000000000000000000000000000000000000000000000000000000FF0000000000
310
000000000000000000000000000000000000000000000000000000FFFFFFFFFFFFFFFFFFFFFFFFFFFFFFFFFFFFFFFFFFFFFFFF0000000000000000000000000000000000000000000000000000FFFFFFFF000000000000000000000000000000000000000000000000FFFFFFFF000000000000000000000000000000000000
310
00000000000000FFFFFF00000000000000000000000000000000000000000000000000FFFFFFFF00000000000000000000000000000000000000000000000000FFFFFF00000000000000000000000000000000000000000000000000FFFFFFFF000000000000000000000000000000000000000000000000FFFFFFFF000000
310
0000000000000000000000000000000000000000000000FFFF000000000000000000000000000000000000000000000000000000000000000000000000000000000000000000000000000000000000000000000000000000000000000000000000000000000000000000000000000000000000000000000000000000000000
310
00000000000000000000000000000000000000000000000000000000000000000000000000000000000000000000000000000000000000000000000000000000000000000000000000000000000000000000000000000000000000000000000000000000000000000000000000000000000000000000000000000000000000
310
0000000000000000000000000000000000000000000000000000000000000000000000000000000000000000000000000000000000000000
1001
ACAD
1000
DesignCenter Data
1002
{
1070
     1
1070
     4
1002
}
  0
ENDTAB
  0
ENDSEC
  0
SECTION
  2
BLOCKS
  0
BLOCK
  5
38E
330
37B
100
AcDbEntity
  8
0
100
AcDbBlockBegin
  2
*Model_Space
 70
     0
 10
0.0
 20
0.0
 30
0.0
  3
*Model_Space
  1

  0
ENDBLK
  5
38F
330
37B
100
AcDbEntity
  8
0
100
AcDbBlockEnd
  0
BLOCK
  5
38C
330
377
100
AcDbEntity
 67
     1
  8
0
100
AcDbBlockBegin
  2
*Paper_Space
 70
     0
 10
0.0
 20
0.0
 30
0.0
  3
*Paper_Space
  1

  0
ENDBLK
  5
38D
330
377
100
AcDbEntity
 67
     1
  8
0
100
AcDbBlockEnd
  0
BLOCK
  5
30
330
37F
100
AcDbEntity
  8
0
100
AcDbBlockBegin
  2
_OPEN30
 70
     0
 10
0.0
 20
0.0
 30
0.0
  3
_OPEN30
  1

  0
LINE
  5
2D
330
37F
100
AcDbEntity
  8
0
  6
ByBlock
 62
     0
100
AcDbLine
 10
-1.0
 20
0.26794919
 30
0.0
 11
0.0
 21
0.0
 31
0.0
  0
LINE
  5
2E
330
37F
100
AcDbEntity
  8
0
  6
ByBlock
 62
     0
100
AcDbLine
 10
0.0
 20
0.0
 30
0.0
 11
-1.0
 21
-0.26794919
 31
0.0
  0
LINE
  5
2F
330
37F
100
AcDbEntity
  8
0
  6
ByBlock
 62
     0
100
AcDbLine
 10
0.0
 20
0.0
 30
0.0
 11
-1.0
 21
0.0
 31
0.0
  0
ENDBLK
  5
31
330
37F
100
AcDbEntity
  8
0
100
AcDbBlockEnd
  0
BLOCK
  5
395
330
394
100
AcDbEntity
  8
0
100
AcDbBlockBegin
  2
*D3
 70
     1
 10
0.0
 20
0.0
 30
0.0
  3
*D3
  1

  0
LINE
  5
397
330
394
100
AcDbEntity
  8
SUNPO
 62
     0
370
    -2
100
AcDbLine
 10
83.04561223586416
 20
-49.96366187873696
 30
0.0
 11
91.04561223586416
 21
-49.96366187873696
 31
0.0
  0
LINE
  5
398
330
394
100
AcDbEntity
  8
SUNPO
 62
     0
370
    -2
100
AcDbLine
 10
83.04561223586416
 20
-34.06366187873709
 30
0.0
 11
91.04561223586416
 21
-34.06366187873709
 31
0.0
  0
LINE
  5
399
330
394
100
AcDbEntity
  8
SUNPO
 62
     0
370
    -2
100
AcDbLine
 10
89.04561223586416
 20
-47.96366187873696
 30
0.0
 11
89.04561223586416
 21
-36.06366187873709
 31
0.0
  0
INSERT
  5
39A
330
394
100
AcDbEntity
  8
SUNPO
 62
     0
370
    -2
100
AcDbBlockReference
  2
_OPEN30
 10
89.04561223586416
 20
-49.96366187873696
 30
0.0
 41
2.0
 42
2.0
 43
2.0
 50
270.0
  0
INSERT
  5
39B
330
394
100
AcDbEntity
  8
SUNPO
 62
     0
370
    -2
100
AcDbBlockReference
  2
_OPEN30
 10
89.04561223586416
 20
-34.06366187873709
 30
0.0
 41
2.0
 42
2.0
 43
2.0
 50
90.0
  0
MTEXT
  5
39C
330
394
100
AcDbEntity
  8
SUNPO
 62
     0
100
AcDbMText
 10
87.29561223586417
 20
-42.01366187873701
 30
0.0
 40
2.5
 41
0.0
 71
     5
 72
     1
  1
\A1;106
 11
6.123031769111886E-17
 21
1.0
 31
0.0
 73
     1
 44
1.0
  0
ENDBLK
  5
396
330
394
100
AcDbEntity
  8
0
100
AcDbBlockEnd
  0
BLOCK
  5
3A1
330
3A0
100
AcDbEntity
  8
0
100
AcDbBlockBegin
  2
*D4
 70
     1
 10
0.0
 20
0.0
 30
0.0
  3
*D4
  1

  0
LINE
  5
3A3
330
3A0
100
AcDbEntity
  8
SUNPO
 62
     0
370
    -2
100
AcDbLine
 10
68.69036453941385
 20
-51.96783486802929
 30
0.0
 11
68.69036453941385
 21
-59.96783486802929
 31
0.0
  0
LINE
  5
3A4
330
3A0
100
AcDbEntity
  8
SUNPO
 62
     0
370
    -2
100
AcDbLine
 10
81.14036453941367
 20
-51.96783486802929
 30
0.0
 11
81.14036453941367
 21
-59.96783486802929
 31
0.0
  0
LINE
  5
3A5
330
3A0
100
AcDbEntity
  8
SUNPO
 62
     0
370
    -2
100
AcDbLine
 10
70.69036453941385
 20
-57.96783486802929
 30
0.0
 11
79.14036453941367
 21
-57.96783486802929
 31
0.0
  0
INSERT
  5
3A6
330
3A0
100
AcDbEntity
  8
SUNPO
 62
     0
370
    -2
100
AcDbBlockReference
  2
_OPEN30
 10
68.69036453941385
 20
-57.96783486802929
 30
0.0
 41
2.0
 42
2.0
 43
2.0
 50
180.0
  0
INSERT
  5
3A7
330
3A0
100
AcDbEntity
  8
SUNPO
 62
     0
370
    -2
100
AcDbBlockReference
  2
_OPEN30
 10
81.14036453941367
 20
-57.96783486802929
 30
0.0
 41
2.0
 42
2.0
 43
2.0
  0
MTEXT
  5
3A8
330
3A0
100
AcDbEntity
  8
SUNPO
 62
     0
100
AcDbMText
 10
74.91536453941376
 20
-56.21783486802929
 30
0.0
 40
2.5
 41
0.0
 71
     5
 72
     1
  1
\A1;86
 73
     1
 44
1.0
  0
ENDBLK
  5
3A2
330
3A0
100
AcDbEntity
  8
0
100
AcDbBlockEnd
  0
BLOCK
  5
3AF
330
3AC
100
AcDbEntity
  8
0
 48
0.3
100
AcDbBlockBegin
  2
DimSolid_1
 70
     0
 10
0.0
 20
0.0
 30
0.0
  3
DimSolid_1
  1

  0
SOLID
  5
3B0
330
3AC
100
AcDbEntity
  8
0
  6
ByBlock
 62
     0
 48
0.3
370
    -2
100
AcDbTrace
 10
-1.0
 20
-0.0000000000000568
 30
0.0
 11
-1.249999999999886
 21
-0.3349364905388938
 31
0.0
 12
0.0
 22
0.0
 32
0.0
 13
-0.9999999999999432
 23
0.0
 33
0.0
  0
SOLID
  5
3B1
330
3AC
100
AcDbEntity
  8
0
  6
ByBlock
 62
     0
 48
0.3
370
    -2
100
AcDbTrace
 10
0.0
 20
0.0
 30
0.0
 11
-0.9999999999999432
 21
0.0
 31
0.0
 12
-1.25
 22
0.3349364905388938
 32
0.0
 13
0.0
 23
0.0
 33
0.0
  0
ENDBLK
  5
3B2
330
3AC
100
AcDbEntity
  8
0
 48
0.3
100
AcDbBlockEnd
  0
ENDSEC
  0
SECTION
  2
ENTITIES
  0
TEXT
  5
24
330
37B
100
AcDbEntity
  8
MOJI1
100
AcDbText
 10
28.99999999628494
 20
-5.999999997339273
 30
0.0
 40
4.0
  1
ワイヤレスマイクロホン（ヘッドセット型）
100
AcDbText
  0
DIMENSION
  5
26
330
37B
100
AcDbEntity
  8
SUNPO
100
AcDbDimension
  2
*D3
 10
89.04561223586416
 20
-34.06366187873709
 30
0.0
 11
87.29561223586417
 21
-42.01366187873701
 31
0.0
 70
    33
  1
106
 71
     5
 42
15.89999999999986
  3
STANDARD
100
AcDbAlignedDimension
 13
81.04561223586416
 23
-49.96366187873696
 33
0.0
 14
81.04561223586416
 24
-34.06366187873709
 34
0.0
1001
ACAD
1000
DSTYLE
1002
{
1070
   287
1070
     3
1070
    40
1040
1.0
1070
   140
1040
2.5
1070
   147
1040
0.5
1070
   172
1070
     1
1070
   279
1070
     0
1070
   288
1070
     0
1002
}
  0
ARC
  5
3C
330
37B
100
AcDbEntity
  8
GAIKEI
100
AcDbCircle
 10
79.1903645394134
 20
-35.41366187873723
 30
0.0
 40
1.35
100
AcDbArc
 50
0.0
 51
90.0
  0
ARC
  5
3E
330
37B
100
AcDbEntity
  8
GAIKEI
100
AcDbCircle
 10
79.1903645394134
 20
-35.41366187873723
 30
0.0
 40
0.9750000000000001
100
AcDbArc
 50
0.0
 51
90.0
  0
LINE
  5
3F
330
37B
100
AcDbEntity
  8
GAIKEI
  6
DIVIDE
100
AcDbLine
 10
78.38786453941339
 20
-34.90266217354883
 30
0.0
 11
78.38786453941339
 21
-34.04866187873699
 31
0.0
  0
LINE
  5
41
330
37B
100
AcDbEntity
  8
GAIKEI
  6
DIVIDE
100
AcDbLine
 10
77.74286453941409
 20
-34.04866187873699
 30
0.0
 11
77.74286453941409
 21
-34.90266217354883
 31
0.0
  0
ARC
  5
42
330
37B
100
AcDbEntity
  8
GAIKEI
100
AcDbCircle
 10
70.64036453941344
 20
-35.41366187873723
 30
0.0
 40
0.9750000000000001
100
AcDbArc
 50
90.0
 51
180.0
  0
ARC
  5
43
330
37B
100
AcDbEntity
  8
GAIKEI
100
AcDbCircle
 10
70.3732582759842
 20
-35.41366187873723
 30
0.0
 40
1.35
100
AcDbArc
 50
90.0
 51
170.8250163212346
  0
LINE
  5
44
330
37B
100
AcDbEntity
  8
GAIKEI
  6
S10
 62
     1
100
AcDbLine
 10
48.2665670136787
 20
-31.2736618787369
 30
0.0
 11
48.2665670136787
 21
-40.75916146779491
 31
0.0
  0
LINE
  5
46
330
37B
100
AcDbEntity
  8
GAIKEI
  6
S10
 62
     1
100
AcDbLine
 10
47.66656701367833
 20
-40.87366187873727
 30
0.0
 11
47.66656701367833
 21
-31.2736618787369
 31
0.0
  0
LINE
  5
47
330
37B
100
AcDbEntity
  8
GAIKEI
100
AcDbLine
 10
62.01278014830564
 20
-56.56264983888263
 30
0.0
 11
62.01278014830564
 21
-26.99866187873727
 31
0.0
  0
LINE
  5
48
330
37B
100
AcDbEntity
  8
GAIKEI
100
AcDbLine
 10
62.38778014830564
 20
-56.56264983888263
 30
0.0
 11
62.38778014830564
 21
-26.99866187873727
 31
0.0
  0
LINE
  5
49
330
37B
100
AcDbEntity
  8
GAIKEI
100
AcDbLine
 10
44.96656701367851
 20
-40.87366187873727
 30
0.0
 11
44.96656701367851
 21
-29.0236618787369
 31
0.0
  0
LINE
  5
4A
330
37B
100
AcDbEntity
  8
GAIKEI
100
AcDbLine
 10
45.56656701367865
 20
-29.0236618787369
 30
0.0
 11
45.56656701367865
 21
-40.87366187873727
 31
0.0
  0
ARC
  5
4B
330
37B
100
AcDbEntity
  8
GAIKEI
  6
S10
 62
     1
100
AcDbCircle
 10
47.96656701367851
 20
-42.37366187873727
 30
0.0
 40
11.09999999999999
100
AcDbArc
 50
4.006056305885942
 51
86.70873085743888
  0
LINE
  5
4C
330
37B
100
AcDbEntity
  8
GAIKEI
100
AcDbLine
 10
45.51278014830564
 20
-58.06264983888263
 30
0.0
 11
60.51278014830564
 21
-58.06264983888263
 31
0.0
  0
LINE
  5
4D
330
37B
100
AcDbEntity
  8
GAIKEI
100
AcDbLine
 10
45.51278014830564
 20
-58.43764983888263
 30
0.0
 11
60.51278014830564
 21
-58.43764983888263
 31
0.0
  0
LINE
  5
4E
330
37B
100
AcDbEntity
  8
GAIKEI
100
AcDbLine
 10
59.06656701367865
 20
-42.67366187873722
 30
0.0
 11
49.43626085934852
 21
-42.67366187873722
 31
0.0
  0
LINE
  5
4F
330
37B
100
AcDbEntity
  8
GAIKEI
100
AcDbLine
 10
49.43626085934852
 20
-42.07366187873708
 30
0.0
 11
59.06656701367865
 21
-42.07366187873708
 31
0.0
  0
LINE
  5
51
330
37B
100
AcDbEntity
  8
GAIKEI
100
AcDbLine
 10
44.01278014830564
 20
-46.46274510884564
 30
0.0
 11
44.01278014830564
 21
-56.56264983888263
 31
0.0
  0
LINE
  5
52
330
37B
100
AcDbEntity
  8
GAIKEI
100
AcDbLine
 10
43.63778014830564
 20
-46.46274510884564
 30
0.0
 11
43.63778014830564
 21
-56.56264983888263
 31
0.0
  0
ARC
  5
53
330
37B
100
AcDbEntity
  8
GAIKEI
100
AcDbCircle
 10
45.51278014830564
 20
-56.56264983888263
 30
0.0
 40
1.5
100
AcDbArc
 50
180.0
 51
270.0
  0
ARC
  5
54
330
37B
100
AcDbEntity
  8
GAIKEI
100
AcDbCircle
 10
45.51278014830564
 20
-56.56264983888263
 30
0.0
 40
1.875
100
AcDbArc
 50
180.0
 51
270.0
  0
LINE
  5
55
330
37B
100
AcDbEntity
  8
GAIKEI
100
AcDbLine
 10
35.81759165145627
 20
-51.16979553012698
 30
0.0
 11
41.3487848645575
 21
-46.56046785254284
 31
0.0
  0
LINE
  5
56
330
37B
100
AcDbEntity
  8
GAIKEI
100
AcDbLine
 10
36.00964697135555
 20
-51.40026191400625
 30
0.0
 11
41.54084018445656
 21
-46.79093423642212
 31
0.0
  0
ARC
  5
57
330
37B
100
AcDbEntity
  8
GAIKEI
100
AcDbCircle
 10
33.60895547261384
 20
-53.20558192106
 30
0.0
 40
1.12499999999999
100
AcDbArc
 50
98.80285195839278
 51
340.8082902261353
  0
LINE
  5
59
330
37B
100
AcDbEntity
  8
GAIKEI
100
AcDbLine
 10
35.26063122374831
 20
-51.43867297798602
 30
0.0
 11
35.81759165145627
 21
-51.16979553012698
 31
0.0
  0
LINE
  5
5A
330
37B
100
AcDbEntity
  8
GAIKEI
100
AcDbLine
 10
35.81759165145627
 20
-51.16979553012698
 30
0.0
 11
36.00964697135555
 21
-51.40026191400625
 31
0.0
  0
LINE
  5
5B
330
37B
100
AcDbEntity
  8
GAIKEI
100
AcDbLine
 10
36.00964697135555
 20
-51.40026191400625
 30
0.0
 11
35.64474186354687
 21
-51.89960574574457
 31
0.0
  0
LINE
  5
5C
330
37B
100
AcDbEntity
  8
GAIKEI
100
AcDbLine
 10
35.64474186354687
 20
-51.89960574574457
 30
0.0
 11
35.26063122374831
 21
-51.43867297798602
 31
0.0
  0
LINE
  5
5E
330
37B
100
AcDbEntity
  8
GAIKEI
100
AcDbLine
 10
35.24142569175842
 20
-52.2357025555682
 30
0.0
 11
35.64474186354687
 21
-51.89960574574457
 31
0.0
  0
LINE
  5
5F
330
37B
100
AcDbEntity
  8
GAIKEI
100
AcDbLine
 10
34.16751512829956
 20
-51.76383433183355
 30
0.0
 11
34.56923207211025
 21
-51.42907021199107
 31
0.0
  0
LINE
  5
61
330
37B
100
AcDbEntity
  8
GAIKEI
100
AcDbLine
 10
34.56923207211025
 20
-51.42907021199107
 30
0.0
 11
35.52950867160712
 21
-52.58140213138745
 31
0.0
  0
LINE
  5
62
330
37B
100
AcDbEntity
  8
GAIKEI
100
AcDbLine
 10
35.52950867160712
 20
-52.58140213138745
 30
0.0
 11
35.12779172779619
 21
-52.91616625122992
 31
0.0
  0
LINE
  5
63
330
37B
100
AcDbEntity
  8
GAIKEI
100
AcDbLine
 10
35.26063122374831
 20
-51.43867297798602
 30
0.0
 11
34.85731505195963
 21
-51.7747697878101
 31
0.0
  0
ARC
  5
64
330
37B
100
AcDbEntity
  8
GAIKEI
100
AcDbCircle
 10
36.08806832729306
 20
-54.06849817062562
 30
0.0
 40
1.500000000000009
100
AcDbArc
 50
129.8055710922702
 51
160.8082902261353
  0
ARC
  5
65
330
37B
100
AcDbEntity
  8
GAIKEI
100
AcDbCircle
 10
33.20723852880269
 20
-50.61150241243763
 30
0.0
 40
1.500000000000015
100
AcDbArc
 50
278.8028519583928
 51
309.8055710922702
  0
LINE
  5
66
330
37B
100
AcDbEntity
  8
GAIKEI
100
AcDbLine
 10
45.77775968444644
 20
-43.84593671212338
 30
0.0
 11
46.31937339403089
 21
-44.49587316362499
 31
0.0
  0
LINE
  5
67
330
37B
100
AcDbEntity
  8
GAIKEI
100
AcDbLine
 10
46.53063424592006
 20
-44.51507869561487
 30
0.0
 11
45.79696521643655
 21
-43.63467586023421
 31
0.0
  0
LINE
  5
68
330
37B
100
AcDbEntity
  8
GAIKEI
100
AcDbLine
 10
47.8558159532256
 20
-43.41076060619366
 30
0.0
 11
46.53063424592006
 21
-44.51507869561487
 31
0.0
  0
LINE
  5
69
330
37B
100
AcDbEntity
  8
GAIKEI
100
AcDbLine
 10
45.85651121933938
 20
-43.94043855399491
 30
0.0
 11
45.15550930170662
 21
-44.62223493963779
 31
0.0
  0
LINE
  5
6A
330
37B
100
AcDbEntity
  8
GAIKEI
100
AcDbLine
 10
45.44359228155577
 20
-44.96793451545636
 30
0.0
 11
46.24062185913795
 21
-44.40137132175346
 31
0.0
  0
LINE
  5
6B
330
37B
100
AcDbEntity
  8
GAIKEI
100
AcDbLine
 10
45.47904864830639
 20
-44.30755968472545
 30
0.0
 11
45.81145208659359
 21
-44.70644381067041
 31
0.0
  0
LINE
  5
6C
330
37B
100
AcDbEntity
  8
GAIKEI
100
AcDbLine
 10
45.58689509717283
 20
-44.20266793308838
 30
0.0
 11
45.93407202160643
 21
-44.61928024240842
 31
0.0
  0
LINE
  5
6D
330
37B
100
AcDbEntity
  8
GAIKEI
100
AcDbLine
 10
45.69474154603927
 20
-44.09777618145085
 30
0.0
 11
46.05669195661926
 21
-44.53211667414644
 31
0.0
  0
LINE
  5
6E
330
37B
100
AcDbEntity
  8
GAIKEI
100
AcDbLine
 10
45.37120219943972
 20
-44.41245143636274
 30
0.0
 11
45.68883215158098
 21
-44.79360737893239
 31
0.0
  0
LINE
  5
6F
330
37B
100
AcDbEntity
  8
GAIKEI
100
AcDbLine
 10
44.61497782267224
 20
-44.22915287124238
 30
0.0
 11
44.61497782267224
 21
-44.47366187873695
 31
0.0
  0
LINE
  5
70
330
37B
100
AcDbEntity
  8
GAIKEI
100
AcDbLine
 10
41.94415635624546
 20
-46.45483742659803
 30
0.0
 11
45.89561991015967
 21
-43.16195113166964
 31
0.0
  0
LINE
  5
71
330
37B
100
AcDbEntity
  8
GAIKEI
100
AcDbLine
 10
45.74656581339627
 20
-42.89565039517697
 30
0.0
 11
41.75210103634595
 21
-46.22437104271899
 31
0.0
  0
LINE
  5
72
330
37B
100
AcDbEntity
  8
GAIKEI
  6
S10
 62
     1
100
AcDbLine
 10
48.2665670136787
 20
-43.85669087373367
 30
0.0
 11
48.2665670136787
 21
-53.47366187873695
 31
0.0
  0
LINE
  5
73
330
37B
100
AcDbEntity
  8
GAIKEI
  6
S10
 62
     1
100
AcDbLine
 10
47.66656701367833
 20
-53.47366187873695
 30
0.0
 11
47.66656701367833
 21
-43.87366187873727
 31
0.0
  0
LINE
  5
74
330
37B
100
AcDbEntity
  8
GAIKEI
100
AcDbLine
 10
46.31937339403089
 20
-44.49587316362499
 30
0.0
 11
46.53063424592006
 21
-44.51507869561487
 31
0.0
  0
LINE
  5
75
330
37B
100
AcDbEntity
  8
GAIKEI
100
AcDbLine
 10
45.15550930170662
 20
-44.62223493963779
 30
0.0
 11
45.44359228155577
 21
-44.96793451545636
 31
0.0
  0
LINE
  5
76
330
37B
100
AcDbEntity
  8
GAIKEI
100
AcDbLine
 10
45.26335575057306
 20
-44.51734318800027
 30
0.0
 11
45.56621221656837
 21
-44.88077094719438
 31
0.0
  0
LINE
  5
77
330
37B
100
AcDbEntity
  8
GAIKEI
100
AcDbLine
 10
45.41958536656807
 20
-44.93912621747154
 30
0.0
 11
44.2826418485572
 21
-45.88657914914734
 31
0.0
  0
LINE
  5
78
330
37B
100
AcDbEntity
  8
GAIKEI
100
AcDbLine
 10
45.17951621669386
 20
-44.65104323762262
 30
0.0
 11
44.04257269868322
 21
-45.59849616929841
 31
0.0
  0
LINE
  5
79
330
37B
100
AcDbEntity
  8
GAIKEI
100
AcDbLine
 10
44.61497782267224
 20
-44.47366187873695
 30
0.0
 11
45.30826751925247
 21
-44.47366187873695
 31
0.0
  0
ARC
  5
7A
330
37B
100
AcDbEntity
  8
GAIKEI
100
AcDbCircle
 10
44.76278014830564
 20
-46.46274510884564
 30
0.0
 40
0.7500000000000016
100
AcDbArc
 50
129.8055710922702
 51
180.0
  0
LINE
  5
7C
330
37B
100
AcDbEntity
  8
GAIKEI
100
AcDbLine
 10
41.99217018622016
 20
-46.51245402256814
 30
0.0
 11
41.70408720637124
 21
-46.16675444674934
 31
0.0
  0
LINE
  5
7D
330
37B
100
AcDbEntity
  8
GAIKEI
100
AcDbLine
 10
41.70408720637124
 20
-46.16675444674934
 30
0.0
 11
41.30077103458234
 21
-46.50285125657319
 31
0.0
  0
LINE
  5
7E
330
37B
100
AcDbEntity
  8
GAIKEI
100
AcDbLine
 10
41.30077103458234
 20
-46.50285125657319
 30
0.0
 11
41.58885401443172
 21
-46.84855083239177
 31
0.0
  0
LINE
  5
7F
330
37B
100
AcDbEntity
  8
GAIKEI
100
AcDbLine
 10
41.58885401443172
 20
-46.84855083239177
 30
0.0
 11
41.99217018622016
 21
-46.51245402256814
 31
0.0
  0
ARC
  5
80
330
37B
100
AcDbEntity
  8
GAIKEI
100
AcDbCircle
 10
44.76278014830564
 20
-46.46274510884564
 30
0.0
 40
1.124999999999996
100
AcDbArc
 50
129.8055710922702
 51
180.0
  0
LINE
  5
81
330
37B
100
AcDbEntity
  8
GAIKEI
  6
S10
 62
     1
100
AcDbLine
 10
48.2665670136787
 20
-53.47366187873695
 30
0.0
 11
47.66656701367833
 21
-53.47366187873695
 31
0.0
  0
ARC
  5
82
330
37B
100
AcDbEntity
  8
GAIKEI
  6
S10
 62
     1
100
AcDbCircle
 10
47.96656701367851
 20
-42.37366187873727
 30
0.0
 40
11.09999999999999
100
AcDbArc
 50
272.8588027394855
 51
355.9958668486344
  0
LINE
  5
83
330
37B
100
AcDbEntity
  8
GAIKEI
100
AcDbLine
 10
49.34231527551242
 20
-41.91425492905682
 30
0.0
 11
47.8558159532256
 21
-43.41076060619366
 31
0.0
  0
LINE
  5
84
330
37B
100
AcDbEntity
  8
GAIKEI
100
AcDbLine
 10
48.20733061475926
 20
-41.78678977487925
 30
0.0
 11
48.86217697576421
 21
-41.33808896935898
 31
0.0
  0
CIRCLE
  5
85
330
37B
100
AcDbEntity
  8
GAIKEI
100
AcDbCircle
 10
46.9915670136786
 20
-42.37366187873727
 30
0.0
 40
1.35
  0
ARC
  5
86
330
37B
100
AcDbEntity
  8
GAIKEI
100
AcDbCircle
 10
47.96656701367851
 20
-42.37366187873727
 30
0.0
 40
1.2
100
AcDbArc
 50
270.0
 51
12.2678682303498
  0
ARC
  5
88
330
37B
100
AcDbEntity
  8
GAIKEI
100
AcDbCircle
 10
47.96656701367851
 20
-42.37366187873727
 30
0.0
 40
1.5
100
AcDbArc
 50
270.0
 51
22.6498634781203
  0
ARC
  5
89
330
37B
100
AcDbEntity
  8
GAIKEI
100
AcDbCircle
 10
47.96656701367851
 20
-42.37366187873727
 30
0.0
 40
1.35
100
AcDbArc
 50
270.0
 51
16.30149110807077
  0
LINE
  5
8A
330
37B
100
AcDbEntity
  8
GAIKEI
100
AcDbLine
 10
54.13966916985373
 20
-35.90139759812928
 30
0.0
 11
47.72950675449033
 21
-41.24319961093215
 31
0.0
  0
LINE
  5
8B
330
37B
100
AcDbEntity
  8
GAIKEI
100
AcDbLine
 10
47.9645632975255
 20
-41.43783164219826
 30
0.0
 11
54.33172448975279
 21
-36.13186398200855
 31
0.0
  0
CIRCLE
  5
8C
330
37B
100
AcDbEntity
  8
GAIKEI
100
AcDbCircle
 10
45.2665670136787
 20
-37.94199706637573
 30
0.0
 40
0.0881275389294614
  0
LINE
  5
8D
330
37B
100
AcDbEntity
  8
GAIKEI
100
AcDbLine
 10
43.91656701367833
 20
-43.87366187873727
 30
0.0
 11
44.57295203312447
 21
-43.87366187873727
 31
0.0
  0
LINE
  5
8E
330
37B
100
AcDbEntity
  8
GAIKEI
100
AcDbLine
 10
47.96656701367851
 20
-40.87366187873727
 30
0.0
 11
43.91656701367833
 21
-40.87366187873727
 31
0.0
  0
LINE
  5
8F
330
37B
100
AcDbEntity
  8
GAIKEI
100
AcDbLine
 10
43.7665670136787
 20
-41.0236618787369
 30
0.0
 11
43.7665670136787
 21
-43.72366187873695
 31
0.0
  0
LINE
  5
90
330
37B
100
AcDbEntity
  8
GAIKEI
100
AcDbLine
 10
47.96656701367851
 20
-43.72366187873695
 30
0.0
 11
47.48033442617339
 21
-43.72366187873695
 31
0.0
  0
LINE
  5
91
330
37B
100
AcDbEntity
  8
GAIKEI
100
AcDbLine
 10
47.96656701367851
 20
-43.57366187873708
 30
0.0
 11
47.66033442617345
 21
-43.57366187873708
 31
0.0
  0
LINE
  5
92
330
37B
100
AcDbEntity
  8
GAIKEI
100
AcDbLine
 10
43.7665670136787
 20
-41.17366187873722
 30
0.0
 11
46.37310116983576
 21
-41.17366187873722
 31
0.0
  0
LINE
  5
93
330
37B
100
AcDbEntity
  8
GAIKEI
100
AcDbLine
 10
43.7665670136787
 20
-41.0236618787369
 30
0.0
 11
47.96656701367851
 21
-41.0236618787369
 31
0.0
  0
LINE
  5
94
330
37B
100
AcDbEntity
  8
GAIKEI
100
AcDbLine
 10
47.61003285752145
 20
-41.17366187873722
 30
0.0
 11
47.81295203312425
 21
-41.17366187873722
 31
0.0
  0
LINE
  5
95
330
37B
100
AcDbEntity
  8
GAIKEI
100
AcDbLine
 10
44.93295203312414
 20
-43.57366187873708
 30
0.0
 11
43.7665670136787
 21
-43.57366187873708
 31
0.0
  0
LINE
  5
96
330
37B
100
AcDbEntity
  8
GAIKEI
100
AcDbLine
 10
44.7529520331243
 20
-43.72366187873695
 30
0.0
 11
43.7665670136787
 21
-43.72366187873695
 31
0.0
  0
LINE
  5
97
330
37B
100
AcDbEntity
  8
GAIKEI
100
AcDbLine
 10
45.04156701367833
 20
-43.87366187873727
 30
0.0
 11
45.80086398995786
 21
-43.87366187873727
 31
0.0
  0
LINE
  5
98
330
37B
100
AcDbEntity
  8
GAIKEI
100
AcDbLine
 10
45.79696521643655
 20
-43.63467586023421
 30
0.0
 11
45.77775968444644
 21
-43.84593671212338
 31
0.0
  0
LINE
  5
99
330
37B
100
AcDbEntity
  8
GAIKEI
100
AcDbLine
 10
45.79696521643655
 20
-43.63467586023421
 30
0.0
 11
46.09695417703597
 21
-43.38468505973447
 31
0.0
  0
LINE
  5
9A
330
37B
100
AcDbEntity
  8
GAIKEI
100
AcDbLine
 10
46.02743160031537
 20
-43.44262054033493
 30
0.0
 11
46.76110062979956
 21
-44.32302337571537
 31
0.0
  0
LINE
  5
9B
330
37B
100
AcDbEntity
  8
GAIKEI
100
AcDbLine
 10
46.68427850183957
 20
-44.23083682216361
 30
0.0
 11
46.4538121179603
 21
-44.42289214206289
 31
0.0
  0
LINE
  5
9C
330
37B
100
AcDbEntity
  8
GAIKEI
100
AcDbLine
 10
46.5882508418897
 20
-44.11560363022409
 30
0.0
 11
46.35778445801088
 21
-44.3076589501236
 31
0.0
  0
LINE
  5
9D
330
37B
100
AcDbEntity
  8
GAIKEI
100
AcDbLine
 10
46.49222318194029
 20
-44.00037043828479
 30
0.0
 11
46.26175679806124
 21
-44.19242575818384
 31
0.0
  0
LINE
  5
9E
330
37B
100
AcDbEntity
  8
GAIKEI
100
AcDbLine
 10
46.39619552199065
 20
-43.88513724634481
 30
0.0
 11
46.16572913811137
 21
-44.07719256624432
 31
0.0
  0
LINE
  5
9F
330
37B
100
AcDbEntity
  8
GAIKEI
100
AcDbLine
 10
46.30016786204101
 20
-43.76990405440552
 30
0.0
 11
46.06970147816151
 21
-43.9619593743048
 31
0.0
  0
LINE
  5
A0
330
37B
100
AcDbEntity
  8
GAIKEI
100
AcDbLine
 10
46.20414020209114
 20
-43.65467086246554
 30
0.0
 11
45.97367381821209
 21
-43.84672618236505
 31
0.0
  0
LINE
  5
A1
330
37B
100
AcDbEntity
  8
GAIKEI
100
AcDbLine
 10
46.10811254214173
 20
-43.53943767052624
 30
0.0
 11
45.87764615826245
 21
-43.73149299042529
 31
0.0
  0
LINE
  5
A4
330
37B
100
AcDbEntity
  8
GAIKEI
100
AcDbLine
 10
47.30033442617355
 20
-43.87366187873727
 30
0.0
 11
47.96656701367851
 21
-43.87366187873727
 31
0.0
  0
LINE
  5
A5
330
37B
100
AcDbEntity
  8
GAIKEI
100
AcDbLine
 10
45.78887557839084
 20
-43.72366187873695
 30
0.0
 11
45.22156701367862
 21
-43.72366187873695
 31
0.0
  0
LINE
  5
A6
330
37B
100
AcDbEntity
  8
GAIKEI
100
AcDbLine
 10
45.87018199423278
 20
-43.57366187873708
 30
0.0
 11
45.40156701367846
 21
-43.57366187873708
 31
0.0
  0
LINE
  5
A7
330
37B
100
AcDbEntity
  8
GAIKEI
  6
DASHDOT
100
AcDbLine
 10
46.9915670136786
 20
-42.07366187873708
 30
0.0
 11
46.9915670136786
 21
-42.67366187873722
 31
0.0
  0
LINE
  5
A9
330
37B
100
AcDbEntity
  8
GAIKEI
100
AcDbLine
 10
45.06438980585403
 20
-44.17564959183778
 30
0.0
 11
44.98759149728539
 21
-44.09885128326937
 31
0.0
  0
LINE
  5
AA
330
37B
100
AcDbEntity
  8
GAIKEI
100
AcDbLine
 10
45.14118811442245
 20
-44.09885128326937
 30
0.0
 11
44.98759149728539
 21
-44.25244790040642
 31
0.0
  0
LINE
  5
AB
330
37B
100
AcDbEntity
  8
GAIKEI
100
AcDbLine
 10
45.06438980585403
 20
-44.17564959183778
 30
0.0
 11
45.14118811442245
 21
-44.25244790040642
 31
0.0
  0
LINE
  5
AD
330
37B
100
AcDbEntity
  8
GAIKEI
100
AcDbLine
 10
45.4948329976412
 20
-43.87366187873727
 30
0.0
 11
45.4948329976412
 21
-44.29220778331751
 31
0.0
  0
CIRCLE
  5
AE
330
37B
100
AcDbEntity
  8
GAIKEI
100
AcDbCircle
 10
46.9915670136786
 20
-42.37366187873727
 30
0.0
 40
0.9750000000000001
  0
CIRCLE
  5
AF
330
37B
100
AcDbEntity
  8
GAIKEI
100
AcDbCircle
 10
46.9915670136786
 20
-42.37366187873727
 30
0.0
 40
1.05
  0
CIRCLE
  5
B0
330
37B
100
AcDbEntity
  8
GAIKEI
100
AcDbCircle
 10
45.06438980585403
 20
-44.17564959183778
 30
0.0
 40
0.1792344555265098
  0
ARC
  5
B1
330
37B
100
AcDbEntity
  8
GAIKEI
100
AcDbCircle
 10
43.91656701367833
 20
-41.0236618787369
 30
0.0
 40
0.15
100
AcDbArc
 50
90.0
 51
180.0
  0
ARC
  5
B2
330
37B
100
AcDbEntity
  8
GAIKEI
100
AcDbCircle
 10
43.91656701367833
 20
-43.72366187873695
 30
0.0
 40
0.15
100
AcDbArc
 50
180.0
 51
270.0
  0
ARC
  5
B3
330
37B
100
AcDbEntity
  8
GAIKEI
100
AcDbCircle
 10
47.96656701367851
 20
-42.37366187873727
 30
0.0
 40
1.499999999999994
100
AcDbArc
 50
82.66002231131164
 51
90.0
  0
ARC
  5
B4
330
37B
100
AcDbEntity
  8
GAIKEI
100
AcDbCircle
 10
47.96656701367851
 20
-42.37366187873727
 30
0.0
 40
1.350000000000007
100
AcDbArc
 50
88.892949752101
 51
90.0
  0
ARC
  5
B5
330
37B
100
AcDbEntity
  8
GAIKEI
100
AcDbCircle
 10
55.18637066330507
 20
-35.51728695833026
 30
0.0
 40
0.5999999999999875
100
AcDbArc
 50
309.8055710922702
 51
129.8044303234869
  0
LINE
  5
B8
330
37B
100
AcDbEntity
  8
GAIKEI
100
AcDbLine
 10
54.37973831972795
 20
-36.1894805779782
 30
0.0
 11
53.45787278421085
 21
-36.95770185757556
 31
0.0
  0
LINE
  5
B9
330
37B
100
AcDbEntity
  8
GAIKEI
100
AcDbLine
 10
54.76384895952674
 20
-36.65041334573675
 30
0.0
 11
53.99562767992916
 21
-35.72854781021965
 31
0.0
  0
LINE
  5
BA
330
37B
100
AcDbEntity
  8
GAIKEI
100
AcDbLine
 10
53.99562767992916
 20
-35.72854781021965
 30
0.0
 11
54.80226002350651
 21
-35.05635419057194
 31
0.0
  0
LINE
  5
BC
330
37B
100
AcDbEntity
  8
GAIKEI
100
AcDbLine
 10
55.3346595259502
 20
-35.51728695833026
 30
0.0
 11
55.03808180065948
 21
-35.51728695833026
 31
0.0
  0
LINE
  5
BD
330
37B
100
AcDbEntity
  8
GAIKEI
100
AcDbLine
 10
55.18637066330507
 20
-35.36899809568513
 30
0.0
 11
55.18637066330507
 21
-35.66557582097562
 31
0.0
  0
LINE
  5
BF
330
37B
100
AcDbEntity
  8
GAIKEI
100
AcDbLine
 10
53.74595576406023
 20
-37.30340143339458
 30
0.0
 11
54.66782129957687
 21
-36.53518015379677
 31
0.0
  0
LINE
  5
C1
330
37B
100
AcDbEntity
  8
GAIKEI
100
AcDbLine
 10
53.45787278421085
 20
-36.95770185757556
 30
0.0
 11
53.74595576406023
 21
-37.30340143339458
 31
0.0
  0
LINE
  5
C2
330
37B
100
AcDbEntity
  8
GAIKEI
100
AcDbLine
 10
53.69794193408507
 20
-37.24578483742448
 30
0.0
 11
52.82032416811148
 21
-37.97713297573614
 31
0.0
  0
LINE
  5
C3
330
37B
100
AcDbEntity
  8
GAIKEI
100
AcDbLine
 10
53.86118895599975
 20
-37.20737377344471
 30
0.0
 11
53.57310597615037
 21
-36.86167419762614
 31
0.0
  0
LINE
  5
C4
330
37B
100
AcDbEntity
  8
GAIKEI
100
AcDbLine
 10
53.97642214793905
 20
-37.11134611349485
 30
0.0
 11
53.68833916809012
 21
-36.76564653767605
 31
0.0
  0
LINE
  5
C5
330
37B
100
AcDbEntity
  8
GAIKEI
100
AcDbLine
 10
54.09165533987857
 20
-37.01531845354521
 30
0.0
 11
53.80357236002988
 21
-36.66961887772663
 31
0.0
  0
LINE
  5
C6
330
37B
100
AcDbEntity
  8
GAIKEI
100
AcDbLine
 10
54.20688853181832
 20
-36.91929079359579
 30
0.0
 11
53.9188055519694
 21
-36.57359121777677
 31
0.0
  0
LINE
  5
C7
330
37B
100
AcDbEntity
  8
GAIKEI
100
AcDbLine
 10
54.32212172375807
 20
-36.82326313364615
 30
0.0
 11
54.03403874390892
 21
-36.47756355782712
 31
0.0
  0
LINE
  5
C8
330
37B
100
AcDbEntity
  8
GAIKEI
100
AcDbLine
 10
54.4373549156976
 20
-36.72723547369628
 30
0.0
 11
54.14927193584867
 21
-36.38153589787771
 31
0.0
  0
LINE
  5
C9
330
37B
100
AcDbEntity
  8
GAIKEI
100
AcDbLine
 10
54.55258810763712
 20
-36.63120781374687
 30
0.0
 11
54.26450512778842
 21
-36.28550823792807
 31
0.0
  0
LINE
  5
CA
330
37B
100
AcDbEntity
  8
GAIKEI
100
AcDbLine
 10
53.50588661418601
 20
-37.01531845354521
 30
0.0
 11
52.62826884821197
 21
-37.74666659185687
 31
0.0
  0
ARC
  5
CB
330
37B
100
AcDbEntity
  8
GAIKEI
100
AcDbCircle
 10
55.70115396660162
 20
-41.43412873392413
 30
0.0
 40
4.499999999999998
100
AcDbArc
 50
129.8055710922702
 51
144.9791975624827
  0
ARC
  5
CC
330
37B
100
AcDbEntity
  8
GAIKEI
100
AcDbCircle
 10
55.70115396660162
 20
-41.43412873392413
 30
0.0
 40
4.799999999999994
100
AcDbArc
 50
129.8055710922702
 51
144.9791975624827
  0
LINE
  5
CD
330
37B
100
AcDbEntity
  8
GAIKEI
100
AcDbLine
 10
49.65920655334639
 20
-41.35729450134886
 30
0.0
 11
50.6430918284259
 21
-40.53739010544905
 31
0.0
  0
LINE
  5
CE
330
37B
100
AcDbEntity
  8
GAIKEI
100
AcDbLine
 10
49.46715123344688
 20
-41.12682811746959
 30
0.0
 11
50.45103650852684
 21
-40.30692372156977
 31
0.0
  0
ARC
  5
CF
330
37B
100
AcDbEntity
  8
GAIKEI
100
AcDbCircle
 10
49.60721803200568
 20
-41.41206202087869
 30
0.0
 40
0.075000000000001
100
AcDbArc
 50
316.9305874411736
 51
39.8055710922702
  0
ARC
  5
D0
330
37B
100
AcDbEntity
  8
GAIKEI
100
AcDbCircle
 10
47.76226202993598
 20
-37.08039434726084
 30
0.0
 40
4.5
100
AcDbArc
 50
309.8055710922702
 51
324.9791975624827
  0
ARC
  5
D1
330
37B
100
AcDbEntity
  8
GAIKEI
100
AcDbCircle
 10
47.76226202993598
 20
-37.08039434726084
 30
0.0
 40
4.200000000000002
100
AcDbArc
 50
309.8055710922702
 51
324.9791975624827
  0
LINE
  5
D2
330
37B
100
AcDbEntity
  8
GAIKEI
100
AcDbLine
 10
48.91019080573892
 20
-41.39570556532863
 30
0.0
 11
49.36340996077683
 21
-41.10496120171933
 31
0.0
  0
LINE
  5
D5
330
37B
100
AcDbEntity
  8
GAIKEI
100
AcDbLine
 10
49.34231527551242
 20
-41.91425492905682
 30
0.0
 11
48.86217697576421
 21
-41.33808896935898
 31
0.0
  0
LINE
  5
D6
330
37B
100
AcDbEntity
  8
GAIKEI
100
AcDbLine
 10
48.3650255323289
 20
-41.67873719834574
 30
0.0
 11
48.91760118343041
 21
-42.34182797966741
 31
0.0
  0
LINE
  5
D7
330
37B
100
AcDbEntity
  8
GAIKEI
100
AcDbLine
 10
48.55145732361734
 20
-41.55099411247579
 30
0.0
 11
49.07686896796145
 21
-42.18148808568844
 31
0.0
  0
ARC
  5
D8
330
37B
100
AcDbEntity
  8
GAIKEI
100
AcDbCircle
 10
47.96656701367851
 20
-42.37366187873727
 30
0.0
 40
1.200000000000012
100
AcDbArc
 50
51.25826144729697
 51
76.69040087826069
  0
ARC
  5
D9
330
37B
100
AcDbEntity
  8
GAIKEI
100
AcDbCircle
 10
47.96656701367851
 20
-42.37366187873727
 30
0.0
 40
1.350000000000001
100
AcDbArc
 50
49.35882714383175
 51
72.04693262472223
  0
ARC
  5
DA
330
37B
100
AcDbEntity
  8
GAIKEI
100
AcDbCircle
 10
47.96656701367851
 20
-42.37366187873727
 30
0.0
 40
1.500000000000003
100
AcDbArc
 50
44.74923033158557
 51
68.50000606927922
  0
ARC
  5
DD
330
37B
100
AcDbEntity
  8
GAIKEI
100
AcDbCircle
 10
49.40390656284785
 20
-41.16808825788962
 30
0.0
 40
0.0750000000000051
100
AcDbArc
 50
39.8055710922702
 51
122.6805547433622
  0
LINE
  5
DE
330
37B
100
AcDbEntity
  8
GAIKEI
100
AcDbLine
 10
49.46152315881795
 20
-41.12007442791446
 30
0.0
 11
49.66483462797555
 21
-41.36404819090399
 31
0.0
  0
LINE
  5
DF
330
37B
100
AcDbEntity
  8
GAIKEI
100
AcDbLine
 10
49.66200755245495
 20
-41.46327831173335
 30
0.0
 11
49.29430144553749
 21
-41.85663833308718
 31
0.0
  0
LINE
  5
E1
330
37B
100
AcDbEntity
  8
GAIKEI
100
AcDbLine
 10
51.44750886586303
 20
-39.66282648737365
 30
0.0
 11
52.01590713067412
 21
-38.85169659381131
 31
0.0
  0
LINE
  5
E2
330
37B
100
AcDbEntity
  8
GAIKEI
100
AcDbLine
 10
51.20182574346813
 20
-39.49066434469978
 30
0.0
 11
51.77022400827923
 21
-38.67953445113744
 31
0.0
  0
LINE
  5
E3
330
37B
100
AcDbEntity
  8
GAIKEI
100
AcDbLine
 10
55.57048130310363
 20
-35.97821972608881
 30
0.0
 11
54.76384895952674
 21
-36.65041334573675
 31
0.0
  0
CIRCLE
  5
E5
330
37B
100
AcDbEntity
  8
GAIKEI
100
AcDbCircle
 10
55.18637066330507
 20
-35.51728695833026
 30
0.0
 40
0.225
  0
DIMENSION
  5
E7
330
37B
100
AcDbEntity
  8
SUNPO
100
AcDbDimension
  2
*D4
 10
81.14036453941367
 20
-57.96783486802929
 30
0.0
 11
74.91536453941376
 21
-56.21783486802929
 31
0.0
 70
    33
  1
86
 71
     5
 42
12.44999999999982
  3
STANDARD
100
AcDbAlignedDimension
 13
68.69036453941385
 23
-49.96783486802929
 33
0.0
 14
81.14036453941367
 24
-49.96783486802929
 34
0.0
1001
ACAD
1000
DSTYLE
1002
{
1070
   287
1070
     3
1070
    40
1040
1.0
1070
   140
1040
2.5
1070
   147
1040
0.5
1070
   172
1070
     1
1070
   279
1070
     0
1070
   288
1070
     0
1002
}
  0
ARC
  5
F4
330
37B
100
AcDbEntity
  8
GAIKEI
100
AcDbCircle
 10
60.51278014830564
 20
-56.56264983888263
 30
0.0
 40
1.5
100
AcDbArc
 50
270.0
 51
0.0
  0
ARC
  5
F5
330
37B
100
AcDbEntity
  8
GAIKEI
100
AcDbCircle
 10
60.51278014830564
 20
-56.56264983888263
 30
0.0
 40
1.875
100
AcDbArc
 50
270.0
 51
0.0
  0
LINE
  5
F6
330
37B
100
AcDbEntity
  8
GAIKEI
100
AcDbLine
 10
75.51536453941344
 20
-38.11366187873705
 30
0.0
 11
71.01536453941344
 21
-38.11366187873705
 31
0.0
  0
LINE
  5
F7
330
37B
100
AcDbEntity
  8
GAIKEI
  6
DASHED
100
AcDbLine
 10
75.36536453941358
 20
-38.413661878737
 30
0.0
 11
71.16536453941376
 21
-38.413661878737
 31
0.0
  0
ARC
  5
F9
330
37B
100
AcDbEntity
  8
GAIKEI
  6
DIVIDE
100
AcDbCircle
 10
72.36536453941312
 20
-37.86839938839262
 30
0.0
 40
3.000000000000134
100
AcDbArc
 50
95.01742421141297
 51
104.4775121859294
  0
LINE
  5
FA
330
37B
100
AcDbEntity
  8
GAIKEI
  6
DIVIDE
100
AcDbLine
 10
74.84036453941349
 20
-34.96366187873696
 30
0.0
 11
70.62536453941334
 21
-34.96366187873696
 31
0.0
  0
LINE
  5
FB
330
37B
100
AcDbEntity
  8
GAIKEI
  6
DIVIDE
100
AcDbLine
 10
70.5653645394134
 20
-35.0236618787369
 30
0.0
 11
74.41141140297509
 21
-35.0236618787369
 31
0.0
  0
LINE
  5
FF
330
37B
100
AcDbEntity
  8
GAIKEI
  6
DIVIDE
100
AcDbLine
 10
74.24036453941312
 20
-35.35366187873706
 30
0.0
 11
70.64036453941344
 21
-35.35366187873706
 31
0.0
  0
LINE
  5
101
330
37B
100
AcDbEntity
  8
GAIKEI
  6
DIVIDE
100
AcDbLine
 10
74.24036453941312
 20
-35.30866187873721
 30
0.0
 11
70.64036453941344
 21
-35.30866187873721
 31
0.0
  0
LINE
  5
102
330
37B
100
AcDbEntity
  8
GAIKEI
  6
DIVIDE
100
AcDbLine
 10
70.64036453941344
 20
-37.61866187873716
 30
0.0
 11
74.39036453941344
 21
-37.61866187873716
 31
0.0
  0
LINE
  5
103
330
37B
100
AcDbEntity
  8
GAIKEI
100
AcDbLine
 10
79.1903645394134
 20
-34.43866187873709
 30
0.0
 11
70.64036453941344
 21
-34.43866187873709
 31
0.0
  0
LINE
  5
104
330
37B
100
AcDbEntity
  8
GAIKEI
100
AcDbLine
 10
71.01536453941344
 20
-45.913661878737
 30
0.0
 11
75.51536453941344
 21
-45.913661878737
 31
0.0
  0
LINE
  5
105
330
37B
100
AcDbEntity
  8
GAIKEI
  6
DASHED
100
AcDbLine
 10
71.16536453941376
 20
-45.61366187873705
 30
0.0
 11
75.36536453941358
 21
-45.61366187873705
 31
0.0
  0
LINE
  5
106
330
37B
100
AcDbEntity
  8
GAIKEI
100
AcDbLine
 10
70.64036453941344
 20
-49.58866187873696
 30
0.0
 11
79.1903645394134
 21
-49.58866187873696
 31
0.0
  0
LINE
  5
107
330
37B
100
AcDbEntity
  8
GAIKEI
  6
DIVIDE
100
AcDbLine
 10
70.9403645394134
 20
-49.06366187873709
 30
0.0
 11
78.89036453941344
 21
-49.06366187873709
 31
0.0
  0
LINE
  5
108
330
37B
100
AcDbEntity
  8
GAIKEI
100
AcDbLine
 10
79.1903645394134
 20
-49.96366187873696
 30
0.0
 11
70.3732582759842
 21
-49.96366187873696
 31
0.0
  0
LINE
  5
109
330
37B
100
AcDbEntity
  8
GAIKEI
  6
DASHED
100
AcDbLine
 10
71.16536453941376
 20
-38.413661878737
 30
0.0
 11
71.16536453941376
 21
-45.61366187873705
 31
0.0
  0
LINE
  5
10B
330
37B
100
AcDbEntity
  8
GAIKEI
 62
     1
100
AcDbLine
 10
69.97848056840417
 20
-45.76366187873714
 30
0.0
 11
68.5164152152006
 21
-44.30159652553357
 31
0.0
  0
ARC
  5
10C
330
37B
100
AcDbEntity
  8
GAIKEI
100
AcDbCircle
 10
59.81236650405026
 20
-42.01366187873714
 30
0.0
 40
9.0
100
AcDbArc
 50
344.0379858371493
 51
15.96344600894356
  0
LINE
  5
10E
330
37B
100
AcDbEntity
  8
GAIKEI
  6
DIVIDE
100
AcDbLine
 10
70.1903645394134
 20
-48.31366187873709
 30
0.0
 11
70.1903645394134
 21
-37.82866187873674
 31
0.0
  0
LINE
  5
10F
330
37B
100
AcDbEntity
  8
GAIKEI
  6
DASHED
100
AcDbLine
 10
69.66536453941376
 20
-38.26366187873714
 30
0.0
 11
69.66536453941376
 21
-45.76366187873714
 31
0.0
  0
LINE
  5
110
330
37B
100
AcDbEntity
  8
GAIKEI
 62
     1
100
AcDbLine
 10
69.60499405719975
 20
-45.76366187873714
 30
0.0
 11
71.01536453941344
 21
-44.35329139652322
 31
0.0
  0
LINE
  5
111
330
37B
100
AcDbEntity
  8
GAIKEI
 62
     1
100
AcDbLine
 10
68.96859795413206
 20
-45.76366187873714
 30
0.0
 11
71.01536453941344
 21
-43.71689529345531
 31
0.0
  0
LINE
  5
112
330
37B
100
AcDbEntity
  8
GAIKEI
 62
     1
100
AcDbLine
 10
68.46536453941371
 20
-45.63049919038735
 30
0.0
 11
71.01536453941344
 21
-43.08049919038763
 31
0.0
  0
LINE
  5
113
330
37B
100
AcDbEntity
  8
GAIKEI
 62
     1
100
AcDbLine
 10
68.46536453941371
 20
-44.99410308731944
 30
0.0
 11
71.01536453941344
 21
-42.44410308731949
 31
0.0
  0
LINE
  5
114
330
37B
100
AcDbEntity
  8
GAIKEI
 62
     1
100
AcDbLine
 10
71.01536453941344
 20
-44.89135754054269
 30
0.0
 11
68.78862145907692
 21
-42.66461446020594
 31
0.0
  0
LINE
  5
115
330
37B
100
AcDbEntity
  8
GAIKEI
 62
     1
100
AcDbLine
 10
71.01536453941344
 20
-45.52775364361059
 30
0.0
 11
68.72815887976208
 21
-43.24054798395923
 31
0.0
  0
LINE
  5
116
330
37B
100
AcDbEntity
  8
GAIKEI
 62
     1
100
AcDbLine
 10
70.6148766714723
 20
-45.76366187873714
 30
0.0
 11
68.63604719843761
 21
-43.78483240570245
 31
0.0
  0
LINE
  5
117
330
37B
100
AcDbEntity
  8
GAIKEI
 62
     1
100
AcDbLine
 10
70.87778626333579
 20
-45.76366187873714
 30
0.0
 11
71.01536453941344
 21
-45.62608360265904
 31
0.0
  0
LINE
  5
118
330
37B
100
AcDbEntity
  8
GAIKEI
100
AcDbLine
 10
71.01536453941344
 20
-38.11366187873705
 30
0.0
 11
71.01536453941344
 21
-45.913661878737
 31
0.0
  0
LINE
  5
119
330
37B
100
AcDbEntity
  8
GAIKEI
 62
     1
100
AcDbLine
 10
69.34208446533626
 20
-45.76366187873714
 30
0.0
 11
68.46536453941371
 21
-44.88694195281414
 31
0.0
  0
LINE
  5
11A
330
37B
100
AcDbEntity
  8
GAIKEI
 62
     1
100
AcDbLine
 10
68.70568836226857
 20
-45.76366187873714
 30
0.0
 11
68.46536453941371
 21
-45.52333805588205
 31
0.0
  0
ARC
  5
11B
330
37B
100
AcDbEntity
  8
GAIKEI
  6
DASHED
100
AcDbCircle
 10
68.99036453941358
 20
-44.87383675943397
 30
0.0
 40
0.3000000000000005
100
AcDbArc
 50
162.0886157767596
 51
180.0
  0
ARC
  5
11C
330
37B
100
AcDbEntity
  8
GAIKEI
100
AcDbCircle
 10
68.99036453941358
 20
-46.13859897995462
 30
0.0
 40
0.3
100
AcDbArc
 50
180.0
 51
185.758413406102
  0
ARC
  5
11D
330
37B
100
AcDbEntity
  8
GAIKEI
  6
DASHED
100
AcDbCircle
 10
60.14110470303035
 20
-42.01366187873714
 30
0.0
 40
9.0
100
AcDbArc
 50
342.0886157767596
 51
17.91150251238833
  0
ARC
  5
11E
330
37B
100
AcDbEntity
  8
GAIKEI
100
AcDbCircle
 10
113.4647992092116
 20
-41.65366187873701
 30
0.0
 40
45.00000000000003
100
AcDbArc
 50
185.758413406102
 51
189.1749836787655
  0
LINE
  5
11F
330
37B
100
AcDbEntity
  8
GAIKEI
100
AcDbLine
 10
68.46536453941371
 20
-45.76366187873714
 30
0.0
 11
71.01536453941344
 21
-45.76366187873714
 31
0.0
  0
LINE
  5
120
330
37B
100
AcDbEntity
  8
GAIKEI
100
AcDbLine
 10
68.46536453941371
 20
-45.76366187873714
 30
0.0
 11
68.46536453941371
 21
-44.48866187873705
 31
0.0
  0
LINE
  5
121
330
37B
100
AcDbEntity
  8
GAIKEI
100
AcDbLine
 10
69.66536453941376
 20
-45.76366187873714
 30
0.0
 11
69.66536453941376
 21
-48.61366187873705
 31
0.0
  0
LINE
  5
122
330
37B
100
AcDbEntity
  8
GAIKEI
  6
DASHED
100
AcDbLine
 10
68.6903645394134
 20
-45.76366187873714
 30
0.0
 11
68.6903645394134
 21
-44.87383675943397
 31
0.0
  0
LINE
  5
123
330
37B
100
AcDbEntity
  8
GAIKEI
100
AcDbLine
 10
68.6903645394134
 20
-45.76366187873714
 30
0.0
 11
68.6903645394134
 21
-46.13859897995462
 31
0.0
  0
LINE
  5
124
330
37B
100
AcDbEntity
  8
GAIKEI
 62
     1
100
AcDbLine
 10
70.24139016026743
 20
-45.76366187873714
 30
0.0
 11
71.01536453941344
 21
-44.98968749959113
 31
0.0
  0
ARC
  5
125
330
37B
100
AcDbEntity
  8
GAIKEI
100
AcDbCircle
 10
70.64036453941344
 20
-48.61366187873705
 30
0.0
 40
0.9750000000000001
100
AcDbArc
 50
180.0
 51
270.0
  0
ARC
  5
126
330
37B
100
AcDbEntity
  8
GAIKEI
  6
DIVIDE
100
AcDbCircle
 10
70.9403645394134
 20
-48.31366187873709
 30
0.0
 40
0.75
100
AcDbArc
 50
180.0
 51
270.0
  0
ARC
  5
128
330
37B
100
AcDbEntity
  8
GAIKEI
100
AcDbCircle
 10
70.3732582759842
 20
-48.61366187873705
 30
0.0
 40
1.349999999999998
100
AcDbArc
 50
189.1749836787655
 51
270.0
  0
LINE
  5
129
330
37B
100
AcDbEntity
  8
GAIKEI
100
AcDbLine
 10
59.06656701367865
 20
-42.07366187873708
 30
0.0
 11
59.06656701367865
 21
-42.67366187873722
 31
0.0
  0
LINE
  5
12A
330
37B
100
AcDbEntity
  8
GAIKEI
 62
     1
100
AcDbLine
 10
71.01536453941344
 20
-38.52739650986382
 30
0.0
 11
70.75162990828699
 21
-38.26366187873714
 31
0.0
  0
ARC
  5
12B
330
37B
100
AcDbEntity
  8
GAIKEI
  6
DIVIDE
100
AcDbCircle
 10
70.53536453941365
 20
-35.0536618787371
 30
0.0
 40
0.0300000000000068
100
AcDbArc
 50
270.0
 51
0.0
  0
LINE
  5
12D
330
37B
100
AcDbEntity
  8
GAIKEI
  6
DIVIDE
100
AcDbLine
 10
70.5653645394134
 20
-35.0236618787369
 30
0.0
 11
70.5653645394134
 21
-35.0536618787371
 31
0.0
  0
LINE
  5
12E
330
37B
100
AcDbEntity
  8
GAIKEI
  6
DIVIDE
100
AcDbLine
 10
70.62536453941334
 20
-34.96366187873696
 30
0.0
 11
70.5653645394134
 21
-35.0236618787369
 31
0.0
  0
LINE
  5
12F
330
37B
100
AcDbEntity
  8
GAIKEI
  6
DIVIDE
100
AcDbLine
 10
70.49036453941312
 20
-35.08366187873708
 30
0.0
 11
74.39036453941344
 21
-35.08366187873708
 31
0.0
  0
LINE
  5
133
330
37B
100
AcDbEntity
  8
GAIKEI
  6
DIVIDE
100
AcDbLine
 10
70.64036453941344
 20
-35.30866187873721
 30
0.0
 11
70.64036453941344
 21
-37.61866187873716
 31
0.0
  0
LINE
  5
134
330
37B
100
AcDbEntity
  8
GAIKEI
 62
     1
100
AcDbLine
 10
68.54233750660956
 20
-39.82596129558056
 30
0.0
 11
70.10463692345297
 21
-38.26366187873714
 31
0.0
  0
LINE
  5
135
330
37B
100
AcDbEntity
  8
GAIKEI
 62
     1
100
AcDbLine
 10
68.46536453941371
 20
-39.26653815970872
 30
0.0
 11
69.46824082038506
 21
-38.26366187873714
 31
0.0
  0
LINE
  5
136
330
37B
100
AcDbEntity
  8
GAIKEI
 62
     1
100
AcDbLine
 10
68.46536453941371
 20
-38.63014205664058
 30
0.0
 11
68.83184471731715
 21
-38.26366187873714
 31
0.0
  0
ARC
  5
137
330
37B
100
AcDbEntity
  8
GAIKEI
  6
DASHED
100
AcDbCircle
 10
68.99036453941358
 20
-39.15348699804008
 30
0.0
 40
0.3
100
AcDbArc
 50
180.0
 51
197.9113842232404
  0
ARC
  5
138
330
37B
100
AcDbEntity
  8
GAIKEI
100
AcDbCircle
 10
68.99036453941358
 20
-37.5287247775193
 30
0.0
 40
0.2999999999999935
100
AcDbArc
 50
174.241586593898
 51
180.0
  0
ARC
  5
139
330
37B
100
AcDbEntity
  8
GAIKEI
  6
DIVIDE
100
AcDbCircle
 10
70.2203645394136
 20
-37.6936618787372
 30
0.0
 40
0.0300000000001773
100
AcDbArc
 50
180.0
 51
270.0
  0
ARC
  5
13A
330
37B
100
AcDbEntity
  8
GAIKEI
  6
DIVIDE
100
AcDbCircle
 10
70.2203645394136
 20
-37.82866187873674
 30
0.0
 40
0.0299999999998704
100
AcDbArc
 50
90.0
 51
180.0
  0
ARC
  5
13B
330
37B
100
AcDbEntity
  8
GAIKEI
100
AcDbCircle
 10
102.3031882173318
 20
-41.41666558716793
 30
0.0
 40
33.83890059277272
100
AcDbArc
 50
169.4111105378272
 51
173.3510885544572
  0
LINE
  5
13D
330
37B
100
AcDbEntity
  8
GAIKEI
100
AcDbLine
 10
68.46536453941371
 20
-38.26366187873714
 30
0.0
 11
68.46536453941371
 21
-39.538661878737
 31
0.0
  0
LINE
  5
13E
330
37B
100
AcDbEntity
  8
GAIKEI
100
AcDbLine
 10
68.46536453941371
 20
-38.26366187873714
 30
0.0
 11
71.01536453941344
 21
-38.26366187873714
 31
0.0
  0
LINE
  5
13F
330
37B
100
AcDbEntity
  8
GAIKEI
  6
DASHED
100
AcDbLine
 10
68.6903645394134
 20
-39.15348699804008
 30
0.0
 11
68.6903645394134
 21
-38.26366187873714
 31
0.0
  0
LINE
  5
140
330
37B
100
AcDbEntity
  8
GAIKEI
100
AcDbLine
 10
68.6903645394134
 20
-37.5287247775193
 30
0.0
 11
68.6903645394134
 21
-38.26366187873714
 31
0.0
  0
LINE
  5
141
330
37B
100
AcDbEntity
  8
GAIKEI
100
AcDbLine
 10
69.66536453941376
 20
-35.41366187873723
 30
0.0
 11
69.66536453941376
 21
-38.26366187873714
 31
0.0
  0
LINE
  5
142
330
37B
100
AcDbEntity
  8
GAIKEI
  6
DIVIDE
100
AcDbLine
 10
70.26536453941344
 20
-37.79866187873699
 30
0.0
 11
70.26536453941344
 21
-37.72366187873718
 31
0.0
  0
LINE
  5
144
330
37B
100
AcDbEntity
  8
GAIKEI
  6
DIVIDE
100
AcDbLine
 10
70.1903645394134
 20
-37.72774839347539
 30
0.0
 11
70.1903645394134
 21
-35.38366187873703
 31
0.0
  0
LINE
  5
149
330
37B
100
AcDbEntity
  8
GAIKEI
 62
     1
100
AcDbLine
 10
68.78033154783475
 20
-42.76994776969491
 30
0.0
 11
71.01536453941344
 21
-40.53491477811576
 31
0.0
  0
LINE
  5
14A
330
37B
100
AcDbEntity
  8
GAIKEI
 62
     1
100
AcDbLine
 10
68.81159305677761
 20
-42.10229015768414
 30
0.0
 11
71.01536453941344
 21
-39.89851867504808
 31
0.0
  0
LINE
  5
14B
330
37B
100
AcDbEntity
  8
GAIKEI
 62
     1
100
AcDbLine
 10
68.79627531275082
 20
-41.48121179864302
 30
0.0
 11
71.01536453941344
 21
-39.26212257198017
 31
0.0
  0
LINE
  5
14C
330
37B
100
AcDbEntity
  8
GAIKEI
 62
     1
100
AcDbLine
 10
68.74283546931952
 20
-40.89825553900619
 30
0.0
 11
71.01536453941344
 21
-38.62572646891203
 31
0.0
  0
LINE
  5
14D
330
37B
100
AcDbEntity
  8
GAIKEI
 62
     1
100
AcDbLine
 10
71.01536453941344
 20
-41.07298092213546
 30
0.0
 11
68.46536453941371
 21
-38.52298092213528
 31
0.0
  0
LINE
  5
14E
330
37B
100
AcDbEntity
  8
GAIKEI
 62
     1
100
AcDbLine
 10
71.01536453941344
 20
-41.70937702520314
 30
0.0
 11
68.46536453941371
 21
-39.15937702520318
 31
0.0
  0
LINE
  5
14F
330
37B
100
AcDbEntity
  8
GAIKEI
 62
     1
100
AcDbLine
 10
71.01536453941344
 20
-42.34577312827128
 30
0.0
 11
68.55737183540032
 21
-39.88778042425815
 31
0.0
  0
LINE
  5
150
330
37B
100
AcDbEntity
  8
GAIKEI
 62
     1
100
AcDbLine
 10
71.01536453941344
 20
-42.98216923133896
 30
0.0
 11
68.71256365146769
 21
-40.67936834339321
 31
0.0
  0
LINE
  5
151
330
37B
100
AcDbEntity
  8
GAIKEI
 62
     1
100
AcDbLine
 10
68.5146502032294
 20
-44.30842132043585
 30
0.0
 11
71.01536453941344
 21
-41.80770698425158
 31
0.0
  0
LINE
  5
152
330
37B
100
AcDbEntity
  8
GAIKEI
 62
     1
100
AcDbLine
 10
68.68879131293193
 20
-43.49788410766541
 30
0.0
 11
71.01536453941344
 21
-41.1713108811839
 31
0.0
  0
LINE
  5
153
330
37B
100
AcDbEntity
  8
GAIKEI
 62
     1
100
AcDbLine
 10
71.01536453941344
 20
-43.61856533440687
 30
0.0
 11
68.79095046190582
 21
-41.39415125689925
 31
0.0
  0
LINE
  5
154
330
37B
100
AcDbEntity
  8
GAIKEI
 62
     1
100
AcDbLine
 10
71.01536453941344
 20
-44.254961437475
 30
0.0
 11
68.81203514345975
 21
-42.05163204152086
 31
0.0
  0
LINE
  5
155
330
37B
100
AcDbEntity
  8
GAIKEI
 62
     1
100
AcDbLine
 10
68.65659643616914
 20
-40.34809846908865
 30
0.0
 11
70.74103302652088
 21
-38.26366187873714
 31
0.0
  0
LINE
  5
156
330
37B
100
AcDbEntity
  8
GAIKEI
 62
     1
100
AcDbLine
 10
71.01536453941344
 20
-39.16379261293173
 30
0.0
 11
70.11523380521908
 21
-38.26366187873714
 31
0.0
  0
LINE
  5
157
330
37B
100
AcDbEntity
  8
GAIKEI
 62
     1
100
AcDbLine
 10
71.01536453941344
 20
-39.80018871599964
 30
0.0
 11
69.47883770215094
 21
-38.26366187873714
 31
0.0
  0
LINE
  5
158
330
37B
100
AcDbEntity
  8
GAIKEI
 62
     1
100
AcDbLine
 10
71.01536453941344
 20
-40.43658481906755
 30
0.0
 11
68.84244159908326
 21
-38.26366187873714
 31
0.0
  0
ARC
  5
159
330
37B
100
AcDbEntity
  8
GAIKEI
  6
DIVIDE
100
AcDbCircle
 10
70.49036453941312
 20
-35.38366187873703
 30
0.0
 40
0.299999999999966
100
AcDbArc
 50
90.0
 51
180.0
  0
LINE
  5
15B
330
37B
100
AcDbEntity
  8
GAIKEI
  6
DIVIDE
100
AcDbLine
 10
79.61036453941347
 20
-37.79866187873699
 30
0.0
 11
70.2203645394136
 21
-37.79866187873699
 31
0.0
  0
LINE
  5
15C
330
37B
100
AcDbEntity
  8
GAIKEI
  6
DIVIDE
100
AcDbLine
 10
79.61036453941347
 20
-37.72366187873718
 30
0.0
 11
70.2203645394136
 21
-37.72366187873718
 31
0.0
  0
ARC
  5
15D
330
37B
100
AcDbEntity
  8
GAIKEI
100
AcDbCircle
 10
51.59036453941349
 20
-42.01366187873714
 30
0.0
 40
29.99999999999999
100
AcDbArc
 50
352.8192442185423
 51
7.180003009588054
  0
LINE
  5
161
330
37B
100
AcDbEntity
  8
GAIKEI
100
AcDbLine
 10
75.51536453941344
 20
-45.913661878737
 30
0.0
 11
75.51536453941344
 21
-38.11366187873705
 31
0.0
  0
LINE
  5
162
330
37B
100
AcDbEntity
  8
GAIKEI
  6
DASHED
100
AcDbLine
 10
75.36536453941358
 20
-45.61366187873705
 30
0.0
 11
75.36536453941358
 21
-38.413661878737
 31
0.0
  0
LINE
  5
164
330
37B
100
AcDbEntity
  8
GAIKEI
  6
DIVIDE
100
AcDbLine
 10
79.64036453941344
 20
-37.82866187873674
 30
0.0
 11
79.64036453941344
 21
-48.31366187873709
 31
0.0
  0
ARC
  5
165
330
37B
100
AcDbEntity
  8
GAIKEI
100
AcDbCircle
 10
79.1903645394134
 20
-48.61366187873705
 30
0.0
 40
0.9750000000000001
100
AcDbArc
 50
270.0
 51
0.0
  0
LINE
  5
166
330
37B
100
AcDbEntity
  8
GAIKEI
100
AcDbLine
 10
75.51536453941344
 20
-45.76366187873714
 30
0.0
 11
81.3550667888901
 21
-45.76366187873714
 31
0.0
  0
ARC
  5
167
330
37B
100
AcDbEntity
  8
GAIKEI
100
AcDbCircle
 10
79.1903645394134
 20
-48.61366187873705
 30
0.0
 40
1.35
100
AcDbArc
 50
270.0
 51
0.0
  0
ARC
  5
168
330
37B
100
AcDbEntity
  8
GAIKEI
  6
DIVIDE
100
AcDbCircle
 10
78.89036453941344
 20
-48.31366187873709
 30
0.0
 40
0.749999999999966
100
AcDbArc
 50
270.0
 51
0.0
  0
ARC
  5
16A
330
37B
100
AcDbEntity
  8
GAIKEI
100
AcDbCircle
 10
80.84036453941371
 20
-47.65366187873701
 30
0.0
 40
0.2999999999999919
100
AcDbArc
 50
168.5788137249941
 51
180.0
  0
ARC
  5
16B
330
37B
100
AcDbEntity
  8
GAIKEI
  6
DASHED
100
AcDbCircle
 10
80.88971747355322
 20
-45.64366187873702
 30
0.0
 40
0.0299999999999941
100
AcDbArc
 50
353.0431899304205
 51
90.0
  0
ARC
  5
16C
330
37B
100
AcDbEntity
  8
GAIKEI
  6
DASHED
100
AcDbCircle
 10
80.91458997014456
 20
-45.43366187873721
 30
0.0
 40
0.0300000000000068
100
AcDbArc
 50
270.0
 51
353.4474688433384
  0
ARC
  5
16D
330
37B
100
AcDbEntity
  8
GAIKEI
  6
DASHED
100
AcDbCircle
 10
80.3453645394136
 20
-45.43366187873721
 30
0.0
 40
0.0300000000000004
100
AcDbArc
 50
180.0
 51
270.0
  0
ARC
  5
16E
330
37B
100
AcDbEntity
  8
GAIKEI
  6
DASHED
100
AcDbCircle
 10
51.14036453941344
 20
-42.01366187873714
 30
0.0
 40
29.99999999999997
100
AcDbArc
 50
353.4474688433513
 51
6.555479012895447
  0
ARC
  5
16F
330
37B
100
AcDbEntity
  8
GAIKEI
100
AcDbCircle
 10
59.55038224170357
 20
-42.5605312509208
 30
0.0
 40
21.59090461985975
100
AcDbArc
 50
346.5179347267322
 51
351.7804902628037
  0
LINE
  5
171
330
37B
100
AcDbEntity
  8
GAIKEI
  6
DASHED
100
AcDbLine
 10
80.3153645394134
 20
-38.59366187873707
 30
0.0
 11
80.3153645394134
 21
-45.43366187873721
 31
0.0
  0
LINE
  5
172
330
37B
100
AcDbEntity
  8
GAIKEI
100
AcDbLine
 10
80.54036453941376
 20
-47.65366187873701
 30
0.0
 11
80.54036453941376
 21
-48.61366187873705
 31
0.0
  0
LINE
  5
173
330
37B
100
AcDbEntity
  8
GAIKEI
100
AcDbLine
 10
80.16536453941376
 20
-48.61366187873705
 30
0.0
 11
80.16536453941376
 21
-45.61366187873705
 31
0.0
  0
LINE
  5
174
330
37B
100
AcDbEntity
  8
GAIKEI
  6
DASHED
100
AcDbLine
 10
80.16536453941376
 20
-45.61366187873705
 30
0.0
 11
80.88971747355322
 21
-45.61366187873705
 31
0.0
  0
LINE
  5
175
330
37B
100
AcDbEntity
  8
GAIKEI
  6
DASHED
100
AcDbLine
 10
80.36214643352082
 20
-45.46366187873696
 30
0.0
 11
80.36214643352082
 21
-45.61366187873705
 31
0.0
  0
LINE
  5
176
330
37B
100
AcDbEntity
  8
GAIKEI
  6
DASHED
100
AcDbLine
 10
80.6903645394134
 20
-45.46366187873696
 30
0.0
 11
80.6903645394134
 21
-45.61366187873705
 31
0.0
  0
LINE
  5
177
330
37B
100
AcDbEntity
  8
GAIKEI
  6
DASHED
100
AcDbLine
 10
80.91458997014456
 20
-45.46366187873696
 30
0.0
 11
80.3453645394136
 21
-45.46366187873696
 31
0.0
  0
LINE
  5
179
330
37B
100
AcDbEntity
  8
GAIKEI
  6
DASHED
100
AcDbLine
 10
80.61536453941358
 20
-45.46366187873696
 30
0.0
 11
80.61536453941358
 21
-38.56366187873709
 31
0.0
  0
LINE
  5
17A
330
37B
100
AcDbEntity
  8
GAIKEI
100
AcDbLine
 10
75.51536453941344
 20
-38.26366187873714
 30
0.0
 11
81.3550667888901
 21
-38.26366187873714
 31
0.0
  0
ARC
  5
17B
330
37B
100
AcDbEntity
  8
GAIKEI
  6
DIVIDE
100
AcDbCircle
 10
79.34036453941349
 20
-37.48366187873717
 30
0.0
 40
0.3
100
AcDbArc
 50
0.0
 51
90.0
  0
ARC
  5
17C
330
37B
100
AcDbEntity
  8
GAIKEI
  6
DIVIDE
100
AcDbCircle
 10
79.29536453941341
 20
-37.15366187873701
 30
0.0
 40
0.0300000000001795
100
AcDbArc
 50
180.0
 51
270.0
  0
ARC
  5
17D
330
37B
100
AcDbEntity
  8
GAIKEI
  6
DIVIDE
100
AcDbCircle
 10
79.61036453941347
 20
-37.6936618787372
 30
0.0
 40
0.0299999999999727
100
AcDbArc
 50
270.0
 51
0.0
  0
ARC
  5
17E
330
37B
100
AcDbEntity
  8
GAIKEI
  6
DIVIDE
100
AcDbCircle
 10
79.61036453941347
 20
-37.82866187873674
 30
0.0
 40
0.0299999999999706
100
AcDbArc
 50
0.0
 51
90.0
  0
ARC
  5
17F
330
37B
100
AcDbEntity
  8
GAIKEI
  6
DIVIDE
100
AcDbCircle
 10
78.5078645394135
 20
-34.90266217354883
 30
0.0
 40
0.1200000000000316
100
AcDbArc
 50
180.0
 51
242.0468131165762
  0
ARC
  5
180
330
37B
100
AcDbEntity
  8
GAIKEI
  6
DIVIDE
100
AcDbCircle
 10
78.39536453941355
 20
-35.11466158392523
 30
0.0
 40
0.1200000000000316
100
AcDbArc
 50
0.0
 51
62.04681311661682
  0
LINE
  5
181
330
37B
100
AcDbEntity
  8
GAIKEI
  6
DIVIDE
100
AcDbLine
 10
79.64036453941344
 20
-37.48366187873717
 30
0.0
 11
79.64036453941344
 21
-37.6936618787372
 31
0.0
  0
LINE
  5
182
330
37B
100
AcDbEntity
  8
GAIKEI
  6
DIVIDE
100
AcDbLine
 10
79.5653645394134
 20
-37.72366187873718
 30
0.0
 11
79.5653645394134
 21
-37.79866187873699
 31
0.0
  0
LINE
  5
183
330
37B
100
AcDbEntity
  8
GAIKEI
  6
DIVIDE
100
AcDbLine
 10
78.74036453941312
 20
-36.88366187873703
 30
0.0
 11
78.74036453941312
 21
-36.43366187873721
 31
0.0
  0
LINE
  5
184
330
37B
100
AcDbEntity
  8
GAIKEI
  6
DIVIDE
100
AcDbLine
 10
78.81536453941317
 20
-36.50866187873703
 30
0.0
 11
78.74036453941312
 21
-36.43366187873721
 31
0.0
  0
LINE
  5
185
330
37B
100
AcDbEntity
  8
GAIKEI
  6
DIVIDE
100
AcDbLine
 10
79.2053645394135
 20
-36.88366187873703
 30
0.0
 11
79.26536453941344
 21
-36.9436618787372
 31
0.0
  0
LINE
  5
187
330
37B
100
AcDbEntity
  8
GAIKEI
  6
DIVIDE
100
AcDbLine
 10
79.26536453941344
 20
-37.15366187873701
 30
0.0
 11
79.26536453941344
 21
-36.9436618787372
 31
0.0
  0
LINE
  5
188
330
37B
100
AcDbEntity
  8
GAIKEI
  6
DIVIDE
100
AcDbLine
 10
78.81536453941317
 20
-36.50866187873703
 30
0.0
 11
78.81536453941317
 21
-36.88366187873703
 31
0.0
  0
LINE
  5
18B
330
37B
100
AcDbEntity
  8
GAIKEI
  6
DIVIDE
100
AcDbLine
 10
78.51536453941344
 20
-36.43366187873721
 30
0.0
 11
78.51536453941344
 21
-35.11466158392523
 31
0.0
  0
ARC
  5
18C
330
37B
100
AcDbEntity
  8
GAIKEI
  6
DIVIDE
100
AcDbCircle
 10
74.99036453941312
 20
-35.31394003347691
 30
0.0
 40
0.075
100
AcDbArc
 50
180.0
 51
231.3401917459913
  0
LINE
  5
18F
330
37B
100
AcDbEntity
  8
GAIKEI
  6
DIVIDE
100
AcDbLine
 10
74.9153645394133
 20
-35.34998689703866
 30
0.0
 11
74.943512410847
 21
-35.37250519418535
 31
0.0
  0
ARC
  5
190
330
37B
100
AcDbEntity
  8
GAIKEI
  6
DIVIDE
100
AcDbCircle
 10
74.84036453941349
 20
-35.038661878737
 30
0.0
 40
0.075
100
AcDbArc
 50
0.0
 51
90.0
  0
ARC
  5
191
330
37B
100
AcDbEntity
  8
GAIKEI
  6
DIVIDE
100
AcDbCircle
 10
74.36405595996189
 20
-35.15866187873712
 30
0.0
 40
0.0749999999999441
100
AcDbArc
 50
51.34019174607472
 51
90.0
  0
ARC
  5
192
330
37B
100
AcDbEntity
  8
GAIKEI
  6
DIVIDE
100
AcDbCircle
 10
74.3587942440713
 20
-35.17366187873699
 30
0.0
 40
0.149999999999968
100
AcDbArc
 50
51.34019174592618
 51
90.0
  0
ARC
  5
193
330
37B
100
AcDbEntity
  8
GAIKEI
  6
DIVIDE
100
AcDbCircle
 10
74.35353252818118
 20
-35.18866187873687
 30
0.0
 40
0.2249999999998854
100
AcDbArc
 50
51.34019174591805
 51
90.0
  0
ARC
  5
194
330
37B
100
AcDbEntity
  8
GAIKEI
  6
DIVIDE
100
AcDbCircle
 10
72.36536453941312
 20
-37.87989494707449
 30
0.0
 40
3.00000000000015
100
AcDbArc
 50
84.98257578858703
 51
86.41497960207259
  0
ARC
  5
195
330
37B
100
AcDbEntity
  8
GAIKEI
  6
DIVIDE
100
AcDbCircle
 10
72.36536453941312
 20
-37.87989494707449
 30
0.0
 40
3.000000000000158
100
AcDbArc
 50
89.28379809325534
 51
90.71620190673163
  0
ARC
  5
196
330
37B
100
AcDbEntity
  8
GAIKEI
  6
DIVIDE
100
AcDbCircle
 10
72.59036453941349
 20
-34.88834434579735
 30
0.0
 40
0.037500000000179
100
AcDbArc
 50
355.3406767419711
 51
176.0568786486864
  0
ARC
  5
197
330
37B
100
AcDbEntity
  8
GAIKEI
  6
DIVIDE
100
AcDbCircle
 10
72.14036453941344
 20
-34.88834434579735
 30
0.0
 40
0.0375000000000074
100
AcDbArc
 50
3.943121351313615
 51
184.6593232580548
  0
ARC
  5
198
330
37B
100
AcDbEntity
  8
GAIKEI
  6
DIVIDE
100
AcDbCircle
 10
72.36536453941312
 20
-34.87989494707449
 30
0.0
 40
0.037500000000074
100
AcDbArc
 50
359.6418990468707
 51
180.3581009531293
  0
ARC
  5
199
330
37B
100
AcDbEntity
  8
GAIKEI
  6
DIVIDE
100
AcDbCircle
 10
72.36536453941312
 20
-37.86839938839262
 30
0.0
 40
3.000000000000155
100
AcDbArc
 50
90.71620190673163
 51
93.58502039792741
  0
ARC
  5
19A
330
37B
100
AcDbEntity
  8
GAIKEI
  6
DIVIDE
100
AcDbCircle
 10
72.36536453941312
 20
-37.86839938839262
 30
0.0
 40
3.000000000000119
100
AcDbArc
 50
86.41497960207259
 51
89.28379809325534
  0
ARC
  5
19B
330
37B
100
AcDbEntity
  8
GAIKEI
  6
DIVIDE
100
AcDbCircle
 10
72.36536453941312
 20
-37.86839938839262
 30
0.0
 40
3.000000000000128
100
AcDbArc
 50
75.52248781407056
 51
84.98257578858703
  0
ARC
  5
19C
330
37B
100
AcDbEntity
  8
GAIKEI
  6
DIVIDE
100
AcDbCircle
 10
72.59036453941349
 20
-34.8768487871157
 30
0.0
 40
0.037500000000179
100
AcDbArc
 50
355.3406767419711
 51
176.0568786487384
  0
ARC
  5
19D
330
37B
100
AcDbEntity
  8
GAIKEI
  6
DIVIDE
100
AcDbCircle
 10
72.36536453941312
 20
-34.86839938839262
 30
0.0
 40
0.037500000000074
100
AcDbArc
 50
359.6418990468707
 51
180.3581009531293
  0
ARC
  5
19E
330
37B
100
AcDbEntity
  8
GAIKEI
  6
DIVIDE
100
AcDbCircle
 10
72.14036453941344
 20
-34.8768487871157
 30
0.0
 40
0.0375000000000051
100
AcDbArc
 50
3.943121351261628
 51
184.6593232580548
  0
ARC
  5
19F
330
37B
100
AcDbEntity
  8
GAIKEI
  6
DIVIDE
100
AcDbCircle
 10
72.36536453941312
 20
-37.87989494707449
 30
0.0
 40
3.00000000000005
100
AcDbArc
 50
93.57403349314939
 51
95.01742421141297
  0
LINE
  5
1A0
330
37B
100
AcDbEntity
  8
GAIKEI
  6
DIVIDE
100
AcDbLine
 10
74.9153645394133
 20
-35.31394003347691
 30
0.0
 11
74.9153645394133
 21
-35.038661878737
 31
0.0
  0
LINE
  5
1A2
330
37B
100
AcDbEntity
  8
GAIKEI
  6
DIVIDE
100
AcDbLine
 10
74.39036453941344
 20
-35.08366187873708
 30
0.0
 11
77.01536453941344
 21
-37.18366187873721
 31
0.0
  0
LINE
  5
1A4
330
37B
100
AcDbEntity
  8
GAIKEI
  6
DIVIDE
100
AcDbLine
 10
74.41141140297509
 20
-35.0236618787369
 30
0.0
 11
76.81141140297473
 21
-36.9436618787372
 31
0.0
  0
LINE
  5
1A6
330
37B
100
AcDbEntity
  8
GAIKEI
  6
DIVIDE
100
AcDbLine
 10
74.43245826653651
 20
-34.96366187873696
 30
0.0
 11
74.9153645394133
 21
-35.34998689703866
 31
0.0
  0
LINE
  5
1AB
330
37B
100
AcDbEntity
  8
GAIKEI
  6
DIVIDE
100
AcDbLine
 10
74.24036453941312
 20
-35.35366187873706
 30
0.0
 11
74.39036453941344
 21
-35.50366187873715
 31
0.0
  0
LINE
  5
1AC
330
37B
100
AcDbEntity
  8
GAIKEI
  6
DIVIDE
100
AcDbLine
 10
74.39036453941344
 20
-37.61866187873716
 30
0.0
 11
74.39036453941344
 21
-35.45866187873708
 31
0.0
  0
LINE
  5
1AD
330
37B
100
AcDbEntity
  8
GAIKEI
  6
DIVIDE
100
AcDbLine
 10
74.24036453941312
 20
-35.30866187873721
 30
0.0
 11
74.39036453941344
 21
-35.45866187873708
 31
0.0
  0
ARC
  5
1AE
330
37B
100
AcDbEntity
  8
GAIKEI
  6
DIVIDE
100
AcDbCircle
 10
77.04167311886499
 20
-37.10866187873717
 30
0.0
 40
0.0749999999999174
100
AcDbArc
 50
231.3401917458896
 51
270.0
  0
ARC
  5
1AF
330
37B
100
AcDbEntity
  8
GAIKEI
  6
DIVIDE
100
AcDbCircle
 10
76.85876684598838
 20
-36.80866187873721
 30
0.0
 40
0.0749999999999441
100
AcDbArc
 50
231.3401917459079
 51
270.0
  0
ARC
  5
1B0
330
37B
100
AcDbEntity
  8
GAIKEI
  6
DIVIDE
100
AcDbCircle
 10
76.86402856187874
 20
-36.79366187873711
 30
0.0
 40
0.1500000000000986
100
AcDbArc
 50
231.3401917458712
 51
270.0
  0
ARC
  5
1B1
330
37B
100
AcDbEntity
  8
GAIKEI
  6
DIVIDE
100
AcDbCircle
 10
77.62286453941374
 20
-34.90266217354883
 30
0.0
 40
0.1199999999999837
100
AcDbArc
 50
297.9531868834123
 51
0.0
  0
ARC
  5
1B2
330
37B
100
AcDbEntity
  8
GAIKEI
  6
DIVIDE
100
AcDbCircle
 10
77.73536453941392
 20
-35.11466158392523
 30
0.0
 40
0.120000000000016
100
AcDbArc
 50
117.9531868833832
 51
180.0
  0
LINE
  5
1B3
330
37B
100
AcDbEntity
  8
GAIKEI
  6
DIVIDE
100
AcDbLine
 10
77.39036453941321
 20
-36.88366187873703
 30
0.0
 11
77.39036453941321
 21
-36.43366187873721
 31
0.0
  0
LINE
  5
1B4
330
37B
100
AcDbEntity
  8
GAIKEI
  6
DIVIDE
100
AcDbLine
 10
77.39036453941321
 20
-36.43366187873721
 30
0.0
 11
77.31536453941317
 21
-36.50866187873703
 31
0.0
  0
LINE
  5
1B5
330
37B
100
AcDbEntity
  8
GAIKEI
  6
DIVIDE
100
AcDbLine
 10
77.31536453941317
 20
-36.88366187873703
 30
0.0
 11
77.31536453941317
 21
-36.50866187873703
 31
0.0
  0
LINE
  5
1B6
330
37B
100
AcDbEntity
  8
GAIKEI
  6
DIVIDE
100
AcDbLine
 10
74.943512410847
 20
-35.37250519418535
 30
0.0
 11
76.83245826653638
 21
-36.88366187873703
 31
0.0
  0
LINE
  5
1B7
330
37B
100
AcDbEntity
  8
GAIKEI
  6
DIVIDE
100
AcDbLine
 10
79.34036453941349
 20
-37.18366187873721
 30
0.0
 11
77.01536453941344
 21
-37.18366187873721
 31
0.0
  0
LINE
  5
1B9
330
37B
100
AcDbEntity
  8
GAIKEI
  6
DIVIDE
100
AcDbLine
 10
79.2053645394135
 20
-36.88366187873703
 30
0.0
 11
76.83245826653638
 21
-36.88366187873703
 31
0.0
  0
LINE
  5
1BB
330
37B
100
AcDbEntity
  8
GAIKEI
  6
DIVIDE
100
AcDbLine
 10
76.81141140297473
 20
-36.9436618787372
 30
0.0
 11
79.26536453941344
 21
-36.9436618787372
 31
0.0
  0
LINE
  5
1BE
330
37B
100
AcDbEntity
  8
GAIKEI
  6
DIVIDE
100
AcDbLine
 10
78.51536453941344
 20
-35.60866187873694
 30
0.0
 11
77.61536453941358
 21
-35.60866187873694
 31
0.0
  0
LINE
  5
1BF
330
37B
100
AcDbEntity
  8
GAIKEI
  6
DIVIDE
100
AcDbLine
 10
77.61536453941358
 20
-35.11466158392523
 30
0.0
 11
77.61536453941358
 21
-36.43366187873721
 31
0.0
  0
LINE
  5
1C5
330
37B
100
AcDbEntity
  8
GAIKEI
  6
DIVIDE
100
AcDbLine
 10
78.81536453941317
 20
-36.50866187873703
 30
0.0
 11
77.31536453941317
 21
-36.50866187873703
 31
0.0
  0
LINE
  5
1C7
330
37B
100
AcDbEntity
  8
GAIKEI
  6
DIVIDE
100
AcDbLine
 10
77.39036453941321
 20
-36.43366187873721
 30
0.0
 11
78.74036453941312
 21
-36.43366187873721
 31
0.0
  0
ARC
  5
1CB
330
37B
100
AcDbEntity
  8
GAIKEI
100
AcDbCircle
 10
80.84036453941371
 20
-36.37366187873727
 30
0.0
 40
0.3
100
AcDbArc
 50
180.0
 51
191.4211862749931
  0
ARC
  5
1CC
330
37B
100
AcDbEntity
  8
GAIKEI
  6
DASHED
100
AcDbCircle
 10
80.88971747355322
 20
-38.38366187873703
 30
0.0
 40
0.0299999999999898
100
AcDbArc
 50
270.0
 51
6.956810069566585
  0
ARC
  5
1CD
330
37B
100
AcDbEntity
  8
GAIKEI
  6
DASHED
100
AcDbCircle
 10
80.91458997014456
 20
-38.59366187873707
 30
0.0
 40
0.0299999999999965
100
AcDbArc
 50
6.552531156622849
 51
90.0
  0
ARC
  5
1CE
330
37B
100
AcDbEntity
  8
GAIKEI
  6
DASHED
100
AcDbCircle
 10
80.3453645394136
 20
-38.59366187873707
 30
0.0
 40
0.0299999999999898
100
AcDbArc
 50
90.0
 51
180.0
  0
ARC
  5
1CF
330
37B
100
AcDbEntity
  8
GAIKEI
  6
DASHED
100
AcDbCircle
 10
108.8192040733295
 20
-42.55222933608297
 30
0.0
 40
28.95117028091271
100
AcDbArc
 50
171.781418472782
 51
178.9347194193561
  0
ARC
  5
1D0
330
37B
100
AcDbEntity
  8
GAIKEI
100
AcDbCircle
 10
59.55038224170244
 20
-41.46679250655347
 30
0.0
 40
21.59090461986058
100
AcDbArc
 50
8.219509737196338
 51
13.48206527326779
  0
LINE
  5
1D4
330
37B
100
AcDbEntity
  8
GAIKEI
  6
DASHED
100
AcDbLine
 10
80.36214643352082
 20
-38.413661878737
 30
0.0
 11
80.36214643352082
 21
-38.56366187873709
 31
0.0
  0
LINE
  5
1D5
330
37B
100
AcDbEntity
  8
GAIKEI
  6
DASHED
100
AcDbLine
 10
80.88971747355322
 20
-38.413661878737
 30
0.0
 11
80.16536453941376
 21
-38.413661878737
 31
0.0
  0
LINE
  5
1D6
330
37B
100
AcDbEntity
  8
GAIKEI
100
AcDbLine
 10
80.54036453941376
 20
-35.41366187873723
 30
0.0
 11
80.54036453941376
 21
-36.37366187873727
 31
0.0
  0
LINE
  5
1D7
330
37B
100
AcDbEntity
  8
GAIKEI
  6
DASHED
100
AcDbLine
 10
80.6903645394134
 20
-38.413661878737
 30
0.0
 11
80.6903645394134
 21
-38.56366187873709
 31
0.0
  0
LINE
  5
1D8
330
37B
100
AcDbEntity
  8
GAIKEI
100
AcDbLine
 10
80.16536453941376
 20
-38.413661878737
 30
0.0
 11
80.16536453941376
 21
-35.41366187873723
 31
0.0
  0
LINE
  5
1D9
330
37B
100
AcDbEntity
  8
GAIKEI
  6
DASHED
100
AcDbLine
 10
80.3453645394136
 20
-38.56366187873709
 30
0.0
 11
80.91458997014456
 21
-38.56366187873709
 31
0.0
  0
ARC
  5
1DB
330
37B
100
AcDbEntity
  8
GAIKEI
  6
DASHED
100
AcDbCircle
 10
108.8192040733295
 20
-41.4750944213913
 30
0.0
 40
28.95117028091273
100
AcDbArc
 50
181.0659127772283
 51
188.2166357004755
  0
LINE
  5
1E0
330
37B
100
AcDbEntity
  8
GAIKEI
100
AcDbLine
 10
44.96656701367851
 20
-29.0236618787369
 30
0.0
 11
45.56656701367865
 21
-29.0236618787369
 31
0.0
  0
LINE
  5
1E1
330
37B
100
AcDbEntity
  8
GAIKEI
  6
S10
 62
     1
100
AcDbLine
 10
47.66656701367833
 20
-31.2736618787369
 30
0.0
 11
48.2665670136787
 21
-31.2736618787369
 31
0.0
  0
ARC
  5
1E2
330
37B
100
AcDbEntity
  8
GAIKEI
100
AcDbCircle
 10
72.36536453941358
 20
-36.163661878737
 30
0.0
 40
2.399999999999985
100
AcDbArc
 50
93.68998576018994
 51
107.4193508965353
  0
LINE
  5
1E3
330
37B
100
AcDbEntity
  8
GAIKEI
100
AcDbLine
 10
79.1903645394134
 20
-34.06366187873709
 30
0.0
 11
70.3732582759842
 21
-34.06366187873709
 31
0.0
  0
LINE
  5
1E6
330
37B
100
AcDbEntity
  8
GAIKEI
100
AcDbLine
 10
76.3778645394134
 20
-25.49866187873727
 30
0.0
 11
63.51278014830564
 21
-25.49866187873727
 31
0.0
  0
LINE
  5
1E7
330
37B
100
AcDbEntity
  8
GAIKEI
100
AcDbLine
 10
76.3778645394134
 20
-25.87366187873727
 30
0.0
 11
63.51278014830564
 21
-25.87366187873727
 31
0.0
  0
ARC
  5
1E8
330
37B
100
AcDbEntity
  8
GAIKEI
100
AcDbCircle
 10
63.51278014830564
 20
-26.99866187873727
 30
0.0
 40
1.5
100
AcDbArc
 50
90.0
 51
180.0
  0
ARC
  5
1E9
330
37B
100
AcDbEntity
  8
GAIKEI
100
AcDbCircle
 10
63.51278014830564
 20
-26.99866187873727
 30
0.0
 40
1.125
100
AcDbArc
 50
90.0
 51
180.0
  0
ARC
  5
1EA
330
37B
100
AcDbEntity
  8
GAIKEI
100
AcDbCircle
 10
71.66036453941365
 20
-33.91666388140811
 30
0.0
 40
0.0449999999999952
100
AcDbArc
 50
107.4193508965516
 51
180.0
  0
LINE
  5
1ED
330
37B
100
AcDbEntity
  8
GAIKEI
100
AcDbLine
 10
71.61536453941358
 20
-33.91666388140811
 30
0.0
 11
71.61536453941358
 21
-34.06366187873709
 31
0.0
  0
LINE
  5
1F1
330
37B
100
AcDbEntity
  8
GAIKEI
 62
     1
100
AcDbLine
 10
78.2528645394134
 20
-29.71366187873696
 30
0.0
 11
78.2528645394134
 21
-29.86366187873705
 31
0.0
  0
LINE
  5
1F2
330
37B
100
AcDbEntity
  8
GAIKEI
100
AcDbLine
 10
78.37081606938887
 20
-29.48842571839759
 30
0.0
 11
78.29016542222098
 21
-29.413661878737
 31
0.0
  0
LINE
  5
1F3
330
37B
100
AcDbEntity
  8
GAIKEI
100
AcDbLine
 10
78.38723953941349
 20
-29.71366187873696
 30
0.0
 11
78.37081606938887
 21
-29.48842571839759
 31
0.0
  0
LINE
  5
1F4
330
37B
100
AcDbEntity
  8
GAIKEI
100
AcDbLine
 10
78.36057748081726
 20
-29.86366187873705
 30
0.0
 11
78.3496399808173
 21
-29.71366187873696
 31
0.0
  0
LINE
  5
1F8
330
37B
100
AcDbEntity
  8
GAIKEI
100
AcDbLine
 10
78.37081606938887
 20
-29.48842571839759
 30
0.0
 11
77.75991300943838
 21
-29.48842571839759
 31
0.0
  0
LINE
  5
1F9
330
37B
100
AcDbEntity
  8
GAIKEI
 62
     1
100
AcDbLine
 10
77.8778645394134
 20
-29.86366187873705
 30
0.0
 11
77.8778645394134
 21
-29.71366187873696
 31
0.0
  0
LINE
  5
1FA
330
37B
100
AcDbEntity
  8
GAIKEI
100
AcDbLine
 10
77.84056365660649
 20
-29.413661878737
 30
0.0
 11
77.75991300943838
 21
-29.48842571839759
 31
0.0
  0
LINE
  5
1FB
330
37B
100
AcDbEntity
  8
GAIKEI
100
AcDbLine
 10
77.75991300943838
 20
-29.48842571839759
 30
0.0
 11
77.74348953941376
 21
-29.71366187873696
 31
0.0
  0
LINE
  5
1FC
330
37B
100
AcDbEntity
  8
GAIKEI
100
AcDbLine
 10
77.78108909801017
 20
-29.71366187873696
 30
0.0
 11
77.77015159800999
 21
-29.86366187873705
 31
0.0
  0
LINE
  5
1FD
330
37B
100
AcDbEntity
  8
GAIKEI
100
AcDbLine
 10
78.39817703941367
 20
-29.86366187873705
 30
0.0
 11
77.73255203941358
 21
-29.86366187873705
 31
0.0
  0
LINE
  5
1FE
330
37B
100
AcDbEntity
  8
GAIKEI
100
AcDbLine
 10
78.38723953941349
 20
-29.71366187873696
 30
0.0
 11
77.74348953941376
 21
-29.71366187873696
 31
0.0
  0
LINE
  5
1FF
330
37B
100
AcDbEntity
  8
GAIKEI
100
AcDbLine
 10
78.29016542222098
 20
-29.413661878737
 30
0.0
 11
77.84056365660649
 21
-29.413661878737
 31
0.0
  0
LINE
  5
204
330
37B
100
AcDbEntity
  8
GAIKEI
100
AcDbLine
 10
78.47473953941358
 20
-30.913661878737
 30
0.0
 11
78.4638020394134
 21
-30.76366187873714
 31
0.0
  0
LINE
  5
205
330
37B
100
AcDbEntity
  8
GAIKEI
 62
     1
100
AcDbLine
 10
78.90536453941377
 20
-33.94366187873698
 30
0.0
 11
78.90536453941377
 21
-33.40366187873701
 31
0.0
  0
LINE
  5
206
330
37B
100
AcDbEntity
  8
GAIKEI
 62
     1
100
AcDbLine
 10
78.8153645394134
 20
-33.94366187873698
 30
0.0
 11
78.8153645394134
 21
-33.40366187873701
 31
0.0
  0
LINE
  5
207
330
37B
100
AcDbEntity
  8
GAIKEI
 62
     1
100
AcDbLine
 10
78.7253645394137
 20
-33.94366187873698
 30
0.0
 11
78.7253645394137
 21
-33.40366187873701
 31
0.0
  0
LINE
  5
208
330
37B
100
AcDbEntity
  8
GAIKEI
 62
     1
100
AcDbLine
 10
78.30536453941363
 20
-33.94366187873698
 30
0.0
 11
78.30536453941363
 21
-33.40366187873701
 31
0.0
  0
LINE
  5
209
330
37B
100
AcDbEntity
  8
GAIKEI
 62
     1
100
AcDbLine
 10
78.42536453941352
 20
-33.94366187873698
 30
0.0
 11
78.42536453941352
 21
-33.40366187873701
 31
0.0
  0
LINE
  5
20A
330
37B
100
AcDbEntity
  8
GAIKEI
 62
     1
100
AcDbLine
 10
78.54536453941387
 20
-33.94366187873698
 30
0.0
 11
78.54536453941387
 21
-33.40366187873701
 31
0.0
  0
LINE
  5
20B
330
37B
100
AcDbEntity
  8
GAIKEI
 62
     1
100
AcDbLine
 10
78.96536453941371
 20
-33.94366187873698
 30
0.0
 11
78.96536453941371
 21
-33.40366187873701
 31
0.0
  0
LINE
  5
20C
330
37B
100
AcDbEntity
  8
GAIKEI
 62
     1
100
AcDbLine
 10
78.63536453941356
 20
-33.94366187873698
 30
0.0
 11
78.63536453941356
 21
-33.40366187873701
 31
0.0
  0
LINE
  5
20D
330
37B
100
AcDbEntity
  8
GAIKEI
100
AcDbLine
 10
79.00886453941371
 20
-33.40366187873701
 30
0.0
 11
78.66536453941376
 21
-33.07366187873708
 31
0.0
  0
LINE
  5
20F
330
37B
100
AcDbEntity
  8
GAIKEI
100
AcDbLine
 10
79.00886453941371
 20
-33.40366187873701
 30
0.0
 11
79.00886453941371
 21
-34.04866187873699
 31
0.0
  0
LINE
  5
210
330
37B
100
AcDbEntity
  8
GAIKEI
 62
     1
100
AcDbLine
 10
78.2528645394134
 20
-30.913661878737
 30
0.0
 11
78.2528645394134
 21
-31.06366187873709
 31
0.0
  0
LINE
  5
211
330
37B
100
AcDbEntity
  8
GAIKEI
 62
     1
100
AcDbLine
 10
78.2528645394134
 20
-31.21366187873696
 30
0.0
 11
78.2528645394134
 21
-31.36366187873705
 31
0.0
  0
LINE
  5
212
330
37B
100
AcDbEntity
  8
GAIKEI
 62
     1
100
AcDbLine
 10
78.2528645394134
 20
-31.51366187873714
 30
0.0
 11
78.2528645394134
 21
-31.663661878737
 31
0.0
  0
LINE
  5
213
330
37B
100
AcDbEntity
  8
GAIKEI
 62
     1
100
AcDbLine
 10
78.2528645394134
 20
-31.81366187873709
 30
0.0
 11
78.2528645394134
 21
-31.96366187873696
 31
0.0
  0
LINE
  5
214
330
37B
100
AcDbEntity
  8
GAIKEI
 62
     1
100
AcDbLine
 10
78.2528645394134
 20
-32.11366187873705
 30
0.0
 11
78.2528645394134
 21
-32.26366187873714
 31
0.0
  0
LINE
  5
215
330
37B
100
AcDbEntity
  8
GAIKEI
 62
     1
100
AcDbLine
 10
78.2528645394134
 20
-32.56366187873709
 30
0.0
 11
78.2528645394134
 21
-32.413661878737
 31
0.0
  0
LINE
  5
216
330
37B
100
AcDbEntity
  8
GAIKEI
100
AcDbLine
 10
78.6278645394134
 20
-33.07366187873708
 30
0.0
 11
78.6278645394134
 21
-33.01366187873714
 31
0.0
  0
LINE
  5
217
330
37B
100
AcDbEntity
  8
GAIKEI
 62
     1
100
AcDbLine
 10
78.21536453941371
 20
-32.56366187873709
 30
0.0
 11
78.59505203941376
 21
-32.56366187873709
 31
0.0
  0
LINE
  5
218
330
37B
100
AcDbEntity
  8
GAIKEI
 62
     1
100
AcDbLine
 10
78.21536453941371
 20
-32.26366187873714
 30
0.0
 11
78.57317703941362
 21
-32.26366187873714
 31
0.0
  0
LINE
  5
219
330
37B
100
AcDbEntity
  8
GAIKEI
 62
     1
100
AcDbLine
 10
78.21536453941371
 20
-31.96366187873696
 30
0.0
 11
78.55130203941349
 21
-31.96366187873696
 31
0.0
  0
LINE
  5
21D
330
37B
100
AcDbEntity
  8
GAIKEI
100
AcDbLine
 10
78.6278645394134
 20
-33.01366187873714
 30
0.0
 11
78.59505203941376
 21
-32.56366187873709
 31
0.0
  0
LINE
  5
21F
330
37B
100
AcDbEntity
  8
GAIKEI
100
AcDbLine
 10
78.41047792222093
 20
-31.06366187873709
 30
0.0
 11
78.39954042222075
 21
-30.913661878737
 31
0.0
  0
LINE
  5
221
330
37B
100
AcDbEntity
  8
GAIKEI
100
AcDbLine
 10
78.49661453941371
 20
-31.21366187873696
 30
0.0
 11
78.48567703941353
 21
-31.06366187873709
 31
0.0
  0
LINE
  5
222
330
37B
100
AcDbEntity
  8
GAIKEI
100
AcDbLine
 10
78.43235292222084
 20
-31.36366187873705
 30
0.0
 11
78.42141542222112
 21
-31.21366187873696
 31
0.0
  0
LINE
  5
224
330
37B
100
AcDbEntity
  8
GAIKEI
100
AcDbLine
 10
78.51848953941385
 20
-31.51366187873714
 30
0.0
 11
78.50755203941367
 21
-31.36366187873705
 31
0.0
  0
LINE
  5
225
330
37B
100
AcDbEntity
  8
GAIKEI
100
AcDbLine
 10
78.45422792222098
 20
-31.663661878737
 30
0.0
 11
78.4432904222208
 21
-31.51366187873714
 31
0.0
  0
LINE
  5
226
330
37B
100
AcDbEntity
  8
GAIKEI
 62
     1
100
AcDbLine
 10
78.54036453941376
 20
-31.81366187873709
 30
0.0
 11
78.21536453941371
 21
-31.81366187873709
 31
0.0
  0
LINE
  5
227
330
37B
100
AcDbEntity
  8
GAIKEI
100
AcDbLine
 10
78.54036453941376
 20
-31.81366187873709
 30
0.0
 11
78.52942703941358
 21
-31.663661878737
 31
0.0
  0
LINE
  5
229
330
37B
100
AcDbEntity
  8
GAIKEI
 62
     1
100
AcDbLine
 10
78.56223953941367
 20
-32.11366187873705
 30
0.0
 11
78.21536453941371
 21
-32.11366187873705
 31
0.0
  0
LINE
  5
22C
330
37B
100
AcDbEntity
  8
GAIKEI
 62
     1
100
AcDbLine
 10
78.5841145394138
 20
-32.413661878737
 30
0.0
 11
78.21536453941371
 21
-32.413661878737
 31
0.0
  0
LINE
  5
22E
330
37B
100
AcDbEntity
  8
GAIKEI
 62
     7
100
AcDbLine
 10
78.59505203941376
 20
-32.56366187873709
 30
0.0
 11
78.54036453941376
 21
-31.81366187873709
 31
0.0
  0
LINE
  5
235
330
37B
100
AcDbEntity
  8
GAIKEI
 62
     1
100
AcDbLine
 10
78.2528645394134
 20
-30.61366187873705
 30
0.0
 11
78.2528645394134
 21
-30.76366187873714
 31
0.0
  0
LINE
  5
236
330
37B
100
AcDbEntity
  8
GAIKEI
 62
     1
100
AcDbLine
 10
78.2528645394134
 20
-30.31366187873709
 30
0.0
 11
78.2528645394134
 21
-30.46366187873696
 31
0.0
  0
LINE
  5
23C
330
37B
100
AcDbEntity
  8
GAIKEI
100
AcDbLine
 10
78.43098953941376
 20
-30.31366187873709
 30
0.0
 11
78.4200520394138
 21
-30.163661878737
 31
0.0
  0
LINE
  5
23D
330
37B
100
AcDbEntity
  8
GAIKEI
100
AcDbLine
 10
78.40432748081707
 20
-30.46366187873696
 30
0.0
 11
78.39338998081735
 21
-30.31366187873709
 31
0.0
  0
LINE
  5
23F
330
37B
100
AcDbEntity
  8
GAIKEI
100
AcDbLine
 10
78.45286453941367
 20
-30.61366187873705
 30
0.0
 11
78.44192703941349
 21
-30.46366187873696
 31
0.0
  0
LINE
  5
240
330
37B
100
AcDbEntity
  8
GAIKEI
100
AcDbLine
 10
78.42620248081721
 20
-30.76366187873714
 30
0.0
 11
78.41526498081726
 21
-30.61366187873705
 31
0.0
  0
ARC
  5
245
330
37B
100
AcDbEntity
  8
GAIKEI
 62
     1
100
AcDbCircle
 10
77.91536453941376
 20
-30.73366187873694
 30
0.0
 40
0.0300000000000409
100
AcDbArc
 50
270.0
 51
0.0
  0
LINE
  5
246
330
37B
100
AcDbEntity
  8
GAIKEI
100
AcDbLine
 10
77.6669270394134
 20
-30.76366187873714
 30
0.0
 11
77.65598953941367
 21
-30.913661878737
 31
0.0
  0
ARC
  5
247
330
37B
100
AcDbEntity
  8
GAIKEI
100
AcDbCircle
 10
72.20800949806335
 20
-33.72373065205011
 30
0.0
 40
0.0450000000000057
100
AcDbArc
 50
273.6899857602029
 51
323.7988958111841
  0
ARC
  5
248
330
37B
100
AcDbEntity
  8
GAIKEI
100
AcDbCircle
 10
72.5227195807638
 20
-33.72373065205011
 30
0.0
 40
0.0449999999999937
100
AcDbArc
 50
216.201104188816
 51
266.310014239823
  0
ARC
  5
249
330
37B
100
AcDbEntity
  8
GAIKEI
100
AcDbCircle
 10
73.0703645394135
 20
-33.91666388140811
 30
0.0
 40
0.0450000000000273
100
AcDbArc
 50
0.0
 51
72.58064910344835
  0
ARC
  5
24B
330
37B
100
AcDbEntity
  8
GAIKEI
100
AcDbCircle
 10
72.36536453941358
 20
-33.83890178976139
 30
0.0
 40
0.150000000000004
100
AcDbArc
 50
36.20110418881595
 51
143.800947421934
  0
ARC
  5
24C
330
37B
100
AcDbEntity
  8
GAIKEI
100
AcDbCircle
 10
72.36536453941358
 20
-36.163661878737
 30
0.0
 40
2.399999999999996
100
AcDbArc
 50
72.58064910346468
 51
86.31001423981004
  0
LINE
  5
24D
330
37B
100
AcDbEntity
  8
GAIKEI
100
AcDbLine
 10
73.11536453941358
 20
-33.91666388140811
 30
0.0
 11
73.11536453941358
 21
-34.06366187873709
 31
0.0
  0
ARC
  5
24E
330
37B
100
AcDbEntity
  8
GAIKEI
 62
     1
100
AcDbCircle
 10
77.91536453941376
 20
-30.9436618787372
 30
0.0
 40
0.0300000000000303
100
AcDbArc
 50
0.0
 51
90.0
  0
ARC
  5
24F
330
37B
100
AcDbEntity
  8
GAIKEI
 62
     1
100
AcDbCircle
 10
77.91536453941376
 20
-31.03366187873712
 30
0.0
 40
0.0300000000000409
100
AcDbArc
 50
270.0
 51
0.0
  0
ARC
  5
250
330
37B
100
AcDbEntity
  8
GAIKEI
 62
     1
100
AcDbCircle
 10
77.91536453941376
 20
-31.24366187873716
 30
0.0
 40
0.0299999999999983
100
AcDbArc
 50
0.0
 51
90.0
  0
ARC
  5
251
330
37B
100
AcDbEntity
  8
GAIKEI
 62
     1
100
AcDbCircle
 10
77.91536453941376
 20
-31.33366187873685
 30
0.0
 40
0.0300000000000409
100
AcDbArc
 50
270.0
 51
0.0
  0
ARC
  5
252
330
37B
100
AcDbEntity
  8
GAIKEI
 62
     1
100
AcDbCircle
 10
77.91536453941376
 20
-31.54366187873711
 30
0.0
 40
0.0299999999999983
100
AcDbArc
 50
0.0
 51
90.0
  0
ARC
  5
253
330
37B
100
AcDbEntity
  8
GAIKEI
 62
     1
100
AcDbCircle
 10
77.91536453941376
 20
-31.63366187873703
 30
0.0
 40
0.0300000000000409
100
AcDbArc
 50
270.0
 51
0.0
  0
ARC
  5
254
330
37B
100
AcDbEntity
  8
GAIKEI
 62
     1
100
AcDbCircle
 10
77.91536453941376
 20
-31.84366187873707
 30
0.0
 40
0.0299999999999983
100
AcDbArc
 50
0.0
 51
90.0
  0
ARC
  5
255
330
37B
100
AcDbEntity
  8
GAIKEI
 62
     1
100
AcDbCircle
 10
77.91536453941376
 20
-31.93366187873721
 30
0.0
 40
0.0300000000000409
100
AcDbArc
 50
270.0
 51
0.0
  0
ARC
  5
256
330
37B
100
AcDbEntity
  8
GAIKEI
 62
     1
100
AcDbCircle
 10
77.91536453941376
 20
-32.14366187873702
 30
0.0
 40
0.0299999999999983
100
AcDbArc
 50
0.0
 51
90.0
  0
ARC
  5
257
330
37B
100
AcDbEntity
  8
GAIKEI
 62
     1
100
AcDbCircle
 10
77.91536453941376
 20
-32.23366187873694
 30
0.0
 40
0.0300000000000409
100
AcDbArc
 50
270.0
 51
0.0
  0
ARC
  5
258
330
37B
100
AcDbEntity
  8
GAIKEI
 62
     1
100
AcDbCircle
 10
77.91536453941376
 20
-32.4436618787372
 30
0.0
 40
0.0299999999999983
100
AcDbArc
 50
0.0
 51
90.0
  0
ARC
  5
259
330
37B
100
AcDbEntity
  8
GAIKEI
 62
     1
100
AcDbCircle
 10
77.91536453941376
 20
-32.53366187873712
 30
0.0
 40
0.0300000000000409
100
AcDbArc
 50
270.0
 51
0.0
  0
LINE
  5
25A
330
37B
100
AcDbEntity
  8
GAIKEI
 62
     1
100
AcDbLine
 10
78.0653645394134
 20
-33.94366187873698
 30
0.0
 11
78.0653645394134
 21
-33.40366187873701
 31
0.0
  0
LINE
  5
25B
330
37B
100
AcDbEntity
  8
GAIKEI
 62
     1
100
AcDbLine
 10
77.16536453941376
 20
-33.40366187873701
 30
0.0
 11
77.16536453941376
 21
-33.94366187873698
 31
0.0
  0
LINE
  5
25C
330
37B
100
AcDbEntity
  8
GAIKEI
 62
     1
100
AcDbLine
 10
77.2253645394137
 20
-33.40366187873701
 30
0.0
 11
77.2253645394137
 21
-33.94366187873698
 31
0.0
  0
LINE
  5
25D
330
37B
100
AcDbEntity
  8
GAIKEI
 62
     1
100
AcDbLine
 10
77.3153645394134
 20
-33.40366187873701
 30
0.0
 11
77.3153645394134
 21
-33.94366187873698
 31
0.0
  0
LINE
  5
25E
330
37B
100
AcDbEntity
  8
GAIKEI
 62
     1
100
AcDbLine
 10
77.40536453941377
 20
-33.40366187873701
 30
0.0
 11
77.40536453941377
 21
-33.94366187873698
 31
0.0
  0
LINE
  5
25F
330
37B
100
AcDbEntity
  8
GAIKEI
 62
     1
100
AcDbLine
 10
77.49536453941369
 20
-33.40366187873701
 30
0.0
 11
77.49536453941369
 21
-33.94366187873698
 31
0.0
  0
LINE
  5
260
330
37B
100
AcDbEntity
  8
GAIKEI
 62
     1
100
AcDbLine
 10
77.5853645394136
 20
-33.40366187873701
 30
0.0
 11
77.5853645394136
 21
-33.94366187873698
 31
0.0
  0
LINE
  5
261
330
37B
100
AcDbEntity
  8
GAIKEI
 62
     1
100
AcDbLine
 10
77.7053645394135
 20
-33.40366187873701
 30
0.0
 11
77.7053645394135
 21
-33.94366187873698
 31
0.0
  0
LINE
  5
262
330
37B
100
AcDbEntity
  8
GAIKEI
 62
     1
100
AcDbLine
 10
77.82536453941361
 20
-33.40366187873701
 30
0.0
 11
77.82536453941361
 21
-33.94366187873698
 31
0.0
  0
LINE
  5
263
330
37B
100
AcDbEntity
  8
GAIKEI
 62
     1
100
AcDbLine
 10
77.9453645394135
 20
-33.40366187873701
 30
0.0
 11
77.9453645394135
 21
-33.94366187873698
 31
0.0
  0
LINE
  5
264
330
37B
100
AcDbEntity
  8
GAIKEI
 62
     1
100
AcDbLine
 10
78.18536453941374
 20
-33.94366187873698
 30
0.0
 11
78.18536453941374
 21
-33.40366187873701
 31
0.0
  0
LINE
  5
265
330
37B
100
AcDbEntity
  8
GAIKEI
100
AcDbLine
 10
78.66536453941376
 20
-33.07366187873708
 30
0.0
 11
77.46536453941371
 21
-33.07366187873708
 31
0.0
  0
LINE
  5
266
330
37B
100
AcDbEntity
  8
GAIKEI
100
AcDbLine
 10
77.46536453941371
 20
-33.07366187873708
 30
0.0
 11
77.12186453941354
 21
-33.40366187873701
 31
0.0
  0
LINE
  5
268
330
37B
100
AcDbEntity
  8
GAIKEI
100
AcDbLine
 10
77.12186453941354
 20
-33.94366187873698
 30
0.0
 11
79.00886453941371
 21
-33.94366187873698
 31
0.0
  0
LINE
  5
269
330
37B
100
AcDbEntity
  8
GAIKEI
100
AcDbLine
 10
79.00886453941371
 20
-34.04866187873699
 30
0.0
 11
77.12186453941354
 21
-34.04866187873699
 31
0.0
  0
LINE
  5
26A
330
37B
100
AcDbEntity
  8
GAIKEI
100
AcDbLine
 10
77.12186453941354
 20
-34.04866187873699
 30
0.0
 11
77.12186453941354
 21
-33.40366187873701
 31
0.0
  0
LINE
  5
26B
330
37B
100
AcDbEntity
  8
GAIKEI
100
AcDbLine
 10
77.12186453941354
 20
-33.40366187873701
 30
0.0
 11
79.00886453941371
 21
-33.40366187873701
 31
0.0
  0
LINE
  5
26C
330
37B
100
AcDbEntity
  8
GAIKEI
 62
     1
100
AcDbLine
 10
78.18536453941374
 20
-30.94366187873698
 30
0.0
 11
78.18536453941374
 21
-31.03366187873712
 31
0.0
  0
LINE
  5
26D
330
37B
100
AcDbEntity
  8
GAIKEI
 62
     1
100
AcDbLine
 10
78.18536453941374
 20
-31.24366187873716
 30
0.0
 11
78.18536453941374
 21
-31.33366187873685
 31
0.0
  0
LINE
  5
26E
330
37B
100
AcDbEntity
  8
GAIKEI
 62
     1
100
AcDbLine
 10
78.18536453941374
 20
-31.54366187873711
 30
0.0
 11
78.18536453941374
 21
-31.63366187873703
 31
0.0
  0
LINE
  5
26F
330
37B
100
AcDbEntity
  8
GAIKEI
 62
     1
100
AcDbLine
 10
78.18536453941374
 20
-31.84366187873707
 30
0.0
 11
78.18536453941374
 21
-31.93366187873721
 31
0.0
  0
LINE
  5
270
330
37B
100
AcDbEntity
  8
GAIKEI
 62
     1
100
AcDbLine
 10
78.18536453941374
 20
-32.14366187873702
 30
0.0
 11
78.18536453941374
 21
-32.23366187873694
 31
0.0
  0
LINE
  5
271
330
37B
100
AcDbEntity
  8
GAIKEI
 62
     1
100
AcDbLine
 10
78.18536453941374
 20
-32.53366187873712
 30
0.0
 11
78.18536453941374
 21
-32.4436618787372
 31
0.0
  0
LINE
  5
278
330
37B
100
AcDbEntity
  8
GAIKEI
 62
     1
100
AcDbLine
 10
77.8778645394134
 20
-31.06366187873709
 30
0.0
 11
77.8778645394134
 21
-30.913661878737
 31
0.0
  0
LINE
  5
279
330
37B
100
AcDbEntity
  8
GAIKEI
 62
     1
100
AcDbLine
 10
77.8778645394134
 20
-31.36366187873705
 30
0.0
 11
77.8778645394134
 21
-31.21366187873696
 31
0.0
  0
LINE
  5
27A
330
37B
100
AcDbEntity
  8
GAIKEI
 62
     1
100
AcDbLine
 10
77.8778645394134
 20
-31.663661878737
 30
0.0
 11
77.8778645394134
 21
-31.51366187873714
 31
0.0
  0
LINE
  5
27B
330
37B
100
AcDbEntity
  8
GAIKEI
 62
     1
100
AcDbLine
 10
77.8778645394134
 20
-31.96366187873696
 30
0.0
 11
77.8778645394134
 21
-31.81366187873709
 31
0.0
  0
LINE
  5
27C
330
37B
100
AcDbEntity
  8
GAIKEI
 62
     1
100
AcDbLine
 10
77.8778645394134
 20
-32.26366187873714
 30
0.0
 11
77.8778645394134
 21
-32.11366187873705
 31
0.0
  0
LINE
  5
27D
330
37B
100
AcDbEntity
  8
GAIKEI
 62
     1
100
AcDbLine
 10
77.8778645394134
 20
-32.413661878737
 30
0.0
 11
77.8778645394134
 21
-32.56366187873709
 31
0.0
  0
LINE
  5
27E
330
37B
100
AcDbEntity
  8
GAIKEI
100
AcDbLine
 10
77.5028645394134
 20
-33.01366187873714
 30
0.0
 11
77.5028645394134
 21
-33.07366187873708
 31
0.0
  0
LINE
  5
27F
330
37B
100
AcDbEntity
  8
GAIKEI
 62
     1
100
AcDbLine
 10
77.53567703941371
 20
-32.56366187873709
 30
0.0
 11
77.91536453941376
 21
-32.56366187873709
 31
0.0
  0
LINE
  5
280
330
37B
100
AcDbEntity
  8
GAIKEI
 62
     1
100
AcDbLine
 10
77.55755203941385
 20
-32.26366187873714
 30
0.0
 11
77.91536453941376
 21
-32.26366187873714
 31
0.0
  0
LINE
  5
281
330
37B
100
AcDbEntity
  8
GAIKEI
 62
     1
100
AcDbLine
 10
77.57942703941376
 20
-31.96366187873696
 30
0.0
 11
77.91536453941376
 21
-31.96366187873696
 31
0.0
  0
LINE
  5
282
330
37B
100
AcDbEntity
  8
GAIKEI
100
AcDbLine
 10
77.60130203941367
 20
-31.663661878737
 30
0.0
 11
78.52942703941358
 21
-31.663661878737
 31
0.0
  0
LINE
  5
283
330
37B
100
AcDbEntity
  8
GAIKEI
100
AcDbLine
 10
77.62317703941358
 20
-31.36366187873705
 30
0.0
 11
78.50755203941367
 21
-31.36366187873705
 31
0.0
  0
LINE
  5
284
330
37B
100
AcDbEntity
  8
GAIKEI
100
AcDbLine
 10
77.64505203941349
 20
-31.06366187873709
 30
0.0
 11
78.48567703941353
 21
-31.06366187873709
 31
0.0
  0
LINE
  5
285
330
37B
100
AcDbEntity
  8
GAIKEI
 62
     1
100
AcDbLine
 10
77.9453645394135
 20
-31.03366187873712
 30
0.0
 11
77.9453645394135
 21
-30.94366187873698
 31
0.0
  0
LINE
  5
286
330
37B
100
AcDbEntity
  8
GAIKEI
 62
     1
100
AcDbLine
 10
77.9453645394135
 20
-31.33366187873685
 30
0.0
 11
77.9453645394135
 21
-31.24366187873716
 31
0.0
  0
LINE
  5
287
330
37B
100
AcDbEntity
  8
GAIKEI
 62
     1
100
AcDbLine
 10
77.9453645394135
 20
-31.63366187873703
 30
0.0
 11
77.9453645394135
 21
-31.54366187873711
 31
0.0
  0
LINE
  5
288
330
37B
100
AcDbEntity
  8
GAIKEI
 62
     1
100
AcDbLine
 10
77.9453645394135
 20
-31.93366187873721
 30
0.0
 11
77.9453645394135
 21
-31.84366187873707
 31
0.0
  0
LINE
  5
289
330
37B
100
AcDbEntity
  8
GAIKEI
 62
     1
100
AcDbLine
 10
77.9453645394135
 20
-32.23366187873694
 30
0.0
 11
77.9453645394135
 21
-32.14366187873702
 31
0.0
  0
LINE
  5
28A
330
37B
100
AcDbEntity
  8
GAIKEI
 62
     1
100
AcDbLine
 10
77.9453645394135
 20
-32.4436618787372
 30
0.0
 11
77.9453645394135
 21
-32.53366187873712
 31
0.0
  0
LINE
  5
28B
330
37B
100
AcDbEntity
  8
GAIKEI
100
AcDbLine
 10
77.53567703941371
 20
-32.56366187873709
 30
0.0
 11
77.5028645394134
 21
-33.01366187873714
 31
0.0
  0
LINE
  5
28D
330
37B
100
AcDbEntity
  8
GAIKEI
100
AcDbLine
 10
77.73118865660626
 20
-30.913661878737
 30
0.0
 11
77.72025115660631
 21
-31.06366187873709
 31
0.0
  0
LINE
  5
28F
330
37B
100
AcDbEntity
  8
GAIKEI
100
AcDbLine
 10
77.64505203941349
 20
-31.06366187873709
 30
0.0
 11
77.63411453941376
 21
-31.21366187873696
 31
0.0
  0
LINE
  5
290
330
37B
100
AcDbEntity
  8
GAIKEI
100
AcDbLine
 10
77.70931365660613
 20
-31.21366187873696
 30
0.0
 11
77.6983761566064
 21
-31.36366187873705
 31
0.0
  0
LINE
  5
292
330
37B
100
AcDbEntity
  8
GAIKEI
100
AcDbLine
 10
77.62317703941358
 20
-31.36366187873705
 30
0.0
 11
77.61223953941362
 21
-31.51366187873714
 31
0.0
  0
LINE
  5
293
330
37B
100
AcDbEntity
  8
GAIKEI
100
AcDbLine
 10
77.68743865660622
 20
-31.51366187873714
 30
0.0
 11
77.67650115660649
 21
-31.663661878737
 31
0.0
  0
LINE
  5
294
330
37B
100
AcDbEntity
  8
GAIKEI
 62
     1
100
AcDbLine
 10
77.91536453941376
 20
-31.81366187873709
 30
0.0
 11
77.59036453941349
 21
-31.81366187873709
 31
0.0
  0
LINE
  5
295
330
37B
100
AcDbEntity
  8
GAIKEI
100
AcDbLine
 10
77.60130203941367
 20
-31.663661878737
 30
0.0
 11
77.59036453941349
 21
-31.81366187873709
 31
0.0
  0
LINE
  5
297
330
37B
100
AcDbEntity
  8
GAIKEI
 62
     1
100
AcDbLine
 10
77.91536453941376
 20
-32.11366187873705
 30
0.0
 11
77.56848953941358
 21
-32.11366187873705
 31
0.0
  0
LINE
  5
29A
330
37B
100
AcDbEntity
  8
GAIKEI
 62
     1
100
AcDbLine
 10
77.91536453941376
 20
-32.413661878737
 30
0.0
 11
77.54661453941367
 21
-32.413661878737
 31
0.0
  0
LINE
  5
29C
330
37B
100
AcDbEntity
  8
GAIKEI
 62
     7
100
AcDbLine
 10
77.59036453941349
 20
-31.81366187873709
 30
0.0
 11
77.53567703941371
 21
-32.56366187873709
 31
0.0
  0
LINE
  5
29E
330
37B
100
AcDbEntity
  8
GAIKEI
100
AcDbLine
 10
78.51848953941385
 20
-31.51366187873714
 30
0.0
 11
77.61223953941362
 21
-31.51366187873714
 31
0.0
  0
LINE
  5
2A0
330
37B
100
AcDbEntity
  8
GAIKEI
100
AcDbLine
 10
78.49661453941371
 20
-31.21366187873696
 30
0.0
 11
77.63411453941376
 21
-31.21366187873696
 31
0.0
  0
LINE
  5
2A2
330
37B
100
AcDbEntity
  8
GAIKEI
100
AcDbLine
 10
78.47473953941358
 20
-30.913661878737
 30
0.0
 11
77.65598953941367
 21
-30.913661878737
 31
0.0
  0
ARC
  5
2A3
330
37B
100
AcDbEntity
  8
GAIKEI
 62
     1
100
AcDbCircle
 10
77.91536453941376
 20
-30.04366187873711
 30
0.0
 40
0.0299999999999983
100
AcDbArc
 50
0.0
 51
90.0
  0
ARC
  5
2A4
330
37B
100
AcDbEntity
  8
GAIKEI
 62
     1
100
AcDbCircle
 10
77.91536453941376
 20
-30.13366187873703
 30
0.0
 40
0.0300000000000409
100
AcDbArc
 50
270.0
 51
0.0
  0
ARC
  5
2A5
330
37B
100
AcDbEntity
  8
GAIKEI
 62
     1
100
AcDbCircle
 10
77.91536453941376
 20
-30.34366187873707
 30
0.0
 40
0.0299999999999983
100
AcDbArc
 50
0.0
 51
90.0
  0
ARC
  5
2A6
330
37B
100
AcDbEntity
  8
GAIKEI
 62
     1
100
AcDbCircle
 10
77.91536453941376
 20
-30.43366187873721
 30
0.0
 40
0.0300000000000409
100
AcDbArc
 50
270.0
 51
0.0
  0
ARC
  5
2A7
330
37B
100
AcDbEntity
  8
GAIKEI
 62
     1
100
AcDbCircle
 10
77.91536453941376
 20
-30.64366187873702
 30
0.0
 40
0.0299999999999983
100
AcDbArc
 50
0.0
 51
90.0
  0
LINE
  5
2A8
330
37B
100
AcDbEntity
  8
GAIKEI
 62
     1
100
AcDbLine
 10
78.18536453941374
 20
-30.64366187873702
 30
0.0
 11
78.18536453941374
 21
-30.73366187873694
 31
0.0
  0
LINE
  5
2A9
330
37B
100
AcDbEntity
  8
GAIKEI
 62
     1
100
AcDbLine
 10
78.18536453941374
 20
-30.34366187873707
 30
0.0
 11
78.18536453941374
 21
-30.43366187873721
 31
0.0
  0
LINE
  5
2AA
330
37B
100
AcDbEntity
  8
GAIKEI
 62
     1
100
AcDbLine
 10
78.18536453941374
 20
-30.04366187873711
 30
0.0
 11
78.18536453941374
 21
-30.13366187873703
 31
0.0
  0
LINE
  5
2B1
330
37B
100
AcDbEntity
  8
GAIKEI
 62
     1
100
AcDbLine
 10
77.8778645394134
 20
-30.76366187873714
 30
0.0
 11
77.8778645394134
 21
-30.61366187873705
 31
0.0
  0
LINE
  5
2B2
330
37B
100
AcDbEntity
  8
GAIKEI
 62
     1
100
AcDbLine
 10
77.8778645394134
 20
-30.46366187873696
 30
0.0
 11
77.8778645394134
 21
-30.31366187873709
 31
0.0
  0
LINE
  5
2B3
330
37B
100
AcDbEntity
  8
GAIKEI
100
AcDbLine
 10
77.6669270394134
 20
-30.76366187873714
 30
0.0
 11
78.4638020394134
 21
-30.76366187873714
 31
0.0
  0
LINE
  5
2B4
330
37B
100
AcDbEntity
  8
GAIKEI
100
AcDbLine
 10
77.68880203941353
 20
-30.46366187873696
 30
0.0
 11
78.44192703941349
 21
-30.46366187873696
 31
0.0
  0
LINE
  5
2B5
330
37B
100
AcDbEntity
  8
GAIKEI
 62
     1
100
AcDbLine
 10
77.9453645394135
 20
-30.73366187873694
 30
0.0
 11
77.9453645394135
 21
-30.64366187873702
 31
0.0
  0
LINE
  5
2B6
330
37B
100
AcDbEntity
  8
GAIKEI
100
AcDbLine
 10
77.71067703941367
 20
-30.163661878737
 30
0.0
 11
78.4200520394138
 21
-30.163661878737
 31
0.0
  0
LINE
  5
2B7
330
37B
100
AcDbEntity
  8
GAIKEI
100
AcDbLine
 10
78.40911453941362
 20
-30.01366187873714
 30
0.0
 11
77.72161453941385
 21
-30.01366187873714
 31
0.0
  0
LINE
  5
2B9
330
37B
100
AcDbEntity
  8
GAIKEI
100
AcDbLine
 10
77.71067703941367
 20
-30.163661878737
 30
0.0
 11
77.69973953941371
 21
-30.31366187873709
 31
0.0
  0
LINE
  5
2BA
330
37B
100
AcDbEntity
  8
GAIKEI
100
AcDbLine
 10
77.7373390980099
 20
-30.31366187873709
 30
0.0
 11
77.72640159800972
 21
-30.46366187873696
 31
0.0
  0
LINE
  5
2BC
330
37B
100
AcDbEntity
  8
GAIKEI
100
AcDbLine
 10
77.68880203941353
 20
-30.46366187873696
 30
0.0
 11
77.67786453941358
 21
-30.61366187873705
 31
0.0
  0
LINE
  5
2BD
330
37B
100
AcDbEntity
  8
GAIKEI
100
AcDbLine
 10
77.71546409800999
 20
-30.61366187873705
 30
0.0
 11
77.70452659801026
 21
-30.76366187873714
 31
0.0
  0
LINE
  5
2BE
330
37B
100
AcDbEntity
  8
GAIKEI
 62
     1
100
AcDbLine
 10
77.9453645394135
 20
-30.43366187873721
 30
0.0
 11
77.9453645394135
 21
-30.34366187873707
 31
0.0
  0
LINE
  5
2BF
330
37B
100
AcDbEntity
  8
GAIKEI
 62
     1
100
AcDbLine
 10
77.9453645394135
 20
-30.13366187873703
 30
0.0
 11
77.9453645394135
 21
-30.04366187873711
 31
0.0
  0
LINE
  5
2C1
330
37B
100
AcDbEntity
  8
GAIKEI
100
AcDbLine
 10
78.45286453941367
 20
-30.61366187873705
 30
0.0
 11
77.67786453941358
 21
-30.61366187873705
 31
0.0
  0
LINE
  5
2C3
330
37B
100
AcDbEntity
  8
GAIKEI
100
AcDbLine
 10
78.43098953941376
 20
-30.31366187873709
 30
0.0
 11
77.69973953941371
 21
-30.31366187873709
 31
0.0
  0
ARC
  5
2C4
330
37B
100
AcDbEntity
  8
GAIKEI
 62
     1
100
AcDbCircle
 10
78.21536453941371
 20
-30.73366187873694
 30
0.0
 40
0.0299999999999855
100
AcDbArc
 50
180.0
 51
270.0
  0
ARC
  5
2C5
330
37B
100
AcDbEntity
  8
GAIKEI
 62
     1
100
AcDbCircle
 10
78.21536453941371
 20
-30.9436618787372
 30
0.0
 40
0.0299999999999727
100
AcDbArc
 50
90.0
 51
180.0
  0
ARC
  5
2C6
330
37B
100
AcDbEntity
  8
GAIKEI
 62
     1
100
AcDbCircle
 10
78.21536453941371
 20
-31.03366187873712
 30
0.0
 40
0.0299999999999855
100
AcDbArc
 50
180.0
 51
270.0
  0
ARC
  5
2C7
330
37B
100
AcDbEntity
  8
GAIKEI
 62
     1
100
AcDbCircle
 10
78.21536453941371
 20
-31.24366187873716
 30
0.0
 40
0.0299999999999727
100
AcDbArc
 50
90.0
 51
180.0
  0
ARC
  5
2C8
330
37B
100
AcDbEntity
  8
GAIKEI
 62
     1
100
AcDbCircle
 10
78.21536453941371
 20
-31.33366187873685
 30
0.0
 40
0.0299999999999855
100
AcDbArc
 50
180.0
 51
270.0
  0
ARC
  5
2C9
330
37B
100
AcDbEntity
  8
GAIKEI
 62
     1
100
AcDbCircle
 10
78.21536453941371
 20
-31.54366187873711
 30
0.0
 40
0.0299999999999727
100
AcDbArc
 50
90.0
 51
180.0
  0
ARC
  5
2CA
330
37B
100
AcDbEntity
  8
GAIKEI
 62
     1
100
AcDbCircle
 10
78.21536453941371
 20
-31.63366187873703
 30
0.0
 40
0.0299999999999855
100
AcDbArc
 50
180.0
 51
270.0
  0
ARC
  5
2CB
330
37B
100
AcDbEntity
  8
GAIKEI
 62
     1
100
AcDbCircle
 10
78.21536453941371
 20
-31.84366187873707
 30
0.0
 40
0.0299999999999727
100
AcDbArc
 50
90.0
 51
180.0
  0
ARC
  5
2CC
330
37B
100
AcDbEntity
  8
GAIKEI
 62
     1
100
AcDbCircle
 10
78.21536453941371
 20
-31.93366187873721
 30
0.0
 40
0.0299999999999855
100
AcDbArc
 50
180.0
 51
270.0
  0
ARC
  5
2CD
330
37B
100
AcDbEntity
  8
GAIKEI
 62
     1
100
AcDbCircle
 10
78.21536453941371
 20
-32.14366187873702
 30
0.0
 40
0.0299999999999727
100
AcDbArc
 50
90.0
 51
180.0
  0
ARC
  5
2CE
330
37B
100
AcDbEntity
  8
GAIKEI
 62
     1
100
AcDbCircle
 10
78.21536453941371
 20
-32.23366187873694
 30
0.0
 40
0.0299999999999855
100
AcDbArc
 50
180.0
 51
270.0
  0
ARC
  5
2CF
330
37B
100
AcDbEntity
  8
GAIKEI
 62
     1
100
AcDbCircle
 10
78.21536453941371
 20
-32.4436618787372
 30
0.0
 40
0.0299999999999727
100
AcDbArc
 50
90.0
 51
180.0
  0
ARC
  5
2D0
330
37B
100
AcDbEntity
  8
GAIKEI
 62
     1
100
AcDbCircle
 10
78.21536453941371
 20
-32.53366187873712
 30
0.0
 40
0.0299999999999855
100
AcDbArc
 50
180.0
 51
270.0
  0
ARC
  5
2DB
330
37B
100
AcDbEntity
  8
GAIKEI
 62
     1
100
AcDbCircle
 10
78.21536453941371
 20
-30.04366187873711
 30
0.0
 40
0.0299999999999727
100
AcDbArc
 50
90.0
 51
180.0
  0
ARC
  5
2DC
330
37B
100
AcDbEntity
  8
GAIKEI
 62
     1
100
AcDbCircle
 10
78.21536453941371
 20
-30.13366187873703
 30
0.0
 40
0.0299999999999855
100
AcDbArc
 50
180.0
 51
270.0
  0
ARC
  5
2DD
330
37B
100
AcDbEntity
  8
GAIKEI
 62
     1
100
AcDbCircle
 10
78.21536453941371
 20
-30.34366187873707
 30
0.0
 40
0.0299999999999727
100
AcDbArc
 50
90.0
 51
180.0
  0
ARC
  5
2DE
330
37B
100
AcDbEntity
  8
GAIKEI
 62
     1
100
AcDbCircle
 10
78.21536453941371
 20
-30.43366187873721
 30
0.0
 40
0.0299999999999855
100
AcDbArc
 50
180.0
 51
270.0
  0
ARC
  5
2DF
330
37B
100
AcDbEntity
  8
GAIKEI
 62
     1
100
AcDbCircle
 10
78.21536453941371
 20
-30.64366187873702
 30
0.0
 40
0.0299999999999727
100
AcDbArc
 50
90.0
 51
180.0
  0
LINE
  5
2E6
330
37B
100
AcDbEntity
  8
GAIKEI
100
AcDbLine
 10
78.40911453941362
 20
-30.01366187873714
 30
0.0
 11
78.39817703941367
 21
-29.86366187873705
 31
0.0
  0
LINE
  5
2E7
330
37B
100
AcDbEntity
  8
GAIKEI
100
AcDbLine
 10
77.73255203941358
 20
-29.86366187873705
 30
0.0
 11
77.72161453941385
 21
-30.01366187873714
 31
0.0
  0
LINE
  5
2E8
330
37B
100
AcDbEntity
  8
GAIKEI
100
AcDbLine
 10
77.8778645394134
 20
-29.413661878737
 30
0.0
 11
77.8778645394134
 21
-27.37366187873727
 31
0.0
  0
LINE
  5
2E9
330
37B
100
AcDbEntity
  8
GAIKEI
100
AcDbLine
 10
78.2528645394134
 20
-27.37366187873727
 30
0.0
 11
78.2528645394134
 21
-29.413661878737
 31
0.0
  0
ARC
  5
2EA
330
37B
100
AcDbEntity
  8
GAIKEI
100
AcDbCircle
 10
76.3778645394134
 20
-27.37366187873727
 30
0.0
 40
1.500000000000006
100
AcDbArc
 50
0.0
 51
90.0
  0
ARC
  5
2EB
330
37B
100
AcDbEntity
  8
GAIKEI
100
AcDbCircle
 10
76.3778645394134
 20
-27.37366187873727
 30
0.0
 40
1.874999999999933
100
AcDbArc
 50
0.0
 51
90.0
  0
LINE
  5
2EC
330
37B
100
AcDbEntity
  8
WAKU
 62
     4
100
AcDbLine
 10
1.999999996284942
 20
-114.999999997339
 30
0.0
 11
126.9999999962849
 21
-114.999999997339
 31
0.0
  0
LINE
  5
2EE
330
37B
100
AcDbEntity
  8
WAKU
 62
     4
100
AcDbLine
 10
126.9999999962849
 20
-79.99999999733905
 30
0.0
 11
1.999999996284942
 21
-79.99999999733905
 31
0.0
  0
LINE
  5
2EF
330
37B
100
AcDbEntity
  8
WAKU
 62
     1
100
AcDbLine
 10
1.999999996284942
 20
-109.999999997339
 30
0.0
 11
126.9999999962849
 21
-109.999999997339
 31
0.0
  0
LINE
  5
2F0
330
37B
100
AcDbEntity
  8
WAKU
 62
     1
100
AcDbLine
 10
1.999999996284942
 20
-104.999999997339
 30
0.0
 11
126.9999999962849
 21
-104.999999997339
 31
0.0
  0
LINE
  5
2F1
330
37B
100
AcDbEntity
  8
WAKU
 62
     1
100
AcDbLine
 10
1.999999996284942
 20
-99.99999999733905
 30
0.0
 11
126.9999999962849
 21
-99.99999999733905
 31
0.0
  0
LINE
  5
2F2
330
37B
100
AcDbEntity
  8
WAKU
 62
     1
100
AcDbLine
 10
1.999999996284942
 20
-94.99999999733905
 30
0.0
 11
126.9999999962849
 21
-94.99999999733905
 31
0.0
  0
LINE
  5
2F3
330
37B
100
AcDbEntity
  8
WAKU
 62
     1
100
AcDbLine
 10
1.999999996284942
 20
-89.99999999733905
 30
0.0
 11
126.9999999962849
 21
-89.99999999733905
 31
0.0
  0
LINE
  5
2F4
330
37B
100
AcDbEntity
  8
WAKU
 62
     1
100
AcDbLine
 10
1.999999996284942
 20
-84.99999999733905
 30
0.0
 11
126.9999999962849
 21
-84.99999999733905
 31
0.0
  0
LINE
  5
2F5
330
37B
100
AcDbEntity
  8
WAKU
 62
     4
100
AcDbLine
 10
1.999999996284942
 20
-79.99999999733905
 30
0.0
 11
1.999999996284942
 21
-114.999999997339
 31
0.0
  0
TEXT
  5
2F6
330
37B
100
AcDbEntity
  8
MOJI1
100
AcDbText
 10
4.499999996284942
 20
-108.999999997339
 30
0.0
 40
3.0
  1
周波数特性
100
AcDbText
  0
TEXT
  5
2F7
330
37B
100
AcDbEntity
  8
MOJI1
100
AcDbText
 10
4.499999996284942
 20
-113.999999997339
 30
0.0
 40
3.0
  1
制御信号
100
AcDbText
  0
TEXT
  5
2F8
330
37B
100
AcDbEntity
  8
MOJI1
100
AcDbText
 10
4.499999996284942
 20
-103.999999997339
 30
0.0
 40
3.0
  1
使用マイク
100
AcDbText
  0
TEXT
  5
2F9
330
37B
100
AcDbEntity
  8
MOJI1
100
AcDbText
 10
4.499999996284942
 20
-88.99999999733905
 30
0.0
 40
3.0
  1
発振方式
100
AcDbText
  0
TEXT
  5
2FA
330
37B
100
AcDbEntity
  8
MOJI1
100
AcDbText
 10
4.499999996284942
 20
-93.99999999733905
 30
0.0
 40
3.0
  1
送信周波数
100
AcDbText
  0
TEXT
  5
2FB
330
37B
100
AcDbEntity
  8
MOJI1
100
AcDbText
 10
4.499999996284942
 20
-83.99999999733905
 30
0.0
 40
3.0
  1
電波型式
100
AcDbText
  0
TEXT
  5
2FC
330
37B
100
AcDbEntity
  8
MOJI1
100
AcDbText
 10
44.49999999628494
 20
-103.999999997339
 30
0.0
 40
3.0
  1
単一指向性エレクトレットコンデンサー型
100
AcDbText
  0
TEXT
  5
2FD
330
37B
100
AcDbEntity
  8
MOJI1
100
AcDbText
 10
44.49999999628494
 20
-88.99999999733905
 30
0.0
 40
3.0
  1
水晶制御ＰＬＬシンセサイザー方式
100
AcDbText
  0
TEXT
  5
2FE
330
37B
100
AcDbEntity
  8
MOJI1
100
AcDbText
 10
44.49999999628494
 20
-93.99999999733905
 30
0.0
 40
3.0
  1
８０６．１２５ＭＨｚ～８０９．７５０ＭＨｚ
100
AcDbText
  0
TEXT
  5
2FF
330
37B
100
AcDbEntity
  8
MOJI1
100
AcDbText
 10
44.49999999628494
 20
-98.99999999733905
 30
0.0
 40
3.0
  1
（０．１２５ＭＨｚ間隔３０波中１波）
100
AcDbText
  0
LINE
  5
300
330
37B
100
AcDbEntity
  8
WAKU
 62
     4
100
AcDbLine
 10
41.99999999628494
 20
-114.999999997339
 30
0.0
 11
41.99999999628494
 21
-79.99999999733905
 31
0.0
  0
TEXT
  5
301
330
37B
100
AcDbEntity
  8
MOJI1
100
AcDbText
 10
44.49999999628494
 20
-83.99999999733905
 30
0.0
 40
3.0
  1
Ｆ３Ｅ、Ｆ９Ｗ
100
AcDbText
  0
TEXT
  5
302
330
37B
100
AcDbEntity
  8
MOJI1
100
AcDbText
 10
44.49999999628494
 20
-108.999999997339
 30
0.0
 40
3.0
  1
１００Ｈｚ～１０ｋＨｚ
 41
0.95
100
AcDbText
  0
TEXT
  5
303
330
37B
100
AcDbEntity
  8
MOJI1
100
AcDbText
 10
44.49999999628494
 20
-113.999999997339
 30
0.0
 40
3.0
  1
電池残量用：３種類
100
AcDbText
  0
LINE
  5
304
330
37B
100
AcDbEntity
  8
WAKU
 62
     4
100
AcDbLine
 10
126.9999999962849
 20
-114.999999997339
 30
0.0
 11
126.9999999962849
 21
-79.99999999733905
 31
0.0
  0
TEXT
  5
3CB
330
37B
100
AcDbEntity
  8
TOUROKU
100
AcDbText
 10
110.9999500329273
 20
-12.0
 30
0.0
 40
2.0
  1
ＷＸ４３７０Ｂ
 72
     2
 11
126.9999500329273
 21
-12.0
 31
0.0
100
AcDbText
  0
ENDSEC
  0
SECTION
  2
OBJECTS
  0
DICTIONARY
  5
318
330
0
100
AcDbDictionary
281
     1
  3
ACAD_CIP_PREVIOUS_PRODUCT_INFO
350
393
  3
ACAD_COLOR
350
36E
  3
ACAD_DETAILVIEWSTYLE
350
375
  3
ACAD_GROUP
350
319
  3
ACAD_LAYOUT
350
36D
  3
ACAD_MATERIAL
350
31C
  3
ACAD_MLEADERSTYLE
350
371
  3
ACAD_MLINESTYLE
350
36A
  3
ACAD_PLOTSETTINGS
350
36C
  3
ACAD_PLOTSTYLENAME
350
31A
  3
ACAD_SCALELIST
350
34E
  3
ACAD_SECTIONVIEWSTYLE
350
373
  3
ACAD_TABLESTYLE
350
36F
  3
ACAD_VISUALSTYLE
350
335
  3
ACDB_RECOMPOSE_DATA
350
494
  3
ACDBHEADERROUNDTRIPXREC
350
4D5
  3
AcDbVariableDictionary
350
46F
  3
DWGPROPS
350
4D8
  3
R_CloseTimesDictionary
350
3CC
  0
DICTIONARY
  5
4D9
330
314
100
AcDbDictionary
280
     1
281
     1
  3
ACAD_XREC_ROUNDTRIP
360
4DA
  0
DICTIONARY
  5
3BE
330
30E
100
AcDbDictionary
280
     1
281
     1
  3
ACAD_LAYERSTATES
360
3BF
  0
DICTIONARY
  5
3AD
330
3AC
100
AcDbDictionary
280
     1
281
     1
  3
ACAD_SORTENTS
360
3AE
  0
XRECORD
  5
393
102
{ACAD_REACTORS
330
318
102
}
330
318
100
AcDbXrecord
280
     1
300
ACD
300
2014
300
DSSTD_F_S
  0
DICTIONARY
  5
36E
102
{ACAD_REACTORS
330
318
102
}
330
318
100
AcDbDictionary
281
     1
  0
DICTIONARY
  5
375
102
{ACAD_REACTORS
330
318
102
}
330
318
100
AcDbDictionary
281
     1
  3
Imperial24
350
376
  3
Metric50
350
3C1
  0
DICTIONARY
  5
319
102
{ACAD_REACTORS
330
318
102
}
330
318
100
AcDbDictionary
281
     1
  0
DICTIONARY
  5
36D
102
{ACAD_REACTORS
330
318
102
}
330
318
100
AcDbDictionary
281
     1
  3
Model
350
37E
  3
レイアウト1
350
37A
  0
DICTIONARY
  5
31C
102
{ACAD_REACTORS
330
318
102
}
330
318
100
AcDbDictionary
281
     1
  3
ByBlock
350
325
  3
ByLayer
350
31D
  3
Global
350
32D
  0
DICTIONARY
  5
371
102
{ACAD_REACTORS
330
318
102
}
330
318
100
AcDbDictionary
281
     1
  3
Standard
350
372
  0
DICTIONARY
  5
36A
102
{ACAD_REACTORS
330
318
102
}
330
318
100
AcDbDictionary
281
     1
  3
Standard
350
36B
  0
DICTIONARY
  5
36C
102
{ACAD_REACTORS
330
318
102
}
330
318
100
AcDbDictionary
281
     1
  0
ACDBDICTIONARYWDFLT
  5
31A
102
{ACAD_REACTORS
330
318
102
}
330
318
100
AcDbDictionary
281
     1
  3
Normal
350
31B
100
AcDbDictionaryWithDefault
340
31B
  0
DICTIONARY
  5
34E
102
{ACAD_REACTORS
330
318
102
}
330
318
100
AcDbDictionary
281
     1
  3
A0
350
34F
  3
A1
350
350
  3
A2
350
351
  3
A3
350
352
  3
A4
350
353
  3
A5
350
354
  3
A6
350
355
  3
A7
350
356
  3
A8
350
357
  3
A9
350
358
  3
B0
350
359
  3
B1
350
35A
  3
B2
350
35B
  3
B3
350
35C
  3
B4
350
35D
  3
B5
350
35E
  3
B6
350
35F
  0
DICTIONARY
  5
373
102
{ACAD_REACTORS
330
318
102
}
330
318
100
AcDbDictionary
281
     1
  3
Imperial24
350
374
  3
Metric50
350
3C0
  0
DICTIONARY
  5
36F
102
{ACAD_REACTORS
330
318
102
}
330
318
100
AcDbDictionary
281
     1
  3
Standard
350
370
  0
DICTIONARY
  5
335
102
{ACAD_REACTORS
330
318
102
}
330
318
100
AcDbDictionary
281
     1
  3
2dWireframe
350
33B
  3
Basic
350
33A
  3
Brighten
350
341
  3
ColorChange
350
345
  3
Conceptual
350
33E
  3
Dim
350
340
  3
EdgeColorOff
350
34D
  3
Facepattern
350
344
  3
Flat
350
336
  3
FlatWithEdges
350
337
  3
Gouraud
350
338
  3
GouraudWithEdges
350
339
  3
Hidden
350
33D
  3
JitterOff
350
34B
  3
Linepattern
350
343
  3
OverhangOff
350
34C
  3
Realistic
350
33F
  3
Shaded
350
34A
  3
Shaded with edges
350
349
  3
Shades of Gray
350
346
  3
Sketchy
350
347
  3
Thicken
350
342
  3
Wireframe
350
33C
  3
X-Ray
350
348
  0
XRECORD
  5
494
102
{ACAD_REACTORS
330
318
102
}
330
318
100
AcDbXrecord
280
     1
 90
        1
  0
DICTIONARY
  5
4D5
102
{ACAD_REACTORS
330
318
102
}
330
318
100
AcDbDictionary
281
     1
  3
COLORDICT
350
4D6
  3
MATERIALDICT
350
4D7
  0
DICTIONARY
  5
46F
102
{ACAD_REACTORS
330
318
102
}
330
318
100
AcDbDictionary
281
     1
  3
CANNOSCALE
350
4D4
  3
CMLEADERSTYLE
350
471
  3
CTABLESTYLE
350
470
  3
CVIEWDETAILSTYLE
350
472
  3
CVIEWSECTIONSTYLE
350
473
  3
DIMASSOC
350
47C
  3
HIDETEXT
350
47B
  3
INDEXCTL
350
47A
  3
LAYEREVAL
350
477
  3
LAYERNOTIFY
350
478
  3
LIGHTINGUNITS
350
476
  3
MSLTSCALE
350
474
  3
SORTENTS
350
479
  3
XCLIPFRAME
350
4D3
  0
XRECORD
  5
4D8
102
{ACAD_REACTORS
330
318
102
}
330
318
100
AcDbXrecord
280
     1
  1
DWGPROPS COOKIE
  2

  3

  4

  6

  7

  8
7009735
  9

300
=
301
=
302
=
303
=
304
=
305
=
306
=
307
=
308
=
309
=
 40
0.0
 41
2451815.190532581
 42
2457017.334092963
  1

 90
        0
  0
DICTIONARY
  5
3CC
102
{ACAD_REACTORS
330
318
102
}
330
318
100
AcDbDictionary
281
     1
  3
R_CloseTimesXRecord
350
3CD
  0
XRECORD
  5
4DA
102
{ACAD_REACTORS
330
4D9
102
}
330
4D9
100
AcDbXrecord
280
     1
102
VTR_0.000_0.000_1.000_1.000_VISUALSTYLE
340
33B
102
VTR_0.000_0.000_1.000_1.000_GRIDDISPLAY
 70
     3
102
VTR_0.000_0.000_1.000_1.000_GRIDMAJOR
 70
     5
102
VTR_0.000_0.000_1.000_1.000_DEFAULTLIGHTING
280
     1
102
VTR_0.000_0.000_1.000_1.000_DEFAULTLIGHTINGTYPE
 70
     0
102
VTR_0.000_0.000_1.000_1.000_BRIGHTNESS
141
0.0
102
VTR_0.000_0.000_1.000_1.000_CONTRAST
142
0.0
  0
DICTIONARY
  5
3BF
102
{ACAD_REACTORS
330
3BE
102
}
330
3BE
100
AcDbDictionary
281
     1
  0
SORTENTSTABLE
  5
3AE
102
{ACAD_REACTORS
330
3AD
102
}
330
3AD
100
AcDbSortentsTable
330
3AC
  0
ACAD_PROXY_OBJECT
  5
376
102
{ACAD_REACTORS
330
375
102
}
102
{ACAD_XDICTIONARY
360
483
102
}
330
375
100
AcDbProxyObject
 90
      499
 91
      507
 95
   983063
 70
     0
 93
     1261
310
90B496D70657269616C323400481E5C0F42F5A8DC671FC056BD1B81E856B9F81E5C0F42F5A8DC671FA33E5C0F42F5A8DC671FA02000000000000741FA02AD929E2E20B1AB30B9102B34B2BBAA3CB832902E33101112BA3198911F1290129E2E20B1AB30B9102B34B2BBA232BA30B4B624B21F12AE2829A1A0A62290129E2E2
310
0B1AB30B9102B34B2BBA9B1B0B632902E33101112B9B7111F1280233A33800
340
361
340
0
340
368
340
361
340
368
340
368
 94
        0
  0
ACAD_PROXY_OBJECT
  5
3C1
102
{ACAD_REACTORS
330
375
102
}
102
{ACAD_XDICTIONARY
360
487
102
}
330
375
100
AcDbProxyObject
 90
      499
 91
      507
 95
   983063
 70
     0
 93
      893
310
9094D6574726963353000481E0000000000000A20500E0000000000000A20233E0000000000000A20400000000000017202029C129E2E20B1AB30B9102B34B2BBA232BA30B4B624B21F129014129E2E20B1AB30B9102B34B2BBA9B1B0B632902E33101112B9B7111F129480233A33800
340
361
340
0
340
368
340
361
340
368
340
368
 94
        0
  0
LAYOUT
  5
37E
102
{ACAD_REACTORS
330
36D
102
}
330
36D
100
AcDbPlotSettings
  1

  2
FX_どこでもボックス汐留（ＰＳＳＪ）
  4

  6

 40
0.0
 41
0.0
 42
0.0
 43
0.0
 44
0.0
 45
0.0
 46
0.0
 47
0.0
 48
0.0
 49
0.0
140
0.0
141
0.0
142
1.0
143
1.0
 70
  1712
 72
     0
 73
     0
 74
     0
  7

 75
     0
147
1.0
148
0.0
149
0.0
100
AcDbLayout
  1
Model
 70
     1
 71
     0
 10
0.0
 20
0.0
 11
12.0
 21
9.0
 12
0.0
 22
0.0
 32
0.0
 14
0.0
 24
0.0
 34
0.0
 15
0.0
 25
0.0
 35
0.0
146
0.0
 13
0.0
 23
0.0
 33
0.0
 16
1.0
 26
0.0
 36
0.0
 17
0.0
 27
1.0
 37
0.0
 76
     0
330
37B
331
386
  0
LAYOUT
  5
37A
102
{ACAD_REACTORS
330
36D
102
}
330
36D
100
AcDbPlotSettings
  1

  2
FX_どこでもボックス汐留（ＰＳＳＪ）
  4

  6

 40
0.0
 41
0.0
 42
0.0
 43
0.0
 44
0.0
 45
0.0
 46
0.0
 47
0.0
 48
0.0
 49
0.0
140
0.0
141
0.0
142
1.0
143
1.0
 70
   688
 72
     0
 73
     0
 74
     5
  7

 75
    16
147
1.0
148
0.0
149
0.0
100
AcDbLayout
  1
レイアウト1
 70
     1
 71
     1
 10
0.0
 20
0.0
 11
12.0
 21
9.0
 12
0.0
 22
0.0
 32
0.0
 14
1.000000000000000E+20
 24
1.000000000000000E+20
 34
1.000000000000000E+20
 15
-1.000000000000000E+20
 25
-1.000000000000000E+20
 35
-1.000000000000000E+20
146
0.0
 13
0.0
 23
0.0
 33
0.0
 16
1.0
 26
0.0
 36
0.0
 17
0.0
 27
1.0
 37
0.0
 76
     0
330
377
  0
MATERIAL
  5
325
102
{ACAD_REACTORS
330
31C
102
}
102
{ACAD_XDICTIONARY
360
4DB
102
}
330
31C
100
AcDbMaterial
  1
ByBlock
 72
     0
 73
     2
 43
0.0208333333333333
 43
0.0
 43
0.0
 43
0.0
 43
0.0
 43
0.0208333333333333
 43
0.0
 43
0.0
 43
0.0
 43
0.0
 43
1.0
 43
0.0
 43
0.0
 43
0.0
 43
0.0
 43
1.0
 77
     0
 78
     2
 47
0.0208333333333333
 47
0.0
 47
0.0
 47
0.0
 47
0.0
 47
0.0208333333333333
 47
0.0
 47
0.0
 47
0.0
 47
0.0
 47
1.0
 47
0.0
 47
0.0
 47
0.0
 47
0.0
 47
1.0
171
     0
172
     2
 49
0.0208333333333333
 49
0.0
 49
0.0
 49
0.0
 49
0.0
 49
0.0208333333333333
 49
0.0
 49
0.0
 49
0.0
 49
0.0
 49
1.0
 49
0.0
 49
0.0
 49
0.0
 49
0.0
 49
1.0
175
     0
176
     2
142
0.0208333333333333
142
0.0
142
0.0
142
0.0
142
0.0
142
0.0208333333333333
142
0.0
142
0.0
142
0.0
142
0.0
142
1.0
142
0.0
142
0.0
142
0.0
142
0.0
142
1.0
179
     0
270
     2
144
0.0208333333333333
144
0.0
144
0.0
144
0.0
144
0.0
144
0.0208333333333333
144
0.0
144
0.0
144
0.0
144
0.0
144
1.0
144
0.0
144
0.0
144
0.0
144
0.0
144
1.0
274
     2
147
0.0208333333333333
147
0.0
147
0.0
147
0.0
147
0.0
147
0.0208333333333333
147
0.0
147
0.0
147
0.0
147
0.0
147
1.0
147
0.0
147
0.0
147
0.0
147
0.0
147
1.0
  0
MATERIAL
  5
31D
102
{ACAD_REACTORS
330
31C
102
}
102
{ACAD_XDICTIONARY
360
4DD
102
}
330
31C
100
AcDbMaterial
  1
ByLayer
 72
     0
 73
     2
 43
0.0208333333333333
 43
0.0
 43
0.0
 43
0.0
 43
0.0
 43
0.0208333333333333
 43
0.0
 43
0.0
 43
0.0
 43
0.0
 43
1.0
 43
0.0
 43
0.0
 43
0.0
 43
0.0
 43
1.0
 77
     0
 78
     2
 47
0.0208333333333333
 47
0.0
 47
0.0
 47
0.0
 47
0.0
 47
0.0208333333333333
 47
0.0
 47
0.0
 47
0.0
 47
0.0
 47
1.0
 47
0.0
 47
0.0
 47
0.0
 47
0.0
 47
1.0
171
     0
172
     2
 49
0.0208333333333333
 49
0.0
 49
0.0
 49
0.0
 49
0.0
 49
0.0208333333333333
 49
0.0
 49
0.0
 49
0.0
 49
0.0
 49
1.0
 49
0.0
 49
0.0
 49
0.0
 49
0.0
 49
1.0
175
     0
176
     2
142
0.0208333333333333
142
0.0
142
0.0
142
0.0
142
0.0
142
0.0208333333333333
142
0.0
142
0.0
142
0.0
142
0.0
142
1.0
142
0.0
142
0.0
142
0.0
142
0.0
142
1.0
179
     0
270
     2
144
0.0208333333333333
144
0.0
144
0.0
144
0.0
144
0.0
144
0.0208333333333333
144
0.0
144
0.0
144
0.0
144
0.0
144
1.0
144
0.0
144
0.0
144
0.0
144
0.0
144
1.0
274
     2
147
0.0208333333333333
147
0.0
147
0.0
147
0.0
147
0.0
147
0.0208333333333333
147
0.0
147
0.0
147
0.0
147
0.0
147
1.0
147
0.0
147
0.0
147
0.0
147
0.0
147
1.0
  0
MATERIAL
  5
32D
102
{ACAD_REACTORS
330
31C
102
}
102
{ACAD_XDICTIONARY
360
4DF
102
}
330
31C
100
AcDbMaterial
  1
Global
 72
     0
 73
     2
 43
0.0208333333333333
 43
0.0
 43
0.0
 43
0.0
 43
0.0
 43
0.0208333333333333
 43
0.0
 43
0.0
 43
0.0
 43
0.0
 43
1.0
 43
0.0
 43
0.0
 43
0.0
 43
0.0
 43
1.0
 77
     0
 78
     2
 47
0.0208333333333333
 47
0.0
 47
0.0
 47
0.0
 47
0.0
 47
0.0208333333333333
 47
0.0
 47
0.0
 47
0.0
 47
0.0
 47
1.0
 47
0.0
 47
0.0
 47
0.0
 47
0.0
 47
1.0
171
     0
172
     2
 49
0.0208333333333333
 49
0.0
 49
0.0
 49
0.0
 49
0.0
 49
0.0208333333333333
 49
0.0
 49
0.0
 49
0.0
 49
0.0
 49
1.0
 49
0.0
 49
0.0
 49
0.0
 49
0.0
 49
1.0
175
     0
176
     2
142
0.0208333333333333
142
0.0
142
0.0
142
0.0
142
0.0
142
0.0208333333333333
142
0.0
142
0.0
142
0.0
142
0.0
142
1.0
142
0.0
142
0.0
142
0.0
142
0.0
142
1.0
179
     0
270
     2
144
0.0208333333333333
144
0.0
144
0.0
144
0.0
144
0.0
144
0.0208333333333333
144
0.0
144
0.0
144
0.0
144
0.0
144
1.0
144
0.0
144
0.0
144
0.0
144
0.0
144
1.0
274
     2
147
0.0208333333333333
147
0.0
147
0.0
147
0.0
147
0.0
147
0.0208333333333333
147
0.0
147
0.0
147
0.0
147
0.0
147
1.0
147
0.0
147
0.0
147
0.0
147
0.0
147
1.0
  0
MLEADERSTYLE
  5
372
102
{ACAD_REACTORS
330
371
102
}
102
{ACAD_XDICTIONARY
360
4C9
102
}
330
371
100
AcDbMLeaderStyle
170
     2
171
     1
172
     0
 90
        2
 40
0.0
 41
0.0
173
     1
 91
-1056964608
340
366
 92
       -2
290
     1
 42
0.09
291
     1
 43
0.36
  3
Standard
341
0
 44
0.18
300

342
361
174
     1
178
     6
175
     1
176
     0
 93
-1056964608
 45
0.18
292
     0
297
     0
 46
0.18
343
0
 94
-1056964608
 47
1.0
 49
1.0
140
1.0
293
     1
141
0.0
294
     1
177
     0
142
1.0
295
     0
296
     0
143
0.125
1001
ACAD_MLEADERVER
1070
     2
  0
MLINESTYLE
  5
36B
102
{ACAD_REACTORS
330
36A
102
}
330
36A
100
AcDbMlineStyle
  2
STANDARD
 70
     0
  3

 62
   256
 51
90.0
 52
90.0
 71
     2
 49
0.5
 62
   256
  6
BYLAYER
 49
-0.5
 62
   256
  6
BYLAYER
  0
ACDBPLACEHOLDER
  5
31B
102
{ACAD_REACTORS
330
31A
102
}
330
31A
  0
SCALE
  5
34F
102
{ACAD_REACTORS
330
34E
102
}
330
34E
100
AcDbScale
 70
     0
300
1:1
140
1.0
141
1.0
290
     1
  0
SCALE
  5
350
102
{ACAD_REACTORS
330
34E
102
}
330
34E
100
AcDbScale
 70
     0
300
1/128" = 1'-0"
140
0.0078125
141
12.0
290
     0
  0
SCALE
  5
351
102
{ACAD_REACTORS
330
34E
102
}
330
34E
100
AcDbScale
 70
     0
300
1/64" = 1'-0"
140
0.015625
141
12.0
290
     0
  0
SCALE
  5
352
102
{ACAD_REACTORS
330
34E
102
}
330
34E
100
AcDbScale
 70
     0
300
1/32" = 1'-0"
140
0.03125
141
12.0
290
     0
  0
SCALE
  5
353
102
{ACAD_REACTORS
330
34E
102
}
330
34E
100
AcDbScale
 70
     0
300
1/16" = 1'-0"
140
0.0625
141
12.0
290
     0
  0
SCALE
  5
354
102
{ACAD_REACTORS
330
34E
102
}
330
34E
100
AcDbScale
 70
     0
300
3/32" = 1'-0"
140
0.09375
141
12.0
290
     0
  0
SCALE
  5
355
102
{ACAD_REACTORS
330
34E
102
}
330
34E
100
AcDbScale
 70
     0
300
1/8" = 1'-0"
140
0.125
141
12.0
290
     0
  0
SCALE
  5
356
102
{ACAD_REACTORS
330
34E
102
}
330
34E
100
AcDbScale
 70
     0
300
3/16" = 1'-0"
140
0.1875
141
12.0
290
     0
  0
SCALE
  5
357
102
{ACAD_REACTORS
330
34E
102
}
330
34E
100
AcDbScale
 70
     0
300
1/4" = 1'-0"
140
0.25
141
12.0
290
     0
  0
SCALE
  5
358
102
{ACAD_REACTORS
330
34E
102
}
330
34E
100
AcDbScale
 70
     0
300
3/8" = 1'-0"
140
0.375
141
12.0
290
     0
  0
SCALE
  5
359
102
{ACAD_REACTORS
330
34E
102
}
330
34E
100
AcDbScale
 70
     0
300
1/2" = 1'-0"
140
0.5
141
12.0
290
     0
  0
SCALE
  5
35A
102
{ACAD_REACTORS
330
34E
102
}
330
34E
100
AcDbScale
 70
     0
300
3/4" = 1'-0"
140
0.75
141
12.0
290
     0
  0
SCALE
  5
35B
102
{ACAD_REACTORS
330
34E
102
}
330
34E
100
AcDbScale
 70
     0
300
1" = 1'-0"
140
1.0
141
12.0
290
     0
  0
SCALE
  5
35C
102
{ACAD_REACTORS
330
34E
102
}
330
34E
100
AcDbScale
 70
     0
300
1-1/2" = 1'-0"
140
1.5
141
12.0
290
     0
  0
SCALE
  5
35D
102
{ACAD_REACTORS
330
34E
102
}
330
34E
100
AcDbScale
 70
     0
300
3" = 1'-0"
140
3.0
141
12.0
290
     0
  0
SCALE
  5
35E
102
{ACAD_REACTORS
330
34E
102
}
330
34E
100
AcDbScale
 70
     0
300
6" = 1'-0"
140
6.0
141
12.0
290
     0
  0
SCALE
  5
35F
102
{ACAD_REACTORS
330
34E
102
}
330
34E
100
AcDbScale
 70
     0
300
1'-0" = 1'-0"
140
12.0
141
12.0
290
     0
  0
ACAD_PROXY_OBJECT
  5
374
102
{ACAD_REACTORS
330
373
102
}
102
{ACAD_XDICTIONARY
360
481
102
}
330
373
100
AcDbProxyObject
 90
      499
 91
      506
 95
   983063
 70
     0
 93
     2303
310
90B496D70657269616C3234004A765C0F42F5A8DC671FE5C0F42F5A8DC671FA229258409E5840A25840A65840B05840B4005C0F42F5A8DC6F1FA33A659703D0BD6A3719C7E5C0F42F5A8DC671FE5C0F42F5A8DC671FA02000000000000741FA02BE929E2E20B1AB30B9102B34B2BBAA3CB832902E33101112BA3198911F129
310
0129E2E20B1AB30B9102B34B2BBA9B2B1BA34B7B729BA30B93A24B21F1296929E2E20B1AB30B9102B34B2BBA9B2B1BA34B7B722B73224B21F12AE2829A1A0A62290129E2E20B1AB30B9102B34B2BBA9B1B0B632902E33101112B9B7111F128060080A0E829CA692666200C206056BD1B81E85639FA0320D0305A88A9F643F2
310
7E32B9969C2960E81F87FA0718D4DE3E87E32B9969C2960E85F9E5129FC49EA5FA7E
340
361
340
0
340
0
340
368
340
368
340
361
 94
        0
  0
ACAD_PROXY_OBJECT
  5
3C0
102
{ACAD_REACTORS
330
373
102
}
102
{ACAD_XDICTIONARY
360
485
102
}
330
373
100
AcDbProxyObject
 90
      499
 91
      506
 95
   983063
 70
     0
 93
     2047
310
9094D65747269633530004B360000000000000A2060000000000000A202229258409E5840A25840A65840B05840B4000000000000001220233A65800000000000028800000000000000A2060000000000000A2040000000000001720202AD129E2E20B1AB30B9102B34B2BBA9B2B1BA34B7B729BA30B93A24B21F1296929E2
310
E20B1AB30B9102B34B2BBA9B2B1BA34B7B722B73224B21F129014129E2E20B1AB30B9102B34B2BBA9B1B0B632902E33101112B9B7111F12948060080A0E829CA692666200C400000000000002204000000000000022020D0305A88A9F643F27E32B9969C2960E81F87FA0718D4DE3E87E32B9969C2960E85F9E5129FC49EA5
310
FA7E
340
361
340
0
340
0
340
368
340
368
340
361
 94
        0
  0
TABLESTYLE
  5
370
102
{ACAD_REACTORS
330
36F
102
}
330
36F
100
AcDbTableStyle
  3
Standard
 70
     0
 71
     0
 40
0.06
 41
0.06
280
     0
281
     0
  7
STANDARD
140
0.18
170
     2
 62
     0
 63
   257
283
     0
274
    -2
284
     1
 64
     0
275
    -2
285
     1
 65
     0
276
    -2
286
     1
 66
     0
277
    -2
287
     1
 67
     0
278
    -2
288
     1
 68
     0
279
    -2
289
     1
 69
     0
  7
STANDARD
140
0.25
170
     5
 62
     0
 63
   257
283
     0
274
    -2
284
     1
 64
     0
275
    -2
285
     1
 65
     0
276
    -2
286
     1
 66
     0
277
    -2
287
     1
 67
     0
278
    -2
288
     1
 68
     0
279
    -2
289
     1
 69
     0
  7
STANDARD
140
0.18
170
     5
 62
     0
 63
   257
283
     0
274
    -2
284
     1
 64
     0
275
    -2
285
     1
 65
     0
276
    -2
286
     1
 66
     0
277
    -2
287
     1
 67
     0
278
    -2
288
     1
 68
     0
279
    -2
289
     1
 69
     0
  0
VISUALSTYLE
  5
33B
102
{ACAD_REACTORS
330
335
102
}
102
{ACAD_XDICTIONARY
360
4A2
102
}
330
335
100
AcDbVisualStyle
  2
2dWireframe
 70
     4
 71
     0
 72
     2
 73
     0
 90
        0
 40
-0.6
 41
-30.0
 62
     5
 63
     7
 74
     1
 91
        4
 64
     7
 65
   257
 75
     1
175
     1
 42
1.0
 92
        0
 66
   257
 43
1.0
 76
     1
 77
     6
 78
     2
 67
     7
 79
     5
170
     0
171
     0
290
     0
174
     0
 93
        1
 44
0.0
173
     0
291
     0
 45
0.0
1001
ACAD
1000
AcDbSavedByObjectVersion
1070
     0
  0
VISUALSTYLE
  5
33A
102
{ACAD_REACTORS
330
335
102
}
102
{ACAD_XDICTIONARY
360
4A0
102
}
330
335
100
AcDbVisualStyle
  2
Basic
 70
     7
 71
     1
 72
     0
 73
     1
 90
        0
 40
-0.6
 41
-30.0
 62
     5
 63
     7
 74
     0
 91
        4
 64
     7
 65
   257
 75
     1
175
     1
 42
1.0
 92
        8
 66
     7
 43
1.0
 76
     1
 77
     6
 78
     2
 67
     7
 79
     5
170
     0
171
     0
290
     0
174
     0
 93
        1
 44
0.0
173
     0
291
     1
 45
0.0
1001
ACAD
1000
AcDbSavedByObjectVersion
1070
     0
  0
VISUALSTYLE
  5
341
102
{ACAD_REACTORS
330
335
102
}
102
{ACAD_XDICTIONARY
360
4AE
102
}
330
335
100
AcDbVisualStyle
  2
Brighten
 70
    12
 71
     2
 72
     2
 73
     0
 90
        0
 40
-0.6
 41
-30.0
 62
     5
 63
     7
 74
     1
 91
        4
 64
     7
 65
   257
 75
     1
175
     1
 42
1.0
 92
        8
 66
     7
 43
1.0
 76
     1
 77
     6
 78
     2
 67
     7
 79
     5
170
     0
171
     0
290
     0
174
     0
 93
        1
 44
50.0
173
     0
291
     1
 45
0.0
1001
ACAD
1000
AcDbSavedByObjectVersion
1070
     0
  0
VISUALSTYLE
  5
345
102
{ACAD_REACTORS
330
335
102
}
102
{ACAD_XDICTIONARY
360
4B6
102
}
330
335
100
AcDbVisualStyle
  2
ColorChange
 70
    16
 71
     2
 72
     2
 73
     3
 90
        0
 40
-0.6
 41
-30.0
 62
     5
 63
     8
 74
     1
 91
        4
 64
     7
 65
   257
 75
     1
175
     1
 42
1.0
 92
        8
 66
     8
 43
1.0
 76
     1
 77
     6
 78
     2
 67
     7
 79
     5
170
     0
171
     0
290
     0
174
     0
 93
        1
 44
0.0
173
     0
291
     1
 45
0.0
1001
ACAD
1000
AcDbSavedByObjectVersion
1070
     0
  0
VISUALSTYLE
  5
33E
102
{ACAD_REACTORS
330
335
102
}
102
{ACAD_XDICTIONARY
360
4A8
102
}
330
335
100
AcDbVisualStyle
  2
Conceptual
 70
     9
 71
     3
 72
     2
 73
     0
 90
        0
 40
-0.6
 41
-30.0
 62
     5
 63
     7
 74
     2
 91
        2
 64
     7
 65
   257
 75
     1
175
     1
 42
179.0
 92
        8
 66
     7
 43
1.0
 76
     1
 77
     6
 78
     2
 67
     7
 79
     3
170
     0
171
     0
290
     0
174
     0
 93
        1
 44
0.0
173
     0
291
     0
 45
0.0
1001
ACAD
1000
AcDbSavedByObjectVersion
1070
     0
  0
VISUALSTYLE
  5
340
102
{ACAD_REACTORS
330
335
102
}
102
{ACAD_XDICTIONARY
360
4AC
102
}
330
335
100
AcDbVisualStyle
  2
Dim
 70
    11
 71
     2
 72
     2
 73
     0
 90
        0
 40
-0.6
 41
-30.0
 62
     5
 63
     7
 74
     1
 91
        4
 64
     7
 65
   257
 75
     1
175
     1
 42
1.0
 92
        8
 66
     7
 43
1.0
 76
     1
 77
     6
 78
     2
 67
     7
 79
     5
170
     0
171
     0
290
     0
174
     0
 93
        1
 44
-50.0
173
     0
291
     1
 45
0.0
1001
ACAD
1000
AcDbSavedByObjectVersion
1070
     0
  0
VISUALSTYLE
  5
34D
102
{ACAD_REACTORS
330
335
102
}
102
{ACAD_XDICTIONARY
360
4C6
102
}
330
335
100
AcDbVisualStyle
  2
EdgeColorOff
 70
    22
 71
     2
 72
     2
 73
     0
 90
        0
 40
-0.6
 41
-30.0
 62
     5
 63
     7
 74
     1
 91
        4
 64
     7
 65
   257
 75
     1
175
     1
 42
1.0
 92
        8
 66
     7
 43
1.0
 76
     1
 77
     6
 78
     2
 67
     7
 79
     5
170
     0
171
     0
290
     0
174
     0
 93
        1
 44
0.0
173
     0
291
     1
 45
0.0
1001
ACAD
1000
AcDbSavedByObjectVersion
1070
     0
  0
VISUALSTYLE
  5
344
102
{ACAD_REACTORS
330
335
102
}
102
{ACAD_XDICTIONARY
360
4B4
102
}
330
335
100
AcDbVisualStyle
  2
Facepattern
 70
    15
 71
     2
 72
     2
 73
     0
 90
        0
 40
-0.6
 41
-30.0
 62
     5
 63
     7
 74
     1
 91
        4
 64
     7
 65
   257
 75
     1
175
     1
 42
1.0
 92
        8
 66
     7
 43
1.0
 76
     1
 77
     6
 78
     2
 67
     7
 79
     5
170
     0
171
     0
290
     0
174
     0
 93
        1
 44
0.0
173
     0
291
     1
 45
0.0
1001
ACAD
1000
AcDbSavedByObjectVersion
1070
     0
  0
VISUALSTYLE
  5
336
102
{ACAD_REACTORS
330
335
102
}
102
{ACAD_XDICTIONARY
360
498
102
}
330
335
100
AcDbVisualStyle
  2
Flat
 70
     0
 71
     2
 72
     1
 73
     1
 90
        2
 40
-0.6
 41
30.0
 62
     5
 63
     7
 74
     0
 91
        0
 64
     7
 65
   257
 75
     1
175
     1
 42
1.0
 92
        8
 66
     7
 43
1.0
 76
     1
 77
     6
 78
     2
 67
     7
 79
     5
170
     0
171
     0
290
     0
174
     0
 93
       13
 44
0.0
173
     0
291
     1
 45
0.0
1001
ACAD
1000
AcDbSavedByObjectVersion
1070
     0
  0
VISUALSTYLE
  5
337
102
{ACAD_REACTORS
330
335
102
}
102
{ACAD_XDICTIONARY
360
49A
102
}
330
335
100
AcDbVisualStyle
  2
FlatWithEdges
 70
     1
 71
     2
 72
     1
 73
     1
 90
        2
 40
-0.6
 41
30.0
 62
     5
 63
     7
 74
     1
 91
        0
 64
     7
 65
   257
 75
     1
175
     1
 42
1.0
 92
        0
 66
   257
 43
1.0
 76
     1
 77
     6
 78
     2
 67
     7
 79
     5
170
     0
171
     0
290
     0
174
     0
 93
       13
 44
0.0
173
     0
291
     1
 45
0.0
1001
ACAD
1000
AcDbSavedByObjectVersion
1070
     0
  0
VISUALSTYLE
  5
338
102
{ACAD_REACTORS
330
335
102
}
102
{ACAD_XDICTIONARY
360
49C
102
}
330
335
100
AcDbVisualStyle
  2
Gouraud
 70
     2
 71
     2
 72
     2
 73
     1
 90
        2
 40
-0.6
 41
30.0
 62
     5
 63
     7
 74
     0
 91
        0
 64
     7
 65
   257
 75
     1
175
     1
 42
1.0
 92
        0
 66
     7
 43
1.0
 76
     1
 77
     6
 78
     2
 67
     7
 79
     5
170
     0
171
     0
290
     0
174
     0
 93
       13
 44
0.0
173
     0
291
     1
 45
0.0
1001
ACAD
1000
AcDbSavedByObjectVersion
1070
     0
  0
VISUALSTYLE
  5
339
102
{ACAD_REACTORS
330
335
102
}
102
{ACAD_XDICTIONARY
360
49E
102
}
330
335
100
AcDbVisualStyle
  2
GouraudWithEdges
 70
     3
 71
     2
 72
     2
 73
     1
 90
        2
 40
-0.6
 41
30.0
 62
     5
 63
     7
 74
     1
 91
        0
 64
     7
 65
   257
 75
     1
175
     1
 42
1.0
 92
        0
 66
   257
 43
1.0
 76
     1
 77
     6
 78
     2
 67
     7
 79
     5
170
     0
171
     0
290
     0
174
     0
 93
       13
 44
0.0
173
     0
291
     1
 45
0.0
1001
ACAD
1000
AcDbSavedByObjectVersion
1070
     0
  0
VISUALSTYLE
  5
33D
102
{ACAD_REACTORS
330
335
102
}
102
{ACAD_XDICTIONARY
360
4A6
102
}
330
335
100
AcDbVisualStyle
  2
Hidden
 70
     6
 71
     1
 72
     2
 73
     2
 90
        0
 40
-0.6
 41
-30.0
 62
     5
 63
     7
 74
     2
 91
        2
 64
     7
 65
   257
 75
     2
175
     1
 42
40.0
 92
        0
 66
   257
 43
1.0
 76
     1
 77
     6
 78
     2
 67
     7
 79
     3
170
     0
171
     0
290
     0
174
     0
 93
        1
 44
0.0
173
     0
291
     0
 45
0.0
1001
ACAD
1000
AcDbSavedByObjectVersion
1070
     0
  0
VISUALSTYLE
  5
34B
102
{ACAD_REACTORS
330
335
102
}
102
{ACAD_XDICTIONARY
360
4C2
102
}
330
335
100
AcDbVisualStyle
  2
JitterOff
 70
    20
 71
     2
 72
     2
 73
     0
 90
        0
 40
-0.6
 41
-30.0
 62
     5
 63
     7
 74
     1
 91
        4
 64
     7
 65
   257
 75
     1
175
     1
 42
1.0
 92
       10
 66
     7
 43
1.0
 76
     1
 77
     6
 78
     2
 67
     7
 79
     5
170
     0
171
     0
290
     0
174
     0
 93
        1
 44
0.0
173
     0
291
     1
 45
0.0
1001
ACAD
1000
AcDbSavedByObjectVersion
1070
     0
  0
VISUALSTYLE
  5
343
102
{ACAD_REACTORS
330
335
102
}
102
{ACAD_XDICTIONARY
360
4B2
102
}
330
335
100
AcDbVisualStyle
  2
Linepattern
 70
    14
 71
     2
 72
     2
 73
     0
 90
        0
 40
-0.6
 41
-30.0
 62
     5
 63
     7
 74
     1
 91
        4
 64
     7
 65
   257
 75
     7
175
     7
 42
1.0
 92
        8
 66
     7
 43
1.0
 76
     1
 77
     6
 78
     2
 67
     7
 79
     5
170
     0
171
     0
290
     0
174
     0
 93
        1
 44
0.0
173
     0
291
     1
 45
0.0
1001
ACAD
1000
AcDbSavedByObjectVersion
1070
     0
  0
VISUALSTYLE
  5
34C
102
{ACAD_REACTORS
330
335
102
}
102
{ACAD_XDICTIONARY
360
4C4
102
}
330
335
100
AcDbVisualStyle
  2
OverhangOff
 70
    21
 71
     2
 72
     2
 73
     0
 90
        0
 40
-0.6
 41
-30.0
 62
     5
 63
     7
 74
     1
 91
        4
 64
     7
 65
   257
 75
     1
175
     1
 42
1.0
 92
        9
 66
     7
 43
1.0
 76
     1
 77
     6
 78
     2
 67
     7
 79
     5
170
     0
171
     0
290
     0
174
     0
 93
        1
 44
0.0
173
     0
291
     1
 45
0.0
1001
ACAD
1000
AcDbSavedByObjectVersion
1070
     0
  0
VISUALSTYLE
  5
33F
102
{ACAD_REACTORS
330
335
102
}
102
{ACAD_XDICTIONARY
360
4AA
102
}
330
335
100
AcDbVisualStyle
  2
Realistic
 70
     8
 71
     2
 72
     2
 73
     0
 90
        2
 40
-0.6
 41
30.0
 62
     5
 63
     7
 74
     0
 91
        0
 64
     7
 65
   257
 75
     1
175
     1
 42
1.0
 92
        8
 66
   257
 43
1.0
 76
     1
 77
     6
 78
     2
 67
     7
 79
     3
170
     0
171
     0
290
     0
174
     0
 93
       13
 44
0.0
173
     0
291
     0
 45
0.0
1001
ACAD
1000
AcDbSavedByObjectVersion
1070
     0
  0
VISUALSTYLE
  5
34A
102
{ACAD_REACTORS
330
335
102
}
102
{ACAD_XDICTIONARY
360
4C0
102
}
330
335
100
AcDbVisualStyle
  2
Shaded
 70
    27
 71
     2
 72
     2
 73
     1
 90
        2
 40
-0.6
 41
30.0
 62
     5
 63
     7
 74
     0
 91
        4
 64
     7
 65
   257
 75
     1
175
     1
 42
1.0
 92
        8
 66
   257
 43
1.0
 76
     1
 77
     6
 78
     2
 67
     8
 79
     3
170
     0
171
     0
290
     0
174
     0
 93
        5
 44
0.0
173
     0
291
     0
 45
0.0
1001
ACAD
1000
AcDbSavedByObjectVersion
1070
     0
  0
VISUALSTYLE
  5
349
102
{ACAD_REACTORS
330
335
102
}
102
{ACAD_XDICTIONARY
360
4BE
102
}
330
335
100
AcDbVisualStyle
  2
Shaded with edges
 70
    26
 71
     2
 72
     2
 73
     1
 90
        2
 40
-0.6
 41
30.0
 62
     5
 63
     7
 74
     1
 91
       10
 64
     7
 65
   257
 75
     2
175
     1
 42
1.0
 92
        8
 66
   257
 43
1.0
 76
     1
 77
     6
 78
     2
 67
     7
 79
     3
170
     0
171
     0
290
     0
174
     0
 93
        5
 44
0.0
173
     0
291
     0
 45
0.0
1001
ACAD
1000
AcDbSavedByObjectVersion
1070
     0
  0
VISUALSTYLE
  5
346
102
{ACAD_REACTORS
330
335
102
}
102
{ACAD_XDICTIONARY
360
4B8
102
}
330
335
100
AcDbVisualStyle
  2
Shades of Gray
 70
    23
 71
     2
 72
     2
 73
     3
 90
        0
 40
-0.6
 41
-30.0
 62
     5
 63
     7
 74
     2
 91
        2
 64
     7
 65
     7
 75
     1
175
     1
 42
40.0
 92
        8
 66
     7
 43
1.0
 76
     1
 77
     6
 78
     2
 67
     7
 79
     3
170
     0
171
     0
290
     0
174
     0
 93
        1
 44
0.0
173
     0
291
     0
 45
0.0
1001
ACAD
1000
AcDbSavedByObjectVersion
1070
     0
  0
VISUALSTYLE
  5
347
102
{ACAD_REACTORS
330
335
102
}
102
{ACAD_XDICTIONARY
360
4BA
102
}
330
335
100
AcDbVisualStyle
  2
Sketchy
 70
    24
 71
     1
 72
     2
 73
     2
 90
        0
 40
-0.6
 41
-30.0
 62
     5
 63
     7
 74
     2
 91
        2
 64
     7
 65
     7
 75
     1
175
     1
 42
40.0
 92
       11
 66
     7
 43
1.0
 76
     1
 77
     6
 78
     2
 67
     7
 79
     6
170
     0
171
     0
290
     0
174
     0
 93
        1
 44
0.0
173
     0
291
     0
 45
0.0
1001
ACAD
1000
AcDbSavedByObjectVersion
1070
     0
  0
VISUALSTYLE
  5
342
102
{ACAD_REACTORS
330
335
102
}
102
{ACAD_XDICTIONARY
360
4B0
102
}
330
335
100
AcDbVisualStyle
  2
Thicken
 70
    13
 71
     2
 72
     2
 73
     0
 90
        0
 40
-0.6
 41
-30.0
 62
     5
 63
     7
 74
     1
 91
        4
 64
     7
 65
   257
 75
     1
175
     1
 42
1.0
 92
       12
 66
     7
 43
1.0
 76
     1
 77
     6
 78
     2
 67
     7
 79
     5
170
     0
171
     0
290
     0
174
     0
 93
        1
 44
0.0
173
     0
291
     1
 45
0.0
1001
ACAD
1000
AcDbSavedByObjectVersion
1070
     0
  0
VISUALSTYLE
  5
33C
102
{ACAD_REACTORS
330
335
102
}
102
{ACAD_XDICTIONARY
360
4A4
102
}
330
335
100
AcDbVisualStyle
  2
Wireframe
 70
     5
 71
     0
 72
     2
 73
     0
 90
        0
 40
-0.6
 41
-30.0
 62
     5
 63
     7
 74
     1
 91
        4
 64
     7
 65
   257
 75
     1
175
     1
 42
1.0
 92
        0
 66
   257
 43
1.0
 76
     1
 77
     6
 78
     2
 67
     7
 79
     3
170
     0
171
     0
290
     0
174
     0
 93
        1
 44
0.0
173
     0
291
     0
 45
0.0
1001
ACAD
1000
AcDbSavedByObjectVersion
1070
     0
  0
VISUALSTYLE
  5
348
102
{ACAD_REACTORS
330
335
102
}
102
{ACAD_XDICTIONARY
360
4BC
102
}
330
335
100
AcDbVisualStyle
  2
X-Ray
 70
    25
 71
     2
 72
     2
 73
     1
 90
        1
 40
0.5
 41
-30.0
 62
     5
 63
     7
 74
     1
 91
        0
 64
     7
 65
   257
 75
     1
175
     1
 42
1.0
 92
        8
 66
     7
 43
1.0
 76
     1
 77
     6
 78
     2
 67
     7
 79
     3
170
     0
171
     0
290
     0
174
     0
 93
       13
 44
0.0
173
     0
291
     0
 45
0.0
1001
ACAD
1000
AcDbSavedByObjectVersion
1070
     0
  0
XRECORD
  5
4D6
102
{ACAD_REACTORS
330
4D5
102
}
330
4D5
100
AcDbXrecord
280
     1
340
36E
  0
XRECORD
  5
4D7
102
{ACAD_REACTORS
330
4D5
102
}
330
4D5
100
AcDbXrecord
280
     1
340
31C
  0
DICTIONARYVAR
  5
4D4
102
{ACAD_REACTORS
330
46F
102
}
330
46F
100
DictionaryVariables
280
     0
  1
1:1
  0
DICTIONARYVAR
  5
471
102
{ACAD_REACTORS
330
46F
102
}
330
46F
100
DictionaryVariables
280
     0
  1
Standard
  0
DICTIONARYVAR
  5
470
102
{ACAD_REACTORS
330
46F
102
}
330
46F
100
DictionaryVariables
280
     0
  1
Standard
  0
DICTIONARYVAR
  5
472
102
{ACAD_REACTORS
330
46F
102
}
330
46F
100
DictionaryVariables
280
     0
  1
Imperial24
  0
DICTIONARYVAR
  5
473
102
{ACAD_REACTORS
330
46F
102
}
330
46F
100
DictionaryVariables
280
     0
  1
Imperial24
  0
DICTIONARYVAR
  5
47C
102
{ACAD_REACTORS
330
46F
102
}
330
46F
100
DictionaryVariables
280
     0
  1
2
  0
DICTIONARYVAR
  5
47B
102
{ACAD_REACTORS
330
46F
102
}
330
46F
100
DictionaryVariables
280
     0
  1
1
  0
DICTIONARYVAR
  5
47A
102
{ACAD_REACTORS
330
46F
102
}
330
46F
100
DictionaryVariables
280
     0
  1
0
  0
DICTIONARYVAR
  5
477
102
{ACAD_REACTORS
330
46F
102
}
330
46F
100
DictionaryVariables
280
     0
  1
0
  0
DICTIONARYVAR
  5
478
102
{ACAD_REACTORS
330
46F
102
}
330
46F
100
DictionaryVariables
280
     0
  1
0
  0
DICTIONARYVAR
  5
476
102
{ACAD_REACTORS
330
46F
102
}
330
46F
100
DictionaryVariables
280
     0
  1
2
  0
DICTIONARYVAR
  5
474
102
{ACAD_REACTORS
330
46F
102
}
330
46F
100
DictionaryVariables
280
     0
  1
1
  0
DICTIONARYVAR
  5
479
102
{ACAD_REACTORS
330
46F
102
}
330
46F
100
DictionaryVariables
280
     0
  1
127
  0
DICTIONARYVAR
  5
4D3
102
{ACAD_REACTORS
330
46F
102
}
330
46F
100
DictionaryVariables
280
     0
  1
2
  0
XRECORD
  5
3CD
102
{ACAD_REACTORS
330
3CC
102
}
330
3CC
100
AcDbXrecord
280
     1
  1
2014/12/25 15:25:19
  0

  1
2014/12/25 15:25:29
  0

  1
2014/12/25 17:01:05
  0
DICTIONARY
  5
483
330
376
100
AcDbDictionary
280
     1
281
     1
  3
ACAD_XREC_ROUNDTRIP
360
4CC
  0
DICTIONARY
  5
487
330
3C1
100
AcDbDictionary
280
     1
281
     1
  3
ACAD_XREC_ROUNDTRIP
360
4D2
  0
DICTIONARY
  5
4DB
330
325
100
AcDbDictionary
280
     1
281
     1
  3
ACAD_XREC_ROUNDTRIP
360
4DC
  0
DICTIONARY
  5
4DD
330
31D
100
AcDbDictionary
280
     1
281
     1
  3
ACAD_XREC_ROUNDTRIP
360
4DE
  0
DICTIONARY
  5
4DF
330
32D
100
AcDbDictionary
280
     1
281
     1
  3
ACAD_XREC_ROUNDTRIP
360
4E0
  0
DICTIONARY
  5
4C9
330
372
100
AcDbDictionary
280
     1
281
     1
  3
ACAD_XREC_ROUNDTRIP
360
4CA
  0
DICTIONARY
  5
481
330
374
100
AcDbDictionary
280
     1
281
     1
  3
ACAD_XREC_ROUNDTRIP
360
4CB
  0
DICTIONARY
  5
485
330
3C0
100
AcDbDictionary
280
     1
281
     1
  3
ACAD_XREC_ROUNDTRIP
360
4D1
  0
DICTIONARY
  5
4A2
330
33B
100
AcDbDictionary
280
     1
281
     1
  3
ACAD_XREC_ROUNDTRIP
360
4A3
  0
DICTIONARY
  5
4A0
330
33A
100
AcDbDictionary
280
     1
281
     1
  3
ACAD_XREC_ROUNDTRIP
360
4A1
  0
DICTIONARY
  5
4AE
330
341
100
AcDbDictionary
280
     1
281
     1
  3
ACAD_XREC_ROUNDTRIP
360
4AF
  0
DICTIONARY
  5
4B6
330
345
100
AcDbDictionary
280
     1
281
     1
  3
ACAD_XREC_ROUNDTRIP
360
4B7
  0
DICTIONARY
  5
4A8
330
33E
100
AcDbDictionary
280
     1
281
     1
  3
ACAD_XREC_ROUNDTRIP
360
4A9
  0
DICTIONARY
  5
4AC
330
340
100
AcDbDictionary
280
     1
281
     1
  3
ACAD_XREC_ROUNDTRIP
360
4AD
  0
DICTIONARY
  5
4C6
330
34D
100
AcDbDictionary
280
     1
281
     1
  3
ACAD_XREC_ROUNDTRIP
360
4C7
  0
DICTIONARY
  5
4B4
330
344
100
AcDbDictionary
280
     1
281
     1
  3
ACAD_XREC_ROUNDTRIP
360
4B5
  0
DICTIONARY
  5
498
330
336
100
AcDbDictionary
280
     1
281
     1
  3
ACAD_XREC_ROUNDTRIP
360
499
  0
DICTIONARY
  5
49A
330
337
100
AcDbDictionary
280
     1
281
     1
  3
ACAD_XREC_ROUNDTRIP
360
49B
  0
DICTIONARY
  5
49C
330
338
100
AcDbDictionary
280
     1
281
     1
  3
ACAD_XREC_ROUNDTRIP
360
49D
  0
DICTIONARY
  5
49E
330
339
100
AcDbDictionary
280
     1
281
     1
  3
ACAD_XREC_ROUNDTRIP
360
49F
  0
DICTIONARY
  5
4A6
330
33D
100
AcDbDictionary
280
     1
281
     1
  3
ACAD_XREC_ROUNDTRIP
360
4A7
  0
DICTIONARY
  5
4C2
330
34B
100
AcDbDictionary
280
     1
281
     1
  3
ACAD_XREC_ROUNDTRIP
360
4C3
  0
DICTIONARY
  5
4B2
330
343
100
AcDbDictionary
280
     1
281
     1
  3
ACAD_XREC_ROUNDTRIP
360
4B3
  0
DICTIONARY
  5
4C4
330
34C
100
AcDbDictionary
280
     1
281
     1
  3
ACAD_XREC_ROUNDTRIP
360
4C5
  0
DICTIONARY
  5
4AA
330
33F
100
AcDbDictionary
280
     1
281
     1
  3
ACAD_XREC_ROUNDTRIP
360
4AB
  0
DICTIONARY
  5
4C0
330
34A
100
AcDbDictionary
280
     1
281
     1
  3
ACAD_XREC_ROUNDTRIP
360
4C1
  0
DICTIONARY
  5
4BE
330
349
100
AcDbDictionary
280
     1
281
     1
  3
ACAD_XREC_ROUNDTRIP
360
4BF
  0
DICTIONARY
  5
4B8
330
346
100
AcDbDictionary
280
     1
281
     1
  3
ACAD_XREC_ROUNDTRIP
360
4B9
  0
DICTIONARY
  5
4BA
330
347
100
AcDbDictionary
280
     1
281
     1
  3
ACAD_XREC_ROUNDTRIP
360
4BB
  0
DICTIONARY
  5
4B0
330
342
100
AcDbDictionary
280
     1
281
     1
  3
ACAD_XREC_ROUNDTRIP
360
4B1
  0
DICTIONARY
  5
4A4
330
33C
100
AcDbDictionary
280
     1
281
     1
  3
ACAD_XREC_ROUNDTRIP
360
4A5
  0
DICTIONARY
  5
4BC
330
348
100
AcDbDictionary
280
     1
281
     1
  3
ACAD_XREC_ROUNDTRIP
360
4BD
  0
XRECORD
  5
4CC
102
{ACAD_REACTORS
330
483
102
}
330
483
100
AcDbXrecord
280
     1
102
DISPLAYNAME
  1
Imperial24
102
FLAGS
 90
        0
  0
XRECORD
  5
4D2
102
{ACAD_REACTORS
330
487
102
}
330
487
100
AcDbXrecord
280
     1
102
DISPLAYNAME
  1
Metric50
102
FLAGS
 90
        0
  0
XRECORD
  5
4DC
102
{ACAD_REACTORS
330
4DB
102
}
330
4DB
100
AcDbXrecord
280
     1
102
MATERIAL
148
0.0
149
0.0
149
0.0
 93
        0
 94
      127
282
     0
 72
     0
 77
     0
171
     0
175
     0
179
     0
273
     0
  0
XRECORD
  5
4DE
102
{ACAD_REACTORS
330
4DD
102
}
330
4DD
100
AcDbXrecord
280
     1
102
MATERIAL
148
0.0
149
0.0
149
0.0
 93
        0
 94
      127
282
     0
 72
     0
 77
     0
171
     0
175
     0
179
     0
273
     0
  0
XRECORD
  5
4E0
102
{ACAD_REACTORS
330
4DF
102
}
330
4DF
100
AcDbXrecord
280
     1
102
MATERIAL
148
0.0
149
0.0
149
0.0
 93
        0
 94
      127
282
     0
 72
     0
 77
     0
171
     0
175
     0
179
     0
273
     0
  0
XRECORD
  5
4CA
102
{ACAD_REACTORS
330
4C9
102
}
330
4C9
100
AcDbXrecord
280
     1
102
ACAD_ROUNDTRIP_2012_MLEADER_STYLE
298
     1
  0
XRECORD
  5
4CB
102
{ACAD_REACTORS
330
481
102
}
330
481
100
AcDbXrecord
280
     1
102
DISPLAYNAME
  1
Imperial24
102
FLAGS
 90
        0
  0
XRECORD
  5
4D1
102
{ACAD_REACTORS
330
485
102
}
330
485
100
AcDbXrecord
280
     1
102
DISPLAYNAME
  1
Metric50
102
FLAGS
 90
        0
  0
XRECORD
  5
4A3
102
{ACAD_REACTORS
330
4A2
102
}
330
4A2
100
AcDbXrecord
280
     1
102
RTVSPost2010Prop28
280
     1
102
RTVSPost2010PropOp28
 70
     1
102
RTVSPost2010Prop29
280
     1
102
RTVSPost2010PropOp29
 70
     1
102
RTVSPost2010Prop30
280
     0
102
RTVSPost2010PropOp30
 70
     1
102
RTVSPost2010Prop31
280
     0
102
RTVSPost2010PropOp31
 70
     1
102
RTVSPost2010Prop32
280
     0
102
RTVSPost2010PropOp32
 70
     1
102
RTVSPost2010Prop33
280
     0
102
RTVSPost2010PropOp33
 70
     1
102
RTVSPost2010Prop34
280
     0
102
RTVSPost2010PropOp34
 70
     1
102
RTVSPost2010Prop35
280
     0
102
RTVSPost2010PropOp35
 70
     1
102
RTVSPost2010Prop36
280
     0
102
RTVSPost2010PropOp36
 70
     1
102
RTVSPost2010Prop37
 90
       50
102
RTVSPost2010PropOp37
 70
     1
102
RTVSPost2010Prop38
140
0.0
102
RTVSPost2010PropOp38
 70
     1
102
RTVSPost2010Prop39
140
1.0
102
RTVSPost2010PropOp39
 70
     1
102
RTVSPost2010Prop40
 90
        0
102
RTVSPost2010PropOp40
 70
     1
102
RTVSPost2010Prop41ColorIndex
 90
       18
102
RTVSPost2010Prop41ColorRGB
 90
        0
102
RTVSPost2010PropOp41
 70
     1
102
RTVSPost2010Prop42
 90
       50
102
RTVSPost2010PropOp42
 70
     1
102
RTVSPost2010Prop43
 90
        3
102
RTVSPost2010PropOp43
 70
     1
102
RTVSPost2010Prop44ColorIndex
 90
        5
102
RTVSPost2010Prop44ColorRGB
 90
      255
102
RTVSPost2010PropOp44
 70
     1
102
RTVSPost2010Prop45
280
     0
102
RTVSPost2010PropOp45
 70
     1
102
RTVSPost2010Prop46
 90
       50
102
RTVSPost2010PropOp46
 70
     1
102
RTVSPost2010Prop47
 90
       50
102
RTVSPost2010PropOp47
 70
     1
102
RTVSPost2010Prop48
 90
       50
102
RTVSPost2010PropOp48
 70
     1
102
RTVSPost2010Prop49
280
     0
102
RTVSPost2010PropOp49
 70
     1
102
RTVSPost2010Prop50
 90
       50
102
RTVSPost2010PropOp50
 70
     1
102
RTVSPost2010Prop51ColorIndex
 90
      256
102
RTVSPost2010Prop51ColorRGB
 90
-16777216
102
RTVSPost2010PropOp51
 70
     0
102
RTVSPost2010Prop52
140
1.0
102
RTVSPost2010PropOp52
 70
     0
102
RTVSPost2010Prop53
 90
        2
102
RTVSPost2010PropOp53
 70
     1
102
RTVSPost2010Prop54
  1
strokes_ogs.tif
102
RTVSPost2010PropOp54
 70
     1
102
RTVSPost2010Prop55
280
     0
102
RTVSPost2010PropOp55
 70
     1
102
RTVSPost2010Prop56
140
1.0
102
RTVSPost2010PropOp56
 70
     1
102
RTVSPost2010Prop57
140
1.0
102
RTVSPost2010PropOp57
 70
     1
102
RTVSPropertyOp0
 70
     1
102
RTVSPropertyOp1
 70
     1
102
RTVSPropertyOp2
 70
     1
102
RTVSPropertyOp3
 70
     1
102
RTVSPropertyOp4
 70
     1
102
RTVSPropertyOp5
 70
     1
102
RTVSPropertyOp6
 70
     1
102
RTVSPropertyOp7
 70
     1
102
RTVSPropertyOp8
 70
     1
102
RTVSPropertyOp9
 70
     1
102
RTVSPropertyOp10
 70
     1
102
RTVSPropertyOp11
 70
     1
102
RTVSPropertyOp12
 70
     1
102
RTVSPropertyOp13
 70
     1
102
RTVSPropertyOp14
 70
     1
102
RTVSPropertyOp15
 70
     1
102
RTVSPropertyOp16
 70
     1
102
RTVSPropertyOp17
 70
     1
102
RTVSPropertyOp18
 70
     1
102
RTVSPropertyOp19
 70
     1
102
RTVSPropertyOp20
 70
     1
102
RTVSPropertyOp21
 70
     1
102
RTVSPropertyOp22
 70
     1
102
RTVSPropertyOp23
 70
     1
102
RTVSPropertyOp24
 70
     1
102
RTVSPropertyOp25
 70
     1
102
RTVSPropertyOp26
 70
     1
102
RTVSPropertyOp27
 70
     1
102
RTVSPropertyOp28
 70
     1
102
RTVSPropertyOp29
 70
     1
102
RTVSPropertyOp30
 70
     1
102
RTVSPropertyOp31
 70
     1
102
RTVSPropertyOp32
 70
     1
102
RTVSPropertyOp33
 70
     1
102
RTVSPropertyOp34
 70
     1
102
RTVSPropertyOp35
 70
     1
102
RTVSPropertyOp36
 70
     1
102
RTVSPropertyOp37
 70
     1
102
RTVSPropertyOp38
 70
     1
102
RTVSPropertyOp39
 70
     1
102
RTVSPropertyOp40
 70
     1
102
RTVSPropertyOp41
 70
     1
102
RTVSPropertyOp42
 70
     1
102
RTVSPropertyOp43
 70
     1
102
RTVSPropertyOp44
 70
     1
102
RTVSPropertyOp45
 70
     1
102
RTVSPropertyOp46
 70
     1
102
RTVSPropertyOp47
 70
     1
102
RTVSPropertyOp48
 70
     1
102
RTVSPropertyOp49
 70
     1
102
RTVSPropertyOp50
 70
     1
102
RTVSPropertyOp51
 70
     0
102
RTVSPropertyOp52
 70
     0
102
RTVSPropertyOp53
 70
     1
102
RTVSPropertyOp54
 70
     1
102
RTVSPropertyOp55
 70
     1
102
RTVSPropertyOp56
 70
     1
102
RTVSPropertyOp57
 70
     1
102
RTVSPropertyOp58
 70
     1
102
RTVSPropertyOp59
 70
     1
102
RTVSPropertyOp60
 70
     1
102
RTVSPropertyOp61
 70
     1
102
RTVSPropertyOp62
 70
     1
  0
XRECORD
  5
4A1
102
{ACAD_REACTORS
330
4A0
102
}
330
4A0
100
AcDbXrecord
280
     1
102
RTVSPost2010Prop28
280
     0
102
RTVSPost2010PropOp28
 70
     1
102
RTVSPost2010Prop29
280
     1
102
RTVSPost2010PropOp29
 70
     1
102
RTVSPost2010Prop30
280
     1
102
RTVSPost2010PropOp30
 70
     1
102
RTVSPost2010Prop31
280
     0
102
RTVSPost2010PropOp31
 70
     1
102
RTVSPost2010Prop32
280
     0
102
RTVSPost2010PropOp32
 70
     1
102
RTVSPost2010Prop33
280
     0
102
RTVSPost2010PropOp33
 70
     1
102
RTVSPost2010Prop34
280
     0
102
RTVSPost2010PropOp34
 70
     1
102
RTVSPost2010Prop35
280
     0
102
RTVSPost2010PropOp35
 70
     1
102
RTVSPost2010Prop36
280
     0
102
RTVSPost2010PropOp36
 70
     1
102
RTVSPost2010Prop37
 90
       50
102
RTVSPost2010PropOp37
 70
     1
102
RTVSPost2010Prop38
140
0.0
102
RTVSPost2010PropOp38
 70
     1
102
RTVSPost2010Prop39
140
1.0
102
RTVSPost2010PropOp39
 70
     1
102
RTVSPost2010Prop40
 90
        0
102
RTVSPost2010PropOp40
 70
     1
102
RTVSPost2010Prop41ColorIndex
 90
       18
102
RTVSPost2010Prop41ColorRGB
 90
        0
102
RTVSPost2010PropOp41
 70
     1
102
RTVSPost2010Prop42
 90
       50
102
RTVSPost2010PropOp42
 70
     1
102
RTVSPost2010Prop43
 90
        3
102
RTVSPost2010PropOp43
 70
     1
102
RTVSPost2010Prop44ColorIndex
 90
        5
102
RTVSPost2010Prop44ColorRGB
 90
      255
102
RTVSPost2010PropOp44
 70
     1
102
RTVSPost2010Prop45
280
     0
102
RTVSPost2010PropOp45
 70
     1
102
RTVSPost2010Prop46
 90
       50
102
RTVSPost2010PropOp46
 70
     1
102
RTVSPost2010Prop47
 90
       50
102
RTVSPost2010PropOp47
 70
     1
102
RTVSPost2010Prop48
 90
       50
102
RTVSPost2010PropOp48
 70
     1
102
RTVSPost2010Prop49
280
     0
102
RTVSPost2010PropOp49
 70
     1
102
RTVSPost2010Prop50
 90
       50
102
RTVSPost2010PropOp50
 70
     1
102
RTVSPost2010Prop51ColorIndex
 90
      256
102
RTVSPost2010Prop51ColorRGB
 90
-16777216
102
RTVSPost2010PropOp51
 70
     0
102
RTVSPost2010Prop52
140
1.0
102
RTVSPost2010PropOp52
 70
     0
102
RTVSPost2010Prop53
 90
        2
102
RTVSPost2010PropOp53
 70
     1
102
RTVSPost2010Prop54
  1
strokes_ogs.tif
102
RTVSPost2010PropOp54
 70
     1
102
RTVSPost2010Prop55
280
     0
102
RTVSPost2010PropOp55
 70
     1
102
RTVSPost2010Prop56
140
1.0
102
RTVSPost2010PropOp56
 70
     1
102
RTVSPost2010Prop57
140
1.0
102
RTVSPost2010PropOp57
 70
     1
102
RTVSPropertyOp0
 70
     1
102
RTVSPropertyOp1
 70
     1
102
RTVSPropertyOp2
 70
     1
102
RTVSPropertyOp3
 70
     1
102
RTVSPropertyOp4
 70
     1
102
RTVSPropertyOp5
 70
     1
102
RTVSPropertyOp6
 70
     1
102
RTVSPropertyOp7
 70
     1
102
RTVSPropertyOp8
 70
     1
102
RTVSPropertyOp9
 70
     1
102
RTVSPropertyOp10
 70
     1
102
RTVSPropertyOp11
 70
     1
102
RTVSPropertyOp12
 70
     1
102
RTVSPropertyOp13
 70
     1
102
RTVSPropertyOp14
 70
     1
102
RTVSPropertyOp15
 70
     1
102
RTVSPropertyOp16
 70
     1
102
RTVSPropertyOp17
 70
     1
102
RTVSPropertyOp18
 70
     1
102
RTVSPropertyOp19
 70
     1
102
RTVSPropertyOp20
 70
     1
102
RTVSPropertyOp21
 70
     1
102
RTVSPropertyOp22
 70
     1
102
RTVSPropertyOp23
 70
     1
102
RTVSPropertyOp24
 70
     1
102
RTVSPropertyOp25
 70
     1
102
RTVSPropertyOp26
 70
     1
102
RTVSPropertyOp27
 70
     1
102
RTVSPropertyOp28
 70
     1
102
RTVSPropertyOp29
 70
     1
102
RTVSPropertyOp30
 70
     1
102
RTVSPropertyOp31
 70
     1
102
RTVSPropertyOp32
 70
     1
102
RTVSPropertyOp33
 70
     1
102
RTVSPropertyOp34
 70
     1
102
RTVSPropertyOp35
 70
     1
102
RTVSPropertyOp36
 70
     1
102
RTVSPropertyOp37
 70
     1
102
RTVSPropertyOp38
 70
     1
102
RTVSPropertyOp39
 70
     1
102
RTVSPropertyOp40
 70
     1
102
RTVSPropertyOp41
 70
     1
102
RTVSPropertyOp42
 70
     1
102
RTVSPropertyOp43
 70
     1
102
RTVSPropertyOp44
 70
     1
102
RTVSPropertyOp45
 70
     1
102
RTVSPropertyOp46
 70
     1
102
RTVSPropertyOp47
 70
     1
102
RTVSPropertyOp48
 70
     1
102
RTVSPropertyOp49
 70
     1
102
RTVSPropertyOp50
 70
     1
102
RTVSPropertyOp51
 70
     0
102
RTVSPropertyOp52
 70
     0
102
RTVSPropertyOp53
 70
     1
102
RTVSPropertyOp54
 70
     1
102
RTVSPropertyOp55
 70
     1
102
RTVSPropertyOp56
 70
     1
102
RTVSPropertyOp57
 70
     1
102
RTVSPropertyOp58
 70
     1
102
RTVSPropertyOp59
 70
     1
102
RTVSPropertyOp60
 70
     1
102
RTVSPropertyOp61
 70
     1
102
RTVSPropertyOp62
 70
     1
  0
XRECORD
  5
4AF
102
{ACAD_REACTORS
330
4AE
102
}
330
4AE
100
AcDbXrecord
280
     1
102
RTVSPost2010Prop28
280
     0
102
RTVSPost2010PropOp28
 70
     1
102
RTVSPost2010Prop29
280
     1
102
RTVSPost2010PropOp29
 70
     1
102
RTVSPost2010Prop30
280
     1
102
RTVSPost2010PropOp30
 70
     1
102
RTVSPost2010Prop31
280
     0
102
RTVSPost2010PropOp31
 70
     1
102
RTVSPost2010Prop32
280
     0
102
RTVSPost2010PropOp32
 70
     1
102
RTVSPost2010Prop33
280
     0
102
RTVSPost2010PropOp33
 70
     1
102
RTVSPost2010Prop34
280
     0
102
RTVSPost2010PropOp34
 70
     1
102
RTVSPost2010Prop35
280
     0
102
RTVSPost2010PropOp35
 70
     1
102
RTVSPost2010Prop36
280
     0
102
RTVSPost2010PropOp36
 70
     1
102
RTVSPost2010Prop37
 90
       50
102
RTVSPost2010PropOp37
 70
     1
102
RTVSPost2010Prop38
140
0.0
102
RTVSPost2010PropOp38
 70
     1
102
RTVSPost2010Prop39
140
1.0
102
RTVSPost2010PropOp39
 70
     1
102
RTVSPost2010Prop40
 90
        0
102
RTVSPost2010PropOp40
 70
     1
102
RTVSPost2010Prop41ColorIndex
 90
       18
102
RTVSPost2010Prop41ColorRGB
 90
        0
102
RTVSPost2010PropOp41
 70
     1
102
RTVSPost2010Prop42
 90
       50
102
RTVSPost2010PropOp42
 70
     1
102
RTVSPost2010Prop43
 90
        3
102
RTVSPost2010PropOp43
 70
     1
102
RTVSPost2010Prop44ColorIndex
 90
        5
102
RTVSPost2010Prop44ColorRGB
 90
      255
102
RTVSPost2010PropOp44
 70
     1
102
RTVSPost2010Prop45
280
     0
102
RTVSPost2010PropOp45
 70
     1
102
RTVSPost2010Prop46
 90
       50
102
RTVSPost2010PropOp46
 70
     1
102
RTVSPost2010Prop47
 90
       50
102
RTVSPost2010PropOp47
 70
     1
102
RTVSPost2010Prop48
 90
       50
102
RTVSPost2010PropOp48
 70
     1
102
RTVSPost2010Prop49
280
     0
102
RTVSPost2010PropOp49
 70
     1
102
RTVSPost2010Prop50
 90
       50
102
RTVSPost2010PropOp50
 70
     1
102
RTVSPost2010Prop51ColorIndex
 90
      256
102
RTVSPost2010Prop51ColorRGB
 90
-16777216
102
RTVSPost2010PropOp51
 70
     0
102
RTVSPost2010Prop52
140
1.0
102
RTVSPost2010PropOp52
 70
     0
102
RTVSPost2010Prop53
 90
        2
102
RTVSPost2010PropOp53
 70
     1
102
RTVSPost2010Prop54
  1
strokes_ogs.tif
102
RTVSPost2010PropOp54
 70
     1
102
RTVSPost2010Prop55
280
     0
102
RTVSPost2010PropOp55
 70
     1
102
RTVSPost2010Prop56
140
1.0
102
RTVSPost2010PropOp56
 70
     1
102
RTVSPost2010Prop57
140
1.0
102
RTVSPost2010PropOp57
 70
     1
102
RTVSPropertyOp0
 70
     1
102
RTVSPropertyOp1
 70
     1
102
RTVSPropertyOp2
 70
     1
102
RTVSPropertyOp3
 70
     1
102
RTVSPropertyOp4
 70
     1
102
RTVSPropertyOp5
 70
     1
102
RTVSPropertyOp6
 70
     1
102
RTVSPropertyOp7
 70
     1
102
RTVSPropertyOp8
 70
     1
102
RTVSPropertyOp9
 70
     1
102
RTVSPropertyOp10
 70
     1
102
RTVSPropertyOp11
 70
     1
102
RTVSPropertyOp12
 70
     1
102
RTVSPropertyOp13
 70
     1
102
RTVSPropertyOp14
 70
     1
102
RTVSPropertyOp15
 70
     1
102
RTVSPropertyOp16
 70
     1
102
RTVSPropertyOp17
 70
     1
102
RTVSPropertyOp18
 70
     1
102
RTVSPropertyOp19
 70
     1
102
RTVSPropertyOp20
 70
     1
102
RTVSPropertyOp21
 70
     1
102
RTVSPropertyOp22
 70
     1
102
RTVSPropertyOp23
 70
     1
102
RTVSPropertyOp24
 70
     1
102
RTVSPropertyOp25
 70
     1
102
RTVSPropertyOp26
 70
     1
102
RTVSPropertyOp27
 70
     1
102
RTVSPropertyOp28
 70
     1
102
RTVSPropertyOp29
 70
     1
102
RTVSPropertyOp30
 70
     1
102
RTVSPropertyOp31
 70
     1
102
RTVSPropertyOp32
 70
     1
102
RTVSPropertyOp33
 70
     1
102
RTVSPropertyOp34
 70
     1
102
RTVSPropertyOp35
 70
     1
102
RTVSPropertyOp36
 70
     1
102
RTVSPropertyOp37
 70
     1
102
RTVSPropertyOp38
 70
     1
102
RTVSPropertyOp39
 70
     1
102
RTVSPropertyOp40
 70
     1
102
RTVSPropertyOp41
 70
     1
102
RTVSPropertyOp42
 70
     1
102
RTVSPropertyOp43
 70
     1
102
RTVSPropertyOp44
 70
     1
102
RTVSPropertyOp45
 70
     1
102
RTVSPropertyOp46
 70
     1
102
RTVSPropertyOp47
 70
     1
102
RTVSPropertyOp48
 70
     1
102
RTVSPropertyOp49
 70
     1
102
RTVSPropertyOp50
 70
     1
102
RTVSPropertyOp51
 70
     0
102
RTVSPropertyOp52
 70
     0
102
RTVSPropertyOp53
 70
     1
102
RTVSPropertyOp54
 70
     1
102
RTVSPropertyOp55
 70
     1
102
RTVSPropertyOp56
 70
     1
102
RTVSPropertyOp57
 70
     1
102
RTVSPropertyOp58
 70
     1
102
RTVSPropertyOp59
 70
     1
102
RTVSPropertyOp60
 70
     1
102
RTVSPropertyOp61
 70
     1
102
RTVSPropertyOp62
 70
     1
  0
XRECORD
  5
4B7
102
{ACAD_REACTORS
330
4B6
102
}
330
4B6
100
AcDbXrecord
280
     1
102
RTVSPost2010Prop28
280
     0
102
RTVSPost2010PropOp28
 70
     1
102
RTVSPost2010Prop29
280
     1
102
RTVSPost2010PropOp29
 70
     1
102
RTVSPost2010Prop30
280
     1
102
RTVSPost2010PropOp30
 70
     1
102
RTVSPost2010Prop31
280
     0
102
RTVSPost2010PropOp31
 70
     1
102
RTVSPost2010Prop32
280
     0
102
RTVSPost2010PropOp32
 70
     1
102
RTVSPost2010Prop33
280
     0
102
RTVSPost2010PropOp33
 70
     1
102
RTVSPost2010Prop34
280
     0
102
RTVSPost2010PropOp34
 70
     1
102
RTVSPost2010Prop35
280
     0
102
RTVSPost2010PropOp35
 70
     1
102
RTVSPost2010Prop36
280
     0
102
RTVSPost2010PropOp36
 70
     1
102
RTVSPost2010Prop37
 90
       50
102
RTVSPost2010PropOp37
 70
     1
102
RTVSPost2010Prop38
140
0.0
102
RTVSPost2010PropOp38
 70
     1
102
RTVSPost2010Prop39
140
1.0
102
RTVSPost2010PropOp39
 70
     1
102
RTVSPost2010Prop40
 90
        0
102
RTVSPost2010PropOp40
 70
     1
102
RTVSPost2010Prop41ColorIndex
 90
       18
102
RTVSPost2010Prop41ColorRGB
 90
        0
102
RTVSPost2010PropOp41
 70
     1
102
RTVSPost2010Prop42
 90
       50
102
RTVSPost2010PropOp42
 70
     1
102
RTVSPost2010Prop43
 90
        3
102
RTVSPost2010PropOp43
 70
     1
102
RTVSPost2010Prop44ColorIndex
 90
        5
102
RTVSPost2010Prop44ColorRGB
 90
      255
102
RTVSPost2010PropOp44
 70
     1
102
RTVSPost2010Prop45
280
     0
102
RTVSPost2010PropOp45
 70
     1
102
RTVSPost2010Prop46
 90
       50
102
RTVSPost2010PropOp46
 70
     1
102
RTVSPost2010Prop47
 90
       50
102
RTVSPost2010PropOp47
 70
     1
102
RTVSPost2010Prop48
 90
       50
102
RTVSPost2010PropOp48
 70
     1
102
RTVSPost2010Prop49
280
     0
102
RTVSPost2010PropOp49
 70
     1
102
RTVSPost2010Prop50
 90
       50
102
RTVSPost2010PropOp50
 70
     1
102
RTVSPost2010Prop51ColorIndex
 90
      256
102
RTVSPost2010Prop51ColorRGB
 90
-16777216
102
RTVSPost2010PropOp51
 70
     0
102
RTVSPost2010Prop52
140
1.0
102
RTVSPost2010PropOp52
 70
     0
102
RTVSPost2010Prop53
 90
        2
102
RTVSPost2010PropOp53
 70
     1
102
RTVSPost2010Prop54
  1
strokes_ogs.tif
102
RTVSPost2010PropOp54
 70
     1
102
RTVSPost2010Prop55
280
     0
102
RTVSPost2010PropOp55
 70
     1
102
RTVSPost2010Prop56
140
1.0
102
RTVSPost2010PropOp56
 70
     1
102
RTVSPost2010Prop57
140
1.0
102
RTVSPost2010PropOp57
 70
     1
102
RTVSPropertyOp0
 70
     1
102
RTVSPropertyOp1
 70
     1
102
RTVSPropertyOp2
 70
     1
102
RTVSPropertyOp3
 70
     1
102
RTVSPropertyOp4
 70
     1
102
RTVSPropertyOp5
 70
     1
102
RTVSPropertyOp6
 70
     1
102
RTVSPropertyOp7
 70
     1
102
RTVSPropertyOp8
 70
     1
102
RTVSPropertyOp9
 70
     1
102
RTVSPropertyOp10
 70
     1
102
RTVSPropertyOp11
 70
     1
102
RTVSPropertyOp12
 70
     1
102
RTVSPropertyOp13
 70
     1
102
RTVSPropertyOp14
 70
     1
102
RTVSPropertyOp15
 70
     1
102
RTVSPropertyOp16
 70
     1
102
RTVSPropertyOp17
 70
     1
102
RTVSPropertyOp18
 70
     1
102
RTVSPropertyOp19
 70
     1
102
RTVSPropertyOp20
 70
     1
102
RTVSPropertyOp21
 70
     1
102
RTVSPropertyOp22
 70
     1
102
RTVSPropertyOp23
 70
     1
102
RTVSPropertyOp24
 70
     1
102
RTVSPropertyOp25
 70
     1
102
RTVSPropertyOp26
 70
     1
102
RTVSPropertyOp27
 70
     1
102
RTVSPropertyOp28
 70
     1
102
RTVSPropertyOp29
 70
     1
102
RTVSPropertyOp30
 70
     1
102
RTVSPropertyOp31
 70
     1
102
RTVSPropertyOp32
 70
     1
102
RTVSPropertyOp33
 70
     1
102
RTVSPropertyOp34
 70
     1
102
RTVSPropertyOp35
 70
     1
102
RTVSPropertyOp36
 70
     1
102
RTVSPropertyOp37
 70
     1
102
RTVSPropertyOp38
 70
     1
102
RTVSPropertyOp39
 70
     1
102
RTVSPropertyOp40
 70
     1
102
RTVSPropertyOp41
 70
     1
102
RTVSPropertyOp42
 70
     1
102
RTVSPropertyOp43
 70
     1
102
RTVSPropertyOp44
 70
     1
102
RTVSPropertyOp45
 70
     1
102
RTVSPropertyOp46
 70
     1
102
RTVSPropertyOp47
 70
     1
102
RTVSPropertyOp48
 70
     1
102
RTVSPropertyOp49
 70
     1
102
RTVSPropertyOp50
 70
     1
102
RTVSPropertyOp51
 70
     0
102
RTVSPropertyOp52
 70
     0
102
RTVSPropertyOp53
 70
     1
102
RTVSPropertyOp54
 70
     1
102
RTVSPropertyOp55
 70
     1
102
RTVSPropertyOp56
 70
     1
102
RTVSPropertyOp57
 70
     1
102
RTVSPropertyOp58
 70
     1
102
RTVSPropertyOp59
 70
     1
102
RTVSPropertyOp60
 70
     1
102
RTVSPropertyOp61
 70
     1
102
RTVSPropertyOp62
 70
     1
  0
XRECORD
  5
4A9
102
{ACAD_REACTORS
330
4A8
102
}
330
4A8
100
AcDbXrecord
280
     1
102
RTVSPost2010Prop28
280
     0
102
RTVSPost2010PropOp28
 70
     1
102
RTVSPost2010Prop29
280
     1
102
RTVSPost2010PropOp29
 70
     1
102
RTVSPost2010Prop30
280
     1
102
RTVSPost2010PropOp30
 70
     1
102
RTVSPost2010Prop31
280
     0
102
RTVSPost2010PropOp31
 70
     1
102
RTVSPost2010Prop32
280
     0
102
RTVSPost2010PropOp32
 70
     1
102
RTVSPost2010Prop33
280
     0
102
RTVSPost2010PropOp33
 70
     1
102
RTVSPost2010Prop34
280
     0
102
RTVSPost2010PropOp34
 70
     1
102
RTVSPost2010Prop35
280
     0
102
RTVSPost2010PropOp35
 70
     1
102
RTVSPost2010Prop36
280
     0
102
RTVSPost2010PropOp36
 70
     1
102
RTVSPost2010Prop37
 90
       50
102
RTVSPost2010PropOp37
 70
     1
102
RTVSPost2010Prop38
140
0.0
102
RTVSPost2010PropOp38
 70
     1
102
RTVSPost2010Prop39
140
1.0
102
RTVSPost2010PropOp39
 70
     1
102
RTVSPost2010Prop40
 90
        0
102
RTVSPost2010PropOp40
 70
     1
102
RTVSPost2010Prop41ColorIndex
 90
       18
102
RTVSPost2010Prop41ColorRGB
 90
        0
102
RTVSPost2010PropOp41
 70
     1
102
RTVSPost2010Prop42
 90
       50
102
RTVSPost2010PropOp42
 70
     1
102
RTVSPost2010Prop43
 90
        3
102
RTVSPost2010PropOp43
 70
     1
102
RTVSPost2010Prop44ColorIndex
 90
        5
102
RTVSPost2010Prop44ColorRGB
 90
      255
102
RTVSPost2010PropOp44
 70
     1
102
RTVSPost2010Prop45
280
     0
102
RTVSPost2010PropOp45
 70
     1
102
RTVSPost2010Prop46
 90
       50
102
RTVSPost2010PropOp46
 70
     1
102
RTVSPost2010Prop47
 90
       50
102
RTVSPost2010PropOp47
 70
     1
102
RTVSPost2010Prop48
 90
       50
102
RTVSPost2010PropOp48
 70
     1
102
RTVSPost2010Prop49
280
     0
102
RTVSPost2010PropOp49
 70
     1
102
RTVSPost2010Prop50
 90
       50
102
RTVSPost2010PropOp50
 70
     1
102
RTVSPost2010Prop51ColorIndex
 90
      256
102
RTVSPost2010Prop51ColorRGB
 90
-16777216
102
RTVSPost2010PropOp51
 70
     0
102
RTVSPost2010Prop52
140
1.0
102
RTVSPost2010PropOp52
 70
     0
102
RTVSPost2010Prop53
 90
        2
102
RTVSPost2010PropOp53
 70
     1
102
RTVSPost2010Prop54
  1
strokes_ogs.tif
102
RTVSPost2010PropOp54
 70
     1
102
RTVSPost2010Prop55
280
     0
102
RTVSPost2010PropOp55
 70
     1
102
RTVSPost2010Prop56
140
1.0
102
RTVSPost2010PropOp56
 70
     1
102
RTVSPost2010Prop57
140
1.0
102
RTVSPost2010PropOp57
 70
     1
102
RTVSPropertyOp0
 70
     1
102
RTVSPropertyOp1
 70
     1
102
RTVSPropertyOp2
 70
     1
102
RTVSPropertyOp3
 70
     1
102
RTVSPropertyOp4
 70
     1
102
RTVSPropertyOp5
 70
     1
102
RTVSPropertyOp6
 70
     1
102
RTVSPropertyOp7
 70
     1
102
RTVSPropertyOp8
 70
     1
102
RTVSPropertyOp9
 70
     1
102
RTVSPropertyOp10
 70
     1
102
RTVSPropertyOp11
 70
     1
102
RTVSPropertyOp12
 70
     1
102
RTVSPropertyOp13
 70
     1
102
RTVSPropertyOp14
 70
     1
102
RTVSPropertyOp15
 70
     1
102
RTVSPropertyOp16
 70
     1
102
RTVSPropertyOp17
 70
     1
102
RTVSPropertyOp18
 70
     1
102
RTVSPropertyOp19
 70
     1
102
RTVSPropertyOp20
 70
     1
102
RTVSPropertyOp21
 70
     1
102
RTVSPropertyOp22
 70
     1
102
RTVSPropertyOp23
 70
     1
102
RTVSPropertyOp24
 70
     1
102
RTVSPropertyOp25
 70
     1
102
RTVSPropertyOp26
 70
     1
102
RTVSPropertyOp27
 70
     1
102
RTVSPropertyOp28
 70
     1
102
RTVSPropertyOp29
 70
     1
102
RTVSPropertyOp30
 70
     1
102
RTVSPropertyOp31
 70
     1
102
RTVSPropertyOp32
 70
     1
102
RTVSPropertyOp33
 70
     1
102
RTVSPropertyOp34
 70
     1
102
RTVSPropertyOp35
 70
     1
102
RTVSPropertyOp36
 70
     1
102
RTVSPropertyOp37
 70
     1
102
RTVSPropertyOp38
 70
     1
102
RTVSPropertyOp39
 70
     1
102
RTVSPropertyOp40
 70
     1
102
RTVSPropertyOp41
 70
     1
102
RTVSPropertyOp42
 70
     1
102
RTVSPropertyOp43
 70
     1
102
RTVSPropertyOp44
 70
     1
102
RTVSPropertyOp45
 70
     1
102
RTVSPropertyOp46
 70
     1
102
RTVSPropertyOp47
 70
     1
102
RTVSPropertyOp48
 70
     1
102
RTVSPropertyOp49
 70
     1
102
RTVSPropertyOp50
 70
     1
102
RTVSPropertyOp51
 70
     0
102
RTVSPropertyOp52
 70
     0
102
RTVSPropertyOp53
 70
     1
102
RTVSPropertyOp54
 70
     1
102
RTVSPropertyOp55
 70
     1
102
RTVSPropertyOp56
 70
     1
102
RTVSPropertyOp57
 70
     1
102
RTVSPropertyOp58
 70
     1
102
RTVSPropertyOp59
 70
     1
102
RTVSPropertyOp60
 70
     1
102
RTVSPropertyOp61
 70
     1
102
RTVSPropertyOp62
 70
     1
  0
XRECORD
  5
4AD
102
{ACAD_REACTORS
330
4AC
102
}
330
4AC
100
AcDbXrecord
280
     1
102
RTVSPost2010Prop28
280
     0
102
RTVSPost2010PropOp28
 70
     1
102
RTVSPost2010Prop29
280
     1
102
RTVSPost2010PropOp29
 70
     1
102
RTVSPost2010Prop30
280
     1
102
RTVSPost2010PropOp30
 70
     1
102
RTVSPost2010Prop31
280
     0
102
RTVSPost2010PropOp31
 70
     1
102
RTVSPost2010Prop32
280
     0
102
RTVSPost2010PropOp32
 70
     1
102
RTVSPost2010Prop33
280
     0
102
RTVSPost2010PropOp33
 70
     1
102
RTVSPost2010Prop34
280
     0
102
RTVSPost2010PropOp34
 70
     1
102
RTVSPost2010Prop35
280
     0
102
RTVSPost2010PropOp35
 70
     1
102
RTVSPost2010Prop36
280
     0
102
RTVSPost2010PropOp36
 70
     1
102
RTVSPost2010Prop37
 90
       50
102
RTVSPost2010PropOp37
 70
     1
102
RTVSPost2010Prop38
140
0.0
102
RTVSPost2010PropOp38
 70
     1
102
RTVSPost2010Prop39
140
1.0
102
RTVSPost2010PropOp39
 70
     1
102
RTVSPost2010Prop40
 90
        0
102
RTVSPost2010PropOp40
 70
     1
102
RTVSPost2010Prop41ColorIndex
 90
       18
102
RTVSPost2010Prop41ColorRGB
 90
        0
102
RTVSPost2010PropOp41
 70
     1
102
RTVSPost2010Prop42
 90
       50
102
RTVSPost2010PropOp42
 70
     1
102
RTVSPost2010Prop43
 90
        3
102
RTVSPost2010PropOp43
 70
     1
102
RTVSPost2010Prop44ColorIndex
 90
        5
102
RTVSPost2010Prop44ColorRGB
 90
      255
102
RTVSPost2010PropOp44
 70
     1
102
RTVSPost2010Prop45
280
     0
102
RTVSPost2010PropOp45
 70
     1
102
RTVSPost2010Prop46
 90
       50
102
RTVSPost2010PropOp46
 70
     1
102
RTVSPost2010Prop47
 90
       50
102
RTVSPost2010PropOp47
 70
     1
102
RTVSPost2010Prop48
 90
       50
102
RTVSPost2010PropOp48
 70
     1
102
RTVSPost2010Prop49
280
     0
102
RTVSPost2010PropOp49
 70
     1
102
RTVSPost2010Prop50
 90
       50
102
RTVSPost2010PropOp50
 70
     1
102
RTVSPost2010Prop51ColorIndex
 90
      256
102
RTVSPost2010Prop51ColorRGB
 90
-16777216
102
RTVSPost2010PropOp51
 70
     0
102
RTVSPost2010Prop52
140
1.0
102
RTVSPost2010PropOp52
 70
     0
102
RTVSPost2010Prop53
 90
        2
102
RTVSPost2010PropOp53
 70
     1
102
RTVSPost2010Prop54
  1
strokes_ogs.tif
102
RTVSPost2010PropOp54
 70
     1
102
RTVSPost2010Prop55
280
     0
102
RTVSPost2010PropOp55
 70
     1
102
RTVSPost2010Prop56
140
1.0
102
RTVSPost2010PropOp56
 70
     1
102
RTVSPost2010Prop57
140
1.0
102
RTVSPost2010PropOp57
 70
     1
102
RTVSPropertyOp0
 70
     1
102
RTVSPropertyOp1
 70
     1
102
RTVSPropertyOp2
 70
     1
102
RTVSPropertyOp3
 70
     1
102
RTVSPropertyOp4
 70
     1
102
RTVSPropertyOp5
 70
     1
102
RTVSPropertyOp6
 70
     1
102
RTVSPropertyOp7
 70
     1
102
RTVSPropertyOp8
 70
     1
102
RTVSPropertyOp9
 70
     1
102
RTVSPropertyOp10
 70
     1
102
RTVSPropertyOp11
 70
     1
102
RTVSPropertyOp12
 70
     1
102
RTVSPropertyOp13
 70
     1
102
RTVSPropertyOp14
 70
     1
102
RTVSPropertyOp15
 70
     1
102
RTVSPropertyOp16
 70
     1
102
RTVSPropertyOp17
 70
     1
102
RTVSPropertyOp18
 70
     1
102
RTVSPropertyOp19
 70
     1
102
RTVSPropertyOp20
 70
     1
102
RTVSPropertyOp21
 70
     1
102
RTVSPropertyOp22
 70
     1
102
RTVSPropertyOp23
 70
     1
102
RTVSPropertyOp24
 70
     1
102
RTVSPropertyOp25
 70
     1
102
RTVSPropertyOp26
 70
     1
102
RTVSPropertyOp27
 70
     1
102
RTVSPropertyOp28
 70
     1
102
RTVSPropertyOp29
 70
     1
102
RTVSPropertyOp30
 70
     1
102
RTVSPropertyOp31
 70
     1
102
RTVSPropertyOp32
 70
     1
102
RTVSPropertyOp33
 70
     1
102
RTVSPropertyOp34
 70
     1
102
RTVSPropertyOp35
 70
     1
102
RTVSPropertyOp36
 70
     1
102
RTVSPropertyOp37
 70
     1
102
RTVSPropertyOp38
 70
     1
102
RTVSPropertyOp39
 70
     1
102
RTVSPropertyOp40
 70
     1
102
RTVSPropertyOp41
 70
     1
102
RTVSPropertyOp42
 70
     1
102
RTVSPropertyOp43
 70
     1
102
RTVSPropertyOp44
 70
     1
102
RTVSPropertyOp45
 70
     1
102
RTVSPropertyOp46
 70
     1
102
RTVSPropertyOp47
 70
     1
102
RTVSPropertyOp48
 70
     1
102
RTVSPropertyOp49
 70
     1
102
RTVSPropertyOp50
 70
     1
102
RTVSPropertyOp51
 70
     0
102
RTVSPropertyOp52
 70
     0
102
RTVSPropertyOp53
 70
     1
102
RTVSPropertyOp54
 70
     1
102
RTVSPropertyOp55
 70
     1
102
RTVSPropertyOp56
 70
     1
102
RTVSPropertyOp57
 70
     1
102
RTVSPropertyOp58
 70
     1
102
RTVSPropertyOp59
 70
     1
102
RTVSPropertyOp60
 70
     1
102
RTVSPropertyOp61
 70
     1
102
RTVSPropertyOp62
 70
     1
  0
XRECORD
  5
4C7
102
{ACAD_REACTORS
330
4C6
102
}
330
4C6
100
AcDbXrecord
280
     1
102
RTVSPost2010Prop28
280
     0
102
RTVSPost2010PropOp28
 70
     0
102
RTVSPost2010Prop29
280
     1
102
RTVSPost2010PropOp29
 70
     0
102
RTVSPost2010Prop30
280
     1
102
RTVSPost2010PropOp30
 70
     0
102
RTVSPost2010Prop31
280
     0
102
RTVSPost2010PropOp31
 70
     0
102
RTVSPost2010Prop32
280
     0
102
RTVSPost2010PropOp32
 70
     0
102
RTVSPost2010Prop33
280
     0
102
RTVSPost2010PropOp33
 70
     0
102
RTVSPost2010Prop34
280
     0
102
RTVSPost2010PropOp34
 70
     0
102
RTVSPost2010Prop35
280
     0
102
RTVSPost2010PropOp35
 70
     0
102
RTVSPost2010Prop36
280
     0
102
RTVSPost2010PropOp36
 70
     0
102
RTVSPost2010Prop37
 90
       50
102
RTVSPost2010PropOp37
 70
     0
102
RTVSPost2010Prop38
140
0.0
102
RTVSPost2010PropOp38
 70
     0
102
RTVSPost2010Prop39
140
1.0
102
RTVSPost2010PropOp39
 70
     0
102
RTVSPost2010Prop40
 90
        0
102
RTVSPost2010PropOp40
 70
     0
102
RTVSPost2010Prop41ColorIndex
 90
       18
102
RTVSPost2010Prop41ColorRGB
 90
        0
102
RTVSPost2010PropOp41
 70
     0
102
RTVSPost2010Prop42
 90
       50
102
RTVSPost2010PropOp42
 70
     0
102
RTVSPost2010Prop43
 90
        3
102
RTVSPost2010PropOp43
 70
     0
102
RTVSPost2010Prop44ColorIndex
 90
        5
102
RTVSPost2010Prop44ColorRGB
 90
      255
102
RTVSPost2010PropOp44
 70
     0
102
RTVSPost2010Prop45
280
     0
102
RTVSPost2010PropOp45
 70
     0
102
RTVSPost2010Prop46
 90
       50
102
RTVSPost2010PropOp46
 70
     0
102
RTVSPost2010Prop47
 90
       50
102
RTVSPost2010PropOp47
 70
     0
102
RTVSPost2010Prop48
 90
       50
102
RTVSPost2010PropOp48
 70
     0
102
RTVSPost2010Prop49
280
     0
102
RTVSPost2010PropOp49
 70
     0
102
RTVSPost2010Prop50
 90
       50
102
RTVSPost2010PropOp50
 70
     0
102
RTVSPost2010Prop51ColorIndex
 90
      256
102
RTVSPost2010Prop51ColorRGB
 90
-16777216
102
RTVSPost2010PropOp51
 70
     0
102
RTVSPost2010Prop52
140
1.0
102
RTVSPost2010PropOp52
 70
     0
102
RTVSPost2010Prop53
 90
        2
102
RTVSPost2010PropOp53
 70
     0
102
RTVSPost2010Prop54
  1
strokes_ogs.tif
102
RTVSPost2010PropOp54
 70
     0
102
RTVSPost2010Prop55
280
     0
102
RTVSPost2010PropOp55
 70
     0
102
RTVSPost2010Prop56
140
1.0
102
RTVSPost2010PropOp56
 70
     0
102
RTVSPost2010Prop57
140
1.0
102
RTVSPost2010PropOp57
 70
     0
102
RTVSPropertyOp0
 70
     0
102
RTVSPropertyOp1
 70
     0
102
RTVSPropertyOp2
 70
     0
102
RTVSPropertyOp3
 70
     0
102
RTVSPropertyOp4
 70
     0
102
RTVSPropertyOp5
 70
     0
102
RTVSPropertyOp6
 70
     0
102
RTVSPropertyOp7
 70
     0
102
RTVSPropertyOp8
 70
     0
102
RTVSPropertyOp9
 70
     0
102
RTVSPropertyOp10
 70
     0
102
RTVSPropertyOp11
 70
     0
102
RTVSPropertyOp12
 70
     0
102
RTVSPropertyOp13
 70
     0
102
RTVSPropertyOp14
 70
     2
102
RTVSPropertyOp15
 70
     0
102
RTVSPropertyOp16
 70
     0
102
RTVSPropertyOp17
 70
     0
102
RTVSPropertyOp18
 70
     0
102
RTVSPropertyOp19
 70
     0
102
RTVSPropertyOp20
 70
     0
102
RTVSPropertyOp21
 70
     0
102
RTVSPropertyOp22
 70
     0
102
RTVSPropertyOp23
 70
     0
102
RTVSPropertyOp24
 70
     0
102
RTVSPropertyOp25
 70
     0
102
RTVSPropertyOp26
 70
     0
102
RTVSPropertyOp27
 70
     0
102
RTVSPropertyOp28
 70
     0
102
RTVSPropertyOp29
 70
     0
102
RTVSPropertyOp30
 70
     0
102
RTVSPropertyOp31
 70
     0
102
RTVSPropertyOp32
 70
     0
102
RTVSPropertyOp33
 70
     0
102
RTVSPropertyOp34
 70
     0
102
RTVSPropertyOp35
 70
     0
102
RTVSPropertyOp36
 70
     0
102
RTVSPropertyOp37
 70
     0
102
RTVSPropertyOp38
 70
     0
102
RTVSPropertyOp39
 70
     0
102
RTVSPropertyOp40
 70
     0
102
RTVSPropertyOp41
 70
     0
102
RTVSPropertyOp42
 70
     0
102
RTVSPropertyOp43
 70
     0
102
RTVSPropertyOp44
 70
     0
102
RTVSPropertyOp45
 70
     0
102
RTVSPropertyOp46
 70
     0
102
RTVSPropertyOp47
 70
     0
102
RTVSPropertyOp48
 70
     0
102
RTVSPropertyOp49
 70
     0
102
RTVSPropertyOp50
 70
     0
102
RTVSPropertyOp51
 70
     0
102
RTVSPropertyOp52
 70
     0
102
RTVSPropertyOp53
 70
     0
102
RTVSPropertyOp54
 70
     0
102
RTVSPropertyOp55
 70
     0
102
RTVSPropertyOp56
 70
     0
102
RTVSPropertyOp57
 70
     0
102
RTVSPropertyOp58
 70
     1
102
RTVSPropertyOp59
 70
     1
102
RTVSPropertyOp60
 70
     1
102
RTVSPropertyOp61
 70
     1
102
RTVSPropertyOp62
 70
     1
  0
XRECORD
  5
4B5
102
{ACAD_REACTORS
330
4B4
102
}
330
4B4
100
AcDbXrecord
280
     1
102
RTVSPost2010Prop28
280
     0
102
RTVSPost2010PropOp28
 70
     1
102
RTVSPost2010Prop29
280
     1
102
RTVSPost2010PropOp29
 70
     1
102
RTVSPost2010Prop30
280
     1
102
RTVSPost2010PropOp30
 70
     1
102
RTVSPost2010Prop31
280
     0
102
RTVSPost2010PropOp31
 70
     1
102
RTVSPost2010Prop32
280
     0
102
RTVSPost2010PropOp32
 70
     1
102
RTVSPost2010Prop33
280
     0
102
RTVSPost2010PropOp33
 70
     1
102
RTVSPost2010Prop34
280
     0
102
RTVSPost2010PropOp34
 70
     1
102
RTVSPost2010Prop35
280
     0
102
RTVSPost2010PropOp35
 70
     1
102
RTVSPost2010Prop36
280
     0
102
RTVSPost2010PropOp36
 70
     1
102
RTVSPost2010Prop37
 90
       50
102
RTVSPost2010PropOp37
 70
     1
102
RTVSPost2010Prop38
140
0.0
102
RTVSPost2010PropOp38
 70
     1
102
RTVSPost2010Prop39
140
1.0
102
RTVSPost2010PropOp39
 70
     1
102
RTVSPost2010Prop40
 90
        0
102
RTVSPost2010PropOp40
 70
     1
102
RTVSPost2010Prop41ColorIndex
 90
       18
102
RTVSPost2010Prop41ColorRGB
 90
        0
102
RTVSPost2010PropOp41
 70
     1
102
RTVSPost2010Prop42
 90
       50
102
RTVSPost2010PropOp42
 70
     1
102
RTVSPost2010Prop43
 90
        3
102
RTVSPost2010PropOp43
 70
     1
102
RTVSPost2010Prop44ColorIndex
 90
        5
102
RTVSPost2010Prop44ColorRGB
 90
      255
102
RTVSPost2010PropOp44
 70
     1
102
RTVSPost2010Prop45
280
     0
102
RTVSPost2010PropOp45
 70
     1
102
RTVSPost2010Prop46
 90
       50
102
RTVSPost2010PropOp46
 70
     1
102
RTVSPost2010Prop47
 90
       50
102
RTVSPost2010PropOp47
 70
     1
102
RTVSPost2010Prop48
 90
       50
102
RTVSPost2010PropOp48
 70
     1
102
RTVSPost2010Prop49
280
     0
102
RTVSPost2010PropOp49
 70
     1
102
RTVSPost2010Prop50
 90
       50
102
RTVSPost2010PropOp50
 70
     1
102
RTVSPost2010Prop51ColorIndex
 90
      256
102
RTVSPost2010Prop51ColorRGB
 90
-16777216
102
RTVSPost2010PropOp51
 70
     0
102
RTVSPost2010Prop52
140
1.0
102
RTVSPost2010PropOp52
 70
     0
102
RTVSPost2010Prop53
 90
        2
102
RTVSPost2010PropOp53
 70
     1
102
RTVSPost2010Prop54
  1
strokes_ogs.tif
102
RTVSPost2010PropOp54
 70
     1
102
RTVSPost2010Prop55
280
     0
102
RTVSPost2010PropOp55
 70
     1
102
RTVSPost2010Prop56
140
1.0
102
RTVSPost2010PropOp56
 70
     1
102
RTVSPost2010Prop57
140
1.0
102
RTVSPost2010PropOp57
 70
     1
102
RTVSPropertyOp0
 70
     1
102
RTVSPropertyOp1
 70
     1
102
RTVSPropertyOp2
 70
     1
102
RTVSPropertyOp3
 70
     1
102
RTVSPropertyOp4
 70
     1
102
RTVSPropertyOp5
 70
     1
102
RTVSPropertyOp6
 70
     1
102
RTVSPropertyOp7
 70
     1
102
RTVSPropertyOp8
 70
     1
102
RTVSPropertyOp9
 70
     1
102
RTVSPropertyOp10
 70
     1
102
RTVSPropertyOp11
 70
     1
102
RTVSPropertyOp12
 70
     1
102
RTVSPropertyOp13
 70
     1
102
RTVSPropertyOp14
 70
     1
102
RTVSPropertyOp15
 70
     1
102
RTVSPropertyOp16
 70
     1
102
RTVSPropertyOp17
 70
     1
102
RTVSPropertyOp18
 70
     1
102
RTVSPropertyOp19
 70
     1
102
RTVSPropertyOp20
 70
     1
102
RTVSPropertyOp21
 70
     1
102
RTVSPropertyOp22
 70
     1
102
RTVSPropertyOp23
 70
     1
102
RTVSPropertyOp24
 70
     1
102
RTVSPropertyOp25
 70
     1
102
RTVSPropertyOp26
 70
     1
102
RTVSPropertyOp27
 70
     1
102
RTVSPropertyOp28
 70
     1
102
RTVSPropertyOp29
 70
     1
102
RTVSPropertyOp30
 70
     1
102
RTVSPropertyOp31
 70
     1
102
RTVSPropertyOp32
 70
     1
102
RTVSPropertyOp33
 70
     1
102
RTVSPropertyOp34
 70
     1
102
RTVSPropertyOp35
 70
     1
102
RTVSPropertyOp36
 70
     1
102
RTVSPropertyOp37
 70
     1
102
RTVSPropertyOp38
 70
     1
102
RTVSPropertyOp39
 70
     1
102
RTVSPropertyOp40
 70
     1
102
RTVSPropertyOp41
 70
     1
102
RTVSPropertyOp42
 70
     1
102
RTVSPropertyOp43
 70
     1
102
RTVSPropertyOp44
 70
     1
102
RTVSPropertyOp45
 70
     1
102
RTVSPropertyOp46
 70
     1
102
RTVSPropertyOp47
 70
     1
102
RTVSPropertyOp48
 70
     1
102
RTVSPropertyOp49
 70
     1
102
RTVSPropertyOp50
 70
     1
102
RTVSPropertyOp51
 70
     0
102
RTVSPropertyOp52
 70
     0
102
RTVSPropertyOp53
 70
     1
102
RTVSPropertyOp54
 70
     1
102
RTVSPropertyOp55
 70
     1
102
RTVSPropertyOp56
 70
     1
102
RTVSPropertyOp57
 70
     1
102
RTVSPropertyOp58
 70
     1
102
RTVSPropertyOp59
 70
     1
102
RTVSPropertyOp60
 70
     1
102
RTVSPropertyOp61
 70
     1
102
RTVSPropertyOp62
 70
     1
  0
XRECORD
  5
499
102
{ACAD_REACTORS
330
498
102
}
330
498
100
AcDbXrecord
280
     1
102
RTVSPost2010Prop28
280
     0
102
RTVSPost2010PropOp28
 70
     1
102
RTVSPost2010Prop29
280
     1
102
RTVSPost2010PropOp29
 70
     1
102
RTVSPost2010Prop30
280
     1
102
RTVSPost2010PropOp30
 70
     1
102
RTVSPost2010Prop31
280
     0
102
RTVSPost2010PropOp31
 70
     1
102
RTVSPost2010Prop32
280
     0
102
RTVSPost2010PropOp32
 70
     1
102
RTVSPost2010Prop33
280
     0
102
RTVSPost2010PropOp33
 70
     1
102
RTVSPost2010Prop34
280
     0
102
RTVSPost2010PropOp34
 70
     1
102
RTVSPost2010Prop35
280
     0
102
RTVSPost2010PropOp35
 70
     1
102
RTVSPost2010Prop36
280
     0
102
RTVSPost2010PropOp36
 70
     1
102
RTVSPost2010Prop37
 90
       50
102
RTVSPost2010PropOp37
 70
     1
102
RTVSPost2010Prop38
140
0.0
102
RTVSPost2010PropOp38
 70
     1
102
RTVSPost2010Prop39
140
1.0
102
RTVSPost2010PropOp39
 70
     1
102
RTVSPost2010Prop40
 90
        0
102
RTVSPost2010PropOp40
 70
     1
102
RTVSPost2010Prop41ColorIndex
 90
       18
102
RTVSPost2010Prop41ColorRGB
 90
        0
102
RTVSPost2010PropOp41
 70
     1
102
RTVSPost2010Prop42
 90
       50
102
RTVSPost2010PropOp42
 70
     1
102
RTVSPost2010Prop43
 90
        3
102
RTVSPost2010PropOp43
 70
     1
102
RTVSPost2010Prop44ColorIndex
 90
        5
102
RTVSPost2010Prop44ColorRGB
 90
      255
102
RTVSPost2010PropOp44
 70
     1
102
RTVSPost2010Prop45
280
     0
102
RTVSPost2010PropOp45
 70
     1
102
RTVSPost2010Prop46
 90
       50
102
RTVSPost2010PropOp46
 70
     1
102
RTVSPost2010Prop47
 90
       50
102
RTVSPost2010PropOp47
 70
     1
102
RTVSPost2010Prop48
 90
       50
102
RTVSPost2010PropOp48
 70
     1
102
RTVSPost2010Prop49
280
     0
102
RTVSPost2010PropOp49
 70
     1
102
RTVSPost2010Prop50
 90
       50
102
RTVSPost2010PropOp50
 70
     1
102
RTVSPost2010Prop51ColorIndex
 90
      256
102
RTVSPost2010Prop51ColorRGB
 90
-16777216
102
RTVSPost2010PropOp51
 70
     0
102
RTVSPost2010Prop52
140
1.0
102
RTVSPost2010PropOp52
 70
     0
102
RTVSPost2010Prop53
 90
        2
102
RTVSPost2010PropOp53
 70
     1
102
RTVSPost2010Prop54
  1
strokes_ogs.tif
102
RTVSPost2010PropOp54
 70
     1
102
RTVSPost2010Prop55
280
     0
102
RTVSPost2010PropOp55
 70
     1
102
RTVSPost2010Prop56
140
1.0
102
RTVSPost2010PropOp56
 70
     1
102
RTVSPost2010Prop57
140
1.0
102
RTVSPost2010PropOp57
 70
     1
102
RTVSPropertyOp0
 70
     1
102
RTVSPropertyOp1
 70
     1
102
RTVSPropertyOp2
 70
     1
102
RTVSPropertyOp3
 70
     1
102
RTVSPropertyOp4
 70
     1
102
RTVSPropertyOp5
 70
     1
102
RTVSPropertyOp6
 70
     1
102
RTVSPropertyOp7
 70
     1
102
RTVSPropertyOp8
 70
     1
102
RTVSPropertyOp9
 70
     1
102
RTVSPropertyOp10
 70
     1
102
RTVSPropertyOp11
 70
     1
102
RTVSPropertyOp12
 70
     1
102
RTVSPropertyOp13
 70
     1
102
RTVSPropertyOp14
 70
     1
102
RTVSPropertyOp15
 70
     1
102
RTVSPropertyOp16
 70
     1
102
RTVSPropertyOp17
 70
     1
102
RTVSPropertyOp18
 70
     1
102
RTVSPropertyOp19
 70
     1
102
RTVSPropertyOp20
 70
     1
102
RTVSPropertyOp21
 70
     1
102
RTVSPropertyOp22
 70
     1
102
RTVSPropertyOp23
 70
     1
102
RTVSPropertyOp24
 70
     1
102
RTVSPropertyOp25
 70
     1
102
RTVSPropertyOp26
 70
     1
102
RTVSPropertyOp27
 70
     1
102
RTVSPropertyOp28
 70
     1
102
RTVSPropertyOp29
 70
     1
102
RTVSPropertyOp30
 70
     1
102
RTVSPropertyOp31
 70
     1
102
RTVSPropertyOp32
 70
     1
102
RTVSPropertyOp33
 70
     1
102
RTVSPropertyOp34
 70
     1
102
RTVSPropertyOp35
 70
     1
102
RTVSPropertyOp36
 70
     1
102
RTVSPropertyOp37
 70
     1
102
RTVSPropertyOp38
 70
     1
102
RTVSPropertyOp39
 70
     1
102
RTVSPropertyOp40
 70
     1
102
RTVSPropertyOp41
 70
     1
102
RTVSPropertyOp42
 70
     1
102
RTVSPropertyOp43
 70
     1
102
RTVSPropertyOp44
 70
     1
102
RTVSPropertyOp45
 70
     1
102
RTVSPropertyOp46
 70
     1
102
RTVSPropertyOp47
 70
     1
102
RTVSPropertyOp48
 70
     1
102
RTVSPropertyOp49
 70
     1
102
RTVSPropertyOp50
 70
     1
102
RTVSPropertyOp51
 70
     0
102
RTVSPropertyOp52
 70
     0
102
RTVSPropertyOp53
 70
     1
102
RTVSPropertyOp54
 70
     1
102
RTVSPropertyOp55
 70
     1
102
RTVSPropertyOp56
 70
     1
102
RTVSPropertyOp57
 70
     1
102
RTVSPropertyOp58
 70
     1
102
RTVSPropertyOp59
 70
     1
102
RTVSPropertyOp60
 70
     1
102
RTVSPropertyOp61
 70
     1
102
RTVSPropertyOp62
 70
     1
  0
XRECORD
  5
49B
102
{ACAD_REACTORS
330
49A
102
}
330
49A
100
AcDbXrecord
280
     1
102
RTVSPost2010Prop28
280
     0
102
RTVSPost2010PropOp28
 70
     1
102
RTVSPost2010Prop29
280
     1
102
RTVSPost2010PropOp29
 70
     1
102
RTVSPost2010Prop30
280
     1
102
RTVSPost2010PropOp30
 70
     1
102
RTVSPost2010Prop31
280
     0
102
RTVSPost2010PropOp31
 70
     1
102
RTVSPost2010Prop32
280
     0
102
RTVSPost2010PropOp32
 70
     1
102
RTVSPost2010Prop33
280
     0
102
RTVSPost2010PropOp33
 70
     1
102
RTVSPost2010Prop34
280
     0
102
RTVSPost2010PropOp34
 70
     1
102
RTVSPost2010Prop35
280
     0
102
RTVSPost2010PropOp35
 70
     1
102
RTVSPost2010Prop36
280
     0
102
RTVSPost2010PropOp36
 70
     1
102
RTVSPost2010Prop37
 90
       50
102
RTVSPost2010PropOp37
 70
     1
102
RTVSPost2010Prop38
140
0.0
102
RTVSPost2010PropOp38
 70
     1
102
RTVSPost2010Prop39
140
1.0
102
RTVSPost2010PropOp39
 70
     1
102
RTVSPost2010Prop40
 90
        0
102
RTVSPost2010PropOp40
 70
     1
102
RTVSPost2010Prop41ColorIndex
 90
       18
102
RTVSPost2010Prop41ColorRGB
 90
        0
102
RTVSPost2010PropOp41
 70
     1
102
RTVSPost2010Prop42
 90
       50
102
RTVSPost2010PropOp42
 70
     1
102
RTVSPost2010Prop43
 90
        3
102
RTVSPost2010PropOp43
 70
     1
102
RTVSPost2010Prop44ColorIndex
 90
        5
102
RTVSPost2010Prop44ColorRGB
 90
      255
102
RTVSPost2010PropOp44
 70
     1
102
RTVSPost2010Prop45
280
     0
102
RTVSPost2010PropOp45
 70
     1
102
RTVSPost2010Prop46
 90
       50
102
RTVSPost2010PropOp46
 70
     1
102
RTVSPost2010Prop47
 90
       50
102
RTVSPost2010PropOp47
 70
     1
102
RTVSPost2010Prop48
 90
       50
102
RTVSPost2010PropOp48
 70
     1
102
RTVSPost2010Prop49
280
     0
102
RTVSPost2010PropOp49
 70
     1
102
RTVSPost2010Prop50
 90
       50
102
RTVSPost2010PropOp50
 70
     1
102
RTVSPost2010Prop51ColorIndex
 90
      256
102
RTVSPost2010Prop51ColorRGB
 90
-16777216
102
RTVSPost2010PropOp51
 70
     0
102
RTVSPost2010Prop52
140
1.0
102
RTVSPost2010PropOp52
 70
     0
102
RTVSPost2010Prop53
 90
        2
102
RTVSPost2010PropOp53
 70
     1
102
RTVSPost2010Prop54
  1
strokes_ogs.tif
102
RTVSPost2010PropOp54
 70
     1
102
RTVSPost2010Prop55
280
     0
102
RTVSPost2010PropOp55
 70
     1
102
RTVSPost2010Prop56
140
1.0
102
RTVSPost2010PropOp56
 70
     1
102
RTVSPost2010Prop57
140
1.0
102
RTVSPost2010PropOp57
 70
     1
102
RTVSPropertyOp0
 70
     1
102
RTVSPropertyOp1
 70
     1
102
RTVSPropertyOp2
 70
     1
102
RTVSPropertyOp3
 70
     1
102
RTVSPropertyOp4
 70
     1
102
RTVSPropertyOp5
 70
     1
102
RTVSPropertyOp6
 70
     1
102
RTVSPropertyOp7
 70
     1
102
RTVSPropertyOp8
 70
     1
102
RTVSPropertyOp9
 70
     1
102
RTVSPropertyOp10
 70
     1
102
RTVSPropertyOp11
 70
     1
102
RTVSPropertyOp12
 70
     1
102
RTVSPropertyOp13
 70
     1
102
RTVSPropertyOp14
 70
     1
102
RTVSPropertyOp15
 70
     1
102
RTVSPropertyOp16
 70
     1
102
RTVSPropertyOp17
 70
     1
102
RTVSPropertyOp18
 70
     1
102
RTVSPropertyOp19
 70
     1
102
RTVSPropertyOp20
 70
     1
102
RTVSPropertyOp21
 70
     1
102
RTVSPropertyOp22
 70
     1
102
RTVSPropertyOp23
 70
     1
102
RTVSPropertyOp24
 70
     1
102
RTVSPropertyOp25
 70
     1
102
RTVSPropertyOp26
 70
     1
102
RTVSPropertyOp27
 70
     1
102
RTVSPropertyOp28
 70
     1
102
RTVSPropertyOp29
 70
     1
102
RTVSPropertyOp30
 70
     1
102
RTVSPropertyOp31
 70
     1
102
RTVSPropertyOp32
 70
     1
102
RTVSPropertyOp33
 70
     1
102
RTVSPropertyOp34
 70
     1
102
RTVSPropertyOp35
 70
     1
102
RTVSPropertyOp36
 70
     1
102
RTVSPropertyOp37
 70
     1
102
RTVSPropertyOp38
 70
     1
102
RTVSPropertyOp39
 70
     1
102
RTVSPropertyOp40
 70
     1
102
RTVSPropertyOp41
 70
     1
102
RTVSPropertyOp42
 70
     1
102
RTVSPropertyOp43
 70
     1
102
RTVSPropertyOp44
 70
     1
102
RTVSPropertyOp45
 70
     1
102
RTVSPropertyOp46
 70
     1
102
RTVSPropertyOp47
 70
     1
102
RTVSPropertyOp48
 70
     1
102
RTVSPropertyOp49
 70
     1
102
RTVSPropertyOp50
 70
     1
102
RTVSPropertyOp51
 70
     0
102
RTVSPropertyOp52
 70
     0
102
RTVSPropertyOp53
 70
     1
102
RTVSPropertyOp54
 70
     1
102
RTVSPropertyOp55
 70
     1
102
RTVSPropertyOp56
 70
     1
102
RTVSPropertyOp57
 70
     1
102
RTVSPropertyOp58
 70
     1
102
RTVSPropertyOp59
 70
     1
102
RTVSPropertyOp60
 70
     1
102
RTVSPropertyOp61
 70
     1
102
RTVSPropertyOp62
 70
     1
  0
XRECORD
  5
49D
102
{ACAD_REACTORS
330
49C
102
}
330
49C
100
AcDbXrecord
280
     1
102
RTVSPost2010Prop28
280
     0
102
RTVSPost2010PropOp28
 70
     1
102
RTVSPost2010Prop29
280
     1
102
RTVSPost2010PropOp29
 70
     1
102
RTVSPost2010Prop30
280
     1
102
RTVSPost2010PropOp30
 70
     1
102
RTVSPost2010Prop31
280
     0
102
RTVSPost2010PropOp31
 70
     1
102
RTVSPost2010Prop32
280
     0
102
RTVSPost2010PropOp32
 70
     1
102
RTVSPost2010Prop33
280
     0
102
RTVSPost2010PropOp33
 70
     1
102
RTVSPost2010Prop34
280
     0
102
RTVSPost2010PropOp34
 70
     1
102
RTVSPost2010Prop35
280
     0
102
RTVSPost2010PropOp35
 70
     1
102
RTVSPost2010Prop36
280
     0
102
RTVSPost2010PropOp36
 70
     1
102
RTVSPost2010Prop37
 90
       50
102
RTVSPost2010PropOp37
 70
     1
102
RTVSPost2010Prop38
140
0.0
102
RTVSPost2010PropOp38
 70
     1
102
RTVSPost2010Prop39
140
1.0
102
RTVSPost2010PropOp39
 70
     1
102
RTVSPost2010Prop40
 90
        0
102
RTVSPost2010PropOp40
 70
     1
102
RTVSPost2010Prop41ColorIndex
 90
       18
102
RTVSPost2010Prop41ColorRGB
 90
        0
102
RTVSPost2010PropOp41
 70
     1
102
RTVSPost2010Prop42
 90
       50
102
RTVSPost2010PropOp42
 70
     1
102
RTVSPost2010Prop43
 90
        3
102
RTVSPost2010PropOp43
 70
     1
102
RTVSPost2010Prop44ColorIndex
 90
        5
102
RTVSPost2010Prop44ColorRGB
 90
      255
102
RTVSPost2010PropOp44
 70
     1
102
RTVSPost2010Prop45
280
     0
102
RTVSPost2010PropOp45
 70
     1
102
RTVSPost2010Prop46
 90
       50
102
RTVSPost2010PropOp46
 70
     1
102
RTVSPost2010Prop47
 90
       50
102
RTVSPost2010PropOp47
 70
     1
102
RTVSPost2010Prop48
 90
       50
102
RTVSPost2010PropOp48
 70
     1
102
RTVSPost2010Prop49
280
     0
102
RTVSPost2010PropOp49
 70
     1
102
RTVSPost2010Prop50
 90
       50
102
RTVSPost2010PropOp50
 70
     1
102
RTVSPost2010Prop51ColorIndex
 90
      256
102
RTVSPost2010Prop51ColorRGB
 90
-16777216
102
RTVSPost2010PropOp51
 70
     0
102
RTVSPost2010Prop52
140
1.0
102
RTVSPost2010PropOp52
 70
     0
102
RTVSPost2010Prop53
 90
        2
102
RTVSPost2010PropOp53
 70
     1
102
RTVSPost2010Prop54
  1
strokes_ogs.tif
102
RTVSPost2010PropOp54
 70
     1
102
RTVSPost2010Prop55
280
     0
102
RTVSPost2010PropOp55
 70
     1
102
RTVSPost2010Prop56
140
1.0
102
RTVSPost2010PropOp56
 70
     1
102
RTVSPost2010Prop57
140
1.0
102
RTVSPost2010PropOp57
 70
     1
102
RTVSPropertyOp0
 70
     1
102
RTVSPropertyOp1
 70
     1
102
RTVSPropertyOp2
 70
     1
102
RTVSPropertyOp3
 70
     1
102
RTVSPropertyOp4
 70
     1
102
RTVSPropertyOp5
 70
     1
102
RTVSPropertyOp6
 70
     1
102
RTVSPropertyOp7
 70
     1
102
RTVSPropertyOp8
 70
     1
102
RTVSPropertyOp9
 70
     1
102
RTVSPropertyOp10
 70
     1
102
RTVSPropertyOp11
 70
     1
102
RTVSPropertyOp12
 70
     1
102
RTVSPropertyOp13
 70
     1
102
RTVSPropertyOp14
 70
     1
102
RTVSPropertyOp15
 70
     1
102
RTVSPropertyOp16
 70
     1
102
RTVSPropertyOp17
 70
     1
102
RTVSPropertyOp18
 70
     1
102
RTVSPropertyOp19
 70
     1
102
RTVSPropertyOp20
 70
     1
102
RTVSPropertyOp21
 70
     1
102
RTVSPropertyOp22
 70
     1
102
RTVSPropertyOp23
 70
     1
102
RTVSPropertyOp24
 70
     1
102
RTVSPropertyOp25
 70
     1
102
RTVSPropertyOp26
 70
     1
102
RTVSPropertyOp27
 70
     1
102
RTVSPropertyOp28
 70
     1
102
RTVSPropertyOp29
 70
     1
102
RTVSPropertyOp30
 70
     1
102
RTVSPropertyOp31
 70
     1
102
RTVSPropertyOp32
 70
     1
102
RTVSPropertyOp33
 70
     1
102
RTVSPropertyOp34
 70
     1
102
RTVSPropertyOp35
 70
     1
102
RTVSPropertyOp36
 70
     1
102
RTVSPropertyOp37
 70
     1
102
RTVSPropertyOp38
 70
     1
102
RTVSPropertyOp39
 70
     1
102
RTVSPropertyOp40
 70
     1
102
RTVSPropertyOp41
 70
     1
102
RTVSPropertyOp42
 70
     1
102
RTVSPropertyOp43
 70
     1
102
RTVSPropertyOp44
 70
     1
102
RTVSPropertyOp45
 70
     1
102
RTVSPropertyOp46
 70
     1
102
RTVSPropertyOp47
 70
     1
102
RTVSPropertyOp48
 70
     1
102
RTVSPropertyOp49
 70
     1
102
RTVSPropertyOp50
 70
     1
102
RTVSPropertyOp51
 70
     0
102
RTVSPropertyOp52
 70
     0
102
RTVSPropertyOp53
 70
     1
102
RTVSPropertyOp54
 70
     1
102
RTVSPropertyOp55
 70
     1
102
RTVSPropertyOp56
 70
     1
102
RTVSPropertyOp57
 70
     1
102
RTVSPropertyOp58
 70
     1
102
RTVSPropertyOp59
 70
     1
102
RTVSPropertyOp60
 70
     1
102
RTVSPropertyOp61
 70
     1
102
RTVSPropertyOp62
 70
     1
  0
XRECORD
  5
49F
102
{ACAD_REACTORS
330
49E
102
}
330
49E
100
AcDbXrecord
280
     1
102
RTVSPost2010Prop28
280
     0
102
RTVSPost2010PropOp28
 70
     1
102
RTVSPost2010Prop29
280
     1
102
RTVSPost2010PropOp29
 70
     1
102
RTVSPost2010Prop30
280
     1
102
RTVSPost2010PropOp30
 70
     1
102
RTVSPost2010Prop31
280
     0
102
RTVSPost2010PropOp31
 70
     1
102
RTVSPost2010Prop32
280
     0
102
RTVSPost2010PropOp32
 70
     1
102
RTVSPost2010Prop33
280
     0
102
RTVSPost2010PropOp33
 70
     1
102
RTVSPost2010Prop34
280
     0
102
RTVSPost2010PropOp34
 70
     1
102
RTVSPost2010Prop35
280
     0
102
RTVSPost2010PropOp35
 70
     1
102
RTVSPost2010Prop36
280
     0
102
RTVSPost2010PropOp36
 70
     1
102
RTVSPost2010Prop37
 90
       50
102
RTVSPost2010PropOp37
 70
     1
102
RTVSPost2010Prop38
140
0.0
102
RTVSPost2010PropOp38
 70
     1
102
RTVSPost2010Prop39
140
1.0
102
RTVSPost2010PropOp39
 70
     1
102
RTVSPost2010Prop40
 90
        0
102
RTVSPost2010PropOp40
 70
     1
102
RTVSPost2010Prop41ColorIndex
 90
       18
102
RTVSPost2010Prop41ColorRGB
 90
        0
102
RTVSPost2010PropOp41
 70
     1
102
RTVSPost2010Prop42
 90
       50
102
RTVSPost2010PropOp42
 70
     1
102
RTVSPost2010Prop43
 90
        3
102
RTVSPost2010PropOp43
 70
     1
102
RTVSPost2010Prop44ColorIndex
 90
        5
102
RTVSPost2010Prop44ColorRGB
 90
      255
102
RTVSPost2010PropOp44
 70
     1
102
RTVSPost2010Prop45
280
     0
102
RTVSPost2010PropOp45
 70
     1
102
RTVSPost2010Prop46
 90
       50
102
RTVSPost2010PropOp46
 70
     1
102
RTVSPost2010Prop47
 90
       50
102
RTVSPost2010PropOp47
 70
     1
102
RTVSPost2010Prop48
 90
       50
102
RTVSPost2010PropOp48
 70
     1
102
RTVSPost2010Prop49
280
     0
102
RTVSPost2010PropOp49
 70
     1
102
RTVSPost2010Prop50
 90
       50
102
RTVSPost2010PropOp50
 70
     1
102
RTVSPost2010Prop51ColorIndex
 90
      256
102
RTVSPost2010Prop51ColorRGB
 90
-16777216
102
RTVSPost2010PropOp51
 70
     0
102
RTVSPost2010Prop52
140
1.0
102
RTVSPost2010PropOp52
 70
     0
102
RTVSPost2010Prop53
 90
        2
102
RTVSPost2010PropOp53
 70
     1
102
RTVSPost2010Prop54
  1
strokes_ogs.tif
102
RTVSPost2010PropOp54
 70
     1
102
RTVSPost2010Prop55
280
     0
102
RTVSPost2010PropOp55
 70
     1
102
RTVSPost2010Prop56
140
1.0
102
RTVSPost2010PropOp56
 70
     1
102
RTVSPost2010Prop57
140
1.0
102
RTVSPost2010PropOp57
 70
     1
102
RTVSPropertyOp0
 70
     1
102
RTVSPropertyOp1
 70
     1
102
RTVSPropertyOp2
 70
     1
102
RTVSPropertyOp3
 70
     1
102
RTVSPropertyOp4
 70
     1
102
RTVSPropertyOp5
 70
     1
102
RTVSPropertyOp6
 70
     1
102
RTVSPropertyOp7
 70
     1
102
RTVSPropertyOp8
 70
     1
102
RTVSPropertyOp9
 70
     1
102
RTVSPropertyOp10
 70
     1
102
RTVSPropertyOp11
 70
     1
102
RTVSPropertyOp12
 70
     1
102
RTVSPropertyOp13
 70
     1
102
RTVSPropertyOp14
 70
     1
102
RTVSPropertyOp15
 70
     1
102
RTVSPropertyOp16
 70
     1
102
RTVSPropertyOp17
 70
     1
102
RTVSPropertyOp18
 70
     1
102
RTVSPropertyOp19
 70
     1
102
RTVSPropertyOp20
 70
     1
102
RTVSPropertyOp21
 70
     1
102
RTVSPropertyOp22
 70
     1
102
RTVSPropertyOp23
 70
     1
102
RTVSPropertyOp24
 70
     1
102
RTVSPropertyOp25
 70
     1
102
RTVSPropertyOp26
 70
     1
102
RTVSPropertyOp27
 70
     1
102
RTVSPropertyOp28
 70
     1
102
RTVSPropertyOp29
 70
     1
102
RTVSPropertyOp30
 70
     1
102
RTVSPropertyOp31
 70
     1
102
RTVSPropertyOp32
 70
     1
102
RTVSPropertyOp33
 70
     1
102
RTVSPropertyOp34
 70
     1
102
RTVSPropertyOp35
 70
     1
102
RTVSPropertyOp36
 70
     1
102
RTVSPropertyOp37
 70
     1
102
RTVSPropertyOp38
 70
     1
102
RTVSPropertyOp39
 70
     1
102
RTVSPropertyOp40
 70
     1
102
RTVSPropertyOp41
 70
     1
102
RTVSPropertyOp42
 70
     1
102
RTVSPropertyOp43
 70
     1
102
RTVSPropertyOp44
 70
     1
102
RTVSPropertyOp45
 70
     1
102
RTVSPropertyOp46
 70
     1
102
RTVSPropertyOp47
 70
     1
102
RTVSPropertyOp48
 70
     1
102
RTVSPropertyOp49
 70
     1
102
RTVSPropertyOp50
 70
     1
102
RTVSPropertyOp51
 70
     0
102
RTVSPropertyOp52
 70
     0
102
RTVSPropertyOp53
 70
     1
102
RTVSPropertyOp54
 70
     1
102
RTVSPropertyOp55
 70
     1
102
RTVSPropertyOp56
 70
     1
102
RTVSPropertyOp57
 70
     1
102
RTVSPropertyOp58
 70
     1
102
RTVSPropertyOp59
 70
     1
102
RTVSPropertyOp60
 70
     1
102
RTVSPropertyOp61
 70
     1
102
RTVSPropertyOp62
 70
     1
  0
XRECORD
  5
4A7
102
{ACAD_REACTORS
330
4A6
102
}
330
4A6
100
AcDbXrecord
280
     1
102
RTVSPost2010Prop28
280
     0
102
RTVSPost2010PropOp28
 70
     1
102
RTVSPost2010Prop29
280
     1
102
RTVSPost2010PropOp29
 70
     1
102
RTVSPost2010Prop30
280
     1
102
RTVSPost2010PropOp30
 70
     1
102
RTVSPost2010Prop31
280
     0
102
RTVSPost2010PropOp31
 70
     1
102
RTVSPost2010Prop32
280
     0
102
RTVSPost2010PropOp32
 70
     1
102
RTVSPost2010Prop33
280
     0
102
RTVSPost2010PropOp33
 70
     1
102
RTVSPost2010Prop34
280
     0
102
RTVSPost2010PropOp34
 70
     1
102
RTVSPost2010Prop35
280
     0
102
RTVSPost2010PropOp35
 70
     1
102
RTVSPost2010Prop36
280
     0
102
RTVSPost2010PropOp36
 70
     1
102
RTVSPost2010Prop37
 90
       50
102
RTVSPost2010PropOp37
 70
     1
102
RTVSPost2010Prop38
140
0.0
102
RTVSPost2010PropOp38
 70
     1
102
RTVSPost2010Prop39
140
1.0
102
RTVSPost2010PropOp39
 70
     1
102
RTVSPost2010Prop40
 90
        0
102
RTVSPost2010PropOp40
 70
     1
102
RTVSPost2010Prop41ColorIndex
 90
       18
102
RTVSPost2010Prop41ColorRGB
 90
        0
102
RTVSPost2010PropOp41
 70
     1
102
RTVSPost2010Prop42
 90
       50
102
RTVSPost2010PropOp42
 70
     1
102
RTVSPost2010Prop43
 90
        3
102
RTVSPost2010PropOp43
 70
     1
102
RTVSPost2010Prop44ColorIndex
 90
        5
102
RTVSPost2010Prop44ColorRGB
 90
      255
102
RTVSPost2010PropOp44
 70
     1
102
RTVSPost2010Prop45
280
     0
102
RTVSPost2010PropOp45
 70
     1
102
RTVSPost2010Prop46
 90
       50
102
RTVSPost2010PropOp46
 70
     1
102
RTVSPost2010Prop47
 90
       50
102
RTVSPost2010PropOp47
 70
     1
102
RTVSPost2010Prop48
 90
       50
102
RTVSPost2010PropOp48
 70
     1
102
RTVSPost2010Prop49
280
     0
102
RTVSPost2010PropOp49
 70
     1
102
RTVSPost2010Prop50
 90
       50
102
RTVSPost2010PropOp50
 70
     1
102
RTVSPost2010Prop51ColorIndex
 90
      256
102
RTVSPost2010Prop51ColorRGB
 90
-16777216
102
RTVSPost2010PropOp51
 70
     0
102
RTVSPost2010Prop52
140
1.0
102
RTVSPost2010PropOp52
 70
     0
102
RTVSPost2010Prop53
 90
        2
102
RTVSPost2010PropOp53
 70
     1
102
RTVSPost2010Prop54
  1
strokes_ogs.tif
102
RTVSPost2010PropOp54
 70
     1
102
RTVSPost2010Prop55
280
     0
102
RTVSPost2010PropOp55
 70
     1
102
RTVSPost2010Prop56
140
1.0
102
RTVSPost2010PropOp56
 70
     1
102
RTVSPost2010Prop57
140
1.0
102
RTVSPost2010PropOp57
 70
     1
102
RTVSPropertyOp0
 70
     1
102
RTVSPropertyOp1
 70
     1
102
RTVSPropertyOp2
 70
     1
102
RTVSPropertyOp3
 70
     1
102
RTVSPropertyOp4
 70
     1
102
RTVSPropertyOp5
 70
     1
102
RTVSPropertyOp6
 70
     1
102
RTVSPropertyOp7
 70
     1
102
RTVSPropertyOp8
 70
     1
102
RTVSPropertyOp9
 70
     1
102
RTVSPropertyOp10
 70
     1
102
RTVSPropertyOp11
 70
     1
102
RTVSPropertyOp12
 70
     1
102
RTVSPropertyOp13
 70
     1
102
RTVSPropertyOp14
 70
     1
102
RTVSPropertyOp15
 70
     1
102
RTVSPropertyOp16
 70
     1
102
RTVSPropertyOp17
 70
     1
102
RTVSPropertyOp18
 70
     1
102
RTVSPropertyOp19
 70
     1
102
RTVSPropertyOp20
 70
     1
102
RTVSPropertyOp21
 70
     1
102
RTVSPropertyOp22
 70
     1
102
RTVSPropertyOp23
 70
     1
102
RTVSPropertyOp24
 70
     1
102
RTVSPropertyOp25
 70
     1
102
RTVSPropertyOp26
 70
     1
102
RTVSPropertyOp27
 70
     1
102
RTVSPropertyOp28
 70
     1
102
RTVSPropertyOp29
 70
     1
102
RTVSPropertyOp30
 70
     1
102
RTVSPropertyOp31
 70
     1
102
RTVSPropertyOp32
 70
     1
102
RTVSPropertyOp33
 70
     1
102
RTVSPropertyOp34
 70
     1
102
RTVSPropertyOp35
 70
     1
102
RTVSPropertyOp36
 70
     1
102
RTVSPropertyOp37
 70
     1
102
RTVSPropertyOp38
 70
     1
102
RTVSPropertyOp39
 70
     1
102
RTVSPropertyOp40
 70
     1
102
RTVSPropertyOp41
 70
     1
102
RTVSPropertyOp42
 70
     1
102
RTVSPropertyOp43
 70
     1
102
RTVSPropertyOp44
 70
     1
102
RTVSPropertyOp45
 70
     1
102
RTVSPropertyOp46
 70
     1
102
RTVSPropertyOp47
 70
     1
102
RTVSPropertyOp48
 70
     1
102
RTVSPropertyOp49
 70
     1
102
RTVSPropertyOp50
 70
     1
102
RTVSPropertyOp51
 70
     0
102
RTVSPropertyOp52
 70
     0
102
RTVSPropertyOp53
 70
     1
102
RTVSPropertyOp54
 70
     1
102
RTVSPropertyOp55
 70
     1
102
RTVSPropertyOp56
 70
     1
102
RTVSPropertyOp57
 70
     1
102
RTVSPropertyOp58
 70
     1
102
RTVSPropertyOp59
 70
     1
102
RTVSPropertyOp60
 70
     1
102
RTVSPropertyOp61
 70
     1
102
RTVSPropertyOp62
 70
     1
  0
XRECORD
  5
4C3
102
{ACAD_REACTORS
330
4C2
102
}
330
4C2
100
AcDbXrecord
280
     1
102
RTVSPost2010Prop28
280
     0
102
RTVSPost2010PropOp28
 70
     0
102
RTVSPost2010Prop29
280
     1
102
RTVSPost2010PropOp29
 70
     0
102
RTVSPost2010Prop30
280
     1
102
RTVSPost2010PropOp30
 70
     0
102
RTVSPost2010Prop31
280
     0
102
RTVSPost2010PropOp31
 70
     0
102
RTVSPost2010Prop32
280
     0
102
RTVSPost2010PropOp32
 70
     0
102
RTVSPost2010Prop33
280
     0
102
RTVSPost2010PropOp33
 70
     0
102
RTVSPost2010Prop34
280
     0
102
RTVSPost2010PropOp34
 70
     0
102
RTVSPost2010Prop35
280
     0
102
RTVSPost2010PropOp35
 70
     0
102
RTVSPost2010Prop36
280
     0
102
RTVSPost2010PropOp36
 70
     0
102
RTVSPost2010Prop37
 90
       50
102
RTVSPost2010PropOp37
 70
     0
102
RTVSPost2010Prop38
140
0.0
102
RTVSPost2010PropOp38
 70
     0
102
RTVSPost2010Prop39
140
1.0
102
RTVSPost2010PropOp39
 70
     0
102
RTVSPost2010Prop40
 90
        0
102
RTVSPost2010PropOp40
 70
     0
102
RTVSPost2010Prop41ColorIndex
 90
       18
102
RTVSPost2010Prop41ColorRGB
 90
        0
102
RTVSPost2010PropOp41
 70
     0
102
RTVSPost2010Prop42
 90
       50
102
RTVSPost2010PropOp42
 70
     0
102
RTVSPost2010Prop43
 90
        3
102
RTVSPost2010PropOp43
 70
     0
102
RTVSPost2010Prop44ColorIndex
 90
        5
102
RTVSPost2010Prop44ColorRGB
 90
      255
102
RTVSPost2010PropOp44
 70
     0
102
RTVSPost2010Prop45
280
     0
102
RTVSPost2010PropOp45
 70
     0
102
RTVSPost2010Prop46
 90
       50
102
RTVSPost2010PropOp46
 70
     0
102
RTVSPost2010Prop47
 90
       50
102
RTVSPost2010PropOp47
 70
     0
102
RTVSPost2010Prop48
 90
       50
102
RTVSPost2010PropOp48
 70
     0
102
RTVSPost2010Prop49
280
     0
102
RTVSPost2010PropOp49
 70
     0
102
RTVSPost2010Prop50
 90
       50
102
RTVSPost2010PropOp50
 70
     0
102
RTVSPost2010Prop51ColorIndex
 90
      256
102
RTVSPost2010Prop51ColorRGB
 90
-16777216
102
RTVSPost2010PropOp51
 70
     0
102
RTVSPost2010Prop52
140
1.0
102
RTVSPost2010PropOp52
 70
     0
102
RTVSPost2010Prop53
 90
        2
102
RTVSPost2010PropOp53
 70
     0
102
RTVSPost2010Prop54
  1
strokes_ogs.tif
102
RTVSPost2010PropOp54
 70
     0
102
RTVSPost2010Prop55
280
     0
102
RTVSPost2010PropOp55
 70
     0
102
RTVSPost2010Prop56
140
1.0
102
RTVSPost2010PropOp56
 70
     0
102
RTVSPost2010Prop57
140
1.0
102
RTVSPost2010PropOp57
 70
     0
102
RTVSPropertyOp0
 70
     0
102
RTVSPropertyOp1
 70
     0
102
RTVSPropertyOp2
 70
     0
102
RTVSPropertyOp3
 70
     0
102
RTVSPropertyOp4
 70
     0
102
RTVSPropertyOp5
 70
     0
102
RTVSPropertyOp6
 70
     0
102
RTVSPropertyOp7
 70
     0
102
RTVSPropertyOp8
 70
     0
102
RTVSPropertyOp9
 70
     0
102
RTVSPropertyOp10
 70
     0
102
RTVSPropertyOp11
 70
     0
102
RTVSPropertyOp12
 70
     0
102
RTVSPropertyOp13
 70
     0
102
RTVSPropertyOp14
 70
     2
102
RTVSPropertyOp15
 70
     0
102
RTVSPropertyOp16
 70
     0
102
RTVSPropertyOp17
 70
     0
102
RTVSPropertyOp18
 70
     0
102
RTVSPropertyOp19
 70
     0
102
RTVSPropertyOp20
 70
     0
102
RTVSPropertyOp21
 70
     0
102
RTVSPropertyOp22
 70
     0
102
RTVSPropertyOp23
 70
     0
102
RTVSPropertyOp24
 70
     0
102
RTVSPropertyOp25
 70
     0
102
RTVSPropertyOp26
 70
     0
102
RTVSPropertyOp27
 70
     0
102
RTVSPropertyOp28
 70
     0
102
RTVSPropertyOp29
 70
     0
102
RTVSPropertyOp30
 70
     0
102
RTVSPropertyOp31
 70
     0
102
RTVSPropertyOp32
 70
     0
102
RTVSPropertyOp33
 70
     0
102
RTVSPropertyOp34
 70
     0
102
RTVSPropertyOp35
 70
     0
102
RTVSPropertyOp36
 70
     0
102
RTVSPropertyOp37
 70
     0
102
RTVSPropertyOp38
 70
     0
102
RTVSPropertyOp39
 70
     0
102
RTVSPropertyOp40
 70
     0
102
RTVSPropertyOp41
 70
     0
102
RTVSPropertyOp42
 70
     0
102
RTVSPropertyOp43
 70
     0
102
RTVSPropertyOp44
 70
     0
102
RTVSPropertyOp45
 70
     0
102
RTVSPropertyOp46
 70
     0
102
RTVSPropertyOp47
 70
     0
102
RTVSPropertyOp48
 70
     0
102
RTVSPropertyOp49
 70
     0
102
RTVSPropertyOp50
 70
     0
102
RTVSPropertyOp51
 70
     0
102
RTVSPropertyOp52
 70
     0
102
RTVSPropertyOp53
 70
     0
102
RTVSPropertyOp54
 70
     0
102
RTVSPropertyOp55
 70
     0
102
RTVSPropertyOp56
 70
     0
102
RTVSPropertyOp57
 70
     0
102
RTVSPropertyOp58
 70
     1
102
RTVSPropertyOp59
 70
     1
102
RTVSPropertyOp60
 70
     1
102
RTVSPropertyOp61
 70
     1
102
RTVSPropertyOp62
 70
     1
  0
XRECORD
  5
4B3
102
{ACAD_REACTORS
330
4B2
102
}
330
4B2
100
AcDbXrecord
280
     1
102
RTVSPost2010Prop28
280
     0
102
RTVSPost2010PropOp28
 70
     1
102
RTVSPost2010Prop29
280
     1
102
RTVSPost2010PropOp29
 70
     1
102
RTVSPost2010Prop30
280
     1
102
RTVSPost2010PropOp30
 70
     1
102
RTVSPost2010Prop31
280
     0
102
RTVSPost2010PropOp31
 70
     1
102
RTVSPost2010Prop32
280
     0
102
RTVSPost2010PropOp32
 70
     1
102
RTVSPost2010Prop33
280
     0
102
RTVSPost2010PropOp33
 70
     1
102
RTVSPost2010Prop34
280
     0
102
RTVSPost2010PropOp34
 70
     1
102
RTVSPost2010Prop35
280
     0
102
RTVSPost2010PropOp35
 70
     1
102
RTVSPost2010Prop36
280
     0
102
RTVSPost2010PropOp36
 70
     1
102
RTVSPost2010Prop37
 90
       50
102
RTVSPost2010PropOp37
 70
     1
102
RTVSPost2010Prop38
140
0.0
102
RTVSPost2010PropOp38
 70
     1
102
RTVSPost2010Prop39
140
1.0
102
RTVSPost2010PropOp39
 70
     1
102
RTVSPost2010Prop40
 90
        0
102
RTVSPost2010PropOp40
 70
     1
102
RTVSPost2010Prop41ColorIndex
 90
       18
102
RTVSPost2010Prop41ColorRGB
 90
        0
102
RTVSPost2010PropOp41
 70
     1
102
RTVSPost2010Prop42
 90
       50
102
RTVSPost2010PropOp42
 70
     1
102
RTVSPost2010Prop43
 90
        3
102
RTVSPost2010PropOp43
 70
     1
102
RTVSPost2010Prop44ColorIndex
 90
        5
102
RTVSPost2010Prop44ColorRGB
 90
      255
102
RTVSPost2010PropOp44
 70
     1
102
RTVSPost2010Prop45
280
     0
102
RTVSPost2010PropOp45
 70
     1
102
RTVSPost2010Prop46
 90
       50
102
RTVSPost2010PropOp46
 70
     1
102
RTVSPost2010Prop47
 90
       50
102
RTVSPost2010PropOp47
 70
     1
102
RTVSPost2010Prop48
 90
       50
102
RTVSPost2010PropOp48
 70
     1
102
RTVSPost2010Prop49
280
     0
102
RTVSPost2010PropOp49
 70
     1
102
RTVSPost2010Prop50
 90
       50
102
RTVSPost2010PropOp50
 70
     1
102
RTVSPost2010Prop51ColorIndex
 90
      256
102
RTVSPost2010Prop51ColorRGB
 90
-16777216
102
RTVSPost2010PropOp51
 70
     0
102
RTVSPost2010Prop52
140
1.0
102
RTVSPost2010PropOp52
 70
     0
102
RTVSPost2010Prop53
 90
        2
102
RTVSPost2010PropOp53
 70
     1
102
RTVSPost2010Prop54
  1
strokes_ogs.tif
102
RTVSPost2010PropOp54
 70
     1
102
RTVSPost2010Prop55
280
     0
102
RTVSPost2010PropOp55
 70
     1
102
RTVSPost2010Prop56
140
1.0
102
RTVSPost2010PropOp56
 70
     1
102
RTVSPost2010Prop57
140
1.0
102
RTVSPost2010PropOp57
 70
     1
102
RTVSPropertyOp0
 70
     1
102
RTVSPropertyOp1
 70
     1
102
RTVSPropertyOp2
 70
     1
102
RTVSPropertyOp3
 70
     1
102
RTVSPropertyOp4
 70
     1
102
RTVSPropertyOp5
 70
     1
102
RTVSPropertyOp6
 70
     1
102
RTVSPropertyOp7
 70
     1
102
RTVSPropertyOp8
 70
     1
102
RTVSPropertyOp9
 70
     1
102
RTVSPropertyOp10
 70
     1
102
RTVSPropertyOp11
 70
     1
102
RTVSPropertyOp12
 70
     1
102
RTVSPropertyOp13
 70
     1
102
RTVSPropertyOp14
 70
     1
102
RTVSPropertyOp15
 70
     1
102
RTVSPropertyOp16
 70
     1
102
RTVSPropertyOp17
 70
     1
102
RTVSPropertyOp18
 70
     1
102
RTVSPropertyOp19
 70
     1
102
RTVSPropertyOp20
 70
     1
102
RTVSPropertyOp21
 70
     1
102
RTVSPropertyOp22
 70
     1
102
RTVSPropertyOp23
 70
     1
102
RTVSPropertyOp24
 70
     1
102
RTVSPropertyOp25
 70
     1
102
RTVSPropertyOp26
 70
     1
102
RTVSPropertyOp27
 70
     1
102
RTVSPropertyOp28
 70
     1
102
RTVSPropertyOp29
 70
     1
102
RTVSPropertyOp30
 70
     1
102
RTVSPropertyOp31
 70
     1
102
RTVSPropertyOp32
 70
     1
102
RTVSPropertyOp33
 70
     1
102
RTVSPropertyOp34
 70
     1
102
RTVSPropertyOp35
 70
     1
102
RTVSPropertyOp36
 70
     1
102
RTVSPropertyOp37
 70
     1
102
RTVSPropertyOp38
 70
     1
102
RTVSPropertyOp39
 70
     1
102
RTVSPropertyOp40
 70
     1
102
RTVSPropertyOp41
 70
     1
102
RTVSPropertyOp42
 70
     1
102
RTVSPropertyOp43
 70
     1
102
RTVSPropertyOp44
 70
     1
102
RTVSPropertyOp45
 70
     1
102
RTVSPropertyOp46
 70
     1
102
RTVSPropertyOp47
 70
     1
102
RTVSPropertyOp48
 70
     1
102
RTVSPropertyOp49
 70
     1
102
RTVSPropertyOp50
 70
     1
102
RTVSPropertyOp51
 70
     0
102
RTVSPropertyOp52
 70
     0
102
RTVSPropertyOp53
 70
     1
102
RTVSPropertyOp54
 70
     1
102
RTVSPropertyOp55
 70
     1
102
RTVSPropertyOp56
 70
     1
102
RTVSPropertyOp57
 70
     1
102
RTVSPropertyOp58
 70
     1
102
RTVSPropertyOp59
 70
     1
102
RTVSPropertyOp60
 70
     1
102
RTVSPropertyOp61
 70
     1
102
RTVSPropertyOp62
 70
     1
  0
XRECORD
  5
4C5
102
{ACAD_REACTORS
330
4C4
102
}
330
4C4
100
AcDbXrecord
280
     1
102
RTVSPost2010Prop28
280
     0
102
RTVSPost2010PropOp28
 70
     0
102
RTVSPost2010Prop29
280
     1
102
RTVSPost2010PropOp29
 70
     0
102
RTVSPost2010Prop30
280
     1
102
RTVSPost2010PropOp30
 70
     0
102
RTVSPost2010Prop31
280
     0
102
RTVSPost2010PropOp31
 70
     0
102
RTVSPost2010Prop32
280
     0
102
RTVSPost2010PropOp32
 70
     0
102
RTVSPost2010Prop33
280
     0
102
RTVSPost2010PropOp33
 70
     0
102
RTVSPost2010Prop34
280
     0
102
RTVSPost2010PropOp34
 70
     0
102
RTVSPost2010Prop35
280
     0
102
RTVSPost2010PropOp35
 70
     0
102
RTVSPost2010Prop36
280
     0
102
RTVSPost2010PropOp36
 70
     0
102
RTVSPost2010Prop37
 90
       50
102
RTVSPost2010PropOp37
 70
     0
102
RTVSPost2010Prop38
140
0.0
102
RTVSPost2010PropOp38
 70
     0
102
RTVSPost2010Prop39
140
1.0
102
RTVSPost2010PropOp39
 70
     0
102
RTVSPost2010Prop40
 90
        0
102
RTVSPost2010PropOp40
 70
     0
102
RTVSPost2010Prop41ColorIndex
 90
       18
102
RTVSPost2010Prop41ColorRGB
 90
        0
102
RTVSPost2010PropOp41
 70
     0
102
RTVSPost2010Prop42
 90
       50
102
RTVSPost2010PropOp42
 70
     0
102
RTVSPost2010Prop43
 90
        3
102
RTVSPost2010PropOp43
 70
     0
102
RTVSPost2010Prop44ColorIndex
 90
        5
102
RTVSPost2010Prop44ColorRGB
 90
      255
102
RTVSPost2010PropOp44
 70
     0
102
RTVSPost2010Prop45
280
     0
102
RTVSPost2010PropOp45
 70
     0
102
RTVSPost2010Prop46
 90
       50
102
RTVSPost2010PropOp46
 70
     0
102
RTVSPost2010Prop47
 90
       50
102
RTVSPost2010PropOp47
 70
     0
102
RTVSPost2010Prop48
 90
       50
102
RTVSPost2010PropOp48
 70
     0
102
RTVSPost2010Prop49
280
     0
102
RTVSPost2010PropOp49
 70
     0
102
RTVSPost2010Prop50
 90
       50
102
RTVSPost2010PropOp50
 70
     0
102
RTVSPost2010Prop51ColorIndex
 90
      256
102
RTVSPost2010Prop51ColorRGB
 90
-16777216
102
RTVSPost2010PropOp51
 70
     0
102
RTVSPost2010Prop52
140
1.0
102
RTVSPost2010PropOp52
 70
     0
102
RTVSPost2010Prop53
 90
        2
102
RTVSPost2010PropOp53
 70
     0
102
RTVSPost2010Prop54
  1
strokes_ogs.tif
102
RTVSPost2010PropOp54
 70
     0
102
RTVSPost2010Prop55
280
     0
102
RTVSPost2010PropOp55
 70
     0
102
RTVSPost2010Prop56
140
1.0
102
RTVSPost2010PropOp56
 70
     0
102
RTVSPost2010Prop57
140
1.0
102
RTVSPost2010PropOp57
 70
     0
102
RTVSPropertyOp0
 70
     0
102
RTVSPropertyOp1
 70
     0
102
RTVSPropertyOp2
 70
     0
102
RTVSPropertyOp3
 70
     0
102
RTVSPropertyOp4
 70
     0
102
RTVSPropertyOp5
 70
     0
102
RTVSPropertyOp6
 70
     0
102
RTVSPropertyOp7
 70
     0
102
RTVSPropertyOp8
 70
     0
102
RTVSPropertyOp9
 70
     0
102
RTVSPropertyOp10
 70
     0
102
RTVSPropertyOp11
 70
     0
102
RTVSPropertyOp12
 70
     0
102
RTVSPropertyOp13
 70
     0
102
RTVSPropertyOp14
 70
     2
102
RTVSPropertyOp15
 70
     0
102
RTVSPropertyOp16
 70
     0
102
RTVSPropertyOp17
 70
     0
102
RTVSPropertyOp18
 70
     0
102
RTVSPropertyOp19
 70
     0
102
RTVSPropertyOp20
 70
     0
102
RTVSPropertyOp21
 70
     0
102
RTVSPropertyOp22
 70
     0
102
RTVSPropertyOp23
 70
     0
102
RTVSPropertyOp24
 70
     0
102
RTVSPropertyOp25
 70
     0
102
RTVSPropertyOp26
 70
     0
102
RTVSPropertyOp27
 70
     0
102
RTVSPropertyOp28
 70
     0
102
RTVSPropertyOp29
 70
     0
102
RTVSPropertyOp30
 70
     0
102
RTVSPropertyOp31
 70
     0
102
RTVSPropertyOp32
 70
     0
102
RTVSPropertyOp33
 70
     0
102
RTVSPropertyOp34
 70
     0
102
RTVSPropertyOp35
 70
     0
102
RTVSPropertyOp36
 70
     0
102
RTVSPropertyOp37
 70
     0
102
RTVSPropertyOp38
 70
     0
102
RTVSPropertyOp39
 70
     0
102
RTVSPropertyOp40
 70
     0
102
RTVSPropertyOp41
 70
     0
102
RTVSPropertyOp42
 70
     0
102
RTVSPropertyOp43
 70
     0
102
RTVSPropertyOp44
 70
     0
102
RTVSPropertyOp45
 70
     0
102
RTVSPropertyOp46
 70
     0
102
RTVSPropertyOp47
 70
     0
102
RTVSPropertyOp48
 70
     0
102
RTVSPropertyOp49
 70
     0
102
RTVSPropertyOp50
 70
     0
102
RTVSPropertyOp51
 70
     0
102
RTVSPropertyOp52
 70
     0
102
RTVSPropertyOp53
 70
     0
102
RTVSPropertyOp54
 70
     0
102
RTVSPropertyOp55
 70
     0
102
RTVSPropertyOp56
 70
     0
102
RTVSPropertyOp57
 70
     0
102
RTVSPropertyOp58
 70
     1
102
RTVSPropertyOp59
 70
     1
102
RTVSPropertyOp60
 70
     1
102
RTVSPropertyOp61
 70
     1
102
RTVSPropertyOp62
 70
     1
  0
XRECORD
  5
4AB
102
{ACAD_REACTORS
330
4AA
102
}
330
4AA
100
AcDbXrecord
280
     1
102
RTVSPost2010Prop28
280
     0
102
RTVSPost2010PropOp28
 70
     1
102
RTVSPost2010Prop29
280
     1
102
RTVSPost2010PropOp29
 70
     1
102
RTVSPost2010Prop30
280
     1
102
RTVSPost2010PropOp30
 70
     1
102
RTVSPost2010Prop31
280
     0
102
RTVSPost2010PropOp31
 70
     1
102
RTVSPost2010Prop32
280
     0
102
RTVSPost2010PropOp32
 70
     1
102
RTVSPost2010Prop33
280
     0
102
RTVSPost2010PropOp33
 70
     1
102
RTVSPost2010Prop34
280
     0
102
RTVSPost2010PropOp34
 70
     1
102
RTVSPost2010Prop35
280
     0
102
RTVSPost2010PropOp35
 70
     1
102
RTVSPost2010Prop36
280
     0
102
RTVSPost2010PropOp36
 70
     1
102
RTVSPost2010Prop37
 90
       50
102
RTVSPost2010PropOp37
 70
     1
102
RTVSPost2010Prop38
140
0.0
102
RTVSPost2010PropOp38
 70
     1
102
RTVSPost2010Prop39
140
1.0
102
RTVSPost2010PropOp39
 70
     1
102
RTVSPost2010Prop40
 90
        0
102
RTVSPost2010PropOp40
 70
     1
102
RTVSPost2010Prop41ColorIndex
 90
       18
102
RTVSPost2010Prop41ColorRGB
 90
        0
102
RTVSPost2010PropOp41
 70
     1
102
RTVSPost2010Prop42
 90
       50
102
RTVSPost2010PropOp42
 70
     1
102
RTVSPost2010Prop43
 90
        3
102
RTVSPost2010PropOp43
 70
     1
102
RTVSPost2010Prop44ColorIndex
 90
        5
102
RTVSPost2010Prop44ColorRGB
 90
      255
102
RTVSPost2010PropOp44
 70
     1
102
RTVSPost2010Prop45
280
     0
102
RTVSPost2010PropOp45
 70
     1
102
RTVSPost2010Prop46
 90
       50
102
RTVSPost2010PropOp46
 70
     1
102
RTVSPost2010Prop47
 90
       50
102
RTVSPost2010PropOp47
 70
     1
102
RTVSPost2010Prop48
 90
       50
102
RTVSPost2010PropOp48
 70
     1
102
RTVSPost2010Prop49
280
     0
102
RTVSPost2010PropOp49
 70
     1
102
RTVSPost2010Prop50
 90
       50
102
RTVSPost2010PropOp50
 70
     1
102
RTVSPost2010Prop51ColorIndex
 90
      256
102
RTVSPost2010Prop51ColorRGB
 90
-16777216
102
RTVSPost2010PropOp51
 70
     0
102
RTVSPost2010Prop52
140
1.0
102
RTVSPost2010PropOp52
 70
     0
102
RTVSPost2010Prop53
 90
        2
102
RTVSPost2010PropOp53
 70
     1
102
RTVSPost2010Prop54
  1
strokes_ogs.tif
102
RTVSPost2010PropOp54
 70
     1
102
RTVSPost2010Prop55
280
     0
102
RTVSPost2010PropOp55
 70
     1
102
RTVSPost2010Prop56
140
1.0
102
RTVSPost2010PropOp56
 70
     1
102
RTVSPost2010Prop57
140
1.0
102
RTVSPost2010PropOp57
 70
     1
102
RTVSPropertyOp0
 70
     1
102
RTVSPropertyOp1
 70
     1
102
RTVSPropertyOp2
 70
     1
102
RTVSPropertyOp3
 70
     1
102
RTVSPropertyOp4
 70
     1
102
RTVSPropertyOp5
 70
     1
102
RTVSPropertyOp6
 70
     1
102
RTVSPropertyOp7
 70
     1
102
RTVSPropertyOp8
 70
     1
102
RTVSPropertyOp9
 70
     1
102
RTVSPropertyOp10
 70
     1
102
RTVSPropertyOp11
 70
     1
102
RTVSPropertyOp12
 70
     1
102
RTVSPropertyOp13
 70
     1
102
RTVSPropertyOp14
 70
     1
102
RTVSPropertyOp15
 70
     1
102
RTVSPropertyOp16
 70
     1
102
RTVSPropertyOp17
 70
     1
102
RTVSPropertyOp18
 70
     1
102
RTVSPropertyOp19
 70
     1
102
RTVSPropertyOp20
 70
     1
102
RTVSPropertyOp21
 70
     1
102
RTVSPropertyOp22
 70
     1
102
RTVSPropertyOp23
 70
     1
102
RTVSPropertyOp24
 70
     1
102
RTVSPropertyOp25
 70
     1
102
RTVSPropertyOp26
 70
     1
102
RTVSPropertyOp27
 70
     1
102
RTVSPropertyOp28
 70
     1
102
RTVSPropertyOp29
 70
     1
102
RTVSPropertyOp30
 70
     1
102
RTVSPropertyOp31
 70
     1
102
RTVSPropertyOp32
 70
     1
102
RTVSPropertyOp33
 70
     1
102
RTVSPropertyOp34
 70
     1
102
RTVSPropertyOp35
 70
     1
102
RTVSPropertyOp36
 70
     1
102
RTVSPropertyOp37
 70
     1
102
RTVSPropertyOp38
 70
     1
102
RTVSPropertyOp39
 70
     1
102
RTVSPropertyOp40
 70
     1
102
RTVSPropertyOp41
 70
     1
102
RTVSPropertyOp42
 70
     1
102
RTVSPropertyOp43
 70
     1
102
RTVSPropertyOp44
 70
     1
102
RTVSPropertyOp45
 70
     1
102
RTVSPropertyOp46
 70
     1
102
RTVSPropertyOp47
 70
     1
102
RTVSPropertyOp48
 70
     1
102
RTVSPropertyOp49
 70
     1
102
RTVSPropertyOp50
 70
     1
102
RTVSPropertyOp51
 70
     0
102
RTVSPropertyOp52
 70
     0
102
RTVSPropertyOp53
 70
     1
102
RTVSPropertyOp54
 70
     1
102
RTVSPropertyOp55
 70
     1
102
RTVSPropertyOp56
 70
     1
102
RTVSPropertyOp57
 70
     1
102
RTVSPropertyOp58
 70
     1
102
RTVSPropertyOp59
 70
     1
102
RTVSPropertyOp60
 70
     1
102
RTVSPropertyOp61
 70
     1
102
RTVSPropertyOp62
 70
     1
  0
XRECORD
  5
4C1
102
{ACAD_REACTORS
330
4C0
102
}
330
4C0
100
AcDbXrecord
280
     1
102
RTVSPost2010Prop28
280
     0
102
RTVSPost2010PropOp28
 70
     1
102
RTVSPost2010Prop29
280
     1
102
RTVSPost2010PropOp29
 70
     1
102
RTVSPost2010Prop30
280
     1
102
RTVSPost2010PropOp30
 70
     1
102
RTVSPost2010Prop31
280
     0
102
RTVSPost2010PropOp31
 70
     1
102
RTVSPost2010Prop32
280
     0
102
RTVSPost2010PropOp32
 70
     1
102
RTVSPost2010Prop33
280
     0
102
RTVSPost2010PropOp33
 70
     1
102
RTVSPost2010Prop34
280
     0
102
RTVSPost2010PropOp34
 70
     1
102
RTVSPost2010Prop35
280
     0
102
RTVSPost2010PropOp35
 70
     1
102
RTVSPost2010Prop36
280
     0
102
RTVSPost2010PropOp36
 70
     1
102
RTVSPost2010Prop37
 90
       50
102
RTVSPost2010PropOp37
 70
     1
102
RTVSPost2010Prop38
140
0.0
102
RTVSPost2010PropOp38
 70
     1
102
RTVSPost2010Prop39
140
1.0
102
RTVSPost2010PropOp39
 70
     1
102
RTVSPost2010Prop40
 90
        0
102
RTVSPost2010PropOp40
 70
     1
102
RTVSPost2010Prop41ColorIndex
 90
       18
102
RTVSPost2010Prop41ColorRGB
 90
        0
102
RTVSPost2010PropOp41
 70
     1
102
RTVSPost2010Prop42
 90
       50
102
RTVSPost2010PropOp42
 70
     1
102
RTVSPost2010Prop43
 90
        3
102
RTVSPost2010PropOp43
 70
     1
102
RTVSPost2010Prop44ColorIndex
 90
        5
102
RTVSPost2010Prop44ColorRGB
 90
      255
102
RTVSPost2010PropOp44
 70
     1
102
RTVSPost2010Prop45
280
     0
102
RTVSPost2010PropOp45
 70
     1
102
RTVSPost2010Prop46
 90
       50
102
RTVSPost2010PropOp46
 70
     1
102
RTVSPost2010Prop47
 90
       50
102
RTVSPost2010PropOp47
 70
     1
102
RTVSPost2010Prop48
 90
       50
102
RTVSPost2010PropOp48
 70
     1
102
RTVSPost2010Prop49
280
     0
102
RTVSPost2010PropOp49
 70
     1
102
RTVSPost2010Prop50
 90
       50
102
RTVSPost2010PropOp50
 70
     1
102
RTVSPost2010Prop51ColorIndex
 90
      256
102
RTVSPost2010Prop51ColorRGB
 90
-16777216
102
RTVSPost2010PropOp51
 70
     0
102
RTVSPost2010Prop52
140
1.0
102
RTVSPost2010PropOp52
 70
     0
102
RTVSPost2010Prop53
 90
        2
102
RTVSPost2010PropOp53
 70
     1
102
RTVSPost2010Prop54
  1
strokes_ogs.tif
102
RTVSPost2010PropOp54
 70
     1
102
RTVSPost2010Prop55
280
     0
102
RTVSPost2010PropOp55
 70
     1
102
RTVSPost2010Prop56
140
1.0
102
RTVSPost2010PropOp56
 70
     1
102
RTVSPost2010Prop57
140
1.0
102
RTVSPost2010PropOp57
 70
     1
102
RTVSPropertyOp0
 70
     1
102
RTVSPropertyOp1
 70
     1
102
RTVSPropertyOp2
 70
     1
102
RTVSPropertyOp3
 70
     1
102
RTVSPropertyOp4
 70
     1
102
RTVSPropertyOp5
 70
     1
102
RTVSPropertyOp6
 70
     1
102
RTVSPropertyOp7
 70
     1
102
RTVSPropertyOp8
 70
     1
102
RTVSPropertyOp9
 70
     1
102
RTVSPropertyOp10
 70
     1
102
RTVSPropertyOp11
 70
     1
102
RTVSPropertyOp12
 70
     1
102
RTVSPropertyOp13
 70
     1
102
RTVSPropertyOp14
 70
     1
102
RTVSPropertyOp15
 70
     1
102
RTVSPropertyOp16
 70
     1
102
RTVSPropertyOp17
 70
     1
102
RTVSPropertyOp18
 70
     1
102
RTVSPropertyOp19
 70
     1
102
RTVSPropertyOp20
 70
     1
102
RTVSPropertyOp21
 70
     1
102
RTVSPropertyOp22
 70
     1
102
RTVSPropertyOp23
 70
     1
102
RTVSPropertyOp24
 70
     1
102
RTVSPropertyOp25
 70
     1
102
RTVSPropertyOp26
 70
     1
102
RTVSPropertyOp27
 70
     1
102
RTVSPropertyOp28
 70
     1
102
RTVSPropertyOp29
 70
     1
102
RTVSPropertyOp30
 70
     1
102
RTVSPropertyOp31
 70
     1
102
RTVSPropertyOp32
 70
     1
102
RTVSPropertyOp33
 70
     1
102
RTVSPropertyOp34
 70
     1
102
RTVSPropertyOp35
 70
     1
102
RTVSPropertyOp36
 70
     1
102
RTVSPropertyOp37
 70
     1
102
RTVSPropertyOp38
 70
     1
102
RTVSPropertyOp39
 70
     1
102
RTVSPropertyOp40
 70
     1
102
RTVSPropertyOp41
 70
     1
102
RTVSPropertyOp42
 70
     1
102
RTVSPropertyOp43
 70
     1
102
RTVSPropertyOp44
 70
     1
102
RTVSPropertyOp45
 70
     1
102
RTVSPropertyOp46
 70
     1
102
RTVSPropertyOp47
 70
     1
102
RTVSPropertyOp48
 70
     1
102
RTVSPropertyOp49
 70
     1
102
RTVSPropertyOp50
 70
     1
102
RTVSPropertyOp51
 70
     0
102
RTVSPropertyOp52
 70
     0
102
RTVSPropertyOp53
 70
     1
102
RTVSPropertyOp54
 70
     1
102
RTVSPropertyOp55
 70
     1
102
RTVSPropertyOp56
 70
     1
102
RTVSPropertyOp57
 70
     1
102
RTVSPropertyOp58
 70
     1
102
RTVSPropertyOp59
 70
     1
102
RTVSPropertyOp60
 70
     1
102
RTVSPropertyOp61
 70
     1
102
RTVSPropertyOp62
 70
     1
  0
XRECORD
  5
4BF
102
{ACAD_REACTORS
330
4BE
102
}
330
4BE
100
AcDbXrecord
280
     1
102
RTVSPost2010Prop28
280
     0
102
RTVSPost2010PropOp28
 70
     1
102
RTVSPost2010Prop29
280
     1
102
RTVSPost2010PropOp29
 70
     1
102
RTVSPost2010Prop30
280
     1
102
RTVSPost2010PropOp30
 70
     1
102
RTVSPost2010Prop31
280
     0
102
RTVSPost2010PropOp31
 70
     1
102
RTVSPost2010Prop32
280
     0
102
RTVSPost2010PropOp32
 70
     1
102
RTVSPost2010Prop33
280
     0
102
RTVSPost2010PropOp33
 70
     1
102
RTVSPost2010Prop34
280
     0
102
RTVSPost2010PropOp34
 70
     1
102
RTVSPost2010Prop35
280
     0
102
RTVSPost2010PropOp35
 70
     1
102
RTVSPost2010Prop36
280
     0
102
RTVSPost2010PropOp36
 70
     1
102
RTVSPost2010Prop37
 90
       50
102
RTVSPost2010PropOp37
 70
     1
102
RTVSPost2010Prop38
140
0.0
102
RTVSPost2010PropOp38
 70
     1
102
RTVSPost2010Prop39
140
1.0
102
RTVSPost2010PropOp39
 70
     1
102
RTVSPost2010Prop40
 90
        0
102
RTVSPost2010PropOp40
 70
     1
102
RTVSPost2010Prop41ColorIndex
 90
       18
102
RTVSPost2010Prop41ColorRGB
 90
        0
102
RTVSPost2010PropOp41
 70
     1
102
RTVSPost2010Prop42
 90
       50
102
RTVSPost2010PropOp42
 70
     1
102
RTVSPost2010Prop43
 90
        3
102
RTVSPost2010PropOp43
 70
     1
102
RTVSPost2010Prop44ColorIndex
 90
        5
102
RTVSPost2010Prop44ColorRGB
 90
      255
102
RTVSPost2010PropOp44
 70
     1
102
RTVSPost2010Prop45
280
     0
102
RTVSPost2010PropOp45
 70
     1
102
RTVSPost2010Prop46
 90
       50
102
RTVSPost2010PropOp46
 70
     1
102
RTVSPost2010Prop47
 90
       50
102
RTVSPost2010PropOp47
 70
     1
102
RTVSPost2010Prop48
 90
       50
102
RTVSPost2010PropOp48
 70
     1
102
RTVSPost2010Prop49
280
     0
102
RTVSPost2010PropOp49
 70
     1
102
RTVSPost2010Prop50
 90
       50
102
RTVSPost2010PropOp50
 70
     1
102
RTVSPost2010Prop51ColorIndex
 90
      256
102
RTVSPost2010Prop51ColorRGB
 90
-16777216
102
RTVSPost2010PropOp51
 70
     0
102
RTVSPost2010Prop52
140
1.0
102
RTVSPost2010PropOp52
 70
     0
102
RTVSPost2010Prop53
 90
        2
102
RTVSPost2010PropOp53
 70
     1
102
RTVSPost2010Prop54
  1
strokes_ogs.tif
102
RTVSPost2010PropOp54
 70
     1
102
RTVSPost2010Prop55
280
     0
102
RTVSPost2010PropOp55
 70
     1
102
RTVSPost2010Prop56
140
1.0
102
RTVSPost2010PropOp56
 70
     1
102
RTVSPost2010Prop57
140
1.0
102
RTVSPost2010PropOp57
 70
     1
102
RTVSPropertyOp0
 70
     1
102
RTVSPropertyOp1
 70
     1
102
RTVSPropertyOp2
 70
     1
102
RTVSPropertyOp3
 70
     1
102
RTVSPropertyOp4
 70
     1
102
RTVSPropertyOp5
 70
     1
102
RTVSPropertyOp6
 70
     1
102
RTVSPropertyOp7
 70
     1
102
RTVSPropertyOp8
 70
     1
102
RTVSPropertyOp9
 70
     1
102
RTVSPropertyOp10
 70
     1
102
RTVSPropertyOp11
 70
     1
102
RTVSPropertyOp12
 70
     1
102
RTVSPropertyOp13
 70
     1
102
RTVSPropertyOp14
 70
     1
102
RTVSPropertyOp15
 70
     1
102
RTVSPropertyOp16
 70
     1
102
RTVSPropertyOp17
 70
     1
102
RTVSPropertyOp18
 70
     1
102
RTVSPropertyOp19
 70
     1
102
RTVSPropertyOp20
 70
     1
102
RTVSPropertyOp21
 70
     1
102
RTVSPropertyOp22
 70
     1
102
RTVSPropertyOp23
 70
     1
102
RTVSPropertyOp24
 70
     1
102
RTVSPropertyOp25
 70
     1
102
RTVSPropertyOp26
 70
     1
102
RTVSPropertyOp27
 70
     1
102
RTVSPropertyOp28
 70
     1
102
RTVSPropertyOp29
 70
     1
102
RTVSPropertyOp30
 70
     1
102
RTVSPropertyOp31
 70
     1
102
RTVSPropertyOp32
 70
     1
102
RTVSPropertyOp33
 70
     1
102
RTVSPropertyOp34
 70
     1
102
RTVSPropertyOp35
 70
     1
102
RTVSPropertyOp36
 70
     1
102
RTVSPropertyOp37
 70
     1
102
RTVSPropertyOp38
 70
     1
102
RTVSPropertyOp39
 70
     1
102
RTVSPropertyOp40
 70
     1
102
RTVSPropertyOp41
 70
     1
102
RTVSPropertyOp42
 70
     1
102
RTVSPropertyOp43
 70
     1
102
RTVSPropertyOp44
 70
     1
102
RTVSPropertyOp45
 70
     1
102
RTVSPropertyOp46
 70
     1
102
RTVSPropertyOp47
 70
     1
102
RTVSPropertyOp48
 70
     1
102
RTVSPropertyOp49
 70
     1
102
RTVSPropertyOp50
 70
     1
102
RTVSPropertyOp51
 70
     0
102
RTVSPropertyOp52
 70
     0
102
RTVSPropertyOp53
 70
     1
102
RTVSPropertyOp54
 70
     1
102
RTVSPropertyOp55
 70
     1
102
RTVSPropertyOp56
 70
     1
102
RTVSPropertyOp57
 70
     1
102
RTVSPropertyOp58
 70
     1
102
RTVSPropertyOp59
 70
     1
102
RTVSPropertyOp60
 70
     1
102
RTVSPropertyOp61
 70
     1
102
RTVSPropertyOp62
 70
     1
  0
XRECORD
  5
4B9
102
{ACAD_REACTORS
330
4B8
102
}
330
4B8
100
AcDbXrecord
280
     1
102
RTVSPost2010Prop28
280
     0
102
RTVSPost2010PropOp28
 70
     1
102
RTVSPost2010Prop29
280
     1
102
RTVSPost2010PropOp29
 70
     1
102
RTVSPost2010Prop30
280
     1
102
RTVSPost2010PropOp30
 70
     1
102
RTVSPost2010Prop31
280
     0
102
RTVSPost2010PropOp31
 70
     1
102
RTVSPost2010Prop32
280
     0
102
RTVSPost2010PropOp32
 70
     1
102
RTVSPost2010Prop33
280
     0
102
RTVSPost2010PropOp33
 70
     1
102
RTVSPost2010Prop34
280
     0
102
RTVSPost2010PropOp34
 70
     1
102
RTVSPost2010Prop35
280
     0
102
RTVSPost2010PropOp35
 70
     1
102
RTVSPost2010Prop36
280
     0
102
RTVSPost2010PropOp36
 70
     1
102
RTVSPost2010Prop37
 90
       50
102
RTVSPost2010PropOp37
 70
     1
102
RTVSPost2010Prop38
140
0.0
102
RTVSPost2010PropOp38
 70
     1
102
RTVSPost2010Prop39
140
1.0
102
RTVSPost2010PropOp39
 70
     1
102
RTVSPost2010Prop40
 90
        0
102
RTVSPost2010PropOp40
 70
     1
102
RTVSPost2010Prop41ColorIndex
 90
       18
102
RTVSPost2010Prop41ColorRGB
 90
        0
102
RTVSPost2010PropOp41
 70
     1
102
RTVSPost2010Prop42
 90
       50
102
RTVSPost2010PropOp42
 70
     1
102
RTVSPost2010Prop43
 90
        3
102
RTVSPost2010PropOp43
 70
     1
102
RTVSPost2010Prop44ColorIndex
 90
        5
102
RTVSPost2010Prop44ColorRGB
 90
      255
102
RTVSPost2010PropOp44
 70
     1
102
RTVSPost2010Prop45
280
     0
102
RTVSPost2010PropOp45
 70
     1
102
RTVSPost2010Prop46
 90
       50
102
RTVSPost2010PropOp46
 70
     1
102
RTVSPost2010Prop47
 90
       50
102
RTVSPost2010PropOp47
 70
     1
102
RTVSPost2010Prop48
 90
       50
102
RTVSPost2010PropOp48
 70
     1
102
RTVSPost2010Prop49
280
     0
102
RTVSPost2010PropOp49
 70
     1
102
RTVSPost2010Prop50
 90
       50
102
RTVSPost2010PropOp50
 70
     1
102
RTVSPost2010Prop51ColorIndex
 90
      256
102
RTVSPost2010Prop51ColorRGB
 90
-16777216
102
RTVSPost2010PropOp51
 70
     0
102
RTVSPost2010Prop52
140
1.0
102
RTVSPost2010PropOp52
 70
     0
102
RTVSPost2010Prop53
 90
        2
102
RTVSPost2010PropOp53
 70
     1
102
RTVSPost2010Prop54
  1
strokes_ogs.tif
102
RTVSPost2010PropOp54
 70
     1
102
RTVSPost2010Prop55
280
     0
102
RTVSPost2010PropOp55
 70
     1
102
RTVSPost2010Prop56
140
1.0
102
RTVSPost2010PropOp56
 70
     1
102
RTVSPost2010Prop57
140
1.0
102
RTVSPost2010PropOp57
 70
     1
102
RTVSPropertyOp0
 70
     1
102
RTVSPropertyOp1
 70
     1
102
RTVSPropertyOp2
 70
     1
102
RTVSPropertyOp3
 70
     1
102
RTVSPropertyOp4
 70
     1
102
RTVSPropertyOp5
 70
     1
102
RTVSPropertyOp6
 70
     1
102
RTVSPropertyOp7
 70
     1
102
RTVSPropertyOp8
 70
     1
102
RTVSPropertyOp9
 70
     1
102
RTVSPropertyOp10
 70
     1
102
RTVSPropertyOp11
 70
     1
102
RTVSPropertyOp12
 70
     1
102
RTVSPropertyOp13
 70
     1
102
RTVSPropertyOp14
 70
     1
102
RTVSPropertyOp15
 70
     1
102
RTVSPropertyOp16
 70
     1
102
RTVSPropertyOp17
 70
     1
102
RTVSPropertyOp18
 70
     1
102
RTVSPropertyOp19
 70
     1
102
RTVSPropertyOp20
 70
     1
102
RTVSPropertyOp21
 70
     1
102
RTVSPropertyOp22
 70
     1
102
RTVSPropertyOp23
 70
     1
102
RTVSPropertyOp24
 70
     1
102
RTVSPropertyOp25
 70
     1
102
RTVSPropertyOp26
 70
     1
102
RTVSPropertyOp27
 70
     1
102
RTVSPropertyOp28
 70
     1
102
RTVSPropertyOp29
 70
     1
102
RTVSPropertyOp30
 70
     1
102
RTVSPropertyOp31
 70
     1
102
RTVSPropertyOp32
 70
     1
102
RTVSPropertyOp33
 70
     1
102
RTVSPropertyOp34
 70
     1
102
RTVSPropertyOp35
 70
     1
102
RTVSPropertyOp36
 70
     1
102
RTVSPropertyOp37
 70
     1
102
RTVSPropertyOp38
 70
     1
102
RTVSPropertyOp39
 70
     1
102
RTVSPropertyOp40
 70
     1
102
RTVSPropertyOp41
 70
     1
102
RTVSPropertyOp42
 70
     1
102
RTVSPropertyOp43
 70
     1
102
RTVSPropertyOp44
 70
     1
102
RTVSPropertyOp45
 70
     1
102
RTVSPropertyOp46
 70
     1
102
RTVSPropertyOp47
 70
     1
102
RTVSPropertyOp48
 70
     1
102
RTVSPropertyOp49
 70
     1
102
RTVSPropertyOp50
 70
     1
102
RTVSPropertyOp51
 70
     0
102
RTVSPropertyOp52
 70
     0
102
RTVSPropertyOp53
 70
     1
102
RTVSPropertyOp54
 70
     1
102
RTVSPropertyOp55
 70
     1
102
RTVSPropertyOp56
 70
     1
102
RTVSPropertyOp57
 70
     1
102
RTVSPropertyOp58
 70
     1
102
RTVSPropertyOp59
 70
     1
102
RTVSPropertyOp60
 70
     1
102
RTVSPropertyOp61
 70
     1
102
RTVSPropertyOp62
 70
     1
  0
XRECORD
  5
4BB
102
{ACAD_REACTORS
330
4BA
102
}
330
4BA
100
AcDbXrecord
280
     1
102
RTVSPost2010Prop28
280
     0
102
RTVSPost2010PropOp28
 70
     1
102
RTVSPost2010Prop29
280
     1
102
RTVSPost2010PropOp29
 70
     1
102
RTVSPost2010Prop30
280
     1
102
RTVSPost2010PropOp30
 70
     1
102
RTVSPost2010Prop31
280
     0
102
RTVSPost2010PropOp31
 70
     1
102
RTVSPost2010Prop32
280
     0
102
RTVSPost2010PropOp32
 70
     1
102
RTVSPost2010Prop33
280
     0
102
RTVSPost2010PropOp33
 70
     1
102
RTVSPost2010Prop34
280
     0
102
RTVSPost2010PropOp34
 70
     1
102
RTVSPost2010Prop35
280
     0
102
RTVSPost2010PropOp35
 70
     1
102
RTVSPost2010Prop36
280
     0
102
RTVSPost2010PropOp36
 70
     1
102
RTVSPost2010Prop37
 90
       50
102
RTVSPost2010PropOp37
 70
     1
102
RTVSPost2010Prop38
140
0.0
102
RTVSPost2010PropOp38
 70
     1
102
RTVSPost2010Prop39
140
1.0
102
RTVSPost2010PropOp39
 70
     1
102
RTVSPost2010Prop40
 90
        0
102
RTVSPost2010PropOp40
 70
     1
102
RTVSPost2010Prop41ColorIndex
 90
       18
102
RTVSPost2010Prop41ColorRGB
 90
        0
102
RTVSPost2010PropOp41
 70
     1
102
RTVSPost2010Prop42
 90
       50
102
RTVSPost2010PropOp42
 70
     1
102
RTVSPost2010Prop43
 90
        3
102
RTVSPost2010PropOp43
 70
     1
102
RTVSPost2010Prop44ColorIndex
 90
        5
102
RTVSPost2010Prop44ColorRGB
 90
      255
102
RTVSPost2010PropOp44
 70
     1
102
RTVSPost2010Prop45
280
     0
102
RTVSPost2010PropOp45
 70
     1
102
RTVSPost2010Prop46
 90
       50
102
RTVSPost2010PropOp46
 70
     1
102
RTVSPost2010Prop47
 90
       50
102
RTVSPost2010PropOp47
 70
     1
102
RTVSPost2010Prop48
 90
       50
102
RTVSPost2010PropOp48
 70
     1
102
RTVSPost2010Prop49
280
     0
102
RTVSPost2010PropOp49
 70
     1
102
RTVSPost2010Prop50
 90
       50
102
RTVSPost2010PropOp50
 70
     1
102
RTVSPost2010Prop51ColorIndex
 90
      256
102
RTVSPost2010Prop51ColorRGB
 90
-16777216
102
RTVSPost2010PropOp51
 70
     0
102
RTVSPost2010Prop52
140
1.0
102
RTVSPost2010PropOp52
 70
     0
102
RTVSPost2010Prop53
 90
        2
102
RTVSPost2010PropOp53
 70
     1
102
RTVSPost2010Prop54
  1
strokes_ogs.tif
102
RTVSPost2010PropOp54
 70
     1
102
RTVSPost2010Prop55
280
     0
102
RTVSPost2010PropOp55
 70
     1
102
RTVSPost2010Prop56
140
1.0
102
RTVSPost2010PropOp56
 70
     1
102
RTVSPost2010Prop57
140
1.0
102
RTVSPost2010PropOp57
 70
     1
102
RTVSPropertyOp0
 70
     1
102
RTVSPropertyOp1
 70
     1
102
RTVSPropertyOp2
 70
     1
102
RTVSPropertyOp3
 70
     1
102
RTVSPropertyOp4
 70
     1
102
RTVSPropertyOp5
 70
     1
102
RTVSPropertyOp6
 70
     1
102
RTVSPropertyOp7
 70
     1
102
RTVSPropertyOp8
 70
     1
102
RTVSPropertyOp9
 70
     1
102
RTVSPropertyOp10
 70
     1
102
RTVSPropertyOp11
 70
     1
102
RTVSPropertyOp12
 70
     1
102
RTVSPropertyOp13
 70
     1
102
RTVSPropertyOp14
 70
     1
102
RTVSPropertyOp15
 70
     1
102
RTVSPropertyOp16
 70
     1
102
RTVSPropertyOp17
 70
     1
102
RTVSPropertyOp18
 70
     1
102
RTVSPropertyOp19
 70
     1
102
RTVSPropertyOp20
 70
     1
102
RTVSPropertyOp21
 70
     1
102
RTVSPropertyOp22
 70
     1
102
RTVSPropertyOp23
 70
     1
102
RTVSPropertyOp24
 70
     1
102
RTVSPropertyOp25
 70
     1
102
RTVSPropertyOp26
 70
     1
102
RTVSPropertyOp27
 70
     1
102
RTVSPropertyOp28
 70
     1
102
RTVSPropertyOp29
 70
     1
102
RTVSPropertyOp30
 70
     1
102
RTVSPropertyOp31
 70
     1
102
RTVSPropertyOp32
 70
     1
102
RTVSPropertyOp33
 70
     1
102
RTVSPropertyOp34
 70
     1
102
RTVSPropertyOp35
 70
     1
102
RTVSPropertyOp36
 70
     1
102
RTVSPropertyOp37
 70
     1
102
RTVSPropertyOp38
 70
     1
102
RTVSPropertyOp39
 70
     1
102
RTVSPropertyOp40
 70
     1
102
RTVSPropertyOp41
 70
     1
102
RTVSPropertyOp42
 70
     1
102
RTVSPropertyOp43
 70
     1
102
RTVSPropertyOp44
 70
     1
102
RTVSPropertyOp45
 70
     1
102
RTVSPropertyOp46
 70
     1
102
RTVSPropertyOp47
 70
     1
102
RTVSPropertyOp48
 70
     1
102
RTVSPropertyOp49
 70
     1
102
RTVSPropertyOp50
 70
     1
102
RTVSPropertyOp51
 70
     0
102
RTVSPropertyOp52
 70
     0
102
RTVSPropertyOp53
 70
     1
102
RTVSPropertyOp54
 70
     1
102
RTVSPropertyOp55
 70
     1
102
RTVSPropertyOp56
 70
     1
102
RTVSPropertyOp57
 70
     1
102
RTVSPropertyOp58
 70
     1
102
RTVSPropertyOp59
 70
     1
102
RTVSPropertyOp60
 70
     1
102
RTVSPropertyOp61
 70
     1
102
RTVSPropertyOp62
 70
     1
  0
XRECORD
  5
4B1
102
{ACAD_REACTORS
330
4B0
102
}
330
4B0
100
AcDbXrecord
280
     1
102
RTVSPost2010Prop28
280
     0
102
RTVSPost2010PropOp28
 70
     1
102
RTVSPost2010Prop29
280
     1
102
RTVSPost2010PropOp29
 70
     1
102
RTVSPost2010Prop30
280
     1
102
RTVSPost2010PropOp30
 70
     1
102
RTVSPost2010Prop31
280
     0
102
RTVSPost2010PropOp31
 70
     1
102
RTVSPost2010Prop32
280
     0
102
RTVSPost2010PropOp32
 70
     1
102
RTVSPost2010Prop33
280
     0
102
RTVSPost2010PropOp33
 70
     1
102
RTVSPost2010Prop34
280
     0
102
RTVSPost2010PropOp34
 70
     1
102
RTVSPost2010Prop35
280
     0
102
RTVSPost2010PropOp35
 70
     1
102
RTVSPost2010Prop36
280
     0
102
RTVSPost2010PropOp36
 70
     1
102
RTVSPost2010Prop37
 90
       50
102
RTVSPost2010PropOp37
 70
     1
102
RTVSPost2010Prop38
140
0.0
102
RTVSPost2010PropOp38
 70
     1
102
RTVSPost2010Prop39
140
1.0
102
RTVSPost2010PropOp39
 70
     1
102
RTVSPost2010Prop40
 90
        0
102
RTVSPost2010PropOp40
 70
     1
102
RTVSPost2010Prop41ColorIndex
 90
       18
102
RTVSPost2010Prop41ColorRGB
 90
        0
102
RTVSPost2010PropOp41
 70
     1
102
RTVSPost2010Prop42
 90
       50
102
RTVSPost2010PropOp42
 70
     1
102
RTVSPost2010Prop43
 90
        3
102
RTVSPost2010PropOp43
 70
     1
102
RTVSPost2010Prop44ColorIndex
 90
        5
102
RTVSPost2010Prop44ColorRGB
 90
      255
102
RTVSPost2010PropOp44
 70
     1
102
RTVSPost2010Prop45
280
     0
102
RTVSPost2010PropOp45
 70
     1
102
RTVSPost2010Prop46
 90
       50
102
RTVSPost2010PropOp46
 70
     1
102
RTVSPost2010Prop47
 90
       50
102
RTVSPost2010PropOp47
 70
     1
102
RTVSPost2010Prop48
 90
       50
102
RTVSPost2010PropOp48
 70
     1
102
RTVSPost2010Prop49
280
     0
102
RTVSPost2010PropOp49
 70
     1
102
RTVSPost2010Prop50
 90
       50
102
RTVSPost2010PropOp50
 70
     1
102
RTVSPost2010Prop51ColorIndex
 90
      256
102
RTVSPost2010Prop51ColorRGB
 90
-16777216
102
RTVSPost2010PropOp51
 70
     0
102
RTVSPost2010Prop52
140
1.0
102
RTVSPost2010PropOp52
 70
     0
102
RTVSPost2010Prop53
 90
        2
102
RTVSPost2010PropOp53
 70
     1
102
RTVSPost2010Prop54
  1
strokes_ogs.tif
102
RTVSPost2010PropOp54
 70
     1
102
RTVSPost2010Prop55
280
     0
102
RTVSPost2010PropOp55
 70
     1
102
RTVSPost2010Prop56
140
1.0
102
RTVSPost2010PropOp56
 70
     1
102
RTVSPost2010Prop57
140
1.0
102
RTVSPost2010PropOp57
 70
     1
102
RTVSPropertyOp0
 70
     1
102
RTVSPropertyOp1
 70
     1
102
RTVSPropertyOp2
 70
     1
102
RTVSPropertyOp3
 70
     1
102
RTVSPropertyOp4
 70
     1
102
RTVSPropertyOp5
 70
     1
102
RTVSPropertyOp6
 70
     1
102
RTVSPropertyOp7
 70
     1
102
RTVSPropertyOp8
 70
     1
102
RTVSPropertyOp9
 70
     1
102
RTVSPropertyOp10
 70
     1
102
RTVSPropertyOp11
 70
     1
102
RTVSPropertyOp12
 70
     1
102
RTVSPropertyOp13
 70
     1
102
RTVSPropertyOp14
 70
     1
102
RTVSPropertyOp15
 70
     1
102
RTVSPropertyOp16
 70
     1
102
RTVSPropertyOp17
 70
     1
102
RTVSPropertyOp18
 70
     1
102
RTVSPropertyOp19
 70
     1
102
RTVSPropertyOp20
 70
     1
102
RTVSPropertyOp21
 70
     1
102
RTVSPropertyOp22
 70
     1
102
RTVSPropertyOp23
 70
     1
102
RTVSPropertyOp24
 70
     1
102
RTVSPropertyOp25
 70
     1
102
RTVSPropertyOp26
 70
     1
102
RTVSPropertyOp27
 70
     1
102
RTVSPropertyOp28
 70
     1
102
RTVSPropertyOp29
 70
     1
102
RTVSPropertyOp30
 70
     1
102
RTVSPropertyOp31
 70
     1
102
RTVSPropertyOp32
 70
     1
102
RTVSPropertyOp33
 70
     1
102
RTVSPropertyOp34
 70
     1
102
RTVSPropertyOp35
 70
     1
102
RTVSPropertyOp36
 70
     1
102
RTVSPropertyOp37
 70
     1
102
RTVSPropertyOp38
 70
     1
102
RTVSPropertyOp39
 70
     1
102
RTVSPropertyOp40
 70
     1
102
RTVSPropertyOp41
 70
     1
102
RTVSPropertyOp42
 70
     1
102
RTVSPropertyOp43
 70
     1
102
RTVSPropertyOp44
 70
     1
102
RTVSPropertyOp45
 70
     1
102
RTVSPropertyOp46
 70
     1
102
RTVSPropertyOp47
 70
     1
102
RTVSPropertyOp48
 70
     1
102
RTVSPropertyOp49
 70
     1
102
RTVSPropertyOp50
 70
     1
102
RTVSPropertyOp51
 70
     0
102
RTVSPropertyOp52
 70
     0
102
RTVSPropertyOp53
 70
     1
102
RTVSPropertyOp54
 70
     1
102
RTVSPropertyOp55
 70
     1
102
RTVSPropertyOp56
 70
     1
102
RTVSPropertyOp57
 70
     1
102
RTVSPropertyOp58
 70
     1
102
RTVSPropertyOp59
 70
     1
102
RTVSPropertyOp60
 70
     1
102
RTVSPropertyOp61
 70
     1
102
RTVSPropertyOp62
 70
     1
  0
XRECORD
  5
4A5
102
{ACAD_REACTORS
330
4A4
102
}
330
4A4
100
AcDbXrecord
280
     1
102
RTVSPost2010Prop28
280
     0
102
RTVSPost2010PropOp28
 70
     1
102
RTVSPost2010Prop29
280
     1
102
RTVSPost2010PropOp29
 70
     1
102
RTVSPost2010Prop30
280
     1
102
RTVSPost2010PropOp30
 70
     1
102
RTVSPost2010Prop31
280
     0
102
RTVSPost2010PropOp31
 70
     1
102
RTVSPost2010Prop32
280
     0
102
RTVSPost2010PropOp32
 70
     1
102
RTVSPost2010Prop33
280
     0
102
RTVSPost2010PropOp33
 70
     1
102
RTVSPost2010Prop34
280
     0
102
RTVSPost2010PropOp34
 70
     1
102
RTVSPost2010Prop35
280
     0
102
RTVSPost2010PropOp35
 70
     1
102
RTVSPost2010Prop36
280
     0
102
RTVSPost2010PropOp36
 70
     1
102
RTVSPost2010Prop37
 90
       50
102
RTVSPost2010PropOp37
 70
     1
102
RTVSPost2010Prop38
140
0.0
102
RTVSPost2010PropOp38
 70
     1
102
RTVSPost2010Prop39
140
1.0
102
RTVSPost2010PropOp39
 70
     1
102
RTVSPost2010Prop40
 90
        0
102
RTVSPost2010PropOp40
 70
     1
102
RTVSPost2010Prop41ColorIndex
 90
       18
102
RTVSPost2010Prop41ColorRGB
 90
        0
102
RTVSPost2010PropOp41
 70
     1
102
RTVSPost2010Prop42
 90
       50
102
RTVSPost2010PropOp42
 70
     1
102
RTVSPost2010Prop43
 90
        3
102
RTVSPost2010PropOp43
 70
     1
102
RTVSPost2010Prop44ColorIndex
 90
        5
102
RTVSPost2010Prop44ColorRGB
 90
      255
102
RTVSPost2010PropOp44
 70
     1
102
RTVSPost2010Prop45
280
     0
102
RTVSPost2010PropOp45
 70
     1
102
RTVSPost2010Prop46
 90
       50
102
RTVSPost2010PropOp46
 70
     1
102
RTVSPost2010Prop47
 90
       50
102
RTVSPost2010PropOp47
 70
     1
102
RTVSPost2010Prop48
 90
       50
102
RTVSPost2010PropOp48
 70
     1
102
RTVSPost2010Prop49
280
     0
102
RTVSPost2010PropOp49
 70
     1
102
RTVSPost2010Prop50
 90
       50
102
RTVSPost2010PropOp50
 70
     1
102
RTVSPost2010Prop51ColorIndex
 90
      256
102
RTVSPost2010Prop51ColorRGB
 90
-16777216
102
RTVSPost2010PropOp51
 70
     0
102
RTVSPost2010Prop52
140
1.0
102
RTVSPost2010PropOp52
 70
     0
102
RTVSPost2010Prop53
 90
        2
102
RTVSPost2010PropOp53
 70
     1
102
RTVSPost2010Prop54
  1
strokes_ogs.tif
102
RTVSPost2010PropOp54
 70
     1
102
RTVSPost2010Prop55
280
     0
102
RTVSPost2010PropOp55
 70
     1
102
RTVSPost2010Prop56
140
1.0
102
RTVSPost2010PropOp56
 70
     1
102
RTVSPost2010Prop57
140
1.0
102
RTVSPost2010PropOp57
 70
     1
102
RTVSPropertyOp0
 70
     1
102
RTVSPropertyOp1
 70
     1
102
RTVSPropertyOp2
 70
     1
102
RTVSPropertyOp3
 70
     1
102
RTVSPropertyOp4
 70
     1
102
RTVSPropertyOp5
 70
     1
102
RTVSPropertyOp6
 70
     1
102
RTVSPropertyOp7
 70
     1
102
RTVSPropertyOp8
 70
     1
102
RTVSPropertyOp9
 70
     1
102
RTVSPropertyOp10
 70
     1
102
RTVSPropertyOp11
 70
     1
102
RTVSPropertyOp12
 70
     1
102
RTVSPropertyOp13
 70
     1
102
RTVSPropertyOp14
 70
     1
102
RTVSPropertyOp15
 70
     1
102
RTVSPropertyOp16
 70
     1
102
RTVSPropertyOp17
 70
     1
102
RTVSPropertyOp18
 70
     1
102
RTVSPropertyOp19
 70
     1
102
RTVSPropertyOp20
 70
     1
102
RTVSPropertyOp21
 70
     1
102
RTVSPropertyOp22
 70
     1
102
RTVSPropertyOp23
 70
     1
102
RTVSPropertyOp24
 70
     1
102
RTVSPropertyOp25
 70
     1
102
RTVSPropertyOp26
 70
     1
102
RTVSPropertyOp27
 70
     1
102
RTVSPropertyOp28
 70
     1
102
RTVSPropertyOp29
 70
     1
102
RTVSPropertyOp30
 70
     1
102
RTVSPropertyOp31
 70
     1
102
RTVSPropertyOp32
 70
     1
102
RTVSPropertyOp33
 70
     1
102
RTVSPropertyOp34
 70
     1
102
RTVSPropertyOp35
 70
     1
102
RTVSPropertyOp36
 70
     1
102
RTVSPropertyOp37
 70
     1
102
RTVSPropertyOp38
 70
     1
102
RTVSPropertyOp39
 70
     1
102
RTVSPropertyOp40
 70
     1
102
RTVSPropertyOp41
 70
     1
102
RTVSPropertyOp42
 70
     1
102
RTVSPropertyOp43
 70
     1
102
RTVSPropertyOp44
 70
     1
102
RTVSPropertyOp45
 70
     1
102
RTVSPropertyOp46
 70
     1
102
RTVSPropertyOp47
 70
     1
102
RTVSPropertyOp48
 70
     1
102
RTVSPropertyOp49
 70
     1
102
RTVSPropertyOp50
 70
     1
102
RTVSPropertyOp51
 70
     0
102
RTVSPropertyOp52
 70
     0
102
RTVSPropertyOp53
 70
     1
102
RTVSPropertyOp54
 70
     1
102
RTVSPropertyOp55
 70
     1
102
RTVSPropertyOp56
 70
     1
102
RTVSPropertyOp57
 70
     1
102
RTVSPropertyOp58
 70
     1
102
RTVSPropertyOp59
 70
     1
102
RTVSPropertyOp60
 70
     1
102
RTVSPropertyOp61
 70
     1
102
RTVSPropertyOp62
 70
     1
  0
XRECORD
  5
4BD
102
{ACAD_REACTORS
330
4BC
102
}
330
4BC
100
AcDbXrecord
280
     1
102
RTVSPost2010Prop28
280
     0
102
RTVSPost2010PropOp28
 70
     1
102
RTVSPost2010Prop29
280
     1
102
RTVSPost2010PropOp29
 70
     1
102
RTVSPost2010Prop30
280
     1
102
RTVSPost2010PropOp30
 70
     1
102
RTVSPost2010Prop31
280
     0
102
RTVSPost2010PropOp31
 70
     1
102
RTVSPost2010Prop32
280
     0
102
RTVSPost2010PropOp32
 70
     1
102
RTVSPost2010Prop33
280
     0
102
RTVSPost2010PropOp33
 70
     1
102
RTVSPost2010Prop34
280
     0
102
RTVSPost2010PropOp34
 70
     1
102
RTVSPost2010Prop35
280
     0
102
RTVSPost2010PropOp35
 70
     1
102
RTVSPost2010Prop36
280
     0
102
RTVSPost2010PropOp36
 70
     1
102
RTVSPost2010Prop37
 90
       50
102
RTVSPost2010PropOp37
 70
     1
102
RTVSPost2010Prop38
140
0.0
102
RTVSPost2010PropOp38
 70
     1
102
RTVSPost2010Prop39
140
1.0
102
RTVSPost2010PropOp39
 70
     1
102
RTVSPost2010Prop40
 90
        0
102
RTVSPost2010PropOp40
 70
     1
102
RTVSPost2010Prop41ColorIndex
 90
       18
102
RTVSPost2010Prop41ColorRGB
 90
        0
102
RTVSPost2010PropOp41
 70
     1
102
RTVSPost2010Prop42
 90
       50
102
RTVSPost2010PropOp42
 70
     1
102
RTVSPost2010Prop43
 90
        3
102
RTVSPost2010PropOp43
 70
     1
102
RTVSPost2010Prop44ColorIndex
 90
        5
102
RTVSPost2010Prop44ColorRGB
 90
      255
102
RTVSPost2010PropOp44
 70
     1
102
RTVSPost2010Prop45
280
     0
102
RTVSPost2010PropOp45
 70
     1
102
RTVSPost2010Prop46
 90
       50
102
RTVSPost2010PropOp46
 70
     1
102
RTVSPost2010Prop47
 90
       50
102
RTVSPost2010PropOp47
 70
     1
102
RTVSPost2010Prop48
 90
       50
102
RTVSPost2010PropOp48
 70
     1
102
RTVSPost2010Prop49
280
     0
102
RTVSPost2010PropOp49
 70
     1
102
RTVSPost2010Prop50
 90
       50
102
RTVSPost2010PropOp50
 70
     1
102
RTVSPost2010Prop51ColorIndex
 90
      256
102
RTVSPost2010Prop51ColorRGB
 90
-16777216
102
RTVSPost2010PropOp51
 70
     0
102
RTVSPost2010Prop52
140
1.0
102
RTVSPost2010PropOp52
 70
     0
102
RTVSPost2010Prop53
 90
        2
102
RTVSPost2010PropOp53
 70
     1
102
RTVSPost2010Prop54
  1
strokes_ogs.tif
102
RTVSPost2010PropOp54
 70
     1
102
RTVSPost2010Prop55
280
     0
102
RTVSPost2010PropOp55
 70
     1
102
RTVSPost2010Prop56
140
1.0
102
RTVSPost2010PropOp56
 70
     1
102
RTVSPost2010Prop57
140
1.0
102
RTVSPost2010PropOp57
 70
     1
102
RTVSPropertyOp0
 70
     1
102
RTVSPropertyOp1
 70
     1
102
RTVSPropertyOp2
 70
     1
102
RTVSPropertyOp3
 70
     1
102
RTVSPropertyOp4
 70
     1
102
RTVSPropertyOp5
 70
     1
102
RTVSPropertyOp6
 70
     1
102
RTVSPropertyOp7
 70
     1
102
RTVSPropertyOp8
 70
     1
102
RTVSPropertyOp9
 70
     1
102
RTVSPropertyOp10
 70
     1
102
RTVSPropertyOp11
 70
     1
102
RTVSPropertyOp12
 70
     1
102
RTVSPropertyOp13
 70
     1
102
RTVSPropertyOp14
 70
     1
102
RTVSPropertyOp15
 70
     1
102
RTVSPropertyOp16
 70
     1
102
RTVSPropertyOp17
 70
     1
102
RTVSPropertyOp18
 70
     1
102
RTVSPropertyOp19
 70
     1
102
RTVSPropertyOp20
 70
     1
102
RTVSPropertyOp21
 70
     1
102
RTVSPropertyOp22
 70
     1
102
RTVSPropertyOp23
 70
     1
102
RTVSPropertyOp24
 70
     1
102
RTVSPropertyOp25
 70
     1
102
RTVSPropertyOp26
 70
     1
102
RTVSPropertyOp27
 70
     1
102
RTVSPropertyOp28
 70
     1
102
RTVSPropertyOp29
 70
     1
102
RTVSPropertyOp30
 70
     1
102
RTVSPropertyOp31
 70
     1
102
RTVSPropertyOp32
 70
     1
102
RTVSPropertyOp33
 70
     1
102
RTVSPropertyOp34
 70
     1
102
RTVSPropertyOp35
 70
     1
102
RTVSPropertyOp36
 70
     1
102
RTVSPropertyOp37
 70
     1
102
RTVSPropertyOp38
 70
     1
102
RTVSPropertyOp39
 70
     1
102
RTVSPropertyOp40
 70
     1
102
RTVSPropertyOp41
 70
     1
102
RTVSPropertyOp42
 70
     1
102
RTVSPropertyOp43
 70
     1
102
RTVSPropertyOp44
 70
     1
102
RTVSPropertyOp45
 70
     1
102
RTVSPropertyOp46
 70
     1
102
RTVSPropertyOp47
 70
     1
102
RTVSPropertyOp48
 70
     1
102
RTVSPropertyOp49
 70
     1
102
RTVSPropertyOp50
 70
     1
102
RTVSPropertyOp51
 70
     0
102
RTVSPropertyOp52
 70
     0
102
RTVSPropertyOp53
 70
     1
102
RTVSPropertyOp54
 70
     1
102
RTVSPropertyOp55
 70
     1
102
RTVSPropertyOp56
 70
     1
102
RTVSPropertyOp57
 70
     1
102
RTVSPropertyOp58
 70
     1
102
RTVSPropertyOp59
 70
     1
102
RTVSPropertyOp60
 70
     1
102
RTVSPropertyOp61
 70
     1
102
RTVSPropertyOp62
 70
     1
  0
ENDSEC
  0
EOF
