  0
SECTION
  2
HEADER
  9
$ACADVER
  1
AC1015
  9
$ACADMAINTVER
 70
    20
  9
$DWGCODEPAGE
  3
ANSI_932
  9
$INSBASE
 10
0.0
 20
246.4992141396417
 30
0.0
  9
$EXTMIN
 10
1.986521349105714
 20
131.4151243049609
 30
-0.0000000000112498
  9
$EXTMAX
 10
127.0485631669221
 20
244.5388617592525
 30
0.0000000000002956
  9
$LIMMIN
 10
-1101.784450318844
 20
-1579.160531687244
  9
$LIMMAX
 10
-508.2420711400537
 20
-1161.440814074914
  9
$ORTHOMODE
 70
     0
  9
$REGENMODE
 70
     1
  9
$FILLMODE
 70
     1
  9
$QTEXTMODE
 70
     0
  9
$MIRRTEXT
 70
     1
  9
$LTSCALE
 40
1.0
  9
$ATTMODE
 70
     1
  9
$TEXTSIZE
 40
2.5
  9
$TRACEWID
 40
0.5
  9
$TEXTSTYLE
  7
STANDARD
  9
$CLAYER
  8
GAIKEI
  9
$CELTYPE
  6
ByLayer
  9
$CECOLOR
 62
   256
  9
$CELTSCALE
 40
1.0
  9
$DISPSILH
 70
     0
  9
$DIMSCALE
 40
1.0
  9
$DIMASZ
 40
2.0
  9
$DIMEXO
 40
2.0
  9
$DIMDLI
 40
8.0
  9
$DIMRND
 40
0.0
  9
$DIMDLE
 40
0.0
  9
$DIMEXE
 40
2.0
  9
$DIMTP
 40
0.0
  9
$DIMTM
 40
0.0
  9
$DIMTXT
 40
2.5
  9
$DIMCEN
 40
0.0
  9
$DIMTSZ
 40
0.0
  9
$DIMTOL
 70
     0
  9
$DIMLIM
 70
     0
  9
$DIMTIH
 70
     0
  9
$DIMTOH
 70
     0
  9
$DIMSE1
 70
     0
  9
$DIMSE2
 70
     0
  9
$DIMTAD
 70
     3
  9
$DIMZIN
 70
     0
  9
$DIMBLK
  1

  9
$DIMASO
 70
     1
  9
$DIMSHO
 70
     1
  9
$DIMPOST
  1

  9
$DIMAPOST
  1

  9
$DIMALT
 70
     0
  9
$DIMALTD
 70
     2
  9
$DIMALTF
 40
25.4
  9
$DIMLFAC
 40
1.0
  9
$DIMTOFL
 70
     1
  9
$DIMTVP
 40
0.0
  9
$DIMTIX
 70
     0
  9
$DIMSOXD
 70
     0
  9
$DIMSAH
 70
     1
  9
$DIMBLK1
  1
OPEN30
  9
$DIMBLK2
  1
OPEN30
  9
$DIMSTYLE
  2
STANDARD
  9
$DIMCLRD
 70
     0
  9
$DIMCLRE
 70
     0
  9
$DIMCLRT
 70
     0
  9
$DIMTFAC
 40
1.0
  9
$DIMGAP
 40
0.5
  9
$DIMJUST
 70
     0
  9
$DIMSD1
 70
     0
  9
$DIMSD2
 70
     0
  9
$DIMTOLJ
 70
     1
  9
$DIMTZIN
 70
     0
  9
$DIMALTZ
 70
     0
  9
$DIMALTTZ
 70
     0
  9
$DIMUPT
 70
     0
  9
$DIMDEC
 70
     4
  9
$DIMTDEC
 70
     4
  9
$DIMALTU
 70
     2
  9
$DIMALTTD
 70
     2
  9
$DIMTXSTY
  7
STANDARD
  9
$DIMAUNIT
 70
     0
  9
$DIMADEC
 70
     0
  9
$DIMALTRND
 40
0.0
  9
$DIMAZIN
 70
     0
  9
$DIMDSEP
 70
    46
  9
$DIMATFIT
 70
     3
  9
$DIMFRAC
 70
     0
  9
$DIMLDRBLK
  1

  9
$DIMLUNIT
 70
     2
  9
$DIMLWD
 70
    -2
  9
$DIMLWE
 70
    -2
  9
$DIMTMOVE
 70
     0
  9
$LUNITS
 70
     2
  9
$LUPREC
 70
     4
  9
$SKETCHINC
 40
0.1
  9
$FILLETRAD
 40
0.0
  9
$AUNITS
 70
     0
  9
$AUPREC
 70
     0
  9
$MENU
  1
ACAD
  9
$ELEVATION
 40
0.0
  9
$PELEVATION
 40
0.0
  9
$THICKNESS
 40
0.0
  9
$LIMCHECK
 70
     0
  9
$CHAMFERA
 40
0.0
  9
$CHAMFERB
 40
0.0
  9
$CHAMFERC
 40
0.0
  9
$CHAMFERD
 40
0.0
  9
$SKPOLY
 70
     0
  9
$TDCREATE
 40
2451815.565532581
  9
$TDUCREATE
 40
2451815.190532581
  9
$TDUPDATE
 40
2453731.480633495
  9
$TDUUPDATE
 40
2453731.105633496
  9
$TDINDWG
 40
0.5105127778
  9
$TDUSRTIMER
 40
0.5105125926
  9
$USRTIMER
 70
     1
  9
$ANGBASE
 50
0.0
  9
$ANGDIR
 70
     0
  9
$PDMODE
 70
     0
  9
$PDSIZE
 40
0.0
  9
$PLINEWID
 40
0.0
  9
$SPLFRAME
 70
     0
  9
$SPLINETYPE
 70
     6
  9
$SPLINESEGS
 70
     8
  9
$HANDSEED
  5
2A9
  9
$SURFTAB1
 70
     6
  9
$SURFTAB2
 70
     6
  9
$SURFTYPE
 70
     6
  9
$SURFU
 70
     6
  9
$SURFV
 70
     6
  9
$UCSBASE
  2

  9
$UCSNAME
  2

  9
$UCSORG
 10
0.0
 20
0.0
 30
0.0
  9
$UCSXDIR
 10
1.0
 20
0.0
 30
0.0
  9
$UCSYDIR
 10
0.0
 20
1.0
 30
0.0
  9
$UCSORTHOREF
  2

  9
$UCSORTHOVIEW
 70
     0
  9
$UCSORGTOP
 10
0.0
 20
0.0
 30
0.0
  9
$UCSORGBOTTOM
 10
0.0
 20
0.0
 30
0.0
  9
$UCSORGLEFT
 10
0.0
 20
0.0
 30
0.0
  9
$UCSORGRIGHT
 10
0.0
 20
0.0
 30
0.0
  9
$UCSORGFRONT
 10
0.0
 20
0.0
 30
0.0
  9
$UCSORGBACK
 10
0.0
 20
0.0
 30
0.0
  9
$PUCSBASE
  2

  9
$PUCSNAME
  2

  9
$PUCSORG
 10
0.0
 20
0.0
 30
0.0
  9
$PUCSXDIR
 10
1.0
 20
0.0
 30
0.0
  9
$PUCSYDIR
 10
0.0
 20
1.0
 30
0.0
  9
$PUCSORTHOREF
  2

  9
$PUCSORTHOVIEW
 70
     0
  9
$PUCSORGTOP
 10
0.0
 20
0.0
 30
0.0
  9
$PUCSORGBOTTOM
 10
0.0
 20
0.0
 30
0.0
  9
$PUCSORGLEFT
 10
0.0
 20
0.0
 30
0.0
  9
$PUCSORGRIGHT
 10
0.0
 20
0.0
 30
0.0
  9
$PUCSORGFRONT
 10
0.0
 20
0.0
 30
0.0
  9
$PUCSORGBACK
 10
0.0
 20
0.0
 30
0.0
  9
$USERI1
 70
     0
  9
$USERI2
 70
     0
  9
$USERI3
 70
     0
  9
$USERI4
 70
     0
  9
$USERI5
 70
     0
  9
$USERR1
 40
0.0
  9
$USERR2
 40
0.0
  9
$USERR3
 40
0.0
  9
$USERR4
 40
0.0
  9
$USERR5
 40
0.0
  9
$WORLDVIEW
 70
     1
  9
$SHADEDGE
 70
     3
  9
$SHADEDIF
 70
    70
  9
$TILEMODE
 70
     1
  9
$MAXACTVP
 70
    48
  9
$PINSBASE
 10
0.0
 20
0.0
 30
0.0
  9
$PLIMCHECK
 70
     0
  9
$PEXTMIN
 10
1.000000000000000E+20
 20
1.000000000000000E+20
 30
1.000000000000000E+20
  9
$PEXTMAX
 10
-1.000000000000000E+20
 20
-1.000000000000000E+20
 30
-1.000000000000000E+20
  9
$PLIMMIN
 10
0.0
 20
0.0
  9
$PLIMMAX
 10
12.0
 20
9.0
  9
$UNITMODE
 70
     0
  9
$VISRETAIN
 70
     1
  9
$PLINEGEN
 70
     0
  9
$PSLTSCALE
 70
     1
  9
$TREEDEPTH
 70
  3020
  9
$CMLSTYLE
  2
Standard
  9
$CMLJUST
 70
     0
  9
$CMLSCALE
 40
1.0
  9
$PROXYGRAPHICS
 70
     1
  9
$MEASUREMENT
 70
     0
  9
$CELWEIGHT
370
    -1
  9
$ENDCAPS
280
     0
  9
$JOINSTYLE
280
     0
  9
$LWDISPLAY
290
     0
  9
$INSUNITS
 70
     0
  9
$HYPERLINKBASE
  1

  9
$STYLESHEET
  1

  9
$XEDIT
290
     1
  9
$CEPSNTYPE
380
     0
  9
$PSTYLEMODE
290
     1
  9
$FINGERPRINTGUID
  2
{221CA447-C84B-4C09-A03A-8237EF18A09F}
  9
$VERSIONGUID
  2
{78951A19-787E-4BB6-9DC6-7BC5D1C988E8}
  9
$EXTNAMES
290
     1
  9
$PSVPSCALE
 40
0.0
  9
$OLESTARTUP
290
     0
  0
ENDSEC
  0
SECTION
  2
CLASSES
  0
CLASS
  1
ACDBDICTIONARYWDFLT
  2
AcDbDictionaryWithDefault
  3
ObjectDBX Classes
 90
        0
280
     0
281
     0
  0
CLASS
  1
DICTIONARYVAR
  2
AcDbDictionaryVar
  3
ObjectDBX Classes
 90
        0
280
     0
281
     0
  0
CLASS
  1
ACDBPLACEHOLDER
  2
AcDbPlaceHolder
  3
ObjectDBX Classes
 90
        0
280
     0
281
     0
  0
CLASS
  1
LAYOUT
  2
AcDbLayout
  3
ObjectDBX Classes
 90
        0
280
     0
281
     0
  0
ENDSEC
  0
SECTION
  2
TABLES
  0
TABLE
  2
VPORT
  5
228
330
0
100
AcDbSymbolTable
 70
     2
  0
VPORT
  5
2A0
330
228
100
AcDbSymbolTableRecord
100
AcDbViewportTableRecord
  2
*Active
 70
     0
 10
0.0
 20
0.0
 11
1.0
 21
1.0
 12
64.51754225801392
 22
187.9769930321067
 13
0.0
 23
0.0
 14
1.0
 24
1.0
 15
0.0
 25
0.0
 16
0.0
 26
0.0
 36
1.0
 17
0.0
 27
0.0
 37
0.0
 40
114.0933694896141
 41
1.589413447782546
 42
50.0
 43
0.0
 44
0.0
 50
0.0
 51
0.0
 71
     0
 72
  1000
 73
     1
 74
     0
 75
     0
 76
     1
 77
     0
 78
     0
281
     0
 65
     1
110
0.0
120
0.0
130
0.0
111
1.0
121
0.0
131
0.0
112
0.0
122
1.0
132
0.0
 79
     0
146
0.0
  0
ENDTAB
  0
TABLE
  2
LTYPE
  5
225
330
0
100
AcDbSymbolTable
 70
     1
  0
LTYPE
  5
233
330
225
100
AcDbSymbolTableRecord
100
AcDbLinetypeTableRecord
  2
ByBlock
 70
     0
  3

 72
    65
 73
     0
 40
0.0
  0
LTYPE
  5
234
330
225
100
AcDbSymbolTableRecord
100
AcDbLinetypeTableRecord
  2
ByLayer
 70
     0
  3

 72
    65
 73
     0
 40
0.0
  0
LTYPE
  5
235
330
225
100
AcDbSymbolTableRecord
100
AcDbLinetypeTableRecord
  2
CONTINUOUS
 70
     0
  3
Solid line
 72
    65
 73
     0
 40
0.0
  0
ENDTAB
  0
TABLE
  2
LAYER
  5
222
330
0
100
AcDbSymbolTable
 70
     7
  0
LAYER
  5
230
330
222
100
AcDbSymbolTableRecord
100
AcDbLayerTableRecord
  2
0
 70
     0
 62
     7
  6
CONTINUOUS
370
    -3
390
22F
  0
LAYER
  5
244
330
222
100
AcDbSymbolTableRecord
100
AcDbLayerTableRecord
  2
GAIKEI
 70
     0
 62
     7
  6
CONTINUOUS
370
    -3
390
22F
  0
LAYER
  5
246
330
222
100
AcDbSymbolTableRecord
100
AcDbLayerTableRecord
  2
DEFPOINTS
 70
     0
 62
     7
  6
CONTINUOUS
290
     0
370
    -3
390
22F
  0
LAYER
  5
247
330
222
100
AcDbSymbolTableRecord
100
AcDbLayerTableRecord
  2
WAKU
 70
     0
 62
     4
  6
CONTINUOUS
370
    -3
390
22F
  0
LAYER
  5
248
330
222
100
AcDbSymbolTableRecord
100
AcDbLayerTableRecord
  2
MOJI1
 70
     0
 62
     2
  6
CONTINUOUS
370
    -3
390
22F
  0
LAYER
  5
249
330
222
100
AcDbSymbolTableRecord
100
AcDbLayerTableRecord
  2
SUNPO
 70
     0
 62
     3
  6
CONTINUOUS
370
    -3
390
22F
  0
LAYER
  5
24A
330
222
100
AcDbSymbolTableRecord
100
AcDbLayerTableRecord
  2
TOUROKU
 70
     0
 62
     1
  6
CONTINUOUS
370
    -3
390
22F
  0
ENDTAB
  0
TABLE
  2
STYLE
  5
223
330
0
100
AcDbSymbolTable
 70
     1
  0
STYLE
  5
231
330
223
100
AcDbSymbolTableRecord
100
AcDbTextStyleTableRecord
  2
STANDARD
 70
     0
 40
0.0
 41
1.0
 50
0.0
 71
     0
 42
2.5
  3
MONOTXT.shx
  4
BIGFONT.shx
  0
ENDTAB
  0
TABLE
  2
VIEW
  5
226
330
0
100
AcDbSymbolTable
 70
     0
  0
ENDTAB
  0
TABLE
  2
UCS
  5
227
330
0
100
AcDbSymbolTable
 70
     0
  0
ENDTAB
  0
TABLE
  2
APPID
  5
229
330
0
100
AcDbSymbolTable
 70
     1
  0
APPID
  5
232
330
229
100
AcDbSymbolTableRecord
100
AcDbRegAppTableRecord
  2
ACAD
 70
     0
  0
ENDTAB
  0
TABLE
  2
DIMSTYLE
  5
22A
330
0
100
AcDbSymbolTable
 70
     1
100
AcDbDimStyleTable
 71
     1
340
24C
  0
DIMSTYLE
105
24C
102
{ACAD_REACTORS
330
99
330
8C
330
57
330
40
102
}
330
22A
100
AcDbSymbolTableRecord
100
AcDbDimStyleTableRecord
  2
STANDARD
 70
     0
 40
0.0
 41
2.0
 42
2.0
 43
8.0
 44
2.0
 73
     0
 74
     0
 77
     3
140
3.0
141
0.0
173
     1
279
     2
340
231
  0
ENDTAB
  0
TABLE
  2
BLOCK_RECORD
  5
221
330
0
100
AcDbSymbolTable
 70
     5
  0
BLOCK_RECORD
  5
240
330
221
100
AcDbSymbolTableRecord
100
AcDbBlockTableRecord
  2
*Model_Space
340
243
  0
BLOCK_RECORD
  5
23C
330
221
100
AcDbSymbolTableRecord
100
AcDbBlockTableRecord
  2
*Paper_Space
340
23F
  0
BLOCK_RECORD
  5
253
330
221
100
AcDbSymbolTableRecord
100
AcDbBlockTableRecord
  2
_OPEN30
340
0
102
{BLKREFS
331
262
331
263
331
26E
331
26F
331
27B
331
27C
331
287
331
288
102
}
  0
BLOCK_RECORD
  5
25E
330
221
100
AcDbSymbolTableRecord
100
AcDbBlockTableRecord
  2
*D1
340
0
  0
BLOCK_RECORD
  5
26A
330
221
100
AcDbSymbolTableRecord
100
AcDbBlockTableRecord
  2
*D2
340
0
  0
BLOCK_RECORD
  5
276
330
221
100
AcDbSymbolTableRecord
100
AcDbBlockTableRecord
  2
*D3
340
0
  0
BLOCK_RECORD
  5
283
330
221
100
AcDbSymbolTableRecord
100
AcDbBlockTableRecord
  2
*D4
340
0
  0
ENDTAB
  0
ENDSEC
  0
SECTION
  2
BLOCKS
  0
BLOCK
  5
241
330
240
100
AcDbEntity
  8
0
100
AcDbBlockBegin
  2
*Model_Space
 70
     0
 10
0.0
 20
0.0
 30
0.0
  3
*Model_Space
  1

  0
ENDBLK
  5
242
330
240
100
AcDbEntity
  8
0
100
AcDbBlockEnd
  0
BLOCK
  5
23D
330
23C
100
AcDbEntity
 67
     1
  8
0
100
AcDbBlockBegin
  2
*Paper_Space
 70
     0
 10
0.0
 20
0.0
 30
0.0
  3
*Paper_Space
  1

  0
ENDBLK
  5
23E
330
23C
100
AcDbEntity
 67
     1
  8
0
100
AcDbBlockEnd
  0
BLOCK
  5
254
330
253
100
AcDbEntity
  8
0
100
AcDbBlockBegin
  2
_OPEN30
 70
     0
 10
0.0
 20
0.0
 30
0.0
  3
_OPEN30
  1

  0
LINE
  5
48
330
253
100
AcDbEntity
  8
0
  6
ByBlock
 62
     0
100
AcDbLine
 10
-1.0
 20
0.26794919
 30
0.0
 11
0.0
 21
0.0
 31
0.0
  0
LINE
  5
49
330
253
100
AcDbEntity
  8
0
  6
ByBlock
 62
     0
100
AcDbLine
 10
0.0
 20
0.0
 30
0.0
 11
-1.0
 21
-0.26794919
 31
0.0
  0
LINE
  5
4A
330
253
100
AcDbEntity
  8
0
  6
ByBlock
 62
     0
100
AcDbLine
 10
0.0
 20
0.0
 30
0.0
 11
-1.0
 21
0.0
 31
0.0
  0
ENDBLK
  5
4C
330
253
100
AcDbEntity
  8
0
100
AcDbBlockEnd
  0
BLOCK
  5
268
330
25E
100
AcDbEntity
  8
0
100
AcDbBlockBegin
  2
*D1
 70
     1
 10
0.0
 20
0.0
 30
0.0
  3
*D1
  1

  0
LINE
  5
25F
330
25E
100
AcDbEntity
  8
SUNPO
 62
     0
370
    -2
100
AcDbLine
 10
54.50932928075656
 20
178.5730824047798
 30
0.0
 11
62.50932928075667
 21
178.5730824047798
 31
0.0
  0
LINE
  5
260
330
25E
100
AcDbEntity
  8
SUNPO
 62
     0
370
    -2
100
AcDbLine
 10
54.50932928075667
 20
204.5730820047798
 30
0.0
 11
62.50932928075667
 21
204.5730820047798
 31
0.0
  0
LINE
  5
261
330
25E
100
AcDbEntity
  8
SUNPO
 62
     0
370
    -2
100
AcDbLine
 10
60.50932928075667
 20
180.5730824047798
 30
0.0
 11
60.50932928075667
 21
202.5730820047798
 31
0.0
  0
INSERT
  5
262
330
25E
100
AcDbEntity
  8
SUNPO
 62
     0
370
    -2
100
AcDbBlockReference
  2
_OPEN30
 10
60.50932928075667
 20
178.5730824047798
 30
0.0
 41
2.0
 42
2.0
 43
2.0
 50
270.0
  0
INSERT
  5
263
330
25E
100
AcDbEntity
  8
SUNPO
 62
     0
370
    -2
100
AcDbBlockReference
  2
_OPEN30
 10
60.50932928075667
 20
204.5730820047798
 30
0.0
 41
2.0
 42
2.0
 43
2.0
 50
90.0
  0
MTEXT
  5
264
330
25E
100
AcDbEntity
  8
SUNPO
 62
     0
100
AcDbMText
 10
58.75932928075664
 20
191.5730822047798
 30
0.0
 40
2.5
 41
0.0
 71
     5
 72
     1
  1
\A1;130
 11
0.0000000000000001
 21
1.0
 31
0.0
 73
     1
 44
1.0
1001
ACAD
1000
MTEXTBEGIN
1070
    73
1070
     1
1070
    44
1040
1.0
1070
    74
1070
     0
1000
MTEXTEND
  0
POINT
  5
265
330
25E
100
AcDbEntity
  8
DEFPOINTS
 62
     0
100
AcDbPoint
 10
52.50932928075656
 20
178.5730824047798
 30
0.0
  0
POINT
  5
266
330
25E
100
AcDbEntity
  8
DEFPOINTS
 62
     0
100
AcDbPoint
 10
52.50932928075667
 20
204.5730820047798
 30
0.0
  0
POINT
  5
267
330
25E
100
AcDbEntity
  8
DEFPOINTS
 62
     0
100
AcDbPoint
 10
60.50932928075667
 20
204.5730820047798
 30
0.0
  0
ENDBLK
  5
269
330
25E
100
AcDbEntity
  8
0
100
AcDbBlockEnd
  0
BLOCK
  5
274
330
26A
100
AcDbEntity
  8
0
100
AcDbBlockBegin
  2
*D2
 70
     1
 10
0.0
 20
0.0
 30
0.0
  3
*D2
  1

  0
LINE
  5
26B
330
26A
100
AcDbEntity
  8
SUNPO
 62
     0
370
    -2
100
AcDbLine
 10
54.50932928075656
 20
204.5730820047798
 30
0.0
 11
62.50932928075665
 21
204.5730820047798
 31
0.0
  0
LINE
  5
26C
330
26A
100
AcDbEntity
  8
SUNPO
 62
     0
370
    -2
100
AcDbLine
 10
54.50932928075667
 20
232.5757024047798
 30
0.0
 11
62.50932928075667
 21
232.5757024047798
 31
0.0
  0
LINE
  5
26D
330
26A
100
AcDbEntity
  8
SUNPO
 62
     0
370
    -2
100
AcDbLine
 10
60.50932928075667
 20
206.5730820047798
 30
0.0
 11
60.50932928075667
 21
230.5757024047798
 31
0.0
  0
INSERT
  5
26E
330
26A
100
AcDbEntity
  8
SUNPO
 62
     0
370
    -2
100
AcDbBlockReference
  2
_OPEN30
 10
60.50932928075667
 20
204.5730820047798
 30
0.0
 41
2.0
 42
2.0
 43
2.0
 50
270.0
  0
INSERT
  5
26F
330
26A
100
AcDbEntity
  8
SUNPO
 62
     0
370
    -2
100
AcDbBlockReference
  2
_OPEN30
 10
60.50932928075667
 20
232.5757024047798
 30
0.0
 41
2.0
 42
2.0
 43
2.0
 50
90.0
  0
MTEXT
  5
270
330
26A
100
AcDbEntity
  8
SUNPO
 62
     0
100
AcDbMText
 10
58.75932928075664
 20
218.5743922047798
 30
0.0
 40
2.5
 41
0.0
 71
     5
 72
     1
  1
\A1;140
 11
0.0000000000000001
 21
1.0
 31
0.0
 73
     1
 44
1.0
1001
ACAD
1000
MTEXTBEGIN
1070
    73
1070
     1
1070
    44
1040
1.0
1070
    74
1070
     0
1000
MTEXTEND
  0
POINT
  5
271
330
26A
100
AcDbEntity
  8
DEFPOINTS
 62
     0
100
AcDbPoint
 10
52.50932928075656
 20
204.5730820047798
 30
0.0
  0
POINT
  5
272
330
26A
100
AcDbEntity
  8
DEFPOINTS
 62
     0
100
AcDbPoint
 10
52.50932928075667
 20
232.5757024047798
 30
0.0
  0
POINT
  5
273
330
26A
100
AcDbEntity
  8
DEFPOINTS
 62
     0
100
AcDbPoint
 10
60.50932928075667
 20
232.5757024047798
 30
0.0
  0
ENDBLK
  5
275
330
26A
100
AcDbEntity
  8
0
100
AcDbBlockEnd
  0
BLOCK
  5
281
330
276
100
AcDbEntity
  8
0
100
AcDbBlockBegin
  2
*D3
 70
     1
 10
0.0
 20
0.0
 30
0.0
  3
*D3
  1

  0
LINE
  5
277
330
276
100
AcDbEntity
  8
SUNPO
 62
     0
370
    -2
100
AcDbLine
 10
79.45364590744311
 20
176.5990366247724
 30
0.0
 11
79.45364590744311
 21
168.5990366247724
 31
0.0
  0
LINE
  5
278
330
276
100
AcDbEntity
  8
SUNPO
 62
     0
370
    -2
100
AcDbLine
 10
84.95364590744312
 20
176.5990366247724
 30
0.0
 11
84.95364590744312
 21
168.5990366247724
 31
0.0
  0
LINE
  5
279
330
276
100
AcDbEntity
  8
SUNPO
 62
     0
370
    -2
100
AcDbLine
 10
81.45364590744312
 20
170.5990366247724
 30
0.0
 11
82.95364590744311
 21
170.5990366247724
 31
0.0
  0
LINE
  5
27A
330
276
100
AcDbEntity
  8
SUNPO
 62
     0
370
    -2
100
AcDbLine
 10
84.95364590744312
 20
170.5990366247724
 30
0.0
 11
97.12031257410981
 21
170.5990366247724
 31
0.0
  0
INSERT
  5
27B
330
276
100
AcDbEntity
  8
SUNPO
 62
     0
370
    -2
100
AcDbBlockReference
  2
_OPEN30
 10
79.45364590744311
 20
170.5990366247724
 30
0.0
 41
2.0
 42
2.0
 43
2.0
 50
180.0
  0
INSERT
  5
27C
330
276
100
AcDbEntity
  8
SUNPO
 62
     0
370
    -2
100
AcDbBlockReference
  2
_OPEN30
 10
84.95364590744312
 20
170.5990366247724
 30
0.0
 41
2.0
 42
2.0
 43
2.0
  0
MTEXT
  5
27D
330
276
100
AcDbEntity
  8
SUNPO
 62
     0
100
AcDbMText
 10
92.03697924077644
 20
172.3490366247724
 30
0.0
 40
2.5
 41
0.0
 71
     5
 72
     1
  1
\A1;27.5
 73
     1
 44
1.0
1001
ACAD
1000
MTEXTBEGIN
1070
    73
1070
     1
1070
    44
1040
1.0
1070
    74
1070
     0
1000
MTEXTEND
  0
POINT
  5
27E
330
276
100
AcDbEntity
  8
DEFPOINTS
 62
     0
100
AcDbPoint
 10
79.45364590744311
 20
178.5990366247724
 30
0.0
  0
POINT
  5
27F
330
276
100
AcDbEntity
  8
DEFPOINTS
 62
     0
100
AcDbPoint
 10
84.95364590744312
 20
178.5990366247724
 30
0.0
  0
POINT
  5
280
330
276
100
AcDbEntity
  8
DEFPOINTS
 62
     0
100
AcDbPoint
 10
84.95364590744312
 20
170.5990366247724
 30
0.0
  0
ENDBLK
  5
282
330
276
100
AcDbEntity
  8
0
100
AcDbBlockEnd
  0
BLOCK
  5
28D
330
283
100
AcDbEntity
  8
0
100
AcDbBlockBegin
  2
*D4
 70
     1
 10
0.0
 20
0.0
 30
0.0
  3
*D4
  1

  0
LINE
  5
284
330
283
100
AcDbEntity
  8
SUNPO
 62
     0
370
    -2
100
AcDbLine
 10
38.10459732659568
 20
176.5990366247724
 30
0.0
 11
38.10459732659568
 21
168.5990366247724
 31
0.0
  0
LINE
  5
285
330
283
100
AcDbEntity
  8
SUNPO
 62
     0
370
    -2
100
AcDbLine
 10
52.50460592659564
 20
176.5990366247724
 30
0.0
 11
52.50460592659564
 21
168.5990366247724
 31
0.0
  0
LINE
  5
286
330
283
100
AcDbEntity
  8
SUNPO
 62
     0
370
    -2
100
AcDbLine
 10
40.10459732659567
 20
170.5990366247724
 30
0.0
 11
50.50460592659564
 21
170.5990366247724
 31
0.0
  0
INSERT
  5
287
330
283
100
AcDbEntity
  8
SUNPO
 62
     0
370
    -2
100
AcDbBlockReference
  2
_OPEN30
 10
38.10459732659568
 20
170.5990366247724
 30
0.0
 41
2.0
 42
2.0
 43
2.0
 50
180.0
  0
INSERT
  5
288
330
283
100
AcDbEntity
  8
SUNPO
 62
     0
370
    -2
100
AcDbBlockReference
  2
_OPEN30
 10
52.50460592659564
 20
170.5990366247724
 30
0.0
 41
2.0
 42
2.0
 43
2.0
  0
MTEXT
  5
289
330
283
100
AcDbEntity
  8
SUNPO
 62
     0
100
AcDbMText
 10
45.30460162659564
 20
172.3490366247724
 30
0.0
 40
2.5
 41
0.0
 71
     5
 72
     1
  1
\A1;72
 73
     1
 44
1.0
1001
ACAD
1000
MTEXTBEGIN
1070
    73
1070
     1
1070
    44
1040
1.0
1070
    74
1070
     0
1000
MTEXTEND
  0
POINT
  5
28A
330
283
100
AcDbEntity
  8
DEFPOINTS
 62
     0
100
AcDbPoint
 10
38.10459732659568
 20
178.5990366247724
 30
0.0
  0
POINT
  5
28B
330
283
100
AcDbEntity
  8
DEFPOINTS
 62
     0
100
AcDbPoint
 10
52.50460592659564
 20
178.5990366247724
 30
0.0
  0
POINT
  5
28C
330
283
100
AcDbEntity
  8
DEFPOINTS
 62
     0
100
AcDbPoint
 10
52.50460592659564
 20
170.5990366247724
 30
0.0
  0
ENDBLK
  5
28E
330
283
100
AcDbEntity
  8
0
100
AcDbBlockEnd
  0
ENDSEC
  0
SECTION
  2
ENTITIES
  0
TEXT
  5
29
330
240
100
AcDbEntity
  8
MOJI1
100
AcDbText
 10
28.99999999999989
 20
240.4992141396417
 30
0.0
 40
4.0
  1
センタートランシーバー
100
AcDbText
  0
TEXT
  5
2B
330
240
100
AcDbEntity
  8
TOUROKU
100
AcDbText
 10
110.866616699594
 20
234.4992141396418
 30
0.0
 40
2.0
  1
ＷＸＣＴ１０Ａ
 72
     2
 11
126.9999500329273
 21
234.4992141396418
 31
0.0
100
AcDbText
  0
LINE
  5
2D
330
240
100
AcDbEntity
  8
WAKU
 62
     1
100
AcDbLine
 10
2.0
 20
161.4992141396414
 30
0.0
 11
127.0
 21
161.4992141396414
 31
0.0
  0
LINE
  5
2F
330
240
100
AcDbEntity
  8
WAKU
 62
     1
100
AcDbLine
 10
2.0
 20
156.4992141396414
 30
0.0
 11
127.0
 21
156.4992141396414
 31
0.0
  0
LINE
  5
30
330
240
100
AcDbEntity
  8
WAKU
 62
     1
100
AcDbLine
 10
2.0
 20
151.4992141396414
 30
0.0
 11
127.0
 21
151.4992141396414
 31
0.0
  0
LINE
  5
31
330
240
100
AcDbEntity
  8
WAKU
 62
     4
100
AcDbLine
 10
127.0
 20
166.4992141396414
 30
0.0
 11
2.0
 21
166.4992141396414
 31
0.0
  0
LINE
  5
32
330
240
100
AcDbEntity
  8
WAKU
 62
     1
100
AcDbLine
 10
2.0
 20
146.4992141396414
 30
0.0
 11
127.0
 21
146.4992141396414
 31
0.0
  0
LINE
  5
33
330
240
100
AcDbEntity
  8
WAKU
 62
     1
100
AcDbLine
 10
2.0
 20
141.4992141396414
 30
0.0
 11
127.0
 21
141.4992141396414
 31
0.0
  0
LINE
  5
34
330
240
100
AcDbEntity
  8
WAKU
 62
     1
100
AcDbLine
 10
2.0
 20
136.4992141396414
 30
0.0
 11
127.0
 21
136.4992141396414
 31
0.0
  0
LINE
  5
35
330
240
100
AcDbEntity
  8
WAKU
 62
     4
100
AcDbLine
 10
2.0
 20
131.4992141396414
 30
0.0
 11
127.0
 21
131.4992141396414
 31
0.0
  0
LINE
  5
36
330
240
100
AcDbEntity
  8
WAKU
 62
     4
100
AcDbLine
 10
2.0
 20
166.4992141396414
 30
0.0
 11
2.0
 21
131.4992141396414
 31
0.0
  0
TEXT
  5
37
330
240
100
AcDbEntity
  8
MOJI1
100
AcDbText
 10
44.5
 20
157.4992141396414
 30
0.0
 40
3.0
  1
（センターユニット又はＡＣアダプタ－より供給）
100
AcDbText
  0
ARC
  5
38
330
240
100
AcDbEntity
  8
GAIKEI
  6
Continuous
100
AcDbCircle
 10
79.65364585426991
 20
178.6017558608126
 30
0.0
 40
0.1999999468268
100
AcDbArc
 50
180.0000160522239
 51
267.000011945036
  0
ARC
  5
39
330
240
100
AcDbEntity
  8
GAIKEI
  6
Continuous
100
AcDbCircle
 10
84.55364596061631
 20
178.5991354608126
 30
0.0
 40
0.1999999468268
100
AcDbArc
 50
272.9999880549605
 51
359.9999839477745
  0
LINE
  5
3A
330
240
100
AcDbEntity
  8
GAIKEI
  6
Continuous
 62
     1
100
AcDbLine
 10
82.05364590744304
 20
178.2757028047798
 30
0.0
 11
82.05364590744304
 21
204.8730820047798
 31
0.0
  0
LINE
  5
3B
330
240
100
AcDbEntity
  8
GAIKEI
  6
Continuous
 62
     1
100
AcDbLine
 10
82.15364590744306
 20
204.8757024047798
 30
0.0
 11
82.15364590744306
 21
178.2730824047798
 31
0.0
  0
LINE
  5
3C
330
240
100
AcDbEntity
  8
GAIKEI
  6
Continuous
100
AcDbLine
 10
48.85029232659574
 20
178.4367646047798
 30
0.0
 11
48.83893552659569
 21
178.3992458047798
 31
0.0
  0
LINE
  5
3D
330
240
100
AcDbEntity
  8
GAIKEI
  6
Continuous
100
AcDbLine
 10
48.83893472659575
 20
178.3966268047798
 30
0.0
 11
48.85029112659569
 21
178.4341446047799
 31
0.0
  0
LINE
  5
3E
330
240
100
AcDbEntity
  8
GAIKEI
  6
Continuous
100
AcDbLine
 10
43.5702683265957
 20
178.3992472047798
 30
0.0
 11
43.55891192659564
 21
178.4367650047798
 31
0.0
  0
LINE
  5
3F
330
240
100
AcDbEntity
  8
GAIKEI
  6
Continuous
100
AcDbLine
 10
43.55891092659564
 20
178.4341442047798
 30
0.0
 11
43.57026772659568
 21
178.3966254047798
 31
0.0
  0
DIMENSION
  5
40
330
240
100
AcDbEntity
  8
SUNPO
100
AcDbDimension
  2
*D4
 10
52.50460592659564
 20
170.5990366247724
 30
0.0
 11
45.30460162659564
 21
172.3490366247724
 31
0.0
 70
    33
  1
72
 71
     5
 42
14.40000859999996
  3
STANDARD
100
AcDbAlignedDimension
 13
38.10459732659568
 23
178.5990366247724
 33
0.0
 14
52.50460592659564
 24
178.5990366247724
 34
0.0
1001
ACAD
1000
DSTYLE
1002
{
1070
    40
1040
1.0
1070
   140
1040
2.5
1070
   147
1040
0.5
1070
   172
1070
     1
1070
   279
1070
     0
1070
   343
1005
253
1070
   344
1005
253
1002
}
  0
DIMENSION
  5
57
330
240
100
AcDbEntity
  8
SUNPO
100
AcDbDimension
  2
*D3
 10
84.95364590744312
 20
170.5990366247724
 30
0.0
 11
92.03697924077644
 21
172.3490366247724
 31
0.0
 70
    33
  1
27.5
 71
     5
 42
5.5
  3
STANDARD
100
AcDbAlignedDimension
 13
79.45364590744311
 23
178.5990366247724
 33
0.0
 14
84.95364590744312
 24
178.5990366247724
 34
0.0
1001
ACAD
1000
DSTYLE
1002
{
1070
    40
1040
1.0
1070
   140
1040
2.5
1070
   147
1040
0.5
1070
   172
1070
     1
1070
   279
1070
     0
1070
   343
1005
253
1070
   344
1005
253
1002
}
  0
TEXT
  5
65
330
240
100
AcDbEntity
  8
MOJI1
100
AcDbText
 10
44.5
 20
162.4992141396414
 30
0.0
 40
3.0
  1
ＤＣ６Ｖ
100
AcDbText
  0
TEXT
  5
66
330
240
100
AcDbEntity
  8
MOJI1
100
AcDbText
 10
44.5
 20
152.4992141396414
 30
0.0
 40
3.0
  1
Ｆ２Ｄ、Ｆ３Ｅ
100
AcDbText
  0
TEXT
  5
67
330
240
100
AcDbEntity
  8
MOJI1
100
AcDbText
 10
44.5
 20
142.4992141396417
 30
0.0
 40
3.0
  1
６グループ
100
AcDbText
  0
TEXT
  5
68
330
240
100
AcDbEntity
  8
MOJI1
100
AcDbText
 10
44.5
 20
137.4992141396417
 30
0.0
 40
3.0
  1
６グループ
100
AcDbText
  0
TEXT
  5
69
330
240
100
AcDbEntity
  8
MOJI1
100
AcDbText
 10
44.5
 20
147.4992141396417
 30
0.0
 40
3.0
  1
水晶制御ＰＬＬシンセサイザー方式
100
AcDbText
  0
TEXT
  5
6A
330
240
100
AcDbEntity
  8
MOJI1
100
AcDbText
 10
4.5
 20
137.4992141396417
 30
0.0
 40
3.0
  1
受信周波数
100
AcDbText
  0
TEXT
  5
6B
330
240
100
AcDbEntity
  8
MOJI1
100
AcDbText
 10
4.5
 20
152.4992141396414
 30
0.0
 40
3.0
  1
電波形式
100
AcDbText
  0
TEXT
  5
6C
330
240
100
AcDbEntity
  8
MOJI1
100
AcDbText
 10
4.5
 20
142.4992141396417
 30
0.0
 40
3.0
  1
送信周波数
100
AcDbText
  0
TEXT
  5
6D
330
240
100
AcDbEntity
  8
MOJI1
100
AcDbText
 10
4.5
 20
147.4992141396414
 30
0.0
 40
3.0
  1
発信方式
100
AcDbText
  0
TEXT
  5
6E
330
240
100
AcDbEntity
  8
MOJI1
100
AcDbText
 10
4.5
 20
162.4992141396414
 30
0.0
 40
3.0
  1
電　源
100
AcDbText
  0
LINE
  5
6F
330
240
100
AcDbEntity
  8
WAKU
 62
     4
100
AcDbLine
 10
42.0
 20
131.4992141396414
 30
0.0
 11
42.0
 21
166.4992141396414
 31
0.0
  0
LINE
  5
70
330
240
100
AcDbEntity
  8
GAIKEI
  6
Continuous
100
AcDbLine
 10
48.79564372659567
 20
178.3343358047798
 30
0.0
 11
48.76536112659571
 21
178.3094426047798
 31
0.0
  0
LINE
  5
71
330
240
100
AcDbEntity
  8
GAIKEI
  6
Continuous
100
AcDbLine
 10
48.7653621265957
 20
178.3068238047798
 30
0.0
 11
48.79564472659566
 21
178.3317176047798
 31
0.0
  0
LINE
  5
72
330
240
100
AcDbEntity
  8
GAIKEI
  6
Continuous
100
AcDbLine
 10
48.76536112659571
 20
178.3094426047798
 30
0.0
 11
48.7308003265957
 21
178.2909422047798
 31
0.0
  0
LINE
  5
73
330
240
100
AcDbEntity
  8
GAIKEI
  6
Continuous
100
AcDbLine
 10
48.7308003265957
 20
178.2909422047798
 30
0.0
 11
48.6932913265957
 21
178.2795492047798
 31
0.0
  0
LINE
  5
74
330
240
100
AcDbEntity
  8
GAIKEI
  6
Continuous
100
AcDbLine
 10
48.6932913265957
 20
178.2795492047798
 30
0.0
 11
48.65427952659565
 21
178.2757028047798
 31
0.0
  0
LINE
  5
75
330
240
100
AcDbEntity
  8
GAIKEI
  6
Continuous
100
AcDbLine
 10
48.65427832659574
 20
178.2730824047798
 30
0.0
 11
48.69329052659575
 21
178.2769290047798
 31
0.0
  0
LINE
  5
76
330
240
100
AcDbEntity
  8
GAIKEI
  6
Continuous
100
AcDbLine
 10
48.69329052659575
 20
178.2769290047798
 30
0.0
 11
48.73080052659574
 21
178.2883224047799
 31
0.0
  0
LINE
  5
77
330
240
100
AcDbEntity
  8
GAIKEI
  6
Continuous
100
AcDbLine
 10
48.73080052659574
 20
178.2883224047799
 30
0.0
 11
48.7653621265957
 21
178.3068238047798
 31
0.0
  0
LINE
  5
78
330
240
100
AcDbEntity
  8
GAIKEI
  6
Continuous
100
AcDbLine
 10
48.83893552659569
 20
178.3992458047798
 30
0.0
 11
48.82048492659563
 21
178.3646594047798
 31
0.0
  0
LINE
  5
79
330
240
100
AcDbEntity
  8
GAIKEI
  6
Continuous
100
AcDbLine
 10
48.82048492659563
 20
178.3646594047798
 30
0.0
 11
48.79564372659567
 21
178.3343358047798
 31
0.0
  0
LINE
  5
7A
330
240
100
AcDbEntity
  8
GAIKEI
  6
Continuous
100
AcDbLine
 10
48.79564472659566
 20
178.3317176047798
 30
0.0
 11
48.82048512659569
 21
178.3620412047798
 31
0.0
  0
LINE
  5
7B
330
240
100
AcDbEntity
  8
GAIKEI
  6
Continuous
100
AcDbLine
 10
48.82048512659569
 20
178.3620412047798
 30
0.0
 11
48.83893472659575
 21
178.3966268047798
 31
0.0
  0
LINE
  5
7C
330
240
100
AcDbEntity
  8
GAIKEI
  6
Continuous
100
AcDbLine
 10
43.7549247265957
 20
178.2757028047798
 30
0.0
 11
43.71591252659571
 21
178.2795494047798
 31
0.0
  0
LINE
  5
7D
330
240
100
AcDbEntity
  8
GAIKEI
  6
Continuous
100
AcDbLine
 10
43.71591252659571
 20
178.2795494047798
 30
0.0
 11
43.6784025265957
 21
178.2909428047798
 31
0.0
  0
LINE
  5
7E
330
240
100
AcDbEntity
  8
GAIKEI
  6
Continuous
100
AcDbLine
 10
43.6784025265957
 20
178.2909428047798
 30
0.0
 11
43.64384092659574
 21
178.3094442047798
 31
0.0
  0
LINE
  5
7F
330
240
100
AcDbEntity
  8
GAIKEI
  6
Continuous
100
AcDbLine
 10
43.64384092659574
 20
178.3094442047798
 30
0.0
 11
43.61355832659565
 21
178.3343380047798
 31
0.0
  0
LINE
  5
80
330
240
100
AcDbEntity
  8
GAIKEI
  6
Continuous
100
AcDbLine
 10
43.61355832659565
 20
178.3343380047798
 30
0.0
 11
43.58871792659565
 21
178.3646616047798
 31
0.0
  0
LINE
  5
81
330
240
100
AcDbEntity
  8
GAIKEI
  6
Continuous
100
AcDbLine
 10
43.58871792659565
 20
178.3646616047798
 30
0.0
 11
43.5702683265957
 21
178.3992472047798
 31
0.0
  0
LINE
  5
82
330
240
100
AcDbEntity
  8
GAIKEI
  6
Continuous
100
AcDbLine
 10
43.57026772659568
 20
178.3966254047798
 30
0.0
 11
43.58871832659574
 21
178.3620390047798
 31
0.0
  0
LINE
  5
83
330
240
100
AcDbEntity
  8
GAIKEI
  6
Continuous
100
AcDbLine
 10
43.58871832659574
 20
178.3620390047798
 30
0.0
 11
43.61355952659571
 21
178.3317154047798
 31
0.0
  0
LINE
  5
84
330
240
100
AcDbEntity
  8
GAIKEI
  6
Continuous
100
AcDbLine
 10
43.61355952659571
 20
178.3317154047798
 30
0.0
 11
43.64384212659567
 21
178.3068222047798
 31
0.0
  0
LINE
  5
85
330
240
100
AcDbEntity
  8
GAIKEI
  6
Continuous
100
AcDbLine
 10
43.64384212659567
 20
178.3068222047798
 30
0.0
 11
43.67840292659566
 21
178.2883218047798
 31
0.0
  0
LINE
  5
86
330
240
100
AcDbEntity
  8
GAIKEI
  6
Continuous
100
AcDbLine
 10
43.67840292659566
 20
178.2883218047798
 30
0.0
 11
43.71591192659566
 21
178.2769290047798
 31
0.0
  0
LINE
  5
87
330
240
100
AcDbEntity
  8
GAIKEI
  6
Continuous
100
AcDbLine
 10
43.71591192659566
 20
178.2769290047798
 30
0.0
 11
43.75492372659571
 21
178.2730824047798
 31
0.0
  0
LINE
  5
88
330
240
100
AcDbEntity
  8
GAIKEI
  6
Continuous
100
AcDbLine
 10
43.75492372659571
 20
178.2730824047798
 30
0.0
 11
48.65427832659574
 21
178.2730824047798
 31
0.0
  0
LINE
  5
89
330
240
100
AcDbEntity
  8
GAIKEI
  6
Continuous
100
AcDbLine
 10
43.7549247265957
 20
178.2757028047798
 30
0.0
 11
48.65427952659565
 21
178.2757028047798
 31
0.0
  0
LINE
  5
8A
330
240
100
AcDbEntity
  8
GAIKEI
  6
Continuous
100
AcDbLine
 10
82.15364590744306
 20
178.2730824047798
 30
0.0
 11
84.56411310744316
 21
178.3994096047798
 31
0.0
  0
LINE
  5
8B
330
240
100
AcDbEntity
  8
GAIKEI
  6
Continuous
100
AcDbLine
 10
79.64317870744307
 20
178.4020300047799
 30
0.0
 11
82.05364590744304
 21
178.2757028047798
 31
0.0
  0
DIMENSION
  5
8C
330
240
100
AcDbEntity
  8
SUNPO
100
AcDbDimension
  2
*D2
 10
60.50932928075667
 20
232.5757024047798
 30
0.0
 11
58.75932928075664
 21
218.5743922047798
 31
0.0
 70
    33
  1
140
 71
     5
 42
28.00262039999998
  3
STANDARD
100
AcDbAlignedDimension
 13
52.50932928075656
 23
204.5730820047798
 33
0.0
 14
52.50932928075667
 24
232.5757024047798
 34
0.0
1001
ACAD
1000
DSTYLE
1002
{
1070
    40
1040
1.0
1070
   140
1040
2.5
1070
   147
1040
0.5
1070
   172
1070
     1
1070
   279
1070
     0
1070
   343
1005
253
1070
   344
1005
253
1002
}
  0
DIMENSION
  5
99
330
240
100
AcDbEntity
  8
SUNPO
100
AcDbDimension
  2
*D1
 10
60.50932928075667
 20
204.5730820047798
 30
0.0
 11
58.75932928075664
 21
191.5730822047798
 31
0.0
 70
    33
  1
130
 71
     5
 42
25.9999996
  3
STANDARD
100
AcDbAlignedDimension
 13
52.50932928075656
 23
178.5730824047798
 33
0.0
 14
52.50932928075667
 24
204.5730820047798
 34
0.0
1001
ACAD
1000
DSTYLE
1002
{
1070
    40
1040
1.0
1070
   140
1040
2.5
1070
   147
1040
0.5
1070
   172
1070
     1
1070
   279
1070
     0
1070
   343
1005
253
1070
   344
1005
253
1002
}
  0
LINE
  5
A6
330
240
100
AcDbEntity
  8
GAIKEI
  6
Continuous
100
AcDbLine
 10
45.70460172659566
 20
206.3901080047798
 30
0.0
 11
45.70460172659566
 21
230.1757024047798
 31
0.0
  0
LINE
  5
A7
330
240
100
AcDbEntity
  8
GAIKEI
  6
Continuous
100
AcDbLine
 10
46.70460172659566
 20
206.3901080047798
 30
0.0
 11
46.70460172659566
 21
230.1757024047798
 31
0.0
  0
LINE
  5
A8
330
240
100
AcDbEntity
  8
GAIKEI
  6
Continuous
100
AcDbLine
 10
41.12958032659569
 20
204.5730820047798
 30
0.0
 11
43.55507332659565
 21
204.5730820047798
 31
0.0
  0
LINE
  5
A9
330
240
100
AcDbEntity
  8
GAIKEI
  6
Continuous
100
AcDbLine
 10
41.32460172659565
 20
204.5757024047798
 30
0.0
 11
43.55507332659565
 21
204.5757024047798
 31
0.0
  0
LINE
  5
AA
330
240
100
AcDbEntity
  8
GAIKEI
  6
Continuous
100
AcDbLine
 10
38.40434592659571
 20
178.5730824047798
 30
0.0
 11
43.55507332659565
 21
178.5730824047798
 31
0.0
  0
LINE
  5
AB
330
240
100
AcDbEntity
  8
GAIKEI
  6
Continuous
100
AcDbLine
 10
38.40434792659571
 20
178.5757028047798
 30
0.0
 11
43.55507332659565
 21
178.5757028047798
 31
0.0
  0
LINE
  5
AC
330
240
100
AcDbEntity
  8
GAIKEI
  6
Continuous
100
AcDbLine
 10
38.40434792659571
 20
204.5730820047798
 30
0.0
 11
40.47962292659572
 21
204.5730820047798
 31
0.0
  0
LINE
  5
AD
330
240
100
AcDbEntity
  8
GAIKEI
  6
Continuous
100
AcDbLine
 10
38.40434592659571
 20
204.5757024047798
 30
0.0
 11
40.2846017265957
 21
204.5757024047798
 31
0.0
  0
LINE
  5
AE
330
240
100
AcDbEntity
  8
GAIKEI
  6
Continuous
100
AcDbLine
 10
38.10459732659568
 20
204.2730216047798
 30
0.0
 11
38.11035372659566
 21
204.3315348047798
 31
0.0
  0
LINE
  5
AF
330
240
100
AcDbEntity
  8
GAIKEI
  6
Continuous
100
AcDbLine
 10
38.11035372659566
 20
204.3315348047798
 30
0.0
 11
38.12738892659567
 21
204.3878050047798
 31
0.0
  0
LINE
  5
B0
330
240
100
AcDbEntity
  8
GAIKEI
  6
Continuous
100
AcDbLine
 10
38.12738892659567
 20
204.3878050047798
 30
0.0
 11
38.15506432659569
 21
204.4396764047798
 31
0.0
  0
LINE
  5
B1
330
240
100
AcDbEntity
  8
GAIKEI
  6
Continuous
100
AcDbLine
 10
38.15506432659569
 20
204.4396764047798
 30
0.0
 11
38.19232432659575
 21
204.4851534047798
 31
0.0
  0
LINE
  5
B2
330
240
100
AcDbEntity
  8
GAIKEI
  6
Continuous
100
AcDbLine
 10
38.19232432659575
 20
204.4851534047798
 30
0.0
 11
38.2377449265957
 21
204.5224850047798
 31
0.0
  0
LINE
  5
B3
330
240
100
AcDbEntity
  8
GAIKEI
  6
Continuous
100
AcDbLine
 10
38.2377449265957
 20
204.5224850047798
 30
0.0
 11
38.28958112659572
 21
204.5502288047798
 31
0.0
  0
LINE
  5
B4
330
240
100
AcDbEntity
  8
GAIKEI
  6
Continuous
100
AcDbLine
 10
38.28958112659572
 20
204.5502288047798
 30
0.0
 11
38.34583792659575
 21
204.5673138047798
 31
0.0
  0
LINE
  5
B5
330
240
100
AcDbEntity
  8
GAIKEI
  6
Continuous
100
AcDbLine
 10
38.34583792659575
 20
204.5673138047798
 30
0.0
 11
38.40434792659571
 21
204.5730820047798
 31
0.0
  0
LINE
  5
B6
330
240
100
AcDbEntity
  8
GAIKEI
  6
Continuous
100
AcDbLine
 10
38.40434592659571
 20
204.5757024047798
 30
0.0
 11
38.34583532659573
 21
204.5699340047798
 31
0.0
  0
LINE
  5
B7
330
240
100
AcDbEntity
  8
GAIKEI
  6
Continuous
100
AcDbLine
 10
38.34583532659573
 20
204.5699340047798
 30
0.0
 11
38.28957692659569
 21
204.5528484047798
 31
0.0
  0
LINE
  5
B8
330
240
100
AcDbEntity
  8
GAIKEI
  6
Continuous
100
AcDbLine
 10
38.28957692659569
 20
204.5528484047798
 30
0.0
 11
38.23773972659566
 21
204.5251032047798
 31
0.0
  0
LINE
  5
B9
330
240
100
AcDbEntity
  8
GAIKEI
  6
Continuous
100
AcDbLine
 10
38.23773972659566
 20
204.5251032047798
 30
0.0
 11
38.19231912659571
 21
204.4877706047799
 31
0.0
  0
LINE
  5
BA
330
240
100
AcDbEntity
  8
GAIKEI
  6
Continuous
100
AcDbLine
 10
38.19231912659571
 20
204.4877706047799
 30
0.0
 11
38.15505992659573
 21
204.4422936047799
 31
0.0
  0
LINE
  5
BB
330
240
100
AcDbEntity
  8
GAIKEI
  6
Continuous
100
AcDbLine
 10
38.15505992659573
 20
204.4422936047799
 30
0.0
 11
38.12738592659568
 21
204.3904234047799
 31
0.0
  0
LINE
  5
BC
330
240
100
AcDbEntity
  8
GAIKEI
  6
Continuous
100
AcDbLine
 10
38.12738592659568
 20
204.3904234047799
 30
0.0
 11
38.11035152659574
 21
204.3341544047798
 31
0.0
  0
LINE
  5
BD
330
240
100
AcDbEntity
  8
GAIKEI
  6
Continuous
100
AcDbLine
 10
38.11035152659574
 20
204.3341544047798
 30
0.0
 11
38.10459732659568
 21
204.2756418047798
 31
0.0
  0
LINE
  5
BE
330
240
100
AcDbEntity
  8
GAIKEI
  6
Continuous
100
AcDbLine
 10
40.6365371265957
 20
204.5665882047798
 30
0.0
 11
40.68279092659574
 21
204.5656762047798
 31
0.0
  0
LINE
  5
BF
330
240
100
AcDbEntity
  8
GAIKEI
  6
Continuous
100
AcDbLine
 10
41.00460172659571
 20
204.5757024047798
 30
0.0
 11
40.60460172659575
 21
204.5757024047798
 31
0.0
  0
LINE
  5
C0
330
240
100
AcDbEntity
  8
GAIKEI
  6
Continuous
100
AcDbLine
 10
40.60460172659575
 20
204.5757024047798
 30
0.0
 11
40.59658112659572
 21
204.5676818047798
 31
0.0
  0
LINE
  5
C1
330
240
100
AcDbEntity
  8
GAIKEI
  6
Continuous
100
AcDbLine
 10
40.47962292659572
 20
204.5730820047798
 30
0.0
 11
40.5141117265957
 21
204.5710246047798
 31
0.0
  0
LINE
  5
C2
330
240
100
AcDbEntity
  8
GAIKEI
  6
Continuous
100
AcDbLine
 10
40.5141117265957
 20
204.5710246047798
 30
0.0
 11
40.55196952659567
 21
204.5692624047798
 31
0.0
  0
LINE
  5
C3
330
240
100
AcDbEntity
  8
GAIKEI
  6
Continuous
100
AcDbLine
 10
40.55196952659567
 20
204.5692624047798
 30
0.0
 11
40.59278912659563
 21
204.5677856047798
 31
0.0
  0
LINE
  5
C4
330
240
100
AcDbEntity
  8
GAIKEI
  6
Continuous
100
AcDbLine
 10
40.59278912659563
 20
204.5677856047798
 30
0.0
 11
40.6365371265957
 21
204.5665882047798
 31
0.0
  0
LINE
  5
C5
330
240
100
AcDbEntity
  8
GAIKEI
  6
Continuous
100
AcDbLine
 10
41.00460172659571
 20
204.5757024047798
 30
0.0
 11
41.01262212659569
 21
204.5676818047798
 31
0.0
  0
LINE
  5
C6
330
240
100
AcDbEntity
  8
GAIKEI
  6
Continuous
100
AcDbLine
 10
40.68279092659574
 20
204.5656762047798
 30
0.0
 11
40.73077312659571
 21
204.5650586047798
 31
0.0
  0
LINE
  5
C7
330
240
100
AcDbEntity
  8
GAIKEI
  6
Continuous
100
AcDbLine
 10
40.73077312659571
 20
204.5650586047798
 30
0.0
 11
40.77985892659567
 21
204.5647438047799
 31
0.0
  0
LINE
  5
C8
330
240
100
AcDbEntity
  8
GAIKEI
  6
Continuous
100
AcDbLine
 10
40.77985892659567
 20
204.5647438047799
 30
0.0
 11
40.82934552659568
 21
204.5647438047799
 31
0.0
  0
LINE
  5
C9
330
240
100
AcDbEntity
  8
GAIKEI
  6
Continuous
100
AcDbLine
 10
40.82934552659568
 20
204.5647438047799
 30
0.0
 11
40.87843132659575
 21
204.5650586047798
 31
0.0
  0
LINE
  5
CA
330
240
100
AcDbEntity
  8
GAIKEI
  6
Continuous
100
AcDbLine
 10
40.87843132659575
 20
204.5650586047798
 30
0.0
 11
40.92641332659566
 21
204.5656762047798
 31
0.0
  0
LINE
  5
CB
330
240
100
AcDbEntity
  8
GAIKEI
  6
Continuous
100
AcDbLine
 10
40.92641332659566
 20
204.5656762047798
 30
0.0
 11
40.97266672659574
 21
204.5665882047798
 31
0.0
  0
LINE
  5
CC
330
240
100
AcDbEntity
  8
GAIKEI
  6
Continuous
100
AcDbLine
 10
40.97266672659574
 20
204.5665882047798
 30
0.0
 11
41.01641472659568
 21
204.5677856047798
 31
0.0
  0
LINE
  5
CD
330
240
100
AcDbEntity
  8
GAIKEI
  6
Continuous
100
AcDbLine
 10
41.01641472659568
 20
204.5677856047798
 30
0.0
 11
41.05723392659567
 21
204.5692624047798
 31
0.0
  0
LINE
  5
CE
330
240
100
AcDbEntity
  8
GAIKEI
  6
Continuous
100
AcDbLine
 10
41.05723392659567
 20
204.5692624047798
 30
0.0
 11
41.09509172659564
 21
204.5710246047798
 31
0.0
  0
LINE
  5
CF
330
240
100
AcDbEntity
  8
GAIKEI
  6
Continuous
100
AcDbLine
 10
41.09509172659564
 20
204.5710246047798
 30
0.0
 11
41.12958032659569
 21
204.5730820047798
 31
0.0
  0
LINE
  5
D0
330
240
100
AcDbEntity
  8
GAIKEI
  6
Continuous
100
AcDbLine
 10
38.40434792659571
 20
178.5757028047798
 30
0.0
 11
38.34583712659568
 21
178.5814710047798
 31
0.0
  0
LINE
  5
D1
330
240
100
AcDbEntity
  8
GAIKEI
  6
Continuous
100
AcDbLine
 10
38.34583712659568
 20
178.5814710047798
 30
0.0
 11
38.28957892659568
 21
178.5985566047798
 31
0.0
  0
LINE
  5
D2
330
240
100
AcDbEntity
  8
GAIKEI
  6
Continuous
100
AcDbLine
 10
38.28957892659568
 20
178.5985566047798
 30
0.0
 11
38.23774172659565
 21
178.6263018047798
 31
0.0
  0
LINE
  5
D3
330
240
100
AcDbEntity
  8
GAIKEI
  6
Continuous
100
AcDbLine
 10
38.23774172659565
 20
178.6263018047798
 30
0.0
 11
38.19232112659572
 21
178.6636346047798
 31
0.0
  0
LINE
  5
D4
330
240
100
AcDbEntity
  8
GAIKEI
  6
Continuous
100
AcDbLine
 10
38.19232112659572
 20
178.6636346047798
 30
0.0
 11
38.15506212659565
 21
178.7091116047799
 31
0.0
  0
LINE
  5
D5
330
240
100
AcDbEntity
  8
GAIKEI
  6
Continuous
100
AcDbLine
 10
38.15506212659565
 20
178.7091116047799
 30
0.0
 11
38.12738812659572
 21
178.7609818047799
 31
0.0
  0
LINE
  5
D6
330
240
100
AcDbEntity
  8
GAIKEI
  6
Continuous
100
AcDbLine
 10
38.12738812659572
 20
178.7609818047799
 30
0.0
 11
38.11035352659573
 21
178.8172506047798
 31
0.0
  0
LINE
  5
D7
330
240
100
AcDbEntity
  8
GAIKEI
  6
Continuous
100
AcDbLine
 10
38.11035352659573
 20
178.8172506047798
 30
0.0
 11
38.10459732659568
 21
178.8757630047798
 31
0.0
  0
LINE
  5
D8
330
240
100
AcDbEntity
  8
GAIKEI
  6
Continuous
100
AcDbLine
 10
38.10459732659568
 20
178.8731428047798
 30
0.0
 11
38.11035152659574
 21
178.8146296047798
 31
0.0
  0
LINE
  5
D9
330
240
100
AcDbEntity
  8
GAIKEI
  6
Continuous
100
AcDbLine
 10
38.11035152659574
 20
178.8146296047798
 30
0.0
 11
38.12738692659568
 21
178.7583592047799
 31
0.0
  0
LINE
  5
DA
330
240
100
AcDbEntity
  8
GAIKEI
  6
Continuous
100
AcDbLine
 10
38.12738692659568
 20
178.7583592047799
 30
0.0
 11
38.15506212659565
 21
178.7064878047798
 31
0.0
  0
LINE
  5
DB
330
240
100
AcDbEntity
  8
GAIKEI
  6
Continuous
100
AcDbLine
 10
38.15506212659565
 20
178.7064878047798
 30
0.0
 11
38.19232232659576
 21
178.6610108047798
 31
0.0
  0
LINE
  5
DC
330
240
100
AcDbEntity
  8
GAIKEI
  6
Continuous
100
AcDbLine
 10
38.19232232659576
 20
178.6610108047798
 30
0.0
 11
38.2377429265957
 21
178.6236792047799
 31
0.0
  0
LINE
  5
DD
330
240
100
AcDbEntity
  8
GAIKEI
  6
Continuous
100
AcDbLine
 10
38.2377429265957
 20
178.6236792047799
 30
0.0
 11
38.28957912659573
 21
178.5959354047799
 31
0.0
  0
LINE
  5
DE
330
240
100
AcDbEntity
  8
GAIKEI
  6
Continuous
100
AcDbLine
 10
38.28957912659573
 20
178.5959354047799
 30
0.0
 11
38.34583592659575
 21
178.5788506047798
 31
0.0
  0
LINE
  5
DF
330
240
100
AcDbEntity
  8
GAIKEI
  6
Continuous
100
AcDbLine
 10
38.34583592659575
 20
178.5788506047798
 30
0.0
 11
38.40434592659571
 21
178.5730824047798
 31
0.0
  0
LINE
  5
E0
330
240
100
AcDbEntity
  8
GAIKEI
  6
Continuous
100
AcDbLine
 10
38.10459732659568
 20
204.2730216047798
 30
0.0
 11
38.10459732659568
 21
178.8757630047798
 31
0.0
  0
LINE
  5
E1
330
240
100
AcDbEntity
  8
GAIKEI
  6
Continuous
100
AcDbLine
 10
48.85412992659571
 20
204.5730820047798
 30
0.0
 11
52.20485712659566
 21
204.5730820047798
 31
0.0
  0
LINE
  5
E2
330
240
100
AcDbEntity
  8
GAIKEI
  6
Continuous
100
AcDbLine
 10
48.85412992659571
 20
204.5757024047798
 30
0.0
 11
52.20485532659572
 21
204.5757024047798
 31
0.0
  0
LINE
  5
E3
330
240
100
AcDbEntity
  8
GAIKEI
  6
Continuous
100
AcDbLine
 10
47.36494632659567
 20
204.8730820047798
 30
0.0
 11
48.65427952659565
 21
204.8730820047798
 31
0.0
  0
LINE
  5
E4
330
240
100
AcDbEntity
  8
GAIKEI
  6
Continuous
100
AcDbLine
 10
47.37460172659573
 20
204.8757024047798
 30
0.0
 11
48.65427832659574
 21
204.8757024047798
 31
0.0
  0
LINE
  5
E5
330
240
100
AcDbEntity
  8
GAIKEI
  6
Continuous
100
AcDbLine
 10
47.37460172659573
 20
206.1153114047798
 30
0.0
 11
47.37460172659573
 21
204.8730820047798
 31
0.0
  0
LINE
  5
E6
330
240
100
AcDbEntity
  8
GAIKEI
  6
Continuous
100
AcDbLine
 10
47.36494632659567
 20
204.8730820047798
 30
0.0
 11
47.30362132659568
 21
204.8599110047798
 31
0.0
  0
LINE
  5
E7
330
240
100
AcDbEntity
  8
GAIKEI
  6
Continuous
100
AcDbLine
 10
47.30362132659568
 20
204.8599110047798
 30
0.0
 11
47.1882241265957
 21
204.8477400047798
 31
0.0
  0
LINE
  5
E8
330
240
100
AcDbEntity
  8
GAIKEI
  6
Continuous
100
AcDbLine
 10
47.17472852659565
 20
206.4157024047798
 30
0.0
 11
47.15982232659571
 21
206.4068224047798
 31
0.0
  0
LINE
  5
E9
330
240
100
AcDbEntity
  8
GAIKEI
  6
Continuous
100
AcDbLine
 10
47.37460172659573
 20
206.1153114047798
 30
0.0
 11
47.35697332659568
 21
206.1046926047798
 31
0.0
  0
LINE
  5
EA
330
240
100
AcDbEntity
  8
GAIKEI
  6
Continuous
100
AcDbLine
 10
47.35697332659568
 20
206.1046926047798
 30
0.0
 11
47.3048329265957
 21
206.0945044047798
 31
0.0
  0
LINE
  5
EB
330
240
100
AcDbEntity
  8
GAIKEI
  6
Continuous
100
AcDbLine
 10
47.3048329265957
 20
206.0945044047798
 30
0.0
 11
47.2192445265957
 21
206.0848380047798
 31
0.0
  0
LINE
  5
EC
330
240
100
AcDbEntity
  8
GAIKEI
  6
Continuous
100
AcDbLine
 10
47.17472852659565
 20
206.4157024047798
 30
0.0
 11
47.24077272659574
 21
206.3163970047798
 31
0.0
  0
LINE
  5
ED
330
240
100
AcDbEntity
  8
GAIKEI
  6
Continuous
100
AcDbLine
 10
47.24077272659574
 20
206.3163970047798
 30
0.0
 11
47.30740692659567
 21
206.2162546047798
 31
0.0
  0
LINE
  5
EE
330
240
100
AcDbEntity
  8
GAIKEI
  6
Continuous
100
AcDbLine
 10
47.30740692659567
 20
206.2162546047798
 30
0.0
 11
47.37460172659573
 21
206.1152906047798
 31
0.0
  0
LINE
  5
EF
330
240
100
AcDbEntity
  8
GAIKEI
  6
Continuous
100
AcDbLine
 10
48.7956423265957
 20
204.8170692047798
 30
0.0
 11
48.76535992659565
 21
204.8419624047798
 31
0.0
  0
LINE
  5
F0
330
240
100
AcDbEntity
  8
GAIKEI
  6
Continuous
100
AcDbLine
 10
48.73080172659567
 20
204.8578418047798
 30
0.0
 11
48.76536332659576
 21
204.8393406047798
 31
0.0
  0
LINE
  5
F1
330
240
100
AcDbEntity
  8
GAIKEI
  6
Continuous
100
AcDbLine
 10
48.8302957265957
 20
204.5569354047798
 30
0.0
 11
48.77076532659575
 21
204.5410456047798
 31
0.0
  0
LINE
  5
F2
330
240
100
AcDbEntity
  8
GAIKEI
  6
Continuous
100
AcDbLine
 10
48.76536332659576
 20
204.8393406047798
 30
0.0
 11
48.7956459265957
 21
204.8144468047798
 31
0.0
  0
LINE
  5
F3
330
240
100
AcDbEntity
  8
GAIKEI
  6
Continuous
100
AcDbLine
 10
48.19867992659565
 20
204.4842338047799
 30
0.0
 11
47.98182432659571
 21
204.4726844047798
 31
0.0
  0
LINE
  5
F4
330
240
100
AcDbEntity
  8
GAIKEI
  6
Continuous
100
AcDbLine
 10
47.60460172659575
 20
204.1730954047798
 30
0.0
 11
47.61437972659573
 21
204.2333518047798
 31
0.0
  0
LINE
  5
F5
330
240
100
AcDbEntity
  8
GAIKEI
  6
Continuous
100
AcDbLine
 10
47.61437972659573
 20
204.2333518047798
 30
0.0
 11
47.64456032659571
 21
204.2938158047798
 31
0.0
  0
LINE
  5
F6
330
240
100
AcDbEntity
  8
GAIKEI
  6
Continuous
100
AcDbLine
 10
47.64456032659571
 20
204.2938158047798
 30
0.0
 11
47.69005472659566
 21
204.3469020047798
 31
0.0
  0
LINE
  5
F7
330
240
100
AcDbEntity
  8
GAIKEI
  6
Continuous
100
AcDbLine
 10
47.69005472659566
 20
204.3469020047798
 30
0.0
 11
47.74822712659565
 21
204.3930582047798
 31
0.0
  0
LINE
  5
F8
330
240
100
AcDbEntity
  8
GAIKEI
  6
Continuous
100
AcDbLine
 10
47.74822712659565
 20
204.3930582047798
 30
0.0
 11
47.81675132659571
 21
204.4310258047798
 31
0.0
  0
LINE
  5
F9
330
240
100
AcDbEntity
  8
GAIKEI
  6
Continuous
100
AcDbLine
 10
47.81675132659571
 20
204.4310258047798
 30
0.0
 11
47.89490552659567
 21
204.4589848047798
 31
0.0
  0
LINE
  5
FA
330
240
100
AcDbEntity
  8
GAIKEI
  6
Continuous
100
AcDbLine
 10
47.89490552659567
 20
204.4589848047798
 30
0.0
 11
47.98182432659571
 21
204.4726844047798
 31
0.0
  0
LINE
  5
FB
330
240
100
AcDbEntity
  8
GAIKEI
  6
Continuous
100
AcDbLine
 10
48.77076532659575
 20
204.5410456047798
 30
0.0
 11
48.67634052659568
 21
204.5256260047798
 31
0.0
  0
LINE
  5
FC
330
240
100
AcDbEntity
  8
GAIKEI
  6
Continuous
100
AcDbLine
 10
48.67634052659568
 20
204.5256260047798
 30
0.0
 11
48.54829652659575
 21
204.5108860047799
 31
0.0
  0
LINE
  5
FD
330
240
100
AcDbEntity
  8
GAIKEI
  6
Continuous
100
AcDbLine
 10
48.54829652659575
 20
204.5108860047799
 30
0.0
 11
48.38835732659571
 21
204.4970258047798
 31
0.0
  0
LINE
  5
FE
330
240
100
AcDbEntity
  8
GAIKEI
  6
Continuous
100
AcDbLine
 10
48.38835732659571
 20
204.4970258047798
 30
0.0
 11
48.19867992659565
 21
204.4842338047799
 31
0.0
  0
LINE
  5
FF
330
240
100
AcDbEntity
  8
GAIKEI
  6
Continuous
100
AcDbLine
 10
48.85412992659571
 20
204.5730820047798
 30
0.0
 11
48.8302957265957
 21
204.5569354047798
 31
0.0
  0
LINE
  5
100
330
240
100
AcDbEntity
  8
GAIKEI
  6
Continuous
100
AcDbLine
 10
48.85412992659571
 20
204.6756268047798
 30
0.0
 11
48.85029112659569
 21
204.7146404047798
 31
0.0
  0
LINE
  5
101
330
240
100
AcDbEntity
  8
GAIKEI
  6
Continuous
100
AcDbLine
 10
48.85029112659569
 20
204.7146404047798
 30
0.0
 11
48.8389341265957
 21
204.7521592047798
 31
0.0
  0
LINE
  5
102
330
240
100
AcDbEntity
  8
GAIKEI
  6
Continuous
100
AcDbLine
 10
48.8389341265957
 20
204.7521592047798
 30
0.0
 11
48.82048352659566
 21
204.7867456047798
 31
0.0
  0
LINE
  5
103
330
240
100
AcDbEntity
  8
GAIKEI
  6
Continuous
100
AcDbLine
 10
48.82048352659566
 20
204.7867456047798
 30
0.0
 11
48.7956423265957
 21
204.8170692047798
 31
0.0
  0
LINE
  5
104
330
240
100
AcDbEntity
  8
GAIKEI
  6
Continuous
100
AcDbLine
 10
48.85412992659571
 20
204.6730064047798
 30
0.0
 11
48.85412992659571
 21
204.5730820047798
 31
0.0
  0
LINE
  5
105
330
240
100
AcDbEntity
  8
GAIKEI
  6
Continuous
100
AcDbLine
 10
48.7956459265957
 20
204.8144468047798
 30
0.0
 11
48.82048632659572
 21
204.7841232047798
 31
0.0
  0
LINE
  5
106
330
240
100
AcDbEntity
  8
GAIKEI
  6
Continuous
100
AcDbLine
 10
48.82048632659572
 20
204.7841232047798
 30
0.0
 11
48.8389361265957
 21
204.7495374047798
 31
0.0
  0
LINE
  5
107
330
240
100
AcDbEntity
  8
GAIKEI
  6
Continuous
100
AcDbLine
 10
48.8389361265957
 20
204.7495374047798
 30
0.0
 11
48.85029252659567
 21
204.7120196047798
 31
0.0
  0
LINE
  5
108
330
240
100
AcDbEntity
  8
GAIKEI
  6
Continuous
100
AcDbLine
 10
48.85029252659567
 20
204.7120196047798
 30
0.0
 11
48.85412992659571
 21
204.6730064047798
 31
0.0
  0
LINE
  5
109
330
240
100
AcDbEntity
  8
GAIKEI
  6
Continuous
100
AcDbLine
 10
48.76535992659565
 20
204.8419624047798
 30
0.0
 11
48.73079912659566
 21
204.8604628047798
 31
0.0
  0
LINE
  5
10A
330
240
100
AcDbEntity
  8
GAIKEI
  6
Continuous
100
AcDbLine
 10
48.73079912659566
 20
204.8604628047798
 30
0.0
 11
48.69329012659566
 21
204.8718558047798
 31
0.0
  0
LINE
  5
10B
330
240
100
AcDbEntity
  8
GAIKEI
  6
Continuous
100
AcDbLine
 10
48.69329012659566
 20
204.8718558047798
 30
0.0
 11
48.65427832659574
 21
204.8757024047798
 31
0.0
  0
LINE
  5
10C
330
240
100
AcDbEntity
  8
GAIKEI
  6
Continuous
100
AcDbLine
 10
48.65427952659565
 20
204.8730820047798
 30
0.0
 11
48.69329172659568
 21
204.8692352047798
 31
0.0
  0
LINE
  5
10D
330
240
100
AcDbEntity
  8
GAIKEI
  6
Continuous
100
AcDbLine
 10
48.69329172659568
 20
204.8692352047798
 30
0.0
 11
48.73080172659567
 21
204.8578418047798
 31
0.0
  0
LINE
  5
10E
330
240
100
AcDbEntity
  8
GAIKEI
  6
Continuous
100
AcDbLine
 10
52.20485712659566
 20
204.5730820047798
 30
0.0
 11
52.26336772659564
 21
204.5673136047798
 31
0.0
  0
LINE
  5
10F
330
240
100
AcDbEntity
  8
GAIKEI
  6
Continuous
100
AcDbLine
 10
52.26336772659564
 20
204.5673136047798
 30
0.0
 11
52.31962612659568
 21
204.5502280047798
 31
0.0
  0
LINE
  5
110
330
240
100
AcDbEntity
  8
GAIKEI
  6
Continuous
100
AcDbLine
 10
52.31962612659568
 20
204.5502280047798
 30
0.0
 11
52.37146332659571
 21
204.5224828047799
 31
0.0
  0
LINE
  5
111
330
240
100
AcDbEntity
  8
GAIKEI
  6
Continuous
100
AcDbLine
 10
52.37146332659571
 20
204.5224828047799
 30
0.0
 11
52.41688392659566
 21
204.4851502047798
 31
0.0
  0
LINE
  5
112
330
240
100
AcDbEntity
  8
GAIKEI
  6
Continuous
100
AcDbLine
 10
52.41688392659566
 20
204.4851502047798
 30
0.0
 11
52.45414312659566
 21
204.4396732047798
 31
0.0
  0
LINE
  5
113
330
240
100
AcDbEntity
  8
GAIKEI
  6
Continuous
100
AcDbLine
 10
52.45414312659566
 20
204.4396732047798
 30
0.0
 11
52.48181712659571
 21
204.3878030047798
 31
0.0
  0
LINE
  5
114
330
240
100
AcDbEntity
  8
GAIKEI
  6
Continuous
100
AcDbLine
 10
52.48181712659571
 20
204.3878030047798
 30
0.0
 11
52.49885152659564
 21
204.3315340047798
 31
0.0
  0
LINE
  5
115
330
240
100
AcDbEntity
  8
GAIKEI
  6
Continuous
100
AcDbLine
 10
52.49885152659564
 20
204.3315340047798
 30
0.0
 11
52.50460592659564
 21
204.2730214047798
 31
0.0
  0
LINE
  5
116
330
240
100
AcDbEntity
  8
GAIKEI
  6
Continuous
100
AcDbLine
 10
52.50460592659564
 20
204.2756420047798
 30
0.0
 11
52.49884952659565
 21
204.3341550047798
 31
0.0
  0
LINE
  5
117
330
240
100
AcDbEntity
  8
GAIKEI
  6
Continuous
100
AcDbLine
 10
52.49884952659565
 20
204.3341550047798
 30
0.0
 11
52.48181432659563
 21
204.3904254047799
 31
0.0
  0
LINE
  5
118
330
240
100
AcDbEntity
  8
GAIKEI
  6
Continuous
100
AcDbLine
 10
52.48181432659563
 20
204.3904254047799
 30
0.0
 11
52.45413912659564
 21
204.4422968047798
 31
0.0
  0
LINE
  5
119
330
240
100
AcDbEntity
  8
GAIKEI
  6
Continuous
100
AcDbLine
 10
52.45413912659564
 20
204.4422968047798
 30
0.0
 11
52.41687892659567
 21
204.4877738047798
 31
0.0
  0
LINE
  5
11A
330
240
100
AcDbEntity
  8
GAIKEI
  6
Continuous
100
AcDbLine
 10
52.41687892659567
 20
204.4877738047798
 30
0.0
 11
52.37145832659573
 21
204.5251054047799
 31
0.0
  0
LINE
  5
11B
330
240
100
AcDbEntity
  8
GAIKEI
  6
Continuous
100
AcDbLine
 10
52.37145832659573
 20
204.5251054047799
 30
0.0
 11
52.31962212659571
 21
204.5528492047799
 31
0.0
  0
LINE
  5
11C
330
240
100
AcDbEntity
  8
GAIKEI
  6
Continuous
100
AcDbLine
 10
52.31962212659571
 20
204.5528492047799
 30
0.0
 11
52.26336532659566
 21
204.5699342047798
 31
0.0
  0
LINE
  5
11D
330
240
100
AcDbEntity
  8
GAIKEI
  6
Continuous
100
AcDbLine
 10
52.26336532659566
 20
204.5699342047798
 30
0.0
 11
52.20485532659572
 21
204.5757024047798
 31
0.0
  0
LINE
  5
11E
330
240
100
AcDbEntity
  8
GAIKEI
  6
Continuous
100
AcDbLine
 10
44.66097612659573
 20
204.3930582047798
 30
0.0
 11
44.71914852659572
 21
204.3469020047798
 31
0.0
  0
LINE
  5
11F
330
240
100
AcDbEntity
  8
GAIKEI
  6
Continuous
100
AcDbLine
 10
43.7549247265957
 20
204.8730820047798
 30
0.0
 11
45.04425692659569
 21
204.8730820047798
 31
0.0
  0
LINE
  5
120
330
240
100
AcDbEntity
  8
GAIKEI
  6
Continuous
100
AcDbLine
 10
43.75492372659571
 20
204.8757024047798
 30
0.0
 11
45.03460172659571
 21
204.8757024047798
 31
0.0
  0
LINE
  5
121
330
240
100
AcDbEntity
  8
GAIKEI
  6
Continuous
100
AcDbLine
 10
43.64384312659566
 20
204.8393420047798
 30
0.0
 11
43.67840392659568
 21
204.8578424047799
 31
0.0
  0
LINE
  5
122
330
240
100
AcDbEntity
  8
GAIKEI
  6
Continuous
100
AcDbLine
 10
43.64383992659575
 20
204.8419610047799
 30
0.0
 11
43.61355732659567
 21
204.8170670047798
 31
0.0
  0
LINE
  5
123
330
240
100
AcDbEntity
  8
GAIKEI
  6
Continuous
100
AcDbLine
 10
44.21050972659575
 20
204.4842346047798
 30
0.0
 11
44.02082452659564
 21
204.4970274047799
 31
0.0
  0
LINE
  5
124
330
240
100
AcDbEntity
  8
GAIKEI
  6
Continuous
100
AcDbLine
 10
43.55507332659565
 20
204.6730064047798
 30
0.0
 11
43.55507332659565
 21
204.5730820047798
 31
0.0
  0
LINE
  5
125
330
240
100
AcDbEntity
  8
GAIKEI
  6
Continuous
100
AcDbLine
 10
43.55507332659565
 20
204.6730064047798
 30
0.0
 11
43.55891192659564
 21
204.7120200047798
 31
0.0
  0
LINE
  5
126
330
240
100
AcDbEntity
  8
GAIKEI
  6
Continuous
100
AcDbLine
 10
43.55891192659564
 20
204.7120200047798
 30
0.0
 11
43.57026892659571
 21
204.7495388047798
 31
0.0
  0
LINE
  5
127
330
240
100
AcDbEntity
  8
GAIKEI
  6
Continuous
100
AcDbLine
 10
43.57026892659571
 20
204.7495388047798
 30
0.0
 11
43.58871952659566
 21
204.7841252047798
 31
0.0
  0
LINE
  5
128
330
240
100
AcDbEntity
  8
GAIKEI
  6
Continuous
100
AcDbLine
 10
43.58871952659566
 20
204.7841252047798
 30
0.0
 11
43.61356072659575
 21
204.8144488047798
 31
0.0
  0
LINE
  5
129
330
240
100
AcDbEntity
  8
GAIKEI
  6
Continuous
100
AcDbLine
 10
43.61356072659575
 20
204.8144488047798
 30
0.0
 11
43.64384312659566
 21
204.8393420047798
 31
0.0
  0
LINE
  5
12A
330
240
100
AcDbEntity
  8
GAIKEI
  6
Continuous
100
AcDbLine
 10
44.02082452659564
 20
204.4970274047799
 30
0.0
 11
43.8608863265957
 21
204.5108882047798
 31
0.0
  0
LINE
  5
12B
330
240
100
AcDbEntity
  8
GAIKEI
  6
Continuous
100
AcDbLine
 10
43.8608863265957
 20
204.5108882047798
 30
0.0
 11
43.73284992659566
 21
204.5256276047798
 31
0.0
  0
LINE
  5
12C
330
240
100
AcDbEntity
  8
GAIKEI
  6
Continuous
100
AcDbLine
 10
43.73284992659566
 20
204.5256276047798
 30
0.0
 11
43.63843312659567
 21
204.5410466047798
 31
0.0
  0
LINE
  5
12D
330
240
100
AcDbEntity
  8
GAIKEI
  6
Continuous
100
AcDbLine
 10
43.63843312659567
 20
204.5410466047798
 30
0.0
 11
43.5789067265957
 21
204.5569358047798
 31
0.0
  0
LINE
  5
12E
330
240
100
AcDbEntity
  8
GAIKEI
  6
Continuous
100
AcDbLine
 10
43.5789067265957
 20
204.5569358047798
 30
0.0
 11
43.55507332659565
 21
204.5730820047798
 31
0.0
  0
LINE
  5
12F
330
240
100
AcDbEntity
  8
GAIKEI
  6
Continuous
100
AcDbLine
 10
43.61355732659567
 20
204.8170670047798
 30
0.0
 11
43.58871692659564
 21
204.7867434047799
 31
0.0
  0
LINE
  5
130
330
240
100
AcDbEntity
  8
GAIKEI
  6
Continuous
100
AcDbLine
 10
43.58871692659564
 20
204.7867434047799
 30
0.0
 11
43.57026712659567
 21
204.7521578047798
 31
0.0
  0
LINE
  5
131
330
240
100
AcDbEntity
  8
GAIKEI
  6
Continuous
100
AcDbLine
 10
43.57026712659567
 20
204.7521578047798
 30
0.0
 11
43.5589107265957
 21
204.7146400047799
 31
0.0
  0
LINE
  5
132
330
240
100
AcDbEntity
  8
GAIKEI
  6
Continuous
100
AcDbLine
 10
43.5589107265957
 20
204.7146400047799
 30
0.0
 11
43.55507332659565
 21
204.6756268047798
 31
0.0
  0
LINE
  5
133
330
240
100
AcDbEntity
  8
GAIKEI
  6
Continuous
100
AcDbLine
 10
44.42737892659565
 20
204.4726844047798
 30
0.0
 11
44.21050972659575
 21
204.4842346047798
 31
0.0
  0
LINE
  5
134
330
240
100
AcDbEntity
  8
GAIKEI
  6
Continuous
100
AcDbLine
 10
44.42737892659565
 20
204.4726844047798
 30
0.0
 11
44.51429792659571
 21
204.4589848047798
 31
0.0
  0
LINE
  5
135
330
240
100
AcDbEntity
  8
GAIKEI
  6
Continuous
100
AcDbLine
 10
44.51429792659571
 20
204.4589848047798
 30
0.0
 11
44.59245192659564
 21
204.4310258047798
 31
0.0
  0
LINE
  5
136
330
240
100
AcDbEntity
  8
GAIKEI
  6
Continuous
100
AcDbLine
 10
44.59245192659564
 20
204.4310258047798
 30
0.0
 11
44.66097612659573
 21
204.3930582047798
 31
0.0
  0
LINE
  5
137
330
240
100
AcDbEntity
  8
GAIKEI
  6
Continuous
100
AcDbLine
 10
43.67840392659568
 20
204.8578424047799
 30
0.0
 11
43.71591292659568
 21
204.8692354047799
 31
0.0
  0
LINE
  5
138
330
240
100
AcDbEntity
  8
GAIKEI
  6
Continuous
100
AcDbLine
 10
43.71591292659568
 20
204.8692354047799
 30
0.0
 11
43.7549247265957
 21
204.8730820047798
 31
0.0
  0
LINE
  5
139
330
240
100
AcDbEntity
  8
GAIKEI
  6
Continuous
100
AcDbLine
 10
43.75492372659571
 20
204.8757024047798
 30
0.0
 11
43.7159115265957
 21
204.8718556047798
 31
0.0
  0
LINE
  5
13A
330
240
100
AcDbEntity
  8
GAIKEI
  6
Continuous
100
AcDbLine
 10
43.7159115265957
 20
204.8718556047798
 30
0.0
 11
43.6784015265957
 21
204.8604622047799
 31
0.0
  0
LINE
  5
13B
330
240
100
AcDbEntity
  8
GAIKEI
  6
Continuous
100
AcDbLine
 10
43.6784015265957
 20
204.8604622047799
 30
0.0
 11
43.64383992659575
 21
204.8419610047799
 31
0.0
  0
LINE
  5
13C
330
240
100
AcDbEntity
  8
GAIKEI
  6
Continuous
100
AcDbLine
 10
45.38463612659572
 20
204.8372036047798
 30
0.0
 11
45.22097872659569
 21
204.8477402047799
 31
0.0
  0
LINE
  5
13D
330
240
100
AcDbEntity
  8
GAIKEI
  6
Continuous
100
AcDbLine
 10
46.07510792659566
 20
204.8200028047798
 30
0.0
 11
45.82244932659565
 21
204.8229890047798
 31
0.0
  0
LINE
  5
13E
330
240
100
AcDbEntity
  8
GAIKEI
  6
Continuous
100
AcDbLine
 10
45.58846912659563
 20
204.8288170047798
 30
0.0
 11
45.38463612659572
 21
204.8372036047798
 31
0.0
  0
LINE
  5
13F
330
240
100
AcDbEntity
  8
GAIKEI
  6
Continuous
100
AcDbLine
 10
44.71914852659572
 20
204.3469020047798
 30
0.0
 11
44.76464292659566
 21
204.2938158047798
 31
0.0
  0
LINE
  5
140
330
240
100
AcDbEntity
  8
GAIKEI
  6
Continuous
100
AcDbLine
 10
44.76464292659566
 20
204.2938158047798
 30
0.0
 11
44.79482352659565
 21
204.2333518047798
 31
0.0
  0
LINE
  5
141
330
240
100
AcDbEntity
  8
GAIKEI
  6
Continuous
100
AcDbLine
 10
44.79482352659565
 20
204.2333518047798
 30
0.0
 11
44.80460172659568
 21
204.1730954047798
 31
0.0
  0
LINE
  5
142
330
240
100
AcDbEntity
  8
GAIKEI
  6
Continuous
100
AcDbLine
 10
45.82244932659565
 20
204.8229890047798
 30
0.0
 11
45.58846912659563
 21
204.8288170047798
 31
0.0
  0
LINE
  5
143
330
240
100
AcDbEntity
  8
GAIKEI
  6
Continuous
100
AcDbLine
 10
46.82073212659574
 20
204.8288170047798
 30
0.0
 11
46.58675112659564
 21
204.8229890047798
 31
0.0
  0
LINE
  5
144
330
240
100
AcDbEntity
  8
GAIKEI
  6
Continuous
100
AcDbLine
 10
46.58675112659564
 20
204.8229890047798
 30
0.0
 11
46.33409212659564
 21
204.8200026047798
 31
0.0
  0
LINE
  5
145
330
240
100
AcDbEntity
  8
GAIKEI
  6
Continuous
100
AcDbLine
 10
46.33409212659564
 20
204.8200026047798
 30
0.0
 11
46.07510792659566
 21
204.8200028047798
 31
0.0
  0
LINE
  5
146
330
240
100
AcDbEntity
  8
GAIKEI
  6
Continuous
100
AcDbLine
 10
47.02456592659571
 20
204.8372036047798
 30
0.0
 11
46.82073212659574
 21
204.8288170047798
 31
0.0
  0
LINE
  5
147
330
240
100
AcDbEntity
  8
GAIKEI
  6
Continuous
100
AcDbLine
 10
46.20460172659566
 20
206.3648524047798
 30
0.0
 11
46.03714152659572
 21
206.3656158047798
 31
0.0
  0
LINE
  5
148
330
240
100
AcDbEntity
  8
GAIKEI
  6
Continuous
100
AcDbLine
 10
46.20460032659567
 20
206.3790168047798
 30
0.0
 11
46.02356532659571
 21
206.3802650047798
 31
0.0
  0
LINE
  5
149
330
240
100
AcDbEntity
  8
GAIKEI
  6
Continuous
100
AcDbLine
 10
46.20460172659566
 20
206.0543852047798
 30
0.0
 11
46.00136572659571
 21
206.0550142047798
 31
0.0
  0
LINE
  5
14A
330
240
100
AcDbEntity
  8
GAIKEI
  6
Continuous
100
AcDbLine
 10
45.03460172659571
 20
206.1152906047798
 30
0.0
 11
45.03460172659571
 21
204.8730820047798
 31
0.0
  0
LINE
  5
14B
330
240
100
AcDbEntity
  8
GAIKEI
  6
Continuous
100
AcDbLine
 10
45.22097872659569
 20
204.8477402047799
 30
0.0
 11
45.1055819265957
 21
204.8599110047798
 31
0.0
  0
LINE
  5
14C
330
240
100
AcDbEntity
  8
GAIKEI
  6
Continuous
100
AcDbLine
 10
45.1055819265957
 20
204.8599110047798
 30
0.0
 11
45.04425692659569
 21
204.8730820047798
 31
0.0
  0
LINE
  5
14D
330
240
100
AcDbEntity
  8
GAIKEI
  6
Continuous
100
AcDbLine
 10
45.45072112659565
 20
206.0681982047798
 30
0.0
 11
45.30629592659565
 21
206.0756382047798
 31
0.0
  0
LINE
  5
14E
330
240
100
AcDbEntity
  8
GAIKEI
  6
Continuous
100
AcDbLine
 10
45.23447472659571
 20
206.4157024047798
 30
0.0
 11
45.50460172659572
 21
206.4157024047798
 31
0.0
  0
LINE
  5
14F
330
240
100
AcDbEntity
  8
GAIKEI
  6
Continuous
100
AcDbLine
 10
45.46207732659566
 20
206.3829768047798
 30
0.0
 11
45.3649965265957
 21
206.3902274047798
 31
0.0
  0
LINE
  5
150
330
240
100
AcDbEntity
  8
GAIKEI
  6
Continuous
100
AcDbLine
 10
45.23447472659571
 20
206.4157024047798
 30
0.0
 11
45.16843052659564
 21
206.3163970047798
 31
0.0
  0
LINE
  5
151
330
240
100
AcDbEntity
  8
GAIKEI
  6
Continuous
100
AcDbLine
 10
45.16843052659564
 20
206.3163970047798
 30
0.0
 11
45.03460172659571
 21
206.1152906047798
 31
0.0
  0
LINE
  5
152
330
240
100
AcDbEntity
  8
GAIKEI
  6
Continuous
100
AcDbLine
 10
45.30629592659565
 20
206.0756382047798
 30
0.0
 11
45.18995872659568
 21
206.0848380047798
 31
0.0
  0
LINE
  5
153
330
240
100
AcDbEntity
  8
GAIKEI
  6
Continuous
100
AcDbLine
 10
45.18995872659568
 20
206.0848380047798
 30
0.0
 11
45.10437032659567
 21
206.0945044047798
 31
0.0
  0
LINE
  5
154
330
240
100
AcDbEntity
  8
GAIKEI
  6
Continuous
100
AcDbLine
 10
45.10437032659567
 20
206.0945044047798
 30
0.0
 11
45.05222992659567
 21
206.1046926047798
 31
0.0
  0
LINE
  5
155
330
240
100
AcDbEntity
  8
GAIKEI
  6
Continuous
100
AcDbLine
 10
45.05222992659567
 20
206.1046926047798
 30
0.0
 11
45.03460172659571
 21
206.1153114047798
 31
0.0
  0
LINE
  5
156
330
240
100
AcDbEntity
  8
GAIKEI
  6
Continuous
100
AcDbLine
 10
45.3649965265957
 20
206.3902274047798
 30
0.0
 11
45.29327292659568
 21
206.3982684047798
 31
0.0
  0
LINE
  5
157
330
240
100
AcDbEntity
  8
GAIKEI
  6
Continuous
100
AcDbLine
 10
45.29327292659568
 20
206.3982684047798
 30
0.0
 11
45.24938112659568
 21
206.4068224047798
 31
0.0
  0
LINE
  5
158
330
240
100
AcDbEntity
  8
GAIKEI
  6
Continuous
100
AcDbLine
 10
45.24938112659568
 20
206.4068224047798
 30
0.0
 11
45.23447472659571
 21
206.4157024047798
 31
0.0
  0
LINE
  5
159
330
240
100
AcDbEntity
  8
GAIKEI
  6
Continuous
100
AcDbLine
 10
46.03714152659572
 20
206.3656158047798
 30
0.0
 11
45.87289412659571
 21
206.3679172047798
 31
0.0
  0
LINE
  5
15A
330
240
100
AcDbEntity
  8
GAIKEI
  6
Continuous
100
AcDbLine
 10
45.87289412659571
 20
206.3679172047798
 30
0.0
 11
45.72041252659571
 21
206.3716386047798
 31
0.0
  0
LINE
  5
15B
330
240
100
AcDbEntity
  8
GAIKEI
  6
Continuous
100
AcDbLine
 10
45.72041252659571
 20
206.3716386047798
 30
0.0
 11
45.58212372659563
 21
206.3767002047798
 31
0.0
  0
LINE
  5
15C
330
240
100
AcDbEntity
  8
GAIKEI
  6
Continuous
100
AcDbLine
 10
46.02356532659571
 20
206.3802650047798
 30
0.0
 11
45.85481532659566
 21
206.3839254047798
 31
0.0
  0
LINE
  5
15D
330
240
100
AcDbEntity
  8
GAIKEI
  6
Continuous
100
AcDbLine
 10
45.85481532659566
 20
206.3839254047798
 30
0.0
 11
45.70982892659569
 21
206.3897512047799
 31
0.0
  0
LINE
  5
15E
330
240
100
AcDbEntity
  8
GAIKEI
  6
Continuous
100
AcDbLine
 10
45.70982892659569
 20
206.3897512047799
 30
0.0
 11
45.59850772659567
 21
206.3973484047798
 31
0.0
  0
LINE
  5
15F
330
240
100
AcDbEntity
  8
GAIKEI
  6
Continuous
100
AcDbLine
 10
45.59850772659567
 20
206.3973484047798
 30
0.0
 11
45.52849052659571
 21
206.4062002047798
 31
0.0
  0
LINE
  5
160
330
240
100
AcDbEntity
  8
GAIKEI
  6
Continuous
100
AcDbLine
 10
45.52849052659571
 20
206.4062002047798
 30
0.0
 11
45.50460172659572
 21
206.4157024047798
 31
0.0
  0
LINE
  5
161
330
240
100
AcDbEntity
  8
GAIKEI
  6
Continuous
100
AcDbLine
 10
46.00136572659571
 20
206.0550142047798
 30
0.0
 11
45.80219612659571
 21
206.0578018047798
 31
0.0
  0
LINE
  5
162
330
240
100
AcDbEntity
  8
GAIKEI
  6
Continuous
100
AcDbLine
 10
45.80219612659571
 20
206.0578018047798
 30
0.0
 11
45.61763612659567
 21
206.0625588047798
 31
0.0
  0
LINE
  5
163
330
240
100
AcDbEntity
  8
GAIKEI
  6
Continuous
100
AcDbLine
 10
45.61763612659567
 20
206.0625588047798
 30
0.0
 11
45.45072112659565
 21
206.0681982047798
 31
0.0
  0
LINE
  5
164
330
240
100
AcDbEntity
  8
GAIKEI
  6
Continuous
100
AcDbLine
 10
45.58212372659563
 20
206.3767002047798
 30
0.0
 11
45.46207732659566
 21
206.3829768047798
 31
0.0
  0
LINE
  5
165
330
240
100
AcDbEntity
  8
GAIKEI
  6
Continuous
100
AcDbLine
 10
46.82707952659572
 20
206.3767002047798
 30
0.0
 11
46.68879072659566
 21
206.3716386047798
 31
0.0
  0
LINE
  5
166
330
240
100
AcDbEntity
  8
GAIKEI
  6
Continuous
100
AcDbLine
 10
46.81069512659571
 20
206.3973484047798
 30
0.0
 11
46.69937332659569
 21
206.3897512047799
 31
0.0
  0
LINE
  5
167
330
240
100
AcDbEntity
  8
GAIKEI
  6
Continuous
100
AcDbLine
 10
46.79156712659571
 20
206.0625588047798
 30
0.0
 11
46.60700712659568
 21
206.0578018047798
 31
0.0
  0
LINE
  5
168
330
240
100
AcDbEntity
  8
GAIKEI
  6
Continuous
100
AcDbLine
 10
46.68879072659566
 20
206.3716386047798
 30
0.0
 11
46.53630912659568
 21
206.3679172047798
 31
0.0
  0
LINE
  5
169
330
240
100
AcDbEntity
  8
GAIKEI
  6
Continuous
100
AcDbLine
 10
46.53630912659568
 20
206.3679172047798
 30
0.0
 11
46.37206172659566
 21
206.3656158047798
 31
0.0
  0
LINE
  5
16A
330
240
100
AcDbEntity
  8
GAIKEI
  6
Continuous
100
AcDbLine
 10
46.37206172659566
 20
206.3656158047798
 30
0.0
 11
46.20460172659566
 21
206.3648524047798
 31
0.0
  0
LINE
  5
16B
330
240
100
AcDbEntity
  8
GAIKEI
  6
Continuous
100
AcDbLine
 10
46.69937332659569
 20
206.3897512047799
 30
0.0
 11
46.55438612659575
 21
206.3839252047798
 31
0.0
  0
LINE
  5
16C
330
240
100
AcDbEntity
  8
GAIKEI
  6
Continuous
100
AcDbLine
 10
46.55438612659575
 20
206.3839252047798
 30
0.0
 11
46.38563552659568
 21
206.3802650047798
 31
0.0
  0
LINE
  5
16D
330
240
100
AcDbEntity
  8
GAIKEI
  6
Continuous
100
AcDbLine
 10
46.38563552659568
 20
206.3802650047798
 30
0.0
 11
46.20460032659567
 21
206.3790168047798
 31
0.0
  0
LINE
  5
16E
330
240
100
AcDbEntity
  8
GAIKEI
  6
Continuous
100
AcDbLine
 10
46.60700712659568
 20
206.0578018047798
 30
0.0
 11
46.40783752659567
 21
206.0550142047798
 31
0.0
  0
LINE
  5
16F
330
240
100
AcDbEntity
  8
GAIKEI
  6
Continuous
100
AcDbLine
 10
46.40783752659567
 20
206.0550142047798
 30
0.0
 11
46.20460172659566
 21
206.0543852047798
 31
0.0
  0
LINE
  5
170
330
240
100
AcDbEntity
  8
GAIKEI
  6
Continuous
100
AcDbLine
 10
47.1159303265957
 20
206.3982684047798
 30
0.0
 11
47.04420672659566
 21
206.3902274047798
 31
0.0
  0
LINE
  5
171
330
240
100
AcDbEntity
  8
GAIKEI
  6
Continuous
100
AcDbLine
 10
47.04420672659566
 20
206.3902274047798
 30
0.0
 11
46.94712592659571
 21
206.3829768047798
 31
0.0
  0
LINE
  5
172
330
240
100
AcDbEntity
  8
GAIKEI
  6
Continuous
100
AcDbLine
 10
46.94712592659571
 20
206.3829768047798
 30
0.0
 11
46.82707952659572
 21
206.3767002047798
 31
0.0
  0
LINE
  5
173
330
240
100
AcDbEntity
  8
GAIKEI
  6
Continuous
100
AcDbLine
 10
46.9046017265957
 20
206.4157024047798
 30
0.0
 11
46.88071252659571
 21
206.4062002047798
 31
0.0
  0
LINE
  5
174
330
240
100
AcDbEntity
  8
GAIKEI
  6
Continuous
100
AcDbLine
 10
46.88071252659571
 20
206.4062002047798
 30
0.0
 11
46.81069512659571
 21
206.3973484047798
 31
0.0
  0
LINE
  5
175
330
240
100
AcDbEntity
  8
GAIKEI
  6
Continuous
100
AcDbLine
 10
47.10290732659571
 20
206.0756382047798
 30
0.0
 11
46.95848212659572
 21
206.0681982047798
 31
0.0
  0
LINE
  5
176
330
240
100
AcDbEntity
  8
GAIKEI
  6
Continuous
100
AcDbLine
 10
46.95848212659572
 20
206.0681982047798
 30
0.0
 11
46.79156712659571
 21
206.0625588047798
 31
0.0
  0
LINE
  5
177
330
240
100
AcDbEntity
  8
GAIKEI
  6
Continuous
100
AcDbLine
 10
47.1882241265957
 20
204.8477400047798
 30
0.0
 11
47.02456592659571
 21
204.8372036047798
 31
0.0
  0
LINE
  5
178
330
240
100
AcDbEntity
  8
GAIKEI
  6
Continuous
100
AcDbLine
 10
47.15982232659571
 20
206.4068224047798
 30
0.0
 11
47.1159303265957
 21
206.3982684047798
 31
0.0
  0
LINE
  5
179
330
240
100
AcDbEntity
  8
GAIKEI
  6
Continuous
100
AcDbLine
 10
47.2192445265957
 20
206.0848380047798
 30
0.0
 11
47.10290732659571
 21
206.0756382047798
 31
0.0
  0
LINE
  5
17A
330
240
100
AcDbEntity
  8
GAIKEI
  6
Continuous
100
AcDbLine
 10
46.9046017265957
 20
206.4157024047798
 30
0.0
 11
47.17472852659565
 21
206.4157024047798
 31
0.0
  0
LINE
  5
17B
330
240
100
AcDbEntity
  8
GAIKEI
  6
Continuous
100
AcDbLine
 10
48.85412992659571
 20
178.5730824047798
 30
0.0
 11
52.20485532659572
 21
178.5730824047798
 31
0.0
  0
LINE
  5
17C
330
240
100
AcDbEntity
  8
GAIKEI
  6
Continuous
100
AcDbLine
 10
48.85412992659571
 20
178.5757028047798
 30
0.0
 11
52.20485712659566
 21
178.5757028047798
 31
0.0
  0
LINE
  5
17D
330
240
100
AcDbEntity
  8
GAIKEI
  6
Continuous
100
AcDbLine
 10
48.8302957265957
 20
178.5918492047798
 30
0.0
 11
48.77076532659575
 21
178.6077390047798
 31
0.0
  0
LINE
  5
17E
330
240
100
AcDbEntity
  8
GAIKEI
  6
Continuous
100
AcDbLine
 10
48.19867992659565
 20
178.6645508047798
 30
0.0
 11
47.98182432659571
 21
178.6761004047798
 31
0.0
  0
LINE
  5
17F
330
240
100
AcDbEntity
  8
GAIKEI
  6
Continuous
100
AcDbLine
 10
47.98182432659571
 20
178.6761004047798
 30
0.0
 11
47.89490552659567
 21
178.6897998047798
 31
0.0
  0
LINE
  5
180
330
240
100
AcDbEntity
  8
GAIKEI
  6
Continuous
100
AcDbLine
 10
47.89490552659567
 20
178.6897998047798
 30
0.0
 11
47.81675132659571
 21
178.7177588047798
 31
0.0
  0
LINE
  5
181
330
240
100
AcDbEntity
  8
GAIKEI
  6
Continuous
100
AcDbLine
 10
47.81675132659571
 20
178.7177588047798
 30
0.0
 11
47.74822712659565
 21
178.7557266047798
 31
0.0
  0
LINE
  5
182
330
240
100
AcDbEntity
  8
GAIKEI
  6
Continuous
100
AcDbLine
 10
47.74822712659565
 20
178.7557266047798
 30
0.0
 11
47.69005472659566
 21
178.8018826047798
 31
0.0
  0
LINE
  5
183
330
240
100
AcDbEntity
  8
GAIKEI
  6
Continuous
100
AcDbLine
 10
47.69005472659566
 20
178.8018826047798
 30
0.0
 11
47.64456032659571
 21
178.8549690047798
 31
0.0
  0
LINE
  5
184
330
240
100
AcDbEntity
  8
GAIKEI
  6
Continuous
100
AcDbLine
 10
47.64456032659571
 20
178.8549690047798
 30
0.0
 11
47.61437972659573
 21
178.9154330047798
 31
0.0
  0
LINE
  5
185
330
240
100
AcDbEntity
  8
GAIKEI
  6
Continuous
100
AcDbLine
 10
47.61437972659573
 20
178.9154330047798
 30
0.0
 11
47.60460172659575
 21
178.9756892047798
 31
0.0
  0
LINE
  5
186
330
240
100
AcDbEntity
  8
GAIKEI
  6
Continuous
100
AcDbLine
 10
48.77076532659575
 20
178.6077390047798
 30
0.0
 11
48.67634052659568
 21
178.6231586047798
 31
0.0
  0
LINE
  5
187
330
240
100
AcDbEntity
  8
GAIKEI
  6
Continuous
100
AcDbLine
 10
48.67634052659568
 20
178.6231586047798
 30
0.0
 11
48.54829652659575
 21
178.6378986047799
 31
0.0
  0
LINE
  5
188
330
240
100
AcDbEntity
  8
GAIKEI
  6
Continuous
100
AcDbLine
 10
48.54829652659575
 20
178.6378986047799
 30
0.0
 11
48.38835732659571
 21
178.6517588047798
 31
0.0
  0
LINE
  5
189
330
240
100
AcDbEntity
  8
GAIKEI
  6
Continuous
100
AcDbLine
 10
48.38835732659571
 20
178.6517588047798
 30
0.0
 11
48.19867992659565
 21
178.6645508047798
 31
0.0
  0
LINE
  5
18A
330
240
100
AcDbEntity
  8
GAIKEI
  6
Continuous
100
AcDbLine
 10
48.85412992659571
 20
178.5757028047798
 30
0.0
 11
48.8302957265957
 21
178.5918492047798
 31
0.0
  0
LINE
  5
18B
330
240
100
AcDbEntity
  8
GAIKEI
  6
Continuous
100
AcDbLine
 10
48.85412992659571
 20
178.5757028047798
 30
0.0
 11
48.85412992659571
 21
178.4757782047798
 31
0.0
  0
LINE
  5
18C
330
240
100
AcDbEntity
  8
GAIKEI
  6
Continuous
100
AcDbLine
 10
48.85412992659571
 20
178.4757782047798
 30
0.0
 11
48.85029232659574
 21
178.4367646047798
 31
0.0
  0
LINE
  5
18D
330
240
100
AcDbEntity
  8
GAIKEI
  6
Continuous
100
AcDbLine
 10
48.85029112659569
 20
178.4341446047799
 30
0.0
 11
48.85412992659571
 21
178.4731578047799
 31
0.0
  0
LINE
  5
18E
330
240
100
AcDbEntity
  8
GAIKEI
  6
Continuous
100
AcDbLine
 10
52.50460592659564
 20
178.8757632047798
 30
0.0
 11
52.49885152659564
 21
178.8172498047798
 31
0.0
  0
LINE
  5
18F
330
240
100
AcDbEntity
  8
GAIKEI
  6
Continuous
100
AcDbLine
 10
52.49885152659564
 20
178.8172498047798
 30
0.0
 11
52.48181612659571
 21
178.7609794047798
 31
0.0
  0
LINE
  5
190
330
240
100
AcDbEntity
  8
GAIKEI
  6
Continuous
100
AcDbLine
 10
52.48181612659571
 20
178.7609794047798
 30
0.0
 11
52.45414092659572
 21
178.7091082047798
 31
0.0
  0
LINE
  5
191
330
240
100
AcDbEntity
  8
GAIKEI
  6
Continuous
100
AcDbLine
 10
52.45414092659572
 20
178.7091082047798
 30
0.0
 11
52.41688072659574
 21
178.6636312047798
 31
0.0
  0
LINE
  5
192
330
240
100
AcDbEntity
  8
GAIKEI
  6
Continuous
100
AcDbLine
 10
52.41688072659574
 20
178.6636312047798
 30
0.0
 11
52.37146012659568
 21
178.6262996047798
 31
0.0
  0
LINE
  5
193
330
240
100
AcDbEntity
  8
GAIKEI
  6
Continuous
100
AcDbLine
 10
52.37146012659568
 20
178.6262996047798
 30
0.0
 11
52.31962392659564
 21
178.5985558047798
 31
0.0
  0
LINE
  5
194
330
240
100
AcDbEntity
  8
GAIKEI
  6
Continuous
100
AcDbLine
 10
52.31962392659564
 20
178.5985558047798
 30
0.0
 11
52.26336712659574
 21
178.5814708047798
 31
0.0
  0
LINE
  5
195
330
240
100
AcDbEntity
  8
GAIKEI
  6
Continuous
100
AcDbLine
 10
52.26336712659574
 20
178.5814708047798
 30
0.0
 11
52.20485712659566
 21
178.5757028047798
 31
0.0
  0
LINE
  5
196
330
240
100
AcDbEntity
  8
GAIKEI
  6
Continuous
100
AcDbLine
 10
52.20485532659572
 20
178.5730824047798
 30
0.0
 11
52.26336612659576
 21
178.5788506047798
 31
0.0
  0
LINE
  5
197
330
240
100
AcDbEntity
  8
GAIKEI
  6
Continuous
100
AcDbLine
 10
52.26336612659576
 20
178.5788506047798
 30
0.0
 11
52.31962432659575
 21
178.5959362047798
 31
0.0
  0
LINE
  5
198
330
240
100
AcDbEntity
  8
GAIKEI
  6
Continuous
100
AcDbLine
 10
52.31962432659575
 20
178.5959362047798
 30
0.0
 11
52.37146172659571
 21
178.6236814047798
 31
0.0
  0
LINE
  5
199
330
240
100
AcDbEntity
  8
GAIKEI
  6
Continuous
100
AcDbLine
 10
52.37146172659571
 20
178.6236814047798
 30
0.0
 11
52.41688212659571
 21
178.6610142047798
 31
0.0
  0
LINE
  5
19A
330
240
100
AcDbEntity
  8
GAIKEI
  6
Continuous
100
AcDbLine
 10
52.41688212659571
 20
178.6610142047798
 30
0.0
 11
52.45414132659571
 21
178.7064912047798
 31
0.0
  0
LINE
  5
19B
330
240
100
AcDbEntity
  8
GAIKEI
  6
Continuous
100
AcDbLine
 10
52.45414132659571
 20
178.7064912047798
 30
0.0
 11
52.4818151265957
 21
178.7583614047798
 31
0.0
  0
LINE
  5
19C
330
240
100
AcDbEntity
  8
GAIKEI
  6
Continuous
100
AcDbLine
 10
52.4818151265957
 20
178.7583614047798
 30
0.0
 11
52.49884972659568
 21
178.8146302047798
 31
0.0
  0
LINE
  5
19D
330
240
100
AcDbEntity
  8
GAIKEI
  6
Continuous
100
AcDbLine
 10
52.49884972659568
 20
178.8146302047798
 30
0.0
 11
52.50460592659564
 21
178.8731426047798
 31
0.0
  0
LINE
  5
19E
330
240
100
AcDbEntity
  8
GAIKEI
  6
Continuous
100
AcDbLine
 10
44.71914852659572
 20
178.8018826047798
 30
0.0
 11
44.66097612659573
 21
178.7557266047798
 31
0.0
  0
LINE
  5
19F
330
240
100
AcDbEntity
  8
GAIKEI
  6
Continuous
100
AcDbLine
 10
44.21050972659575
 20
178.6645500047798
 30
0.0
 11
44.02082452659564
 21
178.6517572047798
 31
0.0
  0
LINE
  5
1A0
330
240
100
AcDbEntity
  8
GAIKEI
  6
Continuous
100
AcDbLine
 10
43.55891192659564
 20
178.4367650047798
 30
0.0
 11
43.55507332659565
 21
178.4757782047798
 31
0.0
  0
LINE
  5
1A1
330
240
100
AcDbEntity
  8
GAIKEI
  6
Continuous
100
AcDbLine
 10
44.02082452659564
 20
178.6517572047798
 30
0.0
 11
43.8608863265957
 21
178.6378966047798
 31
0.0
  0
LINE
  5
1A2
330
240
100
AcDbEntity
  8
GAIKEI
  6
Continuous
100
AcDbLine
 10
43.8608863265957
 20
178.6378966047798
 30
0.0
 11
43.73284992659566
 21
178.6231570047798
 31
0.0
  0
LINE
  5
1A3
330
240
100
AcDbEntity
  8
GAIKEI
  6
Continuous
100
AcDbLine
 10
43.73284992659566
 20
178.6231570047798
 30
0.0
 11
43.63843312659567
 21
178.6077380047798
 31
0.0
  0
LINE
  5
1A4
330
240
100
AcDbEntity
  8
GAIKEI
  6
Continuous
100
AcDbLine
 10
43.63843312659567
 20
178.6077380047798
 30
0.0
 11
43.5789067265957
 21
178.5918490047799
 31
0.0
  0
LINE
  5
1A5
330
240
100
AcDbEntity
  8
GAIKEI
  6
Continuous
100
AcDbLine
 10
43.5789067265957
 20
178.5918490047799
 30
0.0
 11
43.55507332659565
 21
178.5757028047798
 31
0.0
  0
LINE
  5
1A6
330
240
100
AcDbEntity
  8
GAIKEI
  6
Continuous
100
AcDbLine
 10
43.55507332659565
 20
178.4731580047798
 30
0.0
 11
43.55891092659564
 21
178.4341442047798
 31
0.0
  0
LINE
  5
1A7
330
240
100
AcDbEntity
  8
GAIKEI
  6
Continuous
100
AcDbLine
 10
43.55507332659565
 20
178.5757028047798
 30
0.0
 11
43.55507332659565
 21
178.4757782047798
 31
0.0
  0
LINE
  5
1A8
330
240
100
AcDbEntity
  8
GAIKEI
  6
Continuous
100
AcDbLine
 10
44.42737892659565
 20
178.6761004047798
 30
0.0
 11
44.21050972659575
 21
178.6645500047798
 31
0.0
  0
LINE
  5
1A9
330
240
100
AcDbEntity
  8
GAIKEI
  6
Continuous
100
AcDbLine
 10
44.66097612659573
 20
178.7557266047798
 30
0.0
 11
44.59245192659564
 21
178.7177588047798
 31
0.0
  0
LINE
  5
1AA
330
240
100
AcDbEntity
  8
GAIKEI
  6
Continuous
100
AcDbLine
 10
44.59245192659564
 20
178.7177588047798
 30
0.0
 11
44.51429792659571
 21
178.6897998047798
 31
0.0
  0
LINE
  5
1AB
330
240
100
AcDbEntity
  8
GAIKEI
  6
Continuous
100
AcDbLine
 10
44.51429792659571
 20
178.6897998047798
 30
0.0
 11
44.42737892659565
 21
178.6761004047798
 31
0.0
  0
LINE
  5
1AC
330
240
100
AcDbEntity
  8
GAIKEI
  6
Continuous
100
AcDbLine
 10
44.80460172659568
 20
178.9756892047798
 30
0.0
 11
44.79482352659565
 21
178.9154330047798
 31
0.0
  0
LINE
  5
1AD
330
240
100
AcDbEntity
  8
GAIKEI
  6
Continuous
100
AcDbLine
 10
44.79482352659565
 20
178.9154330047798
 30
0.0
 11
44.76464292659566
 21
178.8549690047798
 31
0.0
  0
LINE
  5
1AE
330
240
100
AcDbEntity
  8
GAIKEI
  6
Continuous
100
AcDbLine
 10
44.76464292659566
 20
178.8549690047798
 30
0.0
 11
44.71914852659572
 21
178.8018826047798
 31
0.0
  0
LINE
  5
1AF
330
240
100
AcDbEntity
  8
GAIKEI
  6
Continuous
100
AcDbLine
 10
44.80460172659568
 20
204.1730954047798
 30
0.0
 11
44.80460172659568
 21
178.9756892047798
 31
0.0
  0
LINE
  5
1B0
330
240
100
AcDbEntity
  8
GAIKEI
  6
Continuous
100
AcDbLine
 10
47.60460172659575
 20
204.1730954047798
 30
0.0
 11
47.60460172659575
 21
178.9756892047798
 31
0.0
  0
LINE
  5
1B1
330
240
100
AcDbEntity
  8
GAIKEI
  6
Continuous
100
AcDbLine
 10
52.50460592659564
 20
204.2730214047798
 30
0.0
 11
52.50460592659564
 21
178.8757632047798
 31
0.0
  0
LINE
  5
1B2
330
240
100
AcDbEntity
  8
GAIKEI
  6
Continuous
100
AcDbLine
 10
45.56460172659567
 20
231.9757024047798
 30
0.0
 11
45.56460172659567
 21
230.2757024047799
 31
0.0
  0
LINE
  5
1B3
330
240
100
AcDbEntity
  8
GAIKEI
  6
Continuous
100
AcDbLine
 10
46.84460172659564
 20
231.9757024047798
 30
0.0
 11
46.84460172659564
 21
230.2757024047799
 31
0.0
  0
LINE
  5
1B4
330
240
100
AcDbEntity
  8
GAIKEI
  6
Continuous
100
AcDbLine
 10
45.66460172659569
 20
230.1757024047798
 30
0.0
 11
46.74460172659571
 21
230.1757024047798
 31
0.0
  0
ARC
  5
1B5
330
240
100
AcDbEntity
  8
GAIKEI
  6
Continuous
100
AcDbCircle
 10
45.66460172659569
 20
230.2757024047799
 30
0.0
 40
0.1
100
AcDbArc
 50
180.0
 51
270.0
  0
ARC
  5
1B6
330
240
100
AcDbEntity
  8
GAIKEI
  6
Continuous
100
AcDbCircle
 10
46.74460172659571
 20
230.2757024047799
 30
0.0
 40
0.1
100
AcDbArc
 50
270.0
 51
0.0
  0
ARC
  5
1B7
330
240
100
AcDbEntity
  8
GAIKEI
  6
Continuous
100
AcDbCircle
 10
46.16460172659569
 20
231.9757024047798
 30
0.0
 40
0.6000000000000001
100
AcDbArc
 50
90.0
 51
180.0
  0
ARC
  5
1B8
330
240
100
AcDbEntity
  8
GAIKEI
  6
Continuous
100
AcDbCircle
 10
46.24460172659571
 20
231.9757024047798
 30
0.0
 40
0.6000000000000001
100
AcDbArc
 50
0.0
 51
90.0
  0
LINE
  5
1B9
330
240
100
AcDbEntity
  8
GAIKEI
  6
Continuous
100
AcDbLine
 10
46.16460172659569
 20
232.5757024047799
 30
0.0
 11
46.24460172659571
 21
232.5757024047799
 31
0.0
  0
LINE
  5
1BA
330
240
100
AcDbEntity
  8
GAIKEI
  6
Continuous
100
AcDbLine
 10
82.15364590744306
 20
204.5757024047798
 30
0.0
 11
84.06934670744316
 21
204.4753048047798
 31
0.0
  0
LINE
  5
1BB
330
240
100
AcDbEntity
  8
GAIKEI
  6
Continuous
100
AcDbLine
 10
82.15364590744306
 20
204.8757024047798
 30
0.0
 11
84.56411310744316
 21
204.7493750047798
 31
0.0
  0
LINE
  5
1BC
330
240
100
AcDbEntity
  8
GAIKEI
  6
Continuous
100
AcDbLine
 10
83.19732550744307
 20
203.9673710047798
 30
0.0
 11
83.25555490744315
 21
203.9940252047798
 31
0.0
  0
LINE
  5
1BD
330
240
100
AcDbEntity
  8
GAIKEI
  6
Continuous
100
AcDbLine
 10
83.37364590744309
 20
206.0517648047798
 30
0.0
 11
83.17391990744317
 21
206.3622320047798
 31
0.0
  0
LINE
  5
1BE
330
240
100
AcDbEntity
  8
GAIKEI
  6
Continuous
100
AcDbLine
 10
83.21562150744304
 20
206.0599342047798
 30
0.0
 11
83.30235790744309
 21
206.0550608047799
 31
0.0
  0
LINE
  5
1BF
330
240
100
AcDbEntity
  8
GAIKEI
  6
Continuous
100
AcDbLine
 10
82.15364590744306
 20
178.5730824047798
 30
0.0
 11
84.06934670744316
 21
178.6734800047798
 31
0.0
  0
LINE
  5
1C0
330
240
100
AcDbEntity
  8
GAIKEI
  6
Continuous
100
AcDbLine
 10
83.25548010744304
 20
179.1547898047798
 30
0.0
 11
83.19727270744316
 21
179.1814408047798
 31
0.0
  0
LINE
  5
1C1
330
240
100
AcDbEntity
  8
GAIKEI
  6
Continuous
100
AcDbLine
 10
81.70364590744311
 20
206.3894984047799
 30
0.0
 11
81.70364590744311
 21
230.1757024047798
 31
0.0
  0
LINE
  5
1C2
330
240
100
AcDbEntity
  8
GAIKEI
  6
Continuous
100
AcDbLine
 10
82.70364590744312
 20
206.3868780047799
 30
0.0
 11
82.70364590744312
 21
230.1757024047798
 31
0.0
  0
LINE
  5
1C3
330
240
100
AcDbEntity
  8
GAIKEI
  6
Continuous
100
AcDbLine
 10
82.20364590744312
 20
206.4130820047799
 30
0.0
 11
83.17391990744317
 21
206.3622320047798
 31
0.0
  0
LINE
  5
1C4
330
240
100
AcDbEntity
  8
GAIKEI
  6
Continuous
100
AcDbLine
 10
82.78610790744309
 20
206.0821484047798
 30
0.0
 11
82.95287930744311
 21
206.0730290047798
 31
0.0
  0
LINE
  5
1C5
330
240
100
AcDbEntity
  8
GAIKEI
  6
Continuous
100
AcDbLine
 10
79.64317870744307
 20
204.7467548047798
 30
0.0
 11
82.05364590744304
 21
204.8730820047798
 31
0.0
  0
ARC
  5
1C6
330
240
100
AcDbEntity
  8
GAIKEI
  6
Continuous
100
AcDbCircle
 10
80.1536521400253
 20
204.1730958391152
 30
0.0
 40
0.3000000325825999
100
AcDbArc
 50
93.00119415401836
 51
180.0000829519276
  0
ARC
  5
1C7
330
240
100
AcDbEntity
  8
GAIKEI
  6
Continuous
100
AcDbCircle
 10
79.65364595413287
 20
204.5470288539806
 30
0.0
 40
0.2000000466898
100
AcDbArc
 50
93.0000152035415
 51
180.0000140949823
  0
LINE
  5
1C8
330
240
100
AcDbEntity
  8
GAIKEI
  6
Continuous
100
AcDbLine
 10
81.03364590744304
 20
206.0543852047798
 30
0.0
 11
81.03364590744304
 21
204.8200028047798
 31
0.0
  0
LINE
  5
1C9
330
240
100
AcDbEntity
  8
GAIKEI
  6
Continuous
100
AcDbLine
 10
80.13794510744306
 20
204.4726844047798
 30
0.0
 11
82.05364590744304
 21
204.5730820047798
 31
0.0
  0
LINE
  5
1CA
330
240
100
AcDbEntity
  8
GAIKEI
  6
Continuous
 62
     1
100
AcDbLine
 10
82.05364590744304
 20
204.3530820047799
 30
0.0
 11
82.15364590744306
 21
204.3530820047799
 31
0.0
  0
LINE
  5
1CB
330
240
100
AcDbEntity
  8
GAIKEI
  6
Continuous
 62
     1
100
AcDbLine
 10
82.05364590744304
 20
204.6530820047798
 30
0.0
 11
82.15364590744306
 21
204.6530820047798
 31
0.0
  0
LINE
  5
1CC
330
240
100
AcDbEntity
  8
GAIKEI
  6
Continuous
100
AcDbLine
 10
81.62106550744317
 20
206.0848380047798
 30
0.0
 11
81.45401470744307
 21
206.0756382047798
 31
0.0
  0
LINE
  5
1CD
330
240
100
AcDbEntity
  8
GAIKEI
  6
Continuous
100
AcDbLine
 10
82.20364590744312
 20
206.4157024047798
 30
0.0
 11
81.23337170744306
 21
206.3648524047798
 31
0.0
  0
LINE
  5
1CE
330
240
100
AcDbEntity
  8
GAIKEI
  6
Continuous
100
AcDbLine
 10
81.23337170744306
 20
206.3648524047798
 30
0.0
 11
81.03364590744304
 21
206.0543852047798
 31
0.0
  0
LINE
  5
1CF
330
240
100
AcDbEntity
  8
GAIKEI
  6
Continuous
100
AcDbLine
 10
81.45401470744307
 20
206.0756382047798
 30
0.0
 11
81.30890330744305
 21
206.0681982047798
 31
0.0
  0
LINE
  5
1D0
330
240
100
AcDbEntity
  8
GAIKEI
  6
Continuous
100
AcDbLine
 10
81.30890330744305
 20
206.0681982047798
 30
0.0
 11
81.19153350744317
 21
206.0625588047798
 31
0.0
  0
LINE
  5
1D1
330
240
100
AcDbEntity
  8
GAIKEI
  6
Continuous
100
AcDbLine
 10
81.19153350744317
 20
206.0625588047798
 30
0.0
 11
81.10502410744309
 21
206.0578018047798
 31
0.0
  0
LINE
  5
1D2
330
240
100
AcDbEntity
  8
GAIKEI
  6
Continuous
100
AcDbLine
 10
81.10502410744309
 20
206.0578018047798
 30
0.0
 11
81.05143270744312
 21
206.0550142047798
 31
0.0
  0
LINE
  5
1D3
330
240
100
AcDbEntity
  8
GAIKEI
  6
Continuous
100
AcDbLine
 10
81.05143270744312
 20
206.0550142047798
 30
0.0
 11
81.03364590744304
 21
206.0543852047798
 31
0.0
  0
LINE
  5
1D4
330
240
100
AcDbEntity
  8
GAIKEI
  6
Continuous
100
AcDbLine
 10
82.20364590744312
 20
204.8730820047798
 30
0.0
 11
82.20364590744312
 21
206.4157024047798
 31
0.0
  0
LINE
  5
1D5
330
240
100
AcDbEntity
  8
GAIKEI
  6
Continuous
100
AcDbLine
 10
82.05364590744304
 20
204.8730820047798
 30
0.0
 11
82.15364590744306
 21
204.8730820047798
 31
0.0
  0
LINE
  5
1D6
330
240
100
AcDbEntity
  8
GAIKEI
  6
Continuous
100
AcDbLine
 10
82.20364590744312
 20
206.1153114047798
 30
0.0
 11
82.00131070744314
 21
206.1046926047798
 31
0.0
  0
LINE
  5
1D7
330
240
100
AcDbEntity
  8
GAIKEI
  6
Continuous
100
AcDbLine
 10
82.00131070744314
 20
206.1046926047798
 30
0.0
 11
81.80566190744306
 21
206.0945044047798
 31
0.0
  0
LINE
  5
1D8
330
240
100
AcDbEntity
  8
GAIKEI
  6
Continuous
100
AcDbLine
 10
81.80566190744306
 20
206.0945044047798
 30
0.0
 11
81.62106550744317
 21
206.0848380047798
 31
0.0
  0
LINE
  5
1D9
330
240
100
AcDbEntity
  8
GAIKEI
  6
Continuous
100
AcDbLine
 10
82.20364590744312
 20
206.1127568047798
 30
0.0
 11
82.40576490744308
 21
206.1020354047799
 31
0.0
  0
LINE
  5
1DA
330
240
100
AcDbEntity
  8
GAIKEI
  6
Continuous
100
AcDbLine
 10
82.40576490744308
 20
206.1020354047799
 30
0.0
 11
82.60186630744316
 21
206.0918372047798
 31
0.0
  0
LINE
  5
1DB
330
240
100
AcDbEntity
  8
GAIKEI
  6
Continuous
100
AcDbLine
 10
82.60186630744316
 20
206.0918372047798
 30
0.0
 11
82.78610790744309
 21
206.0821484047798
 31
0.0
  0
LINE
  5
1DC
330
240
100
AcDbEntity
  8
GAIKEI
  6
Continuous
100
AcDbLine
 10
83.02910190744304
 20
203.7769746047798
 30
0.0
 11
83.03739470744309
 21
203.8211212047798
 31
0.0
  0
LINE
  5
1DD
330
240
100
AcDbEntity
  8
GAIKEI
  6
Continuous
100
AcDbLine
 10
83.03739470744309
 20
203.8211212047798
 30
0.0
 11
83.06279970744308
 21
203.8650988047798
 31
0.0
  0
LINE
  5
1DE
330
240
100
AcDbEntity
  8
GAIKEI
  6
Continuous
100
AcDbLine
 10
83.06279970744308
 20
203.8650988047798
 30
0.0
 11
83.10049190744313
 21
203.9039986047798
 31
0.0
  0
LINE
  5
1DF
330
240
100
AcDbEntity
  8
GAIKEI
  6
Continuous
100
AcDbLine
 10
83.10049190744313
 20
203.9039986047798
 30
0.0
 11
83.14531890744307
 21
203.9373386047799
 31
0.0
  0
LINE
  5
1E0
330
240
100
AcDbEntity
  8
GAIKEI
  6
Continuous
100
AcDbLine
 10
83.14531890744307
 20
203.9373386047799
 30
0.0
 11
83.19732550744307
 21
203.9673710047798
 31
0.0
  0
LINE
  5
1E1
330
240
100
AcDbEntity
  8
GAIKEI
  6
Continuous
100
AcDbLine
 10
82.95287930744311
 20
206.0730290047798
 30
0.0
 11
83.09863590744312
 21
206.0656622047798
 31
0.0
  0
LINE
  5
1E2
330
240
100
AcDbEntity
  8
GAIKEI
  6
Continuous
100
AcDbLine
 10
83.09863590744312
 20
206.0656622047798
 30
0.0
 11
83.21562150744304
 21
206.0599342047798
 31
0.0
  0
ARC
  5
1E3
330
240
100
AcDbEntity
  8
GAIKEI
  6
Continuous
100
AcDbCircle
 10
80.15364587761494
 20
178.9756892362122
 30
0.0
 40
0.2999999701718
100
AcDbArc
 50
180.000006003153
 51
267.0000028955124
  0
LINE
  5
1E4
330
240
100
AcDbEntity
  8
GAIKEI
  6
Continuous
100
AcDbLine
 10
80.13794510744306
 20
178.6761004047798
 30
0.0
 11
82.05364590744304
 21
178.5757028047798
 31
0.0
  0
LINE
  5
1E5
330
240
100
AcDbEntity
  8
GAIKEI
  6
Continuous
 62
     1
100
AcDbLine
 10
82.05364590744304
 20
178.4957028047798
 30
0.0
 11
82.15364590744306
 21
178.4957028047798
 31
0.0
  0
LINE
  5
1E6
330
240
100
AcDbEntity
  8
GAIKEI
  6
Continuous
 62
     1
100
AcDbLine
 10
82.05364590744304
 20
178.7957028047798
 30
0.0
 11
82.15364590744306
 21
178.7957028047798
 31
0.0
  0
LINE
  5
1E7
330
240
100
AcDbEntity
  8
GAIKEI
  6
Continuous
100
AcDbLine
 10
83.19727270744316
 20
179.1814408047798
 30
0.0
 11
83.14528270744309
 21
179.2114696047798
 31
0.0
  0
LINE
  5
1E8
330
240
100
AcDbEntity
  8
GAIKEI
  6
Continuous
100
AcDbLine
 10
83.14528270744309
 20
179.2114696047798
 30
0.0
 11
83.10046830744317
 21
179.2448064047798
 31
0.0
  0
LINE
  5
1E9
330
240
100
AcDbEntity
  8
GAIKEI
  6
Continuous
100
AcDbLine
 10
83.10046830744317
 20
179.2448064047798
 30
0.0
 11
83.06278530744313
 21
179.2837042047798
 31
0.0
  0
LINE
  5
1EA
330
240
100
AcDbEntity
  8
GAIKEI
  6
Continuous
100
AcDbLine
 10
83.06278530744313
 20
179.2837042047798
 30
0.0
 11
83.03739010744306
 21
179.3276754047799
 31
0.0
  0
LINE
  5
1EB
330
240
100
AcDbEntity
  8
GAIKEI
  6
Continuous
100
AcDbLine
 10
83.03739010744306
 20
179.3276754047799
 30
0.0
 11
83.02910190744304
 21
179.3718102047799
 31
0.0
  0
LINE
  5
1EC
330
240
100
AcDbEntity
  8
GAIKEI
  6
Continuous
100
AcDbLine
 10
79.45364590744311
 20
204.5470288047798
 30
0.0
 11
79.45364590744311
 21
178.6017558047798
 31
0.0
  0
LINE
  5
1ED
330
240
100
AcDbEntity
  8
GAIKEI
  6
Continuous
100
AcDbLine
 10
79.8536459074431
 20
204.1730954047798
 30
0.0
 11
79.8536459074431
 21
178.9756892047798
 31
0.0
  0
LINE
  5
1EE
330
240
100
AcDbEntity
  8
GAIKEI
  6
Continuous
100
AcDbLine
 10
83.02910190744304
 20
203.7769746047798
 30
0.0
 11
83.02910190744304
 21
179.3718102047799
 31
0.0
  0
ARC
  5
1EF
330
240
100
AcDbEntity
  8
GAIKEI
  6
Continuous
100
AcDbCircle
 10
82.24364590744309
 20
231.9757024047798
 30
0.0
 40
0.6000000000000001
100
AcDbArc
 50
0.0
 51
90.0
  0
ARC
  5
1F0
330
240
100
AcDbEntity
  8
GAIKEI
  6
Continuous
100
AcDbCircle
 10
82.7436459074431
 20
230.2757024047799
 30
0.0
 40
0.1
100
AcDbArc
 50
270.0
 51
0.0
  0
LINE
  5
1F1
330
240
100
AcDbEntity
  8
GAIKEI
  6
Continuous
100
AcDbLine
 10
81.56364590744315
 20
231.9757024047798
 30
0.0
 11
81.56364590744315
 21
230.2757024047799
 31
0.0
  0
LINE
  5
1F2
330
240
100
AcDbEntity
  8
GAIKEI
  6
Continuous
100
AcDbLine
 10
82.84364590744312
 20
231.9757024047798
 30
0.0
 11
82.84364590744312
 21
230.2757024047799
 31
0.0
  0
LINE
  5
1F3
330
240
100
AcDbEntity
  8
GAIKEI
  6
Continuous
100
AcDbLine
 10
81.66364590744306
 20
230.1757024047798
 30
0.0
 11
82.7436459074431
 21
230.1757024047798
 31
0.0
  0
ARC
  5
1F4
330
240
100
AcDbEntity
  8
GAIKEI
  6
Continuous
100
AcDbCircle
 10
81.66364590744306
 20
230.2757024047799
 30
0.0
 40
0.1
100
AcDbArc
 50
180.0
 51
270.0
  0
ARC
  5
1F5
330
240
100
AcDbEntity
  8
GAIKEI
  6
Continuous
100
AcDbCircle
 10
82.16364590744307
 20
231.9757024047798
 30
0.0
 40
0.6000000000000001
100
AcDbArc
 50
90.0
 51
180.0
  0
LINE
  5
1F6
330
240
100
AcDbEntity
  8
GAIKEI
  6
Continuous
100
AcDbLine
 10
82.16364590744307
 20
232.5757024047799
 30
0.0
 11
82.24364590744309
 21
232.5757024047799
 31
0.0
  0
LINE
  5
1F7
330
240
100
AcDbEntity
  8
GAIKEI
  6
Continuous
 62
     1
100
AcDbLine
 10
85.01364590744307
 20
194.1762260047798
 30
0.0
 11
85.01364590744307
 21
201.9251788047799
 31
0.0
  0
LINE
  5
1F8
330
240
100
AcDbEntity
  8
GAIKEI
  6
Continuous
 62
     1
100
AcDbLine
 10
84.95364590744312
 20
194.1757024047799
 30
0.0
 11
85.01364590744307
 21
194.1762260047798
 31
0.0
  0
LINE
  5
1F9
330
240
100
AcDbEntity
  8
GAIKEI
  6
Continuous
 62
     1
100
AcDbLine
 10
84.95364590744312
 20
194.5757024047798
 30
0.0
 11
85.01364590744307
 21
194.5754854047798
 31
0.0
  0
LINE
  5
1FA
330
240
100
AcDbEntity
  8
GAIKEI
  6
Continuous
 62
     1
100
AcDbLine
 10
84.95364590744312
 20
194.3757024047798
 30
0.0
 11
85.01364590744307
 21
194.3751788047798
 31
0.0
  0
LINE
  5
1FB
330
240
100
AcDbEntity
  8
GAIKEI
  6
Continuous
 62
     1
100
AcDbLine
 10
84.95364590744312
 20
201.9257024047799
 30
0.0
 11
85.01364590744307
 21
201.9251788047799
 31
0.0
  0
LINE
  5
1FC
330
240
100
AcDbEntity
  8
GAIKEI
  6
Continuous
100
AcDbLine
 10
83.37364590744309
 20
204.8117648047798
 30
0.0
 11
83.37364590744309
 21
206.0517648047798
 31
0.0
  0
LINE
  5
1FD
330
240
100
AcDbEntity
  8
GAIKEI
  6
Continuous
100
AcDbLine
 10
83.54943810744314
 20
204.0492938047798
 30
0.0
 11
84.95364590744312
 21
203.9757024047798
 31
0.0
  0
ARC
  5
1FE
330
240
100
AcDbEntity
  8
GAIKEI
  6
Continuous
100
AcDbCircle
 10
84.05364583740853
 20
204.175715878581
 30
0.0
 40
0.3000000700346001
100
AcDbArc
 50
359.9999859050194
 51
86.99998479646174
  0
LINE
  5
1FF
330
240
100
AcDbEntity
  8
GAIKEI
  6
Continuous
100
AcDbLine
 10
83.46697890744312
 20
204.0472284047798
 30
0.0
 11
83.54943810744314
 21
204.0492938047798
 31
0.0
  0
LINE
  5
200
330
240
100
AcDbEntity
  8
GAIKEI
  6
Continuous
100
AcDbLine
 10
83.25555490744315
 20
203.9940252047798
 30
0.0
 11
83.31994030744317
 21
204.0170266047798
 31
0.0
  0
LINE
  5
201
330
240
100
AcDbEntity
  8
GAIKEI
  6
Continuous
100
AcDbLine
 10
83.31994030744317
 20
204.0170266047798
 30
0.0
 11
83.39039150744312
 21
204.0353744047798
 31
0.0
  0
LINE
  5
202
330
240
100
AcDbEntity
  8
GAIKEI
  6
Continuous
100
AcDbLine
 10
83.39039150744312
 20
204.0353744047798
 30
0.0
 11
83.46697890744312
 21
204.0472284047798
 31
0.0
  0
LINE
  5
203
330
240
100
AcDbEntity
  8
GAIKEI
  6
Continuous
100
AcDbLine
 10
84.35364590744311
 20
204.1757158047798
 30
0.0
 11
84.35364590744311
 21
204.0071470047799
 31
0.0
  0
LINE
  5
204
330
240
100
AcDbEntity
  8
GAIKEI
  6
Continuous
100
AcDbLine
 10
84.75364590744311
 20
204.5496492047799
 30
0.0
 11
84.75364590744311
 21
203.9861838047798
 31
0.0
  0
ARC
  5
205
330
240
100
AcDbEntity
  8
GAIKEI
  6
Continuous
100
AcDbCircle
 10
84.55364596061631
 20
204.549649148747
 30
0.0
 40
0.1999999468268
100
AcDbArc
 50
0.0000160522254836
 51
87.00001194503935
  0
LINE
  5
206
330
240
100
AcDbEntity
  8
GAIKEI
  6
Continuous
100
AcDbLine
 10
83.30235790744309
 20
206.0550608047799
 30
0.0
 11
83.35573150744309
 21
206.0523392047798
 31
0.0
  0
LINE
  5
207
330
240
100
AcDbEntity
  8
GAIKEI
  6
Continuous
100
AcDbLine
 10
83.35573150744309
 20
206.0523392047798
 30
0.0
 11
83.37364590744309
 21
206.0517648047798
 31
0.0
  0
LINE
  5
208
330
240
100
AcDbEntity
  8
GAIKEI
  6
Continuous
100
AcDbLine
 10
83.54943810744314
 20
179.0994910047798
 30
0.0
 11
84.95364590744312
 21
179.1730824047798
 31
0.0
  0
ARC
  5
209
330
240
100
AcDbEntity
  8
GAIKEI
  6
Continuous
100
AcDbCircle
 10
84.05364213768391
 20
178.9730686366474
 30
0.0
 40
0.2999999697594
100
AcDbArc
 50
273.0007237725658
 51
0.0000321109370596
  0
LINE
  5
20A
330
240
100
AcDbEntity
  8
GAIKEI
  6
Continuous
100
AcDbLine
 10
83.54943810744314
 20
179.0994910047798
 30
0.0
 11
83.46691750744307
 21
179.1015622047798
 31
0.0
  0
LINE
  5
20B
330
240
100
AcDbEntity
  8
GAIKEI
  6
Continuous
100
AcDbLine
 10
83.46691750744307
 20
179.1015622047798
 30
0.0
 11
83.39030150744312
 21
179.1134292047798
 31
0.0
  0
LINE
  5
20C
330
240
100
AcDbEntity
  8
GAIKEI
  6
Continuous
100
AcDbLine
 10
83.39030150744312
 20
179.1134292047798
 30
0.0
 11
83.31984870744312
 21
179.1317864047798
 31
0.0
  0
LINE
  5
20D
330
240
100
AcDbEntity
  8
GAIKEI
  6
Continuous
100
AcDbLine
 10
83.31984870744312
 20
179.1317864047798
 30
0.0
 11
83.25548010744304
 21
179.1547898047798
 31
0.0
  0
LINE
  5
20E
330
240
100
AcDbEntity
  8
GAIKEI
  6
Continuous
100
AcDbLine
 10
84.35364590744311
 20
179.1416376047799
 30
0.0
 11
84.35364590744311
 21
178.9730688047798
 31
0.0
  0
LINE
  5
20F
330
240
100
AcDbEntity
  8
GAIKEI
  6
Continuous
100
AcDbLine
 10
84.75364590744311
 20
179.1626008047798
 30
0.0
 11
84.75364590744311
 21
178.5991354047798
 31
0.0
  0
LINE
  5
210
330
240
100
AcDbEntity
  8
GAIKEI
  6
Continuous
100
AcDbLine
 10
84.95364590744312
 20
179.1730824047798
 30
0.0
 11
84.95364590744312
 21
203.9757024047798
 31
0.0
  0
LINE
  5
211
330
240
100
AcDbEntity
  8
WAKU
 62
     4
100
AcDbLine
 10
127.0
 20
131.4992141396414
 30
0.0
 11
127.0
 21
166.4992141396414
 31
0.0
  0
ENDSEC
  0
SECTION
  2
OBJECTS
  0
DICTIONARY
  5
22C
330
0
100
AcDbDictionary
281
     1
  3
ACAD_COLOR
350
23B
  3
ACAD_GROUP
350
22D
  3
ACAD_LAYOUT
350
239
  3
ACAD_MATERIAL
350
23A
  3
ACAD_MLINESTYLE
350
236
  3
ACAD_PLOTSETTINGS
350
238
  3
ACAD_PLOTSTYLENAME
350
22E
  3
ACDBHEADERROUNDTRIPXREC
350
2A2
  3
AcDbVariableDictionary
350
28F
  3
DWGPROPS
350
2A1
  0
DICTIONARY
  5
23B
102
{ACAD_REACTORS
330
22C
102
}
330
22C
100
AcDbDictionary
281
     1
  0
DICTIONARY
  5
22D
102
{ACAD_REACTORS
330
22C
102
}
330
22C
100
AcDbDictionary
281
     1
  0
DICTIONARY
  5
239
102
{ACAD_REACTORS
330
22C
102
}
330
22C
100
AcDbDictionary
281
     1
  3
Model
350
243
  3
レイアウト1
350
23F
  0
DICTIONARY
  5
23A
102
{ACAD_REACTORS
330
22C
102
}
330
22C
100
AcDbDictionary
281
     1
  0
DICTIONARY
  5
236
102
{ACAD_REACTORS
330
22C
102
}
330
22C
100
AcDbDictionary
281
     1
  3
Standard
350
237
  0
DICTIONARY
  5
238
102
{ACAD_REACTORS
330
22C
102
}
330
22C
100
AcDbDictionary
281
     1
  0
ACDBDICTIONARYWDFLT
  5
22E
102
{ACAD_REACTORS
330
22C
102
}
330
22C
100
AcDbDictionary
281
     1
  3
Normal
350
22F
100
AcDbDictionaryWithDefault
340
22F
  0
DICTIONARY
  5
2A2
102
{ACAD_REACTORS
330
22C
102
}
330
22C
100
AcDbDictionary
281
     1
  3
COLORDICT
350
2A4
  3
MATERIALDICT
350
2A3
  0
DICTIONARY
  5
28F
102
{ACAD_REACTORS
330
22C
102
}
330
22C
100
AcDbDictionary
281
     1
  3
DIMASSOC
350
290
  3
PROJECTNAME
350
291
  0
XRECORD
  5
2A1
102
{ACAD_REACTORS
330
22C
102
}
330
22C
100
AcDbXrecord
280
     1
  1
DWGPROPS COOKIE
  2

  3

  4

  6

  7

  8

  9

300
=
301
=
302
=
303
=
304
=
305
=
306
=
307
=
308
=
309
=
 40
0.5105127777777778
 41
2451815.565532581
 42
2453731.480633495
  1

 90
        0
  0
LAYOUT
  5
243
102
{ACAD_XDICTIONARY
360
2A7
102
}
102
{ACAD_REACTORS
330
239
102
}
330
239
100
AcDbPlotSettings
  1

  2
\\Uranus\BFACN02M
  4

  6

 40
0.0
 41
0.0
 42
0.0
 43
0.0
 44
0.0
 45
0.0
 46
0.0
 47
0.0
 48
0.0
 49
0.0
140
0.0
141
0.0
142
1.0
143
1.0
 70
  1712
 72
     0
 73
     0
 74
     0
  7
SSC.ctb
 75
     0
147
1.0
148
0.0
149
0.0
100
AcDbLayout
  1
Model
 70
     1
 71
     0
 10
0.0
 20
0.0
 11
12.0
 21
9.0
 12
0.0
 22
0.0
 32
0.0
 14
0.0
 24
0.0
 34
0.0
 15
0.0
 25
0.0
 35
0.0
146
0.0
 13
0.0
 23
0.0
 33
0.0
 16
1.0
 26
0.0
 36
0.0
 17
0.0
 27
1.0
 37
0.0
 76
     0
330
240
  0
LAYOUT
  5
23F
102
{ACAD_XDICTIONARY
360
2A5
102
}
102
{ACAD_REACTORS
330
239
102
}
330
239
100
AcDbPlotSettings
  1

  2
\\Uranus\BFACN02M
  4

  6

 40
0.0
 41
0.0
 42
0.0
 43
0.0
 44
0.0
 45
0.0
 46
0.0
 47
0.0
 48
0.0
 49
0.0
140
0.0
141
0.0
142
1.0
143
1.0
 70
   688
 72
     0
 73
     0
 74
     5
  7
SSC.ctb
 75
    16
147
1.0
148
0.0
149
0.0
100
AcDbLayout
  1
レイアウト1
 70
     1
 71
     1
 10
0.0
 20
0.0
 11
12.0
 21
9.0
 12
0.0
 22
0.0
 32
0.0
 14
1.000000000000000E+20
 24
1.000000000000000E+20
 34
1.000000000000000E+20
 15
-1.000000000000000E+20
 25
-1.000000000000000E+20
 35
-1.000000000000000E+20
146
0.0
 13
0.0
 23
0.0
 33
0.0
 16
1.0
 26
0.0
 36
0.0
 17
0.0
 27
1.0
 37
0.0
 76
     0
330
23C
  0
MLINESTYLE
  5
237
102
{ACAD_REACTORS
330
236
102
}
330
236
100
AcDbMlineStyle
  2
STANDARD
 70
     0
  3

 62
   256
 51
90.0
 52
90.0
 71
     2
 49
0.5
 62
   256
  6
BYLAYER
 49
-0.5
 62
   256
  6
BYLAYER
  0
ACDBPLACEHOLDER
  5
22F
102
{ACAD_REACTORS
330
22E
102
}
330
22E
  0
XRECORD
  5
2A4
102
{ACAD_REACTORS
330
2A2
102
}
330
2A2
100
AcDbXrecord
280
     1
340
23B
  0
XRECORD
  5
2A3
102
{ACAD_REACTORS
330
2A2
102
}
330
2A2
100
AcDbXrecord
280
     1
340
23A
  0
DICTIONARYVAR
  5
290
102
{ACAD_REACTORS
330
28F
102
}
330
28F
100
DictionaryVariables
280
     0
  1
1
  0
DICTIONARYVAR
  5
291
102
{ACAD_REACTORS
330
28F
102
}
330
28F
100
DictionaryVariables
280
     0
  1

  0
DICTIONARY
  5
2A7
330
243
100
AcDbDictionary
280
     1
281
     1
  3
ACAD_XREC_ROUNDTRIP
360
2A8
  0
DICTIONARY
  5
2A5
330
23F
100
AcDbDictionary
280
     1
281
     1
  3
ACAD_XREC_ROUNDTRIP
360
2A6
  0
XRECORD
  5
2A8
102
{ACAD_REACTORS
330
2A7
102
}
330
2A7
100
AcDbXrecord
280
     1
102
SHADEPLOT
 70
     0
102
SHADEPLOTRESLEVEL
 70
     2
102
SHADEPLOTCUSTOMDPI
 70
   300
  0
XRECORD
  5
2A6
102
{ACAD_REACTORS
330
2A5
102
}
330
2A5
100
AcDbXrecord
280
     1
102
SHADEPLOT
 70
     0
102
SHADEPLOTRESLEVEL
 70
     2
102
SHADEPLOTCUSTOMDPI
 70
   300
  0
ENDSEC
  0
EOF
