  0
SECTION
  2
HEADER
  9
$ACADVER
  1
AC1015
  9
$ACADMAINTVER
 70
    20
  9
$DWGCODEPAGE
  3
ANSI_932
  9
$INSBASE
 10
129.0
 20
246.4992141396418
 30
0.0
  9
$EXTMIN
 10
130.9668870416176
 20
131.3629192892276
 30
-0.0000000349181948
  9
$EXTMAX
 10
256.0072952543187
 20
244.6223436675973
 30
0.0000000814935747
  9
$LIMMIN
 10
-1101.784450318844
 20
-1579.160531687244
  9
$LIMMAX
 10
-508.2420711400537
 20
-1161.440814074914
  9
$ORTHOMODE
 70
     0
  9
$REGENMODE
 70
     1
  9
$FILLMODE
 70
     1
  9
$QTEXTMODE
 70
     0
  9
$MIRRTEXT
 70
     1
  9
$LTSCALE
 40
1.0
  9
$ATTMODE
 70
     1
  9
$TEXTSIZE
 40
2.5
  9
$TRACEWID
 40
0.5
  9
$TEXTSTYLE
  7
STANDARD
  9
$CLAYER
  8
GAIKEI
  9
$CELTYPE
  6
ByLayer
  9
$CECOLOR
 62
   256
  9
$CELTSCALE
 40
1.0
  9
$DISPSILH
 70
     0
  9
$DIMSCALE
 40
1.0
  9
$DIMASZ
 40
2.0
  9
$DIMEXO
 40
2.0
  9
$DIMDLI
 40
8.0
  9
$DIMRND
 40
0.0
  9
$DIMDLE
 40
0.0
  9
$DIMEXE
 40
2.0
  9
$DIMTP
 40
0.0
  9
$DIMTM
 40
0.0
  9
$DIMTXT
 40
2.5
  9
$DIMCEN
 40
0.0
  9
$DIMTSZ
 40
0.0
  9
$DIMTOL
 70
     0
  9
$DIMLIM
 70
     0
  9
$DIMTIH
 70
     0
  9
$DIMTOH
 70
     0
  9
$DIMSE1
 70
     0
  9
$DIMSE2
 70
     0
  9
$DIMTAD
 70
     3
  9
$DIMZIN
 70
     0
  9
$DIMBLK
  1

  9
$DIMASO
 70
     1
  9
$DIMSHO
 70
     1
  9
$DIMPOST
  1

  9
$DIMAPOST
  1

  9
$DIMALT
 70
     0
  9
$DIMALTD
 70
     2
  9
$DIMALTF
 40
25.4
  9
$DIMLFAC
 40
1.0
  9
$DIMTOFL
 70
     1
  9
$DIMTVP
 40
0.0
  9
$DIMTIX
 70
     0
  9
$DIMSOXD
 70
     0
  9
$DIMSAH
 70
     1
  9
$DIMBLK1
  1
OPEN30
  9
$DIMBLK2
  1
OPEN30
  9
$DIMSTYLE
  2
STANDARD
  9
$DIMCLRD
 70
     0
  9
$DIMCLRE
 70
     0
  9
$DIMCLRT
 70
     0
  9
$DIMTFAC
 40
1.0
  9
$DIMGAP
 40
0.5
  9
$DIMJUST
 70
     0
  9
$DIMSD1
 70
     0
  9
$DIMSD2
 70
     0
  9
$DIMTOLJ
 70
     1
  9
$DIMTZIN
 70
     0
  9
$DIMALTZ
 70
     0
  9
$DIMALTTZ
 70
     0
  9
$DIMUPT
 70
     0
  9
$DIMDEC
 70
     4
  9
$DIMTDEC
 70
     4
  9
$DIMALTU
 70
     2
  9
$DIMALTTD
 70
     2
  9
$DIMTXSTY
  7
STANDARD
  9
$DIMAUNIT
 70
     0
  9
$DIMADEC
 70
     0
  9
$DIMALTRND
 40
0.0
  9
$DIMAZIN
 70
     0
  9
$DIMDSEP
 70
    46
  9
$DIMATFIT
 70
     3
  9
$DIMFRAC
 70
     0
  9
$DIMLDRBLK
  1

  9
$DIMLUNIT
 70
     2
  9
$DIMLWD
 70
    -2
  9
$DIMLWE
 70
    -2
  9
$DIMTMOVE
 70
     0
  9
$LUNITS
 70
     2
  9
$LUPREC
 70
     4
  9
$SKETCHINC
 40
0.1
  9
$FILLETRAD
 40
0.0
  9
$AUNITS
 70
     0
  9
$AUPREC
 70
     0
  9
$MENU
  1
ACAD
  9
$ELEVATION
 40
0.0
  9
$PELEVATION
 40
0.0
  9
$THICKNESS
 40
0.0
  9
$LIMCHECK
 70
     0
  9
$CHAMFERA
 40
0.0
  9
$CHAMFERB
 40
0.0
  9
$CHAMFERC
 40
0.0
  9
$CHAMFERD
 40
0.0
  9
$SKPOLY
 70
     0
  9
$TDCREATE
 40
2451815.565532581
  9
$TDUCREATE
 40
2451815.190532581
  9
$TDUPDATE
 40
2453731.545830613
  9
$TDUUPDATE
 40
2453731.170830613
  9
$TDINDWG
 40
0.5754411574
  9
$TDUSRTIMER
 40
0.5754409722
  9
$USRTIMER
 70
     1
  9
$ANGBASE
 50
0.0
  9
$ANGDIR
 70
     0
  9
$PDMODE
 70
     0
  9
$PDSIZE
 40
0.0
  9
$PLINEWID
 40
0.0
  9
$SPLFRAME
 70
     0
  9
$SPLINETYPE
 70
     6
  9
$SPLINESEGS
 70
     8
  9
$HANDSEED
  5
20A
  9
$SURFTAB1
 70
     6
  9
$SURFTAB2
 70
     6
  9
$SURFTYPE
 70
     6
  9
$SURFU
 70
     6
  9
$SURFV
 70
     6
  9
$UCSBASE
  2

  9
$UCSNAME
  2

  9
$UCSORG
 10
0.0
 20
0.0
 30
0.0
  9
$UCSXDIR
 10
1.0
 20
0.0
 30
0.0
  9
$UCSYDIR
 10
0.0
 20
1.0
 30
0.0
  9
$UCSORTHOREF
  2

  9
$UCSORTHOVIEW
 70
     0
  9
$UCSORGTOP
 10
0.0
 20
0.0
 30
0.0
  9
$UCSORGBOTTOM
 10
0.0
 20
0.0
 30
0.0
  9
$UCSORGLEFT
 10
0.0
 20
0.0
 30
0.0
  9
$UCSORGRIGHT
 10
0.0
 20
0.0
 30
0.0
  9
$UCSORGFRONT
 10
0.0
 20
0.0
 30
0.0
  9
$UCSORGBACK
 10
0.0
 20
0.0
 30
0.0
  9
$PUCSBASE
  2

  9
$PUCSNAME
  2

  9
$PUCSORG
 10
0.0
 20
0.0
 30
0.0
  9
$PUCSXDIR
 10
1.0
 20
0.0
 30
0.0
  9
$PUCSYDIR
 10
0.0
 20
1.0
 30
0.0
  9
$PUCSORTHOREF
  2

  9
$PUCSORTHOVIEW
 70
     0
  9
$PUCSORGTOP
 10
0.0
 20
0.0
 30
0.0
  9
$PUCSORGBOTTOM
 10
0.0
 20
0.0
 30
0.0
  9
$PUCSORGLEFT
 10
0.0
 20
0.0
 30
0.0
  9
$PUCSORGRIGHT
 10
0.0
 20
0.0
 30
0.0
  9
$PUCSORGFRONT
 10
0.0
 20
0.0
 30
0.0
  9
$PUCSORGBACK
 10
0.0
 20
0.0
 30
0.0
  9
$USERI1
 70
     0
  9
$USERI2
 70
     0
  9
$USERI3
 70
     0
  9
$USERI4
 70
     0
  9
$USERI5
 70
     0
  9
$USERR1
 40
0.0
  9
$USERR2
 40
0.0
  9
$USERR3
 40
0.0
  9
$USERR4
 40
0.0
  9
$USERR5
 40
0.0
  9
$WORLDVIEW
 70
     1
  9
$SHADEDGE
 70
     3
  9
$SHADEDIF
 70
    70
  9
$TILEMODE
 70
     1
  9
$MAXACTVP
 70
    48
  9
$PINSBASE
 10
0.0
 20
0.0
 30
0.0
  9
$PLIMCHECK
 70
     0
  9
$PEXTMIN
 10
1.000000000000000E+20
 20
1.000000000000000E+20
 30
1.000000000000000E+20
  9
$PEXTMAX
 10
-1.000000000000000E+20
 20
-1.000000000000000E+20
 30
-1.000000000000000E+20
  9
$PLIMMIN
 10
0.0
 20
0.0
  9
$PLIMMAX
 10
12.0
 20
9.0
  9
$UNITMODE
 70
     0
  9
$VISRETAIN
 70
     1
  9
$PLINEGEN
 70
     0
  9
$PSLTSCALE
 70
     1
  9
$TREEDEPTH
 70
  3020
  9
$CMLSTYLE
  2
Standard
  9
$CMLJUST
 70
     0
  9
$CMLSCALE
 40
1.0
  9
$PROXYGRAPHICS
 70
     1
  9
$MEASUREMENT
 70
     0
  9
$CELWEIGHT
370
    -1
  9
$ENDCAPS
280
     0
  9
$JOINSTYLE
280
     0
  9
$LWDISPLAY
290
     0
  9
$INSUNITS
 70
     0
  9
$HYPERLINKBASE
  1

  9
$STYLESHEET
  1

  9
$XEDIT
290
     1
  9
$CEPSNTYPE
380
     0
  9
$PSTYLEMODE
290
     1
  9
$FINGERPRINTGUID
  2
{FA45510C-5C5D-438C-BEAB-A075A1F8C45A}
  9
$VERSIONGUID
  2
{4EFF9B81-2E6E-4E7D-A580-365980CD01E2}
  9
$EXTNAMES
290
     1
  9
$PSVPSCALE
 40
0.0
  9
$OLESTARTUP
290
     0
  0
ENDSEC
  0
SECTION
  2
CLASSES
  0
CLASS
  1
ACDBDICTIONARYWDFLT
  2
AcDbDictionaryWithDefault
  3
ObjectDBX Classes
 90
        0
280
     0
281
     0
  0
CLASS
  1
DICTIONARYVAR
  2
AcDbDictionaryVar
  3
ObjectDBX Classes
 90
        0
280
     0
281
     0
  0
CLASS
  1
ACDBPLACEHOLDER
  2
AcDbPlaceHolder
  3
ObjectDBX Classes
 90
        0
280
     0
281
     0
  0
CLASS
  1
LAYOUT
  2
AcDbLayout
  3
ObjectDBX Classes
 90
        0
280
     0
281
     0
  0
ENDSEC
  0
SECTION
  2
TABLES
  0
TABLE
  2
VPORT
  5
195
330
0
100
AcDbSymbolTable
 70
     3
  0
VPORT
  5
201
330
195
100
AcDbSymbolTableRecord
100
AcDbViewportTableRecord
  2
*Active
 70
     0
 10
0.0
 20
0.0
 11
1.0
 21
1.0
 12
193.4870911479682
 22
187.9926314784125
 13
0.0
 23
0.0
 14
1.0
 24
1.0
 15
0.0
 25
0.0
 16
0.0
 26
0.0
 36
1.0
 17
0.0
 27
0.0
 37
0.0
 40
114.23021944447
 41
1.589413447782546
 42
50.0
 43
0.0
 44
0.0
 50
0.0
 51
0.0
 71
     0
 72
  1000
 73
     1
 74
     0
 75
     0
 76
     1
 77
     0
 78
     0
281
     0
 65
     1
110
0.0
120
0.0
130
0.0
111
1.0
121
0.0
131
0.0
112
0.0
122
1.0
132
0.0
 79
     0
146
0.0
  0
ENDTAB
  0
TABLE
  2
LTYPE
  5
192
330
0
100
AcDbSymbolTable
 70
     1
  0
LTYPE
  5
1A0
330
192
100
AcDbSymbolTableRecord
100
AcDbLinetypeTableRecord
  2
ByBlock
 70
     0
  3

 72
    65
 73
     0
 40
0.0
  0
LTYPE
  5
1A1
330
192
100
AcDbSymbolTableRecord
100
AcDbLinetypeTableRecord
  2
ByLayer
 70
     0
  3

 72
    65
 73
     0
 40
0.0
  0
LTYPE
  5
1A2
330
192
100
AcDbSymbolTableRecord
100
AcDbLinetypeTableRecord
  2
CONTINUOUS
 70
     0
  3
Solid line
 72
    65
 73
     0
 40
0.0
  0
ENDTAB
  0
TABLE
  2
LAYER
  5
18F
330
0
100
AcDbSymbolTable
 70
     7
  0
LAYER
  5
19D
330
18F
100
AcDbSymbolTableRecord
100
AcDbLayerTableRecord
  2
0
 70
     0
 62
     7
  6
CONTINUOUS
370
    -3
390
19C
  0
LAYER
  5
1B1
330
18F
100
AcDbSymbolTableRecord
100
AcDbLayerTableRecord
  2
GAIKEI
 70
     0
 62
     7
  6
CONTINUOUS
370
    -3
390
19C
  0
LAYER
  5
1B3
330
18F
100
AcDbSymbolTableRecord
100
AcDbLayerTableRecord
  2
DEFPOINTS
 70
     0
 62
     7
  6
CONTINUOUS
290
     0
370
    -3
390
19C
  0
LAYER
  5
1B4
330
18F
100
AcDbSymbolTableRecord
100
AcDbLayerTableRecord
  2
WAKU
 70
     0
 62
     4
  6
CONTINUOUS
370
    -3
390
19C
  0
LAYER
  5
1B5
330
18F
100
AcDbSymbolTableRecord
100
AcDbLayerTableRecord
  2
MOJI1
 70
     0
 62
     2
  6
CONTINUOUS
370
    -3
390
19C
  0
LAYER
  5
1B6
330
18F
100
AcDbSymbolTableRecord
100
AcDbLayerTableRecord
  2
SUNPO
 70
     0
 62
     3
  6
CONTINUOUS
370
    -3
390
19C
  0
LAYER
  5
1B7
330
18F
100
AcDbSymbolTableRecord
100
AcDbLayerTableRecord
  2
TOUROKU
 70
     0
 62
     1
  6
CONTINUOUS
370
    -3
390
19C
  0
ENDTAB
  0
TABLE
  2
STYLE
  5
190
330
0
100
AcDbSymbolTable
 70
     1
  0
STYLE
  5
19E
330
190
100
AcDbSymbolTableRecord
100
AcDbTextStyleTableRecord
  2
STANDARD
 70
     0
 40
0.0
 41
1.0
 50
0.0
 71
     0
 42
2.5
  3
MONOTXT.shx
  4
BIGFONT.shx
  0
ENDTAB
  0
TABLE
  2
VIEW
  5
193
330
0
100
AcDbSymbolTable
 70
     0
  0
ENDTAB
  0
TABLE
  2
UCS
  5
194
330
0
100
AcDbSymbolTable
 70
     0
  0
ENDTAB
  0
TABLE
  2
APPID
  5
196
330
0
100
AcDbSymbolTable
 70
     1
  0
APPID
  5
19F
330
196
100
AcDbSymbolTableRecord
100
AcDbRegAppTableRecord
  2
ACAD
 70
     0
  0
ENDTAB
  0
TABLE
  2
DIMSTYLE
  5
197
330
0
100
AcDbSymbolTable
 70
     1
100
AcDbDimStyleTable
 71
     1
340
1B9
  0
DIMSTYLE
105
1B9
102
{ACAD_REACTORS
330
D5
330
5D
330
44
102
}
330
197
100
AcDbSymbolTableRecord
100
AcDbDimStyleTableRecord
  2
STANDARD
 70
     0
 40
0.0
 41
2.0
 42
2.0
 43
8.0
 44
2.0
 73
     0
 74
     0
 77
     3
140
3.0
141
0.0
173
     1
279
     2
340
19E
  0
ENDTAB
  0
TABLE
  2
BLOCK_RECORD
  5
18E
330
0
100
AcDbSymbolTable
 70
     4
  0
BLOCK_RECORD
  5
1AD
330
18E
100
AcDbSymbolTableRecord
100
AcDbBlockTableRecord
  2
*Model_Space
340
1B0
  0
BLOCK_RECORD
  5
1A9
330
18E
100
AcDbSymbolTableRecord
100
AcDbBlockTableRecord
  2
*Paper_Space
340
1AC
  0
BLOCK_RECORD
  5
1C0
330
18E
100
AcDbSymbolTableRecord
100
AcDbBlockTableRecord
  2
_OPEN30
340
0
102
{BLKREFS
331
1CD
331
1CE
331
1D9
331
1DA
331
1E7
331
1E8
102
}
  0
BLOCK_RECORD
  5
1C9
330
18E
100
AcDbSymbolTableRecord
100
AcDbBlockTableRecord
  2
*D1
340
0
  0
BLOCK_RECORD
  5
1D5
330
18E
100
AcDbSymbolTableRecord
100
AcDbBlockTableRecord
  2
*D2
340
0
  0
BLOCK_RECORD
  5
1E1
330
18E
100
AcDbSymbolTableRecord
100
AcDbBlockTableRecord
  2
*D3
340
0
  0
ENDTAB
  0
ENDSEC
  0
SECTION
  2
BLOCKS
  0
BLOCK
  5
1AE
330
1AD
100
AcDbEntity
  8
0
100
AcDbBlockBegin
  2
*Model_Space
 70
     0
 10
0.0
 20
0.0
 30
0.0
  3
*Model_Space
  1

  0
ENDBLK
  5
1AF
330
1AD
100
AcDbEntity
  8
0
100
AcDbBlockEnd
  0
BLOCK
  5
1AA
330
1A9
100
AcDbEntity
 67
     1
  8
0
100
AcDbBlockBegin
  2
*Paper_Space
 70
     0
 10
0.0
 20
0.0
 30
0.0
  3
*Paper_Space
  1

  0
ENDBLK
  5
1AB
330
1A9
100
AcDbEntity
 67
     1
  8
0
100
AcDbBlockEnd
  0
BLOCK
  5
1C1
330
1C0
100
AcDbEntity
  8
0
100
AcDbBlockBegin
  2
_OPEN30
 70
     0
 10
0.0
 20
0.0
 30
0.0
  3
_OPEN30
  1

  0
LINE
  5
4E
330
1C0
100
AcDbEntity
  8
0
  6
ByBlock
 62
     0
100
AcDbLine
 10
-1.0
 20
0.26794919
 30
0.0
 11
0.0
 21
0.0
 31
0.0
  0
LINE
  5
4F
330
1C0
100
AcDbEntity
  8
0
  6
ByBlock
 62
     0
100
AcDbLine
 10
0.0
 20
0.0
 30
0.0
 11
-1.0
 21
-0.26794919
 31
0.0
  0
LINE
  5
50
330
1C0
100
AcDbEntity
  8
0
  6
ByBlock
 62
     0
100
AcDbLine
 10
0.0
 20
0.0
 30
0.0
 11
-1.0
 21
0.0
 31
0.0
  0
ENDBLK
  5
52
330
1C0
100
AcDbEntity
  8
0
100
AcDbBlockEnd
  0
BLOCK
  5
1D3
330
1C9
100
AcDbEntity
  8
0
100
AcDbBlockBegin
  2
*D1
 70
     1
 10
0.0
 20
0.0
 30
0.0
  3
*D1
  1

  0
LINE
  5
1CA
330
1C9
100
AcDbEntity
  8
SUNPO
 62
     0
370
    -2
100
AcDbLine
 10
204.0150750325477
 20
211.7418966687095
 30
0.0
 11
204.0150750325477
 21
219.7418966687095
 31
0.0
  0
LINE
  5
1CB
330
1C9
100
AcDbEntity
  8
SUNPO
 62
     0
370
    -2
100
AcDbLine
 10
215.6150750325477
 20
211.7418966687095
 30
0.0
 11
215.6150750325477
 21
219.7418966687095
 31
0.0
  0
LINE
  5
1CC
330
1C9
100
AcDbEntity
  8
SUNPO
 62
     0
370
    -2
100
AcDbLine
 10
206.0150750325477
 20
217.7418966687095
 30
0.0
 11
213.6150750325477
 21
217.7418966687095
 31
0.0
  0
INSERT
  5
1CD
330
1C9
100
AcDbEntity
  8
SUNPO
 62
     0
370
    -2
100
AcDbBlockReference
  2
_OPEN30
 10
204.0150750325477
 20
217.7418966687095
 30
0.0
 41
2.0
 42
2.0
 43
2.0
 50
180.0
  0
INSERT
  5
1CE
330
1C9
100
AcDbEntity
  8
SUNPO
 62
     0
370
    -2
100
AcDbBlockReference
  2
_OPEN30
 10
215.6150750325477
 20
217.7418966687095
 30
0.0
 41
2.0
 42
2.0
 43
2.0
  0
MTEXT
  5
1CF
330
1C9
100
AcDbEntity
  8
SUNPO
 62
     0
100
AcDbMText
 10
209.8150750325477
 20
219.4918966687095
 30
0.0
 40
2.5
 41
0.0
 71
     5
 72
     1
  1
\A1;58
 73
     1
 44
1.0
1001
ACAD
1000
MTEXTBEGIN
1070
    73
1070
     1
1070
    44
1040
1.0
1070
    74
1070
     0
1000
MTEXTEND
  0
POINT
  5
1D0
330
1C9
100
AcDbEntity
  8
DEFPOINTS
 62
     0
100
AcDbPoint
 10
204.0150750325477
 20
209.7418966687095
 30
0.0
  0
POINT
  5
1D1
330
1C9
100
AcDbEntity
  8
DEFPOINTS
 62
     0
100
AcDbPoint
 10
215.6150750325477
 20
209.7418966687095
 30
0.0
  0
POINT
  5
1D2
330
1C9
100
AcDbEntity
  8
DEFPOINTS
 62
     0
100
AcDbPoint
 10
215.6150750325477
 20
217.7418966687095
 30
0.0
  0
ENDBLK
  5
1D4
330
1C9
100
AcDbEntity
  8
0
100
AcDbBlockEnd
  0
BLOCK
  5
1DF
330
1D5
100
AcDbEntity
  8
0
100
AcDbBlockBegin
  2
*D2
 70
     1
 10
0.0
 20
0.0
 30
0.0
  3
*D2
  1

  0
LINE
  5
1D6
330
1D5
100
AcDbEntity
  8
SUNPO
 62
     0
370
    -2
100
AcDbLine
 10
177.2099039968095
 20
185.7368854158884
 30
0.0
 11
185.2099039968095
 21
185.7368854158884
 31
0.0
  0
LINE
  5
1D7
330
1D5
100
AcDbEntity
  8
SUNPO
 62
     0
370
    -2
100
AcDbLine
 10
177.2099039968095
 20
209.7368854158884
 30
0.0
 11
185.2099039968095
 21
209.7368854158884
 31
0.0
  0
LINE
  5
1D8
330
1D5
100
AcDbEntity
  8
SUNPO
 62
     0
370
    -2
100
AcDbLine
 10
183.2099039968095
 20
187.7368854158884
 30
0.0
 11
183.2099039968095
 21
207.7368854158884
 31
0.0
  0
INSERT
  5
1D9
330
1D5
100
AcDbEntity
  8
SUNPO
 62
     0
370
    -2
100
AcDbBlockReference
  2
_OPEN30
 10
183.2099039968095
 20
185.7368854158884
 30
0.0
 41
2.0
 42
2.0
 43
2.0
 50
270.0
  0
INSERT
  5
1DA
330
1D5
100
AcDbEntity
  8
SUNPO
 62
     0
370
    -2
100
AcDbBlockReference
  2
_OPEN30
 10
183.2099039968095
 20
209.7368854158884
 30
0.0
 41
2.0
 42
2.0
 43
2.0
 50
90.0
  0
MTEXT
  5
1DB
330
1D5
100
AcDbEntity
  8
SUNPO
 62
     0
100
AcDbMText
 10
181.4599039968094
 20
197.7368854158884
 30
0.0
 40
2.5
 41
0.0
 71
     5
 72
     1
  1
\A1;120
 11
0.0000000000000001
 21
1.0
 31
0.0
 73
     1
 44
1.0
1001
ACAD
1000
MTEXTBEGIN
1070
    73
1070
     1
1070
    44
1040
1.0
1070
    74
1070
     0
1000
MTEXTEND
  0
POINT
  5
1DC
330
1D5
100
AcDbEntity
  8
DEFPOINTS
 62
     0
100
AcDbPoint
 10
175.2099039968095
 20
185.7368854158884
 30
0.0
  0
POINT
  5
1DD
330
1D5
100
AcDbEntity
  8
DEFPOINTS
 62
     0
100
AcDbPoint
 10
175.2099039968095
 20
209.7368854158884
 30
0.0
  0
POINT
  5
1DE
330
1D5
100
AcDbEntity
  8
DEFPOINTS
 62
     0
100
AcDbPoint
 10
183.2099039968095
 20
209.7368854158884
 30
0.0
  0
ENDBLK
  5
1E0
330
1D5
100
AcDbEntity
  8
0
100
AcDbBlockEnd
  0
BLOCK
  5
1ED
330
1E1
100
AcDbEntity
  8
0
100
AcDbBlockBegin
  2
*D3
 70
     1
 10
0.0
 20
0.0
 30
0.0
  3
*D3
  1

  0
LINE
  5
1E2
330
1E1
100
AcDbEntity
  8
SUNPO
 62
     0
370
    -2
100
AcDbLine
 10
171.0159679955811
 20
211.7418966687095
 30
0.0
 11
171.0159679955811
 21
219.7418966687095
 31
0.0
  0
LINE
  5
1E3
330
1E1
100
AcDbEntity
  8
SUNPO
 62
     0
370
    -2
100
AcDbLine
 10
175.2159679955811
 20
211.7418966687095
 30
0.0
 11
175.2159679955811
 21
219.7418966687095
 31
0.0
  0
LINE
  5
1E4
330
1E1
100
AcDbEntity
  8
SUNPO
 62
     0
370
    -2
100
AcDbLine
 10
169.0159679955811
 20
217.7418966687095
 30
0.0
 11
167.0159679955811
 21
217.7418966687095
 31
0.0
  0
LINE
  5
1E5
330
1E1
100
AcDbEntity
  8
SUNPO
 62
     0
370
    -2
100
AcDbLine
 10
177.2159679955811
 20
217.7418966687095
 30
0.0
 11
183.9659679955811
 21
217.7418966687095
 31
0.0
  0
LINE
  5
1E6
330
1E1
100
AcDbEntity
  8
SUNPO
 62
     0
370
    -2
100
AcDbLine
 10
171.0159679955811
 20
217.7418966687095
 30
0.0
 11
175.2159679955811
 21
217.7418966687095
 31
0.0
  0
INSERT
  5
1E7
330
1E1
100
AcDbEntity
  8
SUNPO
 62
     0
370
    -2
100
AcDbBlockReference
  2
_OPEN30
 10
171.0159679955811
 20
217.7418966687095
 30
0.0
 41
2.0
 42
2.0
 43
2.0
  0
INSERT
  5
1E8
330
1E1
100
AcDbEntity
  8
SUNPO
 62
     0
370
    -2
100
AcDbBlockReference
  2
_OPEN30
 10
175.2159679955811
 20
217.7418966687095
 30
0.0
 41
2.0
 42
2.0
 43
2.0
 50
180.0
  0
MTEXT
  5
1E9
330
1E1
100
AcDbEntity
  8
SUNPO
 62
     0
100
AcDbMText
 10
181.5909679955811
 20
219.4918966687095
 30
0.0
 40
2.5
 41
0.0
 71
     5
 72
     1
  1
\A1;21
 73
     1
 44
1.0
1001
ACAD
1000
MTEXTBEGIN
1070
    73
1070
     1
1070
    44
1040
1.0
1070
    74
1070
     0
1000
MTEXTEND
  0
POINT
  5
1EA
330
1E1
100
AcDbEntity
  8
DEFPOINTS
 62
     0
100
AcDbPoint
 10
171.0159679955811
 20
209.7418966687095
 30
0.0
  0
POINT
  5
1EB
330
1E1
100
AcDbEntity
  8
DEFPOINTS
 62
     0
100
AcDbPoint
 10
175.2159679955811
 20
209.7418966687095
 30
0.0
  0
POINT
  5
1EC
330
1E1
100
AcDbEntity
  8
DEFPOINTS
 62
     0
100
AcDbPoint
 10
175.2159679955811
 20
217.7418966687095
 30
0.0
  0
ENDBLK
  5
1EE
330
1E1
100
AcDbEntity
  8
0
100
AcDbBlockEnd
  0
ENDSEC
  0
SECTION
  2
ENTITIES
  0
TEXT
  5
29
330
1AD
100
AcDbEntity
  8
MOJI1
100
AcDbText
 10
157.9999999999999
 20
240.4992141396419
 30
0.0
 40
4.0
  1
ポータブルトランシーバー
100
AcDbText
  0
TEXT
  5
2B
330
1AD
100
AcDbEntity
  8
TOUROKU
100
AcDbText
 10
239.866616699594
 20
234.4992141396419
 30
0.0
 40
2.0
  1
ＷＸＣＴ１１Ａ
 72
     2
 11
255.9999500329273
 21
234.4992141396419
 31
0.0
100
AcDbText
  0
TEXT
  5
2D
330
1AD
100
AcDbEntity
  8
MOJI1
100
AcDbText
 10
173.5
 20
157.4992141396418
 30
0.0
 40
3.0
  1
水晶制御ＰＬＬシンセサイザー方式
100
AcDbText
  0
TEXT
  5
2E
330
1AD
100
AcDbEntity
  8
MOJI1
100
AcDbText
 10
173.5
 20
142.4992141396418
 30
0.0
 40
3.0
  1
エレクトレットコンデンサ型
100
AcDbText
  0
LINE
  5
2F
330
1AD
100
AcDbEntity
  8
WAKU
 62
     4
100
AcDbLine
 10
131.0
 20
131.4992141396414
 30
0.0
 11
256.0
 21
131.4992141396414
 31
0.0
  0
LINE
  5
31
330
1AD
100
AcDbEntity
  8
WAKU
 62
     1
100
AcDbLine
 10
131.0
 20
136.4992141396415
 30
0.0
 11
256.0
 21
136.4992141396415
 31
0.0
  0
LINE
  5
32
330
1AD
100
AcDbEntity
  8
WAKU
 62
     1
100
AcDbLine
 10
131.0
 20
141.4992141396415
 30
0.0
 11
256.0
 21
141.4992141396415
 31
0.0
  0
LINE
  5
33
330
1AD
100
AcDbEntity
  8
WAKU
 62
     1
100
AcDbLine
 10
131.0
 20
146.4992141396415
 30
0.0
 11
256.0
 21
146.4992141396415
 31
0.0
  0
LINE
  5
34
330
1AD
100
AcDbEntity
  8
WAKU
 62
     4
100
AcDbLine
 10
256.0
 20
166.4992141396415
 30
0.0
 11
131.0
 21
166.4992141396415
 31
0.0
  0
LINE
  5
35
330
1AD
100
AcDbEntity
  8
WAKU
 62
     1
100
AcDbLine
 10
131.0
 20
151.4992141396415
 30
0.0
 11
256.0
 21
151.4992141396415
 31
0.0
  0
LINE
  5
36
330
1AD
100
AcDbEntity
  8
WAKU
 62
     1
100
AcDbLine
 10
131.0
 20
156.4992141396414
 30
0.0
 11
256.0
 21
156.4992141396414
 31
0.0
  0
LINE
  5
37
330
1AD
100
AcDbEntity
  8
WAKU
 62
     1
100
AcDbLine
 10
131.0
 20
161.4992141396415
 30
0.0
 11
256.0
 21
161.4992141396415
 31
0.0
  0
TEXT
  5
38
330
1AD
100
AcDbEntity
  8
MOJI1
100
AcDbText
 10
133.5
 20
157.4992141396414
 30
0.0
 40
3.0
  1
発信方式
100
AcDbText
  0
TEXT
  5
39
330
1AD
100
AcDbEntity
  8
MOJI1
100
AcDbText
 10
133.5
 20
147.4992141396418
 30
0.0
 40
3.0
  1
受信周波数
100
AcDbText
  0
TEXT
  5
3A
330
1AD
100
AcDbEntity
  8
MOJI1
100
AcDbText
 10
133.5
 20
152.4992141396418
 30
0.0
 40
3.0
  1
送信周波数
100
AcDbText
  0
TEXT
  5
3B
330
1AD
100
AcDbEntity
  8
MOJI1
100
AcDbText
 10
133.5
 20
162.4992141396415
 30
0.0
 40
3.0
  1
電波形式
100
AcDbText
  0
TEXT
  5
3C
330
1AD
100
AcDbEntity
  8
MOJI1
100
AcDbText
 10
133.5
 20
137.4992141396418
 30
0.0
 40
3.0
  1
周波数特性
100
AcDbText
  0
TEXT
  5
3D
330
1AD
100
AcDbEntity
  8
MOJI1
100
AcDbText
 10
133.5
 20
142.4992141396418
 30
0.0
 40
3.0
  1
使用マイク
100
AcDbText
  0
LINE
  5
3E
330
1AD
100
AcDbEntity
  8
WAKU
 62
     4
100
AcDbLine
 10
131.0
 20
166.4992141396415
 30
0.0
 11
131.0
 21
131.4992141396414
 31
0.0
  0
TEXT
  5
3F
330
1AD
100
AcDbEntity
  8
MOJI1
100
AcDbText
 10
173.5
 20
147.4992141396418
 30
0.0
 40
3.0
  1
６グループ
100
AcDbText
  0
TEXT
  5
40
330
1AD
100
AcDbEntity
  8
MOJI1
100
AcDbText
 10
173.5
 20
152.4992141396418
 30
0.0
 40
3.0
  1
６グループ各４チャンネル
100
AcDbText
  0
TEXT
  5
41
330
1AD
100
AcDbEntity
  8
MOJI1
100
AcDbText
 10
173.5
 20
162.4992141396415
 30
0.0
 40
3.0
  1
Ｆ２Ｄ、Ｆ３Ｅ
100
AcDbText
  0
TEXT
  5
42
330
1AD
100
AcDbEntity
  8
MOJI1
100
AcDbText
 10
173.5
 20
137.4992141396418
 30
0.0
 40
3.0
  1
３００Ｈｚ～３ｋＨｚ
100
AcDbText
  0
LINE
  5
43
330
1AD
100
AcDbEntity
  8
WAKU
 62
     4
100
AcDbLine
 10
171.0
 20
131.4992141396414
 30
0.0
 11
171.0
 21
166.4992141396415
 31
0.0
  0
DIMENSION
  5
44
330
1AD
100
AcDbEntity
  8
SUNPO
100
AcDbDimension
  2
*D3
 10
175.2159679955811
 20
217.7418966687095
 30
0.0
 11
181.5909679955811
 21
219.4918966687095
 31
0.0
 70
    33
  1
21
 71
     5
 42
4.199999999999987
  3
STANDARD
100
AcDbAlignedDimension
 13
171.0159679955811
 23
209.7418966687095
 33
0.0
 14
175.2159679955811
 24
209.7418966687095
 34
0.0
1001
ACAD
1000
DSTYLE
1002
{
1070
    40
1040
1.0
1070
   140
1040
2.5
1070
   147
1040
0.5
1070
   172
1070
     1
1070
   279
1070
     0
1070
   343
1005
1C0
1070
   344
1005
1C0
1002
}
  0
DIMENSION
  5
5D
330
1AD
100
AcDbEntity
  8
SUNPO
100
AcDbDimension
  2
*D2
 10
183.2099039968095
 20
209.7368854158884
 30
0.0
 11
181.4599039968094
 21
197.7368854158884
 31
0.0
 70
    33
  1
120
 71
     5
 42
24.0
  3
STANDARD
100
AcDbAlignedDimension
 13
175.2099039968095
 23
185.7368854158884
 33
0.0
 14
175.2099039968095
 24
209.7368854158884
 34
0.0
1001
ACAD
1000
DSTYLE
1002
{
1070
    40
1040
1.0
1070
   140
1040
2.5
1070
   147
1040
0.5
1070
   172
1070
     1
1070
   279
1070
     0
1070
   343
1005
1C0
1070
   344
1005
1C0
1002
}
  0
LINE
  5
6A
330
1AD
100
AcDbEntity
  8
GAIKEI
  6
Continuous
100
AcDbLine
 10
175.2299421955809
 20
207.5367688158884
 30
0.0
 11
175.2159679955811
 21
207.7921426158884
 31
0.0
  0
ARC
  5
6B
330
1AD
100
AcDbEntity
  8
GAIKEI
  6
Continuous
 62
     1
100
AcDbCircle
 10
173.3259679955811
 20
207.6368854158883
 30
0.0
 40
0.17
100
AcDbArc
 50
270.0
 51
90.0
  0
ARC
  5
6C
330
1AD
100
AcDbEntity
  8
GAIKEI
  6
Continuous
 62
     1
100
AcDbCircle
 10
172.9059679955811
 20
207.6368854158883
 30
0.0
 40
0.17
100
AcDbArc
 50
90.0
 51
270.0
  0
LINE
  5
6D
330
1AD
100
AcDbEntity
  8
GAIKEI
  6
Continuous
 62
     1
100
AcDbLine
 10
172.9059679955811
 20
207.4668854158884
 30
0.0
 11
173.3259679955811
 21
207.4668854158884
 31
0.0
  0
LINE
  5
6E
330
1AD
100
AcDbEntity
  8
GAIKEI
  6
Continuous
100
AcDbLine
 10
175.3596831955811
 20
206.9603886158884
 30
0.0
 11
175.337614995581
 21
207.0307656158884
 31
0.0
  0
LINE
  5
6F
330
1AD
100
AcDbEntity
  8
GAIKEI
  6
Continuous
100
AcDbLine
 10
175.3910495955811
 20
206.8692420158884
 30
0.0
 11
175.3596831955811
 21
206.9603886158884
 31
0.0
  0
LINE
  5
70
330
1AD
100
AcDbEntity
  8
GAIKEI
  6
Continuous
100
AcDbLine
 10
175.4178407955811
 20
206.7978464158884
 30
0.0
 11
175.3910495955811
 21
206.8692420158884
 31
0.0
  0
LINE
  5
71
330
1AD
100
AcDbEntity
  8
GAIKEI
  6
Continuous
100
AcDbLine
 10
175.2744095955812
 20
207.2705524158884
 30
0.0
 11
175.2299421955809
 21
207.5367688158884
 31
0.0
  0
LINE
  5
72
330
1AD
100
AcDbEntity
  8
GAIKEI
  6
Continuous
100
AcDbLine
 10
175.337614995581
 20
207.0307656158884
 30
0.0
 11
175.2744095955812
 21
207.2705524158884
 31
0.0
  0
CIRCLE
  5
73
330
1AD
100
AcDbEntity
  8
GAIKEI
  6
Continuous
 62
     1
100
AcDbCircle
 10
173.9759679955811
 20
207.4368854158884
 30
0.0
 40
0.22
  0
LINE
  5
74
330
1AD
100
AcDbEntity
  8
GAIKEI
  6
Continuous
100
AcDbLine
 10
173.215967995581
 20
209.7368854158884
 30
0.0
 11
173.215967995581
 21
208.2347104158884
 31
0.0
  0
LINE
  5
75
330
1AD
100
AcDbEntity
  8
GAIKEI
  6
Continuous
100
AcDbLine
 10
173.1159679955811
 20
208.2368854158884
 30
0.0
 11
173.1159679955811
 21
209.7368854158884
 31
0.0
  0
ARC
  5
76
330
1AD
100
AcDbEntity
  8
GAIKEI
  6
Continuous
100
AcDbCircle
 10
174.7159679955811
 20
209.2368854158884
 30
0.0
 40
0.5
100
AcDbArc
 50
0.0
 51
90.0
  0
LINE
  5
77
330
1AD
100
AcDbEntity
  8
GAIKEI
  6
Continuous
 62
     1
100
AcDbLine
 10
173.3259679955811
 20
207.8068854158883
 30
0.0
 11
172.9059679955811
 21
207.8068854158883
 31
0.0
  0
LINE
  5
78
330
1AD
100
AcDbEntity
  8
GAIKEI
  6
Continuous
100
AcDbLine
 10
175.2159679955811
 20
209.2368854158884
 30
0.0
 11
175.2159679955811
 21
207.7921380158884
 31
0.0
  0
LINE
  5
79
330
1AD
100
AcDbEntity
  8
GAIKEI
  6
Continuous
100
AcDbLine
 10
173.215967995581
 20
209.7368854158884
 30
0.0
 11
174.7159679955811
 21
209.7368854158884
 31
0.0
  0
LINE
  5
7A
330
1AD
100
AcDbEntity
  8
GAIKEI
  6
Continuous
100
AcDbLine
 10
173.1159679955811
 20
209.6368854158883
 30
0.0
 11
173.215967995581
 21
209.6368854158883
 31
0.0
  0
LINE
  5
7B
330
1AD
100
AcDbEntity
  8
GAIKEI
  6
Continuous
100
AcDbLine
 10
171.0159679955811
 20
207.7921458158883
 30
0.0
 11
171.0024903955811
 21
207.5413162158883
 31
0.0
  0
LINE
  5
7C
330
1AD
100
AcDbEntity
  8
GAIKEI
  6
Continuous
100
AcDbLine
 10
170.9562085955811
 20
207.2646378158883
 30
0.0
 11
170.8943209955812
 21
207.0307656158884
 31
0.0
  0
LINE
  5
7D
330
1AD
100
AcDbEntity
  8
GAIKEI
  6
Continuous
100
AcDbLine
 10
171.0024903955811
 20
207.5413162158883
 30
0.0
 11
170.9562085955811
 21
207.2646378158883
 31
0.0
  0
LINE
  5
7E
330
1AD
100
AcDbEntity
  8
GAIKEI
  6
Continuous
100
AcDbLine
 10
170.8388955955812
 20
206.8637516158884
 30
0.0
 11
170.8140949955811
 21
206.7978464158884
 31
0.0
  0
LINE
  5
7F
330
1AD
100
AcDbEntity
  8
GAIKEI
  6
Continuous
100
AcDbLine
 10
170.8742459955811
 20
206.9665096158884
 30
0.0
 11
170.8388955955812
 21
206.8637516158884
 31
0.0
  0
LINE
  5
80
330
1AD
100
AcDbEntity
  8
GAIKEI
  6
Continuous
100
AcDbLine
 10
170.8943209955812
 20
207.0307656158884
 30
0.0
 11
170.8742459955811
 21
206.9665096158884
 31
0.0
  0
ARC
  5
81
330
1AD
100
AcDbEntity
  8
GAIKEI
  6
Continuous
100
AcDbCircle
 10
171.5159679955811
 20
209.2368854158884
 30
0.0
 40
0.5
100
AcDbArc
 50
90.0
 51
180.0
  0
LINE
  5
82
330
1AD
100
AcDbEntity
  8
GAIKEI
  6
Continuous
100
AcDbLine
 10
171.0159679955811
 20
209.2368854158884
 30
0.0
 11
171.0159679955811
 21
207.7921458158883
 31
0.0
  0
CIRCLE
  5
83
330
1AD
100
AcDbEntity
  8
GAIKEI
  6
Continuous
 62
     1
100
AcDbCircle
 10
172.2559679955811
 20
207.4368854158884
 30
0.0
 40
0.22
  0
LINE
  5
84
330
1AD
100
AcDbEntity
  8
GAIKEI
  6
Continuous
100
AcDbLine
 10
173.1159679955811
 20
209.7368854158884
 30
0.0
 11
171.5159679955811
 21
209.7368854158884
 31
0.0
  0
LINE
  5
85
330
1AD
100
AcDbEntity
  8
GAIKEI
  6
Continuous
100
AcDbLine
 10
175.3376147955812
 20
199.8430050158883
 30
0.0
 11
175.3596839955811
 21
199.9133846158883
 31
0.0
  0
ARC
  5
86
330
1AD
100
AcDbEntity
  8
GAIKEI
  6
Continuous
100
AcDbCircle
 10
173.1159680248612
 20
200.9368854464704
 30
0.0
 40
2.29999997072
100
AcDbArc
 50
272.4919056706256
 51
359.9999992381683
  0
LINE
  5
87
330
1AD
100
AcDbEntity
  8
GAIKEI
  6
Continuous
100
AcDbLine
 10
175.2159679955811
 20
199.0708426158884
 30
0.0
 11
175.2159679955811
 21
186.9368854158883
 31
0.0
  0
LINE
  5
88
330
1AD
100
AcDbEntity
  8
GAIKEI
  6
Continuous
100
AcDbLine
 10
173.215967995581
 20
186.9368854158883
 30
0.0
 11
173.215967995581
 21
194.9404614158884
 31
0.0
  0
LINE
  5
89
330
1AD
100
AcDbEntity
  8
GAIKEI
  6
Continuous
100
AcDbLine
 10
173.1159679955811
 20
186.9368854158883
 30
0.0
 11
173.1159679955811
 21
195.0368854158883
 31
0.0
  0
LINE
  5
8A
330
1AD
100
AcDbEntity
  8
GAIKEI
  6
Continuous
100
AcDbLine
 10
175.2159679955811
 20
186.8368854158884
 30
0.0
 11
175.2159679955811
 21
186.1368854158883
 31
0.0
  0
ARC
  5
8B
330
1AD
100
AcDbEntity
  8
GAIKEI
  6
Continuous
100
AcDbCircle
 10
174.8159679955811
 20
186.1368854158883
 30
0.0
 40
0.4
100
AcDbArc
 50
270.0
 51
0.0
  0
LINE
  5
8C
330
1AD
100
AcDbEntity
  8
GAIKEI
  6
Continuous
100
AcDbLine
 10
172.4159679955811
 20
186.6368854158883
 30
0.0
 11
173.8159679955811
 21
186.6368854158883
 31
0.0
  0
LINE
  5
8D
330
1AD
100
AcDbEntity
  8
GAIKEI
  6
Continuous
100
AcDbLine
 10
172.4159679955811
 20
186.6368854158883
 30
0.0
 11
172.4159679955811
 21
186.9368854158883
 31
0.0
  0
LINE
  5
8E
330
1AD
100
AcDbEntity
  8
GAIKEI
  6
Continuous
100
AcDbLine
 10
175.1159679955811
 20
186.9368854158883
 30
0.0
 11
175.1159679955811
 21
186.8368854158884
 31
0.0
  0
LINE
  5
8F
330
1AD
100
AcDbEntity
  8
GAIKEI
  6
Continuous
100
AcDbLine
 10
173.8159679955811
 20
186.6368854158883
 30
0.0
 11
173.8159679955811
 21
186.9368854158883
 31
0.0
  0
LINE
  5
90
330
1AD
100
AcDbEntity
  8
GAIKEI
  6
Continuous
100
AcDbLine
 10
173.8159679955811
 20
186.8368854158884
 30
0.0
 11
175.2159679955811
 21
186.8368854158884
 31
0.0
  0
ARC
  5
91
330
1AD
100
AcDbEntity
  8
GAIKEI
  6
Continuous
100
AcDbCircle
 10
173.1159679955811
 20
196.3368854158884
 30
0.0
 40
1.3999999956344
100
AcDbArc
 50
274.0960437709446
 51
85.90395622905544
  0
LINE
  5
92
330
1AD
100
AcDbEntity
  8
GAIKEI
  6
Continuous
100
AcDbLine
 10
173.1159679955811
 20
197.6368854158883
 30
0.0
 11
173.1159679955811
 21
198.6368854158883
 31
0.0
  0
LINE
  5
93
330
1AD
100
AcDbEntity
  8
GAIKEI
  6
Continuous
100
AcDbLine
 10
173.215967995581
 20
198.6390604158883
 30
0.0
 11
173.215967995581
 21
197.7333094158883
 31
0.0
  0
LINE
  5
94
330
1AD
100
AcDbEntity
  8
GAIKEI
  6
Continuous
100
AcDbLine
 10
175.2696499955809
 20
199.5760914158884
 30
0.0
 11
175.3376147955812
 21
199.8430050158883
 31
0.0
  0
LINE
  5
95
330
1AD
100
AcDbEntity
  8
GAIKEI
  6
Continuous
100
AcDbLine
 10
175.2277839955811
 20
199.3044998158884
 30
0.0
 11
175.2696499955809
 21
199.5760914158884
 31
0.0
  0
LINE
  5
96
330
1AD
100
AcDbEntity
  8
GAIKEI
  6
Continuous
100
AcDbLine
 10
175.2159679955811
 20
199.0708440158883
 30
0.0
 11
175.2277839955811
 21
199.3044998158884
 31
0.0
  0
LINE
  5
97
330
1AD
100
AcDbEntity
  8
GAIKEI
  6
Continuous
100
AcDbLine
 10
175.6200257955812
 20
205.9091356158884
 30
0.0
 11
175.5773965955811
 21
206.2270862158884
 31
0.0
  0
LINE
  5
98
330
1AD
100
AcDbEntity
  8
GAIKEI
  6
Continuous
100
AcDbLine
 10
175.5774069955811
 20
200.6467416158884
 30
0.0
 11
175.6200257955812
 21
200.9646352158883
 31
0.0
  0
LINE
  5
99
330
1AD
100
AcDbEntity
  8
GAIKEI
  6
Continuous
 62
     1
100
AcDbLine
 10
175.3159679955811
 20
205.9368854158884
 30
0.0
 11
175.3159679955811
 21
200.9368854158884
 31
0.0
  0
LINE
  5
9A
330
1AD
100
AcDbEntity
  8
GAIKEI
  6
Continuous
100
AcDbLine
 10
175.4159679955811
 20
200.9368854158884
 30
0.0
 11
175.4159679955811
 21
205.9368854158884
 31
0.0
  0
LINE
  5
9B
330
1AD
100
AcDbEntity
  8
GAIKEI
  6
Continuous
100
AcDbLine
 10
175.5050761955811
 20
200.3353208158884
 30
0.0
 11
175.5774069955811
 21
200.6467416158884
 31
0.0
  0
LINE
  5
9C
330
1AD
100
AcDbEntity
  8
GAIKEI
  6
Continuous
100
AcDbLine
 10
175.4178405955809
 20
200.0759246158884
 30
0.0
 11
175.5050761955811
 21
200.3353208158884
 31
0.0
  0
LINE
  5
9D
330
1AD
100
AcDbEntity
  8
GAIKEI
  6
Continuous
100
AcDbLine
 10
175.3910513955811
 20
200.0045336158883
 30
0.0
 11
175.4178405955809
 21
200.0759244158883
 31
0.0
  0
LINE
  5
9E
330
1AD
100
AcDbEntity
  8
GAIKEI
  6
Continuous
100
AcDbLine
 10
175.3596839955811
 20
199.9133846158883
 30
0.0
 11
175.3910513955811
 21
200.0045336158883
 31
0.0
  0
LINE
  5
9F
330
1AD
100
AcDbEntity
  8
GAIKEI
  6
Continuous
100
AcDbLine
 10
175.5773965955811
 20
206.2270862158884
 30
0.0
 11
175.5050591955809
 21
206.5385098158884
 31
0.0
  0
LINE
  5
A0
330
1AD
100
AcDbEntity
  8
GAIKEI
  6
Continuous
100
AcDbLine
 10
175.6359679955809
 20
205.5402154158883
 30
0.0
 11
175.6359679955809
 21
201.3335554158884
 31
0.0
  0
LINE
  5
A1
330
1AD
100
AcDbEntity
  8
GAIKEI
  6
Continuous
100
AcDbLine
 10
175.6342713955812
 20
201.2103356158884
 30
0.0
 11
175.6359677955811
 21
201.3335814158883
 31
0.0
  0
LINE
  5
A2
330
1AD
100
AcDbEntity
  8
GAIKEI
  6
Continuous
100
AcDbLine
 10
175.6281351955811
 20
201.0723214158883
 30
0.0
 11
175.6342713955812
 21
201.2103356158884
 31
0.0
  0
LINE
  5
A3
330
1AD
100
AcDbEntity
  8
GAIKEI
  6
Continuous
100
AcDbLine
 10
175.6200257955812
 20
200.9646352158883
 30
0.0
 11
175.6281351955811
 21
201.0723214158883
 31
0.0
  0
LINE
  5
A4
330
1AD
100
AcDbEntity
  8
GAIKEI
  6
Continuous
100
AcDbLine
 10
175.6342715955811
 20
205.6634310158883
 30
0.0
 11
175.6281349955811
 21
205.8014532158883
 31
0.0
  0
LINE
  5
A5
330
1AD
100
AcDbEntity
  8
GAIKEI
  6
Continuous
100
AcDbLine
 10
175.6359677955811
 20
205.5401876158883
 30
0.0
 11
175.6342715955811
 21
205.6634310158883
 31
0.0
  0
LINE
  5
A6
330
1AD
100
AcDbEntity
  8
GAIKEI
  6
Continuous
100
AcDbLine
 10
175.6281349955811
 20
205.8014532158883
 30
0.0
 11
175.6200257955812
 21
205.9091356158884
 31
0.0
  0
LINE
  5
A7
330
1AD
100
AcDbEntity
  8
GAIKEI
  6
Continuous
100
AcDbLine
 10
170.8388923955811
 20
200.0100282158883
 30
0.0
 11
170.8742459955811
 21
199.9072614158884
 31
0.0
  0
LINE
  5
A8
330
1AD
100
AcDbEntity
  8
GAIKEI
  6
Continuous
100
AcDbLine
 10
171.0159679955811
 20
199.0708426158884
 30
0.0
 11
171.0159679955811
 21
186.9368854158883
 31
0.0
  0
LINE
  5
A9
330
1AD
100
AcDbEntity
  8
GAIKEI
  6
Continuous
100
AcDbLine
 10
171.0159679955811
 20
186.8368854158884
 30
0.0
 11
171.0159679955811
 21
186.1368854158883
 31
0.0
  0
ARC
  5
AA
330
1AD
100
AcDbEntity
  8
GAIKEI
  6
Continuous
100
AcDbCircle
 10
171.4159679955811
 20
186.1368854158883
 30
0.0
 40
0.4
100
AcDbArc
 50
180.0
 51
270.0
  0
LINE
  5
AB
330
1AD
100
AcDbEntity
  8
GAIKEI
  6
Continuous
100
AcDbLine
 10
171.1159679955811
 20
186.9368854158883
 30
0.0
 11
171.1159679955811
 21
186.8368854158884
 31
0.0
  0
LINE
  5
AC
330
1AD
100
AcDbEntity
  8
GAIKEI
  6
Continuous
100
AcDbLine
 10
170.8943209955812
 20
199.8430050158883
 30
0.0
 11
170.9614185955812
 21
199.5802712158883
 31
0.0
  0
LINE
  5
AD
330
1AD
100
AcDbEntity
  8
GAIKEI
  6
Continuous
100
AcDbLine
 10
170.8742459955811
 20
199.9072614158884
 30
0.0
 11
170.8943209955812
 21
199.8430050158883
 31
0.0
  0
LINE
  5
AE
330
1AD
100
AcDbEntity
  8
GAIKEI
  6
Continuous
100
AcDbLine
 10
170.9614185955812
 20
199.5802712158883
 30
0.0
 11
171.0048219955812
 21
199.2976940158883
 31
0.0
  0
LINE
  5
AF
330
1AD
100
AcDbEntity
  8
GAIKEI
  6
Continuous
100
AcDbLine
 10
171.0048219955812
 20
199.2976940158883
 30
0.0
 11
171.0159679955811
 21
199.0708452158884
 31
0.0
  0
LINE
  5
B0
330
1AD
100
AcDbEntity
  8
GAIKEI
  6
Continuous
 62
     1
100
AcDbLine
 10
170.9159679955811
 20
200.9368854158884
 30
0.0
 11
170.9159679955811
 21
205.9368854158884
 31
0.0
  0
LINE
  5
B1
330
1AD
100
AcDbEntity
  8
GAIKEI
  6
Continuous
100
AcDbLine
 10
170.8159679955812
 20
200.9368854158884
 30
0.0
 11
170.8159679955812
 21
205.9368854158884
 31
0.0
  0
LINE
  5
B2
330
1AD
100
AcDbEntity
  8
GAIKEI
  6
Continuous
100
AcDbLine
 10
170.5959679955811
 20
205.5402154158883
 30
0.0
 11
170.5959679955811
 21
201.3335554158884
 31
0.0
  0
LINE
  5
B3
330
1AD
100
AcDbEntity
  8
GAIKEI
  6
Continuous
100
AcDbLine
 10
170.5959679955811
 20
201.3335812158884
 30
0.0
 11
170.5975425955812
 21
201.2147892158884
 31
0.0
  0
LINE
  5
B4
330
1AD
100
AcDbEntity
  8
GAIKEI
  6
Continuous
100
AcDbLine
 10
170.8140951955812
 20
200.0759244158883
 30
0.0
 11
170.8388923955811
 21
200.0100282158883
 31
0.0
  0
LINE
  5
B5
330
1AD
100
AcDbEntity
  8
GAIKEI
  6
Continuous
100
AcDbLine
 10
170.7291113955811
 20
200.3274942158884
 30
0.0
 11
170.8140951955812
 21
200.0759246158884
 31
0.0
  0
LINE
  5
B6
330
1AD
100
AcDbEntity
  8
GAIKEI
  6
Continuous
100
AcDbLine
 10
170.6538465955811
 20
200.6505210158884
 30
0.0
 11
170.7291113955811
 21
200.3274942158884
 31
0.0
  0
LINE
  5
B7
330
1AD
100
AcDbEntity
  8
GAIKEI
  6
Continuous
100
AcDbLine
 10
170.6119099955811
 20
200.9646352158883
 30
0.0
 11
170.6538465955811
 21
200.6505210158884
 31
0.0
  0
LINE
  5
B8
330
1AD
100
AcDbEntity
  8
GAIKEI
  6
Continuous
100
AcDbLine
 10
170.6042745955809
 20
201.0647280158883
 30
0.0
 11
170.6119099955811
 21
200.9646352158883
 31
0.0
  0
LINE
  5
B9
330
1AD
100
AcDbEntity
  8
GAIKEI
  6
Continuous
100
AcDbLine
 10
170.5975425955812
 20
201.2147892158884
 30
0.0
 11
170.6042745955809
 21
201.0647280158883
 31
0.0
  0
LINE
  5
BA
330
1AD
100
AcDbEntity
  8
GAIKEI
  6
Continuous
100
AcDbLine
 10
170.6042755955811
 20
205.8090562158884
 30
0.0
 11
170.5975421955812
 21
205.6589696158883
 31
0.0
  0
LINE
  5
BB
330
1AD
100
AcDbEntity
  8
GAIKEI
  6
Continuous
100
AcDbLine
 10
170.5975421955812
 20
205.6589696158883
 30
0.0
 11
170.5959679955811
 21
205.5401876158883
 31
0.0
  0
LINE
  5
BC
330
1AD
100
AcDbEntity
  8
GAIKEI
  6
Continuous
100
AcDbLine
 10
170.6119099955811
 20
205.9091356158884
 30
0.0
 11
170.6042755955811
 21
205.8090562158884
 31
0.0
  0
LINE
  5
BD
330
1AD
100
AcDbEntity
  8
GAIKEI
  6
Continuous
100
AcDbLine
 10
170.6538583955811
 20
206.2233148158884
 30
0.0
 11
170.6119099955811
 21
205.9091356158884
 31
0.0
  0
LINE
  5
BE
330
1AD
100
AcDbEntity
  8
GAIKEI
  6
Continuous
100
AcDbLine
 10
170.7291341955811
 20
206.5463552158884
 30
0.0
 11
170.6538583955811
 21
206.2233148158884
 31
0.0
  0
ARC
  5
BF
330
1AD
100
AcDbEntity
  8
GAIKEI
  6
Continuous
100
AcDbCircle
 10
173.1159679955811
 20
200.9368854158884
 30
0.0
 40
2.299999999999998
100
AcDbArc
 50
180.0
 51
270.0
  0
ARC
  5
C0
330
1AD
100
AcDbEntity
  8
GAIKEI
  6
Continuous
 62
     1
100
AcDbCircle
 10
173.1159679955811
 20
200.9368855158884
 30
0.0
 40
2.2
100
AcDbArc
 50
180.0000026043541
 51
0.0000026043541998
  0
CIRCLE
  5
C1
330
1AD
100
AcDbEntity
  8
GAIKEI
  6
Continuous
 62
     1
100
AcDbCircle
 10
173.1159679955811
 20
200.9368855158884
 30
0.0
 40
1.8900241
  0
CIRCLE
  5
C2
330
1AD
100
AcDbEntity
  8
GAIKEI
  6
Continuous
 62
     1
100
AcDbCircle
 10
173.1159679955811
 20
200.9368855158884
 30
0.0
 40
1.7606153000138
  0
CIRCLE
  5
C3
330
1AD
100
AcDbEntity
  8
GAIKEI
  6
Continuous
 62
     1
100
AcDbCircle
 10
173.1159679955811
 20
200.9368854158884
 30
0.0
 40
1.379999999999999
  0
CIRCLE
  5
C4
330
1AD
100
AcDbEntity
  8
GAIKEI
  6
Continuous
 62
     1
100
AcDbCircle
 10
173.1159679955811
 20
200.9368854158884
 30
0.0
 40
1.2199999999998
  0
LINE
  5
C5
330
1AD
100
AcDbEntity
  8
GAIKEI
  6
Continuous
100
AcDbLine
 10
174.8159679955811
 20
185.7368854158884
 30
0.0
 11
171.4159679955811
 21
185.7368854158884
 31
0.0
  0
LINE
  5
C6
330
1AD
100
AcDbEntity
  8
GAIKEI
  6
Continuous
100
AcDbLine
 10
171.0159679955811
 20
186.9368854158883
 30
0.0
 11
175.2159679955811
 21
186.9368854158883
 31
0.0
  0
LINE
  5
C7
330
1AD
100
AcDbEntity
  8
GAIKEI
  6
Continuous
100
AcDbLine
 10
171.0159679955811
 20
186.8368854158884
 30
0.0
 11
172.4159679955811
 21
186.8368854158884
 31
0.0
  0
ARC
  5
C8
330
1AD
100
AcDbEntity
  8
GAIKEI
  6
Continuous
100
AcDbCircle
 10
173.1159679955811
 20
196.3368854158884
 30
0.0
 40
1.399999999999999
100
AcDbArc
 50
90.0
 51
270.0
  0
CIRCLE
  5
C9
330
1AD
100
AcDbEntity
  8
GAIKEI
  6
Continuous
 62
     1
100
AcDbCircle
 10
173.1159679955811
 20
196.3368854158884
 30
0.0
 40
1.084324399999998
  0
CIRCLE
  5
CA
330
1AD
100
AcDbEntity
  8
GAIKEI
  6
Continuous
 62
     1
100
AcDbCircle
 10
173.1159679955811
 20
196.3368854158884
 30
0.0
 40
1.015973999999999
  0
CIRCLE
  5
CB
330
1AD
100
AcDbEntity
  8
GAIKEI
  6
Continuous
 62
     1
100
AcDbCircle
 10
173.1159679955811
 20
196.3368854158884
 30
0.0
 40
1.3
  0
CIRCLE
  5
CC
330
1AD
100
AcDbEntity
  8
GAIKEI
  6
Continuous
 62
     1
100
AcDbCircle
 10
173.1159679955811
 20
196.3368854158884
 30
0.0
 40
0.93
  0
CIRCLE
  5
CD
330
1AD
100
AcDbEntity
  8
GAIKEI
  6
Continuous
 62
     1
100
AcDbCircle
 10
173.1159679955811
 20
196.3368854158884
 30
0.0
 40
0.8405438
  0
ARC
  5
CE
330
1AD
100
AcDbEntity
  8
GAIKEI
  6
Continuous
100
AcDbCircle
 10
173.1159679955811
 20
205.9368854158884
 30
0.0
 40
2.299999999999998
100
AcDbArc
 50
90.0
 51
180.0
  0
ARC
  5
CF
330
1AD
100
AcDbEntity
  8
GAIKEI
  6
Continuous
100
AcDbCircle
 10
173.1159680248612
 20
205.9368853853065
 30
0.0
 40
2.29999997072
100
AcDbArc
 50
0.0000007618316982
 51
87.50809432937444
  0
ARC
  5
D0
330
1AD
100
AcDbEntity
  8
GAIKEI
  6
Continuous
 62
     1
100
AcDbCircle
 10
173.1159679955811
 20
205.9368853158883
 30
0.0
 40
2.2
100
AcDbArc
 50
359.9999973956458
 51
179.9999973956458
  0
CIRCLE
  5
D1
330
1AD
100
AcDbEntity
  8
GAIKEI
  6
Continuous
 62
     1
100
AcDbCircle
 10
173.1159679955811
 20
205.3368851737933
 30
0.0
 40
1.7606153000138
  0
CIRCLE
  5
D2
330
1AD
100
AcDbEntity
  8
GAIKEI
  6
Continuous
 62
     1
100
AcDbCircle
 10
173.1159679955811
 20
205.3368851737933
 30
0.0
 40
1.8900241
  0
LINE
  5
D3
330
1AD
100
AcDbEntity
  8
GAIKEI
  6
Continuous
100
AcDbLine
 10
170.8140951955812
 20
206.7978464158884
 30
0.0
 11
170.7291341955811
 21
206.5463552158884
 31
0.0
  0
LINE
  5
D4
330
1AD
100
AcDbEntity
  8
GAIKEI
  6
Continuous
100
AcDbLine
 10
175.5050591955809
 20
206.5385098158884
 30
0.0
 11
175.4178407955811
 21
206.7978464158884
 31
0.0
  0
DIMENSION
  5
D5
330
1AD
100
AcDbEntity
  8
SUNPO
100
AcDbDimension
  2
*D1
 10
215.6150750325477
 20
217.7418966687095
 30
0.0
 11
209.8150750325477
 21
219.4918966687095
 31
0.0
 70
    33
  1
58
 71
     5
 42
11.59999999999999
  3
STANDARD
100
AcDbAlignedDimension
 13
204.0150750325477
 23
209.7418966687095
 33
0.0
 14
215.6150750325477
 24
209.7418966687095
 34
0.0
1001
ACAD
1000
DSTYLE
1002
{
1070
    40
1040
1.0
1070
   140
1040
2.5
1070
   147
1040
0.5
1070
   172
1070
     1
1070
   279
1070
     0
1070
   343
1005
1C0
1070
   344
1005
1C0
1002
}
  0
ARC
  5
E2
330
1AD
100
AcDbEntity
  8
GAIKEI
  6
Continuous
100
AcDbCircle
 10
213.7150750325478
 20
209.0368854158883
 30
0.0
 40
0.7000000000000001
100
AcDbArc
 50
0.0
 51
90.0
  0
LINE
  5
E3
330
1AD
100
AcDbEntity
  8
GAIKEI
  6
Continuous
100
AcDbLine
 10
213.4150750325478
 20
209.7364126158884
 30
0.0
 11
213.4150750325478
 21
209.7364504158883
 31
0.0
  0
LINE
  5
E4
330
1AD
100
AcDbEntity
  8
GAIKEI
  6
Continuous
100
AcDbLine
 10
213.8211338325478
 20
209.7283258158884
 30
0.0
 11
213.8211396325477
 21
209.7283632158884
 31
0.0
  0
LINE
  5
E5
330
1AD
100
AcDbEntity
  8
GAIKEI
  6
Continuous
100
AcDbLine
 10
213.3633752325478
 20
209.7367648158883
 30
0.0
 11
213.3429640325477
 21
209.7368854158884
 31
0.0
  0
LINE
  5
E6
330
1AD
100
AcDbEntity
  8
GAIKEI
  6
Continuous
100
AcDbLine
 10
213.3875930325477
 20
209.7365328158883
 30
0.0
 11
213.3633752325478
 21
209.7367648158883
 31
0.0
  0
LINE
  5
E7
330
1AD
100
AcDbEntity
  8
GAIKEI
  6
Continuous
100
AcDbLine
 10
213.4150750325478
 20
209.7364126158884
 30
0.0
 11
213.3875930325477
 21
209.7365328158883
 31
0.0
  0
LINE
  5
E8
330
1AD
100
AcDbEntity
  8
GAIKEI
  6
Continuous
100
AcDbLine
 10
213.7150750325478
 20
209.7364126158884
 30
0.0
 11
213.4150750325478
 21
209.7364126158884
 31
0.0
  0
LINE
  5
E9
330
1AD
100
AcDbEntity
  8
GAIKEI
  6
Continuous
100
AcDbLine
 10
213.4150750325478
 20
209.7364504158883
 30
0.0
 11
213.7150750325478
 21
209.7364504158883
 31
0.0
  0
LINE
  5
EA
330
1AD
100
AcDbEntity
  8
GAIKEI
  6
Continuous
100
AcDbLine
 10
213.8502856325477
 20
209.7233434158883
 30
0.0
 11
213.8211338325478
 21
209.7283258158884
 31
0.0
  0
LINE
  5
EB
330
1AD
100
AcDbEntity
  8
GAIKEI
  6
Continuous
100
AcDbLine
 10
213.8758368325478
 20
209.7180500158883
 30
0.0
 11
213.8502856325477
 21
209.7233434158883
 31
0.0
  0
LINE
  5
EC
330
1AD
100
AcDbEntity
  8
GAIKEI
  6
Continuous
100
AcDbLine
 10
213.8976170325478
 20
209.7126652158884
 30
0.0
 11
213.8758368325478
 21
209.7180500158883
 31
0.0
  0
ARC
  5
ED
330
1AD
100
AcDbEntity
  8
GAIKEI
  6
Continuous
100
AcDbCircle
 10
213.7150749963152
 20
209.0368854186511
 30
0.0
 40
0.6995271972374001
100
AcDbArc
 50
81.27946854443026
 51
89.99999703232367
  0
LINE
  5
EE
330
1AD
100
AcDbEntity
  8
GAIKEI
  6
Continuous
100
AcDbLine
 10
204.0150752325478
 20
207.6216238158883
 30
0.0
 11
204.0150750325477
 21
209.0368854158883
 31
0.0
  0
LINE
  5
EF
330
1AD
100
AcDbEntity
  8
GAIKEI
  6
Continuous
 62
     1
100
AcDbLine
 10
203.8052400325477
 20
207.4668856158883
 30
0.0
 11
203.9013848325478
 21
207.8068854158883
 31
0.0
  0
LINE
  5
F0
330
1AD
100
AcDbEntity
  8
GAIKEI
  6
Continuous
 62
     1
100
AcDbLine
 10
203.7703752325478
 20
207.3214916158883
 30
0.0
 11
203.7826772325478
 21
207.1928214158883
 31
0.0
  0
LINE
  5
F1
330
1AD
100
AcDbEntity
  8
GAIKEI
  6
Continuous
 62
     1
100
AcDbLine
 10
203.7826772325478
 20
207.1928214158883
 30
0.0
 11
203.8039000325478
 21
206.9714726158883
 31
0.0
  0
LINE
  5
F2
330
1AD
100
AcDbEntity
  8
GAIKEI
  6
Continuous
 62
     1
100
AcDbLine
 10
203.8039000325478
 20
206.9714726158883
 30
0.0
 11
203.8256662325478
 21
206.7450952158884
 31
0.0
  0
LINE
  5
F3
330
1AD
100
AcDbEntity
  8
GAIKEI
  6
Continuous
 62
     1
100
AcDbLine
 10
203.8946394325478
 20
207.4368854158884
 30
0.0
 11
203.8745316325478
 21
207.3638660158884
 31
0.0
  0
LINE
  5
F4
330
1AD
100
AcDbEntity
  8
GAIKEI
  6
Continuous
 62
     1
100
AcDbLine
 10
203.8315934325478
 20
207.4368854158884
 30
0.0
 11
203.8487840325477
 21
207.5005382158884
 31
0.0
  0
LINE
  5
F5
330
1AD
100
AcDbEntity
  8
GAIKEI
  6
Continuous
 62
     1
100
AcDbLine
 10
203.9104800325477
 20
207.5062940158884
 30
0.0
 11
203.8946394325478
 21
207.4368854158884
 31
0.0
  0
LINE
  5
F6
330
1AD
100
AcDbEntity
  8
GAIKEI
  6
Continuous
 62
     1
100
AcDbLine
 10
203.9214138325478
 20
207.5681116158883
 30
0.0
 11
203.9104800325477
 21
207.5062940158884
 31
0.0
  0
LINE
  5
F7
330
1AD
100
AcDbEntity
  8
GAIKEI
  6
Continuous
 62
     1
100
AcDbLine
 10
203.9264602325478
 20
207.6165102158884
 30
0.0
 11
203.9214138325478
 21
207.5681116158883
 31
0.0
  0
LINE
  5
F8
330
1AD
100
AcDbEntity
  8
GAIKEI
  6
Continuous
 62
     1
100
AcDbLine
 10
203.9252132325477
 20
207.6469828158884
 30
0.0
 11
203.9264602325478
 21
207.6165102158884
 31
0.0
  0
LINE
  5
F9
330
1AD
100
AcDbEntity
  8
GAIKEI
  6
Continuous
 62
     1
100
AcDbLine
 10
203.9182634325478
 20
207.6568854158883
 30
0.0
 11
203.9252132325477
 21
207.6469828158884
 31
0.0
  0
LINE
  5
FA
330
1AD
100
AcDbEntity
  8
GAIKEI
  6
Continuous
 62
     1
100
AcDbLine
 10
203.8162530325478
 20
207.3689360158883
 30
0.0
 11
203.8315934325478
 21
207.4368854158884
 31
0.0
  0
LINE
  5
FB
330
1AD
100
AcDbEntity
  8
GAIKEI
  6
Continuous
 62
     1
100
AcDbLine
 10
203.8057640325478
 20
207.3094550158883
 30
0.0
 11
203.8162530325478
 21
207.3689360158883
 31
0.0
  0
LINE
  5
FC
330
1AD
100
AcDbEntity
  8
GAIKEI
  6
Continuous
 62
     1
100
AcDbLine
 10
203.8005550325477
 20
207.2624346158884
 30
0.0
 11
203.8057640325478
 21
207.3094550158883
 31
0.0
  0
LINE
  5
FD
330
1AD
100
AcDbEntity
  8
GAIKEI
  6
Continuous
 62
     1
100
AcDbLine
 10
203.8007996325478
 20
207.2309520158884
 30
0.0
 11
203.8005550325477
 21
207.2624346158884
 31
0.0
  0
LINE
  5
FE
330
1AD
100
AcDbEntity
  8
GAIKEI
  6
Continuous
 62
     1
100
AcDbLine
 10
203.8065106325477
 20
207.2172892158883
 30
0.0
 11
203.8007996325478
 21
207.2309520158884
 31
0.0
  0
LINE
  5
FF
330
1AD
100
AcDbEntity
  8
GAIKEI
  6
Continuous
 62
     1
100
AcDbLine
 10
203.8082776325478
 20
207.2168854158884
 30
0.0
 11
203.8065106325477
 21
207.2172892158883
 31
0.0
  0
LINE
  5
100
330
1AD
100
AcDbEntity
  8
GAIKEI
  6
Continuous
 62
     1
100
AcDbLine
 10
203.9046298325478
 20
207.6444902158883
 30
0.0
 11
203.9182634325478
 21
207.6568854158883
 31
0.0
  0
LINE
  5
101
330
1AD
100
AcDbEntity
  8
GAIKEI
  6
Continuous
 62
     1
100
AcDbLine
 10
203.8872214325477
 20
207.6107558158884
 30
0.0
 11
203.9046298325478
 21
207.6444902158883
 31
0.0
  0
LINE
  5
102
330
1AD
100
AcDbEntity
  8
GAIKEI
  6
Continuous
 62
     1
100
AcDbLine
 10
203.8679462325477
 20
207.5607688158884
 30
0.0
 11
203.8872214325477
 21
207.6107558158884
 31
0.0
  0
LINE
  5
103
330
1AD
100
AcDbEntity
  8
GAIKEI
  6
Continuous
 62
     1
100
AcDbLine
 10
203.8487840325477
 20
207.5005382158884
 30
0.0
 11
203.8679462325477
 21
207.5607688158884
 31
0.0
  0
LINE
  5
104
330
1AD
100
AcDbEntity
  8
GAIKEI
  6
Continuous
 62
     1
100
AcDbLine
 10
203.8174882325478
 20
207.2234250158884
 30
0.0
 11
203.8082776325478
 21
207.2168854158884
 31
0.0
  0
LINE
  5
105
330
1AD
100
AcDbEntity
  8
GAIKEI
  6
Continuous
 62
     1
100
AcDbLine
 10
203.8333752325478
 20
207.2507132158883
 30
0.0
 11
203.8174882325478
 21
207.2234250158884
 31
0.0
  0
LINE
  5
106
330
1AD
100
AcDbEntity
  8
GAIKEI
  6
Continuous
 62
     1
100
AcDbLine
 10
203.8530248325478
 20
207.2986698158883
 30
0.0
 11
203.8333752325478
 21
207.2507132158883
 31
0.0
  0
LINE
  5
107
330
1AD
100
AcDbEntity
  8
GAIKEI
  6
Continuous
 62
     1
100
AcDbLine
 10
203.8745316325478
 20
207.3638660158884
 30
0.0
 11
203.8530248325478
 21
207.2986698158883
 31
0.0
  0
LINE
  5
108
330
1AD
100
AcDbEntity
  8
GAIKEI
  6
Continuous
 62
     1
100
AcDbLine
 10
203.8052400325477
 20
207.4668856158883
 30
0.0
 11
203.7703752325478
 21
207.3214916158883
 31
0.0
  0
ARC
  5
109
330
1AD
100
AcDbEntity
  8
GAIKEI
  6
Continuous
 62
     1
100
AcDbCircle
 10
203.9728945734005
 20
206.8980000612272
 30
0.0
 40
0.2000000324778
100
AcDbArc
 50
149.688647132545
 51
168.4546352728241
  0
ARC
  5
10A
330
1AD
100
AcDbEntity
  8
GAIKEI
  6
Continuous
100
AcDbCircle
 10
204.7150750325478
 20
209.0368854158883
 30
0.0
 40
0.7000000000000001
100
AcDbArc
 50
90.0
 51
180.0
  0
ARC
  5
10B
330
1AD
100
AcDbEntity
  8
GAIKEI
  6
Continuous
 62
     1
100
AcDbCircle
 10
209.8650746585236
 20
205.9368843302365
 30
0.0
 40
6.250000032063
100
AcDbArc
 50
159.3902965399688
 51
162.5904300466696
  0
LINE
  5
10C
330
1AD
100
AcDbEntity
  8
GAIKEI
  6
Continuous
100
AcDbLine
 10
204.7150750325478
 20
209.7368854158884
 30
0.0
 11
213.7150750325478
 21
209.7368854158884
 31
0.0
  0
LINE
  5
10D
330
1AD
100
AcDbEntity
  8
GAIKEI
  6
Continuous
100
AcDbLine
 10
215.6117380325478
 20
198.0784754158884
 30
0.0
 11
215.5003710492114
 21
200.2249209322262
 31
0.0
  0
LINE
  5
10E
330
1AD
100
AcDbEntity
  8
GAIKEI
  6
Continuous
100
AcDbLine
 10
215.6150750325477
 20
197.3054046158883
 30
0.0
 11
215.6150750325477
 21
186.9368854158883
 31
0.0
  0
LINE
  5
10F
330
1AD
100
AcDbEntity
  8
GAIKEI
  6
Continuous
100
AcDbLine
 10
215.6150750325477
 20
186.6368854158883
 30
0.0
 11
215.6150750325477
 21
186.1368854158883
 31
0.0
  0
ARC
  5
110
330
1AD
100
AcDbEntity
  8
GAIKEI
  6
Continuous
100
AcDbCircle
 10
215.2150750325478
 20
186.1368854158883
 30
0.0
 40
0.4
100
AcDbArc
 50
270.0
 51
0.0
  0
LINE
  5
111
330
1AD
100
AcDbEntity
  8
GAIKEI
  6
Continuous
100
AcDbLine
 10
215.6025258325478
 20
186.8368854158884
 30
0.0
 11
215.6025258325478
 21
186.6368854158883
 31
0.0
  0
LINE
  5
112
330
1AD
100
AcDbEntity
  8
GAIKEI
  6
Continuous
100
AcDbLine
 10
215.5016818325477
 20
186.9368854158883
 30
0.0
 11
215.5016818325477
 21
186.8368854158884
 31
0.0
  0
LINE
  5
113
330
1AD
100
AcDbEntity
  8
GAIKEI
  6
Continuous
100
AcDbLine
 10
215.6025258325478
 20
186.6368854158883
 30
0.0
 11
215.6150750325477
 21
186.6368854158883
 31
0.0
  0
LINE
  5
114
330
1AD
100
AcDbEntity
  8
GAIKEI
  6
Continuous
100
AcDbLine
 10
215.6115154325477
 20
198.0784754158884
 30
0.0
 11
215.6116516325478
 21
197.9519964158884
 31
0.0
  0
LINE
  5
115
330
1AD
100
AcDbEntity
  8
GAIKEI
  6
Continuous
100
AcDbLine
 10
215.6123554325478
 20
197.8039386158883
 30
0.0
 11
215.6117382325478
 21
198.0784754158884
 31
0.0
  0
LINE
  5
116
330
1AD
100
AcDbEntity
  8
GAIKEI
  6
Continuous
100
AcDbLine
 10
215.6118417325477
 20
197.8934289158884
 30
0.0
 11
215.6115154325477
 21
198.0784754158884
 31
0.0
  0
LINE
  5
117
330
1AD
100
AcDbEntity
  8
GAIKEI
  6
Continuous
100
AcDbLine
 10
215.6116516325478
 20
197.9519964158884
 30
0.0
 11
215.6120318325478
 21
197.8348614158884
 31
0.0
  0
LINE
  5
118
330
1AD
100
AcDbEntity
  8
GAIKEI
  6
Continuous
100
AcDbLine
 10
215.6120318325478
 20
197.8348614158884
 30
0.0
 11
215.6125940325478
 21
197.7265352158883
 31
0.0
  0
LINE
  5
119
330
1AD
100
AcDbEntity
  8
GAIKEI
  6
Continuous
100
AcDbLine
 10
215.6125940325478
 20
197.7265352158883
 30
0.0
 11
215.6132562325477
 21
197.6267244158883
 31
0.0
  0
LINE
  5
11A
330
1AD
100
AcDbEntity
  8
GAIKEI
  6
Continuous
100
AcDbLine
 10
215.6132562325477
 20
197.6267244158883
 30
0.0
 11
215.6139264325478
 21
197.5351226158884
 31
0.0
  0
LINE
  5
11B
330
1AD
100
AcDbEntity
  8
GAIKEI
  6
Continuous
100
AcDbLine
 10
215.6139264325478
 20
197.5351226158884
 30
0.0
 11
215.6145110325478
 21
197.4513290158884
 31
0.0
  0
LINE
  5
11C
330
1AD
100
AcDbEntity
  8
GAIKEI
  6
Continuous
100
AcDbLine
 10
215.6150754325477
 20
197.3053904158883
 30
0.0
 11
215.6141142325478
 21
197.5184830158883
 31
0.0
  0
LINE
  5
11D
330
1AD
100
AcDbEntity
  8
GAIKEI
  6
Continuous
100
AcDbLine
 10
215.6141142325478
 20
197.5184830158883
 30
0.0
 11
215.6123554325478
 21
197.8039386158883
 31
0.0
  0
LINE
  5
11E
330
1AD
100
AcDbEntity
  8
GAIKEI
  6
Continuous
100
AcDbLine
 10
215.6145110325478
 20
197.4513290158884
 30
0.0
 11
215.6149212325477
 21
197.3749052158883
 31
0.0
  0
LINE
  5
11F
330
1AD
100
AcDbEntity
  8
GAIKEI
  6
Continuous
100
AcDbLine
 10
215.6149212325477
 20
197.3749052158883
 30
0.0
 11
215.6150750325477
 21
197.3054046158883
 31
0.0
  0
LINE
  5
120
330
1AD
100
AcDbEntity
  8
GAIKEI
  6
Continuous
100
AcDbLine
 10
215.6117380325478
 20
198.0784754158884
 30
0.0
 11
215.6115154325477
 21
198.0784754158884
 31
0.0
  0
ARC
  5
121
330
1AD
100
AcDbEntity
  8
GAIKEI
  6
Continuous
100
AcDbCircle
 10
311.3119783302548
 20
219.9109428770431
 30
0.0
 40
97.81310520471521
100
AcDbArc
 50
187.8482727137809
 51
191.6107435967744
  0
LINE
  5
122
330
1AD
100
AcDbEntity
  8
GAIKEI
  6
Continuous
 62
     1
100
AcDbLine
 10
203.9331936325478
 20
200.9368854158884
 30
0.0
 11
203.9331936325478
 21
198.9683116158884
 31
0.0
  0
LINE
  5
123
330
1AD
100
AcDbEntity
  8
GAIKEI
  6
Continuous
 62
     1
100
AcDbLine
 10
203.7349988325478
 20
199.5568854158883
 30
0.0
 11
203.7349988325478
 21
202.3168854158884
 31
0.0
  0
LINE
  5
124
330
1AD
100
AcDbEntity
  8
GAIKEI
  6
Continuous
 62
     1
100
AcDbLine
 10
203.6150750325477
 20
202.2368854158884
 30
0.0
 11
203.6150750325477
 21
199.6368854158883
 31
0.0
  0
LINE
  5
125
330
1AD
100
AcDbEntity
  8
GAIKEI
  6
Continuous
100
AcDbLine
 10
204.0150750325477
 20
186.8368854158884
 30
0.0
 11
211.6150750325477
 21
186.8368854158884
 31
0.0
  0
LINE
  5
126
330
1AD
100
AcDbEntity
  8
GAIKEI
  6
Continuous
100
AcDbLine
 10
204.0150741948337
 20
197.5273430158883
 30
0.0
 11
204.0150741948337
 21
186.9368854158883
 31
0.0
  0
LINE
  5
127
330
1AD
100
AcDbEntity
  8
GAIKEI
  6
Continuous
100
AcDbLine
 10
204.0150741948337
 20
197.5273430158883
 30
0.0
 11
204.0150741948337
 21
186.9368854158883
 31
0.0
  0
LINE
  5
128
330
1AD
100
AcDbEntity
  8
GAIKEI
  6
Continuous
100
AcDbLine
 10
204.0150741948337
 20
197.5273430158883
 30
0.0
 11
204.0150741948337
 21
186.9368854158883
 31
0.0
  0
LINE
  5
129
330
1AD
100
AcDbEntity
  8
GAIKEI
  6
Continuous
100
AcDbLine
 10
204.0150741948337
 20
197.5273430158883
 30
0.0
 11
204.0150741948337
 21
186.9368854158883
 31
0.0
  0
LINE
  5
12A
330
1AD
100
AcDbEntity
  8
GAIKEI
  6
Continuous
100
AcDbLine
 10
204.0150741948337
 20
197.5273430158883
 30
0.0
 11
204.0150741948337
 21
186.9368854158883
 31
0.0
  0
LINE
  5
12B
330
1AD
100
AcDbEntity
  8
GAIKEI
  6
Continuous
100
AcDbLine
 10
204.0150750325477
 20
186.9368854158883
 30
0.0
 11
204.0150750325477
 21
197.5273430158883
 31
0.0
  0
LINE
  5
12C
330
1AD
100
AcDbEntity
  8
GAIKEI
  6
Continuous
100
AcDbLine
 10
204.0150750325477
 20
186.1368854158883
 30
0.0
 11
204.0150750325477
 21
186.8368854158884
 31
0.0
  0
ARC
  5
12D
330
1AD
100
AcDbEntity
  8
GAIKEI
  6
Continuous
100
AcDbCircle
 10
204.4150750325478
 20
186.1368854158883
 30
0.0
 40
0.4
100
AcDbArc
 50
180.0
 51
270.0
  0
LINE
  5
12E
330
1AD
100
AcDbEntity
  8
GAIKEI
  6
Continuous
100
AcDbLine
 10
204.1150750325477
 20
186.8368854158884
 30
0.0
 11
204.1150750325477
 21
186.9368854158883
 31
0.0
  0
LINE
  5
12F
330
1AD
100
AcDbEntity
  8
GAIKEI
  6
Continuous
100
AcDbLine
 10
204.0150750325477
 20
186.9368854158883
 30
0.0
 11
204.1140486325477
 21
186.9368854158883
 31
0.0
  0
LINE
  5
130
330
1AD
100
AcDbEntity
  8
GAIKEI
  6
Continuous
 62
     1
100
AcDbLine
 10
203.9150750325478
 20
197.6368216158883
 30
0.0
 11
203.9150750325478
 21
195.0369744158883
 31
0.0
  0
ARC
  5
131
330
1AD
100
AcDbEntity
  8
GAIKEI
  6
Continuous
 62
     1
100
AcDbCircle
 10
206.7950750325477
 20
196.3368854158884
 30
0.0
 40
3.000000117514998
100
AcDbArc
 50
163.7289731124257
 51
196.2710268875743
  0
LINE
  5
132
330
1AD
100
AcDbEntity
  8
GAIKEI
  6
Continuous
 62
     1
100
AcDbLine
 10
204.0150750325477
 20
195.0368854158883
 30
0.0
 11
203.9150750325478
 21
195.0368854158883
 31
0.0
  0
LINE
  5
133
330
1AD
100
AcDbEntity
  8
GAIKEI
  6
Continuous
 62
     7
100
AcDbLine
 10
204.0150750325477
 20
197.5275694158883
 30
0.0
 11
204.0150750325477
 21
199.3721142158883
 31
0.0
  0
LINE
  5
134
330
1AD
100
AcDbEntity
  8
GAIKEI
  6
Continuous
 62
     7
100
AcDbLine
 10
204.0150876325477
 20
198.7368854158884
 30
0.0
 11
204.0152010325477
 21
197.5275452158883
 31
0.0
  0
ARC
  5
135
330
1AD
100
AcDbEntity
  8
GAIKEI
  6
Continuous
 62
     1
100
AcDbCircle
 10
237.6150750758558
 20
203.1368850955933
 30
0.0
 40
33.9999999938122
100
AcDbArc
 50
186.6034355248846
 51
188.7974101654279
  0
LINE
  5
136
330
1AD
100
AcDbEntity
  8
GAIKEI
  6
Continuous
 62
     7
100
AcDbLine
 10
204.0150040325478
 20
197.3646330158884
 30
0.0
 11
204.0150758325478
 21
196.3523946158884
 31
0.0
  0
LINE
  5
137
330
1AD
100
AcDbEntity
  8
GAIKEI
  6
Continuous
 62
     1
100
AcDbLine
 10
204.0151908325477
 20
197.6368854158883
 30
0.0
 11
203.9150750325478
 21
197.6368854158883
 31
0.0
  0
LINE
  5
138
330
1AD
100
AcDbEntity
  8
GAIKEI
  6
Continuous
 62
     7
100
AcDbLine
 10
204.0150750325477
 20
199.4166198158884
 30
0.0
 11
204.0150750325477
 21
199.3721142158883
 31
0.0
  0
LINE
  5
139
330
1AD
100
AcDbEntity
  8
GAIKEI
  6
Continuous
 62
     7
100
AcDbLine
 10
204.0150750325477
 20
198.8582554158883
 30
0.0
 11
204.0150762325478
 21
198.8580742158884
 31
0.0
  0
LINE
  5
13A
330
1AD
100
AcDbEntity
  8
GAIKEI
  6
Continuous
 62
     1
100
AcDbLine
 10
203.7349988325478
 20
199.5568854158883
 30
0.0
 11
203.7769412325477
 21
199.3357420158883
 31
0.0
  0
LINE
  5
13B
330
1AD
100
AcDbEntity
  8
GAIKEI
  6
Continuous
 62
     1
100
AcDbLine
 10
203.6550750325478
 20
199.5568854158883
 30
0.0
 11
203.7349988325478
 21
199.5568854158883
 31
0.0
  0
ARC
  5
13C
330
1AD
100
AcDbEntity
  8
GAIKEI
  6
Continuous
 62
     1
100
AcDbCircle
 10
203.9728945798328
 20
199.3757706686058
 30
0.0
 40
0.2000000183764
100
AcDbArc
 50
191.5453357444784
 51
258.4522389548951
  0
ARC
  5
13D
330
1AD
100
AcDbEntity
  8
GAIKEI
  6
Continuous
 62
     1
100
AcDbCircle
 10
203.7150750325478
 20
199.6368854158883
 30
0.0
 40
0.1
100
AcDbArc
 50
180.0
 51
233.1301023541625
  0
ARC
  5
13E
330
1AD
100
AcDbEntity
  8
GAIKEI
  6
Continuous
 62
     1
100
AcDbCircle
 10
209.865075202586
 20
200.9368849352997
 30
0.0
 40
6.2499999899886
100
AcDbArc
 50
198.3591072660264
 51
200.6096882650899
  0
LINE
  5
13F
330
1AD
100
AcDbEntity
  8
GAIKEI
  6
Continuous
 62
     1
100
AcDbLine
 10
203.7668368325478
 20
203.8984870158884
 30
0.0
 11
203.7294812325477
 21
203.7444006158883
 31
0.0
  0
ARC
  5
140
330
1AD
100
AcDbEntity
  8
GAIKEI
  6
Continuous
 62
     1
100
AcDbCircle
 10
237.6150750211844
 20
203.1368841824854
 30
0.0
 40
34.00000007487481
100
AcDbArc
 50
177.5021481746891
 51
181.4421390218191
  0
LINE
  5
141
330
1AD
100
AcDbEntity
  8
GAIKEI
  6
Continuous
 62
     1
100
AcDbLine
 10
203.8504668325477
 20
201.9484968158884
 30
0.0
 11
203.8662644325478
 21
201.8465374158884
 31
0.0
  0
LINE
  5
142
330
1AD
100
AcDbEntity
  8
GAIKEI
  6
Continuous
 62
     1
100
AcDbLine
 10
203.9320718325478
 20
201.0543776158884
 30
0.0
 11
203.9331936325478
 21
200.9368854158884
 31
0.0
  0
LINE
  5
143
330
1AD
100
AcDbEntity
  8
GAIKEI
  6
Continuous
 62
     1
100
AcDbLine
 10
203.9287518325478
 20
201.1712190158883
 30
0.0
 11
203.9320718325478
 21
201.0543776158884
 31
0.0
  0
LINE
  5
144
330
1AD
100
AcDbEntity
  8
GAIKEI
  6
Continuous
 62
     1
100
AcDbLine
 10
203.9232154325478
 20
201.2873930158884
 30
0.0
 11
203.9287518325478
 21
201.1712190158883
 31
0.0
  0
LINE
  5
145
330
1AD
100
AcDbEntity
  8
GAIKEI
  6
Continuous
 62
     1
100
AcDbLine
 10
203.9154580325478
 20
201.4036902158884
 30
0.0
 11
203.9232154325478
 21
201.2873930158884
 31
0.0
  0
LINE
  5
146
330
1AD
100
AcDbEntity
  8
GAIKEI
  6
Continuous
 62
     1
100
AcDbLine
 10
203.9056278325477
 20
201.5192930158884
 30
0.0
 11
203.9154580325478
 21
201.4036902158884
 31
0.0
  0
LINE
  5
147
330
1AD
100
AcDbEntity
  8
GAIKEI
  6
Continuous
 62
     1
100
AcDbLine
 10
203.8940478325478
 20
201.6317874158884
 30
0.0
 11
203.9056278325477
 21
201.5192930158884
 31
0.0
  0
LINE
  5
148
330
1AD
100
AcDbEntity
  8
GAIKEI
  6
Continuous
 62
     1
100
AcDbLine
 10
203.8808946325477
 20
201.7406954158884
 30
0.0
 11
203.8940478325478
 21
201.6317874158884
 31
0.0
  0
LINE
  5
149
330
1AD
100
AcDbEntity
  8
GAIKEI
  6
Continuous
 62
     1
100
AcDbLine
 10
203.8662644325478
 20
201.8465374158884
 30
0.0
 11
203.8808946325477
 21
201.7406954158884
 31
0.0
  0
LINE
  5
14A
330
1AD
100
AcDbEntity
  8
GAIKEI
  6
Continuous
 62
     1
100
AcDbLine
 10
203.8336966325477
 20
202.0467620158883
 30
0.0
 11
203.8504668325477
 21
201.9484968158884
 31
0.0
  0
LINE
  5
14B
330
1AD
100
AcDbEntity
  8
GAIKEI
  6
Continuous
 62
     1
100
AcDbLine
 10
203.8161550325478
 20
202.1413382158883
 30
0.0
 11
203.8336966325477
 21
202.0467620158883
 31
0.0
  0
LINE
  5
14C
330
1AD
100
AcDbEntity
  8
GAIKEI
  6
Continuous
 62
     1
100
AcDbLine
 10
203.7982184325478
 20
202.2312238158884
 30
0.0
 11
203.8161550325478
 21
202.1413382158883
 31
0.0
  0
LINE
  5
14D
330
1AD
100
AcDbEntity
  8
GAIKEI
  6
Continuous
 62
     1
100
AcDbLine
 10
203.7801036325478
 20
202.3162518158884
 30
0.0
 11
203.7982184325478
 21
202.2312238158884
 31
0.0
  0
LINE
  5
14E
330
1AD
100
AcDbEntity
  8
GAIKEI
  6
Continuous
 62
     1
100
AcDbLine
 10
203.7619314325478
 20
202.3966610158884
 30
0.0
 11
203.7801036325478
 21
202.3162518158884
 31
0.0
  0
LINE
  5
14F
330
1AD
100
AcDbEntity
  8
GAIKEI
  6
Continuous
 62
     1
100
AcDbLine
 10
203.7439536325477
 20
202.4721528158884
 30
0.0
 11
203.7619314325478
 21
202.3966610158884
 31
0.0
  0
LINE
  5
150
330
1AD
100
AcDbEntity
  8
GAIKEI
  6
Continuous
 62
     1
100
AcDbLine
 10
203.7263152325477
 20
202.5429370158884
 30
0.0
 11
203.7439536325477
 21
202.4721528158884
 31
0.0
  0
LINE
  5
151
330
1AD
100
AcDbEntity
  8
GAIKEI
  6
Continuous
 62
     1
100
AcDbLine
 10
203.7092356325478
 20
202.6088398158883
 30
0.0
 11
203.7263152325477
 21
202.5429370158884
 31
0.0
  0
LINE
  5
152
330
1AD
100
AcDbEntity
  8
GAIKEI
  6
Continuous
 62
     1
100
AcDbLine
 10
203.6930592325478
 20
202.6691404158883
 30
0.0
 11
203.7092356325478
 21
202.6088398158883
 31
0.0
  0
LINE
  5
153
330
1AD
100
AcDbEntity
  8
GAIKEI
  6
Continuous
 62
     1
100
AcDbLine
 10
203.6779496325477
 20
202.7237450158884
 30
0.0
 11
203.6930592325478
 21
202.6691404158883
 31
0.0
  0
LINE
  5
154
330
1AD
100
AcDbEntity
  8
GAIKEI
  6
Continuous
 62
     1
100
AcDbLine
 10
203.6640414325478
 20
202.7725952158883
 30
0.0
 11
203.6779496325477
 21
202.7237450158884
 31
0.0
  0
LINE
  5
155
330
1AD
100
AcDbEntity
  8
GAIKEI
  6
Continuous
 62
     1
100
AcDbLine
 10
203.6515834325477
 20
202.8152630158883
 30
0.0
 11
203.6640414325478
 21
202.7725952158883
 31
0.0
  0
LINE
  5
156
330
1AD
100
AcDbEntity
  8
GAIKEI
  6
Continuous
 62
     1
100
AcDbLine
 10
203.6406708325478
 20
202.8518874158884
 30
0.0
 11
203.6515834325477
 21
202.8152630158883
 31
0.0
  0
LINE
  5
157
330
1AD
100
AcDbEntity
  8
GAIKEI
  6
Continuous
 62
     1
100
AcDbLine
 10
203.6314970325478
 20
202.8822588158884
 30
0.0
 11
203.6406708325478
 21
202.8518874158884
 31
0.0
  0
LINE
  5
158
330
1AD
100
AcDbEntity
  8
GAIKEI
  6
Continuous
 62
     1
100
AcDbLine
 10
203.6243218325478
 20
202.9057850158884
 30
0.0
 11
203.6314970325478
 21
202.8822588158884
 31
0.0
  0
LINE
  5
159
330
1AD
100
AcDbEntity
  8
GAIKEI
  6
Continuous
 62
     1
100
AcDbLine
 10
203.6192014325478
 20
202.9223906158883
 30
0.0
 11
203.6243218325478
 21
202.9057850158884
 31
0.0
  0
LINE
  5
15A
330
1AD
100
AcDbEntity
  8
GAIKEI
  6
Continuous
 62
     1
100
AcDbLine
 10
203.6192014325478
 20
202.9223906158883
 30
0.0
 11
203.6150750325477
 21
202.9356252158884
 31
0.0
  0
LINE
  5
15B
330
1AD
100
AcDbEntity
  8
GAIKEI
  6
Continuous
 62
     1
100
AcDbLine
 10
203.6150750325477
 20
202.9356252158884
 30
0.0
 11
203.6150750325477
 21
203.3381456158883
 31
0.0
  0
LINE
  5
15C
330
1AD
100
AcDbEntity
  8
GAIKEI
  6
Continuous
 62
     1
100
AcDbLine
 10
203.6203336325478
 20
203.3550646158884
 30
0.0
 11
203.6150750325477
 21
203.3381456158883
 31
0.0
  0
LINE
  5
15D
330
1AD
100
AcDbEntity
  8
GAIKEI
  6
Continuous
 62
     1
100
AcDbLine
 10
203.6359228325478
 20
203.4058314158884
 30
0.0
 11
203.6203336325478
 21
203.3550646158884
 31
0.0
  0
LINE
  5
15E
330
1AD
100
AcDbEntity
  8
GAIKEI
  6
Continuous
 62
     1
100
AcDbLine
 10
203.6609260325477
 20
203.4904780158883
 30
0.0
 11
203.6359228325478
 21
203.4058314158884
 31
0.0
  0
LINE
  5
15F
330
1AD
100
AcDbEntity
  8
GAIKEI
  6
Continuous
 62
     1
100
AcDbLine
 10
203.6931010325478
 20
203.6057910158883
 30
0.0
 11
203.6609260325477
 21
203.4904780158883
 31
0.0
  0
LINE
  5
160
330
1AD
100
AcDbEntity
  8
GAIKEI
  6
Continuous
 62
     1
100
AcDbLine
 10
203.7294812325477
 20
203.7444006158883
 30
0.0
 11
203.6931010325478
 21
203.6057910158883
 31
0.0
  0
LINE
  5
161
330
1AD
100
AcDbEntity
  8
GAIKEI
  6
Continuous
 62
     1
100
AcDbLine
 10
203.6550750325478
 20
202.3168854158884
 30
0.0
 11
203.7349988325478
 21
202.3168854158884
 31
0.0
  0
ARC
  5
162
330
1AD
100
AcDbEntity
  8
GAIKEI
  6
Continuous
 62
     1
100
AcDbCircle
 10
203.7150750325478
 20
202.2368854158884
 30
0.0
 40
0.1
100
AcDbArc
 50
126.8698976458375
 51
180.0
  0
ARC
  5
163
330
1AD
100
AcDbEntity
  8
GAIKEI
  6
Continuous
 62
     1
100
AcDbCircle
 10
211.6150744913294
 20
200.9368824449926
 30
0.0
 40
8.0000000367378
100
AcDbArc
 50
169.2841055396532
 51
170.0667721804049
  0
LINE
  5
164
330
1AD
100
AcDbEntity
  8
GAIKEI
  6
Continuous
 62
     1
100
AcDbLine
 10
203.9142944325477
 20
205.8194104158884
 30
0.0
 11
203.9225086325478
 21
205.6993744158884
 31
0.0
  0
LINE
  5
165
330
1AD
100
AcDbEntity
  8
GAIKEI
  6
Continuous
 62
     1
100
AcDbLine
 10
203.8020134325478
 20
204.0605642158884
 30
0.0
 11
203.7668368325478
 21
203.8984870158884
 31
0.0
  0
LINE
  5
166
330
1AD
100
AcDbEntity
  8
GAIKEI
  6
Continuous
 62
     1
100
AcDbLine
 10
203.8333654325477
 20
204.2248486158883
 30
0.0
 11
203.8020134325478
 21
204.0605642158884
 31
0.0
  0
LINE
  5
167
330
1AD
100
AcDbEntity
  8
GAIKEI
  6
Continuous
 62
     1
100
AcDbLine
 10
203.8600954325478
 20
204.3862602158884
 30
0.0
 11
203.8333654325477
 21
204.2248486158883
 31
0.0
  0
LINE
  5
168
330
1AD
100
AcDbEntity
  8
GAIKEI
  6
Continuous
 62
     1
100
AcDbLine
 10
203.8819850325478
 20
204.5414540158884
 30
0.0
 11
203.8600954325478
 21
204.3862602158884
 31
0.0
  0
LINE
  5
169
330
1AD
100
AcDbEntity
  8
GAIKEI
  6
Continuous
 62
     1
100
AcDbLine
 10
203.8991100325478
 20
204.6882806158884
 30
0.0
 11
203.8819850325478
 21
204.5414540158884
 31
0.0
  0
LINE
  5
16A
330
1AD
100
AcDbEntity
  8
GAIKEI
  6
Continuous
 62
     1
100
AcDbLine
 10
203.9121660325478
 20
204.8278798158884
 30
0.0
 11
203.8991100325478
 21
204.6882806158884
 31
0.0
  0
LINE
  5
16B
330
1AD
100
AcDbEntity
  8
GAIKEI
  6
Continuous
 62
     1
100
AcDbLine
 10
203.9217626325478
 20
204.9607796158884
 30
0.0
 11
203.9121660325478
 21
204.8278798158884
 31
0.0
  0
LINE
  5
16C
330
1AD
100
AcDbEntity
  8
GAIKEI
  6
Continuous
 62
     1
100
AcDbLine
 10
203.9282242325477
 20
205.0880270158884
 30
0.0
 11
203.9217626325478
 21
204.9607796158884
 31
0.0
  0
LINE
  5
16D
330
1AD
100
AcDbEntity
  8
GAIKEI
  6
Continuous
 62
     1
100
AcDbLine
 10
203.9319196325478
 20
205.2116816158884
 30
0.0
 11
203.9282242325477
 21
205.0880270158884
 31
0.0
  0
LINE
  5
16E
330
1AD
100
AcDbEntity
  8
GAIKEI
  6
Continuous
 62
     1
100
AcDbLine
 10
203.9331838325477
 20
205.3337138158883
 30
0.0
 11
203.9319196325478
 21
205.2116816158884
 31
0.0
  0
LINE
  5
16F
330
1AD
100
AcDbEntity
  8
GAIKEI
  6
Continuous
 62
     1
100
AcDbLine
 10
203.9320542325476
 20
205.4555784158884
 30
0.0
 11
203.9331838325477
 21
205.3337138158883
 31
0.0
  0
LINE
  5
170
330
1AD
100
AcDbEntity
  8
GAIKEI
  6
Continuous
 62
     1
100
AcDbLine
 10
203.9284762325478
 20
205.5778446158884
 30
0.0
 11
203.9320542325476
 21
205.4555784158884
 31
0.0
  0
LINE
  5
171
330
1AD
100
AcDbEntity
  8
GAIKEI
  6
Continuous
 62
     1
100
AcDbLine
 10
203.9225086325478
 20
205.6993744158884
 30
0.0
 11
203.9284762325478
 21
205.5778446158884
 31
0.0
  0
LINE
  5
172
330
1AD
100
AcDbEntity
  8
GAIKEI
  6
Continuous
 62
     1
100
AcDbLine
 10
203.8520610325477
 20
206.4715238158884
 30
0.0
 11
203.8719072325478
 21
206.2667596158884
 31
0.0
  0
LINE
  5
173
330
1AD
100
AcDbEntity
  8
GAIKEI
  6
Continuous
 62
     1
100
AcDbLine
 10
203.8930308325477
 20
206.0493898158883
 30
0.0
 11
203.9039912325478
 21
205.9368854158884
 31
0.0
  0
LINE
  5
174
330
1AD
100
AcDbEntity
  8
GAIKEI
  6
Continuous
 62
     1
100
AcDbLine
 10
203.8719072325478
 20
206.2667596158884
 30
0.0
 11
203.8930308325477
 21
206.0493898158883
 31
0.0
  0
LINE
  5
175
330
1AD
100
AcDbEntity
  8
GAIKEI
  6
Continuous
 62
     1
100
AcDbLine
 10
203.9039912325478
 20
205.9368854158884
 30
0.0
 11
203.9142944325477
 21
205.8194104158884
 31
0.0
  0
LINE
  5
176
330
1AD
100
AcDbEntity
  8
GAIKEI
  6
Continuous
100
AcDbLine
 10
215.2150750325478
 20
185.7368854158884
 30
0.0
 11
204.4150750325478
 21
185.7368854158884
 31
0.0
  0
LINE
  5
177
330
1AD
100
AcDbEntity
  8
GAIKEI
  6
Continuous
100
AcDbLine
 10
204.1150750325477
 20
186.9368854158883
 30
0.0
 11
215.6150750325477
 21
186.9368854158883
 31
0.0
  0
LINE
  5
178
330
1AD
100
AcDbEntity
  8
GAIKEI
  6
Continuous
100
AcDbLine
 10
211.6150750325477
 20
186.8368854158884
 30
0.0
 11
215.6025258325478
 21
186.8368854158884
 31
0.0
  0
LINE
  5
179
330
1AD
100
AcDbEntity
  8
GAIKEI
  6
Continuous
 62
     7
100
AcDbLine
 10
204.0150750325477
 20
207.6216238158883
 30
0.0
 11
204.0150750325477
 21
199.4166198158884
 31
0.0
  0
ARC
  5
17A
330
1AD
100
AcDbEntity
  8
GAIKEI
  6
Continuous
 62
     1
100
AcDbCircle
 10
202.2150750326107
 20
203.4368854424922
 30
0.0
 40
4.9197411166144
100
AcDbArc
 50
300.8721659675814
 51
59.12783403241857
  0
ARC
  5
17B
330
1AD
100
AcDbEntity
  8
GAIKEI
  6
Continuous
 62
     1
100
AcDbCircle
 10
211.6150750330168
 20
205.3368854749473
 30
0.0
 40
8.000000092018403
100
AcDbArc
 50
168.4546835466604
 51
190.6353438350625
  0
LINE
  5
17C
330
1AD
100
AcDbEntity
  8
GAIKEI
  6
Continuous
 62
     1
100
AcDbLine
 10
203.8256662325478
 20
206.7450952158884
 30
0.0
 11
203.8520610325477
 21
206.4715238158884
 31
0.0
  0
LINE
  5
17D
330
1AD
100
AcDbEntity
  8
GAIKEI
  6
Continuous
100
AcDbLine
 10
214.4150750325478
 20
209.0368854158883
 30
0.0
 11
214.4150750325478
 21
206.5545392158884
 31
0.0
  0
LINE
  5
17E
330
1AD
100
AcDbEntity
  8
WAKU
 62
     4
100
AcDbLine
 10
256.0
 20
131.4992141396414
 30
0.0
 11
256.0
 21
166.4992141396415
 31
0.0
  0
ENDSEC
  0
SECTION
  2
OBJECTS
  0
DICTIONARY
  5
199
330
0
100
AcDbDictionary
281
     1
  3
ACAD_COLOR
350
1A8
  3
ACAD_GROUP
350
19A
  3
ACAD_LAYOUT
350
1A6
  3
ACAD_MATERIAL
350
1A7
  3
ACAD_MLINESTYLE
350
1A3
  3
ACAD_PLOTSETTINGS
350
1A5
  3
ACAD_PLOTSTYLENAME
350
19B
  3
ACDBHEADERROUNDTRIPXREC
350
203
  3
AcDbVariableDictionary
350
1EF
  3
DWGPROPS
350
202
  0
DICTIONARY
  5
1A8
102
{ACAD_REACTORS
330
199
102
}
330
199
100
AcDbDictionary
281
     1
  0
DICTIONARY
  5
19A
102
{ACAD_REACTORS
330
199
102
}
330
199
100
AcDbDictionary
281
     1
  0
DICTIONARY
  5
1A6
102
{ACAD_REACTORS
330
199
102
}
330
199
100
AcDbDictionary
281
     1
  3
Model
350
1B0
  3
レイアウト1
350
1AC
  0
DICTIONARY
  5
1A7
102
{ACAD_REACTORS
330
199
102
}
330
199
100
AcDbDictionary
281
     1
  0
DICTIONARY
  5
1A3
102
{ACAD_REACTORS
330
199
102
}
330
199
100
AcDbDictionary
281
     1
  3
Standard
350
1A4
  0
DICTIONARY
  5
1A5
102
{ACAD_REACTORS
330
199
102
}
330
199
100
AcDbDictionary
281
     1
  0
ACDBDICTIONARYWDFLT
  5
19B
102
{ACAD_REACTORS
330
199
102
}
330
199
100
AcDbDictionary
281
     1
  3
Normal
350
19C
100
AcDbDictionaryWithDefault
340
19C
  0
DICTIONARY
  5
203
102
{ACAD_REACTORS
330
199
102
}
330
199
100
AcDbDictionary
281
     1
  3
COLORDICT
350
205
  3
MATERIALDICT
350
204
  0
DICTIONARY
  5
1EF
102
{ACAD_REACTORS
330
199
102
}
330
199
100
AcDbDictionary
281
     1
  3
DIMASSOC
350
1F0
  3
PROJECTNAME
350
1F1
  0
XRECORD
  5
202
102
{ACAD_REACTORS
330
199
102
}
330
199
100
AcDbXrecord
280
     1
  1
DWGPROPS COOKIE
  2

  3

  4

  6

  7

  8

  9

300
=
301
=
302
=
303
=
304
=
305
=
306
=
307
=
308
=
309
=
 40
0.5754409722222223
 41
2451815.565532581
 42
2453731.545830613
  1

 90
        0
  0
LAYOUT
  5
1B0
102
{ACAD_XDICTIONARY
360
208
102
}
102
{ACAD_REACTORS
330
1A6
102
}
330
1A6
100
AcDbPlotSettings
  1

  2
\\Uranus\BFACN02M
  4

  6

 40
0.0
 41
0.0
 42
0.0
 43
0.0
 44
0.0
 45
0.0
 46
0.0
 47
0.0
 48
0.0
 49
0.0
140
0.0
141
0.0
142
1.0
143
1.0
 70
  1712
 72
     0
 73
     0
 74
     0
  7
SSC.ctb
 75
     0
147
1.0
148
0.0
149
0.0
100
AcDbLayout
  1
Model
 70
     1
 71
     0
 10
0.0
 20
0.0
 11
12.0
 21
9.0
 12
0.0
 22
0.0
 32
0.0
 14
0.0
 24
0.0
 34
0.0
 15
0.0
 25
0.0
 35
0.0
146
0.0
 13
0.0
 23
0.0
 33
0.0
 16
1.0
 26
0.0
 36
0.0
 17
0.0
 27
1.0
 37
0.0
 76
     0
330
1AD
  0
LAYOUT
  5
1AC
102
{ACAD_XDICTIONARY
360
206
102
}
102
{ACAD_REACTORS
330
1A6
102
}
330
1A6
100
AcDbPlotSettings
  1

  2
\\Uranus\BFACN02M
  4

  6

 40
0.0
 41
0.0
 42
0.0
 43
0.0
 44
0.0
 45
0.0
 46
0.0
 47
0.0
 48
0.0
 49
0.0
140
0.0
141
0.0
142
1.0
143
1.0
 70
   688
 72
     0
 73
     0
 74
     5
  7
SSC.ctb
 75
    16
147
1.0
148
0.0
149
0.0
100
AcDbLayout
  1
レイアウト1
 70
     1
 71
     1
 10
0.0
 20
0.0
 11
12.0
 21
9.0
 12
0.0
 22
0.0
 32
0.0
 14
1.000000000000000E+20
 24
1.000000000000000E+20
 34
1.000000000000000E+20
 15
-1.000000000000000E+20
 25
-1.000000000000000E+20
 35
-1.000000000000000E+20
146
0.0
 13
0.0
 23
0.0
 33
0.0
 16
1.0
 26
0.0
 36
0.0
 17
0.0
 27
1.0
 37
0.0
 76
     0
330
1A9
  0
MLINESTYLE
  5
1A4
102
{ACAD_REACTORS
330
1A3
102
}
330
1A3
100
AcDbMlineStyle
  2
STANDARD
 70
     0
  3

 62
   256
 51
90.0
 52
90.0
 71
     2
 49
0.5
 62
   256
  6
BYLAYER
 49
-0.5
 62
   256
  6
BYLAYER
  0
ACDBPLACEHOLDER
  5
19C
102
{ACAD_REACTORS
330
19B
102
}
330
19B
  0
XRECORD
  5
205
102
{ACAD_REACTORS
330
203
102
}
330
203
100
AcDbXrecord
280
     1
340
1A8
  0
XRECORD
  5
204
102
{ACAD_REACTORS
330
203
102
}
330
203
100
AcDbXrecord
280
     1
340
1A7
  0
DICTIONARYVAR
  5
1F0
102
{ACAD_REACTORS
330
1EF
102
}
330
1EF
100
DictionaryVariables
280
     0
  1
1
  0
DICTIONARYVAR
  5
1F1
102
{ACAD_REACTORS
330
1EF
102
}
330
1EF
100
DictionaryVariables
280
     0
  1

  0
DICTIONARY
  5
208
330
1B0
100
AcDbDictionary
280
     1
281
     1
  3
ACAD_XREC_ROUNDTRIP
360
209
  0
DICTIONARY
  5
206
330
1AC
100
AcDbDictionary
280
     1
281
     1
  3
ACAD_XREC_ROUNDTRIP
360
207
  0
XRECORD
  5
209
102
{ACAD_REACTORS
330
208
102
}
330
208
100
AcDbXrecord
280
     1
102
SHADEPLOT
 70
     0
102
SHADEPLOTRESLEVEL
 70
     2
102
SHADEPLOTCUSTOMDPI
 70
   300
  0
XRECORD
  5
207
102
{ACAD_REACTORS
330
206
102
}
330
206
100
AcDbXrecord
280
     1
102
SHADEPLOT
 70
     0
102
SHADEPLOTRESLEVEL
 70
     2
102
SHADEPLOTCUSTOMDPI
 70
   300
  0
ENDSEC
  0
EOF
