  0
SECTION
  2
HEADER
  9
$ACADVER
  1
AC1015
  9
$ACADMAINTVER
 70
    20
  9
$DWGCODEPAGE
  3
ANSI_932
  9
$INSBASE
 10
0.4999999440410648
 20
372.5008351249344
 30
0.0
  9
$EXTMIN
 10
-63.36273102946893
 20
-53.84756406844542
 30
-0.0015258207003583
  9
$EXTMAX
 10
61.67083796308247
 20
59.1543735835636
 30
0.0000000349246037
  9
$LIMMIN
 10
0.0
 20
0.0
  9
$LIMMAX
 10
420.0
 20
297.0
  9
$ORTHOMODE
 70
     1
  9
$REGENMODE
 70
     0
  9
$FILLMODE
 70
     1
  9
$QTEXTMODE
 70
     0
  9
$MIRRTEXT
 70
     0
  9
$LTSCALE
 40
1.0
  9
$ATTMODE
 70
     1
  9
$TEXTSIZE
 40
2.5
  9
$TRACEWID
 40
1.0
  9
$TEXTSTYLE
  7
Standard
  9
$CLAYER
  8
SUNPO
  9
$CELTYPE
  6
ByLayer
  9
$CECOLOR
 62
   256
  9
$CELTSCALE
 40
1.0
  9
$DISPSILH
 70
     0
  9
$DIMSCALE
 40
1.0
  9
$DIMASZ
 40
2.0
  9
$DIMEXO
 40
2.0
  9
$DIMDLI
 40
8.0
  9
$DIMRND
 40
0.0
  9
$DIMDLE
 40
0.0
  9
$DIMEXE
 40
2.0
  9
$DIMTP
 40
0.0
  9
$DIMTM
 40
0.0
  9
$DIMTXT
 40
2.5
  9
$DIMCEN
 40
0.0
  9
$DIMTSZ
 40
0.0
  9
$DIMTOL
 70
     0
  9
$DIMLIM
 70
     0
  9
$DIMTIH
 70
     0
  9
$DIMTOH
 70
     0
  9
$DIMSE1
 70
     0
  9
$DIMSE2
 70
     0
  9
$DIMTAD
 70
     3
  9
$DIMZIN
 70
     0
  9
$DIMBLK
  1

  9
$DIMASO
 70
     1
  9
$DIMSHO
 70
     1
  9
$DIMPOST
  1

  9
$DIMAPOST
  1

  9
$DIMALT
 70
     0
  9
$DIMALTD
 70
     2
  9
$DIMALTF
 40
25.4
  9
$DIMLFAC
 40
1.0
  9
$DIMTOFL
 70
     1
  9
$DIMTVP
 40
0.0
  9
$DIMTIX
 70
     0
  9
$DIMSOXD
 70
     0
  9
$DIMSAH
 70
     1
  9
$DIMBLK1
  1
OPEN30
  9
$DIMBLK2
  1
OPEN30
  9
$DIMSTYLE
  2
STANDARD
  9
$DIMCLRD
 70
     0
  9
$DIMCLRE
 70
     0
  9
$DIMCLRT
 70
     0
  9
$DIMTFAC
 40
1.0
  9
$DIMGAP
 40
0.5
  9
$DIMJUST
 70
     0
  9
$DIMSD1
 70
     0
  9
$DIMSD2
 70
     0
  9
$DIMTOLJ
 70
     1
  9
$DIMTZIN
 70
     0
  9
$DIMALTZ
 70
     0
  9
$DIMALTTZ
 70
     0
  9
$DIMUPT
 70
     0
  9
$DIMDEC
 70
     4
  9
$DIMTDEC
 70
     4
  9
$DIMALTU
 70
     2
  9
$DIMALTTD
 70
     2
  9
$DIMTXSTY
  7
Standard
  9
$DIMAUNIT
 70
     0
  9
$DIMADEC
 70
     0
  9
$DIMALTRND
 40
0.0
  9
$DIMAZIN
 70
     0
  9
$DIMDSEP
 70
    46
  9
$DIMATFIT
 70
     3
  9
$DIMFRAC
 70
     0
  9
$DIMLDRBLK
  1
OPEN30
  9
$DIMLUNIT
 70
     2
  9
$DIMLWD
 70
    -2
  9
$DIMLWE
 70
    -2
  9
$DIMTMOVE
 70
     0
  9
$LUNITS
 70
     2
  9
$LUPREC
 70
     4
  9
$SKETCHINC
 40
1.0
  9
$FILLETRAD
 40
0.0
  9
$AUNITS
 70
     0
  9
$AUPREC
 70
     0
  9
$MENU
  1
.
  9
$ELEVATION
 40
0.0
  9
$PELEVATION
 40
0.0
  9
$THICKNESS
 40
0.0
  9
$LIMCHECK
 70
     0
  9
$CHAMFERA
 40
0.0
  9
$CHAMFERB
 40
0.0
  9
$CHAMFERC
 40
0.0
  9
$CHAMFERD
 40
0.0
  9
$SKPOLY
 70
     0
  9
$TDCREATE
 40
2454349.434269746
  9
$TDUCREATE
 40
2454349.059269746
  9
$TDUPDATE
 40
2454854.451891667
  9
$TDUUPDATE
 40
2454854.076891667
  9
$TDINDWG
 40
0.1373437037
  9
$TDUSRTIMER
 40
0.1373437037
  9
$USRTIMER
 70
     1
  9
$ANGBASE
 50
0.0
  9
$ANGDIR
 70
     0
  9
$PDMODE
 70
     0
  9
$PDSIZE
 40
0.0
  9
$PLINEWID
 40
0.0
  9
$SPLFRAME
 70
     0
  9
$SPLINETYPE
 70
     6
  9
$SPLINESEGS
 70
     8
  9
$HANDSEED
  5
1CA
  9
$SURFTAB1
 70
     6
  9
$SURFTAB2
 70
     6
  9
$SURFTYPE
 70
     6
  9
$SURFU
 70
     6
  9
$SURFV
 70
     6
  9
$UCSBASE
  2

  9
$UCSNAME
  2

  9
$UCSORG
 10
0.0
 20
0.0
 30
0.0
  9
$UCSXDIR
 10
1.0
 20
0.0
 30
0.0
  9
$UCSYDIR
 10
0.0
 20
1.0
 30
0.0
  9
$UCSORTHOREF
  2

  9
$UCSORTHOVIEW
 70
     0
  9
$UCSORGTOP
 10
0.0
 20
0.0
 30
0.0
  9
$UCSORGBOTTOM
 10
0.0
 20
0.0
 30
0.0
  9
$UCSORGLEFT
 10
0.0
 20
0.0
 30
0.0
  9
$UCSORGRIGHT
 10
0.0
 20
0.0
 30
0.0
  9
$UCSORGFRONT
 10
0.0
 20
0.0
 30
0.0
  9
$UCSORGBACK
 10
0.0
 20
0.0
 30
0.0
  9
$PUCSBASE
  2

  9
$PUCSNAME
  2

  9
$PUCSORG
 10
0.0
 20
0.0
 30
0.0
  9
$PUCSXDIR
 10
1.0
 20
0.0
 30
0.0
  9
$PUCSYDIR
 10
0.0
 20
1.0
 30
0.0
  9
$PUCSORTHOREF
  2

  9
$PUCSORTHOVIEW
 70
     0
  9
$PUCSORGTOP
 10
0.0
 20
0.0
 30
0.0
  9
$PUCSORGBOTTOM
 10
0.0
 20
0.0
 30
0.0
  9
$PUCSORGLEFT
 10
0.0
 20
0.0
 30
0.0
  9
$PUCSORGRIGHT
 10
0.0
 20
0.0
 30
0.0
  9
$PUCSORGFRONT
 10
0.0
 20
0.0
 30
0.0
  9
$PUCSORGBACK
 10
0.0
 20
0.0
 30
0.0
  9
$USERI1
 70
     0
  9
$USERI2
 70
     0
  9
$USERI3
 70
     0
  9
$USERI4
 70
     0
  9
$USERI5
 70
     0
  9
$USERR1
 40
0.0
  9
$USERR2
 40
0.0
  9
$USERR3
 40
0.0
  9
$USERR4
 40
0.0
  9
$USERR5
 40
0.0
  9
$WORLDVIEW
 70
     1
  9
$SHADEDGE
 70
     3
  9
$SHADEDIF
 70
    70
  9
$TILEMODE
 70
     1
  9
$MAXACTVP
 70
    64
  9
$PINSBASE
 10
0.0
 20
0.0
 30
0.0
  9
$PLIMCHECK
 70
     0
  9
$PEXTMIN
 10
0.0
 20
0.0
 30
0.0
  9
$PEXTMAX
 10
0.0
 20
0.0
 30
0.0
  9
$PLIMMIN
 10
0.0
 20
0.0
  9
$PLIMMAX
 10
12.0
 20
9.0
  9
$UNITMODE
 70
     0
  9
$VISRETAIN
 70
     1
  9
$PLINEGEN
 70
     0
  9
$PSLTSCALE
 70
     1
  9
$TREEDEPTH
 70
  3020
  9
$CMLSTYLE
  2
Standard
  9
$CMLJUST
 70
     0
  9
$CMLSCALE
 40
20.0
  9
$PROXYGRAPHICS
 70
     1
  9
$MEASUREMENT
 70
     1
  9
$CELWEIGHT
370
    -1
  9
$ENDCAPS
280
     0
  9
$JOINSTYLE
280
     0
  9
$LWDISPLAY
290
     0
  9
$INSUNITS
 70
     4
  9
$HYPERLINKBASE
  1

  9
$STYLESHEET
  1

  9
$XEDIT
290
     1
  9
$CEPSNTYPE
380
     0
  9
$PSTYLEMODE
290
     1
  9
$FINGERPRINTGUID
  2
{FDEAD578-A652-11D2-9A35-0060089B3A3F}
  9
$VERSIONGUID
  2
{63B21931-4A7D-4835-A89B-5E721B00B920}
  9
$EXTNAMES
290
     1
  9
$PSVPSCALE
 40
0.0
  9
$OLESTARTUP
290
     0
  0
ENDSEC
  0
SECTION
  2
CLASSES
  0
CLASS
  1
ACDBDICTIONARYWDFLT
  2
AcDbDictionaryWithDefault
  3
ObjectDBX Classes
 90
        0
280
     0
281
     0
  0
CLASS
  1
ACDBPLACEHOLDER
  2
AcDbPlaceHolder
  3
ObjectDBX Classes
 90
        0
280
     0
281
     0
  0
CLASS
  1
LAYOUT
  2
AcDbLayout
  3
ObjectDBX Classes
 90
        0
280
     0
281
     0
  0
CLASS
  1
DICTIONARYVAR
  2
AcDbDictionaryVar
  3
ObjectDBX Classes
 90
        0
280
     0
281
     0
  0
CLASS
  1
SORTENTSTABLE
  2
AcDbSortentsTable
  3
ObjectDBX Classes
 90
    32768
280
     0
281
     0
  0
ENDSEC
  0
SECTION
  2
TABLES
  0
TABLE
  2
VPORT
  5
1B
330
0
100
AcDbSymbolTable
 70
     3
  0
VPORT
  5
1C2
330
1B
100
AcDbSymbolTableRecord
100
AcDbViewportTableRecord
  2
*Active
 70
     0
 10
0.0
 20
0.0
 11
1.0
 21
1.0
 12
-0.8459465331932314
 22
2.653404757559087
 13
0.0
 23
0.0
 14
10.0
 24
10.0
 15
10.0
 25
10.0
 16
0.0
 26
0.0
 36
1.0
 17
0.0
 27
0.0
 37
0.0
 40
113.8700703356352
 41
1.426923076923077
 42
50.0
 43
0.0
 44
0.0
 50
0.0
 51
0.0
 71
     0
 72
  1000
 73
     1
 74
     2
 75
     0
 76
     0
 77
     0
 78
     0
281
     0
 65
     1
110
0.0
120
0.0
130
0.0
111
1.0
121
0.0
131
0.0
112
0.0
122
1.0
132
0.0
 79
     0
146
0.0
  0
ENDTAB
  0
TABLE
  2
LTYPE
  5
16
330
0
100
AcDbSymbolTable
 70
     1
  0
LTYPE
  5
17
330
16
100
AcDbSymbolTableRecord
100
AcDbLinetypeTableRecord
  2
ByBlock
 70
     0
  3

 72
    65
 73
     0
 40
0.0
  0
LTYPE
  5
18
330
16
100
AcDbSymbolTableRecord
100
AcDbLinetypeTableRecord
  2
ByLayer
 70
     0
  3

 72
    65
 73
     0
 40
0.0
  0
LTYPE
  5
8
330
16
100
AcDbSymbolTableRecord
100
AcDbLinetypeTableRecord
  2
Continuous
 70
     0
  3
Solid line
 72
    65
 73
     0
 40
0.0
  0
ENDTAB
  0
TABLE
  2
LAYER
  5
10
102
{ACAD_XDICTIONARY
360
11
102
}
330
0
100
AcDbSymbolTable
 70
     7
  0
LAYER
  5
4
330
10
100
AcDbSymbolTableRecord
100
AcDbLayerTableRecord
  2
0
 70
     0
 62
     7
  6
Continuous
370
    -3
390
5
  0
LAYER
  5
37
330
10
100
AcDbSymbolTableRecord
100
AcDbLayerTableRecord
  2
WAKU
 70
     0
 62
     4
  6
Continuous
370
    -3
390
5
  0
LAYER
  5
30
330
10
100
AcDbSymbolTableRecord
100
AcDbLayerTableRecord
  2
MOJI1
 70
     0
 62
     2
  6
Continuous
370
    -3
390
5
  0
LAYER
  5
32
330
10
100
AcDbSymbolTableRecord
100
AcDbLayerTableRecord
  2
TOUROKU
 70
     0
 62
     1
  6
Continuous
370
    -3
390
5
  0
LAYER
  5
4C
330
10
100
AcDbSymbolTableRecord
100
AcDbLayerTableRecord
  2
GAIKEI
 70
     0
 62
     7
  6
Continuous
370
    -3
390
5
  0
LAYER
  5
14D
330
10
100
AcDbSymbolTableRecord
100
AcDbLayerTableRecord
  2
Defpoints
 70
     0
 62
     7
  6
Continuous
290
     0
370
    -3
390
5
  0
LAYER
  5
2D
330
10
100
AcDbSymbolTableRecord
100
AcDbLayerTableRecord
  2
SUNPO
 70
     0
 62
     3
  6
Continuous
370
    -3
390
5
  0
ENDTAB
  0
TABLE
  2
STYLE
  5
13
330
0
100
AcDbSymbolTable
 70
     1
  0
STYLE
  5
14
330
13
100
AcDbSymbolTableRecord
100
AcDbTextStyleTableRecord
  2
Standard
 70
     0
 40
0.0
 41
1.0
 50
0.0
 71
     0
 42
2.5
  3
MONOTXT.shx
  4
BIGFONT.shx
  0
ENDTAB
  0
TABLE
  2
VIEW
  5
19
330
0
100
AcDbSymbolTable
 70
     0
  0
ENDTAB
  0
TABLE
  2
UCS
  5
1A
330
0
100
AcDbSymbolTable
 70
     0
  0
ENDTAB
  0
TABLE
  2
APPID
  5
1D
330
0
100
AcDbSymbolTable
 70
     1
  0
APPID
  5
1E
330
1D
100
AcDbSymbolTableRecord
100
AcDbRegAppTableRecord
  2
ACAD
 70
     0
  0
ENDTAB
  0
TABLE
  2
DIMSTYLE
  5
1F
330
0
100
AcDbSymbolTable
 70
     1
100
AcDbDimStyleTable
 71
     1
340
20
  0
DIMSTYLE
105
20
102
{ACAD_REACTORS
330
16B
330
15E
330
151
330
143
102
}
330
1F
100
AcDbSymbolTableRecord
100
AcDbDimStyleTableRecord
  2
STANDARD
 70
     0
 40
0.0
 41
2.0
 42
2.0
 43
8.0
 44
2.0
 73
     0
 74
     0
 77
     3
140
3.0
141
0.0
173
     1
279
     2
288
     1
340
14
341
21
343
21
344
21
  0
ENDTAB
  0
TABLE
  2
BLOCK_RECORD
  5
1
330
0
100
AcDbSymbolTable
 70
     9
  0
BLOCK_RECORD
  5
2
330
1
100
AcDbSymbolTableRecord
100
AcDbBlockTableRecord
  2
*Model_Space
340
A
  0
BLOCK_RECORD
  5
C
330
1
100
AcDbSymbolTableRecord
100
AcDbBlockTableRecord
  2
*Paper_Space
340
F
  0
BLOCK_RECORD
  5
21
330
1
100
AcDbSymbolTableRecord
100
AcDbBlockTableRecord
  2
_OPEN30
340
0
102
{BLKREFS
331
149
331
14A
331
157
331
158
331
164
331
165
331
171
331
172
331
192
331
193
331
19E
331
19F
331
1AA
331
1AB
331
1B6
331
1B7
102
}
  0
BLOCK_RECORD
  5
16C
330
1
100
AcDbSymbolTableRecord
100
AcDbBlockTableRecord
  2
*D1
340
0
  0
BLOCK_RECORD
  5
15F
330
1
100
AcDbSymbolTableRecord
100
AcDbBlockTableRecord
  2
*D2
340
0
  0
BLOCK_RECORD
  5
152
330
1
100
AcDbSymbolTableRecord
100
AcDbBlockTableRecord
  2
*D3
340
0
  0
BLOCK_RECORD
  5
144
330
1
100
AcDbSymbolTableRecord
100
AcDbBlockTableRecord
  2
*D4
340
0
  0
BLOCK_RECORD
  5
18E
330
1
100
AcDbSymbolTableRecord
100
AcDbBlockTableRecord
  2
*D5
340
0
  0
BLOCK_RECORD
  5
19A
330
1
100
AcDbSymbolTableRecord
100
AcDbBlockTableRecord
  2
*D6
340
0
  0
BLOCK_RECORD
  5
1A6
330
1
100
AcDbSymbolTableRecord
100
AcDbBlockTableRecord
  2
*D7
340
0
  0
BLOCK_RECORD
  5
1B2
330
1
100
AcDbSymbolTableRecord
100
AcDbBlockTableRecord
  2
*D8
340
0
  0
ENDTAB
  0
ENDSEC
  0
SECTION
  2
BLOCKS
  0
BLOCK
  5
3
330
2
100
AcDbEntity
  8
0
100
AcDbBlockBegin
  2
*Model_Space
 70
     0
 10
0.0
 20
0.0
 30
0.0
  3
*Model_Space
  1

  0
ENDBLK
  5
9
330
2
100
AcDbEntity
  8
0
100
AcDbBlockEnd
  0
BLOCK
  5
D
330
C
100
AcDbEntity
 67
     1
  8
0
100
AcDbBlockBegin
  2
*Paper_Space
 70
     0
 10
0.0
 20
0.0
 30
0.0
  3
*Paper_Space
  1

  0
ENDBLK
  5
E
330
C
100
AcDbEntity
 67
     1
  8
0
100
AcDbBlockEnd
  0
BLOCK
  5
22
330
21
100
AcDbEntity
  8
0
100
AcDbBlockBegin
  2
_OPEN30
 70
     0
 10
0.0
 20
0.0
 30
0.0
  3
_OPEN30
  1

  0
LINE
  5
23
330
21
100
AcDbEntity
  8
0
  6
ByBlock
 62
     0
100
AcDbLine
 10
-1.0
 20
0.26794919
 30
0.0
 11
0.0
 21
0.0
 31
0.0
  0
LINE
  5
24
330
21
100
AcDbEntity
  8
0
  6
ByBlock
 62
     0
100
AcDbLine
 10
0.0
 20
0.0
 30
0.0
 11
-1.0
 21
-0.26794919
 31
0.0
  0
LINE
  5
25
330
21
100
AcDbEntity
  8
0
  6
ByBlock
 62
     0
100
AcDbLine
 10
0.0
 20
0.0
 30
0.0
 11
-1.0
 21
0.0
 31
0.0
  0
ENDBLK
  5
26
330
21
100
AcDbEntity
  8
0
100
AcDbBlockEnd
  0
BLOCK
  5
16D
330
16C
100
AcDbEntity
  8
0
100
AcDbBlockBegin
  2
*D1
 70
     1
 10
0.0
 20
0.0
 30
0.0
  3
*D1
  1

  0
LINE
  5
16E
330
16C
100
AcDbEntity
  8
SUNPO
 62
     0
370
    -2
100
AcDbLine
 10
55.49536324811794
 20
336.0841419491174
 30
0.0
 11
63.49536324811793
 21
336.0841419491174
 31
0.0
  0
LINE
  5
16F
330
16C
100
AcDbEntity
  8
SUNPO
 62
     0
370
    -2
100
AcDbLine
 10
55.49536324811794
 20
342.5841461175366
 30
0.0
 11
63.49536324811793
 21
342.5841461175366
 31
0.0
  0
LINE
  5
170
330
16C
100
AcDbEntity
  8
SUNPO
 62
     0
370
    -2
100
AcDbLine
 10
61.49536324811794
 20
338.0841419491174
 30
0.0
 11
61.49536324811794
 21
340.5841461175366
 31
0.0
  0
INSERT
  5
171
330
16C
100
AcDbEntity
  8
SUNPO
 62
     0
370
    -2
100
AcDbBlockReference
  2
_OPEN30
 10
61.49536324811794
 20
336.0841419491174
 30
0.0
 41
2.0
 42
2.0
 43
2.0
 50
270.0
  0
INSERT
  5
172
330
16C
100
AcDbEntity
  8
SUNPO
 62
     0
370
    -2
100
AcDbBlockReference
  2
_OPEN30
 10
61.49536324811794
 20
342.5841461175366
 30
0.0
 41
2.0
 42
2.0
 43
2.0
 50
90.0
  0
MTEXT
  5
173
330
16C
100
AcDbEntity
  8
SUNPO
 62
     0
100
AcDbMText
 10
59.74536324811788
 20
339.334144033327
 30
0.0
 40
2.5
 41
0.0
 71
     5
 72
     1
  1
\A1;65
 11
0.0000000000000001
 21
1.0
 31
0.0
 73
     1
 44
1.0
1001
ACAD
1000
MTEXTBEGIN
1070
    73
1070
     1
1070
    44
1040
1.0
1070
    74
1070
     0
1000
MTEXTEND
  0
POINT
  5
174
330
16C
100
AcDbEntity
  8
Defpoints
 62
     0
100
AcDbPoint
 10
53.49536324811793
 20
336.0841419491174
 30
0.0
  0
POINT
  5
175
330
16C
100
AcDbEntity
  8
Defpoints
 62
     0
100
AcDbPoint
 10
53.49536324811793
 20
342.5841461175366
 30
0.0
  0
POINT
  5
176
330
16C
100
AcDbEntity
  8
Defpoints
 62
     0
100
AcDbPoint
 10
61.49536324811794
 20
342.5841461175366
 30
0.0
  0
ENDBLK
  5
177
330
16C
100
AcDbEntity
  8
0
100
AcDbBlockEnd
  0
BLOCK
  5
160
330
15F
100
AcDbEntity
  8
0
100
AcDbBlockBegin
  2
*D2
 70
     1
 10
0.0
 20
0.0
 30
0.0
  3
*D2
  1

  0
LINE
  5
161
330
15F
100
AcDbEntity
  8
SUNPO
 62
     0
370
    -2
100
AcDbLine
 10
55.49536324811794
 20
311.6841370413654
 30
0.0
 11
63.49536324811793
 21
311.6841370413654
 31
0.0
  0
LINE
  5
162
330
15F
100
AcDbEntity
  8
SUNPO
 62
     0
370
    -2
100
AcDbLine
 10
55.49536324811794
 20
336.0841419491174
 30
0.0
 11
63.49536324811793
 21
336.0841419491174
 31
0.0
  0
LINE
  5
163
330
15F
100
AcDbEntity
  8
SUNPO
 62
     0
370
    -2
100
AcDbLine
 10
61.49536324811793
 20
313.6841370413654
 30
0.0
 11
61.49536324811793
 21
334.0841419491174
 31
0.0
  0
INSERT
  5
164
330
15F
100
AcDbEntity
  8
SUNPO
 62
     0
370
    -2
100
AcDbBlockReference
  2
_OPEN30
 10
61.49536324811793
 20
311.6841370413654
 30
0.0
 41
2.0
 42
2.0
 43
2.0
 50
270.0
  0
INSERT
  5
165
330
15F
100
AcDbEntity
  8
SUNPO
 62
     0
370
    -2
100
AcDbBlockReference
  2
_OPEN30
 10
61.49536324811794
 20
336.0841419491174
 30
0.0
 41
2.0
 42
2.0
 43
2.0
 50
90.0
  0
MTEXT
  5
166
330
15F
100
AcDbEntity
  8
SUNPO
 62
     0
100
AcDbMText
 10
59.74536324811788
 20
323.8841394952414
 30
0.0
 40
2.5
 41
0.0
 71
     5
 72
     1
  1
\A1;244
 11
0.0000000000000001
 21
1.0
 31
0.0
 73
     1
 44
1.0
1001
ACAD
1000
MTEXTBEGIN
1070
    73
1070
     1
1070
    44
1040
1.0
1070
    74
1070
     0
1000
MTEXTEND
  0
POINT
  5
167
330
15F
100
AcDbEntity
  8
Defpoints
 62
     0
100
AcDbPoint
 10
53.49536324811793
 20
311.6841370413654
 30
0.0
  0
POINT
  5
168
330
15F
100
AcDbEntity
  8
Defpoints
 62
     0
100
AcDbPoint
 10
53.49536324811793
 20
336.0841419491174
 30
0.0
  0
POINT
  5
169
330
15F
100
AcDbEntity
  8
Defpoints
 62
     0
100
AcDbPoint
 10
61.49536324811794
 20
336.0841419491174
 30
0.0
  0
ENDBLK
  5
16A
330
15F
100
AcDbEntity
  8
0
100
AcDbBlockEnd
  0
BLOCK
  5
153
330
152
100
AcDbEntity
  8
0
100
AcDbBlockBegin
  2
*D3
 70
     1
 10
0.0
 20
0.0
 30
0.0
  3
*D3
  1

  0
LINE
  5
154
330
152
100
AcDbEntity
  8
SUNPO
 62
     0
370
    -2
100
AcDbLine
 10
34.79535860034486
 20
338.0841419491174
 30
0.0
 11
34.79535860034486
 21
348.9516260835701
 31
0.0
  0
LINE
  5
155
330
152
100
AcDbEntity
  8
SUNPO
 62
     0
370
    -2
100
AcDbLine
 10
53.49536324811793
 20
338.0841419491174
 30
0.0
 11
53.49536324811793
 21
348.9516260835701
 31
0.0
  0
LINE
  5
156
330
152
100
AcDbEntity
  8
SUNPO
 62
     0
370
    -2
100
AcDbLine
 10
36.79535860034486
 20
346.9516260835701
 30
0.0
 11
51.49536324811794
 21
346.9516260835701
 31
0.0
  0
INSERT
  5
157
330
152
100
AcDbEntity
  8
SUNPO
 62
     0
370
    -2
100
AcDbBlockReference
  2
_OPEN30
 10
34.79535860034486
 20
346.9516260835701
 30
0.0
 41
2.0
 42
2.0
 43
2.0
 50
180.0
  0
INSERT
  5
158
330
152
100
AcDbEntity
  8
SUNPO
 62
     0
370
    -2
100
AcDbBlockReference
  2
_OPEN30
 10
53.49536324811793
 20
346.9516260835701
 30
0.0
 41
2.0
 42
2.0
 43
2.0
  0
MTEXT
  5
159
330
152
100
AcDbEntity
  8
SUNPO
 62
     0
100
AcDbMText
 10
44.1453609242314
 20
348.7016260835702
 30
0.0
 40
2.5
 41
0.0
 71
     5
 72
     1
  1
\A1;187
 73
     1
 44
1.0
1001
ACAD
1000
MTEXTBEGIN
1070
    73
1070
     1
1070
    44
1040
1.0
1070
    74
1070
     0
1000
MTEXTEND
  0
POINT
  5
15A
330
152
100
AcDbEntity
  8
Defpoints
 62
     0
100
AcDbPoint
 10
34.79535860034486
 20
336.0841419491173
 30
0.0
  0
POINT
  5
15B
330
152
100
AcDbEntity
  8
Defpoints
 62
     0
100
AcDbPoint
 10
53.49536324811793
 20
336.0841419491174
 30
0.0
  0
POINT
  5
15C
330
152
100
AcDbEntity
  8
Defpoints
 62
     0
100
AcDbPoint
 10
53.49536324811793
 20
346.9516260835701
 30
0.0
  0
ENDBLK
  5
15D
330
152
100
AcDbEntity
  8
0
100
AcDbBlockEnd
  0
BLOCK
  5
145
330
144
100
AcDbEntity
  8
0
100
AcDbBlockBegin
  2
*D4
 70
     1
 10
0.0
 20
0.0
 30
0.0
  3
*D4
  1

  0
LINE
  5
146
330
144
100
AcDbEntity
  8
SUNPO
 62
     0
370
    -2
100
AcDbLine
 10
78.44810155156835
 20
337.2039472478501
 30
0.0
 11
78.44810155156835
 21
348.9555771888945
 31
0.0
  0
LINE
  5
147
330
144
100
AcDbEntity
  8
SUNPO
 62
     0
370
    -2
100
AcDbLine
 10
99.34810410396835
 20
337.2039472478501
 30
0.0
 11
99.34810410396835
 21
348.9555771888945
 31
0.0
  0
LINE
  5
148
330
144
100
AcDbEntity
  8
SUNPO
 62
     0
370
    -2
100
AcDbLine
 10
80.44810155156836
 20
346.9555771888945
 30
0.0
 11
97.34810410396836
 21
346.9555771888945
 31
0.0
  0
INSERT
  5
149
330
144
100
AcDbEntity
  8
SUNPO
 62
     0
370
    -2
100
AcDbBlockReference
  2
_OPEN30
 10
78.44810155156835
 20
346.9555771888945
 30
0.0
 41
2.0
 42
2.0
 43
2.0
 50
180.0
  0
INSERT
  5
14A
330
144
100
AcDbEntity
  8
SUNPO
 62
     0
370
    -2
100
AcDbBlockReference
  2
_OPEN30
 10
99.34810410396835
 20
346.9555771888945
 30
0.0
 41
2.0
 42
2.0
 43
2.0
  0
MTEXT
  5
14B
330
144
100
AcDbEntity
  8
SUNPO
 62
     0
100
AcDbMText
 10
88.89810282776835
 20
348.7055771888945
 30
0.0
 40
2.5
 41
0.0
 71
     5
 72
     1
  1
\A1;209
 73
     1
 44
1.0
1001
ACAD
1000
MTEXTBEGIN
1070
    73
1070
     1
1070
    44
1040
1.0
1070
    74
1070
     0
1000
MTEXTEND
  0
POINT
  5
14C
330
144
100
AcDbEntity
  8
Defpoints
 62
     0
100
AcDbPoint
 10
78.44810155156835
 20
335.2039472478501
 30
0.0
  0
POINT
  5
14E
330
144
100
AcDbEntity
  8
Defpoints
 62
     0
100
AcDbPoint
 10
99.34810410396835
 20
335.2039472478501
 30
0.0
  0
POINT
  5
14F
330
144
100
AcDbEntity
  8
Defpoints
 62
     0
100
AcDbPoint
 10
99.34810410396835
 20
346.9555771888945
 30
0.0
  0
ENDBLK
  5
150
330
144
100
AcDbEntity
  8
0
100
AcDbBlockEnd
  0
BLOCK
  5
198
330
18E
100
AcDbEntity
  8
0
100
AcDbBlockBegin
  2
*D5
 70
     1
 10
0.0
 20
0.0
 30
0.0
  3
*D5
  1

  0
LINE
  5
18F
330
18E
100
AcDbEntity
  8
SUNPO
 62
     0
370
    -2
100
AcDbLine
 10
-10.3361345588375
 20
24.73592635740118
 30
0.0
 11
-2.336134558837501
 21
24.73592635740118
 31
0.0
  0
LINE
  5
190
330
18E
100
AcDbEntity
  8
SUNPO
 62
     0
370
    -2
100
AcDbLine
 10
-10.3361345588375
 20
31.23593052582033
 30
0.0
 11
-2.3361345588375
 21
31.23593052582032
 31
0.0
  0
LINE
  5
191
330
18E
100
AcDbEntity
  8
SUNPO
 62
     0
370
    -2
100
AcDbLine
 10
-4.336134558837501
 20
26.73592635740118
 30
0.0
 11
-4.336134558837501
 21
29.23593052582032
 31
0.0
  0
INSERT
  5
192
330
18E
100
AcDbEntity
  8
SUNPO
 62
     0
370
    -2
100
AcDbBlockReference
  2
_OPEN30
 10
-4.336134558837501
 20
24.73592635740118
 30
0.0
 41
2.0
 42
2.0
 43
2.0
 50
270.0
  0
INSERT
  5
193
330
18E
100
AcDbEntity
  8
SUNPO
 62
     0
370
    -2
100
AcDbBlockReference
  2
_OPEN30
 10
-4.3361345588375
 20
31.23593052582032
 30
0.0
 41
2.0
 42
2.0
 43
2.0
 50
90.0
  0
MTEXT
  5
194
330
18E
100
AcDbEntity
  8
SUNPO
 62
     0
100
AcDbMText
 10
-6.086134558837505
 20
27.98592844161075
 30
0.0
 40
2.5
 41
0.0
 71
     5
 72
     1
  1
\A1;65
 11
0.0000000000000001
 21
1.0
 31
0.0
 73
     1
 44
1.0
1001
ACAD
1000
MTEXTBEGIN
1070
    73
1070
     1
1070
    44
1040
1.0
1070
    74
1070
     0
1000
MTEXTEND
  0
POINT
  5
195
330
18E
100
AcDbEntity
  8
Defpoints
 62
     0
100
AcDbPoint
 10
-12.3361345588375
 20
24.73592635740118
 30
0.0
  0
POINT
  5
196
330
18E
100
AcDbEntity
  8
Defpoints
 62
     0
100
AcDbPoint
 10
-12.3361345588375
 20
31.23593052582033
 30
0.0
  0
POINT
  5
197
330
18E
100
AcDbEntity
  8
Defpoints
 62
     0
100
AcDbPoint
 10
-4.3361345588375
 20
31.23593052582032
 30
0.0
  0
ENDBLK
  5
199
330
18E
100
AcDbEntity
  8
0
100
AcDbBlockEnd
  0
BLOCK
  5
1A4
330
19A
100
AcDbEntity
  8
0
100
AcDbBlockBegin
  2
*D6
 70
     1
 10
0.0
 20
0.0
 30
0.0
  3
*D6
  1

  0
LINE
  5
19B
330
19A
100
AcDbEntity
  8
SUNPO
 62
     0
370
    -2
100
AcDbLine
 10
-10.3361345588375
 20
0.3359214496491626
 30
0.0
 11
-2.336134558837505
 21
0.3359214496491603
 31
0.0
  0
LINE
  5
19C
330
19A
100
AcDbEntity
  8
SUNPO
 62
     0
370
    -2
100
AcDbLine
 10
-10.3361345588375
 20
24.73592635740118
 30
0.0
 11
-2.3361345588375
 21
24.73592635740118
 31
0.0
  0
LINE
  5
19D
330
19A
100
AcDbEntity
  8
SUNPO
 62
     0
370
    -2
100
AcDbLine
 10
-4.336134558837504
 20
2.33592144964916
 30
0.0
 11
-4.3361345588375
 21
22.73592635740118
 31
0.0
  0
INSERT
  5
19E
330
19A
100
AcDbEntity
  8
SUNPO
 62
     0
370
    -2
100
AcDbBlockReference
  2
_OPEN30
 10
-4.336134558837505
 20
0.3359214496491609
 30
0.0
 41
2.0
 42
2.0
 43
2.0
 50
270.0
  0
INSERT
  5
19F
330
19A
100
AcDbEntity
  8
SUNPO
 62
     0
370
    -2
100
AcDbBlockReference
  2
_OPEN30
 10
-4.3361345588375
 20
24.73592635740118
 30
0.0
 41
2.0
 42
2.0
 43
2.0
 50
90.0
  0
MTEXT
  5
1A0
330
19A
100
AcDbEntity
  8
SUNPO
 62
     0
100
AcDbMText
 10
-6.086134558837504
 20
12.53592390352517
 30
0.0
 40
2.5
 41
0.0
 71
     5
 72
     1
  1
\A1;244
 11
0.0000000000000001
 21
1.0
 31
0.0
 73
     1
 44
1.0
1001
ACAD
1000
MTEXTBEGIN
1070
    73
1070
     1
1070
    44
1040
1.0
1070
    74
1070
     0
1000
MTEXTEND
  0
POINT
  5
1A1
330
19A
100
AcDbEntity
  8
Defpoints
 62
     0
100
AcDbPoint
 10
-12.3361345588375
 20
0.3359214496491631
 30
0.0
  0
POINT
  5
1A2
330
19A
100
AcDbEntity
  8
Defpoints
 62
     0
100
AcDbPoint
 10
-12.3361345588375
 20
24.73592635740118
 30
0.0
  0
POINT
  5
1A3
330
19A
100
AcDbEntity
  8
Defpoints
 62
     0
100
AcDbPoint
 10
-4.3361345588375
 20
24.73592635740118
 30
0.0
  0
ENDBLK
  5
1A5
330
19A
100
AcDbEntity
  8
0
100
AcDbBlockEnd
  0
BLOCK
  5
1B0
330
1A6
100
AcDbEntity
  8
0
100
AcDbBlockBegin
  2
*D7
 70
     1
 10
0.0
 20
0.0
 30
0.0
  3
*D7
  1

  0
LINE
  5
1A7
330
1A6
100
AcDbEntity
  8
SUNPO
 62
     0
370
    -2
100
AcDbLine
 10
-31.03613920661059
 20
26.73592635740113
 30
0.0
 11
-31.03613920661059
 21
37.60341049185394
 31
0.0
  0
LINE
  5
1A8
330
1A6
100
AcDbEntity
  8
SUNPO
 62
     0
370
    -2
100
AcDbLine
 10
-12.3361345588375
 20
26.73592635740118
 30
0.0
 11
-12.3361345588375
 21
37.60341049185394
 31
0.0
  0
LINE
  5
1A9
330
1A6
100
AcDbEntity
  8
SUNPO
 62
     0
370
    -2
100
AcDbLine
 10
-29.03613920661058
 20
35.60341049185394
 30
0.0
 11
-14.3361345588375
 21
35.60341049185394
 31
0.0
  0
INSERT
  5
1AA
330
1A6
100
AcDbEntity
  8
SUNPO
 62
     0
370
    -2
100
AcDbBlockReference
  2
_OPEN30
 10
-31.03613920661059
 20
35.60341049185394
 30
0.0
 41
2.0
 42
2.0
 43
2.0
 50
180.0
  0
INSERT
  5
1AB
330
1A6
100
AcDbEntity
  8
SUNPO
 62
     0
370
    -2
100
AcDbBlockReference
  2
_OPEN30
 10
-12.3361345588375
 20
35.60341049185394
 30
0.0
 41
2.0
 42
2.0
 43
2.0
  0
MTEXT
  5
1AC
330
1A6
100
AcDbEntity
  8
SUNPO
 62
     0
100
AcDbMText
 10
-21.68613688272404
 20
37.35341049185394
 30
0.0
 40
2.5
 41
0.0
 71
     5
 72
     1
  1
\A1;187
 73
     1
 44
1.0
1001
ACAD
1000
MTEXTBEGIN
1070
    73
1070
     1
1070
    44
1040
1.0
1070
    74
1070
     0
1000
MTEXTEND
  0
POINT
  5
1AD
330
1A6
100
AcDbEntity
  8
Defpoints
 62
     0
100
AcDbPoint
 10
-31.03613920661059
 20
24.73592635740113
 30
0.0
  0
POINT
  5
1AE
330
1A6
100
AcDbEntity
  8
Defpoints
 62
     0
100
AcDbPoint
 10
-12.3361345588375
 20
24.73592635740118
 30
0.0
  0
POINT
  5
1AF
330
1A6
100
AcDbEntity
  8
Defpoints
 62
     0
100
AcDbPoint
 10
-12.3361345588375
 20
35.60341049185394
 30
0.0
  0
ENDBLK
  5
1B1
330
1A6
100
AcDbEntity
  8
0
100
AcDbBlockEnd
  0
BLOCK
  5
1BC
330
1B2
100
AcDbEntity
  8
0
100
AcDbBlockBegin
  2
*D8
 70
     1
 10
0.0
 20
0.0
 30
0.0
  3
*D8
  1

  0
LINE
  5
1B3
330
1B2
100
AcDbEntity
  8
SUNPO
 62
     0
370
    -2
100
AcDbLine
 10
12.61660374461291
 20
25.85573165613392
 30
0.0
 11
12.61660374461291
 21
37.60736159717834
 31
0.0
  0
LINE
  5
1B4
330
1B2
100
AcDbEntity
  8
SUNPO
 62
     0
370
    -2
100
AcDbLine
 10
33.51660629701291
 20
25.85573165613392
 30
0.0
 11
33.51660629701291
 21
37.60736159717834
 31
0.0
  0
LINE
  5
1B5
330
1B2
100
AcDbEntity
  8
SUNPO
 62
     0
370
    -2
100
AcDbLine
 10
14.61660374461291
 20
35.60736159717834
 30
0.0
 11
31.51660629701292
 21
35.60736159717834
 31
0.0
  0
INSERT
  5
1B6
330
1B2
100
AcDbEntity
  8
SUNPO
 62
     0
370
    -2
100
AcDbBlockReference
  2
_OPEN30
 10
12.61660374461291
 20
35.60736159717834
 30
0.0
 41
2.0
 42
2.0
 43
2.0
 50
180.0
  0
INSERT
  5
1B7
330
1B2
100
AcDbEntity
  8
SUNPO
 62
     0
370
    -2
100
AcDbBlockReference
  2
_OPEN30
 10
33.51660629701291
 20
35.60736159717834
 30
0.0
 41
2.0
 42
2.0
 43
2.0
  0
MTEXT
  5
1B8
330
1B2
100
AcDbEntity
  8
SUNPO
 62
     0
100
AcDbMText
 10
23.06660502081292
 20
37.35736159717834
 30
0.0
 40
2.5
 41
0.0
 71
     5
 72
     1
  1
\A1;209
 73
     1
 44
1.0
1001
ACAD
1000
MTEXTBEGIN
1070
    73
1070
     1
1070
    44
1040
1.0
1070
    74
1070
     0
1000
MTEXTEND
  0
POINT
  5
1B9
330
1B2
100
AcDbEntity
  8
Defpoints
 62
     0
100
AcDbPoint
 10
12.61660374461291
 20
23.85573165613391
 30
0.0
  0
POINT
  5
1BA
330
1B2
100
AcDbEntity
  8
Defpoints
 62
     0
100
AcDbPoint
 10
33.51660629701291
 20
23.85573165613391
 30
0.0
  0
POINT
  5
1BB
330
1B2
100
AcDbEntity
  8
Defpoints
 62
     0
100
AcDbPoint
 10
33.51660629701291
 20
35.60736159717834
 30
0.0
  0
ENDBLK
  5
1BD
330
1B2
100
AcDbEntity
  8
0
100
AcDbBlockEnd
  0
ENDSEC
  0
SECTION
  2
ENTITIES
  0
TEXT
  5
2F
330
2
100
AcDbEntity
  8
MOJI1
100
AcDbText
 10
-36.33149786291381
 20
55.15261953321783
 30
0.0
 40
4.0
  1
赤外線ワイヤレスパワードスピーカー
100
AcDbText
  0
TEXT
  5
31
330
2
100
AcDbEntity
  8
TOUROKU
100
AcDbText
 10
45.80178550334621
 20
49.15261953321845
 30
0.0
 40
2.0
  1
ＷＸＬＰ１００
 72
     2
 11
61.66845217001287
 21
49.15261953321845
 31
0.0
100
AcDbText
  0
TEXT
  5
33
330
2
100
AcDbEntity
  8
MOJI1
100
AcDbText
 10
-20.83149786291398
 20
-37.8473804667816
 30
0.0
 40
3.0
  1
９３ｄＢＳＰＬ、１ｍ／１Ｗ
100
AcDbText
  0
TEXT
  5
34
330
2
100
AcDbEntity
  8
MOJI1
100
AcDbText
 10
-60.83149786291404
 20
-37.8473804667816
 30
0.0
 40
3.0
  1
再生音圧
100
AcDbText
  0
TEXT
  5
35
330
2
100
AcDbEntity
  8
MOJI1
100
AcDbText
 10
-20.83149786291358
 20
-22.84738046678132
 30
0.0
 40
3.0
  1
ＤＣ２４Ｖ（専用ＡＣアダプター付属）
 41
0.95
100
AcDbText
  0
LINE
  5
36
330
2
100
AcDbEntity
  8
WAKU
 62
     4
100
AcDbLine
 10
61.66850213708596
 20
-53.84738046678155
 30
0.0
 11
61.66850213708596
 21
-18.84738046678154
 31
0.0
  0
TEXT
  5
38
330
2
100
AcDbEntity
  8
MOJI1
100
AcDbText
 10
-60.83149786291404
 20
-22.84738046678155
 30
0.0
 40
3.0
  1
電　源
100
AcDbText
  0
LINE
  5
39
330
2
100
AcDbEntity
  8
WAKU
 62
     4
100
AcDbLine
 10
-63.33149786291404
 20
-18.84738046678154
 30
0.0
 11
-63.33149786291404
 21
-53.84738046678155
 31
0.0
  0
LINE
  5
3A
330
2
100
AcDbEntity
  8
WAKU
 62
     4
100
AcDbLine
 10
-23.12591663239562
 20
-53.84738046678132
 30
0.0
 11
-23.12591663239562
 21
-18.84738046678132
 31
0.0
  0
LINE
  5
3B
330
2
100
AcDbEntity
  8
WAKU
 62
     4
100
AcDbLine
 10
-63.33149786291404
 20
-53.84738046678155
 30
0.0
 11
61.66850213708596
 21
-53.84738046678155
 31
0.0
  0
LINE
  5
3C
330
2
100
AcDbEntity
  8
WAKU
 62
     1
100
AcDbLine
 10
61.66850213708596
 20
-48.84738046678155
 30
0.0
 11
-63.33149786291404
 21
-48.84738046678155
 31
0.0
  0
LINE
  5
3D
330
2
100
AcDbEntity
  8
WAKU
 62
     1
100
AcDbLine
 10
61.66850213708596
 20
-43.84738046678154
 30
0.0
 11
-63.33149786291404
 21
-43.84738046678154
 31
0.0
  0
LINE
  5
3E
330
2
100
AcDbEntity
  8
WAKU
 62
     1
100
AcDbLine
 10
61.66850213708596
 20
-38.84738046678155
 30
0.0
 11
-63.33149786291404
 21
-38.84738046678155
 31
0.0
  0
LINE
  5
3F
330
2
100
AcDbEntity
  8
WAKU
 62
     1
100
AcDbLine
 10
61.66850213708596
 20
-33.84738046678155
 30
0.0
 11
-63.33149786291404
 21
-33.84738046678155
 31
0.0
  0
LINE
  5
40
330
2
100
AcDbEntity
  8
WAKU
 62
     1
100
AcDbLine
 10
61.66850213708596
 20
-28.84738046678155
 30
0.0
 11
-63.33149786291404
 21
-28.84738046678155
 31
0.0
  0
LINE
  5
41
330
2
100
AcDbEntity
  8
WAKU
 62
     4
100
AcDbLine
 10
61.66850213708596
 20
-18.84738046678154
 30
0.0
 11
-63.33149786291404
 21
-18.84738046678154
 31
0.0
  0
LINE
  5
42
330
2
100
AcDbEntity
  8
WAKU
 62
     1
100
AcDbLine
 10
61.66850213708596
 20
-23.84738046678155
 30
0.0
 11
-63.33149786291404
 21
-23.84738046678155
 31
0.0
  0
TEXT
  5
43
330
2
100
AcDbEntity
  8
MOJI1
100
AcDbText
 10
-20.83149786291398
 20
-32.8473804667816
 30
0.0
 40
3.0
  1
６．３Ｗ（４Ω）／１０Ｗ（４Ω）
100
AcDbText
  0
TEXT
  5
44
330
2
100
AcDbEntity
  8
MOJI1
100
AcDbText
 10
-60.83149786291404
 20
-27.8473804667816
 30
0.0
 40
3.0
  1
受信チャンネル数
100
AcDbText
  0
TEXT
  5
45
330
2
100
AcDbEntity
  8
MOJI1
100
AcDbText
 10
-60.83149786291404
 20
-32.8473804667816
 30
0.0
 40
3.0
  1
定格出力／最大出力
100
AcDbText
  0
TEXT
  5
46
330
2
100
AcDbEntity
  8
MOJI1
100
AcDbText
 10
-20.83149786291398
 20
-27.8473804667816
 30
0.0
 40
3.0
  1
１ｃｈ：２．３ＭＨｚ、２ｃｈ：２．８ＭＨｚ
100
AcDbText
  0
TEXT
  5
47
330
2
100
AcDbEntity
  8
MOJI1
100
AcDbText
 10
-60.83149786291404
 20
-42.84738046678159
 30
0.0
 40
3.0
  1
スピーカー形式
100
AcDbText
  0
TEXT
  5
48
330
2
100
AcDbEntity
  8
MOJI1
100
AcDbText
 10
-20.83149786291398
 20
-42.84738046678159
 30
0.0
 40
3.0
  1
１２ｃｍフルレンジバスレフ形
100
AcDbText
  0
TEXT
  5
49
330
2
100
AcDbEntity
  8
MOJI1
100
AcDbText
 10
-20.83149786291404
 20
-47.84738046678154
 30
0.0
 40
3.0
  1
ＡＶライトグレイ色（ＡＢＳ樹脂）／約３．７ｋｇ
100
AcDbText
  0
TEXT
  5
4A
330
2
100
AcDbEntity
  8
MOJI1
100
AcDbText
 10
-60.83149786291404
 20
-47.84738046678154
 30
0.0
 40
3.0
  1
仕上げ／質量
100
AcDbText
  0
LINE
  5
4B
330
2
100
AcDbEntity
  8
GAIKEI
100
AcDbLine
 10
-31.03613920661059
 20
24.73592635740113
 30
0.0
 11
-12.3361345588375
 21
24.73592635740118
 31
0.0
  0
LINE
  5
4D
330
2
100
AcDbEntity
  8
GAIKEI
100
AcDbLine
 10
-31.03613920661053
 20
0.3359214496491631
 30
0.0
 11
-12.3361345588375
 21
0.3359214496491631
 31
0.0
  0
LINE
  5
4E
330
2
100
AcDbEntity
  8
GAIKEI
100
AcDbLine
 10
-31.03613920661053
 20
0.3359214496491631
 30
0.0
 11
-31.03613920661059
 21
24.73592635740113
 31
0.0
  0
LINE
  5
4F
330
2
100
AcDbEntity
  8
GAIKEI
100
AcDbLine
 10
-12.3361345588375
 20
0.3359214496491631
 30
0.0
 11
-12.3361345588375
 21
24.73592635740118
 31
0.0
  0
LINE
  5
50
330
2
100
AcDbEntity
  8
GAIKEI
100
AcDbLine
 10
-29.47189014104623
 20
2.886994651122904
 30
0.0
 11
-13.90038362440179
 21
2.886994651122904
 31
0.0
  0
LINE
  5
51
330
2
100
AcDbEntity
  8
GAIKEI
100
AcDbLine
 10
-29.47189014104623
 20
2.886994651122904
 30
0.0
 11
-29.47189014104618
 21
23.31850956178517
 31
0.0
  0
LINE
  5
52
330
2
100
AcDbEntity
  8
GAIKEI
100
AcDbLine
 10
-13.90038362440179
 20
2.886994651122904
 30
0.0
 11
-13.90038362440185
 21
23.31850956178517
 31
0.0
  0
LINE
  5
53
330
2
100
AcDbEntity
  8
GAIKEI
100
AcDbLine
 10
-29.47189014104618
 20
23.31850956178517
 30
0.0
 11
-13.90038362440185
 21
23.31850956178517
 31
0.0
  0
LINE
  5
54
330
2
100
AcDbEntity
  8
GAIKEI
100
AcDbLine
 10
-26.0206981238594
 20
31.23593052582033
 30
0.0
 11
-17.35157564158925
 21
31.23593052582033
 31
0.0
  0
LINE
  5
55
330
2
100
AcDbEntity
  8
GAIKEI
100
AcDbLine
 10
-24.92067191800413
 20
28.18011211542023
 30
0.0
 11
-18.45160184744463
 21
28.18011211542028
 31
0.0
  0
ARC
  5
56
330
2
100
AcDbEntity
  8
GAIKEI
100
AcDbCircle
 10
-23.78258163906389
 20
24.85562922331326
 30
0.0
 40
3.686593125887748
100
AcDbArc
 50
125.2993889461542
 51
161.0241850666691
  0
LINE
  5
57
330
2
100
AcDbEntity
  8
GAIKEI
100
AcDbLine
 10
-27.26883024074141
 20
26.05439507332074
 30
0.0
 11
-27.26883024074141
 21
24.73592635740113
 31
0.0
  0
LINE
  5
58
330
2
100
AcDbEntity
  8
GAIKEI
100
AcDbLine
 10
-28.16452174041564
 20
27.40867406873457
 30
0.0
 11
-28.16452174041564
 21
24.73592635740113
 31
0.0
  0
ARC
  5
59
330
2
100
AcDbEntity
  8
GAIKEI
100
AcDbCircle
 10
-32.5626894643338
 20
27.05256716519887
 30
0.0
 40
4.412560645981137
100
AcDbArc
 50
4.628975613382069
 51
39.47202226848602
  0
ARC
  5
5A
330
2
100
AcDbEntity
  8
GAIKEI
100
AcDbCircle
 10
-28.80129404249675
 20
30.22561493306034
 30
0.0
 40
0.5114327449715406
100
AcDbArc
 50
105.2983231998925
 51
226.0133948522224
  0
ARC
  5
5B
330
2
100
AcDbEntity
  8
GAIKEI
100
AcDbCircle
 10
-25.55351038770283
 20
20.12207943343469
 30
0.0
 40
11.12366623395969
100
AcDbArc
 50
92.40709859142215
 51
107.7041104847629
  0
ARC
  5
5C
330
2
100
AcDbEntity
  8
GAIKEI
100
AcDbCircle
 10
-33.80049536499166
 20
26.46665717987537
 30
0.0
 40
6.577746491969222
100
AcDbArc
 50
14.6572142289985
 51
37.49745286670733
  0
ARC
  5
5D
330
2
100
AcDbEntity
  8
GAIKEI
100
AcDbCircle
 10
-55.46423351313092
 20
24.81883797604814
 30
0.0
 40
28.22246210083899
100
AcDbArc
 50
2.509165922938202
 51
6.739836273551254
  0
ARC
  5
5E
330
2
100
AcDbEntity
  8
GAIKEI
100
AcDbCircle
 10
12.09195974768295
 20
24.81883797604814
 30
0.0
 40
28.22246210083899
100
AcDbArc
 50
173.2601637264487
 51
177.4908340770618
  0
ARC
  5
5F
330
2
100
AcDbEntity
  8
GAIKEI
100
AcDbCircle
 10
-9.57177840045631
 20
26.46665717987537
 30
0.0
 40
6.577746491969222
100
AcDbArc
 50
142.5025471332927
 51
165.3427857710015
  0
ARC
  5
60
330
2
100
AcDbEntity
  8
GAIKEI
100
AcDbCircle
 10
-17.8187633777452
 20
20.12207943343469
 30
0.0
 40
11.12366623395969
100
AcDbArc
 50
72.29588951523703
 51
87.59290140857784
  0
ARC
  5
61
330
2
100
AcDbEntity
  8
GAIKEI
100
AcDbCircle
 10
-14.57097972295128
 20
30.22561493306034
 30
0.0
 40
0.5114327449715406
100
AcDbArc
 50
313.9866051477776
 51
74.70167680010743
  0
ARC
  5
62
330
2
100
AcDbEntity
  8
GAIKEI
100
AcDbCircle
 10
-10.80958430111422
 20
27.05256716519887
 30
0.0
 40
4.412560645981137
100
AcDbArc
 50
140.5279777315139
 51
175.3710243866179
  0
LINE
  5
63
330
2
100
AcDbEntity
  8
GAIKEI
100
AcDbLine
 10
-15.20775202503239
 20
27.40867406873457
 30
0.0
 11
-15.20775202503239
 21
24.73592635740113
 31
0.0
  0
LINE
  5
64
330
2
100
AcDbEntity
  8
GAIKEI
100
AcDbLine
 10
-16.10344352470656
 20
26.05439507332074
 30
0.0
 11
-16.10344352470656
 21
24.73592635740113
 31
0.0
  0
ARC
  5
65
330
2
100
AcDbEntity
  8
GAIKEI
100
AcDbCircle
 10
-19.58969212638413
 20
24.85562922331326
 30
0.0
 40
3.686593125887748
100
AcDbArc
 50
18.97581493333093
 51
54.70061105386339
  0
ARC
  5
66
330
2
100
AcDbEntity
  8
GAIKEI
100
AcDbCircle
 10
-24.92067191800413
 20
26.46304811542029
 30
0.0
 40
1.717063999999999
100
AcDbArc
 50
90.0
 51
125.2993889461542
  0
ARC
  5
67
330
2
100
AcDbEntity
  8
GAIKEI
100
AcDbCircle
 10
-18.45160184744463
 20
26.46304811542029
 30
0.0
 40
1.717063999999999
100
AcDbArc
 50
54.70061105386339
 51
90.0
  0
ARC
  5
68
330
2
100
AcDbEntity
  8
GAIKEI
100
AcDbCircle
 10
-23.16372464328731
 20
-2.150560719781367
 30
0.0
 40
32.65558947641925
100
AcDbArc
 50
87.40661680100421
 51
99.07567129702284
  0
ARC
  5
69
330
2
100
AcDbEntity
  8
GAIKEI
100
AcDbCircle
 10
-20.20854912216072
 20
-2.150560719781367
 30
0.0
 40
32.65558947641925
100
AcDbArc
 50
80.92432870297717
 51
92.5933831989958
  0
LINE
  5
6A
330
2
100
AcDbEntity
  8
GAIKEI
 62
     1
100
AcDbLine
 10
-22.50072989206655
 20
24.83758641947719
 30
0.0
 11
-20.87154387338149
 21
24.83758641947725
 31
0.0
  0
ARC
  5
6B
330
2
100
AcDbEntity
  8
GAIKEI
 62
     1
100
AcDbCircle
 10
-22.19790335680517
 20
25.20954332739598
 30
0.0
 40
0.4796413783305907
100
AcDbArc
 50
178.4768128371816
 51
230.8494438854499
  0
LINE
  5
6C
330
2
100
AcDbEntity
  8
GAIKEI
 62
     1
100
AcDbLine
 10
-22.67737525361764
 20
25.22229291460326
 30
0.0
 11
-22.67737525361764
 21
25.70734706176336
 31
0.0
  0
ARC
  5
6D
330
2
100
AcDbEntity
  8
GAIKEI
 62
     1
100
AcDbCircle
 10
-21.79493406231853
 20
25.38171874493457
 30
0.0
 40
0.9406041977485028
100
AcDbArc
 50
86.71881745296046
 51
159.7455095925484
  0
ARC
  5
6E
330
2
100
AcDbEntity
  8
GAIKEI
 62
     1
100
AcDbCircle
 10
-21.67500696101285
 20
25.23464460622097
 30
0.0
 40
1.088145295277515
100
AcDbArc
 50
25.74783073555991
 51
93.48210979956162
  0
LINE
  5
6F
330
2
100
AcDbEntity
  8
GAIKEI
 62
     1
100
AcDbLine
 10
-20.69489851183039
 20
25.22229291460326
 30
0.0
 11
-20.69489851183039
 21
25.70734706176336
 31
0.0
  0
ARC
  5
70
330
2
100
AcDbEntity
  8
GAIKEI
 62
     1
100
AcDbCircle
 10
-21.17437040864286
 20
25.20954332739598
 30
0.0
 40
0.4796413783305907
100
AcDbArc
 50
309.1505561145502
 51
1.523187162818378
  0
LWPOLYLINE
  5
71
330
2
100
AcDbEntity
  8
GAIKEI
 62
     1
100
AcDbPolyline
 90
        4
 70
     1
 43
0.0
 10
-21.68494232193268
 20
25.78589826779313
 10
-21.45783802217909
 20
25.78589826779313
 10
-21.45783802217909
 20
26.02565579734892
 10
-21.68494232193268
 20
26.02565579734892
  0
LINE
  5
72
330
2
100
AcDbEntity
  8
GAIKEI
 62
     1
100
AcDbLine
 10
-26.19409546541891
 20
4.774900022560927
 30
0.0
 11
-17.17817830002895
 21
4.774900022560984
 31
0.0
  0
LINE
  5
73
330
2
100
AcDbEntity
  8
GAIKEI
 62
     1
100
AcDbLine
 10
-26.08750316066431
 20
5.431102327196413
 30
0.0
 11
-17.28477060478263
 21
5.431102327196413
 31
0.0
  0
LINE
  5
74
330
2
100
AcDbEntity
  8
GAIKEI
 62
     1
100
AcDbLine
 10
-26.60432879205615
 20
5.861398955537197
 30
0.0
 11
-26.60432879205615
 21
8.265071497112046
 31
0.0
  0
LINE
  5
75
330
2
100
AcDbEntity
  8
GAIKEI
 62
     1
100
AcDbLine
 10
-27.15873346765659
 20
5.861398955537197
 30
0.0
 11
-27.15873346765659
 21
8.265071497112046
 31
0.0
  0
ARC
  5
76
330
2
100
AcDbEntity
  8
GAIKEI
 62
     1
100
AcDbCircle
 10
-26.08062332716378
 20
5.964891392639401
 30
0.0
 40
0.5338333995691342
100
AcDbArc
 50
191.1785179499071
 51
269.2615742359728
  0
ARC
  5
77
330
2
100
AcDbEntity
  8
GAIKEI
 62
     1
100
AcDbCircle
 10
-26.10190576524952
 20
5.828221711909634
 30
0.0
 40
1.057348344714128
100
AcDbArc
 50
178.2018905001586
 51
264.9980570102929
  0
ARC
  5
78
330
2
100
AcDbEntity
  8
GAIKEI
 62
     1
100
AcDbCircle
 10
-26.10190576524952
 20
8.298248740739609
 30
0.0
 40
1.057348344714128
100
AcDbArc
 50
95.00194298970708
 51
181.7981094998413
  0
ARC
  5
79
330
2
100
AcDbEntity
  8
GAIKEI
 62
     1
100
AcDbCircle
 10
-26.08062332716378
 20
8.161579060009785
 30
0.0
 40
0.5338333995691342
100
AcDbArc
 50
90.73842576402721
 51
168.8214820500929
  0
LINE
  5
7A
330
2
100
AcDbEntity
  8
GAIKEI
 62
     1
100
AcDbLine
 10
-26.08750316066431
 20
8.69536812545283
 30
0.0
 11
-17.28477060478195
 21
8.69536812545283
 31
0.0
  0
LINE
  5
7B
330
2
100
AcDbEntity
  8
GAIKEI
 62
     1
100
AcDbLine
 10
-26.19409546541891
 20
9.351570430088258
 30
0.0
 11
-17.17817830002895
 21
9.351570430088258
 31
0.0
  0
ARC
  5
7C
330
2
100
AcDbEntity
  8
GAIKEI
 62
     1
100
AcDbCircle
 10
-17.29165043828425
 20
8.161579060009785
 30
0.0
 40
0.5338333995691342
100
AcDbArc
 50
11.17851794990711
 51
89.26157423597278
  0
ARC
  5
7D
330
2
100
AcDbEntity
  8
GAIKEI
 62
     1
100
AcDbCircle
 10
-17.27036800019851
 20
8.298248740739609
 30
0.0
 40
1.057348344714128
100
AcDbArc
 50
358.2018905001586
 51
84.99805701029293
  0
ARC
  5
7E
330
2
100
AcDbEntity
  8
GAIKEI
 62
     1
100
AcDbCircle
 10
-17.27036800019851
 20
5.828221711909634
 30
0.0
 40
1.057348344714128
100
AcDbArc
 50
275.0019429897071
 51
1.798109499841349
  0
ARC
  5
7F
330
2
100
AcDbEntity
  8
GAIKEI
 62
     1
100
AcDbCircle
 10
-17.29165043828425
 20
5.964891392639401
 30
0.0
 40
0.5338333995691342
100
AcDbArc
 50
270.7384257640272
 51
348.8214820500929
  0
LINE
  5
80
330
2
100
AcDbEntity
  8
GAIKEI
 62
     1
100
AcDbLine
 10
-16.21354029779144
 20
5.861398955537197
 30
0.0
 11
-16.21354029779144
 21
8.265071497112046
 31
0.0
  0
LINE
  5
81
330
2
100
AcDbEntity
  8
GAIKEI
 62
     1
100
AcDbLine
 10
-16.76794497339187
 20
5.861398955537197
 30
0.0
 11
-16.76794497339187
 21
8.265071497112046
 31
0.0
  0
CIRCLE
  5
82
330
2
100
AcDbEntity
  8
GAIKEI
 62
     1
100
AcDbCircle
 10
-25.47810944799545
 20
6.798041140376426
 30
0.0
 40
0.6858978453488414
  0
CIRCLE
  5
83
330
2
100
AcDbEntity
  8
GAIKEI
 62
     1
100
AcDbCircle
 10
-23.46523926307333
 20
6.798041140376426
 30
0.0
 40
0.4259884536671294
  0
CIRCLE
  5
84
330
2
100
AcDbEntity
  8
GAIKEI
 62
     1
100
AcDbCircle
 10
-21.68411403450057
 20
6.798041140376426
 30
0.0
 40
0.4259884536671294
  0
CIRCLE
  5
85
330
2
100
AcDbEntity
  8
GAIKEI
 62
     1
100
AcDbCircle
 10
-19.9029888059278
 20
6.798041140376426
 30
0.0
 40
0.4259884536671294
  0
CIRCLE
  5
86
330
2
100
AcDbEntity
  8
GAIKEI
 62
     1
100
AcDbCircle
 10
-18.12186357735504
 20
6.798041140376426
 30
0.0
 40
0.4259884536671294
  0
CIRCLE
  5
87
330
2
100
AcDbEntity
  8
GAIKEI
 62
     1
100
AcDbCircle
 10
-25.47810944799545
 20
8.205218197840167
 30
0.0
 40
0.1485156412247795
  0
CIRCLE
  5
88
330
2
100
AcDbEntity
  8
GAIKEI
 62
     1
100
AcDbCircle
 10
-23.46523926307333
 20
8.205218197840167
 30
0.0
 40
0.1485156412247795
  0
CIRCLE
  5
89
330
2
100
AcDbEntity
  8
GAIKEI
 62
     1
100
AcDbCircle
 10
-21.68411403450057
 20
8.205218197840167
 30
0.0
 40
0.1485156412247795
  0
LINE
  5
8A
330
2
100
AcDbEntity
  8
GAIKEI
 62
     1
100
AcDbLine
 10
-29.43751092082249
 20
0.201721058384237
 30
0.0
 11
-27.58384193778415
 21
0.201721058384237
 31
0.0
  0
LINE
  5
8B
330
2
100
AcDbEntity
  8
GAIKEI
 62
     1
100
AcDbLine
 10
-29.43751092082249
 20
0.201721058384237
 30
0.0
 11
-29.43751092082249
 21
0.3359214496491631
 31
0.0
  0
LINE
  5
8C
330
2
100
AcDbEntity
  8
GAIKEI
 62
     1
100
AcDbLine
 10
-27.58384193778415
 20
0.201721058384237
 30
0.0
 11
-27.58384193778415
 21
0.3359214496491631
 31
0.0
  0
LINE
  5
8D
330
2
100
AcDbEntity
  8
GAIKEI
 62
     1
100
AcDbLine
 10
-15.78843182766388
 20
0.201721058384237
 30
0.0
 11
-15.78843182766388
 21
0.3359214496491631
 31
0.0
  0
LINE
  5
8E
330
2
100
AcDbEntity
  8
GAIKEI
 62
     1
100
AcDbLine
 10
-13.93476284462554
 20
0.201721058384237
 30
0.0
 11
-13.93476284462554
 21
0.3359214496491631
 31
0.0
  0
LINE
  5
8F
330
2
100
AcDbEntity
  8
GAIKEI
 62
     1
100
AcDbLine
 10
-13.93476284462554
 20
0.201721058384237
 30
0.0
 11
-15.78843182766388
 21
0.201721058384237
 31
0.0
  0
ARC
  5
90
330
2
100
AcDbEntity
  8
GAIKEI
100
AcDbCircle
 10
28.29881539192718
 20
26.46304811542029
 30
0.0
 40
1.717063999999999
100
AcDbArc
 50
54.70061105386339
 51
90.0
  0
ARC
  5
91
330
2
100
AcDbEntity
  8
GAIKEI
100
AcDbCircle
 10
27.16072511298774
 20
24.85562922331326
 30
0.0
 40
3.686593125887748
100
AcDbArc
 50
18.97581493333093
 51
54.70061105386339
  0
LINE
  5
92
330
2
100
AcDbEntity
  8
GAIKEI
100
AcDbLine
 10
21.82974532136768
 20
28.18011211542023
 30
0.0
 11
28.29881539192718
 21
28.18011211542028
 31
0.0
  0
LINE
  5
93
330
2
100
AcDbEntity
  8
GAIKEI
100
AcDbLine
 10
30.64697371466525
 20
26.05439507332074
 30
0.0
 11
30.64697371466525
 21
24.73592635740113
 31
0.0
  0
ARC
  5
94
330
2
100
AcDbEntity
  8
GAIKEI
100
AcDbCircle
 10
21.82974532136768
 20
26.46304811542029
 30
0.0
 40
1.717063999999999
100
AcDbArc
 50
90.0
 51
91.91176788833669
  0
ARC
  5
95
330
2
100
AcDbEntity
  8
GAIKEI
100
AcDbCircle
 10
22.96783560030803
 20
24.85562922331326
 30
0.0
 40
3.686593125887748
100
AcDbArc
 50
126.15232299016
 51
161.0241850666691
  0
LINE
  5
96
330
2
100
AcDbEntity
  8
GAIKEI
100
AcDbLine
 10
19.4815869986304
 20
26.05439507332074
 30
0.0
 11
19.4815869986304
 21
24.73592635740113
 31
0.0
  0
LINE
  5
97
330
2
100
AcDbEntity
  8
GAIKEI
100
AcDbLine
 10
16.50582111335052
 20
24.73592635740113
 30
0.0
 11
33.5166062970128
 21
24.73592635740118
 31
0.0
  0
LINE
  5
98
330
2
100
AcDbEntity
  8
GAIKEI
 62
     1
100
AcDbLine
 10
16.50582111335109
 20
0.3359214496491631
 30
0.0
 11
16.50582111335109
 21
24.73592635740118
 31
0.0
  0
LINE
  5
99
330
2
100
AcDbEntity
  8
GAIKEI
100
AcDbLine
 10
13.39749594135617
 20
2.886994651122904
 30
0.0
 11
13.39749594135617
 21
23.52373867885922
 31
0.0
  0
LINE
  5
9A
330
2
100
AcDbEntity
  8
GAIKEI
 62
     1
100
AcDbLine
 10
12.83389869183111
 20
2.886994651122904
 30
0.0
 11
12.83389869183111
 21
4.458736050650657
 31
0.0
  0
LINE
  5
9B
330
2
100
AcDbEntity
  8
GAIKEI
100
AcDbLine
 10
12.61660374461291
 20
23.52373867885922
 30
0.0
 11
12.61660374461291
 21
24.51274705261153
 31
0.0
  0
LINE
  5
9C
330
2
100
AcDbEntity
  8
GAIKEI
100
AcDbLine
 10
16.50582111335097
 20
0.3359214496491631
 30
0.0
 11
12.61660374461291
 21
0.5591007544388163
 31
0.0
  0
LINE
  5
9D
330
2
100
AcDbEntity
  8
GAIKEI
100
AcDbLine
 10
16.50582111335097
 20
0.3359214496491631
 30
0.0
 11
33.51660629701291
 21
0.8773298531571072
 31
0.0
  0
LINE
  5
9E
330
2
100
AcDbEntity
  8
GAIKEI
100
AcDbLine
 10
16.50582111335052
 20
24.73592635740113
 30
0.0
 11
12.61660374461291
 21
24.51274705261153
 31
0.0
  0
LINE
  5
9F
330
2
100
AcDbEntity
  8
GAIKEI
 62
     1
100
AcDbLine
 10
12.83389869183111
 20
23.31850956178517
 30
0.0
 11
13.39749594135617
 21
23.31850956178517
 31
0.0
  0
LINE
  5
A0
330
2
100
AcDbEntity
  8
GAIKEI
100
AcDbLine
 10
12.61660374461291
 20
23.52373867885922
 30
0.0
 11
13.39749594135617
 21
23.52373867885922
 31
0.0
  0
LINE
  5
A1
330
2
100
AcDbEntity
  8
GAIKEI
100
AcDbLine
 10
12.61660374461291
 20
0.5591007544388163
 30
0.0
 11
12.61660374461291
 21
2.554931367741801
 31
0.0
  0
LINE
  5
A2
330
2
100
AcDbEntity
  8
GAIKEI
100
AcDbLine
 10
12.83389869183111
 20
2.886994651122904
 30
0.0
 11
13.39749594135617
 21
2.886994651122904
 31
0.0
  0
LINE
  5
A3
330
2
100
AcDbEntity
  8
GAIKEI
 62
     1
100
AcDbLine
 10
13.14231486321773
 20
4.701640225838502
 30
0.0
 11
13.14231486321779
 21
6.461029996955005
 31
0.0
  0
LINE
  5
A4
330
2
100
AcDbEntity
  8
GAIKEI
 62
     1
100
AcDbLine
 10
12.83389869183111
 20
4.458736050650657
 30
0.0
 11
13.14231486321773
 21
4.701640225838502
 31
0.0
  0
LINE
  5
A5
330
2
100
AcDbEntity
  8
GAIKEI
 62
     1
100
AcDbLine
 10
12.83389869183111
 20
9.727115623921235
 30
0.0
 11
13.14231486321773
 21
9.484211448733333
 31
0.0
  0
LINE
  5
A6
330
2
100
AcDbEntity
  8
GAIKEI
 62
     1
100
AcDbLine
 10
12.83389869183111
 20
9.727115623921235
 30
0.0
 11
12.83389869183111
 21
23.31850956178517
 31
0.0
  0
LINE
  5
A7
330
2
100
AcDbEntity
  8
GAIKEI
100
AcDbLine
 10
12.83389869183111
 20
2.886994651122904
 30
0.0
 11
12.61660374461291
 21
2.554931367741801
 31
0.0
  0
LINE
  5
A8
330
2
100
AcDbEntity
  8
GAIKEI
 62
     1
100
AcDbLine
 10
12.89281505205031
 20
6.461029996954948
 30
0.0
 11
12.89281505205031
 21
7.135052283797847
 31
0.0
  0
LINE
  5
A9
330
2
100
AcDbEntity
  8
GAIKEI
 62
     1
100
AcDbLine
 10
12.89281505205031
 20
6.461029996954948
 30
0.0
 11
13.39749594135617
 21
6.461029996954948
 31
0.0
  0
LINE
  5
AA
330
2
100
AcDbEntity
  8
GAIKEI
 62
     1
100
AcDbLine
 10
12.89281505205031
 20
7.135052283797847
 30
0.0
 11
13.39749594135617
 21
7.135052283797847
 31
0.0
  0
LINE
  5
AB
330
2
100
AcDbEntity
  8
GAIKEI
 62
     1
100
AcDbLine
 10
16.5119743145874
 20
24.52129335740114
 30
0.0
 11
33.5166062970128
 21
24.52129335740119
 31
0.0
  0
LINE
  5
AC
330
2
100
AcDbEntity
  8
GAIKEI
 62
     1
100
AcDbLine
 10
16.5119743145874
 20
24.52129335740114
 30
0.0
 11
12.62890004098699
 21
24.29846656870206
 31
0.0
  0
LINE
  5
AD
330
2
100
AcDbEntity
  8
GAIKEI
 62
     1
100
AcDbLine
 10
16.51811740972493
 20
0.5502019335586965
 30
0.0
 11
12.62890004098699
 21
0.7733812383482928
 31
0.0
  0
LINE
  5
AE
330
2
100
AcDbEntity
  8
GAIKEI
 62
     1
100
AcDbLine
 10
16.49899336865724
 20
0.5504458226033649
 30
0.0
 11
33.51660629701291
 21
1.092071535207537
 31
0.0
  0
LINE
  5
AF
330
2
100
AcDbEntity
  8
GAIKEI
100
AcDbLine
 10
33.51660629701291
 20
0.8773298531571072
 30
0.0
 11
33.51660629701291
 21
1.64934681595389
 31
0.0
  0
LINE
  5
B0
330
2
100
AcDbEntity
  8
GAIKEI
 62
     1
100
AcDbLine
 10
31.55694140848425
 20
5.439909358898887
 30
0.0
 11
31.5569414084842
 21
5.797477324748626
 31
0.0
  0
LINE
  5
B1
330
2
100
AcDbEntity
  8
GAIKEI
100
AcDbLine
 10
33.23138380196872
 20
21.7593730303895
 30
0.0
 11
33.23138380196872
 21
24.09646492728405
 31
0.0
  0
LINE
  5
B2
330
2
100
AcDbEntity
  8
GAIKEI
100
AcDbLine
 10
33.51660629701291
 20
21.65417916557704
 30
0.0
 11
33.23138380196872
 21
21.7593730303895
 31
0.0
  0
LINE
  5
B3
330
2
100
AcDbEntity
  8
GAIKEI
 62
     1
100
AcDbLine
 10
33.51660629701291
 20
22.26115982438591
 30
0.0
 11
33.23138380196872
 21
22.1559659595734
 31
0.0
  0
LINE
  5
B4
330
2
100
AcDbEntity
  8
GAIKEI
 62
     1
100
AcDbLine
 10
33.51660629701291
 20
22.63822370337562
 30
0.0
 11
33.23138380196872
 21
22.74341756818814
 31
0.0
  0
LINE
  5
B5
330
2
100
AcDbEntity
  8
GAIKEI
 62
     1
100
AcDbLine
 10
33.51660629701291
 20
22.26115982438591
 30
0.0
 11
33.51660629701291
 21
22.63822370337562
 31
0.0
  0
LINE
  5
B6
330
2
100
AcDbEntity
  8
GAIKEI
 62
     1
100
AcDbLine
 10
33.51660629701291
 20
23.19002425357985
 30
0.0
 11
33.51660629701291
 21
23.56708813256955
 31
0.0
  0
LINE
  5
B7
330
2
100
AcDbEntity
  8
GAIKEI
 62
     1
100
AcDbLine
 10
33.51660629701291
 20
23.56708813256955
 30
0.0
 11
33.23138380196872
 21
23.67228199738207
 31
0.0
  0
LINE
  5
B8
330
2
100
AcDbEntity
  8
GAIKEI
 62
     1
100
AcDbLine
 10
33.51660629701291
 20
23.19002425357985
 30
0.0
 11
33.23138380196872
 21
23.08483038876733
 31
0.0
  0
LINE
  5
B9
330
2
100
AcDbEntity
  8
GAIKEI
100
AcDbLine
 10
33.51660629701291
 20
24.20165879209662
 30
0.0
 11
33.5166062970128
 21
24.73592635740118
 31
0.0
  0
LINE
  5
BA
330
2
100
AcDbEntity
  8
GAIKEI
100
AcDbLine
 10
33.51660629701291
 20
24.20165879209662
 30
0.0
 11
33.23138380196872
 21
24.09646492728405
 31
0.0
  0
ARC
  5
BB
330
2
100
AcDbEntity
  8
GAIKEI
100
AcDbCircle
 10
32.40255323090639
 20
19.83807690417592
 30
0.0
 40
0.8665383685275905
100
AcDbArc
 50
106.8458636624066
 51
167.3825844299285
  0
LINE
  5
BC
330
2
100
AcDbEntity
  8
GAIKEI
100
AcDbLine
 10
32.15143213470105
 20
20.66743023006967
 30
0.0
 11
33.5166062970128
 21
21.13024018483776
 31
0.0
  0
LINE
  5
BD
330
2
100
AcDbEntity
  8
GAIKEI
100
AcDbLine
 10
33.5166062970128
 20
21.13024018483776
 30
0.0
 11
33.51660629701291
 21
21.65417916557704
 31
0.0
  0
ARC
  5
BE
330
2
100
AcDbEntity
  8
GAIKEI
 62
     1
100
AcDbCircle
 10
32.37611316281607
 20
20.10236037917378
 30
0.0
 40
0.8665383685275905
100
AcDbArc
 50
106.8458636624066
 51
160.9682680993695
  0
LINE
  5
BF
330
2
100
AcDbEntity
  8
GAIKEI
 62
     1
100
AcDbLine
 10
32.12499206661073
 20
20.93171370506752
 30
0.0
 11
33.51660629701291
 21
21.40348715112839
 31
0.0
  0
ARC
  5
C0
330
2
100
AcDbEntity
  8
GAIKEI
 62
     1
100
AcDbCircle
 10
32.37611316281607
 20
5.722480378353054
 30
0.0
 40
0.8665383685275905
100
AcDbArc
 50
199.0317319006304
 51
253.1541363375934
  0
ARC
  5
C1
330
2
100
AcDbEntity
  8
GAIKEI
100
AcDbCircle
 10
32.40255323090639
 20
5.986763853350907
 30
0.0
 40
0.8665383685275905
100
AcDbArc
 50
192.6174155700715
 51
253.1541363375934
  0
LINE
  5
C2
330
2
100
AcDbEntity
  8
GAIKEI
 62
     1
100
AcDbLine
 10
32.12499206661073
 20
4.893127052459306
 30
0.0
 11
33.51660629701291
 21
4.421353606398383
 31
0.0
  0
LINE
  5
C3
330
2
100
AcDbEntity
  8
GAIKEI
100
AcDbLine
 10
32.15143213470105
 20
5.157410527457159
 30
0.0
 11
33.5166062970128
 21
4.694600572689068
 31
0.0
  0
LINE
  5
C4
330
2
100
AcDbEntity
  8
GAIKEI
100
AcDbLine
 10
21.40644320369779
 20
26.720198876128
 30
0.0
 11
21.40644320369779
 21
24.73592635740113
 31
0.0
  0
LINE
  5
C5
330
2
100
AcDbEntity
  8
GAIKEI
100
AcDbLine
 10
20.62963002615106
 20
26.72558226712658
 30
0.0
 11
20.62963002615106
 21
24.73592635740113
 31
0.0
  0
LINE
  5
C6
330
2
100
AcDbEntity
  8
GAIKEI
100
AcDbLine
 10
32.28593954588894
 20
31.23446373146493
 30
0.0
 11
24.18341028889552
 21
30.57498380560025
 31
0.0
  0
LINE
  5
C7
330
2
100
AcDbEntity
  8
GAIKEI
100
AcDbLine
 10
32.34165730860582
 20
30.45961296267069
 30
0.0
 11
24.2464284714722
 21
29.80072723155621
 31
0.0
  0
ARC
  5
C8
330
2
100
AcDbEntity
  8
GAIKEI
100
AcDbCircle
 10
24.49715840369788
 20
26.720198876128
 30
0.0
 40
3.090715199999999
100
AcDbArc
 50
94.65315299970766
 51
180.0
  0
ARC
  5
C9
330
2
100
AcDbEntity
  8
GAIKEI
100
AcDbCircle
 10
24.49715840369788
 20
26.720198876128
 30
0.0
 40
3.86753212424
100
AcDbArc
 50
94.65315299970766
 51
180.0
  0
LINE
  5
CA
330
2
100
AcDbEntity
  8
GAIKEI
100
AcDbLine
 10
32.65721122724745
 20
30.89218280308398
 30
0.0
 11
32.65721122724745
 21
30.80189389105158
 31
0.0
  0
ARC
  5
CB
330
2
100
AcDbEntity
  8
GAIKEI
100
AcDbCircle
 10
32.31379842724744
 20
30.80189389105158
 30
0.0
 40
0.3434128
100
AcDbArc
 50
274.6531529997077
 51
0.0
  0
ARC
  5
CC
330
2
100
AcDbEntity
  8
GAIKEI
100
AcDbCircle
 10
32.31379842724744
 20
30.89218280308398
 30
0.0
 40
0.3434128
100
AcDbArc
 50
0.0
 51
94.65315299970766
  0
LINE
  5
CD
330
2
100
AcDbEntity
  8
GAIKEI
 62
     1
100
AcDbLine
 10
18.65867713303373
 20
21.57953866624257
 30
0.0
 11
18.65867713303373
 21
23.10947163447355
 31
0.0
  0
LINE
  5
CE
330
2
100
AcDbEntity
  8
GAIKEI
 62
     1
100
AcDbLine
 10
30.35979096186963
 20
22.34363214624256
 30
0.0
 11
30.35979096186963
 21
22.34537815447357
 31
0.0
  0
LINE
  5
CF
330
2
100
AcDbEntity
  8
GAIKEI
 62
     1
100
AcDbLine
 10
18.65867713303373
 20
23.10947163447355
 30
0.0
 11
29.59569748186959
 21
23.10947163447355
 31
0.0
  0
LINE
  5
D0
330
2
100
AcDbEntity
  8
GAIKEI
 62
     1
100
AcDbLine
 10
18.65867713303373
 20
21.57953866624257
 30
0.0
 11
29.59569748186959
 21
21.57953866624257
 31
0.0
  0
ARC
  5
D1
330
2
100
AcDbEntity
  8
GAIKEI
 62
     1
100
AcDbCircle
 10
29.59569748186959
 20
22.34363214624256
 30
0.0
 40
0.7640934800000001
100
AcDbArc
 50
270.0
 51
0.0
  0
ARC
  5
D2
330
2
100
AcDbEntity
  8
GAIKEI
 62
     1
100
AcDbCircle
 10
29.59569748186959
 20
22.34537815447357
 30
0.0
 40
0.7640934800000001
100
AcDbArc
 50
0.0
 51
90.0
  0
LINE
  5
D3
330
2
100
AcDbEntity
  8
GAIKEI
 62
     1
100
AcDbLine
 10
18.93365816039034
 20
21.9730884588675
 30
0.0
 11
18.93365816039034
 21
22.75081767812111
 31
0.0
  0
LINE
  5
D4
330
2
100
AcDbEntity
  8
GAIKEI
 62
     1
100
AcDbLine
 10
18.65867713303373
 20
21.9730884588675
 30
0.0
 11
18.93365816039034
 21
21.9730884588675
 31
0.0
  0
LINE
  5
D5
330
2
100
AcDbEntity
  8
GAIKEI
 62
     1
100
AcDbLine
 10
18.65867713303373
 20
22.75081767812105
 30
0.0
 11
18.93365816039034
 21
22.75081767812111
 31
0.0
  0
LINE
  5
D6
330
2
100
AcDbEntity
  8
GAIKEI
 62
     1
100
AcDbLine
 10
18.93340737303367
 20
20.46630203645219
 30
0.0
 11
30.09203691977678
 21
20.46630203645219
 31
0.0
  0
LINE
  5
D7
330
2
100
AcDbEntity
  8
GAIKEI
 62
     1
100
AcDbLine
 10
18.93340737303379
 20
19.91616316771001
 30
0.0
 11
30.09203691977678
 21
19.91616316771001
 31
0.0
  0
LINE
  5
D8
330
2
100
AcDbEntity
  8
GAIKEI
 62
     1
100
AcDbLine
 10
18.65867713303373
 20
20.19089340771007
 30
0.0
 11
18.65867713303373
 21
20.19157179645219
 31
0.0
  0
ARC
  5
D9
330
2
100
AcDbEntity
  8
GAIKEI
 62
     1
100
AcDbCircle
 10
18.93340737303367
 20
20.19157179645219
 30
0.0
 40
0.27473024
100
AcDbArc
 50
90.0
 51
179.9999999999967
  0
ARC
  5
DA
330
2
100
AcDbEntity
  8
GAIKEI
 62
     1
100
AcDbCircle
 10
18.93340737303379
 20
20.19089340771001
 30
0.0
 40
0.27473024
100
AcDbArc
 50
179.9999999999935
 51
270.0
  0
ARC
  5
DB
330
2
100
AcDbEntity
  8
GAIKEI
 62
     1
100
AcDbCircle
 10
30.09203691977678
 20
20.19089340771001
 30
0.0
 40
0.27473024
100
AcDbArc
 50
270.0
 51
0.0000000000065138
  0
ARC
  5
DC
330
2
100
AcDbEntity
  8
GAIKEI
 62
     1
100
AcDbCircle
 10
30.09203691977678
 20
20.19157179645219
 30
0.0
 40
0.27473024
100
AcDbArc
 50
0.0000000000032569
 51
90.0
  0
LINE
  5
DD
330
2
100
AcDbEntity
  8
GAIKEI
 62
     1
100
AcDbLine
 10
30.36676715977672
 20
20.19089340771007
 30
0.0
 11
30.36676715977672
 21
20.19157179645219
 31
0.0
  0
ARC
  5
DE
330
2
100
AcDbEntity
  8
GAIKEI
 62
     1
100
AcDbCircle
 10
18.93340737303379
 20
18.40879022823702
 30
0.0
 40
0.27473024
100
AcDbArc
 50
179.9999999999935
 51
270.0
  0
ARC
  5
DF
330
2
100
AcDbEntity
  8
GAIKEI
 62
     1
100
AcDbCircle
 10
18.93340737303367
 20
18.40946861697921
 30
0.0
 40
0.27473024
100
AcDbArc
 50
90.0
 51
179.9999999999967
  0
LINE
  5
E0
330
2
100
AcDbEntity
  8
GAIKEI
 62
     1
100
AcDbLine
 10
18.65867713303373
 20
18.40879022823708
 30
0.0
 11
18.65867713303373
 21
18.40946861697921
 31
0.0
  0
LINE
  5
E1
330
2
100
AcDbEntity
  8
GAIKEI
 62
     1
100
AcDbLine
 10
18.93340737303379
 20
18.13405998823703
 30
0.0
 11
30.09203691977678
 21
18.13405998823703
 31
0.0
  0
LINE
  5
E2
330
2
100
AcDbEntity
  8
GAIKEI
 62
     1
100
AcDbLine
 10
18.93340737303367
 20
18.68419885697921
 30
0.0
 11
30.09203691977678
 21
18.68419885697921
 31
0.0
  0
LINE
  5
E3
330
2
100
AcDbEntity
  8
GAIKEI
 62
     1
100
AcDbLine
 10
30.36676715977672
 20
18.40879022823708
 30
0.0
 11
30.36676715977672
 21
18.40946861697921
 31
0.0
  0
ARC
  5
E4
330
2
100
AcDbEntity
  8
GAIKEI
 62
     1
100
AcDbCircle
 10
30.09203691977678
 20
18.40946861697921
 30
0.0
 40
0.27473024
100
AcDbArc
 50
0.0000000000032569
 51
90.0
  0
ARC
  5
E5
330
2
100
AcDbEntity
  8
GAIKEI
 62
     1
100
AcDbCircle
 10
30.09203691977678
 20
18.40879022823702
 30
0.0
 40
0.27473024
100
AcDbArc
 50
270.0
 51
0.0000000000065138
  0
LINE
  5
E6
330
2
100
AcDbEntity
  8
GAIKEI
 62
     1
100
AcDbLine
 10
18.93340737303367
 20
16.97723033655239
 30
0.0
 11
30.09203691977678
 21
16.97723033655234
 31
0.0
  0
LINE
  5
E7
330
2
100
AcDbEntity
  8
GAIKEI
 62
     1
100
AcDbLine
 10
18.93340737303379
 20
16.42709146781021
 30
0.0
 11
30.09203691977678
 21
16.42709146781021
 31
0.0
  0
LINE
  5
E8
330
2
100
AcDbEntity
  8
GAIKEI
 62
     1
100
AcDbLine
 10
18.65867713303373
 20
16.70182170781021
 30
0.0
 11
18.65867713303373
 21
16.7025000965524
 31
0.0
  0
ARC
  5
E9
330
2
100
AcDbEntity
  8
GAIKEI
 62
     1
100
AcDbCircle
 10
18.93340737303367
 20
16.7025000965524
 30
0.0
 40
0.27473024
100
AcDbArc
 50
90.0
 51
179.9999999999967
  0
ARC
  5
EA
330
2
100
AcDbEntity
  8
GAIKEI
 62
     1
100
AcDbCircle
 10
18.93340737303379
 20
16.70182170781015
 30
0.0
 40
0.27473024
100
AcDbArc
 50
179.9999999999935
 51
270.0
  0
ARC
  5
EB
330
2
100
AcDbEntity
  8
GAIKEI
 62
     1
100
AcDbCircle
 10
30.09203691977678
 20
16.70182170781021
 30
0.0
 40
0.27473024
100
AcDbArc
 50
270.0
 51
0.0000000000065138
  0
ARC
  5
EC
330
2
100
AcDbEntity
  8
GAIKEI
 62
     1
100
AcDbCircle
 10
30.09203691977678
 20
16.7025000965524
 30
0.0
 40
0.27473024
100
AcDbArc
 50
0.0000000000032569
 51
90.0
  0
LINE
  5
ED
330
2
100
AcDbEntity
  8
GAIKEI
 62
     1
100
AcDbLine
 10
30.36676715977672
 20
16.70182170781021
 30
0.0
 11
30.36676715977683
 21
16.7025000965524
 31
0.0
  0
ARC
  5
EE
330
2
100
AcDbEntity
  8
GAIKEI
 62
     1
100
AcDbCircle
 10
18.93340737303379
 20
14.98280946212804
 30
0.0
 40
0.27473024
100
AcDbArc
 50
179.9999999999935
 51
270.0
  0
ARC
  5
EF
330
2
100
AcDbEntity
  8
GAIKEI
 62
     1
100
AcDbCircle
 10
18.93340737303367
 20
14.98348785087023
 30
0.0
 40
0.27473024
100
AcDbArc
 50
90.0
 51
179.9999999999967
  0
LINE
  5
F0
330
2
100
AcDbEntity
  8
GAIKEI
 62
     1
100
AcDbLine
 10
18.65867713303373
 20
14.9828094621281
 30
0.0
 11
18.65867713303373
 21
14.98348785087023
 31
0.0
  0
LINE
  5
F1
330
2
100
AcDbEntity
  8
GAIKEI
 62
     1
100
AcDbLine
 10
18.93340737303379
 20
14.70807922212805
 30
0.0
 11
30.09203691977678
 21
14.70807922212805
 31
0.0
  0
LINE
  5
F2
330
2
100
AcDbEntity
  8
GAIKEI
 62
     1
100
AcDbLine
 10
18.93340737303367
 20
15.25821809087023
 30
0.0
 11
30.09203691977678
 21
15.25821809087023
 31
0.0
  0
LINE
  5
F3
330
2
100
AcDbEntity
  8
GAIKEI
 62
     1
100
AcDbLine
 10
30.36676715977672
 20
14.9828094621281
 30
0.0
 11
30.36676715977683
 21
14.98348785087023
 31
0.0
  0
ARC
  5
F4
330
2
100
AcDbEntity
  8
GAIKEI
 62
     1
100
AcDbCircle
 10
30.09203691977678
 20
14.98348785087023
 30
0.0
 40
0.27473024
100
AcDbArc
 50
0.0000000000032569
 51
90.0
  0
ARC
  5
F5
330
2
100
AcDbEntity
  8
GAIKEI
 62
     1
100
AcDbCircle
 10
30.09203691977678
 20
14.98280946212804
 30
0.0
 40
0.27473024
100
AcDbArc
 50
270.0
 51
0.0000000000065138
  0
ARC
  5
F6
330
2
100
AcDbEntity
  8
GAIKEI
 62
     1
100
AcDbCircle
 10
30.09203691977678
 20
5.451420291650777
 30
0.0
 40
0.27473024
100
AcDbArc
 50
270.0
 51
0.0000000000065138
  0
ARC
  5
F7
330
2
100
AcDbEntity
  8
GAIKEI
 62
     1
100
AcDbCircle
 10
30.09203691977678
 20
5.452098680392964
 30
0.0
 40
0.27473024
100
AcDbArc
 50
0.0000000000032569
 51
90.0
  0
LINE
  5
F8
330
2
100
AcDbEntity
  8
GAIKEI
 62
     1
100
AcDbLine
 10
30.36676715977672
 20
5.451420291650833
 30
0.0
 11
30.36676715977683
 21
5.452098680393021
 31
0.0
  0
LINE
  5
F9
330
2
100
AcDbEntity
  8
GAIKEI
 62
     1
100
AcDbLine
 10
18.93340737303367
 20
5.726828920393018
 30
0.0
 11
30.09203691977678
 21
5.726828920392961
 31
0.0
  0
LINE
  5
FA
330
2
100
AcDbEntity
  8
GAIKEI
 62
     1
100
AcDbLine
 10
18.93340737303379
 20
5.17669005165078
 30
0.0
 11
30.09203691977678
 21
5.17669005165078
 31
0.0
  0
LINE
  5
FB
330
2
100
AcDbEntity
  8
GAIKEI
 62
     1
100
AcDbLine
 10
18.65867713303373
 20
5.451420291650833
 30
0.0
 11
18.65867713303373
 21
5.452098680392964
 31
0.0
  0
ARC
  5
FC
330
2
100
AcDbEntity
  8
GAIKEI
 62
     1
100
AcDbCircle
 10
18.93340737303367
 20
5.452098680392964
 30
0.0
 40
0.27473024
100
AcDbArc
 50
90.0
 51
179.9999999999967
  0
ARC
  5
FD
330
2
100
AcDbEntity
  8
GAIKEI
 62
     1
100
AcDbCircle
 10
18.93340737303379
 20
5.451420291650777
 30
0.0
 40
0.27473024
100
AcDbArc
 50
179.9999999999935
 51
270.0
  0
LINE
  5
FE
330
2
100
AcDbEntity
  8
GAIKEI
 62
     1
100
AcDbLine
 10
30.36676715977672
 20
7.175592537332988
 30
0.0
 11
30.36676715977683
 21
7.176270926075176
 31
0.0
  0
ARC
  5
FF
330
2
100
AcDbEntity
  8
GAIKEI
 62
     1
100
AcDbCircle
 10
30.09203691977678
 20
7.176270926075119
 30
0.0
 40
0.27473024
100
AcDbArc
 50
0.0000000000032569
 51
90.0
  0
ARC
  5
100
330
2
100
AcDbEntity
  8
GAIKEI
 62
     1
100
AcDbCircle
 10
30.09203691977678
 20
7.175592537332931
 30
0.0
 40
0.27473024
100
AcDbArc
 50
270.0
 51
0.0000000000065138
  0
ARC
  5
101
330
2
100
AcDbEntity
  8
GAIKEI
 62
     1
100
AcDbCircle
 10
18.93340737303379
 20
7.175592537332931
 30
0.0
 40
0.27473024
100
AcDbArc
 50
179.9999999999935
 51
270.0
  0
ARC
  5
102
330
2
100
AcDbEntity
  8
GAIKEI
 62
     1
100
AcDbCircle
 10
18.93340737303367
 20
7.176270926075119
 30
0.0
 40
0.27473024
100
AcDbArc
 50
90.0
 51
179.9999999999967
  0
LINE
  5
103
330
2
100
AcDbEntity
  8
GAIKEI
 62
     1
100
AcDbLine
 10
18.65867713303373
 20
7.175592537332988
 30
0.0
 11
18.65867713303373
 21
7.176270926075119
 31
0.0
  0
LINE
  5
104
330
2
100
AcDbEntity
  8
GAIKEI
 62
     1
100
AcDbLine
 10
18.93340737303379
 20
6.900862297332935
 30
0.0
 11
30.09203691977678
 21
6.900862297332935
 31
0.0
  0
LINE
  5
105
330
2
100
AcDbEntity
  8
GAIKEI
 62
     1
100
AcDbLine
 10
18.93340737303367
 20
7.451001166075116
 30
0.0
 11
30.09203691977678
 21
7.451001166075116
 31
0.0
  0
ARC
  5
106
330
2
100
AcDbEntity
  8
GAIKEI
 62
     1
100
AcDbCircle
 10
30.09203691977678
 20
8.882561057759744
 30
0.0
 40
0.27473024
100
AcDbArc
 50
270.0
 51
0.0000000000065138
  0
ARC
  5
107
330
2
100
AcDbEntity
  8
GAIKEI
 62
     1
100
AcDbCircle
 10
30.09203691977678
 20
8.883239446501988
 30
0.0
 40
0.27473024
100
AcDbArc
 50
0.0000000000032569
 51
90.0
  0
LINE
  5
108
330
2
100
AcDbEntity
  8
GAIKEI
 62
     1
100
AcDbLine
 10
30.36676715977672
 20
8.882561057759801
 30
0.0
 11
30.36676715977672
 21
8.883239446501988
 31
0.0
  0
LINE
  5
109
330
2
100
AcDbEntity
  8
GAIKEI
 62
     1
100
AcDbLine
 10
18.93340737303367
 20
9.157969686501985
 30
0.0
 11
30.09203691977678
 21
9.157969686501928
 31
0.0
  0
LINE
  5
10A
330
2
100
AcDbEntity
  8
GAIKEI
 62
     1
100
AcDbLine
 10
18.93340737303379
 20
8.607830817759747
 30
0.0
 11
30.09203691977678
 21
8.607830817759747
 31
0.0
  0
LINE
  5
10B
330
2
100
AcDbEntity
  8
GAIKEI
 62
     1
100
AcDbLine
 10
18.65867713303373
 20
8.882561057759801
 30
0.0
 11
18.65867713303373
 21
8.883239446501988
 31
0.0
  0
ARC
  5
10C
330
2
100
AcDbEntity
  8
GAIKEI
 62
     1
100
AcDbCircle
 10
18.93340737303367
 20
8.883239446501988
 30
0.0
 40
0.27473024
100
AcDbArc
 50
90.0
 51
179.9999999999967
  0
ARC
  5
10D
330
2
100
AcDbEntity
  8
GAIKEI
 62
     1
100
AcDbCircle
 10
18.93340737303379
 20
8.882561057759744
 30
0.0
 40
0.27473024
100
AcDbArc
 50
179.9999999999935
 51
270.0
  0
LINE
  5
10E
330
2
100
AcDbEntity
  8
GAIKEI
 62
     1
100
AcDbLine
 10
30.36676715977672
 20
10.66466423723278
 30
0.0
 11
30.36676715977672
 21
10.66534262597497
 31
0.0
  0
ARC
  5
10F
330
2
100
AcDbEntity
  8
GAIKEI
 62
     1
100
AcDbCircle
 10
30.09203691977678
 20
10.66534262597497
 30
0.0
 40
0.27473024
100
AcDbArc
 50
0.0000000000032569
 51
90.0
  0
ARC
  5
110
330
2
100
AcDbEntity
  8
GAIKEI
 62
     1
100
AcDbCircle
 10
30.09203691977678
 20
10.66466423723273
 30
0.0
 40
0.27473024
100
AcDbArc
 50
270.0
 51
0.0000000000065138
  0
ARC
  5
111
330
2
100
AcDbEntity
  8
GAIKEI
 62
     1
100
AcDbCircle
 10
18.93340737303379
 20
10.66466423723273
 30
0.0
 40
0.27473024
100
AcDbArc
 50
179.9999999999935
 51
270.0
  0
ARC
  5
112
330
2
100
AcDbEntity
  8
GAIKEI
 62
     1
100
AcDbCircle
 10
18.93340737303367
 20
10.66534262597497
 30
0.0
 40
0.27473024
100
AcDbArc
 50
90.0
 51
179.9999999999967
  0
LINE
  5
113
330
2
100
AcDbEntity
  8
GAIKEI
 62
     1
100
AcDbLine
 10
18.65867713303373
 20
10.66466423723278
 30
0.0
 11
18.65867713303373
 21
10.66534262597497
 31
0.0
  0
LINE
  5
114
330
2
100
AcDbEntity
  8
GAIKEI
 62
     1
100
AcDbLine
 10
18.93340737303379
 20
10.38993399723273
 30
0.0
 11
30.09203691977678
 21
10.38993399723273
 31
0.0
  0
LINE
  5
115
330
2
100
AcDbEntity
  8
GAIKEI
 62
     1
100
AcDbLine
 10
18.93340737303367
 20
10.94007286597497
 30
0.0
 11
30.09203691977678
 21
10.94007286597491
 31
0.0
  0
LINE
  5
116
330
2
100
AcDbEntity
  8
GAIKEI
 62
     1
100
AcDbLine
 10
18.65867713303373
 20
13.22458850764383
 30
0.0
 11
18.93365816039034
 21
13.22458850764383
 31
0.0
  0
LINE
  5
117
330
2
100
AcDbEntity
  8
GAIKEI
 62
     1
100
AcDbLine
 10
18.65867713303373
 20
12.44685928839027
 30
0.0
 11
18.93365816039034
 21
12.44685928839021
 31
0.0
  0
LINE
  5
118
330
2
100
AcDbEntity
  8
GAIKEI
 62
     1
100
AcDbLine
 10
18.93365816039034
 20
12.44685928839021
 30
0.0
 11
18.93365816039034
 21
13.22458850764383
 31
0.0
  0
ARC
  5
119
330
2
100
AcDbEntity
  8
GAIKEI
 62
     1
100
AcDbCircle
 10
29.59569748186959
 20
12.81914898399634
 30
0.0
 40
0.7640934800000001
100
AcDbArc
 50
0.0
 51
90.0
  0
ARC
  5
11A
330
2
100
AcDbEntity
  8
GAIKEI
 62
     1
100
AcDbCircle
 10
29.59569748186959
 20
12.81740297576533
 30
0.0
 40
0.7640934800000001
100
AcDbArc
 50
270.0
 51
0.0
  0
LINE
  5
11B
330
2
100
AcDbEntity
  8
GAIKEI
 62
     1
100
AcDbLine
 10
18.65867713303373
 20
12.05330949576534
 30
0.0
 11
29.59569748186959
 21
12.05330949576534
 31
0.0
  0
LINE
  5
11C
330
2
100
AcDbEntity
  8
GAIKEI
 62
     1
100
AcDbLine
 10
18.65867713303373
 20
13.58324246399633
 30
0.0
 11
29.59569748186959
 21
13.58324246399633
 31
0.0
  0
LINE
  5
11D
330
2
100
AcDbEntity
  8
GAIKEI
 62
     1
100
AcDbLine
 10
30.35979096186963
 20
12.81740297576533
 30
0.0
 11
30.35979096186963
 21
12.81914898399634
 31
0.0
  0
LINE
  5
11E
330
2
100
AcDbEntity
  8
GAIKEI
 62
     1
100
AcDbLine
 10
18.65867713303373
 20
12.05330949576534
 30
0.0
 11
18.65867713303373
 21
13.58324246399633
 31
0.0
  0
LINE
  5
11F
330
2
100
AcDbEntity
  8
GAIKEI
 62
     1
100
AcDbLine
 10
18.65867713303373
 20
2.447035350230748
 30
0.0
 11
18.65867713303373
 21
3.976968318461729
 31
0.0
  0
LINE
  5
120
330
2
100
AcDbEntity
  8
GAIKEI
 62
     1
100
AcDbLine
 10
30.35979096186963
 20
3.211128830230734
 30
0.0
 11
30.35979096186963
 21
3.212874838461743
 31
0.0
  0
LINE
  5
121
330
2
100
AcDbEntity
  8
GAIKEI
 62
     1
100
AcDbLine
 10
18.65867713303373
 20
3.976968318461729
 30
0.0
 11
29.59569748186959
 21
3.976968318461729
 31
0.0
  0
LINE
  5
122
330
2
100
AcDbEntity
  8
GAIKEI
 62
     1
100
AcDbLine
 10
18.65867713303373
 20
2.447035350230748
 30
0.0
 11
29.59569748186959
 21
2.447035350230748
 31
0.0
  0
ARC
  5
123
330
2
100
AcDbEntity
  8
GAIKEI
 62
     1
100
AcDbCircle
 10
29.59569748186959
 20
3.211128830230734
 30
0.0
 40
0.7640934800000001
100
AcDbArc
 50
270.0
 51
0.0
  0
ARC
  5
124
330
2
100
AcDbEntity
  8
GAIKEI
 62
     1
100
AcDbCircle
 10
29.59569748186959
 20
3.212874838461743
 30
0.0
 40
0.7640934800000001
100
AcDbArc
 50
0.0
 51
90.0
  0
LINE
  5
125
330
2
100
AcDbEntity
  8
GAIKEI
 62
     1
100
AcDbLine
 10
18.93365816039034
 20
2.840585142855672
 30
0.0
 11
18.93365816039034
 21
3.618314362109288
 31
0.0
  0
LINE
  5
126
330
2
100
AcDbEntity
  8
GAIKEI
 62
     1
100
AcDbLine
 10
18.65867713303373
 20
2.840585142855672
 30
0.0
 11
18.93365816039034
 21
2.840585142855672
 31
0.0
  0
LINE
  5
127
330
2
100
AcDbEntity
  8
GAIKEI
 62
     1
100
AcDbLine
 10
18.65867713303373
 20
3.618314362109231
 30
0.0
 11
18.93365816039034
 21
3.618314362109288
 31
0.0
  0
LINE
  5
128
330
2
100
AcDbEntity
  8
GAIKEI
 62
     1
100
AcDbLine
 10
31.55694140848425
 20
10.17600429588827
 30
0.0
 11
32.16113828304344
 21
10.17600429588827
 31
0.0
  0
LINE
  5
129
330
2
100
AcDbEntity
  8
GAIKEI
 62
     1
100
AcDbLine
 10
32.16113828304344
 20
10.17600429588827
 30
0.0
 11
32.16113828304344
 21
12.56893218726975
 31
0.0
  0
LINE
  5
12A
330
2
100
AcDbEntity
  8
GAIKEI
 62
     1
100
AcDbLine
 10
32.16113828304344
 20
12.56893218726975
 30
0.0
 11
31.55694140848425
 21
12.56893218726975
 31
0.0
  0
LINE
  5
12B
330
2
100
AcDbEntity
  8
GAIKEI
 62
     1
100
AcDbLine
 10
31.55694140848425
 20
11.31549373557504
 30
0.0
 11
32.16113828304344
 21
11.31549373557504
 31
0.0
  0
LINE
  5
12C
330
2
100
AcDbEntity
  8
GAIKEI
 62
     1
100
AcDbLine
 10
31.79622344054633
 20
12.56893218726981
 30
0.0
 11
31.79622344054621
 21
14.2312111651924
 31
0.0
  0
LINE
  5
12D
330
2
100
AcDbEntity
  8
GAIKEI
 62
     1
100
AcDbLine
 10
31.79622344054621
 20
14.2312111651924
 30
0.0
 11
31.55694140848425
 21
14.23121116519246
 31
0.0
  0
LINE
  5
12E
330
2
100
AcDbEntity
  8
GAIKEI
 62
     1
100
AcDbLine
 10
31.79622344054621
 20
13.53759833076509
 30
0.0
 11
31.55694140848425
 21
13.53759833076509
 31
0.0
  0
LINE
  5
12F
330
2
100
AcDbEntity
  8
GAIKEI
100
AcDbLine
 10
33.51660629701291
 20
1.64934681595389
 30
0.0
 11
33.23696196805963
 21
1.675699371395921
 31
0.0
  0
LINE
  5
130
330
2
100
AcDbEntity
  8
GAIKEI
100
AcDbLine
 10
33.23696196805963
 20
1.675699371395921
 30
0.0
 11
33.23696196805963
 21
3.059210097007792
 31
0.0
  0
LINE
  5
131
330
2
100
AcDbEntity
  8
GAIKEI
100
AcDbLine
 10
33.23696196805963
 20
3.059210097007792
 30
0.0
 11
33.5166062970128
 21
3.059210097007792
 31
0.0
  0
LINE
  5
132
330
2
100
AcDbEntity
  8
GAIKEI
100
AcDbLine
 10
33.5166062970128
 20
3.059210097007792
 30
0.0
 11
33.51660629701291
 21
4.694600572689012
 31
0.0
  0
LINE
  5
133
330
2
100
AcDbEntity
  8
GAIKEI
 62
     1
100
AcDbLine
 10
-28.30181635052378
 20
21.56350863818233
 30
0.0
 11
-27.15708847103275
 21
21.56350863818233
 31
0.0
  0
LINE
  5
134
330
2
100
AcDbEntity
  8
GAIKEI
 62
     1
100
AcDbLine
 10
-28.30181635052378
 20
21.29834755618515
 30
0.0
 11
-27.15708847103275
 21
21.29834755618515
 31
0.0
  0
LINE
  5
135
330
2
100
AcDbEntity
  8
GAIKEI
 62
     1
100
AcDbLine
 10
-28.30181635052378
 20
21.03318647418803
 30
0.0
 11
-27.15708847103275
 21
21.03318647418803
 31
0.0
  0
LINE
  5
136
330
2
100
AcDbEntity
  8
GAIKEI
 62
     1
100
AcDbLine
 10
-28.30181635052378
 20
20.76802539219091
 30
0.0
 11
-27.15708847103275
 21
20.76802539219091
 31
0.0
  0
LINE
  5
137
330
2
100
AcDbEntity
  8
GAIKEI
 62
     1
100
AcDbLine
 10
-28.30181635052378
 20
20.50286431019379
 30
0.0
 11
-27.15708847103275
 21
20.50286431019379
 31
0.0
  0
LINE
  5
138
330
2
100
AcDbEntity
  8
GAIKEI
 62
     1
100
AcDbLine
 10
-28.30181635052378
 20
20.23770322819666
 30
0.0
 11
-27.15708847103275
 21
20.23770322819666
 31
0.0
  0
LINE
  5
139
330
2
100
AcDbEntity
  8
GAIKEI
 62
     1
100
AcDbLine
 10
-28.04825132967437
 20
20.11543437626688
 30
0.0
 11
-28.04825132967437
 21
21.69166982554628
 31
0.0
  0
LINE
  5
13A
330
2
100
AcDbEntity
  8
GAIKEI
 62
     1
100
AcDbLine
 10
-27.80065864246376
 20
20.11543437626688
 30
0.0
 11
-27.80065864246376
 21
21.69166982554628
 31
0.0
  0
LINE
  5
13B
330
2
100
AcDbEntity
  8
GAIKEI
 62
     1
100
AcDbLine
 10
-27.55306595525315
 20
20.11543437626688
 30
0.0
 11
-27.55306595525315
 21
21.69166982554628
 31
0.0
  0
LINE
  5
13C
330
2
100
AcDbEntity
  8
GAIKEI
 62
     1
100
AcDbLine
 10
-27.30547326804253
 20
20.11543437626688
 30
0.0
 11
-27.30547326804253
 21
21.69166982554628
 31
0.0
  0
LINE
  5
13D
330
2
100
AcDbEntity
  8
GAIKEI
 62
     1
100
AcDbLine
 10
19.27790197370313
 20
0.201721058384237
 30
0.0
 11
17.41254299066486
 21
0.201721058384237
 31
0.0
  0
LINE
  5
13E
330
2
100
AcDbEntity
  8
GAIKEI
 62
     1
100
AcDbLine
 10
19.27790197370313
 20
0.201721058384237
 30
0.0
 11
19.27790197370313
 21
0.4241494683322458
 31
0.0
  0
LINE
  5
13F
330
2
100
AcDbEntity
  8
GAIKEI
 62
     1
100
AcDbLine
 10
17.41254299066486
 20
0.201721058384237
 30
0.0
 11
17.41254299066486
 21
0.364780014302255
 31
0.0
  0
LINE
  5
140
330
2
100
AcDbEntity
  8
GAIKEI
 62
     1
100
AcDbLine
 10
28.13424117153829
 20
0.5610751273732149
 30
0.0
 11
28.12918508672794
 21
0.7058624526230802
 31
0.0
  0
LINE
  5
141
330
2
100
AcDbEntity
  8
GAIKEI
 62
     1
100
AcDbLine
 10
29.99846382828446
 20
0.6261752170507862
 30
0.0
 11
29.99360890106073
 21
0.7652021427009572
 31
0.0
  0
LINE
  5
142
330
2
100
AcDbEntity
  8
GAIKEI
 62
     1
100
AcDbLine
 10
29.99846382828446
 20
0.6261752170507862
 30
0.0
 11
28.13424117153829
 21
0.5610751273732149
 31
0.0
  0
DIMENSION
  5
143
330
2
100
AcDbEntity
  8
SUNPO
100
AcDbDimension
  2
*D8
 10
33.51660629701291
 20
35.60736159717834
 30
0.0
 11
23.06660502081292
 21
37.35736159717834
 31
0.0
 70
    32
  1
209
 71
     5
 42
20.9000025524
  3
STANDARD
100
AcDbAlignedDimension
 13
12.61660374461291
 23
23.85573165613391
 33
0.0
 14
33.51660629701291
 24
23.85573165613391
 34
0.0
100
AcDbRotatedDimension
1001
ACAD
1000
DSTYLE
1002
{
1070
    40
1040
1.0
1070
   140
1040
2.5
1070
   147
1040
0.5
1070
   172
1070
     1
1070
   279
1070
     0
1002
}
  0
DIMENSION
  5
151
330
2
100
AcDbEntity
  8
SUNPO
100
AcDbDimension
  2
*D7
 10
-12.3361345588375
 20
35.60341049185394
 30
0.0
 11
-21.68613688272404
 21
37.35341049185394
 31
0.0
 70
    33
  1
187
 71
     5
 42
18.70000464777308
  3
STANDARD
100
AcDbAlignedDimension
 13
-31.03613920661059
 23
24.73592635740113
 33
0.0
 14
-12.3361345588375
 24
24.73592635740118
 34
0.0
1001
ACAD
1000
DSTYLE
1002
{
1070
    40
1040
1.0
1070
   140
1040
2.5
1070
   147
1040
0.5
1070
   172
1070
     1
1070
   279
1070
     0
1002
}
  0
DIMENSION
  5
15E
330
2
100
AcDbEntity
  8
SUNPO
100
AcDbDimension
  2
*D6
 10
-4.3361345588375
 20
24.73592635740118
 30
0.0
 11
-6.086134558837504
 21
12.53592390352517
 31
0.0
 70
    33
  1
244
 71
     5
 42
24.40000490775202
  3
STANDARD
100
AcDbAlignedDimension
 13
-12.3361345588375
 23
0.3359214496491631
 33
0.0
 14
-12.3361345588375
 24
24.73592635740118
 34
0.0
1001
ACAD
1000
DSTYLE
1002
{
1070
    40
1040
1.0
1070
   140
1040
2.5
1070
   147
1040
0.5
1070
   172
1070
     1
1070
   279
1070
     0
1002
}
  0
DIMENSION
  5
16B
330
2
100
AcDbEntity
  8
SUNPO
100
AcDbDimension
  2
*D5
 10
-4.3361345588375
 20
31.23593052582032
 30
0.0
 11
-6.086134558837505
 21
27.98592844161075
 31
0.0
 70
    33
  1
65
 71
     5
 42
6.500004168419138
  3
STANDARD
100
AcDbAlignedDimension
 13
-12.3361345588375
 23
24.73592635740118
 33
0.0
 14
-12.3361345588375
 24
31.23593052582033
 34
0.0
1001
ACAD
1000
DSTYLE
1002
{
1070
    40
1040
1.0
1070
   140
1040
2.5
1070
   147
1040
0.5
1070
   172
1070
     1
1070
   279
1070
     0
1002
}
  0
LINE
  5
178
330
2
100
AcDbEntity
  8
GAIKEI
 62
     1
100
AcDbLine
 10
13.14231486321779
 20
7.135052283797847
 30
0.0
 11
13.14231486321773
 21
9.484211448733333
 31
0.0
  0
LINE
  5
179
330
2
100
AcDbEntity
  8
GAIKEI
100
AcDbLine
 10
31.55694140848425
 20
5.797477324748399
 30
0.0
 11
31.55694140848431
 21
20.0273634327786
 31
0.0
  0
LINE
  5
17A
330
2
100
AcDbEntity
  8
GAIKEI
 62
     1
100
AcDbLine
 10
31.55694140848436
 20
20.02736343277888
 30
0.0
 11
31.55694140848425
 21
20.38493139862794
 31
0.0
  0
ENDSEC
  0
SECTION
  2
OBJECTS
  0
DICTIONARY
  5
7
330
0
100
AcDbDictionary
281
     1
  3
ACAD_COLOR
350
2C
  3
ACAD_GROUP
350
28
  3
ACAD_LAYOUT
350
B
  3
ACAD_MATERIAL
350
2B
  3
ACAD_MLINESTYLE
350
29
  3
ACAD_PLOTSETTINGS
350
2A
  3
ACAD_PLOTSTYLENAME
350
6
  3
ACDBHEADERROUNDTRIPXREC
350
1C3
  3
AcDbVariableDictionary
350
1BE
  0
DICTIONARY
  5
11
330
10
100
AcDbDictionary
280
     1
281
     1
  3
ACAD_LAYERSTATES
360
12
  0
DICTIONARY
  5
2C
102
{ACAD_REACTORS
330
7
102
}
330
7
100
AcDbDictionary
281
     1
  0
DICTIONARY
  5
28
102
{ACAD_REACTORS
330
7
102
}
330
7
100
AcDbDictionary
281
     1
  0
DICTIONARY
  5
B
102
{ACAD_REACTORS
330
7
102
}
330
7
100
AcDbDictionary
281
     1
  3
Model
350
A
  3
レイアウト1
350
F
  0
DICTIONARY
  5
2B
102
{ACAD_REACTORS
330
7
102
}
330
7
100
AcDbDictionary
281
     1
  0
DICTIONARY
  5
29
102
{ACAD_REACTORS
330
7
102
}
330
7
100
AcDbDictionary
281
     1
  3
Standard
350
2E
  0
DICTIONARY
  5
2A
102
{ACAD_REACTORS
330
7
102
}
330
7
100
AcDbDictionary
281
     1
  0
ACDBDICTIONARYWDFLT
  5
6
102
{ACAD_REACTORS
330
7
102
}
330
7
100
AcDbDictionary
281
     1
  3
Normal
350
5
100
AcDbDictionaryWithDefault
340
5
  0
DICTIONARY
  5
1C3
102
{ACAD_REACTORS
330
7
102
}
330
7
100
AcDbDictionary
281
     1
  3
COLORDICT
350
1C5
  3
MATERIALDICT
350
1C4
  0
DICTIONARY
  5
1BE
102
{ACAD_REACTORS
330
7
102
}
330
7
100
AcDbDictionary
281
     1
  3
DIMASSOC
350
1C0
  3
HIDETEXT
350
1BF
  3
PROJECTNAME
350
1C1
  0
DICTIONARY
  5
12
102
{ACAD_REACTORS
330
11
102
}
330
11
100
AcDbDictionary
281
     1
  0
LAYOUT
  5
A
102
{ACAD_XDICTIONARY
360
1C6
102
}
102
{ACAD_REACTORS
330
B
102
}
330
B
100
AcDbPlotSettings
  1

  2
Ａ４－縦3FRIM01.pc3
  4
A4
  6

 40
5.873749732971191
 41
5.873747825622558
 42
5.873748779296875
 43
5.873748779296875
 44
209.9733276367187
 45
296.9259948730469
 46
5.429999999999999
 47
0.0
 48
0.0
 49
0.0
140
0.0
141
0.0
142
1.0
143
1.382515355699284
 70
 11956
 72
     1
 73
     0
 74
     1
  7
tmsacad.ctb
 75
     0
147
0.723319271556441
148
0.0256269002562704
149
0.0240539385804368
100
AcDbLayout
  1
Model
 70
     1
 71
     0
 10
0.0
 20
0.0
 11
12.0
 21
9.0
 12
0.0
 22
0.0
 32
0.0
 14
0.0
 24
0.0
 34
0.0
 15
0.0
 25
0.0
 35
0.0
146
0.0
 13
0.0
 23
0.0
 33
0.0
 16
1.0
 26
0.0
 36
0.0
 17
0.0
 27
1.0
 37
0.0
 76
     0
330
2
  0
LAYOUT
  5
F
102
{ACAD_XDICTIONARY
360
1C8
102
}
102
{ACAD_REACTORS
330
B
102
}
330
B
100
AcDbPlotSettings
  1

  2
None
  4

  6

 40
0.0
 41
0.0
 42
0.0
 43
0.0
 44
0.0
 45
0.0
 46
0.0
 47
0.0
 48
0.0
 49
0.0
140
0.0
141
0.0
142
1.0
143
1.0
 70
   688
 72
     0
 73
     0
 74
     5
  7
tmsacad.ctb
 75
    16
147
1.0
148
0.0
149
0.0
100
AcDbLayout
  1
レイアウト1
 70
     1
 71
     1
 10
0.0
 20
0.0
 11
12.0
 21
9.0
 12
0.0
 22
0.0
 32
0.0
 14
0.0
 24
0.0
 34
0.0
 15
0.0
 25
0.0
 35
0.0
146
0.0
 13
0.0
 23
0.0
 33
0.0
 16
1.0
 26
0.0
 36
0.0
 17
0.0
 27
1.0
 37
0.0
 76
     0
330
C
  0
MLINESTYLE
  5
2E
102
{ACAD_REACTORS
330
29
102
}
330
29
100
AcDbMlineStyle
  2
STANDARD
 70
     0
  3

 62
   256
 51
90.0
 52
90.0
 71
     2
 49
0.5
 62
   256
  6
BYLAYER
 49
-0.5
 62
   256
  6
BYLAYER
  0
ACDBPLACEHOLDER
  5
5
102
{ACAD_REACTORS
330
6
102
}
330
6
  0
XRECORD
  5
1C5
102
{ACAD_REACTORS
330
1C3
102
}
330
1C3
100
AcDbXrecord
280
     1
340
2C
  0
XRECORD
  5
1C4
102
{ACAD_REACTORS
330
1C3
102
}
330
1C3
100
AcDbXrecord
280
     1
340
2B
  0
DICTIONARYVAR
  5
1C0
102
{ACAD_REACTORS
330
1BE
102
}
330
1BE
100
DictionaryVariables
280
     0
  1
1
  0
DICTIONARYVAR
  5
1BF
102
{ACAD_REACTORS
330
1BE
102
}
330
1BE
100
DictionaryVariables
280
     0
  1
1
  0
DICTIONARYVAR
  5
1C1
102
{ACAD_REACTORS
330
1BE
102
}
330
1BE
100
DictionaryVariables
280
     0
  1

  0
DICTIONARY
  5
1C6
330
A
100
AcDbDictionary
280
     1
281
     1
  3
ACAD_XREC_ROUNDTRIP
360
1C7
  0
DICTIONARY
  5
1C8
330
F
100
AcDbDictionary
280
     1
281
     1
  3
ACAD_XREC_ROUNDTRIP
360
1C9
  0
XRECORD
  5
1C7
102
{ACAD_REACTORS
330
1C6
102
}
330
1C6
100
AcDbXrecord
280
     1
102
SHADEPLOT
 70
     0
102
SHADEPLOTRESLEVEL
 70
     2
102
SHADEPLOTCUSTOMDPI
 70
   300
  0
XRECORD
  5
1C9
102
{ACAD_REACTORS
330
1C8
102
}
330
1C8
100
AcDbXrecord
280
     1
102
SHADEPLOT
 70
     0
102
SHADEPLOTRESLEVEL
 70
     2
102
SHADEPLOTCUSTOMDPI
 70
   300
  0
ENDSEC
  0
EOF
