  0
SECTION
  2
HEADER
  9
$ACADVER
  1
AC1015
  9
$ACADMAINTVER
 70
    20
  9
$DWGCODEPAGE
  3
ANSI_932
  9
$INSBASE
 10
0.0
 20
372.4992141396417
 30
0.0
  9
$EXTMIN
 10
-63.93563869113177
 20
-50.91500619351973
 30
-0.0015258207003583
  9
$EXTMAX
 10
61.14487027883297
 20
62.21607572210541
 30
0.0000000349246037
  9
$LIMMIN
 10
-1101.784450318844
 20
-1579.160531687244
  9
$LIMMAX
 10
-508.2420711400536
 20
-1161.440814074914
  9
$ORTHOMODE
 70
     1
  9
$REGENMODE
 70
     1
  9
$FILLMODE
 70
     1
  9
$QTEXTMODE
 70
     0
  9
$MIRRTEXT
 70
     1
  9
$LTSCALE
 40
1.0
  9
$ATTMODE
 70
     1
  9
$TEXTSIZE
 40
3.0
  9
$TRACEWID
 40
0.5
  9
$TEXTSTYLE
  7
STANDARD
  9
$CLAYER
  8
GAIKEI
  9
$CELTYPE
  6
BYLAYER
  9
$CECOLOR
 62
   256
  9
$CELTSCALE
 40
1.0
  9
$DISPSILH
 70
     0
  9
$DIMSCALE
 40
1.0
  9
$DIMASZ
 40
2.0
  9
$DIMEXO
 40
2.0
  9
$DIMDLI
 40
8.0
  9
$DIMRND
 40
0.0
  9
$DIMDLE
 40
0.0
  9
$DIMEXE
 40
2.0
  9
$DIMTP
 40
0.0
  9
$DIMTM
 40
0.0
  9
$DIMTXT
 40
2.5
  9
$DIMCEN
 40
0.0
  9
$DIMTSZ
 40
0.0
  9
$DIMTOL
 70
     0
  9
$DIMLIM
 70
     0
  9
$DIMTIH
 70
     0
  9
$DIMTOH
 70
     0
  9
$DIMSE1
 70
     0
  9
$DIMSE2
 70
     0
  9
$DIMTAD
 70
     3
  9
$DIMZIN
 70
     0
  9
$DIMBLK
  1

  9
$DIMASO
 70
     1
  9
$DIMSHO
 70
     1
  9
$DIMPOST
  1

  9
$DIMAPOST
  1

  9
$DIMALT
 70
     0
  9
$DIMALTD
 70
     2
  9
$DIMALTF
 40
25.4
  9
$DIMLFAC
 40
1.0
  9
$DIMTOFL
 70
     1
  9
$DIMTVP
 40
0.0
  9
$DIMTIX
 70
     0
  9
$DIMSOXD
 70
     0
  9
$DIMSAH
 70
     1
  9
$DIMBLK1
  1
OPEN30
  9
$DIMBLK2
  1
OPEN30
  9
$DIMSTYLE
  2
STANDARD
  9
$DIMCLRD
 70
     0
  9
$DIMCLRE
 70
     0
  9
$DIMCLRT
 70
     0
  9
$DIMTFAC
 40
1.0
  9
$DIMGAP
 40
0.5
  9
$DIMJUST
 70
     0
  9
$DIMSD1
 70
     0
  9
$DIMSD2
 70
     0
  9
$DIMTOLJ
 70
     1
  9
$DIMTZIN
 70
     0
  9
$DIMALTZ
 70
     0
  9
$DIMALTTZ
 70
     0
  9
$DIMUPT
 70
     0
  9
$DIMDEC
 70
     4
  9
$DIMTDEC
 70
     4
  9
$DIMALTU
 70
     2
  9
$DIMALTTD
 70
     2
  9
$DIMTXSTY
  7
STANDARD
  9
$DIMAUNIT
 70
     0
  9
$DIMADEC
 70
     0
  9
$DIMALTRND
 40
0.0
  9
$DIMAZIN
 70
     0
  9
$DIMDSEP
 70
    46
  9
$DIMATFIT
 70
     3
  9
$DIMFRAC
 70
     0
  9
$DIMLDRBLK
  1
OPEN30
  9
$DIMLUNIT
 70
     2
  9
$DIMLWD
 70
    -2
  9
$DIMLWE
 70
    -2
  9
$DIMTMOVE
 70
     0
  9
$LUNITS
 70
     2
  9
$LUPREC
 70
     4
  9
$SKETCHINC
 40
0.1
  9
$FILLETRAD
 40
2.0
  9
$AUNITS
 70
     0
  9
$AUPREC
 70
     0
  9
$MENU
  1
ACAD
  9
$ELEVATION
 40
0.0
  9
$PELEVATION
 40
0.0
  9
$THICKNESS
 40
0.0
  9
$LIMCHECK
 70
     0
  9
$CHAMFERA
 40
0.0
  9
$CHAMFERB
 40
0.0
  9
$CHAMFERC
 40
0.0
  9
$CHAMFERD
 40
0.0
  9
$SKPOLY
 70
     0
  9
$TDCREATE
 40
2451815.565532581
  9
$TDUCREATE
 40
2451815.190532581
  9
$TDUPDATE
 40
2454237.386127558
  9
$TDUUPDATE
 40
2454237.011127558
  9
$TDINDWG
 40
1.1027670486
  9
$TDUSRTIMER
 40
1.1027670486
  9
$USRTIMER
 70
     1
  9
$ANGBASE
 50
0.0
  9
$ANGDIR
 70
     0
  9
$PDMODE
 70
     0
  9
$PDSIZE
 40
0.0
  9
$PLINEWID
 40
0.0
  9
$SPLFRAME
 70
     0
  9
$SPLINETYPE
 70
     6
  9
$SPLINESEGS
 70
     8
  9
$HANDSEED
  5
13F
  9
$SURFTAB1
 70
     6
  9
$SURFTAB2
 70
     6
  9
$SURFTYPE
 70
     6
  9
$SURFU
 70
     6
  9
$SURFV
 70
     6
  9
$UCSBASE
  2

  9
$UCSNAME
  2

  9
$UCSORG
 10
0.0
 20
0.0
 30
0.0
  9
$UCSXDIR
 10
1.0
 20
0.0
 30
0.0
  9
$UCSYDIR
 10
0.0
 20
1.0
 30
0.0
  9
$UCSORTHOREF
  2

  9
$UCSORTHOVIEW
 70
     0
  9
$UCSORGTOP
 10
0.0
 20
0.0
 30
0.0
  9
$UCSORGBOTTOM
 10
0.0
 20
0.0
 30
0.0
  9
$UCSORGLEFT
 10
0.0
 20
0.0
 30
0.0
  9
$UCSORGRIGHT
 10
0.0
 20
0.0
 30
0.0
  9
$UCSORGFRONT
 10
0.0
 20
0.0
 30
0.0
  9
$UCSORGBACK
 10
0.0
 20
0.0
 30
0.0
  9
$PUCSBASE
  2

  9
$PUCSNAME
  2

  9
$PUCSORG
 10
0.0
 20
0.0
 30
0.0
  9
$PUCSXDIR
 10
1.0
 20
0.0
 30
0.0
  9
$PUCSYDIR
 10
0.0
 20
1.0
 30
0.0
  9
$PUCSORTHOREF
  2

  9
$PUCSORTHOVIEW
 70
     0
  9
$PUCSORGTOP
 10
0.0
 20
0.0
 30
0.0
  9
$PUCSORGBOTTOM
 10
0.0
 20
0.0
 30
0.0
  9
$PUCSORGLEFT
 10
0.0
 20
0.0
 30
0.0
  9
$PUCSORGRIGHT
 10
0.0
 20
0.0
 30
0.0
  9
$PUCSORGFRONT
 10
0.0
 20
0.0
 30
0.0
  9
$PUCSORGBACK
 10
0.0
 20
0.0
 30
0.0
  9
$USERI1
 70
     0
  9
$USERI2
 70
     0
  9
$USERI3
 70
     0
  9
$USERI4
 70
     0
  9
$USERI5
 70
     0
  9
$USERR1
 40
0.0
  9
$USERR2
 40
0.0
  9
$USERR3
 40
0.0
  9
$USERR4
 40
0.0
  9
$USERR5
 40
0.0
  9
$WORLDVIEW
 70
     1
  9
$SHADEDGE
 70
     3
  9
$SHADEDIF
 70
    70
  9
$TILEMODE
 70
     1
  9
$MAXACTVP
 70
    48
  9
$PINSBASE
 10
0.0
 20
0.0
 30
0.0
  9
$PLIMCHECK
 70
     0
  9
$PEXTMIN
 10
1.000000000000000E+20
 20
1.000000000000000E+20
 30
1.000000000000000E+20
  9
$PEXTMAX
 10
-1.000000000000000E+20
 20
-1.000000000000000E+20
 30
-1.000000000000000E+20
  9
$PLIMMIN
 10
0.0
 20
0.0
  9
$PLIMMAX
 10
12.0
 20
9.0
  9
$UNITMODE
 70
     0
  9
$VISRETAIN
 70
     1
  9
$PLINEGEN
 70
     0
  9
$PSLTSCALE
 70
     1
  9
$TREEDEPTH
 70
  3020
  9
$CMLSTYLE
  2
STANDARD
  9
$CMLJUST
 70
     0
  9
$CMLSCALE
 40
1.0
  9
$PROXYGRAPHICS
 70
     1
  9
$MEASUREMENT
 70
     0
  9
$CELWEIGHT
370
    -1
  9
$ENDCAPS
280
     0
  9
$JOINSTYLE
280
     0
  9
$LWDISPLAY
290
     0
  9
$INSUNITS
 70
     0
  9
$HYPERLINKBASE
  1

  9
$STYLESHEET
  1

  9
$XEDIT
290
     1
  9
$CEPSNTYPE
380
     0
  9
$PSTYLEMODE
290
     1
  9
$FINGERPRINTGUID
  2
{1754B7AB-9B3C-11D4-AD9E-00104B1004F2}
  9
$VERSIONGUID
  2
{F7EC8E77-C8A1-4DF5-8BB8-FFBB71509C70}
  9
$EXTNAMES
290
     1
  9
$PSVPSCALE
 40
0.0
  9
$OLESTARTUP
290
     0
  0
ENDSEC
  0
SECTION
  2
CLASSES
  0
CLASS
  1
ACDBDICTIONARYWDFLT
  2
AcDbDictionaryWithDefault
  3
ObjectDBX Classes
 90
        0
280
     0
281
     0
  0
CLASS
  1
ACDBPLACEHOLDER
  2
AcDbPlaceHolder
  3
ObjectDBX Classes
 90
        0
280
     0
281
     0
  0
CLASS
  1
LAYOUT
  2
AcDbLayout
  3
ObjectDBX Classes
 90
        0
280
     0
281
     0
  0
CLASS
  1
DICTIONARYVAR
  2
AcDbDictionaryVar
  3
ObjectDBX Classes
 90
        0
280
     0
281
     0
  0
CLASS
  1
IMAGE
  2
AcDbRasterImage
  3
ISM
 90
    32895
280
     0
281
     1
  0
CLASS
  1
IMAGEDEF_REACTOR
  2
AcDbRasterImageDefReactor
  3
ISM
 90
    32769
280
     0
281
     0
  0
ENDSEC
  0
SECTION
  2
TABLES
  0
TABLE
  2
VPORT
  5
20
330
0
100
AcDbSymbolTable
 70
     3
  0
VPORT
  5
137
330
20
100
AcDbSymbolTableRecord
100
AcDbViewportTableRecord
  2
*Active
 70
     0
 10
0.0
 20
0.0
 11
1.0
 21
1.0
 12
-1.39538420614939
 22
5.650534764292842
 13
0.0
 23
0.0
 14
1.0
 24
1.0
 15
0.0
 25
0.0
 16
0.0
 26
0.0
 36
1.0
 17
0.0
 27
0.0
 37
0.0
 40
114.0035581257713
 41
1.379665379665379
 42
50.0
 43
0.0
 44
0.0
 50
0.0
 51
0.0
 71
     0
 72
 10000
 73
     1
 74
     0
 75
     0
 76
     1
 77
     0
 78
     0
281
     0
 65
     1
110
0.0
120
0.0
130
0.0
111
1.0
121
0.0
131
0.0
112
0.0
122
1.0
132
0.0
 79
     0
146
0.0
  0
ENDTAB
  0
TABLE
  2
LTYPE
  5
1B
330
0
100
AcDbSymbolTable
 70
     1
  0
LTYPE
  5
1C
330
1B
100
AcDbSymbolTableRecord
100
AcDbLinetypeTableRecord
  2
BYBLOCK
 70
     0
  3

 72
    65
 73
     0
 40
0.0
  0
LTYPE
  5
1D
330
1B
100
AcDbSymbolTableRecord
100
AcDbLinetypeTableRecord
  2
BYLAYER
 70
     0
  3

 72
    65
 73
     0
 40
0.0
  0
LTYPE
  5
A
330
1B
100
AcDbSymbolTableRecord
100
AcDbLinetypeTableRecord
  2
CONTINUOUS
 70
     0
  3
Solid line
 72
    65
 73
     0
 40
0.0
  0
ENDTAB
  0
TABLE
  2
LAYER
  5
14
102
{ACAD_XDICTIONARY
360
15
102
}
330
0
100
AcDbSymbolTable
 70
     7
  0
LAYER
  5
6
330
14
100
AcDbSymbolTableRecord
100
AcDbLayerTableRecord
  2
0
 70
     0
 62
     7
  6
CONTINUOUS
370
    -3
390
7
  0
LAYER
  5
C5
330
14
100
AcDbSymbolTableRecord
100
AcDbLayerTableRecord
  2
DEFPOINTS
 70
     0
 62
     7
  6
CONTINUOUS
290
     0
370
    -3
390
7
  0
LAYER
  5
E4
330
14
100
AcDbSymbolTableRecord
100
AcDbLayerTableRecord
  2
WAKU
 70
     0
 62
     4
  6
CONTINUOUS
370
    -3
390
7
  0
LAYER
  5
35
330
14
100
AcDbSymbolTableRecord
100
AcDbLayerTableRecord
  2
MOJI1
 70
     0
 62
     2
  6
CONTINUOUS
370
    -3
390
7
  0
LAYER
  5
32
330
14
100
AcDbSymbolTableRecord
100
AcDbLayerTableRecord
  2
GAIKEI
 70
     0
 62
     7
  6
CONTINUOUS
370
    -3
390
7
  0
LAYER
  5
37
330
14
100
AcDbSymbolTableRecord
100
AcDbLayerTableRecord
  2
TOUROKU
 70
     0
 62
     1
  6
CONTINUOUS
370
    -3
390
7
  0
LAYER
  5
BB
330
14
100
AcDbSymbolTableRecord
100
AcDbLayerTableRecord
  2
SUNPO
 70
     0
 62
     3
  6
CONTINUOUS
370
    -3
390
7
  0
ENDTAB
  0
TABLE
  2
STYLE
  5
18
330
0
100
AcDbSymbolTable
 70
     1
  0
STYLE
  5
19
330
18
100
AcDbSymbolTableRecord
100
AcDbTextStyleTableRecord
  2
STANDARD
 70
     0
 40
0.0
 41
1.0
 50
0.0
 71
     0
 42
3.0
  3
MONOTXT.shx
  4
BIGFONT.shx
  0
ENDTAB
  0
TABLE
  2
VIEW
  5
1E
330
0
100
AcDbSymbolTable
 70
     0
  0
ENDTAB
  0
TABLE
  2
UCS
  5
1F
330
0
100
AcDbSymbolTable
 70
     0
  0
ENDTAB
  0
TABLE
  2
APPID
  5
22
330
0
100
AcDbSymbolTable
 70
     1
  0
APPID
  5
23
330
22
100
AcDbSymbolTableRecord
100
AcDbRegAppTableRecord
  2
ACAD
 70
     0
  0
ENDTAB
  0
TABLE
  2
DIMSTYLE
  5
24
330
0
100
AcDbSymbolTable
 70
     1
100
AcDbDimStyleTable
 71
     1
340
25
  0
DIMSTYLE
105
25
102
{ACAD_REACTORS
330
D6
330
C9
330
BA
102
}
330
24
100
AcDbSymbolTableRecord
100
AcDbDimStyleTableRecord
  2
STANDARD
 70
     0
 40
0.0
 41
2.0
 42
2.0
 43
8.0
 44
2.0
 73
     0
 74
     0
 77
     3
140
3.0
141
0.0
173
     1
279
     2
288
     1
340
19
341
26
343
26
344
26
  0
ENDTAB
  0
TABLE
  2
BLOCK_RECORD
  5
1
330
0
100
AcDbSymbolTable
 70
     7
  0
BLOCK_RECORD
  5
2
102
{ACAD_XDICTIONARY
360
3
102
}
330
1
100
AcDbSymbolTableRecord
100
AcDbBlockTableRecord
  2
*MODEL_SPACE
340
C
  0
BLOCK_RECORD
  5
E
102
{ACAD_XDICTIONARY
360
F
102
}
330
1
100
AcDbSymbolTableRecord
100
AcDbBlockTableRecord
  2
*PAPER_SPACE
340
13
  0
BLOCK_RECORD
  5
26
330
1
100
AcDbSymbolTableRecord
100
AcDbBlockTableRecord
  2
_OPEN30
340
0
102
{BLKREFS
331
DC
331
DD
331
CF
331
D0
331
C1
331
C2
331
113
331
114
331
11F
331
120
331
12B
331
12C
102
}
  0
BLOCK_RECORD
  5
D7
330
1
100
AcDbSymbolTableRecord
100
AcDbBlockTableRecord
  2
*D1
340
0
  0
BLOCK_RECORD
  5
CA
330
1
100
AcDbSymbolTableRecord
100
AcDbBlockTableRecord
  2
*D2
340
0
  0
BLOCK_RECORD
  5
BC
330
1
100
AcDbSymbolTableRecord
100
AcDbBlockTableRecord
  2
*D3
340
0
  0
BLOCK_RECORD
  5
10F
330
1
100
AcDbSymbolTableRecord
100
AcDbBlockTableRecord
  2
*D4
340
0
  0
BLOCK_RECORD
  5
11B
330
1
100
AcDbSymbolTableRecord
100
AcDbBlockTableRecord
  2
*D5
340
0
  0
BLOCK_RECORD
  5
127
330
1
100
AcDbSymbolTableRecord
100
AcDbBlockTableRecord
  2
*D6
340
0
  0
ENDTAB
  0
ENDSEC
  0
SECTION
  2
BLOCKS
  0
BLOCK
  5
5
330
2
100
AcDbEntity
  8
0
100
AcDbBlockBegin
  2
*MODEL_SPACE
 70
     0
 10
0.0
 20
0.0
 30
0.0
  3
*MODEL_SPACE
  1

  0
ENDBLK
  5
B
330
2
100
AcDbEntity
  8
0
100
AcDbBlockEnd
  0
BLOCK
  5
11
330
E
100
AcDbEntity
 67
     1
  8
0
100
AcDbBlockBegin
  2
*PAPER_SPACE
 70
     0
 10
0.0
 20
0.0
 30
0.0
  3
*PAPER_SPACE
  1

  0
ENDBLK
  5
12
330
E
100
AcDbEntity
 67
     1
  8
0
100
AcDbBlockEnd
  0
BLOCK
  5
27
330
26
100
AcDbEntity
  8
0
100
AcDbBlockBegin
  2
_OPEN30
 70
     0
 10
0.0
 20
0.0
 30
0.0
  3
_OPEN30
  1

  0
LINE
  5
28
330
26
100
AcDbEntity
  8
0
  6
ByBlock
 62
     0
100
AcDbLine
 10
-1.0
 20
0.26794919
 30
0.0
 11
0.0
 21
0.0
 31
0.0
  0
LINE
  5
29
330
26
100
AcDbEntity
  8
0
  6
ByBlock
 62
     0
100
AcDbLine
 10
0.0
 20
0.0
 30
0.0
 11
-1.0
 21
-0.26794919
 31
0.0
  0
LINE
  5
2A
330
26
100
AcDbEntity
  8
0
  6
ByBlock
 62
     0
100
AcDbLine
 10
0.0
 20
0.0
 30
0.0
 11
-1.0
 21
0.0
 31
0.0
  0
ENDBLK
  5
2B
330
26
100
AcDbEntity
  8
0
100
AcDbBlockEnd
  0
BLOCK
  5
D8
330
D7
100
AcDbEntity
  8
0
100
AcDbBlockBegin
  2
*D1
 70
     1
 10
0.0
 20
0.0
 30
0.0
  3
*D1
  1

  0
LINE
  5
D9
330
D7
100
AcDbEntity
  8
SUNPO
 62
     0
370
    -2
100
AcDbLine
 10
75.50249967161388
 20
336.9758818167551
 30
0.0
 11
75.50249967161388
 21
344.9758818167551
 31
0.0
  0
LINE
  5
DA
330
D7
100
AcDbEntity
  8
SUNPO
 62
     0
370
    -2
100
AcDbLine
 10
117.5024996716139
 20
336.9758818167551
 30
0.0
 11
117.5024996716139
 21
344.9758818167551
 31
0.0
  0
LINE
  5
DB
330
D7
100
AcDbEntity
  8
SUNPO
 62
     0
370
    -2
100
AcDbLine
 10
77.50249967161387
 20
342.9758818167551
 30
0.0
 11
115.5024996716139
 21
342.9758818167551
 31
0.0
  0
INSERT
  5
DC
330
D7
100
AcDbEntity
  8
SUNPO
 62
     0
370
    -2
100
AcDbBlockReference
  2
_OPEN30
 10
75.50249967161388
 20
342.9758818167551
 30
0.0
 41
2.0
 42
2.0
 43
2.0
 50
180.0
  0
INSERT
  5
DD
330
D7
100
AcDbEntity
  8
SUNPO
 62
     0
370
    -2
100
AcDbBlockReference
  2
_OPEN30
 10
117.5024996716139
 20
342.9758818167551
 30
0.0
 41
2.0
 42
2.0
 43
2.0
  0
MTEXT
  5
DE
330
D7
100
AcDbEntity
  8
SUNPO
 62
     0
100
AcDbMText
 10
96.50249967161387
 20
344.7258818167551
 30
0.0
 40
2.5
 41
0.0
 71
     5
 72
     1
  1
\A1;210
 73
     1
 44
1.0
1001
ACAD
1000
MTEXTBEGIN
1070
    73
1070
     1
1070
    44
1040
1.0
1070
    74
1070
     0
1000
MTEXTEND
  0
POINT
  5
DF
330
D7
100
AcDbEntity
  8
DEFPOINTS
 62
     0
100
AcDbPoint
 10
75.50249967161388
 20
334.9758818167551
 30
0.0
  0
POINT
  5
E0
330
D7
100
AcDbEntity
  8
DEFPOINTS
 62
     0
100
AcDbPoint
 10
117.5024996716139
 20
334.9758818167551
 30
0.0
  0
POINT
  5
E1
330
D7
100
AcDbEntity
  8
DEFPOINTS
 62
     0
100
AcDbPoint
 10
117.5024996716139
 20
342.9758818167551
 30
0.0
  0
ENDBLK
  5
E2
330
D7
100
AcDbEntity
  8
0
100
AcDbBlockEnd
  0
BLOCK
  5
CB
330
CA
100
AcDbEntity
  8
0
100
AcDbBlockBegin
  2
*D2
 70
     1
 10
0.0
 20
0.0
 30
0.0
  3
*D2
  1

  0
LINE
  5
CC
330
CA
100
AcDbEntity
  8
SUNPO
 62
     0
370
    -2
100
AcDbLine
 10
55.79183486190948
 20
326.1758835859751
 30
0.0
 11
63.79183486190948
 21
326.1758835859751
 31
0.0
  0
LINE
  5
CD
330
CA
100
AcDbEntity
  8
SUNPO
 62
     0
370
    -2
100
AcDbLine
 10
55.79183486190948
 20
334.9758818167559
 30
0.0
 11
63.79183486190948
 21
334.9758818167559
 31
0.0
  0
LINE
  5
CE
330
CA
100
AcDbEntity
  8
SUNPO
 62
     0
370
    -2
100
AcDbLine
 10
61.79183486190948
 20
328.1758835859751
 30
0.0
 11
61.79183486190948
 21
332.9758818167559
 31
0.0
  0
INSERT
  5
CF
330
CA
100
AcDbEntity
  8
SUNPO
 62
     0
370
    -2
100
AcDbBlockReference
  2
_OPEN30
 10
61.79183486190948
 20
326.1758835859751
 30
0.0
 41
2.0
 42
2.0
 43
2.0
 50
270.0
  0
INSERT
  5
D0
330
CA
100
AcDbEntity
  8
SUNPO
 62
     0
370
    -2
100
AcDbBlockReference
  2
_OPEN30
 10
61.79183486190948
 20
334.9758818167559
 30
0.0
 41
2.0
 42
2.0
 43
2.0
 50
90.0
  0
MTEXT
  5
D1
330
CA
100
AcDbEntity
  8
SUNPO
 62
     0
100
AcDbMText
 10
60.04183486190942
 20
330.5758827013655
 30
0.0
 40
2.5
 41
0.0
 71
     5
 72
     1
  1
\A1;44
 11
0.0000000000000001
 21
1.0
 31
0.0
 73
     1
 44
1.0
1001
ACAD
1000
MTEXTBEGIN
1070
    73
1070
     1
1070
    44
1040
1.0
1070
    74
1070
     0
1000
MTEXTEND
  0
POINT
  5
D2
330
CA
100
AcDbEntity
  8
DEFPOINTS
 62
     0
100
AcDbPoint
 10
53.79183486190948
 20
326.1758835859751
 30
0.0
  0
POINT
  5
D3
330
CA
100
AcDbEntity
  8
DEFPOINTS
 62
     0
100
AcDbPoint
 10
53.79183486190948
 20
334.9758818167559
 30
0.0
  0
POINT
  5
D4
330
CA
100
AcDbEntity
  8
DEFPOINTS
 62
     0
100
AcDbPoint
 10
61.79183486190948
 20
334.9758818167559
 30
0.0
  0
ENDBLK
  5
D5
330
CA
100
AcDbEntity
  8
0
100
AcDbBlockEnd
  0
BLOCK
  5
BD
330
BC
100
AcDbEntity
  8
0
100
AcDbBlockBegin
  2
*D3
 70
     1
 10
0.0
 20
0.0
 30
0.0
  3
*D3
  1

  0
LINE
  5
BE
330
BC
100
AcDbEntity
  8
SUNPO
 62
     0
370
    -2
100
AcDbLine
 10
11.79183486190948
 20
336.9758818167559
 30
0.0
 11
11.79183486190948
 21
344.9758818167559
 31
0.0
  0
LINE
  5
BF
330
BC
100
AcDbEntity
  8
SUNPO
 62
     0
370
    -2
100
AcDbLine
 10
53.79183486190948
 20
336.9758818167559
 30
0.0
 11
53.79183486190948
 21
344.9758818167559
 31
0.0
  0
LINE
  5
C0
330
BC
100
AcDbEntity
  8
SUNPO
 62
     0
370
    -2
100
AcDbLine
 10
13.79183486190948
 20
342.9758818167559
 30
0.0
 11
51.79183486190948
 21
342.9758818167559
 31
0.0
  0
INSERT
  5
C1
330
BC
100
AcDbEntity
  8
SUNPO
 62
     0
370
    -2
100
AcDbBlockReference
  2
_OPEN30
 10
11.79183486190948
 20
342.9758818167559
 30
0.0
 41
2.0
 42
2.0
 43
2.0
 50
180.0
  0
INSERT
  5
C2
330
BC
100
AcDbEntity
  8
SUNPO
 62
     0
370
    -2
100
AcDbBlockReference
  2
_OPEN30
 10
53.79183486190948
 20
342.9758818167559
 30
0.0
 41
2.0
 42
2.0
 43
2.0
  0
MTEXT
  5
C3
330
BC
100
AcDbEntity
  8
SUNPO
 62
     0
100
AcDbMText
 10
32.79183486190948
 20
344.7258818167559
 30
0.0
 40
2.5
 41
0.0
 71
     5
 72
     1
  1
\A1;210
 73
     1
 44
1.0
1001
ACAD
1000
MTEXTBEGIN
1070
    73
1070
     1
1070
    44
1040
1.0
1070
    74
1070
     0
1000
MTEXTEND
  0
POINT
  5
C4
330
BC
100
AcDbEntity
  8
DEFPOINTS
 62
     0
100
AcDbPoint
 10
11.79183486190948
 20
334.9758818167559
 30
0.0
  0
POINT
  5
C6
330
BC
100
AcDbEntity
  8
DEFPOINTS
 62
     0
100
AcDbPoint
 10
53.79183486190948
 20
334.9758818167559
 30
0.0
  0
POINT
  5
C7
330
BC
100
AcDbEntity
  8
DEFPOINTS
 62
     0
100
AcDbPoint
 10
53.79183486190948
 20
342.9758818167559
 30
0.0
  0
ENDBLK
  5
C8
330
BC
100
AcDbEntity
  8
0
100
AcDbBlockEnd
  0
BLOCK
  5
119
330
10F
100
AcDbEntity
  8
0
100
AcDbBlockBegin
  2
*D4
 70
     1
 10
0.0
 20
0.0
 30
0.0
  3
*D4
  1

  0
LINE
  5
110
330
10F
100
AcDbEntity
  8
SUNPO
 62
     0
370
    -2
100
AcDbLine
 10
9.583843478044471
 20
28.66995969280504
 30
0.0
 11
9.583843478044471
 21
36.66995969280504
 31
0.0
  0
LINE
  5
111
330
10F
100
AcDbEntity
  8
SUNPO
 62
     0
370
    -2
100
AcDbLine
 10
51.58384347804447
 20
28.66995969280504
 30
0.0
 11
51.58384347804447
 21
36.66995969280504
 31
0.0
  0
LINE
  5
112
330
10F
100
AcDbEntity
  8
SUNPO
 62
     0
370
    -2
100
AcDbLine
 10
11.58384347804447
 20
34.66995969280504
 30
0.0
 11
49.58384347804447
 21
34.66995969280504
 31
0.0
  0
INSERT
  5
113
330
10F
100
AcDbEntity
  8
SUNPO
 62
     0
370
    -2
100
AcDbBlockReference
  2
_OPEN30
 10
9.583843478044471
 20
34.66995969280504
 30
0.0
 41
2.0
 42
2.0
 43
2.0
 50
180.0
  0
INSERT
  5
114
330
10F
100
AcDbEntity
  8
SUNPO
 62
     0
370
    -2
100
AcDbBlockReference
  2
_OPEN30
 10
51.58384347804447
 20
34.66995969280504
 30
0.0
 41
2.0
 42
2.0
 43
2.0
  0
MTEXT
  5
115
330
10F
100
AcDbEntity
  8
SUNPO
 62
     0
100
AcDbMText
 10
30.58384347804447
 20
36.41995969280504
 30
0.0
 40
2.5
 41
0.0
 71
     5
 72
     1
  1
\A1;210
 73
     1
 44
1.0
1001
ACAD
1000
MTEXTBEGIN
1070
    73
1070
     1
1070
    44
1040
1.0
1070
    74
1070
     0
1000
MTEXTEND
  0
POINT
  5
116
330
10F
100
AcDbEntity
  8
DEFPOINTS
 62
     0
100
AcDbPoint
 10
9.583843478044471
 20
26.66995969280504
 30
0.0
  0
POINT
  5
117
330
10F
100
AcDbEntity
  8
DEFPOINTS
 62
     0
100
AcDbPoint
 10
51.58384347804447
 20
26.66995969280504
 30
0.0
  0
POINT
  5
118
330
10F
100
AcDbEntity
  8
DEFPOINTS
 62
     0
100
AcDbPoint
 10
51.58384347804447
 20
34.66995969280504
 30
0.0
  0
ENDBLK
  5
11A
330
10F
100
AcDbEntity
  8
0
100
AcDbBlockEnd
  0
BLOCK
  5
125
330
11B
100
AcDbEntity
  8
0
100
AcDbBlockBegin
  2
*D5
 70
     1
 10
0.0
 20
0.0
 30
0.0
  3
*D5
  1

  0
LINE
  5
11C
330
11B
100
AcDbEntity
  8
SUNPO
 62
     0
370
    -2
100
AcDbLine
 10
-10.12682133165992
 20
17.869961462025
 30
0.0
 11
-2.126821331659928
 21
17.869961462025
 31
0.0
  0
LINE
  5
11D
330
11B
100
AcDbEntity
  8
SUNPO
 62
     0
370
    -2
100
AcDbLine
 10
-10.12682133165992
 20
26.66995969280583
 30
0.0
 11
-2.126821331659925
 21
26.66995969280583
 31
0.0
  0
LINE
  5
11E
330
11B
100
AcDbEntity
  8
SUNPO
 62
     0
370
    -2
100
AcDbLine
 10
-4.126821331659927
 20
19.869961462025
 30
0.0
 11
-4.126821331659926
 21
24.66995969280583
 31
0.0
  0
INSERT
  5
11F
330
11B
100
AcDbEntity
  8
SUNPO
 62
     0
370
    -2
100
AcDbBlockReference
  2
_OPEN30
 10
-4.126821331659928
 20
17.869961462025
 30
0.0
 41
2.0
 42
2.0
 43
2.0
 50
270.0
  0
INSERT
  5
120
330
11B
100
AcDbEntity
  8
SUNPO
 62
     0
370
    -2
100
AcDbBlockReference
  2
_OPEN30
 10
-4.126821331659925
 20
26.66995969280583
 30
0.0
 41
2.0
 42
2.0
 43
2.0
 50
90.0
  0
MTEXT
  5
121
330
11B
100
AcDbEntity
  8
SUNPO
 62
     0
100
AcDbMText
 10
-5.87682133165993
 20
22.26996057741541
 30
0.0
 40
2.5
 41
0.0
 71
     5
 72
     1
  1
\A1;44
 11
0.0000000000000001
 21
1.0
 31
0.0
 73
     1
 44
1.0
1001
ACAD
1000
MTEXTBEGIN
1070
    73
1070
     1
1070
    44
1040
1.0
1070
    74
1070
     0
1000
MTEXTEND
  0
POINT
  5
122
330
11B
100
AcDbEntity
  8
DEFPOINTS
 62
     0
100
AcDbPoint
 10
-12.12682133165992
 20
17.869961462025
 30
0.0
  0
POINT
  5
123
330
11B
100
AcDbEntity
  8
DEFPOINTS
 62
     0
100
AcDbPoint
 10
-12.12682133165992
 20
26.66995969280583
 30
0.0
  0
POINT
  5
124
330
11B
100
AcDbEntity
  8
DEFPOINTS
 62
     0
100
AcDbPoint
 10
-4.126821331659925
 20
26.66995969280583
 30
0.0
  0
ENDBLK
  5
126
330
11B
100
AcDbEntity
  8
0
100
AcDbBlockEnd
  0
BLOCK
  5
131
330
127
100
AcDbEntity
  8
0
100
AcDbBlockBegin
  2
*D6
 70
     1
 10
0.0
 20
0.0
 30
0.0
  3
*D6
  1

  0
LINE
  5
128
330
127
100
AcDbEntity
  8
SUNPO
 62
     0
370
    -2
100
AcDbLine
 10
-54.12682133165993
 20
28.66995969280583
 30
0.0
 11
-54.12682133165993
 21
36.66995969280583
 31
0.0
  0
LINE
  5
129
330
127
100
AcDbEntity
  8
SUNPO
 62
     0
370
    -2
100
AcDbLine
 10
-12.12682133165992
 20
28.66995969280583
 30
0.0
 11
-12.12682133165992
 21
36.66995969280583
 31
0.0
  0
LINE
  5
12A
330
127
100
AcDbEntity
  8
SUNPO
 62
     0
370
    -2
100
AcDbLine
 10
-52.12682133165992
 20
34.66995969280584
 30
0.0
 11
-14.12682133165992
 21
34.66995969280584
 31
0.0
  0
INSERT
  5
12B
330
127
100
AcDbEntity
  8
SUNPO
 62
     0
370
    -2
100
AcDbBlockReference
  2
_OPEN30
 10
-54.12682133165993
 20
34.66995969280584
 30
0.0
 41
2.0
 42
2.0
 43
2.0
 50
180.0
  0
INSERT
  5
12C
330
127
100
AcDbEntity
  8
SUNPO
 62
     0
370
    -2
100
AcDbBlockReference
  2
_OPEN30
 10
-12.12682133165992
 20
34.66995969280584
 30
0.0
 41
2.0
 42
2.0
 43
2.0
  0
MTEXT
  5
12D
330
127
100
AcDbEntity
  8
SUNPO
 62
     0
100
AcDbMText
 10
-33.12682133165993
 20
36.41995969280583
 30
0.0
 40
2.5
 41
0.0
 71
     5
 72
     1
  1
\A1;210
 73
     1
 44
1.0
1001
ACAD
1000
MTEXTBEGIN
1070
    73
1070
     1
1070
    44
1040
1.0
1070
    74
1070
     0
1000
MTEXTEND
  0
POINT
  5
12E
330
127
100
AcDbEntity
  8
DEFPOINTS
 62
     0
100
AcDbPoint
 10
-54.12682133165993
 20
26.66995969280583
 30
0.0
  0
POINT
  5
12F
330
127
100
AcDbEntity
  8
DEFPOINTS
 62
     0
100
AcDbPoint
 10
-12.12682133165992
 20
26.66995969280583
 30
0.0
  0
POINT
  5
130
330
127
100
AcDbEntity
  8
DEFPOINTS
 62
     0
100
AcDbPoint
 10
-12.12682133165992
 20
34.66995969280584
 30
0.0
  0
ENDBLK
  5
132
330
127
100
AcDbEntity
  8
0
100
AcDbBlockEnd
  0
ENDSEC
  0
SECTION
  2
ENTITIES
  0
TEXT
  5
34
330
2
100
AcDbEntity
  8
MOJI1
100
AcDbText
 10
-36.91865619356916
 20
58.19329201569178
 30
0.0
 40
4.0
  1
赤外線ワイヤレス受信機
 41
0.95
100
AcDbText
  0
TEXT
  5
36
330
2
100
AcDbEntity
  8
TOUROKU
100
AcDbText
 10
42.681293839358
 20
52.19329201569166
 30
0.0
 40
2.0
  1
ＷＸＬＲ１００Ｂ
 72
     2
 11
61.081293839358
 21
52.19329201569166
 31
0.0
100
AcDbText
  0
LINE
  5
38
330
2
100
AcDbEntity
  8
GAIKEI
  6
Continuous
 62
     1
100
AcDbLine
 10
-17.6393512136359
 20
17.54996146202501
 30
0.0
 11
-17.6393512136359
 21
17.869961462025
 31
0.0
  0
LINE
  5
39
330
2
100
AcDbEntity
  8
GAIKEI
  6
Continuous
 62
     1
100
AcDbLine
 10
-19.65416442635796
 20
17.54996146202501
 30
0.0
 11
-19.65416442635796
 21
17.869961462025
 31
0.0
  0
CIRCLE
  5
3A
330
2
100
AcDbEntity
  8
GAIKEI
  6
Continuous
 62
     1
100
AcDbCircle
 10
-25.14508836529956
 20
21.36704117598037
 30
0.0
 40
1.465866951212204
  0
CIRCLE
  5
3B
330
2
100
AcDbEntity
  8
GAIKEI
  6
Continuous
 62
     1
100
AcDbCircle
 10
-25.14508836529956
 20
21.36704117598037
 30
0.0
 40
1.794640065292278
  0
CIRCLE
  5
3C
330
2
100
AcDbEntity
  8
GAIKEI
  6
Continuous
 62
     1
100
AcDbCircle
 10
-25.15024060266592
 20
24.27172954116065
 30
0.0
 40
0.3740384898897559
  0
LINE
  5
3D
330
2
100
AcDbEntity
  8
GAIKEI
  6
Continuous
 62
     1
100
AcDbLine
 10
-25.73610148946614
 20
20.44277567305102
 30
0.0
 11
-25.11342126748423
 21
21.06545589578718
 31
0.0
  0
LINE
  5
3E
330
2
100
AcDbEntity
  8
GAIKEI
  6
Continuous
 62
     1
100
AcDbLine
 10
-25.11342126738327
 20
21.30857518613192
 30
0.0
 11
-25.11812472770157
 21
21.31327864518244
 31
0.0
  0
LINE
  5
3F
330
2
100
AcDbEntity
  8
GAIKEI
  6
Continuous
 62
     1
100
AcDbLine
 10
-25.36124401794132
 20
21.31327864528737
 30
0.0
 11
-25.98392424007864
 21
20.69059842432989
 31
0.0
  0
LINE
  5
40
330
2
100
AcDbEntity
  8
GAIKEI
  6
Continuous
 62
     1
100
AcDbLine
 10
-25.98392424007864
 20
20.44747913398521
 30
0.0
 11
-25.97922078042927
 21
20.44277567366947
 31
0.0
  0
ARC
  5
41
330
2
100
AcDbEntity
  8
GAIKEI
  6
Continuous
 62
     1
100
AcDbCircle
 10
-25.86236459490624
 20
20.56903877915755
 30
0.0
 40
0.17191129884
100
AcDbArc
 50
135.0
 51
225.0
  0
ARC
  5
42
330
2
100
AcDbEntity
  8
GAIKEI
  6
Continuous
 62
     1
100
AcDbCircle
 10
-25.85766113463842
 20
20.56433531822336
 30
0.0
 40
0.17191129884
100
AcDbArc
 50
224.9999997085007
 51
315.0000000000001
  0
ARC
  5
43
330
2
100
AcDbEntity
  8
GAIKEI
  6
Continuous
 62
     1
100
AcDbCircle
 10
-25.23968437287397
 20
21.1917190000101
 30
0.0
 40
0.17191129884
100
AcDbArc
 50
45.00000000000103
 51
134.9999999505461
  0
ARC
  5
44
330
2
100
AcDbEntity
  8
GAIKEI
  6
Continuous
 62
     1
100
AcDbCircle
 10
-25.23498091260603
 20
21.18701554101006
 30
0.0
 40
0.17191129884
100
AcDbArc
 50
314.9999999761955
 51
44.99999997619651
  0
CIRCLE
  5
45
330
2
100
AcDbEntity
  8
GAIKEI
  6
Continuous
 62
     1
100
AcDbCircle
 10
-27.19885290333286
 20
21.5642966189414
 30
0.0
 40
0.0813124806465349
  0
CIRCLE
  5
46
330
2
100
AcDbEntity
  8
GAIKEI
  6
Continuous
 62
     1
100
AcDbCircle
 10
-27.05191242217654
 20
20.57908146661958
 30
0.0
 40
0.0813124806465349
  0
CIRCLE
  5
47
330
2
100
AcDbEntity
  8
GAIKEI
  6
Continuous
 62
     1
100
AcDbCircle
 10
-26.46625303658562
 20
19.78230700306483
 30
0.0
 40
0.0813124806465349
  0
CIRCLE
  5
48
330
2
100
AcDbEntity
  8
GAIKEI
  6
Continuous
 62
     1
100
AcDbCircle
 10
-25.14508836529956
 20
23.43025674577928
 30
0.0
 40
0.0813124806465349
  0
CIRCLE
  5
49
330
2
100
AcDbEntity
  8
GAIKEI
  6
Continuous
 62
     1
100
AcDbCircle
 10
-26.11913685611171
 20
23.18585618169351
 30
0.0
 40
0.0813124806465349
  0
CIRCLE
  5
4A
330
2
100
AcDbEntity
  8
GAIKEI
  6
Continuous
 62
     1
100
AcDbCircle
 10
-26.83639337663795
 20
22.54871196180966
 30
0.0
 40
0.0813124806465349
  0
CIRCLE
  5
4B
330
2
100
AcDbEntity
  8
GAIKEI
  6
Continuous
 62
     1
100
AcDbCircle
 10
-23.45378335396117
 20
22.54871196180966
 30
0.0
 40
0.0813124806465349
  0
CIRCLE
  5
4C
330
2
100
AcDbEntity
  8
GAIKEI
  6
Continuous
 62
     1
100
AcDbCircle
 10
-23.8239236940135
 20
19.78230700306483
 30
0.0
 40
0.0813124806465349
  0
CIRCLE
  5
4D
330
2
100
AcDbEntity
  8
GAIKEI
  6
Continuous
 62
     1
100
AcDbCircle
 10
-23.23826430842257
 20
20.57908146661958
 30
0.0
 40
0.0813124806465349
  0
CIRCLE
  5
4E
330
2
100
AcDbEntity
  8
GAIKEI
  6
Continuous
 62
     1
100
AcDbCircle
 10
-23.09132382726637
 20
21.5642966189414
 30
0.0
 40
0.0813124806465349
  0
CIRCLE
  5
4F
330
2
100
AcDbEntity
  8
GAIKEI
  6
Continuous
 62
     1
100
AcDbCircle
 10
-24.1710398744874
 20
23.18585618169351
 30
0.0
 40
0.0813124806465349
  0
CIRCLE
  5
50
330
2
100
AcDbEntity
  8
GAIKEI
  6
Continuous
 62
     1
100
AcDbCircle
 10
-34.75734730280147
 20
23.18585618169351
 30
0.0
 40
0.0813124806465349
  0
CIRCLE
  5
51
330
2
100
AcDbEntity
  8
GAIKEI
  6
Continuous
 62
     1
100
AcDbCircle
 10
-33.67763125558042
 20
21.5642966189414
 30
0.0
 40
0.0813124806465349
  0
CIRCLE
  5
52
330
2
100
AcDbEntity
  8
GAIKEI
  6
Continuous
 62
     1
100
AcDbCircle
 10
-33.82457173673663
 20
20.57908146661958
 30
0.0
 40
0.0813124806465349
  0
CIRCLE
  5
53
330
2
100
AcDbEntity
  8
GAIKEI
  6
Continuous
 62
     1
100
AcDbCircle
 10
-34.41023112232756
 20
19.78230700306483
 30
0.0
 40
0.0813124806465349
  0
CIRCLE
  5
54
330
2
100
AcDbEntity
  8
GAIKEI
  6
Continuous
 62
     1
100
AcDbCircle
 10
-34.04009078227523
 20
22.54871196180966
 30
0.0
 40
0.0813124806465349
  0
CIRCLE
  5
55
330
2
100
AcDbEntity
  8
GAIKEI
  6
Continuous
 62
     1
100
AcDbCircle
 10
-37.422700804952
 20
22.54871196180966
 30
0.0
 40
0.0813124806465349
  0
CIRCLE
  5
56
330
2
100
AcDbEntity
  8
GAIKEI
  6
Continuous
 62
     1
100
AcDbCircle
 10
-36.70544428442577
 20
23.18585618169351
 30
0.0
 40
0.0813124806465349
  0
CIRCLE
  5
57
330
2
100
AcDbEntity
  8
GAIKEI
  6
Continuous
 62
     1
100
AcDbCircle
 10
-35.73139579361362
 20
23.43025674577928
 30
0.0
 40
0.0813124806465349
  0
CIRCLE
  5
58
330
2
100
AcDbEntity
  8
GAIKEI
  6
Continuous
 62
     1
100
AcDbCircle
 10
-37.05256046489967
 20
19.78230700306483
 30
0.0
 40
0.0813124806465349
  0
CIRCLE
  5
59
330
2
100
AcDbEntity
  8
GAIKEI
  6
Continuous
 62
     1
100
AcDbCircle
 10
-37.6382198504906
 20
20.57908146661958
 30
0.0
 40
0.0813124806465349
  0
CIRCLE
  5
5A
330
2
100
AcDbEntity
  8
GAIKEI
  6
Continuous
 62
     1
100
AcDbCircle
 10
-37.78516033164692
 20
21.5642966189414
 30
0.0
 40
0.0813124806465349
  0
ARC
  5
5B
330
2
100
AcDbEntity
  8
GAIKEI
  6
Continuous
 62
     1
100
AcDbCircle
 10
-35.82128834092009
 20
21.18701554101006
 30
0.0
 40
0.17191129884
100
AcDbArc
 50
314.9999999761955
 51
44.99999997619651
  0
ARC
  5
5C
330
2
100
AcDbEntity
  8
GAIKEI
  6
Continuous
 62
     1
100
AcDbCircle
 10
-35.82599180118803
 20
21.1917190000101
 30
0.0
 40
0.17191129884
100
AcDbArc
 50
45.00000000000103
 51
134.9999999505461
  0
ARC
  5
5D
330
2
100
AcDbEntity
  8
GAIKEI
  6
Continuous
 62
     1
100
AcDbCircle
 10
-36.44396856295248
 20
20.56433531822336
 30
0.0
 40
0.17191129884
100
AcDbArc
 50
224.9999997085007
 51
315.0000000000001
  0
ARC
  5
5E
330
2
100
AcDbEntity
  8
GAIKEI
  6
Continuous
 62
     1
100
AcDbCircle
 10
-36.4486720232203
 20
20.56903877915755
 30
0.0
 40
0.17191129884
100
AcDbArc
 50
135.0
 51
225.0
  0
LINE
  5
5F
330
2
100
AcDbEntity
  8
GAIKEI
  6
Continuous
 62
     1
100
AcDbLine
 10
-36.5702316683927
 20
20.44747913398521
 30
0.0
 11
-36.56552820874333
 21
20.44277567366947
 31
0.0
  0
LINE
  5
60
330
2
100
AcDbEntity
  8
GAIKEI
  6
Continuous
 62
     1
100
AcDbLine
 10
-35.94755144625537
 20
21.31327864528737
 30
0.0
 11
-36.5702316683927
 21
20.69059842432989
 31
0.0
  0
LINE
  5
61
330
2
100
AcDbEntity
  8
GAIKEI
  6
Continuous
 62
     1
100
AcDbLine
 10
-35.69972869569733
 20
21.30857518613192
 30
0.0
 11
-35.70443215601563
 21
21.31327864518244
 31
0.0
  0
LINE
  5
62
330
2
100
AcDbEntity
  8
GAIKEI
  6
Continuous
 62
     1
100
AcDbLine
 10
-36.3224089177802
 20
20.44277567305102
 30
0.0
 11
-35.69972869579828
 21
21.06545589578718
 31
0.0
  0
CIRCLE
  5
63
330
2
100
AcDbEntity
  8
GAIKEI
  6
Continuous
 62
     1
100
AcDbCircle
 10
-35.73654803097998
 20
24.27172954116065
 30
0.0
 40
0.3740384898897559
  0
CIRCLE
  5
64
330
2
100
AcDbEntity
  8
GAIKEI
  6
Continuous
 62
     1
100
AcDbCircle
 10
-35.73139579361362
 20
21.36704117598037
 30
0.0
 40
1.794640065292278
  0
CIRCLE
  5
65
330
2
100
AcDbEntity
  8
GAIKEI
  6
Continuous
 62
     1
100
AcDbCircle
 10
-35.73139579361362
 20
21.36704117598037
 30
0.0
 40
1.465866951212204
  0
LWPOLYLINE
  5
66
330
2
100
AcDbEntity
  8
GAIKEI
  6
Continuous
 62
     1
100
AcDbPolyline
 90
        4
 70
     1
 43
0.0
 10
-47.37813168727188
 20
23.40237400539985
 10
-46.2204161496528
 20
23.40237400539985
 10
-46.2204161496528
 20
23.9905302109949
 10
-47.37813168727188
 20
23.9905302109949
  0
CIRCLE
  5
67
330
2
100
AcDbEntity
  8
GAIKEI
  6
Continuous
 62
     1
100
AcDbCircle
 10
-46.7992739184624
 20
20.89796749558553
 30
0.0
 40
1.802413729102524
  0
CIRCLE
  5
68
330
2
100
AcDbEntity
  8
GAIKEI
  6
Continuous
 62
     1
100
AcDbCircle
 10
-46.7992739184624
 20
20.89796749558553
 30
0.0
 40
1.309156090149326
  0
LINE
  5
69
330
2
100
AcDbEntity
  8
GAIKEI
  6
Continuous
 62
     1
100
AcDbLine
 10
-44.26558525447262
 20
24.61663152890719
 30
0.0
 11
-44.26558525447262
 21
18.43150671717103
 31
0.0
  0
LINE
  5
6A
330
2
100
AcDbEntity
  8
GAIKEI
  6
Continuous
 62
     1
100
AcDbLine
 10
-49.31398362560696
 20
24.61663152890719
 30
0.0
 11
-44.26558525447262
 21
24.61663152890719
 31
0.0
  0
LINE
  5
6B
330
2
100
AcDbEntity
  8
GAIKEI
  6
Continuous
 62
     1
100
AcDbLine
 10
-49.31398362560696
 20
24.61663152890719
 30
0.0
 11
-49.31398362560696
 21
18.43150671717103
 31
0.0
  0
LINE
  5
6C
330
2
100
AcDbEntity
  8
GAIKEI
  6
Continuous
 62
     1
100
AcDbLine
 10
-49.31398362560696
 20
18.43150671717103
 30
0.0
 11
-44.26558525447262
 21
18.43150671717103
 31
0.0
  0
LINE
  5
6D
330
2
100
AcDbEntity
  8
GAIKEI
  6
Continuous
 62
     1
100
AcDbLine
 10
-49.46581528036813
 20
24.8063595668234
 30
0.0
 11
-49.46581528036813
 21
18.24177867925488
 31
0.0
  0
LINE
  5
6E
330
2
100
AcDbEntity
  8
GAIKEI
  6
Continuous
 62
     1
100
AcDbLine
 10
-44.11375359971145
 20
24.8063595668234
 30
0.0
 11
-49.46581528036813
 21
24.8063595668234
 31
0.0
  0
LINE
  5
6F
330
2
100
AcDbEntity
  8
GAIKEI
  6
Continuous
 62
     1
100
AcDbLine
 10
-44.11375359971145
 20
18.24177867925488
 30
0.0
 11
-44.11375359971145
 21
24.8063595668234
 31
0.0
  0
LINE
  5
70
330
2
100
AcDbEntity
  8
GAIKEI
  6
Continuous
 62
     1
100
AcDbLine
 10
-49.46581528036813
 20
18.24177867925488
 30
0.0
 11
-44.11375359971145
 21
18.24177867925488
 31
0.0
  0
LINE
  5
71
330
2
100
AcDbEntity
  8
GAIKEI
  6
Continuous
 62
     1
100
AcDbLine
 10
-46.59947823696188
 20
17.54996146202495
 30
0.0
 11
-46.59947823696188
 21
17.869961462025
 31
0.0
  0
LINE
  5
72
330
2
100
AcDbEntity
  8
GAIKEI
  6
Continuous
 62
     1
100
AcDbLine
 10
-48.61429144968394
 20
17.54996146202495
 30
0.0
 11
-48.61429144968394
 21
17.869961462025
 31
0.0
  0
LINE
  5
73
330
2
100
AcDbEntity
  8
GAIKEI
  6
Continuous
 62
     1
100
AcDbLine
 10
-54.12682133165993
 20
26.41488719059737
 30
0.0
 11
-12.12682133165992
 21
26.41488719059737
 31
0.0
  0
LINE
  5
74
330
2
100
AcDbEntity
  8
GAIKEI
  6
Continuous
100
AcDbLine
 10
-54.12682133165993
 20
26.66995969280583
 30
0.0
 11
-12.12682133165992
 21
26.66995969280583
 31
0.0
  0
LINE
  5
75
330
2
100
AcDbEntity
  8
GAIKEI
  6
Continuous
100
AcDbLine
 10
-54.12682133165993
 20
17.869961462025
 30
0.0
 11
-12.12682133165992
 21
17.869961462025
 31
0.0
  0
LINE
  5
76
330
2
100
AcDbEntity
  8
GAIKEI
  6
Continuous
100
AcDbLine
 10
-12.12682133165992
 20
17.869961462025
 30
0.0
 11
-12.12682133165992
 21
26.66995969280583
 31
0.0
  0
LINE
  5
77
330
2
100
AcDbEntity
  8
GAIKEI
  6
Continuous
100
AcDbLine
 10
-54.12682133165993
 20
17.869961462025
 30
0.0
 11
-54.12682133165993
 21
26.66995969280583
 31
0.0
  0
LINE
  5
78
330
2
100
AcDbEntity
  8
GAIKEI
  6
Continuous
100
AcDbLine
 10
12.77501464653028
 20
17.86996146202494
 30
0.0
 11
9.5838434780444
 21
17.86996146202494
 31
0.0
  0
LINE
  5
79
330
2
100
AcDbEntity
  8
GAIKEI
  6
Continuous
100
AcDbLine
 10
12.77501464653028
 20
26.66995969280583
 30
0.0
 11
51.5838434780444
 21
26.66995969280578
 31
0.0
  0
LINE
  5
7A
330
2
100
AcDbEntity
  8
GAIKEI
  6
Continuous
100
AcDbLine
 10
9.583843478044514
 20
26.41488719059737
 30
0.0
 11
12.77501464653028
 21
26.66995969280583
 31
0.0
  0
LINE
  5
7B
330
2
100
AcDbEntity
  8
GAIKEI
  6
Continuous
100
AcDbLine
 10
9.5838434780444
 20
17.86996146202494
 30
0.0
 11
9.583843478044514
 21
26.41488719059737
 31
0.0
  0
LINE
  5
7C
330
2
100
AcDbEntity
  8
GAIKEI
  6
Continuous
100
AcDbLine
 10
12.77501464653028
 20
17.86996146202494
 30
0.0
 11
12.77501464653028
 21
26.66995969280583
 31
0.0
  0
LINE
  5
7D
330
2
100
AcDbEntity
  8
GAIKEI
  6
Continuous
100
AcDbLine
 10
12.77501464653028
 20
18.18538862381439
 30
0.0
 11
51.20399004757667
 21
18.18538862381439
 31
0.0
  0
LINE
  5
7E
330
2
100
AcDbEntity
  8
GAIKEI
  6
Continuous
100
AcDbLine
 10
15.58596883483244
 20
17.54996146202501
 30
0.0
 11
15.26971710718771
 21
18.18538862381439
 31
0.0
  0
LINE
  5
7F
330
2
100
AcDbEntity
  8
GAIKEI
  6
Continuous
100
AcDbLine
 10
17.37269082188868
 20
17.54996146202501
 30
0.0
 11
17.66885996729797
 21
18.18538862381439
 31
0.0
  0
LINE
  5
80
330
2
100
AcDbEntity
  8
GAIKEI
  6
Continuous
100
AcDbLine
 10
51.5838434780444
 20
18.56048759721989
 30
0.0
 11
51.5838434780444
 21
26.66995969280578
 31
0.0
  0
LINE
  5
81
330
2
100
AcDbEntity
  8
GAIKEI
  6
Continuous
100
AcDbLine
 10
9.583843478044514
 20
19.90830783013973
 30
0.0
 11
7.983843478044491
 21
19.90830783013968
 31
0.0
  0
LINE
  5
82
330
2
100
AcDbEntity
  8
GAIKEI
  6
Continuous
100
AcDbLine
 10
9.583843478044514
 20
22.87050911159111
 30
0.0
 11
7.983843478044491
 21
22.87050911159111
 31
0.0
  0
LINE
  5
83
330
2
100
AcDbEntity
  8
GAIKEI
  6
Continuous
100
AcDbLine
 10
49.51456226333835
 20
17.54996146202501
 30
0.0
 11
49.81073140874764
 21
18.18538862381439
 31
0.0
  0
LINE
  5
84
330
2
100
AcDbEntity
  8
GAIKEI
  6
Continuous
100
AcDbLine
 10
47.72784027628222
 20
17.54996146202501
 30
0.0
 11
47.41158854863749
 21
18.18538862381439
 31
0.0
  0
LINE
  5
85
330
2
100
AcDbEntity
  8
GAIKEI
  6
Continuous
100
AcDbLine
 10
51.20399004757667
 20
18.56048759721989
 30
0.0
 11
51.5838434780444
 21
18.56048759721989
 31
0.0
  0
LINE
  5
86
330
2
100
AcDbEntity
  8
GAIKEI
  6
Continuous
100
AcDbLine
 10
51.20399004757667
 20
18.18538862381439
 30
0.0
 11
51.20399004757667
 21
18.56048759721989
 31
0.0
  0
CIRCLE
  5
87
330
2
100
AcDbEntity
  8
GAIKEI
  6
Continuous
 62
     1
100
AcDbCircle
 10
14.14052976016671
 20
24.63942877656808
 30
0.0
 40
0.273627177699596
  0
CIRCLE
  5
88
330
2
100
AcDbEntity
  8
GAIKEI
  6
Continuous
 62
     1
100
AcDbCircle
 10
14.14052976016671
 20
19.75322813561536
 30
0.0
 40
0.273627177699596
  0
CIRCLE
  5
89
330
2
100
AcDbEntity
  8
GAIKEI
  6
Continuous
 62
     1
100
AcDbCircle
 10
10.79728231353647
 20
22.56767950422136
 30
0.0
 40
0.8111682225787216
  0
CIRCLE
  5
8A
330
2
100
AcDbEntity
  8
GAIKEI
  6
Continuous
 62
     1
100
AcDbCircle
 10
10.79728231353647
 20
22.56767950422136
 30
0.0
 40
0.605888739565475
  0
LINE
  5
8B
330
2
100
AcDbEntity
  8
GAIKEI
  6
Continuous
 62
     1
100
AcDbLine
 10
10.79295357931539
 20
22.9643059871409
 30
0.0
 11
10.79295357931539
 21
22.22388613840866
 31
0.0
  0
LINE
  5
8C
330
2
100
AcDbEntity
  8
GAIKEI
  6
Continuous
 62
     1
100
AcDbLine
 10
10.44731173530351
 20
22.56941525669777
 30
0.0
 11
11.13859500835974
 21
22.56941525669777
 31
0.0
  0
CIRCLE
  5
8D
330
2
100
AcDbEntity
  8
GAIKEI
  6
Continuous
 62
     1
100
AcDbCircle
 10
39.33943636283527
 20
24.63942877656808
 30
0.0
 40
0.273627177699596
  0
LINE
  5
8E
330
2
100
AcDbEntity
  8
GAIKEI
  6
Continuous
 62
     1
100
AcDbLine
 10
19.10450712857721
 20
20.63996487604464
 30
0.0
 11
19.79579040163344
 21
20.63996487604464
 31
0.0
  0
LINE
  5
8F
330
2
100
AcDbEntity
  8
GAIKEI
  6
Continuous
 62
     1
100
AcDbLine
 10
19.45014897258898
 20
21.03485560648772
 30
0.0
 11
19.45014897258898
 21
20.29443575775548
 31
0.0
  0
CIRCLE
  5
90
330
2
100
AcDbEntity
  8
GAIKEI
  6
Continuous
 62
     1
100
AcDbCircle
 10
19.45447770681005
 20
20.63822912356824
 30
0.0
 40
0.605888739565475
  0
CIRCLE
  5
91
330
2
100
AcDbEntity
  8
GAIKEI
  6
Continuous
 62
     1
100
AcDbCircle
 10
19.45447770681005
 20
20.63822912356824
 30
0.0
 40
0.8111682225787216
  0
CIRCLE
  5
92
330
2
100
AcDbEntity
  8
GAIKEI
  6
Continuous
 62
     1
100
AcDbCircle
 10
19.45447770681005
 20
20.63822912356824
 30
0.0
 40
1.38524656510558
  0
CIRCLE
  5
93
330
2
100
AcDbEntity
  8
GAIKEI
  6
Continuous
 62
     1
100
AcDbCircle
 10
45.03059280460343
 20
20.63822912356824
 30
0.0
 40
1.38524656510558
  0
CIRCLE
  5
94
330
2
100
AcDbEntity
  8
GAIKEI
  6
Continuous
 62
     1
100
AcDbCircle
 10
45.03059280460343
 20
20.63822912356824
 30
0.0
 40
0.8111682225787216
  0
CIRCLE
  5
95
330
2
100
AcDbEntity
  8
GAIKEI
  6
Continuous
 62
     1
100
AcDbCircle
 10
45.03059280460343
 20
20.63822912356824
 30
0.0
 40
0.605888739565475
  0
LINE
  5
96
330
2
100
AcDbEntity
  8
GAIKEI
  6
Continuous
 62
     1
100
AcDbLine
 10
45.02626407038235
 20
21.03485560648772
 30
0.0
 11
45.02626407038235
 21
20.29443575775548
 31
0.0
  0
LINE
  5
97
330
2
100
AcDbEntity
  8
GAIKEI
  6
Continuous
 62
     1
100
AcDbLine
 10
44.68062222637047
 20
20.63996487604464
 30
0.0
 11
45.37190549942681
 21
20.63996487604464
 31
0.0
  0
LINE
  5
98
330
2
100
AcDbEntity
  8
GAIKEI
  6
Continuous
 62
     1
100
AcDbLine
 10
12.97685030861169
 20
25.57031321658553
 30
0.0
 11
12.97685030861169
 21
26.66995969280583
 31
0.0
  0
LINE
  5
99
330
2
100
AcDbEntity
  8
GAIKEI
  6
Continuous
 62
     1
100
AcDbLine
 10
12.77501464653028
 20
25.57031321658553
 30
0.0
 11
12.97685030861169
 21
25.57031321658553
 31
0.0
  0
LINE
  5
9A
330
2
100
AcDbEntity
  8
GAIKEI
  6
Continuous
 62
     1
100
AcDbLine
 10
53.19273375256137
 20
20.50017947091436
 30
0.0
 11
53.19273375256137
 21
22.0084287117478
 31
0.0
  0
LINE
  5
9B
330
2
100
AcDbEntity
  8
GAIKEI
  6
Continuous
 62
     1
100
AcDbLine
 10
51.5838434780444
 20
20.26786690491434
 30
0.0
 11
52.96042118656146
 21
20.2678669049144
 31
0.0
  0
LINE
  5
9C
330
2
100
AcDbEntity
  8
GAIKEI
  6
Continuous
 62
     1
100
AcDbLine
 10
51.98656580587817
 20
22.24074127774782
 30
0.0
 11
52.96042118656135
 21
22.24074127774782
 31
0.0
  0
LINE
  5
9D
330
2
100
AcDbEntity
  8
GAIKEI
  6
Continuous
 62
     1
100
AcDbLine
 10
52.96042118656135
 20
22.24074127774782
 30
0.0
 11
53.19273375256137
 21
22.0084287117478
 31
0.0
  0
LINE
  5
9E
330
2
100
AcDbEntity
  8
GAIKEI
  6
Continuous
 62
     1
100
AcDbLine
 10
53.19273375256137
 20
20.50017947091436
 30
0.0
 11
52.96042118656146
 21
20.2678669049144
 31
0.0
  0
LINE
  5
9F
330
2
100
AcDbEntity
  8
GAIKEI
  6
Continuous
 62
     1
100
AcDbLine
 10
51.5838434780444
 20
20.43227292208474
 30
0.0
 11
52.98123598554775
 21
20.43227292208474
 31
0.0
  0
LINE
  5
A0
330
2
100
AcDbEntity
  8
GAIKEI
  6
Continuous
 62
     1
100
AcDbLine
 10
51.98227331861062
 20
22.07633526057742
 30
0.0
 11
52.98123598554764
 21
22.07633526057742
 31
0.0
  0
LINE
  5
A1
330
2
100
AcDbEntity
  8
GAIKEI
  6
Continuous
 62
     1
100
AcDbLine
 10
52.98123598554775
 20
20.43227292208474
 30
0.0
 11
52.98123598554764
 21
22.07633526057742
 31
0.0
  0
LINE
  5
A2
330
2
100
AcDbEntity
  8
GAIKEI
  6
Continuous
 62
     1
100
AcDbLine
 10
51.82440225401785
 20
24.90724555574161
 30
0.0
 11
51.82440225401785
 21
26.152085753287
 31
0.0
  0
LINE
  5
A3
330
2
100
AcDbEntity
  8
GAIKEI
  6
Continuous
 62
     1
100
AcDbLine
 10
51.5838434780444
 20
24.90724555574161
 30
0.0
 11
51.82440225401785
 21
24.90724555574161
 31
0.0
  0
LINE
  5
A4
330
2
100
AcDbEntity
  8
GAIKEI
  6
Continuous
 62
     1
100
AcDbLine
 10
51.5838434780444
 20
26.152085753287
 30
0.0
 11
51.82440225401785
 21
26.152085753287
 31
0.0
  0
ARC
  5
A5
330
2
100
AcDbEntity
  8
GAIKEI
  6
Continuous
 62
     1
100
AcDbCircle
 10
50.71843826876352
 20
25.52966565451436
 30
0.0
 40
1.269079633449327
100
AcDbArc
 50
330.6298373264315
 51
29.37016267356478
  0
ARC
  5
A6
330
2
100
AcDbEntity
  8
GAIKEI
  6
Continuous
 62
     1
100
AcDbCircle
 10
50.71843826876352
 20
22.19159185611062
 30
0.0
 40
1.269079633449327
100
AcDbArc
 50
330.6298373264315
 51
29.37016267356478
  0
LINE
  5
A7
330
2
100
AcDbEntity
  8
GAIKEI
  6
Continuous
 62
     1
100
AcDbLine
 10
51.5838434780444
 20
22.81401195488326
 30
0.0
 11
51.82440225401785
 21
22.81401195488326
 31
0.0
  0
LINE
  5
A8
330
2
100
AcDbEntity
  8
GAIKEI
  6
Continuous
 62
     1
100
AcDbLine
 10
51.5838434780444
 20
21.56917175733787
 30
0.0
 11
51.82440225401785
 21
21.56917175733787
 31
0.0
  0
LINE
  5
A9
330
2
100
AcDbEntity
  8
GAIKEI
  6
Continuous
 62
     1
100
AcDbLine
 10
51.82440225401785
 20
21.56917175733787
 30
0.0
 11
51.82440225401785
 21
22.81401195488326
 31
0.0
  0
LINE
  5
AA
330
2
100
AcDbEntity
  8
GAIKEI
  6
Continuous
 62
     1
100
AcDbLine
 10
51.90639271093153
 20
22.78419322861385
 30
0.0
 11
52.68197545635235
 21
22.78419322861385
 31
0.0
  0
LINE
  5
AB
330
2
100
AcDbEntity
  8
GAIKEI
  6
Continuous
 62
     1
100
AcDbLine
 10
52.91428802235237
 20
23.01650579461386
 30
0.0
 11
52.91428802235237
 21
25.29714646973991
 31
0.0
  0
LINE
  5
AC
330
2
100
AcDbEntity
  8
GAIKEI
  6
Continuous
 62
     1
100
AcDbLine
 10
52.68197545635235
 20
25.52945903573994
 30
0.0
 11
51.98751788539301
 21
25.52945903573994
 31
0.0
  0
ARC
  5
AD
330
2
100
AcDbEntity
  8
GAIKEI
  6
Continuous
 62
     1
100
AcDbCircle
 10
52.68197545635235
 20
23.01650579461386
 30
0.0
 40
0.232312566
100
AcDbArc
 50
270.0
 51
0.0
  0
ARC
  5
AE
330
2
100
AcDbEntity
  8
GAIKEI
  6
Continuous
 62
     1
100
AcDbCircle
 10
52.68197545635235
 20
25.29714646973991
 30
0.0
 40
0.232312566
100
AcDbArc
 50
0.0
 51
90.0
  0
LINE
  5
AF
330
2
100
AcDbEntity
  8
GAIKEI
  6
Continuous
 62
     1
100
AcDbLine
 10
51.9082007512128
 20
23.17234122233049
 30
0.0
 11
52.91428802235237
 21
23.17234122233049
 31
0.0
  0
LINE
  5
B0
330
2
100
AcDbEntity
  8
GAIKEI
  6
Continuous
 62
     1
100
AcDbLine
 10
52.15891798750567
 20
23.63811906242347
 30
0.0
 11
52.15891798750556
 21
24.63318950866068
 31
0.0
  0
LINE
  5
B1
330
2
100
AcDbEntity
  8
GAIKEI
  6
Continuous
 62
     1
100
AcDbLine
 10
52.15891798750567
 20
23.63811906242347
 30
0.0
 11
52.91428802235237
 21
23.63811906242347
 31
0.0
  0
LINE
  5
B2
330
2
100
AcDbEntity
  8
GAIKEI
  6
Continuous
 62
     1
100
AcDbLine
 10
52.15891798750556
 20
24.63318950866068
 30
0.0
 11
52.91428802235237
 21
24.63318950866073
 31
0.0
  0
LINE
  5
B3
330
2
100
AcDbEntity
  8
GAIKEI
  6
Continuous
 62
     1
100
AcDbLine
 10
52.5401329265751
 20
23.63811906242347
 30
0.0
 11
52.54013292657498
 21
24.63318950866068
 31
0.0
  0
ARC
  5
B4
330
2
100
AcDbEntity
  8
GAIKEI
  6
Continuous
 62
     1
100
AcDbCircle
 10
50.7368523912828
 20
22.98371929671214
 30
0.0
 40
1.186438035101147
100
AcDbArc
 50
345.6076270935828
 51
44.44736202011492
  0
LINE
  5
B5
330
2
100
AcDbEntity
  8
GAIKEI
  6
Continuous
 62
     1
100
AcDbLine
 10
-19.65416442635796
 20
17.54996146202501
 30
0.0
 11
-17.6393512136359
 21
17.54996146202501
 31
0.0
  0
LINE
  5
B6
330
2
100
AcDbEntity
  8
GAIKEI
  6
Continuous
 62
     1
100
AcDbLine
 10
-48.61429144968394
 20
17.54996146202495
 30
0.0
 11
-46.59947823696188
 21
17.54996146202495
 31
0.0
  0
LINE
  5
B7
330
2
100
AcDbEntity
  8
GAIKEI
  6
Continuous
100
AcDbLine
 10
7.983843478044491
 20
19.90830783013968
 30
0.0
 11
7.983843478044491
 21
22.87050911159111
 31
0.0
  0
LINE
  5
B8
330
2
100
AcDbEntity
  8
GAIKEI
  6
Continuous
100
AcDbLine
 10
15.58596883483244
 20
17.54996146202501
 30
0.0
 11
17.37269082188868
 21
17.54996146202501
 31
0.0
  0
LINE
  5
B9
330
2
100
AcDbEntity
  8
GAIKEI
  6
Continuous
100
AcDbLine
 10
47.72784027628222
 20
17.54996146202501
 30
0.0
 11
49.51456226333835
 21
17.54996146202501
 31
0.0
  0
DIMENSION
  5
BA
330
2
100
AcDbEntity
  8
SUNPO
100
AcDbDimension
  2
*D6
 10
-12.12682133165992
 20
34.66995969280584
 30
0.0
 11
-33.12682133165993
 21
36.41995969280583
 31
0.0
 70
    33
  1
210
 71
     5
 42
42.0
  3
STANDARD
100
AcDbAlignedDimension
 13
-54.12682133165993
 23
26.66995969280583
 33
0.0
 14
-12.12682133165992
 24
26.66995969280583
 34
0.0
1001
ACAD
1000
DSTYLE
1002
{
1070
    40
1040
1.0
1070
   140
1040
2.5
1070
   147
1040
0.5
1070
   172
1070
     1
1070
   279
1070
     0
1070
   288
1070
     0
1002
}
  0
DIMENSION
  5
C9
330
2
100
AcDbEntity
  8
SUNPO
100
AcDbDimension
  2
*D5
 10
-4.126821331659925
 20
26.66995969280583
 30
0.0
 11
-5.87682133165993
 21
22.26996057741541
 31
0.0
 70
    33
  1
44
 71
     5
 42
8.799998230780829
  3
STANDARD
100
AcDbAlignedDimension
 13
-12.12682133165992
 23
17.869961462025
 33
0.0
 14
-12.12682133165992
 24
26.66995969280583
 34
0.0
1001
ACAD
1000
DSTYLE
1002
{
1070
    40
1040
1.0
1070
   140
1040
2.5
1070
   147
1040
0.5
1070
   172
1070
     1
1070
   279
1070
     0
1070
   288
1070
     0
1002
}
  0
DIMENSION
  5
D6
330
2
100
AcDbEntity
  8
SUNPO
100
AcDbDimension
  2
*D4
 10
51.58384347804447
 20
34.66995969280504
 30
0.0
 11
30.58384347804447
 21
36.41995969280504
 31
0.0
 70
    33
  1
210
 71
     5
 42
42.0
  3
STANDARD
100
AcDbAlignedDimension
 13
9.583843478044471
 23
26.66995969280504
 33
0.0
 14
51.58384347804447
 24
26.66995969280504
 34
0.0
1001
ACAD
1000
DSTYLE
1002
{
1070
    40
1040
1.0
1070
   140
1040
2.5
1070
   147
1040
0.5
1070
   172
1070
     1
1070
   279
1070
     0
1070
   288
1070
     0
1002
}
  0
LINE
  5
E3
330
2
100
AcDbEntity
  8
WAKU
 62
     4
100
AcDbLine
 10
61.08134380643059
 20
-50.80670798430833
 30
0.0
 11
61.08134380643059
 21
-15.80670798430833
 31
0.0
  0
LINE
  5
E5
330
2
100
AcDbEntity
  8
WAKU
 62
     4
100
AcDbLine
 10
-23.9186561935694
 20
-50.80670798430833
 30
0.0
 11
-23.9186561935694
 21
-15.80670798430833
 31
0.0
  0
LINE
  5
E6
330
2
100
AcDbEntity
  8
WAKU
 62
     4
100
AcDbLine
 10
-63.9186561935694
 20
-15.80670798430833
 30
0.0
 11
-63.9186561935694
 21
-50.80670798430833
 31
0.0
  0
LINE
  5
E7
330
2
100
AcDbEntity
  8
WAKU
 62
     1
100
AcDbLine
 10
-63.9186561935694
 20
-45.80670798430833
 30
0.0
 11
61.08134380643059
 21
-45.80670798430833
 31
0.0
  0
LINE
  5
E8
330
2
100
AcDbEntity
  8
WAKU
 62
     4
100
AcDbLine
 10
-63.9186561935694
 20
-50.80670798430833
 30
0.0
 11
61.08134380643059
 21
-50.80670798430833
 31
0.0
  0
TEXT
  5
E9
330
2
100
AcDbEntity
  8
MOJI1
100
AcDbText
 10
-61.4186561935694
 20
-24.80670798430833
 30
0.0
 40
3.0
  1
センサー入力
100
AcDbText
  0
TEXT
  5
EA
330
2
100
AcDbEntity
  8
MOJI1
100
AcDbText
 10
-61.4186561935694
 20
-29.80670798430833
 30
0.0
 40
3.0
  1
受信チャンネル
100
AcDbText
  0
TEXT
  5
EB
330
2
100
AcDbEntity
  8
MOJI1
100
AcDbText
 10
-61.4186561935694
 20
-39.80670798430833
 30
0.0
 40
3.0
  1
ミキシング出力
100
AcDbText
  0
LINE
  5
EC
330
2
100
AcDbEntity
  8
WAKU
 62
     1
100
AcDbLine
 10
-63.9186561935694
 20
-20.80670798430833
 30
0.0
 11
61.08134380643059
 21
-20.80670798430833
 31
0.0
  0
LINE
  5
ED
330
2
100
AcDbEntity
  8
WAKU
 62
     1
100
AcDbLine
 10
-63.9186561935694
 20
-25.80670798430833
 30
0.0
 11
61.08134380643059
 21
-25.80670798430833
 31
0.0
  0
LINE
  5
EE
330
2
100
AcDbEntity
  8
WAKU
 62
     1
100
AcDbLine
 10
-63.9186561935694
 20
-35.80670798430833
 30
0.0
 11
61.08134380643059
 21
-35.80670798430833
 31
0.0
  0
LINE
  5
EF
330
2
100
AcDbEntity
  8
WAKU
 62
     1
100
AcDbLine
 10
-63.9186561935694
 20
-40.80670798430833
 30
0.0
 11
61.08134380643059
 21
-40.80670798430833
 31
0.0
  0
LINE
  5
F0
330
2
100
AcDbEntity
  8
WAKU
 62
     4
100
AcDbLine
 10
61.08134380643059
 20
-15.80670798430833
 30
0.0
 11
-63.9186561935694
 21
-15.80670798430833
 31
0.0
  0
TEXT
  5
F1
330
2
100
AcDbEntity
  8
MOJI1
100
AcDbText
 10
-61.4186561935694
 20
-34.80670798430833
 30
0.0
 40
3.0
  1
補助入力
100
AcDbText
  0
TEXT
  5
F2
330
2
100
AcDbEntity
  8
MOJI1
100
AcDbText
 10
-61.4186561935694
 20
-19.80670798430833
 30
0.0
 40
3.0
  1
電　源
100
AcDbText
  0
TEXT
  5
F3
330
2
100
AcDbEntity
  8
MOJI1
100
AcDbText
 10
-21.4186561935694
 20
-19.80670798430833
 30
0.0
 40
3.0
  1
ＤＣ２４Ｖ（付属品 専用ＡＣアダプター使用）
100
AcDbText
  0
TEXT
  5
F4
330
2
100
AcDbEntity
  8
MOJI1
100
AcDbText
 10
-21.4186561935694
 20
-39.80670798430833
 30
0.0
 40
3.0
  1
－２０ｄＢＶ／－６０ｄＢＶ切替可能
100
AcDbText
  0
TEXT
  5
F5
330
2
100
AcDbEntity
  8
MOJI1
100
AcDbText
 10
-21.4186561935694
 20
-24.80670798430833
 30
0.0
 40
3.0
  1
７５ΩＦ型コネクター
100
AcDbText
  0
TEXT
  5
F6
330
2
100
AcDbEntity
  8
MOJI1
100
AcDbText
 10
-21.4186561935694
 20
-49.80670798430833
 30
0.0
 40
3.0
  1
＋６ｄＢ～－１６ｄＢ（ＷＸ－ＬＴ３００より制御）
 41
0.95
100
AcDbText
  0
TEXT
  5
F7
330
2
100
AcDbEntity
  8
MOJI1
100
AcDbText
 10
-61.4186561935694
 20
-49.80670798430833
 30
0.0
 40
3.0
  1
音量制御
100
AcDbText
  0
TEXT
  5
F8
330
2
100
AcDbEntity
  8
MOJI1
100
AcDbText
 10
-21.4186561935694
 20
-34.80670798430833
 30
0.0
 40
3.0
  1
－２０ｄＢＶ ６００Ω 不平衡 大型単頭ジャック
100
AcDbText
  0
LINE
  5
F9
330
2
100
AcDbEntity
  8
WAKU
 62
     1
100
AcDbLine
 10
-63.9186561935694
 20
-30.80670798430833
 30
0.0
 11
61.08134380643059
 21
-30.80670798430833
 31
0.0
  0
TEXT
  5
FA
330
2
100
AcDbEntity
  8
MOJI1
100
AcDbText
 10
-21.4186561935694
 20
-44.80670798430833
 30
0.0
 40
3.0
  1
６００Ω 不平衡 大型単頭ジャック
100
AcDbText
  0
TEXT
  5
FB
330
2
100
AcDbEntity
  8
MOJI1
100
AcDbText
 10
-21.4186561935694
 20
-29.80670798430833
 30
0.0
 40
3.0
  1
３ｃｈ／４ｃｈ
100
AcDbText
  0
ENDSEC
  0
SECTION
  2
OBJECTS
  0
DICTIONARY
  5
9
330
0
100
AcDbDictionary
281
     1
  3
ACAD_COLOR
350
31
  3
ACAD_GROUP
350
2D
  3
ACAD_LAYOUT
350
D
  3
ACAD_MATERIAL
350
30
  3
ACAD_MLINESTYLE
350
2E
  3
ACAD_PLOTSETTINGS
350
2F
  3
ACAD_PLOTSTYLENAME
350
8
  3
ACDBHEADERROUNDTRIPXREC
350
138
  3
AcDbVariableDictionary
350
133
  0
DICTIONARY
  5
15
330
14
100
AcDbDictionary
280
     1
281
     1
  3
ACAD_LAYERFILTERS
360
16
  3
ACAD_LAYERSTATES
360
17
  0
DICTIONARY
  5
3
330
2
100
AcDbDictionary
280
     1
281
     1
  3
ACAD_LAYOUTSELFREF
360
4
  0
DICTIONARY
  5
F
330
E
100
AcDbDictionary
280
     1
281
     1
  3
ACAD_LAYOUTSELFREF
360
10
  0
DICTIONARY
  5
31
102
{ACAD_REACTORS
330
9
102
}
330
9
100
AcDbDictionary
281
     1
  0
DICTIONARY
  5
2D
102
{ACAD_REACTORS
330
9
102
}
330
9
100
AcDbDictionary
281
     1
  0
DICTIONARY
  5
D
102
{ACAD_REACTORS
330
9
102
}
330
9
100
AcDbDictionary
281
     1
  3
Model
350
C
  3
ﾚｲｱｳﾄ1
350
13
  0
DICTIONARY
  5
30
102
{ACAD_REACTORS
330
9
102
}
330
9
100
AcDbDictionary
281
     1
  0
DICTIONARY
  5
2E
102
{ACAD_REACTORS
330
9
102
}
330
9
100
AcDbDictionary
281
     1
  3
STANDARD
350
33
  0
DICTIONARY
  5
2F
102
{ACAD_REACTORS
330
9
102
}
330
9
100
AcDbDictionary
281
     1
  0
ACDBDICTIONARYWDFLT
  5
8
102
{ACAD_REACTORS
330
9
102
}
330
9
100
AcDbDictionary
281
     1
  3
Normal
350
7
100
AcDbDictionaryWithDefault
340
7
  0
DICTIONARY
  5
138
102
{ACAD_REACTORS
330
9
102
}
330
9
100
AcDbDictionary
281
     1
  3
COLORDICT
350
13A
  3
MATERIALDICT
350
139
  0
DICTIONARY
  5
133
102
{ACAD_REACTORS
330
9
102
}
330
9
100
AcDbDictionary
281
     1
  3
DIMASSOC
350
135
  3
HIDETEXT
350
134
  3
PROJECTNAME
350
136
  0
DICTIONARY
  5
16
102
{ACAD_REACTORS
330
15
102
}
330
15
100
AcDbDictionary
280
     1
281
     1
  0
DICTIONARY
  5
17
102
{ACAD_REACTORS
330
15
102
}
330
15
100
AcDbDictionary
281
     1
  0
XRECORD
  5
4
102
{ACAD_REACTORS
330
3
102
}
330
3
100
AcDbXrecord
280
     1
340
2
  0
XRECORD
  5
10
102
{ACAD_REACTORS
330
F
102
}
330
F
100
AcDbXrecord
280
     1
340
E
  0
LAYOUT
  5
C
102
{ACAD_XDICTIONARY
360
13B
102
}
102
{ACAD_REACTORS
330
D
102
}
330
D
100
AcDbPlotSettings
  1

  2
FX78BC34-A4縦.pc3
  4
A4
  6

 40
4.900083065032958
 41
4.900057315826416
 42
4.90008544921875
 43
4.90008544921875
 44
210.0156707763672
 45
297.0106506347656
 46
5.73
 47
0.0
 48
0.0
 49
0.0
140
0.0
141
0.0
142
1.0
143
1.372949727252117
 70
 11956
 72
     1
 73
     0
 74
     1
  7
tmsacad.ctb
 75
     0
147
0.7283587884907078
148
0.5890540422615232
149
0.1116284836834893
100
AcDbLayout
  1
Model
 70
     1
 71
     0
 10
0.0
 20
0.0
 11
12.0
 21
9.0
 12
0.0
 22
0.0
 32
0.0
 14
0.0
 24
0.0
 34
0.0
 15
0.0
 25
0.0
 35
0.0
146
0.0
 13
0.0
 23
0.0
 33
0.0
 16
1.0
 26
0.0
 36
0.0
 17
0.0
 27
1.0
 37
0.0
 76
     0
330
2
  0
LAYOUT
  5
13
102
{ACAD_XDICTIONARY
360
13D
102
}
102
{ACAD_REACTORS
330
D
102
}
330
D
100
AcDbPlotSettings
  1

  2
C:\Program Files\ACAD2000\plotters\DWF ePlot.pc3
  4

  6

 40
0.0
 41
0.0
 42
0.0
 43
0.0
 44
0.0
 45
0.0
 46
0.0
 47
0.0
 48
0.0
 49
0.0
140
0.0
141
0.0
142
1.0
143
1.0
 70
   688
 72
     0
 73
     0
 74
     5
  7
tmsacad.ctb
 75
    16
147
1.0
148
0.0
149
0.0
100
AcDbLayout
  1
ﾚｲｱｳﾄ1
 70
     1
 71
     1
 10
0.0
 20
0.0
 11
12.0
 21
9.0
 12
0.0
 22
0.0
 32
0.0
 14
1.000000000000000E+20
 24
1.000000000000000E+20
 34
1.000000000000000E+20
 15
-1.000000000000000E+20
 25
-1.000000000000000E+20
 35
-1.000000000000000E+20
146
0.0
 13
0.0
 23
0.0
 33
0.0
 16
1.0
 26
0.0
 36
0.0
 17
0.0
 27
1.0
 37
0.0
 76
     0
330
E
  0
MLINESTYLE
  5
33
102
{ACAD_REACTORS
330
2E
102
}
330
2E
100
AcDbMlineStyle
  2
STANDARD
 70
     0
  3

 62
   256
 51
90.0
 52
90.0
 71
     2
 49
0.5
 62
   256
  6
BYLAYER
 49
-0.5
 62
   256
  6
BYLAYER
  0
ACDBPLACEHOLDER
  5
7
102
{ACAD_REACTORS
330
8
102
}
330
8
  0
XRECORD
  5
13A
102
{ACAD_REACTORS
330
138
102
}
330
138
100
AcDbXrecord
280
     1
340
31
  0
XRECORD
  5
139
102
{ACAD_REACTORS
330
138
102
}
330
138
100
AcDbXrecord
280
     1
340
30
  0
DICTIONARYVAR
  5
135
102
{ACAD_REACTORS
330
133
102
}
330
133
100
DictionaryVariables
280
     0
  1
1
  0
DICTIONARYVAR
  5
134
102
{ACAD_REACTORS
330
133
102
}
330
133
100
DictionaryVariables
280
     0
  1
1
  0
DICTIONARYVAR
  5
136
102
{ACAD_REACTORS
330
133
102
}
330
133
100
DictionaryVariables
280
     0
  1

  0
DICTIONARY
  5
13B
330
C
100
AcDbDictionary
280
     1
281
     1
  3
ACAD_XREC_ROUNDTRIP
360
13C
  0
DICTIONARY
  5
13D
330
13
100
AcDbDictionary
280
     1
281
     1
  3
ACAD_XREC_ROUNDTRIP
360
13E
  0
XRECORD
  5
13C
102
{ACAD_REACTORS
330
13B
102
}
330
13B
100
AcDbXrecord
280
     1
102
SHADEPLOT
 70
     0
102
SHADEPLOTRESLEVEL
 70
     2
102
SHADEPLOTCUSTOMDPI
 70
   300
  0
XRECORD
  5
13E
102
{ACAD_REACTORS
330
13D
102
}
330
13D
100
AcDbXrecord
280
     1
102
SHADEPLOT
 70
     0
102
SHADEPLOTRESLEVEL
 70
     2
102
SHADEPLOTCUSTOMDPI
 70
   300
  0
ENDSEC
  0
EOF
