  0
SECTION
  2
HEADER
  9
$ACADVER
  1
AC1015
  9
$ACADMAINTVER
 70
    20
  9
$DWGCODEPAGE
  3
ANSI_932
  9
$INSBASE
 10
0.0
 20
372.4992141396417
 30
0.0
  9
$EXTMIN
 10
-60.48919990056948
 20
-54.40893742766911
 30
-0.0015258207003583
  9
$EXTMAX
 10
64.59130906939527
 20
58.72214448795602
 30
0.0000000349246037
  9
$LIMMIN
 10
-1101.784450318844
 20
-1579.160531687244
  9
$LIMMAX
 10
-508.2420711400536
 20
-1161.440814074914
  9
$ORTHOMODE
 70
     1
  9
$REGENMODE
 70
     1
  9
$FILLMODE
 70
     1
  9
$QTEXTMODE
 70
     0
  9
$MIRRTEXT
 70
     1
  9
$LTSCALE
 40
1.0
  9
$ATTMODE
 70
     1
  9
$TEXTSIZE
 40
3.0
  9
$TRACEWID
 40
0.5
  9
$TEXTSTYLE
  7
STANDARD
  9
$CLAYER
  8
GAIKEI
  9
$CELTYPE
  6
BYLAYER
  9
$CECOLOR
 62
   256
  9
$CELTSCALE
 40
1.0
  9
$DISPSILH
 70
     0
  9
$DIMSCALE
 40
1.0
  9
$DIMASZ
 40
2.0
  9
$DIMEXO
 40
2.0
  9
$DIMDLI
 40
8.0
  9
$DIMRND
 40
0.0
  9
$DIMDLE
 40
0.0
  9
$DIMEXE
 40
2.0
  9
$DIMTP
 40
0.0
  9
$DIMTM
 40
0.0
  9
$DIMTXT
 40
2.5
  9
$DIMCEN
 40
0.0
  9
$DIMTSZ
 40
0.0
  9
$DIMTOL
 70
     0
  9
$DIMLIM
 70
     0
  9
$DIMTIH
 70
     0
  9
$DIMTOH
 70
     0
  9
$DIMSE1
 70
     0
  9
$DIMSE2
 70
     0
  9
$DIMTAD
 70
     3
  9
$DIMZIN
 70
     0
  9
$DIMBLK
  1

  9
$DIMASO
 70
     1
  9
$DIMSHO
 70
     1
  9
$DIMPOST
  1

  9
$DIMAPOST
  1

  9
$DIMALT
 70
     0
  9
$DIMALTD
 70
     2
  9
$DIMALTF
 40
25.4
  9
$DIMLFAC
 40
1.0
  9
$DIMTOFL
 70
     1
  9
$DIMTVP
 40
0.0
  9
$DIMTIX
 70
     0
  9
$DIMSOXD
 70
     0
  9
$DIMSAH
 70
     1
  9
$DIMBLK1
  1
OPEN30
  9
$DIMBLK2
  1
OPEN30
  9
$DIMSTYLE
  2
STANDARD
  9
$DIMCLRD
 70
     0
  9
$DIMCLRE
 70
     0
  9
$DIMCLRT
 70
     0
  9
$DIMTFAC
 40
1.0
  9
$DIMGAP
 40
0.5
  9
$DIMJUST
 70
     0
  9
$DIMSD1
 70
     0
  9
$DIMSD2
 70
     0
  9
$DIMTOLJ
 70
     1
  9
$DIMTZIN
 70
     0
  9
$DIMALTZ
 70
     0
  9
$DIMALTTZ
 70
     0
  9
$DIMUPT
 70
     0
  9
$DIMDEC
 70
     4
  9
$DIMTDEC
 70
     4
  9
$DIMALTU
 70
     2
  9
$DIMALTTD
 70
     2
  9
$DIMTXSTY
  7
STANDARD
  9
$DIMAUNIT
 70
     0
  9
$DIMADEC
 70
     0
  9
$DIMALTRND
 40
0.0
  9
$DIMAZIN
 70
     0
  9
$DIMDSEP
 70
    46
  9
$DIMATFIT
 70
     3
  9
$DIMFRAC
 70
     0
  9
$DIMLDRBLK
  1
OPEN30
  9
$DIMLUNIT
 70
     2
  9
$DIMLWD
 70
    -2
  9
$DIMLWE
 70
    -2
  9
$DIMTMOVE
 70
     0
  9
$LUNITS
 70
     2
  9
$LUPREC
 70
     4
  9
$SKETCHINC
 40
0.1
  9
$FILLETRAD
 40
2.0
  9
$AUNITS
 70
     0
  9
$AUPREC
 70
     0
  9
$MENU
  1
ACAD
  9
$ELEVATION
 40
0.0
  9
$PELEVATION
 40
0.0
  9
$THICKNESS
 40
0.0
  9
$LIMCHECK
 70
     0
  9
$CHAMFERA
 40
0.0
  9
$CHAMFERB
 40
0.0
  9
$CHAMFERC
 40
0.0
  9
$CHAMFERD
 40
0.0
  9
$SKPOLY
 70
     0
  9
$TDCREATE
 40
2451815.565532581
  9
$TDUCREATE
 40
2451815.190532581
  9
$TDUPDATE
 40
2454215.642160544
  9
$TDUUPDATE
 40
2454215.267160544
  9
$TDINDWG
 40
1.0821404398
  9
$TDUSRTIMER
 40
1.0821404398
  9
$USRTIMER
 70
     1
  9
$ANGBASE
 50
0.0
  9
$ANGDIR
 70
     0
  9
$PDMODE
 70
     0
  9
$PDSIZE
 40
0.0
  9
$PLINEWID
 40
0.0
  9
$SPLFRAME
 70
     0
  9
$SPLINETYPE
 70
     6
  9
$SPLINESEGS
 70
     8
  9
$HANDSEED
  5
118
  9
$SURFTAB1
 70
     6
  9
$SURFTAB2
 70
     6
  9
$SURFTYPE
 70
     6
  9
$SURFU
 70
     6
  9
$SURFV
 70
     6
  9
$UCSBASE
  2

  9
$UCSNAME
  2

  9
$UCSORG
 10
0.0
 20
0.0
 30
0.0
  9
$UCSXDIR
 10
1.0
 20
0.0
 30
0.0
  9
$UCSYDIR
 10
0.0
 20
1.0
 30
0.0
  9
$UCSORTHOREF
  2

  9
$UCSORTHOVIEW
 70
     0
  9
$UCSORGTOP
 10
0.0
 20
0.0
 30
0.0
  9
$UCSORGBOTTOM
 10
0.0
 20
0.0
 30
0.0
  9
$UCSORGLEFT
 10
0.0
 20
0.0
 30
0.0
  9
$UCSORGRIGHT
 10
0.0
 20
0.0
 30
0.0
  9
$UCSORGFRONT
 10
0.0
 20
0.0
 30
0.0
  9
$UCSORGBACK
 10
0.0
 20
0.0
 30
0.0
  9
$PUCSBASE
  2

  9
$PUCSNAME
  2

  9
$PUCSORG
 10
0.0
 20
0.0
 30
0.0
  9
$PUCSXDIR
 10
1.0
 20
0.0
 30
0.0
  9
$PUCSYDIR
 10
0.0
 20
1.0
 30
0.0
  9
$PUCSORTHOREF
  2

  9
$PUCSORTHOVIEW
 70
     0
  9
$PUCSORGTOP
 10
0.0
 20
0.0
 30
0.0
  9
$PUCSORGBOTTOM
 10
0.0
 20
0.0
 30
0.0
  9
$PUCSORGLEFT
 10
0.0
 20
0.0
 30
0.0
  9
$PUCSORGRIGHT
 10
0.0
 20
0.0
 30
0.0
  9
$PUCSORGFRONT
 10
0.0
 20
0.0
 30
0.0
  9
$PUCSORGBACK
 10
0.0
 20
0.0
 30
0.0
  9
$USERI1
 70
     0
  9
$USERI2
 70
     0
  9
$USERI3
 70
     0
  9
$USERI4
 70
     0
  9
$USERI5
 70
     0
  9
$USERR1
 40
0.0
  9
$USERR2
 40
0.0
  9
$USERR3
 40
0.0
  9
$USERR4
 40
0.0
  9
$USERR5
 40
0.0
  9
$WORLDVIEW
 70
     1
  9
$SHADEDGE
 70
     3
  9
$SHADEDIF
 70
    70
  9
$TILEMODE
 70
     1
  9
$MAXACTVP
 70
    48
  9
$PINSBASE
 10
0.0
 20
0.0
 30
0.0
  9
$PLIMCHECK
 70
     0
  9
$PEXTMIN
 10
1.000000000000000E+20
 20
1.000000000000000E+20
 30
1.000000000000000E+20
  9
$PEXTMAX
 10
-1.000000000000000E+20
 20
-1.000000000000000E+20
 30
-1.000000000000000E+20
  9
$PLIMMIN
 10
0.0
 20
0.0
  9
$PLIMMAX
 10
12.0
 20
9.0
  9
$UNITMODE
 70
     0
  9
$VISRETAIN
 70
     1
  9
$PLINEGEN
 70
     0
  9
$PSLTSCALE
 70
     1
  9
$TREEDEPTH
 70
  3020
  9
$CMLSTYLE
  2
STANDARD
  9
$CMLJUST
 70
     0
  9
$CMLSCALE
 40
1.0
  9
$PROXYGRAPHICS
 70
     1
  9
$MEASUREMENT
 70
     0
  9
$CELWEIGHT
370
    -1
  9
$ENDCAPS
280
     0
  9
$JOINSTYLE
280
     0
  9
$LWDISPLAY
290
     0
  9
$INSUNITS
 70
     0
  9
$HYPERLINKBASE
  1

  9
$STYLESHEET
  1

  9
$XEDIT
290
     1
  9
$CEPSNTYPE
380
     0
  9
$PSTYLEMODE
290
     1
  9
$FINGERPRINTGUID
  2
{1754B7AB-9B3C-11D4-AD9E-00104B1004F2}
  9
$VERSIONGUID
  2
{5F798F87-9C97-43E3-BB25-2C51E3DCA7C0}
  9
$EXTNAMES
290
     1
  9
$PSVPSCALE
 40
0.0
  9
$OLESTARTUP
290
     0
  0
ENDSEC
  0
SECTION
  2
CLASSES
  0
CLASS
  1
ACDBDICTIONARYWDFLT
  2
AcDbDictionaryWithDefault
  3
ObjectDBX Classes
 90
        0
280
     0
281
     0
  0
CLASS
  1
ACDBPLACEHOLDER
  2
AcDbPlaceHolder
  3
ObjectDBX Classes
 90
        0
280
     0
281
     0
  0
CLASS
  1
LAYOUT
  2
AcDbLayout
  3
ObjectDBX Classes
 90
        0
280
     0
281
     0
  0
CLASS
  1
DICTIONARYVAR
  2
AcDbDictionaryVar
  3
ObjectDBX Classes
 90
        0
280
     0
281
     0
  0
CLASS
  1
IMAGE
  2
AcDbRasterImage
  3
ISM
 90
    32895
280
     0
281
     1
  0
CLASS
  1
IMAGEDEF_REACTOR
  2
AcDbRasterImageDefReactor
  3
ISM
 90
    32769
280
     0
281
     0
  0
ENDSEC
  0
SECTION
  2
TABLES
  0
TABLE
  2
VPORT
  5
20
330
0
100
AcDbSymbolTable
 70
     3
  0
VPORT
  5
110
330
20
100
AcDbSymbolTableRecord
100
AcDbViewportTableRecord
  2
*Active
 70
     0
 10
0.0
 20
0.0
 11
1.0
 21
1.0
 12
2.051054584412884
 22
2.156603530143456
 13
0.0
 23
0.0
 14
1.0
 24
1.0
 15
0.0
 25
0.0
 16
0.0
 26
0.0
 36
1.0
 17
0.0
 27
0.0
 37
0.0
 40
114.0013210072838
 41
1.432605905006418
 42
50.0
 43
0.0
 44
0.0
 50
0.0
 51
0.0
 71
     0
 72
 10000
 73
     1
 74
     0
 75
     0
 76
     1
 77
     0
 78
     0
281
     0
 65
     1
110
0.0
120
0.0
130
0.0
111
1.0
121
0.0
131
0.0
112
0.0
122
1.0
132
0.0
 79
     0
146
0.0
  0
ENDTAB
  0
TABLE
  2
LTYPE
  5
1B
330
0
100
AcDbSymbolTable
 70
     1
  0
LTYPE
  5
1C
330
1B
100
AcDbSymbolTableRecord
100
AcDbLinetypeTableRecord
  2
BYBLOCK
 70
     0
  3

 72
    65
 73
     0
 40
0.0
  0
LTYPE
  5
1D
330
1B
100
AcDbSymbolTableRecord
100
AcDbLinetypeTableRecord
  2
BYLAYER
 70
     0
  3

 72
    65
 73
     0
 40
0.0
  0
LTYPE
  5
A
330
1B
100
AcDbSymbolTableRecord
100
AcDbLinetypeTableRecord
  2
CONTINUOUS
 70
     0
  3
Solid line
 72
    65
 73
     0
 40
0.0
  0
ENDTAB
  0
TABLE
  2
LAYER
  5
14
102
{ACAD_XDICTIONARY
360
15
102
}
330
0
100
AcDbSymbolTable
 70
     7
  0
LAYER
  5
6
330
14
100
AcDbSymbolTableRecord
100
AcDbLayerTableRecord
  2
0
 70
     0
 62
     7
  6
CONTINUOUS
370
    -3
390
7
  0
LAYER
  5
44
330
14
100
AcDbSymbolTableRecord
100
AcDbLayerTableRecord
  2
DEFPOINTS
 70
     0
 62
     7
  6
CONTINUOUS
290
     0
370
    -3
390
7
  0
LAYER
  5
BB
330
14
100
AcDbSymbolTableRecord
100
AcDbLayerTableRecord
  2
WAKU
 70
     0
 62
     4
  6
CONTINUOUS
370
    -3
390
7
  0
LAYER
  5
35
330
14
100
AcDbSymbolTableRecord
100
AcDbLayerTableRecord
  2
MOJI1
 70
     0
 62
     2
  6
CONTINUOUS
370
    -3
390
7
  0
LAYER
  5
32
330
14
100
AcDbSymbolTableRecord
100
AcDbLayerTableRecord
  2
GAIKEI
 70
     0
 62
     7
  6
CONTINUOUS
370
    -3
390
7
  0
LAYER
  5
37
330
14
100
AcDbSymbolTableRecord
100
AcDbLayerTableRecord
  2
TOUROKU
 70
     0
 62
     1
  6
CONTINUOUS
370
    -3
390
7
  0
LAYER
  5
39
330
14
100
AcDbSymbolTableRecord
100
AcDbLayerTableRecord
  2
SUNPO
 70
     0
 62
     3
  6
CONTINUOUS
370
    -3
390
7
  0
ENDTAB
  0
TABLE
  2
STYLE
  5
18
330
0
100
AcDbSymbolTable
 70
     1
  0
STYLE
  5
19
330
18
100
AcDbSymbolTableRecord
100
AcDbTextStyleTableRecord
  2
STANDARD
 70
     0
 40
0.0
 41
1.0
 50
0.0
 71
     0
 42
3.0
  3
MONOTXT.shx
  4
BIGFONT.shx
  0
ENDTAB
  0
TABLE
  2
VIEW
  5
1E
330
0
100
AcDbSymbolTable
 70
     0
  0
ENDTAB
  0
TABLE
  2
UCS
  5
1F
330
0
100
AcDbSymbolTable
 70
     0
  0
ENDTAB
  0
TABLE
  2
APPID
  5
22
330
0
100
AcDbSymbolTable
 70
     1
  0
APPID
  5
23
330
22
100
AcDbSymbolTableRecord
100
AcDbRegAppTableRecord
  2
ACAD
 70
     0
  0
ENDTAB
  0
TABLE
  2
DIMSTYLE
  5
24
330
0
100
AcDbSymbolTable
 70
     1
100
AcDbDimStyleTable
 71
     1
340
25
  0
DIMSTYLE
105
25
102
{ACAD_REACTORS
330
56
330
48
330
38
102
}
330
24
100
AcDbSymbolTableRecord
100
AcDbDimStyleTableRecord
  2
STANDARD
 70
     0
 40
0.0
 41
2.0
 42
2.0
 43
8.0
 44
2.0
 73
     0
 74
     0
 77
     3
140
3.0
141
0.0
173
     1
279
     2
288
     1
340
19
341
26
343
26
344
26
  0
ENDTAB
  0
TABLE
  2
BLOCK_RECORD
  5
1
330
0
100
AcDbSymbolTable
 70
     7
  0
BLOCK_RECORD
  5
2
102
{ACAD_XDICTIONARY
360
3
102
}
330
1
100
AcDbSymbolTableRecord
100
AcDbBlockTableRecord
  2
*MODEL_SPACE
340
C
  0
BLOCK_RECORD
  5
E
102
{ACAD_XDICTIONARY
360
F
102
}
330
1
100
AcDbSymbolTableRecord
100
AcDbBlockTableRecord
  2
*PAPER_SPACE
340
13
  0
BLOCK_RECORD
  5
26
330
1
100
AcDbSymbolTableRecord
100
AcDbBlockTableRecord
  2
_OPEN30
340
0
102
{BLKREFS
331
5C
331
5D
331
4F
331
50
331
40
331
41
331
EA
331
EB
331
F7
331
F8
331
104
331
105
102
}
  0
BLOCK_RECORD
  5
57
330
1
100
AcDbSymbolTableRecord
100
AcDbBlockTableRecord
  2
*D1
340
0
  0
BLOCK_RECORD
  5
49
330
1
100
AcDbSymbolTableRecord
100
AcDbBlockTableRecord
  2
*D2
340
0
  0
BLOCK_RECORD
  5
3A
330
1
100
AcDbSymbolTableRecord
100
AcDbBlockTableRecord
  2
*D3
340
0
  0
BLOCK_RECORD
  5
E6
330
1
100
AcDbSymbolTableRecord
100
AcDbBlockTableRecord
  2
*D4
340
0
  0
BLOCK_RECORD
  5
F2
330
1
100
AcDbSymbolTableRecord
100
AcDbBlockTableRecord
  2
*D5
340
0
  0
BLOCK_RECORD
  5
FF
330
1
100
AcDbSymbolTableRecord
100
AcDbBlockTableRecord
  2
*D6
340
0
  0
ENDTAB
  0
ENDSEC
  0
SECTION
  2
BLOCKS
  0
BLOCK
  5
5
330
2
100
AcDbEntity
  8
0
100
AcDbBlockBegin
  2
*MODEL_SPACE
 70
     0
 10
0.0
 20
0.0
 30
0.0
  3
*MODEL_SPACE
  1

  0
ENDBLK
  5
B
330
2
100
AcDbEntity
  8
0
100
AcDbBlockEnd
  0
BLOCK
  5
11
330
E
100
AcDbEntity
 67
     1
  8
0
100
AcDbBlockBegin
  2
*PAPER_SPACE
 70
     0
 10
0.0
 20
0.0
 30
0.0
  3
*PAPER_SPACE
  1

  0
ENDBLK
  5
12
330
E
100
AcDbEntity
 67
     1
  8
0
100
AcDbBlockEnd
  0
BLOCK
  5
27
330
26
100
AcDbEntity
  8
0
100
AcDbBlockBegin
  2
_OPEN30
 70
     0
 10
0.0
 20
0.0
 30
0.0
  3
_OPEN30
  1

  0
LINE
  5
28
330
26
100
AcDbEntity
  8
0
  6
ByBlock
 62
     0
100
AcDbLine
 10
-1.0
 20
0.26794919
 30
0.0
 11
0.0
 21
0.0
 31
0.0
  0
LINE
  5
29
330
26
100
AcDbEntity
  8
0
  6
ByBlock
 62
     0
100
AcDbLine
 10
0.0
 20
0.0
 30
0.0
 11
-1.0
 21
-0.26794919
 31
0.0
  0
LINE
  5
2A
330
26
100
AcDbEntity
  8
0
  6
ByBlock
 62
     0
100
AcDbLine
 10
0.0
 20
0.0
 30
0.0
 11
-1.0
 21
0.0
 31
0.0
  0
ENDBLK
  5
2B
330
26
100
AcDbEntity
  8
0
100
AcDbBlockEnd
  0
BLOCK
  5
58
330
57
100
AcDbEntity
  8
0
100
AcDbBlockBegin
  2
*D1
 70
     1
 10
0.0
 20
0.0
 30
0.0
  3
*D1
  1

  0
LINE
  5
59
330
57
100
AcDbEntity
  8
SUNPO
 62
     0
370
    -2
100
AcDbLine
 10
40.49147172870573
 20
339.3053752790948
 30
0.0
 11
40.49147172870573
 21
347.3053752790948
 31
0.0
  0
LINE
  5
5A
330
57
100
AcDbEntity
  8
SUNPO
 62
     0
370
    -2
100
AcDbLine
 10
87.69147172870573
 20
339.3053752790948
 30
0.0
 11
87.69147172870573
 21
347.3053752790948
 31
0.0
  0
LINE
  5
5B
330
57
100
AcDbEntity
  8
SUNPO
 62
     0
370
    -2
100
AcDbLine
 10
42.49147172870573
 20
345.3053752790948
 30
0.0
 11
85.69147172870572
 21
345.3053752790948
 31
0.0
  0
INSERT
  5
5C
330
57
100
AcDbEntity
  8
SUNPO
 62
     0
370
    -2
100
AcDbBlockReference
  2
_OPEN30
 10
40.49147172870573
 20
345.3053752790948
 30
0.0
 41
2.0
 42
2.0
 43
2.0
 50
180.0
  0
INSERT
  5
5D
330
57
100
AcDbEntity
  8
SUNPO
 62
     0
370
    -2
100
AcDbBlockReference
  2
_OPEN30
 10
87.69147172870573
 20
345.3053752790948
 30
0.0
 41
2.0
 42
2.0
 43
2.0
  0
MTEXT
  5
5E
330
57
100
AcDbEntity
  8
SUNPO
 62
     0
100
AcDbMText
 10
64.09147172870572
 20
347.0553752790948
 30
0.0
 40
2.5
 41
0.0
 71
     5
 72
     1
  1
\A1;236
 73
     1
 44
1.0
1001
ACAD
1000
MTEXTBEGIN
1070
    73
1070
     1
1070
    44
1040
1.0
1070
    74
1070
     0
1000
MTEXTEND
  0
POINT
  5
5F
330
57
100
AcDbEntity
  8
DEFPOINTS
 62
     0
100
AcDbPoint
 10
40.49147172870573
 20
337.3053752790948
 30
0.0
  0
POINT
  5
60
330
57
100
AcDbEntity
  8
DEFPOINTS
 62
     0
100
AcDbPoint
 10
87.69147172870573
 20
337.3053752790948
 30
0.0
  0
POINT
  5
61
330
57
100
AcDbEntity
  8
DEFPOINTS
 62
     0
100
AcDbPoint
 10
87.69147172870573
 20
345.3053752790948
 30
0.0
  0
ENDBLK
  5
62
330
57
100
AcDbEntity
  8
0
100
AcDbBlockEnd
  0
BLOCK
  5
4A
330
49
100
AcDbEntity
  8
0
100
AcDbBlockBegin
  2
*D2
 70
     1
 10
0.0
 20
0.0
 30
0.0
  3
*D2
  1

  0
LINE
  5
4B
330
49
100
AcDbEntity
  8
SUNPO
 62
     0
370
    -2
100
AcDbLine
 10
88.68684944527286
 20
336.5945254834795
 30
0.0
 11
96.68684944527292
 21
336.5945254834795
 31
0.0
  0
LINE
  5
4C
330
49
100
AcDbEntity
  8
SUNPO
 62
     0
370
    -2
100
AcDbLine
 10
88.68684944527291
 20
331.1856486914694
 30
0.0
 11
96.68684944527292
 21
331.1856486914694
 31
0.0
  0
LINE
  5
4D
330
49
100
AcDbEntity
  8
SUNPO
 62
     0
370
    -2
100
AcDbLine
 10
94.68684944527291
 20
334.5945254834795
 30
0.0
 11
94.68684944527291
 21
333.1856486914694
 31
0.0
  0
LINE
  5
4E
330
49
100
AcDbEntity
  8
SUNPO
 62
     0
370
    -2
100
AcDbLine
 10
94.68684944527291
 20
331.1856486914694
 30
0.0
 11
94.68684944527291
 21
316.5189820248027
 31
0.0
  0
INSERT
  5
4F
330
49
100
AcDbEntity
  8
SUNPO
 62
     0
370
    -2
100
AcDbBlockReference
  2
_OPEN30
 10
94.68684944527291
 20
336.5945254834795
 30
0.0
 41
2.0
 42
2.0
 43
2.0
 50
90.0
  0
INSERT
  5
50
330
49
100
AcDbEntity
  8
SUNPO
 62
     0
370
    -2
100
AcDbBlockReference
  2
_OPEN30
 10
94.68684944527291
 20
331.1856486914694
 30
0.0
 41
2.0
 42
2.0
 43
2.0
 50
270.0
  0
MTEXT
  5
51
330
49
100
AcDbEntity
  8
SUNPO
 62
     0
100
AcDbMText
 10
92.93684944527285
 20
322.8523153581361
 30
0.0
 40
2.5
 41
0.0
 71
     5
 72
     1
  1
\A1;φ27.2
 11
0.0000000000000001
 21
1.0
 31
0.0
 73
     1
 44
1.0
1001
ACAD
1000
MTEXTBEGIN
1070
    73
1070
     1
1070
    44
1040
1.0
1070
    74
1070
     0
1000
MTEXTEND
  0
POINT
  5
52
330
49
100
AcDbEntity
  8
DEFPOINTS
 62
     0
100
AcDbPoint
 10
86.68684944527285
 20
336.5945254834795
 30
0.0
  0
POINT
  5
53
330
49
100
AcDbEntity
  8
DEFPOINTS
 62
     0
100
AcDbPoint
 10
86.6868494452729
 20
331.1856486914694
 30
0.0
  0
POINT
  5
54
330
49
100
AcDbEntity
  8
DEFPOINTS
 62
     0
100
AcDbPoint
 10
94.68684944527291
 20
331.1856486914694
 30
0.0
  0
ENDBLK
  5
55
330
49
100
AcDbEntity
  8
0
100
AcDbBlockEnd
  0
BLOCK
  5
3B
330
3A
100
AcDbEntity
  8
0
100
AcDbBlockBegin
  2
*D3
 70
     1
 10
0.0
 20
0.0
 30
0.0
  3
*D3
  1

  0
LINE
  5
3C
330
3A
100
AcDbEntity
  8
SUNPO
 62
     0
370
    -2
100
AcDbLine
 10
38.49553372556636
 20
338.3500837251544
 30
0.0
 11
30.49553372556637
 21
338.3500837251544
 31
0.0
  0
LINE
  5
3D
330
3A
100
AcDbEntity
  8
SUNPO
 62
     0
370
    -2
100
AcDbLine
 10
38.49553372556636
 20
329.4300904497947
 30
0.0
 11
30.49553372556637
 21
329.4300904497947
 31
0.0
  0
LINE
  5
3E
330
3A
100
AcDbEntity
  8
SUNPO
 62
     0
370
    -2
100
AcDbLine
 10
32.49553372556637
 20
336.3500837251544
 30
0.0
 11
32.49553372556636
 21
331.4300904497947
 31
0.0
  0
LINE
  5
3F
330
3A
100
AcDbEntity
  8
SUNPO
 62
     0
370
    -2
100
AcDbLine
 10
32.49553372556636
 20
329.4300904497947
 30
0.0
 11
32.49553372556636
 21
305.263423783128
 31
0.0
  0
INSERT
  5
40
330
3A
100
AcDbEntity
  8
SUNPO
 62
     0
370
    -2
100
AcDbBlockReference
  2
_OPEN30
 10
32.49553372556637
 20
338.3500837251544
 30
0.0
 41
2.0
 42
2.0
 43
2.0
 50
90.0
  0
INSERT
  5
41
330
3A
100
AcDbEntity
  8
SUNPO
 62
     0
370
    -2
100
AcDbBlockReference
  2
_OPEN30
 10
32.49553372556636
 20
329.4300904497947
 30
0.0
 41
2.0
 42
2.0
 43
2.0
 50
270.0
  0
MTEXT
  5
42
330
3A
100
AcDbEntity
  8
SUNPO
 62
     0
100
AcDbMText
 10
30.74553372556631
 20
316.3467571164614
 30
0.0
 40
2.5
 41
0.0
 71
     5
 72
     1
  1
\A1;最大径φ44.6
 11
0.0000000000000001
 21
1.0
 31
0.0
 73
     1
 44
1.0
1001
ACAD
1000
MTEXTBEGIN
1070
    73
1070
     1
1070
    44
1040
1.0
1070
    74
1070
     0
1000
MTEXTEND
  0
POINT
  5
43
330
3A
100
AcDbEntity
  8
DEFPOINTS
 62
     0
100
AcDbPoint
 10
40.49553372556636
 20
338.3500837251544
 30
0.0
  0
POINT
  5
45
330
3A
100
AcDbEntity
  8
DEFPOINTS
 62
     0
100
AcDbPoint
 10
40.49553372556636
 20
329.4300904497947
 30
0.0
  0
POINT
  5
46
330
3A
100
AcDbEntity
  8
DEFPOINTS
 62
     0
100
AcDbPoint
 10
32.49553372556636
 20
329.4300904497947
 30
0.0
  0
ENDBLK
  5
47
330
3A
100
AcDbEntity
  8
0
100
AcDbBlockEnd
  0
BLOCK
  5
F0
330
E6
100
AcDbEntity
  8
0
100
AcDbBlockBegin
  2
*D4
 70
     1
 10
0.0
 20
0.0
 30
0.0
  3
*D4
  1

  0
LINE
  5
E7
330
E6
100
AcDbEntity
  8
SUNPO
 62
     0
370
    -2
100
AcDbLine
 10
-21.99316922927744
 20
27.45713074274238
 30
0.0
 11
-21.99316922927744
 21
35.45713074274238
 31
0.0
  0
LINE
  5
E8
330
E6
100
AcDbEntity
  8
SUNPO
 62
     0
370
    -2
100
AcDbLine
 10
25.20683077072255
 20
27.45713074274238
 30
0.0
 11
25.20683077072255
 21
35.45713074274238
 31
0.0
  0
LINE
  5
E9
330
E6
100
AcDbEntity
  8
SUNPO
 62
     0
370
    -2
100
AcDbLine
 10
-19.99316922927744
 20
33.45713074274238
 30
0.0
 11
23.20683077072255
 21
33.45713074274238
 31
0.0
  0
INSERT
  5
EA
330
E6
100
AcDbEntity
  8
SUNPO
 62
     0
370
    -2
100
AcDbBlockReference
  2
_OPEN30
 10
-21.99316922927744
 20
33.45713074274238
 30
0.0
 41
2.0
 42
2.0
 43
2.0
 50
180.0
  0
INSERT
  5
EB
330
E6
100
AcDbEntity
  8
SUNPO
 62
     0
370
    -2
100
AcDbBlockReference
  2
_OPEN30
 10
25.20683077072255
 20
33.45713074274238
 30
0.0
 41
2.0
 42
2.0
 43
2.0
  0
MTEXT
  5
EC
330
E6
100
AcDbEntity
  8
SUNPO
 62
     0
100
AcDbMText
 10
1.606830770722552
 20
35.20713074274238
 30
0.0
 40
2.5
 41
0.0
 71
     5
 72
     1
  1
\A1;236
 73
     1
 44
1.0
1001
ACAD
1000
MTEXTBEGIN
1070
    73
1070
     1
1070
    44
1040
1.0
1070
    74
1070
     0
1000
MTEXTEND
  0
POINT
  5
ED
330
E6
100
AcDbEntity
  8
DEFPOINTS
 62
     0
100
AcDbPoint
 10
-21.99316922927744
 20
25.45713074274238
 30
0.0
  0
POINT
  5
EE
330
E6
100
AcDbEntity
  8
DEFPOINTS
 62
     0
100
AcDbPoint
 10
25.20683077072255
 20
25.45713074274238
 30
0.0
  0
POINT
  5
EF
330
E6
100
AcDbEntity
  8
DEFPOINTS
 62
     0
100
AcDbPoint
 10
25.20683077072255
 20
33.45713074274238
 30
0.0
  0
ENDBLK
  5
F1
330
E6
100
AcDbEntity
  8
0
100
AcDbBlockEnd
  0
BLOCK
  5
FD
330
F2
100
AcDbEntity
  8
0
100
AcDbBlockBegin
  2
*D5
 70
     1
 10
0.0
 20
0.0
 30
0.0
  3
*D5
  1

  0
LINE
  5
F3
330
F2
100
AcDbEntity
  8
SUNPO
 62
     0
370
    -2
100
AcDbLine
 10
26.20220848728968
 20
24.74628094712705
 30
0.0
 11
34.20220848728974
 21
24.74628094712705
 31
0.0
  0
LINE
  5
F4
330
F2
100
AcDbEntity
  8
SUNPO
 62
     0
370
    -2
100
AcDbLine
 10
26.20220848728974
 20
19.33740415511698
 30
0.0
 11
34.20220848728974
 21
19.33740415511698
 31
0.0
  0
LINE
  5
F5
330
F2
100
AcDbEntity
  8
SUNPO
 62
     0
370
    -2
100
AcDbLine
 10
32.20220848728974
 20
22.74628094712705
 30
0.0
 11
32.20220848728974
 21
21.33740415511699
 31
0.0
  0
LINE
  5
F6
330
F2
100
AcDbEntity
  8
SUNPO
 62
     0
370
    -2
100
AcDbLine
 10
32.20220848728974
 20
19.33740415511698
 30
0.0
 11
32.20220848728973
 21
4.670737488450319
 31
0.0
  0
INSERT
  5
F7
330
F2
100
AcDbEntity
  8
SUNPO
 62
     0
370
    -2
100
AcDbBlockReference
  2
_OPEN30
 10
32.20220848728974
 20
24.74628094712705
 30
0.0
 41
2.0
 42
2.0
 43
2.0
 50
90.0
  0
INSERT
  5
F8
330
F2
100
AcDbEntity
  8
SUNPO
 62
     0
370
    -2
100
AcDbBlockReference
  2
_OPEN30
 10
32.20220848728974
 20
19.33740415511698
 30
0.0
 41
2.0
 42
2.0
 43
2.0
 50
270.0
  0
MTEXT
  5
F9
330
F2
100
AcDbEntity
  8
SUNPO
 62
     0
100
AcDbMText
 10
30.45220848728973
 20
11.00407082178366
 30
0.0
 40
2.5
 41
0.0
 71
     5
 72
     1
  1
\A1;φ27.2
 11
0.0000000000000001
 21
1.0
 31
0.0
 73
     1
 44
1.0
1001
ACAD
1000
MTEXTBEGIN
1070
    73
1070
     1
1070
    44
1040
1.0
1070
    74
1070
     0
1000
MTEXTEND
  0
POINT
  5
FA
330
F2
100
AcDbEntity
  8
DEFPOINTS
 62
     0
100
AcDbPoint
 10
24.20220848728968
 20
24.74628094712705
 30
0.0
  0
POINT
  5
FB
330
F2
100
AcDbEntity
  8
DEFPOINTS
 62
     0
100
AcDbPoint
 10
24.20220848728974
 20
19.33740415511698
 30
0.0
  0
POINT
  5
FC
330
F2
100
AcDbEntity
  8
DEFPOINTS
 62
     0
100
AcDbPoint
 10
32.20220848728974
 20
19.33740415511698
 30
0.0
  0
ENDBLK
  5
FE
330
F2
100
AcDbEntity
  8
0
100
AcDbBlockEnd
  0
BLOCK
  5
10A
330
FF
100
AcDbEntity
  8
0
100
AcDbBlockBegin
  2
*D6
 70
     1
 10
0.0
 20
0.0
 30
0.0
  3
*D6
  1

  0
LINE
  5
100
330
FF
100
AcDbEntity
  8
SUNPO
 62
     0
370
    -2
100
AcDbLine
 10
-23.98910723241681
 20
26.50183918880191
 30
0.0
 11
-31.98910723241681
 21
26.50183918880192
 31
0.0
  0
LINE
  5
101
330
FF
100
AcDbEntity
  8
SUNPO
 62
     0
370
    -2
100
AcDbLine
 10
-23.98910723241681
 20
17.58184591344224
 30
0.0
 11
-31.98910723241681
 21
17.58184591344224
 31
0.0
  0
LINE
  5
102
330
FF
100
AcDbEntity
  8
SUNPO
 62
     0
370
    -2
100
AcDbLine
 10
-29.98910723241681
 20
24.50183918880191
 30
0.0
 11
-29.98910723241682
 21
19.58184591344224
 31
0.0
  0
LINE
  5
103
330
FF
100
AcDbEntity
  8
SUNPO
 62
     0
370
    -2
100
AcDbLine
 10
-29.98910723241682
 20
17.58184591344224
 30
0.0
 11
-29.98910723241682
 21
-6.584820753224424
 31
0.0
  0
INSERT
  5
104
330
FF
100
AcDbEntity
  8
SUNPO
 62
     0
370
    -2
100
AcDbBlockReference
  2
_OPEN30
 10
-29.98910723241681
 20
26.50183918880192
 30
0.0
 41
2.0
 42
2.0
 43
2.0
 50
90.0
  0
INSERT
  5
105
330
FF
100
AcDbEntity
  8
SUNPO
 62
     0
370
    -2
100
AcDbBlockReference
  2
_OPEN30
 10
-29.98910723241682
 20
17.58184591344224
 30
0.0
 41
2.0
 42
2.0
 43
2.0
 50
270.0
  0
MTEXT
  5
106
330
FF
100
AcDbEntity
  8
SUNPO
 62
     0
100
AcDbMText
 10
-31.73910723241682
 20
4.498512580108902
 30
0.0
 40
2.5
 41
0.0
 71
     5
 72
     1
  1
\A1;最大径φ44.6
 11
0.0000000000000001
 21
1.0
 31
0.0
 73
     1
 44
1.0
1001
ACAD
1000
MTEXTBEGIN
1070
    73
1070
     1
1070
    44
1040
1.0
1070
    74
1070
     0
1000
MTEXTEND
  0
POINT
  5
107
330
FF
100
AcDbEntity
  8
DEFPOINTS
 62
     0
100
AcDbPoint
 10
-21.98910723241681
 20
26.50183918880191
 30
0.0
  0
POINT
  5
108
330
FF
100
AcDbEntity
  8
DEFPOINTS
 62
     0
100
AcDbPoint
 10
-21.98910723241681
 20
17.58184591344224
 30
0.0
  0
POINT
  5
109
330
FF
100
AcDbEntity
  8
DEFPOINTS
 62
     0
100
AcDbPoint
 10
-29.98910723241682
 20
17.58184591344224
 30
0.0
  0
ENDBLK
  5
10B
330
FF
100
AcDbEntity
  8
0
100
AcDbBlockEnd
  0
ENDSEC
  0
SECTION
  2
ENTITIES
  0
TEXT
  5
34
330
2
100
AcDbEntity
  8
MOJI1
100
AcDbText
 10
-33.48464095798318
 20
54.65096960328935
 30
0.0
 40
4.0
  1
赤外線ワイヤレスマイクロホン（ハンド型）
100
AcDbText
  0
TEXT
  5
36
330
2
100
AcDbEntity
  8
TOUROKU
100
AcDbText
 10
48.64864240827745
 20
48.65096960328924
 30
0.0
 40
2.0
  1
ＷＸＬＴ１００
 72
     2
 11
64.51530907494412
 21
48.65096960328924
 31
0.0
100
AcDbText
  0
DIMENSION
  5
38
330
2
100
AcDbEntity
  8
SUNPO
100
AcDbDimension
  2
*D6
 10
-29.98910723241682
 20
17.58184591344224
 30
0.0
 11
-31.73910723241682
 21
4.498512580108902
 31
0.0
 70
    33
  1
最大径φ44.6
 71
     5
 42
8.919993275359672
  3
STANDARD
100
AcDbAlignedDimension
 13
-21.98910723241681
 23
26.50183918880191
 33
0.0
 14
-21.98910723241681
 24
17.58184591344224
 34
0.0
1001
ACAD
1000
DSTYLE
1002
{
1070
    40
1040
1.0
1070
   140
1040
2.5
1070
   147
1040
0.5
1070
   172
1070
     1
1070
   279
1070
     0
1070
   288
1070
     0
1002
}
  0
DIMENSION
  5
48
330
2
100
AcDbEntity
  8
SUNPO
100
AcDbDimension
  2
*D5
 10
32.20220848728974
 20
19.33740415511698
 30
0.0
 11
30.45220848728973
 21
11.00407082178366
 31
0.0
 70
    33
  1
φ27.2
 71
     5
 42
5.408876792010062
  3
STANDARD
100
AcDbAlignedDimension
 13
24.20220848728968
 23
24.74628094712705
 33
0.0
 14
24.20220848728974
 24
19.33740415511698
 34
0.0
1001
ACAD
1000
DSTYLE
1002
{
1070
    40
1040
1.0
1070
   140
1040
2.5
1070
   147
1040
0.5
1070
   172
1070
     1
1070
   279
1070
     0
1070
   288
1070
     0
1002
}
  0
DIMENSION
  5
56
330
2
100
AcDbEntity
  8
SUNPO
100
AcDbDimension
  2
*D4
 10
25.20683077072255
 20
33.45713074274238
 30
0.0
 11
1.606830770722552
 21
35.20713074274238
 31
0.0
 70
    33
  1
236
 71
     5
 42
47.19999999999998
  3
STANDARD
100
AcDbAlignedDimension
 13
-21.99316922927744
 23
25.45713074274238
 33
0.0
 14
25.20683077072255
 24
25.45713074274238
 34
0.0
1001
ACAD
1000
DSTYLE
1002
{
1070
    40
1040
1.0
1070
   140
1040
2.5
1070
   147
1040
0.5
1070
   172
1070
     1
1070
   279
1070
     0
1070
   288
1070
     0
1002
}
  0
LINE
  5
63
330
2
100
AcDbEntity
  8
GAIKEI
  6
Continuous
100
AcDbLine
 10
-8.363336564026099
 20
20.93318951235239
 30
0.0
 11
-8.363336564026099
 21
18.73433483908923
 31
0.0
  0
LINE
  5
64
330
2
100
AcDbEntity
  8
GAIKEI
  6
Continuous
100
AcDbLine
 10
-21.99316922927744
 20
25.37358165989247
 30
0.0
 11
-21.99316922927744
 21
18.71010344235162
 31
0.0
  0
LINE
  5
65
330
2
100
AcDbEntity
  8
GAIKEI
  6
Continuous
100
AcDbLine
 10
-15.24382626940974
 20
25.92504924038849
 30
0.0
 11
-15.24382626940974
 21
18.1586358618556
 31
0.0
  0
LINE
  5
66
330
2
100
AcDbEntity
  8
GAIKEI
  6
Continuous
 62
     1
100
AcDbLine
 10
-15.08066177760662
 20
25.93838089771464
 30
0.0
 11
-15.08066177760662
 21
18.14530420452945
 31
0.0
  0
LINE
  5
67
330
2
100
AcDbEntity
  8
GAIKEI
  6
Continuous
100
AcDbLine
 10
-11.52399271245559
 20
26.00123983716191
 30
0.0
 11
-11.52399271245559
 21
18.08244526508218
 31
0.0
  0
LINE
  5
68
330
2
100
AcDbEntity
  8
GAIKEI
  6
Continuous
100
AcDbLine
 10
-10.50872670854437
 20
26.00123983716191
 30
0.0
 11
-10.50872670854437
 21
18.08244526508218
 31
0.0
  0
LINE
  5
69
330
2
100
AcDbEntity
  8
GAIKEI
  6
Continuous
100
AcDbLine
 10
-8.363336564026099
 20
25.34935026315486
 30
0.0
 11
-8.363336564026099
 21
23.15049558989171
 31
0.0
  0
LINE
  5
6A
330
2
100
AcDbEntity
  8
GAIKEI
  6
Continuous
100
AcDbLine
 10
-1.268680780690147
 20
25.24364736980834
 30
0.0
 11
-1.268680780690147
 21
18.8400377324358
 31
0.0
  0
LINE
  5
6B
330
2
100
AcDbEntity
  8
GAIKEI
  6
Continuous
 62
     1
100
AcDbLine
 10
-21.8238745299351
 20
25.38741419719168
 30
0.0
 11
-21.8238745299351
 21
18.69627090505247
 31
0.0
  0
LINE
  5
6C
330
2
100
AcDbEntity
  8
GAIKEI
  6
Continuous
100
AcDbLine
 10
-15.08066177760662
 20
18.14530420452945
 30
0.0
 11
-21.99316922927744
 21
18.71010344235162
 31
0.0
  0
LINE
  5
6D
330
2
100
AcDbEntity
  8
GAIKEI
  6
Continuous
100
AcDbLine
 10
-15.08066177760662
 20
25.93838089771464
 30
0.0
 11
-21.99316922927744
 21
25.37358165989247
 31
0.0
  0
LINE
  5
6E
330
2
100
AcDbEntity
  8
GAIKEI
  6
Continuous
100
AcDbLine
 10
-14.86556058324999
 20
25.92080565581051
 30
0.0
 11
-14.86556058324999
 21
18.16287944643358
 31
0.0
  0
LINE
  5
6F
330
2
100
AcDbEntity
  8
GAIKEI
  6
Continuous
100
AcDbLine
 10
-15.08066177760662
 20
18.14530420452945
 30
0.0
 11
-11.52399271245559
 21
18.43590844491945
 31
0.0
  0
LINE
  5
70
330
2
100
AcDbEntity
  8
GAIKEI
  6
Continuous
100
AcDbLine
 10
-15.08066177760662
 20
25.93838089771464
 30
0.0
 11
-11.52399271245559
 21
25.64777665732464
 31
0.0
  0
ARC
  5
71
330
2
100
AcDbEntity
  8
GAIKEI
  6
Continuous
100
AcDbCircle
 10
-11.02339336081559
 20
18.08244526508218
 30
0.0
 40
0.5005993516400001
100
AcDbArc
 50
180.0
 51
270.8050584508287
  0
ARC
  5
72
330
2
100
AcDbEntity
  8
GAIKEI
  6
Continuous
100
AcDbCircle
 10
-11.00932606018432
 20
18.08244526508218
 30
0.0
 40
0.5005993516400001
100
AcDbArc
 50
269.1949415491714
 51
0.0
  0
ARC
  5
73
330
2
100
AcDbEntity
  8
GAIKEI
  6
Continuous
100
AcDbCircle
 10
-11.00932606018432
 20
26.00123983716191
 30
0.0
 40
0.5005993516400001
100
AcDbArc
 50
0.0
 51
90.80505845082869
  0
ARC
  5
74
330
2
100
AcDbEntity
  8
GAIKEI
  6
Continuous
100
AcDbCircle
 10
-11.02339336081559
 20
26.00123983716191
 30
0.0
 40
0.5005993516400001
100
AcDbArc
 50
89.1949415491713
 51
180.0
  0
LINE
  5
75
330
2
100
AcDbEntity
  8
GAIKEI
  6
Continuous
100
AcDbLine
 10
-8.363336564026099
 20
18.73433483908923
 30
0.0
 11
-10.50872670854437
 21
18.56671669395933
 31
0.0
  0
LINE
  5
76
330
2
100
AcDbEntity
  8
GAIKEI
  6
Continuous
100
AcDbLine
 10
-8.363336564026099
 20
18.73433483908923
 30
0.0
 11
-1.268680780690147
 21
18.8400377324358
 31
0.0
  0
LINE
  5
77
330
2
100
AcDbEntity
  8
GAIKEI
  6
Continuous
100
AcDbLine
 10
-1.268680780690147
 20
18.8400377324358
 30
0.0
 11
23.97895943632398
 21
19.32184255112202
 31
0.0
  0
LINE
  5
78
330
2
100
AcDbEntity
  8
GAIKEI
  6
Continuous
 62
     1
100
AcDbLine
 10
-20.76763950913806
 20
18.60996926431238
 30
0.0
 11
-20.76763950913806
 21
21.46346054267764
 31
0.0
  0
LINE
  5
79
330
2
100
AcDbEntity
  8
GAIKEI
  6
Continuous
 62
     1
100
AcDbLine
 10
-20.21148339323082
 20
18.56452749769283
 30
0.0
 11
-20.21148339323082
 21
21.46346054267764
 31
0.0
  0
ARC
  5
7A
330
2
100
AcDbEntity
  8
GAIKEI
  6
Continuous
 62
     1
100
AcDbCircle
 10
-20.48956385958388
 20
21.46346054267764
 30
0.0
 40
0.2780756495542
100
AcDbArc
 50
90.0
 51
180.0
  0
ARC
  5
7B
330
2
100
AcDbEntity
  8
GAIKEI
  6
Continuous
 62
     1
100
AcDbCircle
 10
-20.48956385958388
 20
21.46346054267764
 30
0.0
 40
0.2780756495542
100
AcDbArc
 50
0.0
 51
90.0
  0
ARC
  5
7C
330
2
100
AcDbEntity
  8
GAIKEI
  6
Continuous
 62
     1
100
AcDbCircle
 10
-19.64469196062617
 20
21.46346054267764
 30
0.0
 40
0.2780756495542
100
AcDbArc
 50
0.0
 51
90.0
  0
ARC
  5
7D
330
2
100
AcDbEntity
  8
GAIKEI
  6
Continuous
 62
     1
100
AcDbCircle
 10
-19.64469196062617
 20
21.46346054267764
 30
0.0
 40
0.2780756495542
100
AcDbArc
 50
90.0
 51
180.0
  0
LINE
  5
7E
330
2
100
AcDbEntity
  8
GAIKEI
  6
Continuous
 62
     1
100
AcDbLine
 10
-19.36661149427306
 20
18.49549567271111
 30
0.0
 11
-19.36661149427306
 21
21.46346054267764
 31
0.0
  0
LINE
  5
7F
330
2
100
AcDbEntity
  8
GAIKEI
  6
Continuous
 62
     1
100
AcDbLine
 10
-19.92276761018036
 20
18.5409374393306
 30
0.0
 11
-19.92276761018036
 21
21.46346054267764
 31
0.0
  0
LINE
  5
80
330
2
100
AcDbEntity
  8
GAIKEI
  6
Continuous
 62
     1
100
AcDbLine
 10
-19.08783520823596
 20
18.47271773938121
 30
0.0
 11
-19.08783520823596
 21
21.46346054267764
 31
0.0
  0
LINE
  5
81
330
2
100
AcDbEntity
  8
GAIKEI
  6
Continuous
 62
     1
100
AcDbLine
 10
-18.53167909232871
 20
18.42727597276166
 30
0.0
 11
-18.53167909232871
 21
21.46346054267764
 31
0.0
  0
ARC
  5
82
330
2
100
AcDbEntity
  8
GAIKEI
  6
Continuous
 62
     1
100
AcDbCircle
 10
-18.80975955868177
 20
21.46346054267764
 30
0.0
 40
0.2780756495542
100
AcDbArc
 50
90.0
 51
180.0
  0
ARC
  5
83
330
2
100
AcDbEntity
  8
GAIKEI
  6
Continuous
 62
     1
100
AcDbCircle
 10
-18.80975955868177
 20
21.46346054267764
 30
0.0
 40
0.2780756495542
100
AcDbArc
 50
0.0
 51
90.0
  0
ARC
  5
84
330
2
100
AcDbEntity
  8
GAIKEI
  6
Continuous
 62
     1
100
AcDbCircle
 10
-17.98476709777566
 20
21.46346054267764
 30
0.0
 40
0.2780756495542
100
AcDbArc
 50
0.0
 51
90.0
  0
ARC
  5
85
330
2
100
AcDbEntity
  8
GAIKEI
  6
Continuous
 62
     1
100
AcDbCircle
 10
-17.98476709777566
 20
21.46346054267764
 30
0.0
 40
0.2780756495542
100
AcDbArc
 50
90.0
 51
180.0
  0
LINE
  5
86
330
2
100
AcDbEntity
  8
GAIKEI
  6
Continuous
 62
     1
100
AcDbLine
 10
-17.7066866314226
 20
18.35986843412445
 30
0.0
 11
-17.7066866314226
 21
21.46346054267764
 31
0.0
  0
LINE
  5
87
330
2
100
AcDbEntity
  8
GAIKEI
  6
Continuous
 62
     1
100
AcDbLine
 10
-18.26284274732984
 20
18.40531020074394
 30
0.0
 11
-18.26284274732984
 21
21.46346054267764
 31
0.0
  0
LINE
  5
88
330
2
100
AcDbEntity
  8
GAIKEI
  6
Continuous
 62
     1
100
AcDbLine
 10
-17.43784984239886
 20
18.33790262582681
 30
0.0
 11
-17.43784984239886
 21
21.46346054267764
 31
0.0
  0
LINE
  5
89
330
2
100
AcDbEntity
  8
GAIKEI
  6
Continuous
 62
     1
100
AcDbLine
 10
-16.88169372649156
 20
18.29246085920727
 30
0.0
 11
-16.88169372649156
 21
21.46346054267764
 31
0.0
  0
ARC
  5
8A
330
2
100
AcDbEntity
  8
GAIKEI
  6
Continuous
 62
     1
100
AcDbCircle
 10
-17.15977419284468
 20
21.46346054267764
 30
0.0
 40
0.2780756495542
100
AcDbArc
 50
90.0
 51
180.0
  0
ARC
  5
8B
330
2
100
AcDbEntity
  8
GAIKEI
  6
Continuous
 62
     1
100
AcDbCircle
 10
-17.15977419284468
 20
21.46346054267764
 30
0.0
 40
0.2780756495542
100
AcDbArc
 50
0.0
 51
90.0
  0
ARC
  5
8C
330
2
100
AcDbEntity
  8
GAIKEI
  6
Continuous
 62
     1
100
AcDbCircle
 10
-17.15977419284468
 20
22.62022455956651
 30
0.0
 40
0.2780756495542
100
AcDbArc
 50
270.0
 51
0.0
  0
ARC
  5
8D
330
2
100
AcDbEntity
  8
GAIKEI
  6
Continuous
 62
     1
100
AcDbCircle
 10
-17.15977419284468
 20
22.62022455956651
 30
0.0
 40
0.2780756495542
100
AcDbArc
 50
180.0
 51
269.9999999999968
  0
LINE
  5
8E
330
2
100
AcDbEntity
  8
GAIKEI
  6
Continuous
 62
     1
100
AcDbLine
 10
-16.88169372649156
 20
25.79122424303676
 30
0.0
 11
-16.88169372649156
 21
22.62022455956651
 31
0.0
  0
LINE
  5
8F
330
2
100
AcDbEntity
  8
GAIKEI
  6
Continuous
 62
     1
100
AcDbLine
 10
-17.43784984239886
 20
25.74578247641728
 30
0.0
 11
-17.43784984239886
 21
22.62022455956651
 31
0.0
  0
LINE
  5
90
330
2
100
AcDbEntity
  8
GAIKEI
  6
Continuous
 62
     1
100
AcDbLine
 10
-18.26284274732984
 20
25.67837490150015
 30
0.0
 11
-18.26284274732984
 21
22.62022455956651
 31
0.0
  0
LINE
  5
91
330
2
100
AcDbEntity
  8
GAIKEI
  6
Continuous
 62
     1
100
AcDbLine
 10
-17.7066866314226
 20
25.7238166681197
 30
0.0
 11
-17.7066866314226
 21
22.62022455956651
 31
0.0
  0
ARC
  5
92
330
2
100
AcDbEntity
  8
GAIKEI
  6
Continuous
 62
     1
100
AcDbCircle
 10
-17.98476709777566
 20
22.62022455956651
 30
0.0
 40
0.2780756495542
100
AcDbArc
 50
180.0
 51
269.9999999999968
  0
ARC
  5
93
330
2
100
AcDbEntity
  8
GAIKEI
  6
Continuous
 62
     1
100
AcDbCircle
 10
-17.98476709777566
 20
22.62022455956651
 30
0.0
 40
0.2780756495542
100
AcDbArc
 50
270.0
 51
0.0
  0
ARC
  5
94
330
2
100
AcDbEntity
  8
GAIKEI
  6
Continuous
 62
     1
100
AcDbCircle
 10
-18.80975955868177
 20
22.62022455956651
 30
0.0
 40
0.2780756495542
100
AcDbArc
 50
270.0
 51
0.0
  0
ARC
  5
95
330
2
100
AcDbEntity
  8
GAIKEI
  6
Continuous
 62
     1
100
AcDbCircle
 10
-18.80975955868177
 20
22.62022455956651
 30
0.0
 40
0.2780756495542
100
AcDbArc
 50
180.0
 51
269.9999999999968
  0
LINE
  5
96
330
2
100
AcDbEntity
  8
GAIKEI
  6
Continuous
 62
     1
100
AcDbLine
 10
-18.53167909232871
 20
25.65640912948243
 30
0.0
 11
-18.53167909232871
 21
22.62022455956651
 31
0.0
  0
LINE
  5
97
330
2
100
AcDbEntity
  8
GAIKEI
  6
Continuous
 62
     1
100
AcDbLine
 10
-19.08783520823596
 20
25.61096736286288
 30
0.0
 11
-19.08783520823596
 21
22.62022455956651
 31
0.0
  0
LINE
  5
98
330
2
100
AcDbEntity
  8
GAIKEI
  6
Continuous
 62
     1
100
AcDbLine
 10
-19.92276761018036
 20
25.54274766291348
 30
0.0
 11
-19.92276761018036
 21
22.62022455956651
 31
0.0
  0
LINE
  5
99
330
2
100
AcDbEntity
  8
GAIKEI
  6
Continuous
 62
     1
100
AcDbLine
 10
-19.36661149427306
 20
25.58818942953298
 30
0.0
 11
-19.36661149427306
 21
22.62022455956651
 31
0.0
  0
ARC
  5
9A
330
2
100
AcDbEntity
  8
GAIKEI
  6
Continuous
 62
     1
100
AcDbCircle
 10
-19.64469196062617
 20
22.62022455956651
 30
0.0
 40
0.2780756495542
100
AcDbArc
 50
180.0
 51
269.9999999999968
  0
ARC
  5
9B
330
2
100
AcDbEntity
  8
GAIKEI
  6
Continuous
 62
     1
100
AcDbCircle
 10
-19.64469196062617
 20
22.62022455956651
 30
0.0
 40
0.2780756495542
100
AcDbArc
 50
270.0
 51
0.0
  0
ARC
  5
9C
330
2
100
AcDbEntity
  8
GAIKEI
  6
Continuous
 62
     1
100
AcDbCircle
 10
-20.48956385958388
 20
22.62022455956651
 30
0.0
 40
0.2780756495542
100
AcDbArc
 50
270.0
 51
0.0
  0
ARC
  5
9D
330
2
100
AcDbEntity
  8
GAIKEI
  6
Continuous
 62
     1
100
AcDbCircle
 10
-20.48956385958388
 20
22.62022455956651
 30
0.0
 40
0.2780756495542
100
AcDbArc
 50
180.0
 51
269.9999999999968
  0
LINE
  5
9E
330
2
100
AcDbEntity
  8
GAIKEI
  6
Continuous
 62
     1
100
AcDbLine
 10
-20.21148339323082
 20
25.51915760455126
 30
0.0
 11
-20.21148339323082
 21
22.62022455956651
 31
0.0
  0
LINE
  5
9F
330
2
100
AcDbEntity
  8
GAIKEI
  6
Continuous
 62
     1
100
AcDbLine
 10
-20.76763950913806
 20
25.47371583793176
 30
0.0
 11
-20.76763950913806
 21
22.62022455956651
 31
0.0
  0
ELLIPSE
  5
A0
330
2
100
AcDbEntity
  8
GAIKEI
  6
Continuous
 62
     1
100
AcDbEllipse
 10
-11.0160961817316
 20
20.24814798018411
 30
0.0
 11
0.0
 21
1.717598434681915
 31
0.0
210
0.0
220
0.0
230
1.0
 40
0.2957015565852803
 41
0.0
 42
6.283185307179586
  0
ARC
  5
A1
330
2
100
AcDbEntity
  8
GAIKEI
  6
Continuous
 62
     1
100
AcDbCircle
 10
-11.01825016430655
 20
17.88382028702261
 30
0.0
 40
0.5402090590042233
100
AcDbArc
 50
19.5099642152323
 51
159.40045222616
  0
ELLIPSE
  5
A2
330
2
100
AcDbEntity
  8
GAIKEI
  6
Continuous
 62
     1
100
AcDbEllipse
 10
-11.0160961817316
 20
23.83553712206009
 30
0.0
 11
0.0
 21
-1.717598434681915
 31
0.0
210
0.0
220
0.0
230
-1.0
 40
0.2957015565852803
 41
0.0
 42
6.283185307179586
  0
ARC
  5
A3
330
2
100
AcDbEntity
  8
GAIKEI
  6
Continuous
 62
     1
100
AcDbCircle
 10
-11.01825016430655
 20
26.19986481522147
 30
0.0
 40
0.5402090590042233
100
AcDbArc
 50
200.59954777384
 51
340.4900357847677
  0
LINE
  5
A4
330
2
100
AcDbEntity
  8
GAIKEI
  6
Continuous
100
AcDbLine
 10
-10.50872670854437
 20
20.93318951235239
 30
0.0
 11
-2.96135603088544
 21
20.93318951235239
 31
0.0
  0
LINE
  5
A5
330
2
100
AcDbEntity
  8
GAIKEI
  6
Continuous
100
AcDbLine
 10
-10.50872670854437
 20
23.15049558989171
 30
0.0
 11
-2.96135603088544
 21
23.15049558989171
 31
0.0
  0
ARC
  5
A6
330
2
100
AcDbEntity
  8
GAIKEI
  6
Continuous
100
AcDbCircle
 10
-3.155912924624658
 20
22.04184255112204
 30
0.0
 40
1.125594929481609
100
AcDbArc
 50
279.9534524368172
 51
80.04654756318279
  0
CIRCLE
  5
A7
330
2
100
AcDbEntity
  8
GAIKEI
  6
Continuous
 62
     1
100
AcDbCircle
 10
-9.035269207399039
 20
22.04184255112204
 30
0.0
 40
0.2948067168504935
  0
CIRCLE
  5
A8
330
2
100
AcDbEntity
  8
GAIKEI
  6
Continuous
 62
     1
100
AcDbCircle
 10
-7.439204003269253
 20
22.04184255112204
 30
0.0
 40
0.2948067168504935
  0
LINE
  5
A9
330
2
100
AcDbEntity
  8
GAIKEI
  6
Continuous
 62
     1
100
AcDbLine
 10
-5.612504282289364
 20
21.31977014985222
 30
0.0
 11
-3.784253582391954
 21
21.31977014985222
 31
0.0
  0
LINE
  5
AA
330
2
100
AcDbEntity
  8
GAIKEI
  6
Continuous
 62
     1
100
AcDbLine
 10
-5.612504282289364
 20
22.76391495239187
 30
0.0
 11
-3.784253582391954
 21
22.76391495239187
 31
0.0
  0
ARC
  5
AB
330
2
100
AcDbEntity
  8
GAIKEI
  6
Continuous
 62
     1
100
AcDbCircle
 10
-5.548919508861899
 20
22.04184255112204
 30
0.0
 40
0.724866591923937
100
AcDbArc
 50
95.0324122784621
 51
264.9675877215379
  0
ARC
  5
AC
330
2
100
AcDbEntity
  8
GAIKEI
  6
Continuous
 62
     1
100
AcDbCircle
 10
-3.847838355819419
 20
22.04184255112204
 30
0.0
 40
0.724866591923937
100
AcDbArc
 50
275.032412278462
 51
84.96758772153789
  0
ARC
  5
AD
330
2
100
AcDbEntity
  8
GAIKEI
  6
Continuous
 62
     1
100
AcDbCircle
 10
-5.008787864663247
 20
22.04184255112204
 30
0.0
 40
0.7463456466248987
100
AcDbArc
 50
104.652632996343
 51
255.3473670036597
  0
LINE
  5
AE
330
2
100
AcDbEntity
  8
GAIKEI
  6
Continuous
100
AcDbLine
 10
25.20683077072255
 20
24.35892955783521
 30
0.0
 11
25.20683077072255
 21
19.72475554440882
 31
0.0
  0
LINE
  5
AF
330
2
100
AcDbEntity
  8
GAIKEI
  6
Continuous
 62
     1
100
AcDbLine
 10
23.97895943632398
 20
24.76184255112207
 30
0.0
 11
23.97895943632398
 21
19.32184255112202
 31
0.0
  0
LINE
  5
B0
330
2
100
AcDbEntity
  8
GAIKEI
  6
Continuous
 62
     1
100
AcDbLine
 10
24.20220848728968
 20
24.74628094712705
 30
0.0
 11
24.20220848728974
 21
19.33740415511698
 31
0.0
  0
LINE
  5
B1
330
2
100
AcDbEntity
  8
GAIKEI
  6
Continuous
100
AcDbLine
 10
23.97895943632398
 20
19.32184255112202
 30
0.0
 11
24.89027481767721
 21
19.38536590774009
 31
0.0
  0
ARC
  5
B2
330
2
100
AcDbEntity
  8
GAIKEI
  6
Continuous
100
AcDbCircle
 10
24.86661761912257
 20
19.72475554440882
 30
0.0
 40
0.3402131516
100
AcDbArc
 50
273.9873601383127
 51
0.0
  0
LINE
  5
B3
330
2
100
AcDbEntity
  8
GAIKEI
  6
Continuous
100
AcDbLine
 10
-8.363336564026099
 20
25.34935026315486
 30
0.0
 11
-10.50872670854437
 21
25.51696840828475
 31
0.0
  0
LINE
  5
B4
330
2
100
AcDbEntity
  8
GAIKEI
  6
Continuous
100
AcDbLine
 10
-8.363336564026099
 20
25.34935026315486
 30
0.0
 11
-1.268680780690147
 21
25.24364736980829
 31
0.0
  0
LINE
  5
B5
330
2
100
AcDbEntity
  8
GAIKEI
  6
Continuous
100
AcDbLine
 10
-1.268680780690147
 20
25.24364736980829
 30
0.0
 11
23.97895943632398
 21
24.76184255112207
 31
0.0
  0
ARC
  5
B6
330
2
100
AcDbEntity
  8
GAIKEI
  6
Continuous
100
AcDbCircle
 10
24.86661761912257
 20
24.35892955783521
 30
0.0
 40
0.3402131516
100
AcDbArc
 50
0.0
 51
86.01263986168726
  0
LINE
  5
B7
330
2
100
AcDbEntity
  8
GAIKEI
  6
Continuous
100
AcDbLine
 10
23.97895943632398
 20
24.76184255112207
 30
0.0
 11
24.89027481767721
 21
24.69831919450399
 31
0.0
  0
TEXT
  5
B8
330
2
100
AcDbEntity
  8
MOJI1
100
AcDbText
 10
-17.98464095798317
 20
-23.34903039671076
 30
0.0
 40
3.0
  1
単３形ニッケル水素電池×２個
100
AcDbText
  0
TEXT
  5
B9
330
2
100
AcDbEntity
  8
MOJI1
100
AcDbText
 10
-57.98464095798317
 20
-18.34903039671076
 30
0.0
 40
3.0
  1
使用電池
100
AcDbText
  0
LINE
  5
BA
330
2
100
AcDbEntity
  8
WAKU
 62
     1
100
AcDbLine
 10
-60.48464095798317
 20
-19.34903039671076
 30
0.0
 11
64.51535904201683
 21
-19.34903039671076
 31
0.0
  0
TEXT
  5
BC
330
2
100
AcDbEntity
  8
MOJI1
100
AcDbText
 10
-17.98464095798317
 20
-18.34903039671076
 30
0.0
 40
3.0
  1
単３形アルカリ乾電池×２個　または
100
AcDbText
  0
TEXT
  5
BD
330
2
100
AcDbEntity
  8
MOJI1
100
AcDbText
 10
-17.98464095798317
 20
-48.34903039671075
 30
0.0
 40
3.0
  1
受光センサーより半径約６ｍ（Ｌｏ時）
100
AcDbText
  0
TEXT
  5
BE
330
2
100
AcDbEntity
  8
MOJI1
100
AcDbText
 10
-57.98464095798317
 20
-43.34903039671075
 30
0.0
 40
3.0
  1
実用受信範囲
100
AcDbText
  0
LINE
  5
BF
330
2
100
AcDbEntity
  8
WAKU
 62
     1
100
AcDbLine
 10
-60.48464095798317
 20
-39.34903039671076
 30
0.0
 11
64.51535904201683
 21
-39.34903039671076
 31
0.0
  0
LINE
  5
C0
330
2
100
AcDbEntity
  8
WAKU
 62
     4
100
AcDbLine
 10
-60.48464095798317
 20
-54.34903039671076
 30
0.0
 11
64.51535904201683
 21
-54.34903039671076
 31
0.0
  0
LINE
  5
C1
330
2
100
AcDbEntity
  8
WAKU
 62
     4
100
AcDbLine
 10
64.51535904201683
 20
-14.34903039671076
 30
0.0
 11
-60.48464095798317
 21
-14.34903039671076
 31
0.0
  0
LINE
  5
C2
330
2
100
AcDbEntity
  8
WAKU
 62
     1
100
AcDbLine
 10
-60.48464095798317
 20
-49.34903039671076
 30
0.0
 11
64.51535904201683
 21
-49.34903039671076
 31
0.0
  0
LINE
  5
C3
330
2
100
AcDbEntity
  8
WAKU
 62
     1
100
AcDbLine
 10
-60.48464095798317
 20
-44.34903039671076
 30
0.0
 11
64.51535904201683
 21
-44.34903039671076
 31
0.0
  0
LINE
  5
C4
330
2
100
AcDbEntity
  8
WAKU
 62
     1
100
AcDbLine
 10
-60.48464095798317
 20
-34.34903039671076
 30
0.0
 11
64.51535904201683
 21
-34.34903039671076
 31
0.0
  0
LINE
  5
C5
330
2
100
AcDbEntity
  8
WAKU
 62
     1
100
AcDbLine
 10
-60.48464095798317
 20
-29.34903039671076
 30
0.0
 11
64.51535904201683
 21
-29.34903039671076
 31
0.0
  0
LINE
  5
C6
330
2
100
AcDbEntity
  8
WAKU
 62
     1
100
AcDbLine
 10
-60.48464095798317
 20
-24.34903039671076
 30
0.0
 11
64.51535904201683
 21
-24.34903039671076
 31
0.0
  0
LINE
  5
C7
330
2
100
AcDbEntity
  8
WAKU
 62
     4
100
AcDbLine
 10
-60.48464095798317
 20
-14.34903039671076
 30
0.0
 11
-60.48464095798317
 21
-54.34903039671076
 31
0.0
  0
TEXT
  5
C8
330
2
100
AcDbEntity
  8
MOJI1
100
AcDbText
 10
-17.98464095798317
 20
-38.34903039671076
 30
0.0
 40
3.0
  1
水晶制御ＰＬＬシンセサイザー方式
 41
0.9
100
AcDbText
  0
TEXT
  5
C9
330
2
100
AcDbEntity
  8
MOJI1
100
AcDbText
 10
-17.98464095798317
 20
-28.34903039671076
 30
0.0
 40
3.0
  1
８５０ｎｍ
100
AcDbText
  0
TEXT
  5
CA
330
2
100
AcDbEntity
  8
MOJI1
100
AcDbText
 10
-17.98464095798317
 20
-43.34903039671075
 30
0.0
 40
3.0
  1
受光センサーより半径約８ｍ（Ｈｉ時）
100
AcDbText
  0
TEXT
  5
CB
330
2
100
AcDbEntity
  8
MOJI1
100
AcDbText
 10
-17.98464095798317
 20
-53.34903039671075
 30
0.0
 40
3.0
  1
０ｄＢＶ～－３０ｄＢＶ　φ３．５ミニジャック
100
AcDbText
  0
TEXT
  5
CC
330
2
100
AcDbEntity
  8
MOJI1
100
AcDbText
 10
-17.98464095798317
 20
-33.34903039671076
 30
0.0
 40
3.0
  1
４波中の１波（切替式）
100
AcDbText
  0
TEXT
  5
CD
330
2
100
AcDbEntity
  8
MOJI1
100
AcDbText
 10
-57.98464095798317
 20
-28.34903039671076
 30
0.0
 40
3.0
  1
赤外線波長
100
AcDbText
  0
TEXT
  5
CE
330
2
100
AcDbEntity
  8
MOJI1
100
AcDbText
 10
-57.98464095798317
 20
-33.34903039671076
 30
0.0
 40
3.0
  1
副搬送波チャンネル
100
AcDbText
  0
TEXT
  5
CF
330
2
100
AcDbEntity
  8
MOJI1
100
AcDbText
 10
-57.98464095798317
 20
-38.34903039671076
 30
0.0
 40
3.0
  1
発振方式
100
AcDbText
  0
TEXT
  5
D0
330
2
100
AcDbEntity
  8
MOJI1
100
AcDbText
 10
-57.98464095798317
 20
-53.34903039671075
 30
0.0
 40
3.0
  1
外部入力
100
AcDbText
  0
LINE
  5
D1
330
2
100
AcDbEntity
  8
WAKU
 62
     4
100
AcDbLine
 10
-20.48464095798317
 20
-54.34903039671076
 30
0.0
 11
-20.48464095798317
 21
-14.34903039671076
 31
0.0
  0
LINE
  5
D2
330
2
100
AcDbEntity
  8
WAKU
 62
     4
100
AcDbLine
 10
64.51535904201683
 20
-54.34903039671076
 30
0.0
 11
64.51535904201683
 21
-14.34903039671076
 31
0.0
  0
ENDSEC
  0
SECTION
  2
OBJECTS
  0
DICTIONARY
  5
9
330
0
100
AcDbDictionary
281
     1
  3
ACAD_COLOR
350
31
  3
ACAD_GROUP
350
2D
  3
ACAD_LAYOUT
350
D
  3
ACAD_MATERIAL
350
30
  3
ACAD_MLINESTYLE
350
2E
  3
ACAD_PLOTSETTINGS
350
2F
  3
ACAD_PLOTSTYLENAME
350
8
  3
ACDBHEADERROUNDTRIPXREC
350
111
  3
AcDbVariableDictionary
350
10C
  0
DICTIONARY
  5
15
330
14
100
AcDbDictionary
280
     1
281
     1
  3
ACAD_LAYERFILTERS
360
16
  3
ACAD_LAYERSTATES
360
17
  0
DICTIONARY
  5
3
330
2
100
AcDbDictionary
280
     1
281
     1
  3
ACAD_LAYOUTSELFREF
360
4
  0
DICTIONARY
  5
F
330
E
100
AcDbDictionary
280
     1
281
     1
  3
ACAD_LAYOUTSELFREF
360
10
  0
DICTIONARY
  5
31
102
{ACAD_REACTORS
330
9
102
}
330
9
100
AcDbDictionary
281
     1
  0
DICTIONARY
  5
2D
102
{ACAD_REACTORS
330
9
102
}
330
9
100
AcDbDictionary
281
     1
  0
DICTIONARY
  5
D
102
{ACAD_REACTORS
330
9
102
}
330
9
100
AcDbDictionary
281
     1
  3
Model
350
C
  3
ﾚｲｱｳﾄ1
350
13
  0
DICTIONARY
  5
30
102
{ACAD_REACTORS
330
9
102
}
330
9
100
AcDbDictionary
281
     1
  0
DICTIONARY
  5
2E
102
{ACAD_REACTORS
330
9
102
}
330
9
100
AcDbDictionary
281
     1
  3
STANDARD
350
33
  0
DICTIONARY
  5
2F
102
{ACAD_REACTORS
330
9
102
}
330
9
100
AcDbDictionary
281
     1
  0
ACDBDICTIONARYWDFLT
  5
8
102
{ACAD_REACTORS
330
9
102
}
330
9
100
AcDbDictionary
281
     1
  3
Normal
350
7
100
AcDbDictionaryWithDefault
340
7
  0
DICTIONARY
  5
111
102
{ACAD_REACTORS
330
9
102
}
330
9
100
AcDbDictionary
281
     1
  3
COLORDICT
350
113
  3
MATERIALDICT
350
112
  0
DICTIONARY
  5
10C
102
{ACAD_REACTORS
330
9
102
}
330
9
100
AcDbDictionary
281
     1
  3
DIMASSOC
350
10E
  3
HIDETEXT
350
10D
  3
PROJECTNAME
350
10F
  0
DICTIONARY
  5
16
102
{ACAD_REACTORS
330
15
102
}
330
15
100
AcDbDictionary
280
     1
281
     1
  0
DICTIONARY
  5
17
102
{ACAD_REACTORS
330
15
102
}
330
15
100
AcDbDictionary
281
     1
  0
XRECORD
  5
4
102
{ACAD_REACTORS
330
3
102
}
330
3
100
AcDbXrecord
280
     1
340
2
  0
XRECORD
  5
10
102
{ACAD_REACTORS
330
F
102
}
330
F
100
AcDbXrecord
280
     1
340
E
  0
LAYOUT
  5
C
102
{ACAD_XDICTIONARY
360
114
102
}
102
{ACAD_REACTORS
330
D
102
}
330
D
100
AcDbPlotSettings
  1

  2
DocuCentre-II 7000-A4縦.pc3
  4
A4
  6

 40
4.900083065032958
 41
4.900057315826416
 42
4.90008544921875
 43
4.90008544921875
 44
210.0156707763672
 45
297.0106506347656
 46
5.799999999999999
 47
0.0
 48
0.0
 49
0.0
140
0.0
141
0.0
142
1.0
143
1.373452989690432
 70
 11956
 72
     1
 73
     0
 74
     1
  7
tmsacad.ctb
 75
     0
147
0.7280919023121379
148
0.5218452297744989
149
0.1357305783194533
100
AcDbLayout
  1
Model
 70
     1
 71
     0
 10
0.0
 20
0.0
 11
12.0
 21
9.0
 12
0.0
 22
0.0
 32
0.0
 14
0.0
 24
0.0
 34
0.0
 15
0.0
 25
0.0
 35
0.0
146
0.0
 13
0.0
 23
0.0
 33
0.0
 16
1.0
 26
0.0
 36
0.0
 17
0.0
 27
1.0
 37
0.0
 76
     0
330
2
  0
LAYOUT
  5
13
102
{ACAD_XDICTIONARY
360
116
102
}
102
{ACAD_REACTORS
330
D
102
}
330
D
100
AcDbPlotSettings
  1

  2
C:\Program Files\ACAD2000\plotters\DWF ePlot.pc3
  4

  6

 40
0.0
 41
0.0
 42
0.0
 43
0.0
 44
0.0
 45
0.0
 46
0.0
 47
0.0
 48
0.0
 49
0.0
140
0.0
141
0.0
142
1.0
143
1.0
 70
   688
 72
     0
 73
     0
 74
     5
  7
tmsacad.ctb
 75
    16
147
1.0
148
0.0
149
0.0
100
AcDbLayout
  1
ﾚｲｱｳﾄ1
 70
     1
 71
     1
 10
0.0
 20
0.0
 11
12.0
 21
9.0
 12
0.0
 22
0.0
 32
0.0
 14
1.000000000000000E+20
 24
1.000000000000000E+20
 34
1.000000000000000E+20
 15
-1.000000000000000E+20
 25
-1.000000000000000E+20
 35
-1.000000000000000E+20
146
0.0
 13
0.0
 23
0.0
 33
0.0
 16
1.0
 26
0.0
 36
0.0
 17
0.0
 27
1.0
 37
0.0
 76
     0
330
E
  0
MLINESTYLE
  5
33
102
{ACAD_REACTORS
330
2E
102
}
330
2E
100
AcDbMlineStyle
  2
STANDARD
 70
     0
  3

 62
   256
 51
90.0
 52
90.0
 71
     2
 49
0.5
 62
   256
  6
BYLAYER
 49
-0.5
 62
   256
  6
BYLAYER
  0
ACDBPLACEHOLDER
  5
7
102
{ACAD_REACTORS
330
8
102
}
330
8
  0
XRECORD
  5
113
102
{ACAD_REACTORS
330
111
102
}
330
111
100
AcDbXrecord
280
     1
340
31
  0
XRECORD
  5
112
102
{ACAD_REACTORS
330
111
102
}
330
111
100
AcDbXrecord
280
     1
340
30
  0
DICTIONARYVAR
  5
10E
102
{ACAD_REACTORS
330
10C
102
}
330
10C
100
DictionaryVariables
280
     0
  1
1
  0
DICTIONARYVAR
  5
10D
102
{ACAD_REACTORS
330
10C
102
}
330
10C
100
DictionaryVariables
280
     0
  1
1
  0
DICTIONARYVAR
  5
10F
102
{ACAD_REACTORS
330
10C
102
}
330
10C
100
DictionaryVariables
280
     0
  1

  0
DICTIONARY
  5
114
330
C
100
AcDbDictionary
280
     1
281
     1
  3
ACAD_XREC_ROUNDTRIP
360
115
  0
DICTIONARY
  5
116
330
13
100
AcDbDictionary
280
     1
281
     1
  3
ACAD_XREC_ROUNDTRIP
360
117
  0
XRECORD
  5
115
102
{ACAD_REACTORS
330
114
102
}
330
114
100
AcDbXrecord
280
     1
102
SHADEPLOT
 70
     0
102
SHADEPLOTRESLEVEL
 70
     2
102
SHADEPLOTCUSTOMDPI
 70
   300
  0
XRECORD
  5
117
102
{ACAD_REACTORS
330
116
102
}
330
116
100
AcDbXrecord
280
     1
102
SHADEPLOT
 70
     0
102
SHADEPLOTRESLEVEL
 70
     2
102
SHADEPLOTCUSTOMDPI
 70
   300
  0
ENDSEC
  0
EOF
