  0
SECTION
  2
HEADER
  9
$ACADVER
  1
AC1015
  9
$ACADMAINTVER
 70
    20
  9
$DWGCODEPAGE
  3
ANSI_932
  9
$INSBASE
 10
0.4999999440410648
 20
364.5008351249344
 30
0.0
  9
$EXTMIN
 10
-63.01025300171488
 20
-62.93394408390622
 30
-0.0015258207003583
  9
$EXTMAX
 10
62.02331599083652
 20
50.09065286988698
 30
0.0000000349246037
  9
$LIMMIN
 10
0.0
 20
0.0
  9
$LIMMAX
 10
420.0
 20
297.0
  9
$ORTHOMODE
 70
     1
  9
$REGENMODE
 70
     0
  9
$FILLMODE
 70
     1
  9
$QTEXTMODE
 70
     0
  9
$MIRRTEXT
 70
     0
  9
$LTSCALE
 40
1.0
  9
$ATTMODE
 70
     1
  9
$TEXTSIZE
 40
2.5
  9
$TRACEWID
 40
1.0
  9
$TEXTSTYLE
  7
Standard
  9
$CLAYER
  8
GAIKEI
  9
$CELTYPE
  6
ByLayer
  9
$CECOLOR
 62
   256
  9
$CELTSCALE
 40
1.0
  9
$DISPSILH
 70
     0
  9
$DIMSCALE
 40
1.0
  9
$DIMASZ
 40
2.0
  9
$DIMEXO
 40
2.0
  9
$DIMDLI
 40
8.0
  9
$DIMRND
 40
0.0
  9
$DIMDLE
 40
0.0
  9
$DIMEXE
 40
2.0
  9
$DIMTP
 40
0.0
  9
$DIMTM
 40
0.0
  9
$DIMTXT
 40
2.5
  9
$DIMCEN
 40
0.0
  9
$DIMTSZ
 40
0.0
  9
$DIMTOL
 70
     0
  9
$DIMLIM
 70
     0
  9
$DIMTIH
 70
     0
  9
$DIMTOH
 70
     0
  9
$DIMSE1
 70
     0
  9
$DIMSE2
 70
     0
  9
$DIMTAD
 70
     3
  9
$DIMZIN
 70
     0
  9
$DIMBLK
  1

  9
$DIMASO
 70
     1
  9
$DIMSHO
 70
     1
  9
$DIMPOST
  1

  9
$DIMAPOST
  1

  9
$DIMALT
 70
     0
  9
$DIMALTD
 70
     2
  9
$DIMALTF
 40
25.4
  9
$DIMLFAC
 40
1.0
  9
$DIMTOFL
 70
     1
  9
$DIMTVP
 40
0.0
  9
$DIMTIX
 70
     0
  9
$DIMSOXD
 70
     0
  9
$DIMSAH
 70
     1
  9
$DIMBLK1
  1
OPEN30
  9
$DIMBLK2
  1
OPEN30
  9
$DIMSTYLE
  2
STANDARD
  9
$DIMCLRD
 70
     0
  9
$DIMCLRE
 70
     0
  9
$DIMCLRT
 70
     0
  9
$DIMTFAC
 40
1.0
  9
$DIMGAP
 40
0.5
  9
$DIMJUST
 70
     0
  9
$DIMSD1
 70
     0
  9
$DIMSD2
 70
     0
  9
$DIMTOLJ
 70
     1
  9
$DIMTZIN
 70
     0
  9
$DIMALTZ
 70
     0
  9
$DIMALTTZ
 70
     0
  9
$DIMUPT
 70
     0
  9
$DIMDEC
 70
     4
  9
$DIMTDEC
 70
     4
  9
$DIMALTU
 70
     2
  9
$DIMALTTD
 70
     2
  9
$DIMTXSTY
  7
Standard
  9
$DIMAUNIT
 70
     0
  9
$DIMADEC
 70
     0
  9
$DIMALTRND
 40
0.0
  9
$DIMAZIN
 70
     0
  9
$DIMDSEP
 70
    46
  9
$DIMATFIT
 70
     3
  9
$DIMFRAC
 70
     0
  9
$DIMLDRBLK
  1
OPEN30
  9
$DIMLUNIT
 70
     2
  9
$DIMLWD
 70
    -2
  9
$DIMLWE
 70
    -2
  9
$DIMTMOVE
 70
     0
  9
$LUNITS
 70
     2
  9
$LUPREC
 70
     4
  9
$SKETCHINC
 40
1.0
  9
$FILLETRAD
 40
0.0
  9
$AUNITS
 70
     0
  9
$AUPREC
 70
     0
  9
$MENU
  1
.
  9
$ELEVATION
 40
0.0
  9
$PELEVATION
 40
0.0
  9
$THICKNESS
 40
0.0
  9
$LIMCHECK
 70
     0
  9
$CHAMFERA
 40
0.0
  9
$CHAMFERB
 40
0.0
  9
$CHAMFERC
 40
0.0
  9
$CHAMFERD
 40
0.0
  9
$SKPOLY
 70
     0
  9
$TDCREATE
 40
2454349.434269746
  9
$TDUCREATE
 40
2454349.059269746
  9
$TDUPDATE
 40
2455006.696760683
  9
$TDUUPDATE
 40
2455006.321760683
  9
$TDINDWG
 40
0.2829152778
  9
$TDUSRTIMER
 40
0.2829152778
  9
$USRTIMER
 70
     1
  9
$ANGBASE
 50
0.0
  9
$ANGDIR
 70
     0
  9
$PDMODE
 70
     0
  9
$PDSIZE
 40
0.0
  9
$PLINEWID
 40
0.0
  9
$SPLFRAME
 70
     0
  9
$SPLINETYPE
 70
     6
  9
$SPLINESEGS
 70
     8
  9
$HANDSEED
  5
23C
  9
$SURFTAB1
 70
     6
  9
$SURFTAB2
 70
     6
  9
$SURFTYPE
 70
     6
  9
$SURFU
 70
     6
  9
$SURFV
 70
     6
  9
$UCSBASE
  2

  9
$UCSNAME
  2

  9
$UCSORG
 10
0.0
 20
0.0
 30
0.0
  9
$UCSXDIR
 10
1.0
 20
0.0
 30
0.0
  9
$UCSYDIR
 10
0.0
 20
1.0
 30
0.0
  9
$UCSORTHOREF
  2

  9
$UCSORTHOVIEW
 70
     0
  9
$UCSORGTOP
 10
0.0
 20
0.0
 30
0.0
  9
$UCSORGBOTTOM
 10
0.0
 20
0.0
 30
0.0
  9
$UCSORGLEFT
 10
0.0
 20
0.0
 30
0.0
  9
$UCSORGRIGHT
 10
0.0
 20
0.0
 30
0.0
  9
$UCSORGFRONT
 10
0.0
 20
0.0
 30
0.0
  9
$UCSORGBACK
 10
0.0
 20
0.0
 30
0.0
  9
$PUCSBASE
  2

  9
$PUCSNAME
  2

  9
$PUCSORG
 10
0.0
 20
0.0
 30
0.0
  9
$PUCSXDIR
 10
1.0
 20
0.0
 30
0.0
  9
$PUCSYDIR
 10
0.0
 20
1.0
 30
0.0
  9
$PUCSORTHOREF
  2

  9
$PUCSORTHOVIEW
 70
     0
  9
$PUCSORGTOP
 10
0.0
 20
0.0
 30
0.0
  9
$PUCSORGBOTTOM
 10
0.0
 20
0.0
 30
0.0
  9
$PUCSORGLEFT
 10
0.0
 20
0.0
 30
0.0
  9
$PUCSORGRIGHT
 10
0.0
 20
0.0
 30
0.0
  9
$PUCSORGFRONT
 10
0.0
 20
0.0
 30
0.0
  9
$PUCSORGBACK
 10
0.0
 20
0.0
 30
0.0
  9
$USERI1
 70
     0
  9
$USERI2
 70
     0
  9
$USERI3
 70
     0
  9
$USERI4
 70
     0
  9
$USERI5
 70
     0
  9
$USERR1
 40
0.0
  9
$USERR2
 40
0.0
  9
$USERR3
 40
0.0
  9
$USERR4
 40
0.0
  9
$USERR5
 40
0.0
  9
$WORLDVIEW
 70
     1
  9
$SHADEDGE
 70
     3
  9
$SHADEDIF
 70
    70
  9
$TILEMODE
 70
     1
  9
$MAXACTVP
 70
    64
  9
$PINSBASE
 10
0.0
 20
0.0
 30
0.0
  9
$PLIMCHECK
 70
     0
  9
$PEXTMIN
 10
0.0
 20
0.0
 30
0.0
  9
$PEXTMAX
 10
0.0
 20
0.0
 30
0.0
  9
$PLIMMIN
 10
0.0
 20
0.0
  9
$PLIMMAX
 10
12.0
 20
9.0
  9
$UNITMODE
 70
     0
  9
$VISRETAIN
 70
     1
  9
$PLINEGEN
 70
     0
  9
$PSLTSCALE
 70
     1
  9
$TREEDEPTH
 70
  3020
  9
$CMLSTYLE
  2
Standard
  9
$CMLJUST
 70
     0
  9
$CMLSCALE
 40
20.0
  9
$PROXYGRAPHICS
 70
     1
  9
$MEASUREMENT
 70
     1
  9
$CELWEIGHT
370
    -1
  9
$ENDCAPS
280
     0
  9
$JOINSTYLE
280
     0
  9
$LWDISPLAY
290
     0
  9
$INSUNITS
 70
     4
  9
$HYPERLINKBASE
  1

  9
$STYLESHEET
  1

  9
$XEDIT
290
     1
  9
$CEPSNTYPE
380
     0
  9
$PSTYLEMODE
290
     1
  9
$FINGERPRINTGUID
  2
{FDEAD578-A652-11D2-9A35-0060089B3A3F}
  9
$VERSIONGUID
  2
{9EE9D3FA-632C-49E1-B61B-9074B0EA9EEC}
  9
$EXTNAMES
290
     1
  9
$PSVPSCALE
 40
0.0
  9
$OLESTARTUP
290
     0
  0
ENDSEC
  0
SECTION
  2
CLASSES
  0
CLASS
  1
ACDBDICTIONARYWDFLT
  2
AcDbDictionaryWithDefault
  3
ObjectDBX Classes
 90
        0
280
     0
281
     0
  0
CLASS
  1
ACDBPLACEHOLDER
  2
AcDbPlaceHolder
  3
ObjectDBX Classes
 90
        0
280
     0
281
     0
  0
CLASS
  1
LAYOUT
  2
AcDbLayout
  3
ObjectDBX Classes
 90
        0
280
     0
281
     0
  0
CLASS
  1
DICTIONARYVAR
  2
AcDbDictionaryVar
  3
ObjectDBX Classes
 90
        0
280
     0
281
     0
  0
CLASS
  1
SORTENTSTABLE
  2
AcDbSortentsTable
  3
ObjectDBX Classes
 90
    32768
280
     0
281
     0
  0
ENDSEC
  0
SECTION
  2
TABLES
  0
TABLE
  2
VPORT
  5
1B
330
0
100
AcDbSymbolTable
 70
     3
  0
VPORT
  5
234
330
1B
100
AcDbSymbolTableRecord
100
AcDbViewportTableRecord
  2
*Active
 70
     0
 10
0.0
 20
0.0
 11
1.0
 21
1.0
 12
-0.4934685054391857
 22
-6.421645607009622
 13
0.0
 23
0.0
 14
10.0
 24
10.0
 15
10.0
 25
10.0
 16
0.0
 26
0.0
 36
1.0
 17
0.0
 27
0.0
 37
0.0
 40
113.8906858193395
 41
1.421994884910485
 42
50.0
 43
0.0
 44
0.0
 50
0.0
 51
0.0
 71
     0
 72
  1000
 73
     1
 74
     2
 75
     0
 76
     0
 77
     0
 78
     0
281
     0
 65
     1
110
0.0
120
0.0
130
0.0
111
1.0
121
0.0
131
0.0
112
0.0
122
1.0
132
0.0
 79
     0
146
0.0
  0
ENDTAB
  0
TABLE
  2
LTYPE
  5
16
330
0
100
AcDbSymbolTable
 70
     1
  0
LTYPE
  5
17
330
16
100
AcDbSymbolTableRecord
100
AcDbLinetypeTableRecord
  2
ByBlock
 70
     0
  3

 72
    65
 73
     0
 40
0.0
  0
LTYPE
  5
18
330
16
100
AcDbSymbolTableRecord
100
AcDbLinetypeTableRecord
  2
ByLayer
 70
     0
  3

 72
    65
 73
     0
 40
0.0
  0
LTYPE
  5
8
330
16
100
AcDbSymbolTableRecord
100
AcDbLinetypeTableRecord
  2
Continuous
 70
     0
  3
Solid line
 72
    65
 73
     0
 40
0.0
  0
ENDTAB
  0
TABLE
  2
LAYER
  5
10
102
{ACAD_XDICTIONARY
360
11
102
}
330
0
100
AcDbSymbolTable
 70
     7
  0
LAYER
  5
4
330
10
100
AcDbSymbolTableRecord
100
AcDbLayerTableRecord
  2
0
 70
     0
 62
     7
  6
Continuous
370
    -3
390
5
  0
LAYER
  5
36
330
10
100
AcDbSymbolTableRecord
100
AcDbLayerTableRecord
  2
WAKU
 70
     0
 62
     4
  6
Continuous
370
    -3
390
5
  0
LAYER
  5
30
330
10
100
AcDbSymbolTableRecord
100
AcDbLayerTableRecord
  2
MOJI1
 70
     0
 62
     2
  6
Continuous
370
    -3
390
5
  0
LAYER
  5
32
330
10
100
AcDbSymbolTableRecord
100
AcDbLayerTableRecord
  2
TOUROKU
 70
     0
 62
     1
  6
Continuous
370
    -3
390
5
  0
LAYER
  5
2D
330
10
100
AcDbSymbolTableRecord
100
AcDbLayerTableRecord
  2
GAIKEI
 70
     0
 62
     7
  6
Continuous
370
    -3
390
5
  0
LAYER
  5
1D1
330
10
100
AcDbSymbolTableRecord
100
AcDbLayerTableRecord
  2
SUNPO
 70
     0
 62
     3
  6
Continuous
370
    -3
390
5
  0
LAYER
  5
1DB
330
10
100
AcDbSymbolTableRecord
100
AcDbLayerTableRecord
  2
Defpoints
 70
     0
 62
     7
  6
Continuous
290
     0
370
    -3
390
5
  0
ENDTAB
  0
TABLE
  2
STYLE
  5
13
330
0
100
AcDbSymbolTable
 70
     1
  0
STYLE
  5
14
330
13
100
AcDbSymbolTableRecord
100
AcDbTextStyleTableRecord
  2
Standard
 70
     0
 40
0.0
 41
1.0
 50
0.0
 71
     0
 42
2.5
  3
MONOTXT.shx
  4
BIGFONT.shx
  0
ENDTAB
  0
TABLE
  2
VIEW
  5
19
330
0
100
AcDbSymbolTable
 70
     0
  0
ENDTAB
  0
TABLE
  2
UCS
  5
1A
330
0
100
AcDbSymbolTable
 70
     0
  0
ENDTAB
  0
TABLE
  2
APPID
  5
1D
330
0
100
AcDbSymbolTable
 70
     1
  0
APPID
  5
1E
330
1D
100
AcDbSymbolTableRecord
100
AcDbRegAppTableRecord
  2
ACAD
 70
     0
  0
ENDTAB
  0
TABLE
  2
DIMSTYLE
  5
1F
330
0
100
AcDbSymbolTable
 70
     1
100
AcDbDimStyleTable
 71
     1
340
20
  0
DIMSTYLE
105
20
102
{ACAD_REACTORS
330
1EC
330
1DF
330
1D0
102
}
330
1F
100
AcDbSymbolTableRecord
100
AcDbDimStyleTableRecord
  2
STANDARD
 70
     0
 40
0.0
 41
2.0
 42
2.0
 43
8.0
 44
2.0
 73
     0
 74
     0
 77
     3
140
3.0
141
0.0
173
     1
279
     2
288
     1
340
14
341
21
343
21
344
21
  0
ENDTAB
  0
TABLE
  2
BLOCK_RECORD
  5
1
330
0
100
AcDbSymbolTable
 70
     7
  0
BLOCK_RECORD
  5
2
330
1
100
AcDbSymbolTableRecord
100
AcDbBlockTableRecord
  2
*Model_Space
340
A
  0
BLOCK_RECORD
  5
C
330
1
100
AcDbSymbolTableRecord
100
AcDbBlockTableRecord
  2
*Paper_Space
340
F
  0
BLOCK_RECORD
  5
21
330
1
100
AcDbSymbolTableRecord
100
AcDbBlockTableRecord
  2
_OPEN30
340
0
102
{BLKREFS
331
1F2
331
1F3
331
1E5
331
1E6
331
1D7
331
1D8
331
210
331
211
331
21C
331
21D
331
228
331
229
102
}
  0
BLOCK_RECORD
  5
1ED
330
1
100
AcDbSymbolTableRecord
100
AcDbBlockTableRecord
  2
*D1
340
0
  0
BLOCK_RECORD
  5
1E0
330
1
100
AcDbSymbolTableRecord
100
AcDbBlockTableRecord
  2
*D2
340
0
  0
BLOCK_RECORD
  5
1D2
330
1
100
AcDbSymbolTableRecord
100
AcDbBlockTableRecord
  2
*D3
340
0
  0
BLOCK_RECORD
  5
20C
330
1
100
AcDbSymbolTableRecord
100
AcDbBlockTableRecord
  2
*D4
340
0
  0
BLOCK_RECORD
  5
218
330
1
100
AcDbSymbolTableRecord
100
AcDbBlockTableRecord
  2
*D5
340
0
  0
BLOCK_RECORD
  5
224
330
1
100
AcDbSymbolTableRecord
100
AcDbBlockTableRecord
  2
*D6
340
0
  0
ENDTAB
  0
ENDSEC
  0
SECTION
  2
BLOCKS
  0
BLOCK
  5
3
330
2
100
AcDbEntity
  8
0
100
AcDbBlockBegin
  2
*Model_Space
 70
     0
 10
0.0
 20
0.0
 30
0.0
  3
*Model_Space
  1

  0
ENDBLK
  5
9
330
2
100
AcDbEntity
  8
0
100
AcDbBlockEnd
  0
BLOCK
  5
D
330
C
100
AcDbEntity
 67
     1
  8
0
100
AcDbBlockBegin
  2
*Paper_Space
 70
     0
 10
0.0
 20
0.0
 30
0.0
  3
*Paper_Space
  1

  0
ENDBLK
  5
E
330
C
100
AcDbEntity
 67
     1
  8
0
100
AcDbBlockEnd
  0
BLOCK
  5
22
330
21
100
AcDbEntity
  8
0
100
AcDbBlockBegin
  2
_OPEN30
 70
     0
 10
0.0
 20
0.0
 30
0.0
  3
_OPEN30
  1

  0
LINE
  5
23
330
21
100
AcDbEntity
  8
0
  6
ByBlock
 62
     0
100
AcDbLine
 10
-1.0
 20
0.26794919
 30
0.0
 11
0.0
 21
0.0
 31
0.0
  0
LINE
  5
24
330
21
100
AcDbEntity
  8
0
  6
ByBlock
 62
     0
100
AcDbLine
 10
0.0
 20
0.0
 30
0.0
 11
-1.0
 21
-0.26794919
 31
0.0
  0
LINE
  5
25
330
21
100
AcDbEntity
  8
0
  6
ByBlock
 62
     0
100
AcDbLine
 10
0.0
 20
0.0
 30
0.0
 11
-1.0
 21
0.0
 31
0.0
  0
ENDBLK
  5
26
330
21
100
AcDbEntity
  8
0
100
AcDbBlockEnd
  0
BLOCK
  5
1EE
330
1ED
100
AcDbEntity
  8
0
100
AcDbBlockBegin
  2
*D1
 70
     1
 10
0.0
 20
0.0
 30
0.0
  3
*D1
  1

  0
LINE
  5
1EF
330
1ED
100
AcDbEntity
  8
SUNPO
 62
     0
370
    -2
100
AcDbLine
 10
79.39851177529425
 20
345.8718179355468
 30
0.0
 11
79.39851177529425
 21
353.8718179355468
 31
0.0
  0
LINE
  5
1F0
330
1ED
100
AcDbEntity
  8
SUNPO
 62
     0
370
    -2
100
AcDbLine
 10
87.63523446391355
 20
345.8718179355468
 30
0.0
 11
87.63523446391355
 21
353.8718179355468
 31
0.0
  0
LINE
  5
1F1
330
1ED
100
AcDbEntity
  8
SUNPO
 62
     0
370
    -2
100
AcDbLine
 10
81.39851177529425
 20
351.8718179355468
 30
0.0
 11
85.63523446391355
 21
351.8718179355468
 31
0.0
  0
INSERT
  5
1F2
330
1ED
100
AcDbEntity
  8
SUNPO
 62
     0
370
    -2
100
AcDbBlockReference
  2
_OPEN30
 10
79.39851177529425
 20
351.8718179355468
 30
0.0
 41
2.0
 42
2.0
 43
2.0
 50
180.0
  0
INSERT
  5
1F3
330
1ED
100
AcDbEntity
  8
SUNPO
 62
     0
370
    -2
100
AcDbBlockReference
  2
_OPEN30
 10
87.63523446391355
 20
351.8718179355468
 30
0.0
 41
2.0
 42
2.0
 43
2.0
  0
MTEXT
  5
1F4
330
1ED
100
AcDbEntity
  8
SUNPO
 62
     0
100
AcDbMText
 10
83.5168731196039
 20
353.6218179355469
 30
0.0
 40
2.5
 41
0.0
 71
     5
 72
     1
  1
\A1;41
 73
     1
 44
1.0
1001
ACAD
1000
MTEXTBEGIN
1070
    73
1070
     1
1070
    44
1040
1.0
1070
    74
1070
     0
1000
MTEXTEND
  0
POINT
  5
1F5
330
1ED
100
AcDbEntity
  8
Defpoints
 62
     0
100
AcDbPoint
 10
79.39851177529425
 20
343.8718179355469
 30
0.0
  0
POINT
  5
1F6
330
1ED
100
AcDbEntity
  8
Defpoints
 62
     0
100
AcDbPoint
 10
87.63523446391355
 20
343.8718179355469
 30
0.0
  0
POINT
  5
1F7
330
1ED
100
AcDbEntity
  8
Defpoints
 62
     0
100
AcDbPoint
 10
87.63523446391355
 20
351.8718179355468
 30
0.0
  0
ENDBLK
  5
1F8
330
1ED
100
AcDbEntity
  8
0
100
AcDbBlockEnd
  0
BLOCK
  5
1E1
330
1E0
100
AcDbEntity
  8
0
100
AcDbBlockBegin
  2
*D2
 70
     1
 10
0.0
 20
0.0
 30
0.0
  3
*D2
  1

  0
LINE
  5
1E2
330
1E0
100
AcDbEntity
  8
SUNPO
 62
     0
370
    -2
100
AcDbLine
 10
51.95234193867299
 20
343.8434489234536
 30
0.0
 11
59.95234193867303
 21
343.8434489234536
 31
0.0
  0
LINE
  5
1E3
330
1E0
100
AcDbEntity
  8
SUNPO
 62
     0
370
    -2
100
AcDbLine
 10
51.95234193867299
 20
302.4620698712643
 30
0.0
 11
59.95234193867301
 21
302.4620698712643
 31
0.0
  0
LINE
  5
1E4
330
1E0
100
AcDbEntity
  8
SUNPO
 62
     0
370
    -2
100
AcDbLine
 10
57.95234193867303
 20
341.8434489234536
 30
0.0
 11
57.95234193867302
 21
304.4620698712643
 31
0.0
  0
INSERT
  5
1E5
330
1E0
100
AcDbEntity
  8
SUNPO
 62
     0
370
    -2
100
AcDbBlockReference
  2
_OPEN30
 10
57.95234193867303
 20
343.8434489234536
 30
0.0
 41
2.0
 42
2.0
 43
2.0
 50
90.0
  0
INSERT
  5
1E6
330
1E0
100
AcDbEntity
  8
SUNPO
 62
     0
370
    -2
100
AcDbBlockReference
  2
_OPEN30
 10
57.95234193867301
 20
302.4620698712643
 30
0.0
 41
2.0
 42
2.0
 43
2.0
 50
270.0
  0
MTEXT
  5
1E7
330
1E0
100
AcDbEntity
  8
SUNPO
 62
     0
100
AcDbMText
 10
56.20234193867297
 20
323.152759397359
 30
0.0
 40
2.5
 41
0.0
 71
     5
 72
     1
  1
\A1;207
 11
0.0000000000000001
 21
1.0
 31
0.0
 73
     1
 44
1.0
1001
ACAD
1000
MTEXTBEGIN
1070
    73
1070
     1
1070
    44
1040
1.0
1070
    74
1070
     0
1000
MTEXTEND
  0
POINT
  5
1E8
330
1E0
100
AcDbEntity
  8
Defpoints
 62
     0
100
AcDbPoint
 10
49.95234193867299
 20
343.8434489234536
 30
0.0
  0
POINT
  5
1E9
330
1E0
100
AcDbEntity
  8
Defpoints
 62
     0
100
AcDbPoint
 10
49.95234193867299
 20
302.4620698712643
 30
0.0
  0
POINT
  5
1EA
330
1E0
100
AcDbEntity
  8
Defpoints
 62
     0
100
AcDbPoint
 10
57.95234193867301
 20
302.4620698712643
 30
0.0
  0
ENDBLK
  5
1EB
330
1E0
100
AcDbEntity
  8
0
100
AcDbBlockEnd
  0
BLOCK
  5
1D3
330
1D2
100
AcDbEntity
  8
0
100
AcDbBlockBegin
  2
*D3
 70
     1
 10
0.0
 20
0.0
 30
0.0
  3
*D3
  1

  0
LINE
  5
1D4
330
1D2
100
AcDbEntity
  8
SUNPO
 62
     0
370
    -2
100
AcDbLine
 10
42.50115049537305
 20
345.8718179355468
 30
0.0
 11
42.50115049537305
 21
353.8718179355468
 31
0.0
  0
LINE
  5
1D5
330
1D2
100
AcDbEntity
  8
SUNPO
 62
     0
370
    -2
100
AcDbLine
 10
49.86065283222609
 20
345.8718179355468
 30
0.0
 11
49.86065283222609
 21
353.8718179355468
 31
0.0
  0
LINE
  5
1D6
330
1D2
100
AcDbEntity
  8
SUNPO
 62
     0
370
    -2
100
AcDbLine
 10
44.50115049537305
 20
351.8718179355468
 30
0.0
 11
47.86065283222609
 21
351.8718179355468
 31
0.0
  0
INSERT
  5
1D7
330
1D2
100
AcDbEntity
  8
SUNPO
 62
     0
370
    -2
100
AcDbBlockReference
  2
_OPEN30
 10
42.50115049537305
 20
351.8718179355468
 30
0.0
 41
2.0
 42
2.0
 43
2.0
 50
180.0
  0
INSERT
  5
1D8
330
1D2
100
AcDbEntity
  8
SUNPO
 62
     0
370
    -2
100
AcDbBlockReference
  2
_OPEN30
 10
49.86065283222609
 20
351.8718179355468
 30
0.0
 41
2.0
 42
2.0
 43
2.0
  0
MTEXT
  5
1D9
330
1D2
100
AcDbEntity
  8
SUNPO
 62
     0
100
AcDbMText
 10
46.18090166379957
 20
353.6218179355469
 30
0.0
 40
2.5
 41
0.0
 71
     5
 72
     1
  1
\A1;37
 73
     1
 44
1.0
1001
ACAD
1000
MTEXTBEGIN
1070
    73
1070
     1
1070
    44
1040
1.0
1070
    74
1070
     0
1000
MTEXTEND
  0
POINT
  5
1DA
330
1D2
100
AcDbEntity
  8
Defpoints
 62
     0
100
AcDbPoint
 10
42.50115049537305
 20
343.8718179355469
 30
0.0
  0
POINT
  5
1DC
330
1D2
100
AcDbEntity
  8
Defpoints
 62
     0
100
AcDbPoint
 10
49.86065283222609
 20
343.8718179355469
 30
0.0
  0
POINT
  5
1DD
330
1D2
100
AcDbEntity
  8
Defpoints
 62
     0
100
AcDbPoint
 10
49.86065283222609
 20
351.8718179355468
 30
0.0
  0
ENDBLK
  5
1DE
330
1D2
100
AcDbEntity
  8
0
100
AcDbBlockEnd
  0
BLOCK
  5
216
330
20C
100
AcDbEntity
  8
0
100
AcDbBlockBegin
  2
*D4
 70
     1
 10
0.0
 20
0.0
 30
0.0
  3
*D4
  1

  0
LINE
  5
20D
330
20C
100
AcDbEntity
  8
SUNPO
 62
     0
370
    -2
100
AcDbLine
 10
13.91714031916029
 20
25.44865953618404
 30
0.0
 11
13.91714031916029
 21
33.44865953618404
 31
0.0
  0
LINE
  5
20E
330
20C
100
AcDbEntity
  8
SUNPO
 62
     0
370
    -2
100
AcDbLine
 10
22.15386300777959
 20
25.44865953618404
 30
0.0
 11
22.15386300777959
 21
33.44865953618404
 31
0.0
  0
LINE
  5
20F
330
20C
100
AcDbEntity
  8
SUNPO
 62
     0
370
    -2
100
AcDbLine
 10
15.91714031916029
 20
31.44865953618404
 30
0.0
 11
20.15386300777959
 21
31.44865953618404
 31
0.0
  0
INSERT
  5
210
330
20C
100
AcDbEntity
  8
SUNPO
 62
     0
370
    -2
100
AcDbBlockReference
  2
_OPEN30
 10
13.91714031916029
 20
31.44865953618404
 30
0.0
 41
2.0
 42
2.0
 43
2.0
 50
180.0
  0
INSERT
  5
211
330
20C
100
AcDbEntity
  8
SUNPO
 62
     0
370
    -2
100
AcDbBlockReference
  2
_OPEN30
 10
22.15386300777959
 20
31.44865953618404
 30
0.0
 41
2.0
 42
2.0
 43
2.0
  0
MTEXT
  5
212
330
20C
100
AcDbEntity
  8
SUNPO
 62
     0
100
AcDbMText
 10
18.03550166346994
 20
33.19865953618404
 30
0.0
 40
2.5
 41
0.0
 71
     5
 72
     1
  1
\A1;41
 73
     1
 44
1.0
1001
ACAD
1000
MTEXTBEGIN
1070
    73
1070
     1
1070
    44
1040
1.0
1070
    74
1070
     0
1000
MTEXTEND
  0
POINT
  5
213
330
20C
100
AcDbEntity
  8
Defpoints
 62
     0
100
AcDbPoint
 10
13.91714031916029
 20
23.44865953618404
 30
0.0
  0
POINT
  5
214
330
20C
100
AcDbEntity
  8
Defpoints
 62
     0
100
AcDbPoint
 10
22.15386300777959
 20
23.44865953618404
 30
0.0
  0
POINT
  5
215
330
20C
100
AcDbEntity
  8
Defpoints
 62
     0
100
AcDbPoint
 10
22.15386300777959
 20
31.44865953618404
 30
0.0
  0
ENDBLK
  5
217
330
20C
100
AcDbEntity
  8
0
100
AcDbBlockEnd
  0
BLOCK
  5
222
330
218
100
AcDbEntity
  8
0
100
AcDbBlockBegin
  2
*D5
 70
     1
 10
0.0
 20
0.0
 30
0.0
  3
*D5
  1

  0
LINE
  5
219
330
218
100
AcDbEntity
  8
SUNPO
 62
     0
370
    -2
100
AcDbLine
 10
-13.52902951746097
 20
23.42029052409083
 30
0.0
 11
-5.529029517460932
 21
23.42029052409083
 31
0.0
  0
LINE
  5
21A
330
218
100
AcDbEntity
  8
SUNPO
 62
     0
370
    -2
100
AcDbLine
 10
-13.52902951746097
 20
-17.96108852809851
 30
0.0
 11
-5.529029517460941
 21
-17.96108852809852
 31
0.0
  0
LINE
  5
21B
330
218
100
AcDbEntity
  8
SUNPO
 62
     0
370
    -2
100
AcDbLine
 10
-7.529029517460933
 20
21.42029052409083
 30
0.0
 11
-7.529029517460941
 21
-15.96108852809851
 31
0.0
  0
INSERT
  5
21C
330
218
100
AcDbEntity
  8
SUNPO
 62
     0
370
    -2
100
AcDbBlockReference
  2
_OPEN30
 10
-7.529029517460932
 20
23.42029052409083
 30
0.0
 41
2.0
 42
2.0
 43
2.0
 50
90.0
  0
INSERT
  5
21D
330
218
100
AcDbEntity
  8
SUNPO
 62
     0
370
    -2
100
AcDbBlockReference
  2
_OPEN30
 10
-7.529029517460941
 20
-17.96108852809852
 30
0.0
 41
2.0
 42
2.0
 43
2.0
 50
270.0
  0
MTEXT
  5
21E
330
218
100
AcDbEntity
  8
SUNPO
 62
     0
100
AcDbMText
 10
-9.279029517460937
 20
2.729600997996155
 30
0.0
 40
2.5
 41
0.0
 71
     5
 72
     1
  1
\A1;207
 11
0.0000000000000001
 21
1.0
 31
0.0
 73
     1
 44
1.0
1001
ACAD
1000
MTEXTBEGIN
1070
    73
1070
     1
1070
    44
1040
1.0
1070
    74
1070
     0
1000
MTEXTEND
  0
POINT
  5
21F
330
218
100
AcDbEntity
  8
Defpoints
 62
     0
100
AcDbPoint
 10
-15.52902951746097
 20
23.42029052409083
 30
0.0
  0
POINT
  5
220
330
218
100
AcDbEntity
  8
Defpoints
 62
     0
100
AcDbPoint
 10
-15.52902951746097
 20
-17.96108852809851
 30
0.0
  0
POINT
  5
221
330
218
100
AcDbEntity
  8
Defpoints
 62
     0
100
AcDbPoint
 10
-7.529029517460941
 20
-17.96108852809852
 30
0.0
  0
ENDBLK
  5
223
330
218
100
AcDbEntity
  8
0
100
AcDbBlockEnd
  0
BLOCK
  5
22E
330
224
100
AcDbEntity
  8
0
100
AcDbBlockBegin
  2
*D6
 70
     1
 10
0.0
 20
0.0
 30
0.0
  3
*D6
  1

  0
LINE
  5
225
330
224
100
AcDbEntity
  8
SUNPO
 62
     0
370
    -2
100
AcDbLine
 10
-22.9802209607609
 20
25.44865953618404
 30
0.0
 11
-22.9802209607609
 21
33.44865953618404
 31
0.0
  0
LINE
  5
226
330
224
100
AcDbEntity
  8
SUNPO
 62
     0
370
    -2
100
AcDbLine
 10
-15.62071862390786
 20
25.44865953618404
 30
0.0
 11
-15.62071862390786
 21
33.44865953618404
 31
0.0
  0
LINE
  5
227
330
224
100
AcDbEntity
  8
SUNPO
 62
     0
370
    -2
100
AcDbLine
 10
-20.9802209607609
 20
31.44865953618404
 30
0.0
 11
-17.62071862390786
 21
31.44865953618404
 31
0.0
  0
INSERT
  5
228
330
224
100
AcDbEntity
  8
SUNPO
 62
     0
370
    -2
100
AcDbBlockReference
  2
_OPEN30
 10
-22.9802209607609
 20
31.44865953618404
 30
0.0
 41
2.0
 42
2.0
 43
2.0
 50
180.0
  0
INSERT
  5
229
330
224
100
AcDbEntity
  8
SUNPO
 62
     0
370
    -2
100
AcDbBlockReference
  2
_OPEN30
 10
-15.62071862390786
 20
31.44865953618404
 30
0.0
 41
2.0
 42
2.0
 43
2.0
  0
MTEXT
  5
22A
330
224
100
AcDbEntity
  8
SUNPO
 62
     0
100
AcDbMText
 10
-19.30046979233438
 20
33.19865953618404
 30
0.0
 40
2.5
 41
0.0
 71
     5
 72
     1
  1
\A1;37
 73
     1
 44
1.0
1001
ACAD
1000
MTEXTBEGIN
1070
    73
1070
     1
1070
    44
1040
1.0
1070
    74
1070
     0
1000
MTEXTEND
  0
POINT
  5
22B
330
224
100
AcDbEntity
  8
Defpoints
 62
     0
100
AcDbPoint
 10
-22.9802209607609
 20
23.44865953618404
 30
0.0
  0
POINT
  5
22C
330
224
100
AcDbEntity
  8
Defpoints
 62
     0
100
AcDbPoint
 10
-15.62071862390786
 20
23.44865953618404
 30
0.0
  0
POINT
  5
22D
330
224
100
AcDbEntity
  8
Defpoints
 62
     0
100
AcDbPoint
 10
-15.62071862390786
 20
31.44865953618404
 30
0.0
  0
ENDBLK
  5
22F
330
224
100
AcDbEntity
  8
0
100
AcDbBlockEnd
  0
ENDSEC
  0
SECTION
  2
ENTITIES
  0
TEXT
  5
2F
330
2
100
AcDbEntity
  8
MOJI1
100
AcDbText
 10
-35.98137151209267
 20
46.07767672557173
 30
0.0
 40
4.0
  1
赤外線ワイヤレスマイクロホン（ハンド型）
100
AcDbText
  0
TEXT
  5
31
330
2
100
AcDbEntity
  8
TOUROKU
100
AcDbText
 10
46.15191185416796
 20
40.07767672557162
 30
0.0
 40
2.0
  1
ＷＸＬＴ１５０
 72
     2
 11
62.01857852083463
 21
40.07767672557162
 31
0.0
100
AcDbText
  0
TEXT
  5
33
330
2
100
AcDbEntity
  8
MOJI1
100
AcDbText
 10
-20.48137151209266
 20
-36.92232327442838
 30
0.0
 40
3.0
  1
乾電池：単３形アルカリ乾電池×１個
100
AcDbText
  0
TEXT
  5
34
330
2
100
AcDbEntity
  8
MOJI1
100
AcDbText
 10
-60.48137151209266
 20
-31.92232327442838
 30
0.0
 40
3.0
  1
使用電池
100
AcDbText
  0
LINE
  5
35
330
2
100
AcDbEntity
  8
WAKU
 62
     1
100
AcDbLine
 10
-62.98137151209266
 20
-32.92232327442838
 30
0.0
 11
62.01862848790733
 21
-32.92232327442838
 31
0.0
  0
TEXT
  5
37
330
2
100
AcDbEntity
  8
MOJI1
100
AcDbText
 10
-20.48137151209266
 20
-31.92232327442838
 30
0.0
 40
3.0
  1
充電池：単３形ニッケル水素電池×１個または
100
AcDbText
  0
TEXT
  5
38
330
2
100
AcDbEntity
  8
MOJI1
100
AcDbText
 10
-60.48137151209266
 20
-56.92232327442837
 30
0.0
 40
3.0
  1
実用受信範囲
100
AcDbText
  0
LINE
  5
39
330
2
100
AcDbEntity
  8
WAKU
 62
     1
100
AcDbLine
 10
-62.98137151209266
 20
-52.92232327442838
 30
0.0
 11
62.01862848790733
 21
-52.92232327442838
 31
0.0
  0
LINE
  5
3A
330
2
100
AcDbEntity
  8
WAKU
 62
     4
100
AcDbLine
 10
-62.98137151209266
 20
-62.92232327442838
 30
0.0
 11
62.01862848790733
 21
-62.92232327442838
 31
0.0
  0
LINE
  5
3B
330
2
100
AcDbEntity
  8
WAKU
 62
     4
100
AcDbLine
 10
62.01862848790733
 20
-27.92232327442838
 30
0.0
 11
-62.98137151209266
 21
-27.92232327442838
 31
0.0
  0
LINE
  5
3C
330
2
100
AcDbEntity
  8
WAKU
 62
     1
100
AcDbLine
 10
-62.98137151209266
 20
-57.92232327442838
 30
0.0
 11
62.01862848790733
 21
-57.92232327442838
 31
0.0
  0
LINE
  5
3D
330
2
100
AcDbEntity
  8
WAKU
 62
     1
100
AcDbLine
 10
-62.98137151209266
 20
-47.92232327442838
 30
0.0
 11
62.01862848790733
 21
-47.92232327442838
 31
0.0
  0
LINE
  5
3E
330
2
100
AcDbEntity
  8
WAKU
 62
     1
100
AcDbLine
 10
-62.98137151209266
 20
-42.92232327442838
 30
0.0
 11
62.01862848790733
 21
-42.92232327442838
 31
0.0
  0
LINE
  5
3F
330
2
100
AcDbEntity
  8
WAKU
 62
     1
100
AcDbLine
 10
-62.98137151209266
 20
-37.92232327442838
 30
0.0
 11
62.01862848790733
 21
-37.92232327442838
 31
0.0
  0
LINE
  5
40
330
2
100
AcDbEntity
  8
WAKU
 62
     4
100
AcDbLine
 10
-62.98137151209266
 20
-27.92232327442838
 30
0.0
 11
-62.98137151209266
 21
-62.92232327442838
 31
0.0
  0
TEXT
  5
41
330
2
100
AcDbEntity
  8
MOJI1
100
AcDbText
 10
-20.48137151209266
 20
-51.92232327442837
 30
0.0
 40
3.0
  1
水晶制御ＰＬＬシンセサイザー方式
 41
0.9
100
AcDbText
  0
TEXT
  5
42
330
2
100
AcDbEntity
  8
MOJI1
100
AcDbText
 10
-20.48137151209266
 20
-41.92232327442837
 30
0.0
 40
3.0
  1
８５０ｎｍ
100
AcDbText
  0
TEXT
  5
43
330
2
100
AcDbEntity
  8
MOJI1
100
AcDbText
 10
-20.48137151209266
 20
-56.92232327442837
 30
0.0
 40
3.0
  1
受光センサーより半径約８ｍ
100
AcDbText
  0
TEXT
  5
44
330
2
100
AcDbEntity
  8
MOJI1
100
AcDbText
 10
-20.48137151209266
 20
-61.92232327442837
 30
0.0
 40
3.0
  1
－１４ｄＢＶ　φ３．５ステレオミニジャック
100
AcDbText
  0
TEXT
  5
45
330
2
100
AcDbEntity
  8
MOJI1
100
AcDbText
 10
-20.48137151209266
 20
-46.92232327442837
 30
0.0
 40
3.0
  1
４波中の１波
100
AcDbText
  0
TEXT
  5
46
330
2
100
AcDbEntity
  8
MOJI1
100
AcDbText
 10
-60.48137151209266
 20
-41.92232327442837
 30
0.0
 40
3.0
  1
赤外線波長
100
AcDbText
  0
TEXT
  5
47
330
2
100
AcDbEntity
  8
MOJI1
100
AcDbText
 10
-60.48137151209266
 20
-46.92232327442837
 30
0.0
 40
3.0
  1
副搬送波チャンネル
100
AcDbText
  0
TEXT
  5
48
330
2
100
AcDbEntity
  8
MOJI1
100
AcDbText
 10
-60.48137151209266
 20
-51.92232327442837
 30
0.0
 40
3.0
  1
発振方式
100
AcDbText
  0
TEXT
  5
49
330
2
100
AcDbEntity
  8
MOJI1
100
AcDbText
 10
-60.48137151209266
 20
-61.92232327442837
 30
0.0
 40
3.0
  1
外部入力
100
AcDbText
  0
LINE
  5
4A
330
2
100
AcDbEntity
  8
WAKU
 62
     4
100
AcDbLine
 10
-22.98137151209266
 20
-62.92232327442838
 30
0.0
 11
-22.98137151209266
 21
-27.92232327442838
 31
0.0
  0
LINE
  5
4B
330
2
100
AcDbEntity
  8
WAKU
 62
     4
100
AcDbLine
 10
62.01862848790733
 20
-62.92232327442838
 30
0.0
 11
62.01862848790733
 21
-27.92232327442838
 31
0.0
  0
ARC
  5
4C
330
2
100
AcDbEntity
  8
GAIKEI
 62
     7
100
AcDbCircle
 10
-19.67094735623695
 20
-15.53762280189966
 30
0.0
 40
2.42809121732387
100
AcDbArc
 50
229.7355194013661
 51
266.4628536823971
  0
ARC
  5
4D
330
2
100
AcDbEntity
  8
GAIKEI
 62
     7
100
AcDbCircle
 10
-19.28225216831907
 20
-13.97223976715042
 30
0.0
 40
4.021398602185506
100
AcDbArc
 50
274.8714959852533
 51
287.2349369547253
  0
ARC
  5
4E
330
2
100
AcDbEntity
  8
GAIKEI
 62
     7
100
AcDbCircle
 10
-18.74609175488427
 20
-15.8400081344916
 30
0.0
 40
2.078849368498859
100
AcDbArc
 50
288.3754561729415
 51
311.7717147163369
  0
LINE
  5
4F
330
2
100
AcDbEntity
  8
GAIKEI
 62
     1
100
AcDbLine
 10
-18.09075000502781
 20
-17.52500121121852
 30
0.0
 11
-18.09075000502781
 21
-17.81306901518161
 31
0.0
  0
ARC
  5
50
330
2
100
AcDbEntity
  8
GAIKEI
 62
     1
100
AcDbCircle
 10
-17.89025700627133
 20
-17.58330015832178
 30
0.0
 40
0.2087970540590204
100
AcDbArc
 50
125.416961900449
 51
163.7867330658731
  0
ARC
  5
51
330
2
100
AcDbEntity
  8
GAIKEI
 62
     1
100
AcDbCircle
 10
-18.63103402929499
 20
-16.16999306425907
 30
0.0
 40
1.357734536661345
100
AcDbArc
 50
309.2316850105552
 51
334.7343550055883
  0
ARC
  5
52
330
2
100
AcDbEntity
  8
GAIKEI
 62
     1
100
AcDbCircle
 10
-15.26639218294818
 20
-20.59394870827384
 30
0.0
 40
4.201409654235571
100
AcDbArc
 50
126.6160908978815
 51
130.7924300096899
  0
LINE
  5
53
330
2
100
AcDbEntity
  8
GAIKEI
 62
     7
100
AcDbLine
 10
-19.82075000502783
 20
-17.96108852809851
 30
0.0
 11
-19.82075000502783
 21
-17.91587375081849
 31
0.0
  0
LINE
  5
54
330
2
100
AcDbEntity
  8
GAIKEI
 62
     7
100
AcDbLine
 10
-19.34069342208781
 20
-17.94232644057848
 30
0.0
 11
-19.30075000502779
 21
-17.9037608182785
 31
0.0
  0
LINE
  5
55
330
2
100
AcDbEntity
  8
GAIKEI
 62
     7
100
AcDbLine
 10
-19.30075000502779
 20
-17.9037608182785
 30
0.0
 11
-19.2608066958478
 21
-17.94356781161849
 31
0.0
  0
LINE
  5
56
330
2
100
AcDbEntity
  8
GAIKEI
 62
     7
100
AcDbLine
 10
-19.2608066958478
 20
-17.94356781161849
 30
0.0
 11
-18.94075000502781
 21
-17.92145836273846
 31
0.0
  0
LINE
  5
57
330
2
100
AcDbEntity
  8
GAIKEI
 62
     7
100
AcDbLine
 10
-18.94075000502781
 20
-17.92145836273846
 30
0.0
 11
-18.94075000502784
 21
-17.97911173791851
 31
0.0
  0
LINE
  5
58
330
2
100
AcDbEntity
  8
GAIKEI
 62
     7
100
AcDbLine
 10
-19.34069342208781
 20
-17.94232644057848
 30
0.0
 11
-19.75435571002404
 21
-17.91199426651758
 31
0.0
  0
ARC
  5
59
330
2
100
AcDbEntity
  8
GAIKEI
 62
     7
100
AcDbCircle
 10
-19.7979659101218
 20
-17.9551426100777
 30
0.0
 40
0.0453999811476489
100
AcDbArc
 50
82.46824774578461
 51
120.1226375470522
  0
ARC
  5
5A
330
2
100
AcDbEntity
  8
GAIKEI
 62
     7
100
AcDbCircle
 10
-19.78806901513988
 20
-18.21242170133985
 30
0.0
 40
0.3023131332504794
100
AcDbArc
 50
83.59718068722733
 51
90.74789761309501
  0
ARC
  5
5B
330
2
100
AcDbEntity
  8
GAIKEI
 62
     1
100
AcDbCircle
 10
-11.08301036440787
 20
-16.61979939526441
 30
0.0
 40
6.325344623730173
100
AcDbArc
 50
177.7134380881841
 51
186.9978034003493
  0
ARC
  5
5C
330
2
100
AcDbEntity
  8
GAIKEI
 62
     7
100
AcDbCircle
 10
-41.73590977342761
 20
-13.37136856639387
 30
0.0
 40
24.70379550076987
100
AcDbArc
 50
350.6369431121525
 51
353.7749010972895
  0
ARC
  5
5D
330
2
100
AcDbEntity
  8
GAIKEI
 62
     7
100
AcDbCircle
 10
-95.02035414208686
 20
-9.381577618101744
 30
0.0
 40
78.12769041616772
100
AcDbArc
 50
355.1035947348267
 51
357.7825562869602
  0
ARC
  5
5E
330
2
100
AcDbEntity
  8
GAIKEI
 62
     7
100
AcDbCircle
 10
-960.6277620773425
 20
30.37465223576442
 30
0.0
 40
944.6457386493163
100
AcDbArc
 50
357.404420361338
 51
358.1369763735901
  0
ARC
  5
5F
330
2
100
AcDbEntity
  8
GAIKEI
 62
     7
100
AcDbCircle
 10
224.3204656714504
 20
-5.215811486545533
 30
0.0
 40
240.8512647688311
100
AcDbArc
 50
177.0286927141164
 51
178.839054187123
  0
ARC
  5
60
330
2
100
AcDbEntity
  8
GAIKEI
  6
Continuous
 62
     7
100
AcDbCircle
 10
-3.289735391975483
 20
6.62586729819236
 30
0.0
 40
12.93326413336005
100
AcDbArc
 50
162.4457190795631
 51
177.1500333930549
  0
ARC
  5
61
330
2
100
AcDbEntity
  8
GAIKEI
 62
     1
100
AcDbCircle
 10
-1000.043940372786
 20
12.46614276048882
 30
0.0
 40
983.0651368813553
100
AcDbArc
 50
358.3154441938535
 51
358.9388227750309
  0
ARC
  5
62
330
2
100
AcDbEntity
  8
GAIKEI
 62
     1
100
AcDbCircle
 10
288.0162700591536
 20
-8.744935293949197
 30
0.0
 40
305.1795049973878
100
AcDbArc
 50
177.2252733286439
 51
179.4614215578195
  0
ARC
  5
63
330
2
100
AcDbEntity
  8
GAIKEI
 62
     1
100
AcDbCircle
 10
3.413860719261521
 20
4.752503713571456
 30
0.0
 40
20.25931917429966
100
AcDbArc
 50
169.1357299206389
 51
176.3410506950457
  0
ARC
  5
64
330
2
100
AcDbEntity
  8
GAIKEI
  6
Continuous
 62
     1
100
AcDbCircle
 10
-12.13314991359732
 20
7.822460536135054
 30
0.0
 40
4.413142111857535
100
AcDbArc
 50
142.2106423801971
 51
170.2339537540788
  0
ARC
  5
65
330
2
100
AcDbEntity
  8
GAIKEI
 62
     7
100
AcDbCircle
 10
-88.14519202724765
 20
9.610465945336102
 30
0.0
 40
72.53026024786371
100
AcDbArc
 50
0.7237720486072989
 51
1.622468913358725
  0
LINE
  5
66
330
2
100
AcDbEntity
  8
GAIKEI
 62
     1
100
AcDbLine
 10
-22.95749001700778
 20
11.6640616367415
 30
0.0
 11
-15.64400999302782
 21
11.6640616367415
 31
0.0
  0
LINE
  5
67
330
2
100
AcDbEntity
  8
GAIKEI
 62
     1
100
AcDbLine
 10
-22.93537115684782
 20
11.72406163674145
 30
0.0
 11
-15.66612799954782
 21
11.72406163674145
 31
0.0
  0
ARC
  5
68
330
2
100
AcDbEntity
  8
GAIKEI
 62
     7
100
AcDbCircle
 10
1097.586769915924
 20
82.28175713780411
 30
0.0
 40
1115.486846311335
100
AcDbArc
 50
183.3702708688755
 51
183.6265409743126
  0
LINE
  5
69
330
2
100
AcDbEntity
  8
GAIKEI
 62
     1
100
AcDbLine
 10
-22.63067192258782
 20
16.70406163674147
 30
0.0
 11
-15.97080387466226
 21
16.70406163674153
 31
0.0
  0
LINE
  5
6A
330
2
100
AcDbEntity
  8
GAIKEI
 62
     1
100
AcDbLine
 10
-22.6476716432278
 20
16.74406163674143
 30
0.0
 11
-15.95380700740784
 21
16.74406163674143
 31
0.0
  0
ARC
  5
6B
330
2
100
AcDbEntity
  8
GAIKEI
 62
     7
100
AcDbCircle
 10
-55.82975162090448
 20
14.19855893533355
 30
0.0
 40
39.9571750117348
100
AcDbArc
 50
3.652545310470493
 51
11.80234352569249
  0
ARC
  5
6C
330
2
100
AcDbEntity
  8
GAIKEI
 62
     7
100
AcDbCircle
 10
-17.30269287786211
 20
22.24187681525393
 30
0.0
 40
0.5995068273294964
100
AcDbArc
 50
12.46176816185389
 51
51.76228832930425
  0
ARC
  5
6D
330
2
100
AcDbEntity
  8
GAIKEI
 62
     7
100
AcDbCircle
 10
-19.00344566367971
 20
19.89656422691024
 30
0.0
 40
3.496219588546736
100
AcDbArc
 50
53.65901886382115
 51
81.10131053622891
  0
ARC
  5
6E
330
2
100
AcDbEntity
  8
GAIKEI
 62
     7
100
AcDbCircle
 10
-19.21434054959735
 20
19.41922067449377
 30
0.0
 40
4.002701385149113
100
AcDbArc
 50
79.17543117984338
 51
88.36265218652149
  0
LINE
  5
6F
330
2
100
AcDbEntity
  8
GAIKEI
 62
     1
100
AcDbLine
 10
-19.30074957819783
 20
23.42029076519913
 30
0.0
 11
-19.09997047866039
 21
23.42028776535125
 31
0.0
  0
ARC
  5
70
330
2
100
AcDbEntity
  8
GAIKEI
  6
Continuous
 62
     1
100
AcDbCircle
 10
-26.46834924279835
 20
7.822460536135054
 30
0.0
 40
4.413142111857535
100
AcDbArc
 50
9.76604624592117
 51
37.78935761980289
  0
ARC
  5
71
330
2
100
AcDbEntity
  8
GAIKEI
 62
     1
100
AcDbCircle
 10
-42.01535987565717
 20
4.752503713571456
 30
0.0
 40
20.25931917429966
100
AcDbArc
 50
3.658949304954265
 51
10.86427007936103
  0
ARC
  5
72
330
2
100
AcDbEntity
  8
GAIKEI
 62
     1
100
AcDbCircle
 10
-326.6177692155492
 20
-8.744935293949197
 30
0.0
 40
305.1795049973878
100
AcDbArc
 50
0.5385784421805221
 51
2.774726671356099
  0
ARC
  5
73
330
2
100
AcDbEntity
  8
GAIKEI
 62
     1
100
AcDbCircle
 10
961.4424412163902
 20
12.46614276048882
 30
0.0
 40
983.0651368813553
100
AcDbArc
 50
181.0611772249691
 51
181.6845558061464
  0
ARC
  5
74
330
2
100
AcDbEntity
  8
GAIKEI
  6
Continuous
 62
     7
100
AcDbCircle
 10
-35.31176376442016
 20
6.62586729819236
 30
0.0
 40
12.93326413336005
100
AcDbArc
 50
2.849966606945121
 51
17.55428092043691
  0
ARC
  5
75
330
2
100
AcDbEntity
  8
GAIKEI
 62
     7
100
AcDbCircle
 10
-262.921964827846
 20
-5.215811486545533
 30
0.0
 40
240.8512647688311
100
AcDbArc
 50
1.160945812877018
 51
2.971307285883548
  0
ARC
  5
76
330
2
100
AcDbEntity
  8
GAIKEI
 62
     7
100
AcDbCircle
 10
922.0262629209472
 20
30.37465223576442
 30
0.0
 40
944.6457386493163
100
AcDbArc
 50
181.8630236264099
 51
182.595579638662
  0
ARC
  5
77
330
2
100
AcDbEntity
  8
GAIKEI
 62
     7
100
AcDbCircle
 10
56.41885498569121
 20
-9.381577618101744
 30
0.0
 40
78.12769041616772
100
AcDbArc
 50
182.2174437130397
 51
184.8964052651733
  0
ARC
  5
78
330
2
100
AcDbEntity
  8
GAIKEI
 62
     7
100
AcDbCircle
 10
3.13441061703196
 20
-13.37136856639387
 30
0.0
 40
24.70379550076987
100
AcDbArc
 50
186.2250989027105
 51
189.3630568878475
  0
ARC
  5
79
330
2
100
AcDbEntity
  8
GAIKEI
 62
     1
100
AcDbCircle
 10
-27.51848879198778
 20
-16.61979939526441
 30
0.0
 40
6.325344623730173
100
AcDbArc
 50
353.0021965996507
 51
2.286561911815912
  0
ARC
  5
7A
330
2
100
AcDbEntity
  8
GAIKEI
 62
     1
100
AcDbCircle
 10
-23.33510697344747
 20
-20.59394870827384
 30
0.0
 40
4.201409654235571
100
AcDbArc
 50
49.20756999031008
 51
53.38390910211845
  0
ARC
  5
7B
330
2
100
AcDbEntity
  8
GAIKEI
 62
     1
100
AcDbCircle
 10
-19.97046512710065
 20
-16.16999306425907
 30
0.0
 40
1.357734536661345
100
AcDbArc
 50
205.2656449944117
 51
230.7683149894447
  0
ARC
  5
7C
330
2
100
AcDbEntity
  8
GAIKEI
 62
     1
100
AcDbCircle
 10
-20.71124215012435
 20
-17.58330015832178
 30
0.0
 40
0.2087970540590204
100
AcDbArc
 50
16.21326693412684
 51
54.58303809955094
  0
LINE
  5
7D
330
2
100
AcDbEntity
  8
GAIKEI
 62
     1
100
AcDbLine
 10
-20.51074915136783
 20
-17.52500121121852
 30
0.0
 11
-20.51074915136783
 21
-17.81306901518161
 31
0.0
  0
ARC
  5
7E
330
2
100
AcDbEntity
  8
GAIKEI
 62
     1
100
AcDbCircle
 10
-19.85540740151137
 20
-15.8400081344916
 30
0.0
 40
2.078849368498859
100
AcDbArc
 50
228.228285283663
 51
251.6245438270586
  0
ARC
  5
7F
330
2
100
AcDbEntity
  8
GAIKEI
 62
     7
100
AcDbCircle
 10
-1136.18826907232
 20
82.28175713780411
 30
0.0
 40
1115.486846311335
100
AcDbArc
 50
356.3734590256874
 51
356.6297291317737
  0
ARC
  5
80
330
2
100
AcDbEntity
  8
GAIKEI
 62
     7
100
AcDbCircle
 10
49.54369287085199
 20
9.610465945336102
 30
0.0
 40
72.53026024786371
100
AcDbArc
 50
178.3775310866412
 51
179.2762279513927
  0
ARC
  5
81
330
2
100
AcDbEntity
  8
GAIKEI
 62
     7
100
AcDbCircle
 10
17.22825246450884
 20
14.19855893533355
 30
0.0
 40
39.9571750117348
100
AcDbArc
 50
168.1976564743075
 51
176.3474546895295
  0
ARC
  5
82
330
2
100
AcDbEntity
  8
GAIKEI
 62
     7
100
AcDbCircle
 10
-19.59805349271593
 20
19.89656422691024
 30
0.0
 40
3.496219588546736
100
AcDbArc
 50
98.89868946377108
 51
126.3409811361788
  0
ARC
  5
83
330
2
100
AcDbEntity
  8
GAIKEI
 62
     7
100
AcDbCircle
 10
-21.29880627853356
 20
22.24187681525393
 30
0.0
 40
0.5995068273294964
100
AcDbArc
 50
128.2377116706957
 51
167.5382318381461
  0
LINE
  5
84
330
2
100
AcDbEntity
  8
GAIKEI
 62
     1
100
AcDbLine
 10
-19.30074957819783
 20
23.42029076519913
 30
0.0
 11
-19.50152867773528
 21
23.42028776535125
 31
0.0
  0
ARC
  5
85
330
2
100
AcDbEntity
  8
GAIKEI
 62
     7
100
AcDbCircle
 10
-19.38715860679829
 20
19.41922067449377
 30
0.0
 40
4.002701385149113
100
AcDbArc
 50
91.63734781347853
 51
100.8245688201566
  0
LINE
  5
86
330
2
100
AcDbEntity
  8
GAIKEI
 62
     1
100
AcDbLine
 10
-19.26109074998158
 20
-17.94328472688556
 30
0.0
 11
-19.26109074998158
 21
0.3645243045567668
 31
0.0
  0
LINE
  5
87
330
2
100
AcDbEntity
  8
GAIKEI
 62
     1
100
AcDbLine
 10
-19.3406314906141
 20
-17.94226664534813
 30
0.0
 11
-19.3406314906141
 21
0.3645295049158221
 31
0.0
  0
ARC
  5
88
330
2
100
AcDbEntity
  8
GAIKEI
 62
     1
100
AcDbCircle
 10
-19.30075000502779
 20
2.064061636741485
 30
0.0
 40
1.700000000000097
100
AcDbArc
 50
181.7849896532971
 51
358.2150103467029
  0
LINE
  5
89
330
2
100
AcDbEntity
  8
GAIKEI
 62
     1
100
AcDbLine
 10
-17.60157492142781
 20
2.011108494321433
 30
0.0
 11
-17.30075000502779
 21
11.6640616367415
 31
0.0
  0
LINE
  5
8A
330
2
100
AcDbEntity
  8
GAIKEI
 62
     1
100
AcDbLine
 10
-20.99992508862243
 20
2.01110849432689
 30
0.0
 11
-21.30075000502779
 21
11.6640616367415
 31
0.0
  0
LINE
  5
8B
330
2
100
AcDbEntity
  8
GAIKEI
 62
     1
100
AcDbLine
 10
-19.3007461466388
 20
3.564067360900594
 30
0.0
 11
-19.3007461466388
 21
2.074840483214416
 31
0.0
  0
ARC
  5
8C
330
2
100
AcDbEntity
  8
GAIKEI
 62
     1
100
AcDbCircle
 10
-19.30076290239302
 20
3.55319027511399
 30
0.0
 40
1.339190770519559
100
AcDbArc
 50
185.4288399202411
 51
354.5895431759683
  0
LINE
  5
8D
330
2
100
AcDbEntity
  8
GAIKEI
 62
     1
100
AcDbLine
 10
-20.63394669108828
 20
3.426490214321006
 30
0.0
 11
-20.7005509785478
 21
7.090456956961475
 31
0.0
  0
LINE
  5
8E
330
2
100
AcDbEntity
  8
GAIKEI
 62
     1
100
AcDbLine
 10
-17.96754560218932
 20
3.426490214321006
 30
0.0
 11
-17.90094897302782
 21
7.090460087121527
 31
0.0
  0
ARC
  5
8F
330
2
100
AcDbEntity
  8
GAIKEI
 62
     1
100
AcDbCircle
 10
-19.30075000185877
 20
7.113776287611642
 30
0.0
 40
1.399995201963732
100
AcDbArc
 50
359.0457241239294
 51
180.9544039978227
  0
ARC
  5
90
330
2
100
AcDbEntity
  8
GAIKEI
 62
     1
100
AcDbCircle
 10
-19.30074999136781
 20
3.773028446698276
 30
0.0
 40
0.9535745246484793
100
AcDbArc
 50
180.5387811069152
 51
359.4612188930847
  0
LINE
  5
91
330
2
100
AcDbEntity
  8
GAIKEI
 62
     1
100
AcDbLine
 10
-20.25428235598778
 20
3.76406163674153
 30
0.0
 11
-20.25433264096782
 21
6.964061636741462
 31
0.0
  0
LINE
  5
92
330
2
100
AcDbEntity
  8
GAIKEI
 62
     1
100
AcDbLine
 10
-18.3472176267478
 20
3.76406163674153
 30
0.0
 11
-18.34716736930781
 21
6.964061636741462
 31
0.0
  0
ARC
  5
93
330
2
100
AcDbEntity
  8
GAIKEI
 62
     1
100
AcDbCircle
 10
-19.30075000513778
 20
6.964091159080908
 30
0.0
 40
0.9535826362870208
100
AcDbArc
 50
359.9982261574526
 51
180.0017738425474
  0
ARC
  5
94
330
2
100
AcDbEntity
  8
GAIKEI
 62
     1
100
AcDbCircle
 10
-19.30045824005475
 20
6.912803814082678
 30
0.0
 40
0.9033692579949891
100
AcDbArc
 50
357.4294825080526
 51
178.4772560058973
  0
LINE
  5
95
330
2
100
AcDbEntity
  8
GAIKEI
 62
     1
100
AcDbLine
 10
-19.95780911025952
 20
5.661628420741351
 30
0.0
 11
-18.65797821476781
 21
5.661239983421523
 31
0.0
  0
LINE
  5
96
330
2
100
AcDbEntity
  8
GAIKEI
 62
     1
100
AcDbLine
 10
-20.20362821360783
 20
5.920981816641528
 30
0.0
 11
-20.20350847778275
 21
6.936809738973011
 31
0.0
  0
LINE
  5
97
330
2
100
AcDbEntity
  8
GAIKEI
 62
     1
100
AcDbLine
 10
-18.39787179644782
 20
5.920981816041489
 30
0.0
 11
-18.3980049680878
 21
6.908178138841549
 31
0.0
  0
ARC
  5
98
330
2
100
AcDbEntity
  8
GAIKEI
 62
     1
100
AcDbCircle
 10
-19.94365665949851
 20
5.921214574570285
 30
0.0
 40
0.2599716583057516
100
AcDbArc
 50
180.0512980870099
 51
266.8793646599191
  0
ARC
  5
99
330
2
100
AcDbEntity
  8
GAIKEI
 62
     1
100
AcDbCircle
 10
-19.93080278372502
 20
5.913965160744908
 30
0.0
 40
0.379903527669575
100
AcDbArc
 50
212.62893759713
 51
270.0079599036119
  0
ARC
  5
9A
330
2
100
AcDbEntity
  8
GAIKEI
 62
     1
100
AcDbCircle
 10
-18.65784387984837
 20
5.921214574570285
 30
0.0
 40
0.2599716583057516
100
AcDbArc
 50
273.1206353400808
 51
359.94870191299
  0
ARC
  5
9B
330
2
100
AcDbEntity
  8
GAIKEI
 62
     1
100
AcDbCircle
 10
-18.67069775562183
 20
5.913965160744908
 30
0.0
 40
0.379903527669575
100
AcDbArc
 50
269.9920400963881
 51
327.3710624028699
  0
LINE
  5
9C
330
2
100
AcDbEntity
  8
GAIKEI
 62
     1
100
AcDbLine
 10
-19.93075000504783
 20
5.534061636741512
 30
0.0
 11
-18.67075053429903
 21
5.534061636741512
 31
0.0
  0
LINE
  5
9D
330
2
100
AcDbEntity
  8
GAIKEI
 62
     1
100
AcDbLine
 10
-20.05260075616678
 20
3.562282337652334
 30
0.0
 11
-18.54889153711082
 21
3.562282337652334
 31
0.0
  0
LINE
  5
9E
330
2
100
AcDbEntity
  8
GAIKEI
 62
     1
100
AcDbLine
 10
-20.02047217364779
 20
3.92502280792155
 30
0.0
 11
-18.58102011962859
 21
3.92502280792155
 31
0.0
  0
ARC
  5
9F
330
2
100
AcDbEntity
  8
GAIKEI
 62
     1
100
AcDbCircle
 10
-20.01598599011635
 20
3.741832379896322
 30
0.0
 40
0.1832453512718552
100
AcDbArc
 50
91.40284631593118
 51
258.4739879120216
  0
ARC
  5
A0
330
2
100
AcDbEntity
  8
GAIKEI
 62
     1
100
AcDbCircle
 10
-18.58550630316125
 20
3.741832379896322
 30
0.0
 40
0.1832453512718552
100
AcDbArc
 50
281.5260120879784
 51
88.59715368406879
  0
LINE
  5
A1
330
2
100
AcDbEntity
  8
GAIKEI
 62
     1
100
AcDbLine
 10
-20.03075000422777
 20
4.814061636741485
 30
0.0
 11
-18.57075000168783
 21
4.814060326141543
 31
0.0
  0
ARC
  5
A2
330
2
100
AcDbEntity
  8
GAIKEI
 62
     1
100
AcDbCircle
 10
-20.03074649107725
 20
4.534060325727352
 30
0.0
 40
0.2800013110361718
100
AcDbArc
 50
90.00071888484233
 51
141.7870233073574
  0
ARC
  5
A3
330
2
100
AcDbEntity
  8
GAIKEI
 62
     1
100
AcDbCircle
 10
-18.57074586586211
 20
4.534072863144672
 30
0.0
 40
0.2799874630274174
100
AcDbArc
 50
38.21192961590432
 51
90.00084634274852
  0
LINE
  5
A4
330
2
100
AcDbEntity
  8
GAIKEI
 62
     1
100
AcDbLine
 10
-19.5407500050278
 20
4.244061636741434
 30
0.0
 11
-19.06075000502784
 21
4.244061636741434
 31
0.0
  0
LINE
  5
A5
330
2
100
AcDbEntity
  8
GAIKEI
 62
     1
100
AcDbLine
 10
-19.56682994562783
 20
4.314390446441507
 30
0.0
 11
-19.33986991594079
 21
4.50955485129225
 31
0.0
  0
LINE
  5
A6
330
2
100
AcDbEntity
  8
GAIKEI
 62
     1
100
AcDbLine
 10
-19.2616300941078
 20
4.509554851301459
 30
0.0
 11
-19.03467006440783
 21
4.314390446441507
 31
0.0
  0
ARC
  5
A7
330
2
100
AcDbEntity
  8
GAIKEI
 62
     1
100
AcDbCircle
 10
-19.54075000503095
 20
4.284061636736964
 30
0.0
 40
0.0399999999953844
100
AcDbArc
 50
130.6924513584856
 51
270.0000000045189
  0
ARC
  5
A8
330
2
100
AcDbEntity
  8
GAIKEI
 62
     1
100
AcDbCircle
 10
-19.30075000502779
 20
4.464061636741519
 30
0.0
 40
0.0599999999999957
100
AcDbArc
 50
49.30754862492455
 51
130.6924513750754
  0
ARC
  5
A9
330
2
100
AcDbEntity
  8
GAIKEI
 62
     1
100
AcDbCircle
 10
-19.06075000502793
 20
4.284061636741455
 30
0.0
 40
0.0400000000000205
100
AcDbArc
 50
270.0000000001124
 51
49.30754862482571
  0
CIRCLE
  5
AA
330
2
100
AcDbEntity
  8
GAIKEI
 62
     1
100
AcDbCircle
 10
-19.7007500050278
 20
6.16406163674145
 30
0.0
 40
0.0800000000000009
  0
CIRCLE
  5
AB
330
2
100
AcDbEntity
  8
GAIKEI
 62
     1
100
AcDbCircle
 10
-19.30075000502779
 20
6.164061636741507
 30
0.0
 40
0.079999999999969
  0
CIRCLE
  5
AC
330
2
100
AcDbEntity
  8
GAIKEI
 62
     1
100
AcDbCircle
 10
-18.90075000502779
 20
6.164061636741507
 30
0.0
 40
0.079999999999966
  0
CIRCLE
  5
AD
330
2
100
AcDbEntity
  8
GAIKEI
 62
     1
100
AcDbCircle
 10
-18.90075000502779
 20
6.464061636741462
 30
0.0
 40
0.079999999999966
  0
CIRCLE
  5
AE
330
2
100
AcDbEntity
  8
GAIKEI
 62
     1
100
AcDbCircle
 10
-19.30075000502779
 20
6.464061636741462
 30
0.0
 40
0.079999999999969
  0
CIRCLE
  5
AF
330
2
100
AcDbEntity
  8
GAIKEI
 62
     1
100
AcDbCircle
 10
-19.7007500050278
 20
6.464061636741405
 30
0.0
 40
0.0800000000000009
  0
CIRCLE
  5
B0
330
2
100
AcDbEntity
  8
GAIKEI
 62
     1
100
AcDbCircle
 10
-18.90075000502779
 20
6.76406163674153
 30
0.0
 40
0.079999999999966
  0
CIRCLE
  5
B1
330
2
100
AcDbEntity
  8
GAIKEI
 62
     1
100
AcDbCircle
 10
-19.30075000502779
 20
6.76406163674153
 30
0.0
 40
0.079999999999969
  0
CIRCLE
  5
B2
330
2
100
AcDbEntity
  8
GAIKEI
 62
     1
100
AcDbCircle
 10
-19.7007500050278
 20
6.764061636741473
 30
0.0
 40
0.0800000000000009
  0
CIRCLE
  5
B3
330
2
100
AcDbEntity
  8
GAIKEI
 62
     1
100
AcDbCircle
 10
-19.30075000502779
 20
9.76406163674153
 30
0.0
 40
0.2399999999999486
  0
CIRCLE
  5
B4
330
2
100
AcDbEntity
  8
GAIKEI
 62
     1
100
AcDbCircle
 10
-19.30075000502779
 20
9.76406163674153
 30
0.0
 40
0.3355834337445297
  0
CIRCLE
  5
B5
330
2
100
AcDbEntity
  8
GAIKEI
 62
     1
100
AcDbCircle
 10
-19.30075000502779
 20
10.96406163674146
 30
0.0
 40
0.3355834337445297
  0
CIRCLE
  5
B6
330
2
100
AcDbEntity
  8
GAIKEI
 62
     1
100
AcDbCircle
 10
-19.30075000502779
 20
10.96406163674146
 30
0.0
 40
0.2399999999999486
  0
LINE
  5
B7
330
2
100
AcDbEntity
  8
GAIKEI
 62
     1
100
AcDbLine
 10
-21.77651134874358
 20
22.60406163674156
 30
0.0
 11
-16.82496954223561
 21
22.60406163674156
 31
0.0
  0
LINE
  5
B8
330
2
100
AcDbEntity
  8
GAIKEI
 62
     1
100
AcDbLine
 10
-22.49341946628584
 20
18.30407340529302
 30
0.0
 11
-19.8383011426078
 21
18.30393315342155
 31
0.0
  0
LINE
  5
B9
330
2
100
AcDbEntity
  8
GAIKEI
 62
     1
100
AcDbLine
 10
-22.45069712868215
 20
18.70407386847353
 30
0.0
 11
-19.83830049208782
 21
18.70392487782146
 31
0.0
  0
LINE
  5
BA
330
2
100
AcDbEntity
  8
GAIKEI
 62
     1
100
AcDbLine
 10
-19.70071601312784
 20
18.56773918244153
 30
0.0
 11
-19.70072800082781
 21
18.44481108536149
 31
0.0
  0
ARC
  5
BB
330
2
100
AcDbEntity
  8
GAIKEI
 62
     1
100
AcDbCircle
 10
-19.83945409225663
 20
18.44266792627331
 30
0.0
 40
0.1387421220331804
100
AcDbArc
 50
270.4763164385267
 51
0.8883328896359643
  0
ARC
  5
BC
330
2
100
AcDbEntity
  8
GAIKEI
 62
     1
100
AcDbCircle
 10
-19.83728996418159
 20
18.56734811010869
 30
0.0
 40
0.1365825692373777
100
AcDbArc
 50
359.3563494445841
 51
90.4238839328584
  0
LINE
  5
BD
330
2
100
AcDbEntity
  8
GAIKEI
 62
     1
100
AcDbLine
 10
-22.45069712868215
 20
18.70407386847353
 30
0.0
 11
-22.49341946628584
 21
18.30407340529302
 31
0.0
  0
LINE
  5
BE
330
2
100
AcDbEntity
  8
GAIKEI
 62
     1
100
AcDbLine
 10
-21.90353211445495
 20
18.70404247865531
 30
0.0
 11
-21.94681559974942
 21
18.30459557500126
 31
0.0
  0
LINE
  5
BF
330
2
100
AcDbEntity
  8
GAIKEI
 62
     1
100
AcDbLine
 10
-16.69794653618072
 20
18.70404247865531
 30
0.0
 11
-16.6546630508862
 21
18.30459557500126
 31
0.0
  0
LINE
  5
C0
330
2
100
AcDbEntity
  8
GAIKEI
 62
     1
100
AcDbLine
 10
-16.15078152195349
 20
18.70407386847353
 30
0.0
 11
-16.10805918434983
 21
18.30407340529302
 31
0.0
  0
ARC
  5
C1
330
2
100
AcDbEntity
  8
GAIKEI
 62
     1
100
AcDbCircle
 10
-18.76418868645408
 20
18.56734811010869
 30
0.0
 40
0.1365825692373777
100
AcDbArc
 50
89.57611606714159
 51
180.6436505554159
  0
ARC
  5
C2
330
2
100
AcDbEntity
  8
GAIKEI
 62
     1
100
AcDbCircle
 10
-18.76202455837904
 20
18.44266792627331
 30
0.0
 40
0.1387421220331804
100
AcDbArc
 50
179.111667110364
 51
269.5236835614733
  0
LINE
  5
C3
330
2
100
AcDbEntity
  8
GAIKEI
 62
     1
100
AcDbLine
 10
-18.90076263750779
 20
18.56773918244153
 30
0.0
 11
-18.90075064980783
 21
18.44481108536149
 31
0.0
  0
LINE
  5
C4
330
2
100
AcDbEntity
  8
GAIKEI
 62
     1
100
AcDbLine
 10
-16.15078152195349
 20
18.70407386847353
 30
0.0
 11
-18.76317815854782
 21
18.70392487782146
 31
0.0
  0
LINE
  5
C5
330
2
100
AcDbEntity
  8
GAIKEI
 62
     1
100
AcDbLine
 10
-16.10805918434983
 20
18.30407340529302
 30
0.0
 11
-18.76317750802783
 21
18.30393315342155
 31
0.0
  0
ARC
  5
C6
330
2
100
AcDbEntity
  8
GAIKEI
 62
     1
100
AcDbCircle
 10
-19.83728996418159
 20
19.36734811010871
 30
0.0
 40
0.1365825692373777
100
AcDbArc
 50
359.3563494445841
 51
90.4238839328584
  0
ARC
  5
C7
330
2
100
AcDbEntity
  8
GAIKEI
 62
     1
100
AcDbCircle
 10
-19.83945409225663
 20
19.24266792627333
 30
0.0
 40
0.1387421220331804
100
AcDbArc
 50
270.4763164385267
 51
0.8883328896359643
  0
LINE
  5
C8
330
2
100
AcDbEntity
  8
GAIKEI
 62
     1
100
AcDbLine
 10
-19.70071601312784
 20
19.36773918244154
 30
0.0
 11
-19.70072800082781
 21
19.2448110853615
 31
0.0
  0
LINE
  5
C9
330
2
100
AcDbEntity
  8
GAIKEI
 62
     1
100
AcDbLine
 10
-22.35090920171018
 20
19.50406817735148
 30
0.0
 11
-19.83830049208782
 21
19.50392487782147
 31
0.0
  0
LINE
  5
CA
330
2
100
AcDbEntity
  8
GAIKEI
 62
     1
100
AcDbLine
 10
-22.40247351213179
 20
19.10406860123584
 30
0.0
 11
-19.8383011426078
 21
19.10393315342156
 31
0.0
  0
LINE
  5
CB
330
2
100
AcDbEntity
  8
GAIKEI
 62
     1
100
AcDbLine
 10
-21.81274034047431
 20
19.50405522778016
 30
0.0
 11
-21.85602382576883
 21
19.1046083241261
 31
0.0
  0
LINE
  5
CC
330
2
100
AcDbEntity
  8
GAIKEI
 62
     1
100
AcDbLine
 10
-22.29523030982079
 20
19.90406293630565
 30
0.0
 11
-19.83825888404033
 21
19.90393315118933
 31
0.0
  0
LINE
  5
CD
330
2
100
AcDbEntity
  8
GAIKEI
 62
     1
100
AcDbLine
 10
-22.23541821931872
 20
20.30406159082787
 30
0.0
 11
-19.83825823352038
 21
20.30392487558925
 31
0.0
  0
LINE
  5
CE
330
2
100
AcDbEntity
  8
GAIKEI
 62
     1
100
AcDbLine
 10
-19.7006737545604
 20
20.16773918020931
 30
0.0
 11
-19.70068574226036
 21
20.04481108312928
 31
0.0
  0
ARC
  5
CF
330
2
100
AcDbEntity
  8
GAIKEI
 62
     1
100
AcDbCircle
 10
-19.83941183368915
 20
20.0426679240411
 30
0.0
 40
0.1387421220331804
100
AcDbArc
 50
270.4763164385267
 51
0.8883328896359643
  0
ARC
  5
D0
330
2
100
AcDbEntity
  8
GAIKEI
 62
     1
100
AcDbCircle
 10
-19.83724770561412
 20
20.16734810787648
 30
0.0
 40
0.1365825692373777
100
AcDbArc
 50
359.3563494445841
 51
90.4238839328584
  0
ARC
  5
D1
330
2
100
AcDbEntity
  8
GAIKEI
 62
     1
100
AcDbCircle
 10
-19.83720544704664
 20
20.96734810564425
 30
0.0
 40
0.1365825692373777
100
AcDbArc
 50
359.3563494445841
 51
90.4238839328584
  0
ARC
  5
D2
330
2
100
AcDbEntity
  8
GAIKEI
 62
     1
100
AcDbCircle
 10
-19.8393695751217
 20
20.84266792180887
 30
0.0
 40
0.1387421220331804
100
AcDbArc
 50
270.4763164385267
 51
0.8883328896359643
  0
LINE
  5
D3
330
2
100
AcDbEntity
  8
GAIKEI
 62
     1
100
AcDbLine
 10
-19.70063149599292
 20
20.96773917797708
 30
0.0
 11
-19.70064348369288
 21
20.84481108089704
 31
0.0
  0
LINE
  5
D4
330
2
100
AcDbEntity
  8
GAIKEI
 62
     1
100
AcDbLine
 10
-22.10332014122602
 20
21.10405405716551
 30
0.0
 11
-19.8382159749529
 21
21.10392487335702
 31
0.0
  0
LINE
  5
D5
330
2
100
AcDbEntity
  8
GAIKEI
 62
     1
100
AcDbLine
 10
-22.17145526638228
 20
20.7040563981106
 30
0.0
 11
-19.83821662547288
 21
20.7039331489571
 31
0.0
  0
LINE
  5
D6
330
2
100
AcDbEntity
  8
GAIKEI
 62
     1
100
AcDbLine
 10
-22.03099207418018
 20
21.504048978394
 30
0.0
 11
-19.8381743669054
 21
21.50393314672488
 31
0.0
  0
LINE
  5
D7
330
2
100
AcDbEntity
  8
GAIKEI
 62
     1
100
AcDbLine
 10
-21.95444706334791
 20
21.90404556678857
 30
0.0
 11
-19.83817371638543
 21
21.90392487112479
 31
0.0
  0
LINE
  5
D8
330
2
100
AcDbEntity
  8
GAIKEI
 62
     1
100
AcDbLine
 10
-19.70058923742545
 20
21.76773917574485
 30
0.0
 11
-19.70060122512541
 21
21.64481107866482
 31
0.0
  0
ARC
  5
D9
330
2
100
AcDbEntity
  8
GAIKEI
 62
     1
100
AcDbCircle
 10
-19.83932731655423
 20
21.64266791957664
 30
0.0
 40
0.1387421220331804
100
AcDbArc
 50
270.4763164385267
 51
0.8883328896359643
  0
ARC
  5
DA
330
2
100
AcDbEntity
  8
GAIKEI
 62
     1
100
AcDbCircle
 10
-19.83716318847917
 20
21.76734810341202
 30
0.0
 40
0.1365825692373777
100
AcDbArc
 50
359.3563494445841
 51
90.4238839328584
  0
ARC
  5
DB
330
2
100
AcDbEntity
  8
GAIKEI
 62
     1
100
AcDbCircle
 10
17.22825246450884
 20
14.19855893533355
 30
0.0
 40
39.9331750117348
100
AcDbArc
 50
172.3651257289193
 51
172.9437932005954
  0
ARC
  5
DC
330
2
100
AcDbEntity
  8
GAIKEI
 62
     1
100
AcDbCircle
 10
17.22825246450884
 20
14.19855893533355
 30
0.0
 40
39.9331750117348
100
AcDbArc
 50
171.2053828430141
 51
171.7856807218787
  0
LINE
  5
DD
330
2
100
AcDbEntity
  8
GAIKEI
 62
     1
100
AcDbLine
 10
-21.70549713816331
 20
20.30404956284997
 30
0.0
 11
-21.74878062345781
 21
19.90460265919591
 31
0.0
  0
ARC
  5
DE
330
2
100
AcDbEntity
  8
GAIKEI
 62
     1
100
AcDbCircle
 10
17.22825246450884
 20
14.19855893533355
 30
0.0
 40
39.9331750117348
100
AcDbArc
 50
170.0419974602093
 51
170.6241797998517
  0
ARC
  5
DF
330
2
100
AcDbEntity
  8
GAIKEI
 62
     1
100
AcDbCircle
 10
17.22825246450884
 20
14.19855893533355
 30
0.0
 40
39.9331750117348
100
AcDbArc
 50
168.8744504705402
 51
169.4587786120038
  0
LINE
  5
E0
330
2
100
AcDbEntity
  8
GAIKEI
 62
     1
100
AcDbLine
 10
-21.5817220947248
 20
21.10404302465491
 30
0.0
 11
-21.62500558001929
 21
20.70459612100086
 31
0.0
  0
LINE
  5
E1
330
2
100
AcDbEntity
  8
GAIKEI
 62
     1
100
AcDbLine
 10
-21.44125890252269
 20
21.90403560493832
 30
0.0
 11
-21.48454238781722
 21
21.50458870128426
 31
0.0
  0
LINE
  5
E2
330
2
100
AcDbEntity
  8
GAIKEI
 62
     1
100
AcDbLine
 10
-17.16021974811292
 20
21.90403560493832
 30
0.0
 11
-17.11693626281845
 21
21.50458870128426
 31
0.0
  0
LINE
  5
E3
330
2
100
AcDbEntity
  8
GAIKEI
 62
     1
100
AcDbLine
 10
-17.01975655591087
 20
21.10404302465491
 30
0.0
 11
-16.97647307061635
 21
20.70459612100086
 31
0.0
  0
ARC
  5
E4
330
2
100
AcDbEntity
  8
GAIKEI
 62
     1
100
AcDbCircle
 10
-55.82973111514448
 20
14.19855893533355
 30
0.0
 40
39.9331750117348
100
AcDbArc
 50
10.54122138799615
 51
11.12554952945977
  0
ARC
  5
E5
330
2
100
AcDbEntity
  8
GAIKEI
 62
     1
100
AcDbCircle
 10
-55.82973111514448
 20
14.19855893533355
 30
0.0
 40
39.9331750117348
100
AcDbArc
 50
9.375820200148259
 51
9.95800253979063
  0
LINE
  5
E6
330
2
100
AcDbEntity
  8
GAIKEI
 62
     1
100
AcDbLine
 10
-16.89598151247236
 20
20.30404956284997
 30
0.0
 11
-16.85269802717783
 21
19.90460265919591
 31
0.0
  0
ARC
  5
E7
330
2
100
AcDbEntity
  8
GAIKEI
 62
     1
100
AcDbCircle
 10
-55.82973111514448
 20
14.19855893533355
 30
0.0
 40
39.9331750117348
100
AcDbArc
 50
8.21431927812133
 51
8.794617156985845
  0
ARC
  5
E8
330
2
100
AcDbEntity
  8
GAIKEI
 62
     1
100
AcDbCircle
 10
-55.82973111514448
 20
14.19855893533355
 30
0.0
 40
39.9331750117348
100
AcDbArc
 50
7.056206799404512
 51
7.634874271080682
  0
ARC
  5
E9
330
2
100
AcDbEntity
  8
GAIKEI
 62
     1
100
AcDbCircle
 10
-18.76431546215644
 20
21.76734810341202
 30
0.0
 40
0.1365825692373777
100
AcDbArc
 50
89.57611606714159
 51
180.6436505554159
  0
ARC
  5
EA
330
2
100
AcDbEntity
  8
GAIKEI
 62
     1
100
AcDbCircle
 10
-18.76215133408141
 20
21.64266791957664
 30
0.0
 40
0.1387421220331804
100
AcDbArc
 50
179.111667110364
 51
269.5236835614733
  0
LINE
  5
EB
330
2
100
AcDbEntity
  8
GAIKEI
 62
     1
100
AcDbLine
 10
-18.90088941321019
 20
21.76773917574485
 30
0.0
 11
-18.90087742551023
 21
21.64481107866482
 31
0.0
  0
LINE
  5
EC
330
2
100
AcDbEntity
  8
GAIKEI
 62
     1
100
AcDbLine
 10
-16.64703158728773
 20
21.90404556678857
 30
0.0
 11
-18.76330493425021
 21
21.90392487112479
 31
0.0
  0
LINE
  5
ED
330
2
100
AcDbEntity
  8
GAIKEI
 62
     1
100
AcDbLine
 10
-16.57048657645546
 20
21.504048978394
 30
0.0
 11
-18.76330428373023
 21
21.50393314672488
 31
0.0
  0
LINE
  5
EE
330
2
100
AcDbEntity
  8
GAIKEI
 62
     1
100
AcDbLine
 10
-16.43002338425339
 20
20.7040563981106
 30
0.0
 11
-18.76326202516276
 21
20.7039331489571
 31
0.0
  0
LINE
  5
EF
330
2
100
AcDbEntity
  8
GAIKEI
 62
     1
100
AcDbLine
 10
-16.49815850940962
 20
21.10405405716551
 30
0.0
 11
-18.76326267568274
 21
21.10392487335702
 31
0.0
  0
LINE
  5
F0
330
2
100
AcDbEntity
  8
GAIKEI
 62
     1
100
AcDbLine
 10
-18.90084715464272
 20
20.96773917797708
 30
0.0
 11
-18.90083516694275
 21
20.84481108089704
 31
0.0
  0
ARC
  5
F1
330
2
100
AcDbEntity
  8
GAIKEI
 62
     1
100
AcDbCircle
 10
-18.76210907551393
 20
20.84266792180887
 30
0.0
 40
0.1387421220331804
100
AcDbArc
 50
179.111667110364
 51
269.5236835614733
  0
ARC
  5
F2
330
2
100
AcDbEntity
  8
GAIKEI
 62
     1
100
AcDbCircle
 10
-18.76427320358897
 20
20.96734810564425
 30
0.0
 40
0.1365825692373777
100
AcDbArc
 50
89.57611606714159
 51
180.6436505554159
  0
ARC
  5
F3
330
2
100
AcDbEntity
  8
GAIKEI
 62
     1
100
AcDbCircle
 10
-18.76423094502152
 20
20.16734810787648
 30
0.0
 40
0.1365825692373777
100
AcDbArc
 50
89.57611606714159
 51
180.6436505554159
  0
ARC
  5
F4
330
2
100
AcDbEntity
  8
GAIKEI
 62
     1
100
AcDbCircle
 10
-18.76206681694648
 20
20.0426679240411
 30
0.0
 40
0.1387421220331804
100
AcDbArc
 50
179.111667110364
 51
269.5236835614733
  0
LINE
  5
F5
330
2
100
AcDbEntity
  8
GAIKEI
 62
     1
100
AcDbLine
 10
-18.90080489607527
 20
20.16773918020931
 30
0.0
 11
-18.90079290837531
 21
20.04481108312928
 31
0.0
  0
LINE
  5
F6
330
2
100
AcDbEntity
  8
GAIKEI
 62
     1
100
AcDbLine
 10
-16.36606043131692
 20
20.30406159082787
 30
0.0
 11
-18.76322041711529
 21
20.30392487558925
 31
0.0
  0
LINE
  5
F7
330
2
100
AcDbEntity
  8
GAIKEI
 62
     1
100
AcDbLine
 10
-16.30624834081487
 20
19.90406293630565
 30
0.0
 11
-18.76321976659528
 21
19.90393315118933
 31
0.0
  0
LINE
  5
F8
330
2
100
AcDbEntity
  8
GAIKEI
 62
     1
100
AcDbLine
 10
-16.78873831016131
 20
19.50405522778016
 30
0.0
 11
-16.74545482486684
 21
19.1046083241261
 31
0.0
  0
LINE
  5
F9
330
2
100
AcDbEntity
  8
GAIKEI
 62
     1
100
AcDbLine
 10
-16.19900513850385
 20
19.10406860123584
 30
0.0
 11
-18.76317750802783
 21
19.10393315342156
 31
0.0
  0
LINE
  5
FA
330
2
100
AcDbEntity
  8
GAIKEI
 62
     1
100
AcDbLine
 10
-16.25056944892546
 20
19.50406817735148
 30
0.0
 11
-18.76317815854782
 21
19.50392487782147
 31
0.0
  0
LINE
  5
FB
330
2
100
AcDbEntity
  8
GAIKEI
 62
     1
100
AcDbLine
 10
-18.90076263750779
 20
19.36773918244154
 30
0.0
 11
-18.90075064980783
 21
19.2448110853615
 31
0.0
  0
ARC
  5
FC
330
2
100
AcDbEntity
  8
GAIKEI
 62
     1
100
AcDbCircle
 10
-18.76202455837904
 20
19.24266792627333
 30
0.0
 40
0.1387421220331804
100
AcDbArc
 50
179.111667110364
 51
269.5236835614733
  0
ARC
  5
FD
330
2
100
AcDbEntity
  8
GAIKEI
 62
     1
100
AcDbCircle
 10
-18.76418868645408
 20
19.36734811010871
 30
0.0
 40
0.1365825692373777
100
AcDbArc
 50
89.57611606714159
 51
180.6436505554159
  0
ELLIPSE
  5
FE
330
2
100
AcDbEntity
  8
GAIKEI
 62
     1
100
AcDbEllipse
 10
-17.73941550040368
 20
23.01864606556154
 30
0.0
 11
-0.1804697803676661
 21
0.0765044022321036
 31
0.0
210
0.0
220
0.0
230
1.0
 40
0.219474639407727
 41
0.0
 42
6.283185307179586
  0
ELLIPSE
  5
FF
330
2
100
AcDbEntity
  8
GAIKEI
 62
     1
100
AcDbEllipse
 10
-17.70109078354963
 20
23.10820576091447
 30
0.0
 11
0.2031918842364901
 21
-0.0794949144370936
 31
0.0
210
0.0
220
0.0
230
1.0
 40
0.0893576585539189
 41
0.0
 42
6.283185307179586
  0
ELLIPSE
  5
100
330
2
100
AcDbEntity
  8
GAIKEI
 62
     1
100
AcDbEllipse
 10
-18.49278450390423
 20
23.06119675337271
 30
0.0
 11
0.1936687107698844
 21
-0.0491083039545401
 31
0.0
210
0.0
220
0.0
230
1.0
 40
0.3818310666087081
 41
0.0
 42
6.283185307179586
  0
ELLIPSE
  5
101
330
2
100
AcDbEntity
  8
GAIKEI
 62
     1
100
AcDbEllipse
 10
-18.5031764993669
 20
23.23779737895012
 30
0.0
 11
0.2012265749153813
 21
-0.037775618426565
 31
0.0
210
0.0
220
0.0
230
1.0
 40
0.2126304912118438
 41
0.0
 42
6.283185307179586
  0
ELLIPSE
  5
102
330
2
100
AcDbEntity
  8
GAIKEI
 62
     1
100
AcDbEllipse
 10
-18.50128689785586
 20
23.32940286306774
 30
0.0
 11
0.2012265749154949
 21
-0.034942447044557
 31
0.0
210
0.0
220
0.0
230
1.0
 40
0.0925950258520751
 41
0.0
 42
6.283185307179586
  0
ELLIPSE
  5
103
330
2
100
AcDbEntity
  8
GAIKEI
 62
     1
100
AcDbEllipse
 10
-20.10019399312333
 20
23.32940286306774
 30
0.0
 11
-0.2012265749154948
 21
-0.034942447044557
 31
0.0
210
0.0
220
0.0
230
-1.0
 40
0.0925950258520751
 41
0.0
 42
6.283185307179586
  0
ELLIPSE
  5
104
330
2
100
AcDbEntity
  8
GAIKEI
 62
     1
100
AcDbEllipse
 10
-20.09830439161229
 20
23.23779737895012
 30
0.0
 11
-0.2012265749153813
 21
-0.037775618426565
 31
0.0
210
0.0
220
0.0
230
-1.0
 40
0.2126304912118438
 41
0.0
 42
6.283185307179586
  0
ELLIPSE
  5
105
330
2
100
AcDbEntity
  8
GAIKEI
 62
     1
100
AcDbEllipse
 10
-20.10869638707496
 20
23.06119675337271
 30
0.0
 11
-0.1936687107698844
 21
-0.0491083039545401
 31
0.0
210
0.0
220
0.0
230
-1.0
 40
0.3818310666087081
 41
0.0
 42
6.283185307179586
  0
ELLIPSE
  5
106
330
2
100
AcDbEntity
  8
GAIKEI
 62
     1
100
AcDbEllipse
 10
-20.86206539057551
 20
23.01864606556154
 30
0.0
 11
0.180469780367666
 21
0.0765044022321036
 31
0.0
210
0.0
220
0.0
230
-1.0
 40
0.219474639407727
 41
0.0
 42
6.283185307179586
  0
ELLIPSE
  5
107
330
2
100
AcDbEntity
  8
GAIKEI
 62
     1
100
AcDbEllipse
 10
-20.90039010742956
 20
23.10820576091447
 30
0.0
 11
-0.20319188423649
 21
-0.0794949144370936
 31
0.0
210
0.0
220
0.0
230
-1.0
 40
0.0893576585539189
 41
0.0
 42
6.283185307179586
  0
ELLIPSE
  5
108
330
2
100
AcDbEntity
  8
GAIKEI
 62
     1
100
AcDbEllipse
 10
-19.30074044548959
 20
23.1385641257271
 30
0.0
 11
0.2021969507083554
 21
0.0
 31
0.0
210
0.0
220
0.0
230
1.0
 40
0.3571692367941202
 41
0.0
 42
6.283185307179586
  0
ELLIPSE
  5
109
330
2
100
AcDbEntity
  8
GAIKEI
 62
     1
100
AcDbEllipse
 10
-19.30074044548959
 20
23.30735419694872
 30
0.0
 11
0.2005170640766778
 21
0.0
 31
0.0
210
0.0
220
0.0
230
1.0
 40
0.2093960966154413
 41
0.0
 42
6.283185307179586
  0
ELLIPSE
  5
10A
330
2
100
AcDbEntity
  8
GAIKEI
 62
     1
100
AcDbEllipse
 10
-19.30099530314001
 20
23.39300861512379
 30
0.0
 11
0.1982515498807515
 21
0.0
 31
0.0
210
0.0
220
0.0
230
1.0
 40
0.0931856472760366
 41
0.0
 42
6.283185307179586
  0
LINE
  5
10B
330
2
100
AcDbEntity
  8
GAIKEI
 62
     1
100
AcDbLine
 10
14.00087939510877
 20
12.31770584778013
 30
0.0
 11
22.10524935150033
 21
12.31770584778013
 31
0.0
  0
LINE
  5
10C
330
2
100
AcDbEntity
  8
GAIKEI
 62
     1
100
AcDbLine
 10
13.93844629477553
 20
12.25771007501032
 30
0.0
 11
22.12729602238034
 21
12.25770584778018
 31
0.0
  0
ARC
  5
10D
330
2
100
AcDbEntity
  8
GAIKEI
 62
     7
100
AcDbCircle
 10
-40.54116415753933
 20
11.64259370361429
 30
0.0
 40
62.64973121888355
100
AcDbArc
 50
0.6293662728922691
 51
5.178883889526836
  0
ARC
  5
10E
330
2
100
AcDbEntity
  8
GAIKEI
 62
     7
100
AcDbCircle
 10
76.64697301148004
 20
11.64259370361429
 30
0.0
 40
62.64973121888355
100
AcDbArc
 50
174.8211161104731
 51
179.3825699733423
  0
LINE
  5
10F
330
2
100
AcDbEntity
  8
GAIKEI
 62
     1
100
AcDbLine
 10
14.25299470878036
 20
17.29770584778015
 30
0.0
 11
21.85281414516035
 21
17.29770584778015
 31
0.0
  0
LINE
  5
110
330
2
100
AcDbEntity
  8
GAIKEI
 62
     1
100
AcDbLine
 10
14.23672710248033
 20
17.33770584778011
 30
0.0
 11
21.86908175146036
 21
17.33770584778011
 31
0.0
  0
ARC
  5
111
330
2
100
AcDbEntity
  8
GAIKEI
 62
     7
100
AcDbCircle
 10
20.30040991426148
 20
22.82889697316699
 30
0.0
 40
0.6000009385806459
100
AcDbArc
 50
14.99801759505756
 51
51.45532009211937
  0
ARC
  5
112
330
2
100
AcDbEntity
  8
GAIKEI
 62
     7
100
AcDbCircle
 10
-12.44438971767965
 20
14.23676272925962
 30
0.0
 40
34.45330423178284
100
AcDbArc
 50
5.163850439912658
 51
14.70791945471131
  0
ARC
  5
113
330
2
100
AcDbEntity
  8
GAIKEI
 62
     7
100
AcDbCircle
 10
48.55019857162034
 20
14.23676272925962
 30
0.0
 40
34.45330423178284
100
AcDbArc
 50
165.2920805452886
 51
174.8361495600873
  0
ARC
  5
114
330
2
100
AcDbEntity
  8
GAIKEI
 62
     7
100
AcDbCircle
 10
15.80539893967921
 20
22.82889697316699
 30
0.0
 40
0.6000009385806459
100
AcDbArc
 50
128.5446799078806
 51
165.0019824049424
  0
LINE
  5
115
330
2
100
AcDbEntity
  8
GAIKEI
 62
     1
100
AcDbLine
 10
15.33213250379199
 20
23.19770584778013
 30
0.0
 11
20.77367638521756
 21
23.19770584778013
 31
0.0
  0
ARC
  5
116
330
2
100
AcDbEntity
  8
GAIKEI
 62
     1
100
AcDbCircle
 10
17.51636404098661
 20
19.16099232114737
 30
0.0
 40
0.1365825692373777
100
AcDbArc
 50
359.3563494445841
 51
90.4238839328584
  0
ARC
  5
117
330
2
100
AcDbEntity
  8
GAIKEI
 62
     1
100
AcDbCircle
 10
17.51419991291158
 20
19.03631213731199
 30
0.0
 40
0.1387421220331804
100
AcDbArc
 50
270.4763164385267
 51
0.8883328896359643
  0
LINE
  5
118
330
2
100
AcDbEntity
  8
GAIKEI
 62
     1
100
AcDbLine
 10
17.65293799204033
 20
19.16138339348021
 30
0.0
 11
17.65292600434037
 21
19.03845529640017
 31
0.0
  0
LINE
  5
119
330
2
100
AcDbEntity
  8
GAIKEI
 62
     1
100
AcDbLine
 10
14.4948981726373
 20
19.29774135198596
 30
0.0
 11
17.51535351308035
 21
19.29756908886014
 31
0.0
  0
LINE
  5
11A
330
2
100
AcDbEntity
  8
GAIKEI
 62
     1
100
AcDbLine
 10
14.43785063956733
 20
18.89773992800485
 30
0.0
 11
17.5153528625604
 21
18.89757736446023
 31
0.0
  0
ARC
  5
11B
330
2
100
AcDbEntity
  8
GAIKEI
 62
     1
100
AcDbCircle
 10
48.55019857162034
 20
14.23676272925962
 30
0.0
 40
34.42930423178284
100
AcDbArc
 50
171.547105236726
 51
172.2195101359803
  0
ARC
  5
11C
330
2
100
AcDbEntity
  8
GAIKEI
 62
     1
100
AcDbCircle
 10
49.12097655313084
 20
14.23731396809364
 30
0.0
 40
34.45330423178284
100
AcDbArc
 50
166.1278413958878
 51
166.8120231756288
  0
LINE
  5
11D
330
2
100
AcDbEntity
  8
GAIKEI
 62
     1
100
AcDbLine
 10
14.55675218349614
 20
19.69776927955712
 30
0.0
 11
17.5153528625604
 21
19.69761299677367
 31
0.0
  0
LINE
  5
11E
330
2
100
AcDbEntity
  8
GAIKEI
 62
     1
100
AcDbLine
 10
14.62343055999065
 20
20.09776965381826
 30
0.0
 11
17.51535351308035
 21
20.09760472117358
 31
0.0
  0
LINE
  5
11F
330
2
100
AcDbEntity
  8
GAIKEI
 62
     1
100
AcDbLine
 10
17.65293799204033
 20
19.96141902579364
 30
0.0
 11
17.65292600434037
 21
19.83849092871361
 31
0.0
  0
ARC
  5
120
330
2
100
AcDbEntity
  8
GAIKEI
 62
     1
100
AcDbCircle
 10
17.51419991291158
 20
19.83634776962543
 30
0.0
 40
0.1387421220331804
100
AcDbArc
 50
270.4763164385267
 51
0.8883328896359643
  0
ARC
  5
121
330
2
100
AcDbEntity
  8
GAIKEI
 62
     1
100
AcDbCircle
 10
17.51636404098661
 20
19.96102795346081
 30
0.0
 40
0.1365825692373777
100
AcDbArc
 50
359.3563494445841
 51
90.4238839328584
  0
ARC
  5
122
330
2
100
AcDbEntity
  8
GAIKEI
 62
     1
100
AcDbCircle
 10
17.51636404098661
 20
20.7510289410929
 30
0.0
 40
0.1365825692373777
100
AcDbArc
 50
359.3563494445841
 51
90.4238839328584
  0
ARC
  5
123
330
2
100
AcDbEntity
  8
GAIKEI
 62
     1
100
AcDbCircle
 10
17.51419991291158
 20
20.62634875725752
 30
0.0
 40
0.1387421220331804
100
AcDbArc
 50
270.4763164385267
 51
0.8883328896359643
  0
LINE
  5
124
330
2
100
AcDbEntity
  8
GAIKEI
 62
     1
100
AcDbLine
 10
17.65293799204033
 20
20.75142001342573
 30
0.0
 11
17.65292600434037
 21
20.62849191634569
 31
0.0
  0
LINE
  5
125
330
2
100
AcDbEntity
  8
GAIKEI
 62
     1
100
AcDbLine
 10
14.76941713619106
 20
20.88776231551896
 30
0.0
 11
17.51535351308035
 21
20.88760570880566
 31
0.0
  0
LINE
  5
126
330
2
100
AcDbEntity
  8
GAIKEI
 62
     1
100
AcDbLine
 10
14.69311682052878
 20
20.48776306397138
 30
0.0
 11
17.5153528625604
 21
20.48761398440575
 31
0.0
  0
LINE
  5
127
330
2
100
AcDbEntity
  8
GAIKEI
 62
     1
100
AcDbLine
 10
14.85272858476702
 20
21.29774753095586
 30
0.0
 11
17.5153528625604
 21
21.29760688259586
 31
0.0
  0
LINE
  5
128
330
2
100
AcDbEntity
  8
GAIKEI
 62
     1
100
AcDbLine
 10
14.9390289196011
 20
21.69774554038082
 30
0.0
 11
17.51535351308035
 21
21.69759860699577
 31
0.0
  0
LINE
  5
129
330
2
100
AcDbEntity
  8
GAIKEI
 62
     1
100
AcDbLine
 10
17.65293799204033
 20
21.56141291161583
 30
0.0
 11
17.65292600434037
 21
21.4384848145358
 31
0.0
  0
ARC
  5
12A
330
2
100
AcDbEntity
  8
GAIKEI
 62
     1
100
AcDbCircle
 10
17.51419991291158
 20
21.43634165544762
 30
0.0
 40
0.1387421220331804
100
AcDbArc
 50
270.4763164385267
 51
0.8883328896359643
  0
ARC
  5
12B
330
2
100
AcDbEntity
  8
GAIKEI
 62
     1
100
AcDbCircle
 10
17.51636404098661
 20
21.561021839283
 30
0.0
 40
0.1365825692373777
100
AcDbArc
 50
359.3563494445841
 51
90.4238839328584
  0
ARC
  5
12C
330
2
100
AcDbEntity
  8
GAIKEI
 62
     1
100
AcDbCircle
 10
17.51636404098661
 20
22.36102952552704
 30
0.0
 40
0.1365825692373777
100
AcDbArc
 50
359.3563494445841
 51
90.4238839328584
  0
ARC
  5
12D
330
2
100
AcDbEntity
  8
GAIKEI
 62
     1
100
AcDbCircle
 10
17.51419991291158
 20
22.23634934169167
 30
0.0
 40
0.1387421220331804
100
AcDbArc
 50
270.4763164385267
 51
0.8883328896359643
  0
LINE
  5
12E
330
2
100
AcDbEntity
  8
GAIKEI
 62
     1
100
AcDbLine
 10
17.65293799204033
 20
22.36142059785988
 30
0.0
 11
17.65292600434037
 21
22.23849250077984
 31
0.0
  0
LINE
  5
12F
330
2
100
AcDbEntity
  8
GAIKEI
 62
     1
100
AcDbLine
 10
15.12665593046682
 20
22.49774252584905
 30
0.0
 11
17.51535351308035
 21
22.49760629323981
 31
0.0
  0
LINE
  5
130
330
2
100
AcDbEntity
  8
GAIKEI
 62
     1
100
AcDbLine
 10
15.03032484751031
 20
22.09774583599529
 30
0.0
 11
17.5153528625604
 21
22.0976145688399
 31
0.0
  0
ARC
  5
131
330
2
100
AcDbEntity
  8
GAIKEI
 62
     1
100
AcDbCircle
 10
48.55019857162034
 20
14.23676272925962
 30
0.0
 40
34.42930423178284
100
AcDbArc
 50
170.1986281935888
 51
170.8734808422244
  0
ARC
  5
132
330
2
100
AcDbEntity
  8
GAIKEI
 62
     1
100
AcDbCircle
 10
48.55019857162034
 20
14.23676272925962
 30
0.0
 40
34.42930423178284
100
AcDbArc
 50
168.8616667493045
 51
169.5393345723522
  0
ARC
  5
133
330
2
100
AcDbEntity
  8
GAIKEI
 62
     1
100
AcDbCircle
 10
48.55019857162034
 20
14.23676272925962
 30
0.0
 40
34.42930423178284
100
AcDbArc
 50
167.4844581944002
 51
168.165438469376
  0
ARC
  5
134
330
2
100
AcDbEntity
  8
GAIKEI
 62
     1
100
AcDbCircle
 10
49.12097655313084
 20
14.23731396809364
 30
0.0
 40
34.45330423178284
100
AcDbArc
 50
171.5540156857706
 51
172.2259371773259
  0
ARC
  5
135
330
2
100
AcDbEntity
  8
GAIKEI
 62
     1
100
AcDbCircle
 10
48.55019857162034
 20
14.23676272925962
 30
0.0
 40
34.42930423178284
100
AcDbArc
 50
166.1169793623684
 51
166.8016725153097
  0
ARC
  5
136
330
2
100
AcDbEntity
  8
GAIKEI
 62
     1
100
AcDbCircle
 10
49.12097655313084
 20
14.23731396809364
 30
0.0
 40
34.45330423178284
100
AcDbArc
 50
170.2065059466519
 51
170.8808696483804
  0
ARC
  5
137
330
2
100
AcDbEntity
  8
GAIKEI
 62
     1
100
AcDbCircle
 10
49.12097655313084
 20
14.23731396809364
 30
0.0
 40
34.45330423178284
100
AcDbArc
 50
168.8705118702089
 51
169.5476843659033
  0
ARC
  5
138
330
2
100
AcDbEntity
  8
GAIKEI
 62
     1
100
AcDbCircle
 10
49.12097655313084
 20
14.23731396809364
 30
0.0
 40
34.45330423178284
100
AcDbArc
 50
167.4943097075976
 51
168.1747871157699
  0
ARC
  5
139
330
2
100
AcDbEntity
  8
GAIKEI
 62
     1
100
AcDbCircle
 10
-13.01516769919013
 20
14.23731396809364
 30
0.0
 40
34.45330423178284
100
AcDbArc
 50
11.82521288423004
 51
12.50569029240237
  0
ARC
  5
13A
330
2
100
AcDbEntity
  8
GAIKEI
 62
     1
100
AcDbCircle
 10
-13.01516769919013
 20
14.23731396809364
 30
0.0
 40
34.45330423178284
100
AcDbArc
 50
10.45231563409669
 51
11.1294881297911
  0
ARC
  5
13B
330
2
100
AcDbEntity
  8
GAIKEI
 62
     1
100
AcDbCircle
 10
-13.01516769919013
 20
14.23731396809364
 30
0.0
 40
34.45330423178284
100
AcDbArc
 50
9.119130351619617
 51
9.793494053348084
  0
ARC
  5
13C
330
2
100
AcDbEntity
  8
GAIKEI
 62
     1
100
AcDbCircle
 10
-12.44438971767962
 20
14.23676272925962
 30
0.0
 40
34.42930423178284
100
AcDbArc
 50
13.19832748469026
 51
13.88302063763159
  0
ARC
  5
13D
330
2
100
AcDbEntity
  8
GAIKEI
 62
     1
100
AcDbCircle
 10
-13.01516769919013
 20
14.23731396809364
 30
0.0
 40
34.45330423178284
100
AcDbArc
 50
7.774062822674046
 51
8.445984314229386
  0
ARC
  5
13E
330
2
100
AcDbEntity
  8
GAIKEI
 62
     1
100
AcDbCircle
 10
-12.44438971767962
 20
14.23676272925962
 30
0.0
 40
34.42930423178284
100
AcDbArc
 50
11.83456153062393
 51
12.51554180559975
  0
ARC
  5
13F
330
2
100
AcDbEntity
  8
GAIKEI
 62
     1
100
AcDbCircle
 10
-12.44438971767962
 20
14.23676272925962
 30
0.0
 40
34.42930423178284
100
AcDbArc
 50
10.46066542764782
 51
11.13833325069544
  0
ARC
  5
140
330
2
100
AcDbEntity
  8
GAIKEI
 62
     1
100
AcDbCircle
 10
-12.44438971767962
 20
14.23676272925962
 30
0.0
 40
34.42930423178284
100
AcDbArc
 50
9.126519157775526
 51
9.801371806411154
  0
LINE
  5
141
330
2
100
AcDbEntity
  8
GAIKEI
 62
     1
100
AcDbLine
 10
21.0754840064304
 20
22.09774583599529
 30
0.0
 11
18.59045599138034
 21
22.0976145688399
 31
0.0
  0
LINE
  5
142
330
2
100
AcDbEntity
  8
GAIKEI
 62
     1
100
AcDbLine
 10
20.97915292347386
 20
22.49774252584905
 30
0.0
 11
18.59045534086033
 21
22.49760629323981
 31
0.0
  0
LINE
  5
143
330
2
100
AcDbEntity
  8
GAIKEI
 62
     1
100
AcDbLine
 10
18.45287086190035
 20
22.36142059785988
 30
0.0
 11
18.45288284960031
 21
22.23849250077984
 31
0.0
  0
ARC
  5
144
330
2
100
AcDbEntity
  8
GAIKEI
 62
     1
100
AcDbCircle
 10
18.59160894102913
 20
22.23634934169167
 30
0.0
 40
0.1387421220331804
100
AcDbArc
 50
179.111667110364
 51
269.5236835614733
  0
ARC
  5
145
330
2
100
AcDbEntity
  8
GAIKEI
 62
     1
100
AcDbCircle
 10
18.5894448129541
 20
22.36102952552704
 30
0.0
 40
0.1365825692373777
100
AcDbArc
 50
89.57611606714159
 51
180.6436505554159
  0
ARC
  5
146
330
2
100
AcDbEntity
  8
GAIKEI
 62
     1
100
AcDbCircle
 10
18.5894448129541
 20
21.561021839283
 30
0.0
 40
0.1365825692373777
100
AcDbArc
 50
89.57611606714159
 51
180.6436505554159
  0
ARC
  5
147
330
2
100
AcDbEntity
  8
GAIKEI
 62
     1
100
AcDbCircle
 10
18.59160894102913
 20
21.43634165544762
 30
0.0
 40
0.1387421220331804
100
AcDbArc
 50
179.111667110364
 51
269.5236835614733
  0
LINE
  5
148
330
2
100
AcDbEntity
  8
GAIKEI
 62
     1
100
AcDbLine
 10
18.45287086190035
 20
21.56141291161583
 30
0.0
 11
18.45288284960031
 21
21.4384848145358
 31
0.0
  0
LINE
  5
149
330
2
100
AcDbEntity
  8
GAIKEI
 62
     1
100
AcDbLine
 10
21.16677993433961
 20
21.69774554038082
 30
0.0
 11
18.59045534086033
 21
21.69759860699577
 31
0.0
  0
LINE
  5
14A
330
2
100
AcDbEntity
  8
GAIKEI
 62
     1
100
AcDbLine
 10
21.25308026917366
 20
21.29774753095586
 30
0.0
 11
18.59045599138034
 21
21.29760688259586
 31
0.0
  0
LINE
  5
14B
330
2
100
AcDbEntity
  8
GAIKEI
 62
     1
100
AcDbLine
 10
21.41269203341193
 20
20.48776306397138
 30
0.0
 11
18.59045599138034
 21
20.48761398440575
 31
0.0
  0
LINE
  5
14C
330
2
100
AcDbEntity
  8
GAIKEI
 62
     1
100
AcDbLine
 10
21.33639171774962
 20
20.88776231551896
 30
0.0
 11
18.59045534086033
 21
20.88760570880566
 31
0.0
  0
LINE
  5
14D
330
2
100
AcDbEntity
  8
GAIKEI
 62
     1
100
AcDbLine
 10
18.45287086190035
 20
20.75142001342573
 30
0.0
 11
18.45288284960031
 21
20.62849191634569
 31
0.0
  0
ARC
  5
14E
330
2
100
AcDbEntity
  8
GAIKEI
 62
     1
100
AcDbCircle
 10
18.59160894102913
 20
20.62634875725752
 30
0.0
 40
0.1387421220331804
100
AcDbArc
 50
179.111667110364
 51
269.5236835614733
  0
ARC
  5
14F
330
2
100
AcDbEntity
  8
GAIKEI
 62
     1
100
AcDbCircle
 10
18.5894448129541
 20
20.7510289410929
 30
0.0
 40
0.1365825692373777
100
AcDbArc
 50
89.57611606714159
 51
180.6436505554159
  0
ARC
  5
150
330
2
100
AcDbEntity
  8
GAIKEI
 62
     1
100
AcDbCircle
 10
18.5894448129541
 20
19.96102795346081
 30
0.0
 40
0.1365825692373777
100
AcDbArc
 50
89.57611606714159
 51
180.6436505554159
  0
ARC
  5
151
330
2
100
AcDbEntity
  8
GAIKEI
 62
     1
100
AcDbCircle
 10
18.59160894102913
 20
19.83634776962543
 30
0.0
 40
0.1387421220331804
100
AcDbArc
 50
179.111667110364
 51
269.5236835614733
  0
LINE
  5
152
330
2
100
AcDbEntity
  8
GAIKEI
 62
     1
100
AcDbLine
 10
18.45287086190035
 20
19.96141902579364
 30
0.0
 11
18.45288284960031
 21
19.83849092871361
 31
0.0
  0
LINE
  5
153
330
2
100
AcDbEntity
  8
GAIKEI
 62
     1
100
AcDbLine
 10
21.48237829395004
 20
20.09776965381826
 30
0.0
 11
18.59045534086033
 21
20.09760472117358
 31
0.0
  0
LINE
  5
154
330
2
100
AcDbEntity
  8
GAIKEI
 62
     1
100
AcDbLine
 10
21.54905667044454
 20
19.69776927955712
 30
0.0
 11
18.59045599138034
 21
19.69761299677367
 31
0.0
  0
ARC
  5
155
330
2
100
AcDbEntity
  8
GAIKEI
 62
     1
100
AcDbCircle
 10
-13.01516769919013
 20
14.23731396809364
 30
0.0
 40
34.45330423178284
100
AcDbArc
 50
13.18797682437116
 51
13.87215860411217
  0
ARC
  5
156
330
2
100
AcDbEntity
  8
GAIKEI
 62
     1
100
AcDbCircle
 10
-12.44438971767962
 20
14.23676272925962
 30
0.0
 40
34.42930423178284
100
AcDbArc
 50
7.780489864019624
 51
8.452894763274045
  0
LINE
  5
157
330
2
100
AcDbEntity
  8
GAIKEI
 62
     1
100
AcDbLine
 10
21.66795821437339
 20
18.89773992800485
 30
0.0
 11
18.59045599138034
 21
18.89757736446023
 31
0.0
  0
LINE
  5
158
330
2
100
AcDbEntity
  8
GAIKEI
 62
     1
100
AcDbLine
 10
21.61091068130338
 20
19.29774135198596
 30
0.0
 11
18.59045534086033
 21
19.29756908886014
 31
0.0
  0
LINE
  5
159
330
2
100
AcDbEntity
  8
GAIKEI
 62
     1
100
AcDbLine
 10
18.45287086190035
 20
19.16138339348021
 30
0.0
 11
18.45288284960031
 21
19.03845529640017
 31
0.0
  0
ARC
  5
15A
330
2
100
AcDbEntity
  8
GAIKEI
 62
     1
100
AcDbCircle
 10
18.59160894102913
 20
19.03631213731199
 30
0.0
 40
0.1387421220331804
100
AcDbArc
 50
179.111667110364
 51
269.5236835614733
  0
ARC
  5
15B
330
2
100
AcDbEntity
  8
GAIKEI
 62
     1
100
AcDbCircle
 10
18.5894448129541
 20
19.16099232114737
 30
0.0
 40
0.1365825692373777
100
AcDbArc
 50
89.57611606714159
 51
180.6436505554159
  0
ARC
  5
15C
330
2
100
AcDbEntity
  8
GAIKEI
 62
     7
100
AcDbCircle
 10
17.35907526436884
 20
20.69932860524381
 30
0.0
 40
3.235651221625315
100
AcDbArc
 50
102.6308664459959
 51
126.5641903844899
  0
ARC
  5
15D
330
2
100
AcDbEntity
  8
GAIKEI
 62
     7
100
AcDbCircle
 10
18.01536328011465
 20
18.02421357977374
 30
0.0
 40
5.989792457555086
100
AcDbArc
 50
89.64089517772537
 51
103.1611953913202
  0
ARC
  5
15E
330
2
100
AcDbEntity
  8
GAIKEI
 62
     7
100
AcDbCircle
 10
18.74673358957187
 20
20.69932860524381
 30
0.0
 40
3.235651221625315
100
AcDbArc
 50
53.43580961551006
 51
77.36913355400402
  0
ARC
  5
15F
330
2
100
AcDbEntity
  8
GAIKEI
 62
     7
100
AcDbCircle
 10
18.09044557382606
 20
18.02421357977374
 30
0.0
 40
5.989792457555086
100
AcDbArc
 50
76.83880460867978
 51
90.35910482227462
  0
ELLIPSE
  5
160
330
2
100
AcDbEntity
  8
GAIKEI
 62
     1
100
AcDbEllipse
 10
18.05290442697034
 20
23.73256140912991
 30
0.0
 11
0.2026839488798088
 21
0.0
 31
0.0
210
0.0
220
0.0
230
1.0
 40
0.4036625907862595
 41
0.0
 42
6.283185307179586
  0
ELLIPSE
  5
161
330
2
100
AcDbEntity
  8
GAIKEI
 62
     1
100
AcDbEllipse
 10
18.65096113914489
 20
23.70256965076254
 30
0.0
 11
0.2004526816072709
 21
-0.0299917583673756
 31
0.0
210
0.0
220
0.0
230
1.0
 40
0.4036625907862595
 41
0.0
 42
6.283185307179586
  0
ELLIPSE
  5
162
330
2
100
AcDbEntity
  8
GAIKEI
 62
     1
100
AcDbEllipse
 10
19.27441933709321
 20
23.61170329264462
 30
0.0
 11
0.1794825696877462
 21
-0.0489638321544815
 31
0.0
210
0.0
220
0.0
230
1.0
 40
0.4093995401315422
 41
0.0
 42
6.283185307179586
  0
ELLIPSE
  5
163
330
2
100
AcDbEntity
  8
GAIKEI
 62
     1
100
AcDbEllipse
 10
19.85187665209292
 20
23.65532246425914
 30
0.0
 11
0.2037860919079664
 21
-0.0809024640245248
 31
0.0
210
0.0
220
0.0
230
1.0
 40
0.177721701547459
 41
0.0
 42
6.283185307179586
  0
ELLIPSE
  5
164
330
2
100
AcDbEntity
  8
GAIKEI
 62
     1
100
AcDbEllipse
 10
19.25390835933888
 20
23.83084124047645
 30
0.0
 11
0.1998943799409311
 21
-0.0440945498907797
 31
0.0
210
0.0
220
0.0
230
1.0
 40
0.1958958986426008
 41
0.0
 42
6.283185307179586
  0
ELLIPSE
  5
165
330
2
100
AcDbEntity
  8
GAIKEI
 62
     1
100
AcDbEllipse
 10
18.64744326978189
 20
23.92153900238446
 30
0.0
 11
0.2043981062060995
 21
-0.0189435668562625
 31
0.0
210
0.0
220
0.0
230
1.0
 40
0.1763153232301836
 41
0.0
 42
6.283185307179586
  0
ELLIPSE
  5
166
330
2
100
AcDbEntity
  8
GAIKEI
 62
     1
100
AcDbEllipse
 10
17.4583655841588
 20
23.92153900238446
 30
0.0
 11
-0.2043981062060995
 21
-0.0189435668562625
 31
0.0
210
0.0
220
0.0
230
-1.0
 40
0.1763153232301836
 41
0.0
 42
6.283185307179586
  0
ELLIPSE
  5
167
330
2
100
AcDbEntity
  8
GAIKEI
 62
     1
100
AcDbEllipse
 10
17.45484771479579
 20
23.70256965076254
 30
0.0
 11
-0.2004526816072709
 21
-0.0299917583673756
 31
0.0
210
0.0
220
0.0
230
-1.0
 40
0.4036625907862595
 41
0.0
 42
6.283185307179586
  0
ELLIPSE
  5
168
330
2
100
AcDbEntity
  8
GAIKEI
 62
     1
100
AcDbEllipse
 10
16.85190049460181
 20
23.83084124047645
 30
0.0
 11
-0.1998943799409311
 21
-0.0440945498907797
 31
0.0
210
0.0
220
0.0
230
-1.0
 40
0.1958958986426008
 41
0.0
 42
6.283185307179586
  0
ELLIPSE
  5
169
330
2
100
AcDbEntity
  8
GAIKEI
 62
     1
100
AcDbEllipse
 10
16.83138951684748
 20
23.61170329264462
 30
0.0
 11
-0.1794825696877462
 21
-0.0489638321544815
 31
0.0
210
0.0
220
0.0
230
-1.0
 40
0.4093995401315422
 41
0.0
 42
6.283185307179586
  0
ELLIPSE
  5
16A
330
2
100
AcDbEntity
  8
GAIKEI
 62
     1
100
AcDbEllipse
 10
16.25393220184776
 20
23.65532246425914
 30
0.0
 11
-0.2037860919079664
 21
-0.0809024640245247
 31
0.0
210
0.0
220
0.0
230
-1.0
 40
0.177721701547459
 41
0.0
 42
6.283185307179586
  0
ELLIPSE
  5
16B
330
2
100
AcDbEntity
  8
GAIKEI
 62
     1
100
AcDbEllipse
 10
18.05362536031146
 20
23.9485225731047
 30
0.0
 11
0.2002034697668478
 21
0.0044723801344162
 31
0.0
210
0.0
220
0.0
230
1.0
 40
0.1589058135662923
 41
0.0
 42
6.283185307179586
  0
ARC
  5
16C
330
2
100
AcDbEntity
  8
GAIKEI
 62
     7
100
AcDbCircle
 10
18.30758133093167
 20
-13.52618303134107
 30
0.0
 40
3.923010393004686
100
AcDbArc
 50
266.2778123879578
 51
296.2352428022811
  0
ARC
  5
16D
330
2
100
AcDbEntity
  8
GAIKEI
 62
     7
100
AcDbCircle
 10
19.38796103827175
 20
-15.36502012752817
 30
0.0
 40
1.8061169112752
100
AcDbArc
 50
333.3362150668333
 51
357.275281881564
  0
ARC
  5
16E
330
2
100
AcDbEntity
  8
GAIKEI
 62
     7
100
AcDbCircle
 10
19.38242308802313
 20
-15.35132986242604
 30
0.0
 40
1.817555456528329
100
AcDbArc
 50
291.2704260629587
 51
318.3680937089666
  0
ARC
  5
16F
330
2
100
AcDbEntity
  8
GAIKEI
 62
     7
100
AcDbCircle
 10
19.88230361365419
 20
-15.69336053806097
 30
0.0
 40
1.219104457469376
100
AcDbArc
 50
314.7727885432696
 51
336.702511743901
  0
ARC
  5
170
330
2
100
AcDbEntity
  8
GAIKEI
 62
     7
100
AcDbCircle
 10
-220.4506588611651
 20
-4.62452241475762
 30
0.0
 40
241.8849138715026
100
AcDbArc
 50
357.4297364934417
 51
359.3396385101991
  0
ARC
  5
171
330
2
100
AcDbEntity
  8
GAIKEI
 62
     7
100
AcDbCircle
 10
242.8962968648981
 20
-9.890299202382209
 30
0.0
 40
221.4924826079212
100
AcDbArc
 50
177.0204824914112
 51
179.3789939501376
  0
ARC
  5
172
330
2
100
AcDbEntity
  8
GAIKEI
 62
     7
100
AcDbCircle
 10
-2944.481663184102
 20
177.5404651637926
 30
0.0
 40
2971.396962944228
100
AcDbArc
 50
356.6058907608774
 51
356.7313532520127
  0
ARC
  5
173
330
2
100
AcDbEntity
  8
GAIKEI
 62
     7
100
AcDbCircle
 10
-16.55731380501908
 20
10.61723841448287
 30
0.0
 40
38.71937720183313
100
AcDbArc
 50
356.2994547937114
 51
2.428241620381826
  0
ARC
  5
174
330
2
100
AcDbEntity
  8
GAIKEI
 62
     1
100
AcDbCircle
 10
27.29905989411645
 20
6.977779026102439
 30
0.0
 40
12.17776574883133
100
AcDbArc
 50
169.7828795952316
 51
181.726413193749
  0
ARC
  5
175
330
2
100
AcDbEntity
  8
GAIKEI
 62
     1
100
AcDbCircle
 10
17.58184305486639
 20
8.820320038467173
 30
0.0
 40
2.289568063357325
100
AcDbArc
 50
127.5245537522709
 51
172.0280396671102
  0
ARC
  5
176
330
2
100
AcDbEntity
  8
GAIKEI
 62
     1
100
AcDbCircle
 10
17.83293329109187
 20
8.115167690385533
 30
0.0
 40
3.01058543763788
100
AcDbArc
 50
85.80989839212859
 51
123.1359621808556
  0
ARC
  5
177
330
2
100
AcDbEntity
  8
GAIKEI
 62
     1
100
AcDbCircle
 10
302.4740942766138
 20
8.639930947271125
 30
0.0
 40
287.3544360386243
100
AcDbArc
 50
180.4045732927295
 51
181.4662504943748
  0
LINE
  5
178
330
2
100
AcDbEntity
  8
GAIKEI
 62
     1
100
AcDbLine
 10
15.21374646548366
 20
1.287075277234976
 30
0.0
 11
15.4006849149996
 21
-8.553807761208759
 31
0.0
  0
LINE
  5
179
330
2
100
AcDbEntity
  8
GAIKEI
 62
     1
100
AcDbLine
 10
15.4006849149996
 20
-8.553807761208759
 30
0.0
 11
15.5683098884044
 21
-14.43566952009422
 31
0.0
  0
ARC
  5
17A
330
2
100
AcDbEntity
  8
GAIKEI
 62
     1
100
AcDbCircle
 10
18.57698095440918
 20
-14.65393790669498
 30
0.0
 40
3.01657797379805
100
AcDbArc
 50
175.8506640593467
 51
209.5763584772234
  0
ARC
  5
17B
330
2
100
AcDbEntity
  8
GAIKEI
 62
     1
100
AcDbCircle
 10
17.09912503307043
 20
-15.13222924115666
 30
0.0
 40
1.527719262435752
100
AcDbArc
 50
221.4170791781508
 51
260.9995118907159
  0
ARC
  5
17C
330
2
100
AcDbEntity
  8
GAIKEI
 62
     1
100
AcDbCircle
 10
18.05387250184577
 20
-12.13867420454113
 30
0.0
 40
4.658026677961255
100
AcDbArc
 50
255.1506931352903
 51
269.9880919343982
  0
ARC
  5
17D
330
2
100
AcDbEntity
  8
GAIKEI
 62
     1
100
AcDbCircle
 10
18.05376733802438
 20
-12.18767763866702
 30
0.0
 40
5.034835180379112
100
AcDbArc
 50
250.5563618937341
 51
269.9901801827889
  0
ARC
  5
17E
330
2
100
AcDbEntity
  8
GAIKEI
 62
     1
100
AcDbCircle
 10
16.47233756050383
 20
-16.51730101647018
 30
0.0
 40
0.4286333138288521
100
AcDbArc
 50
194.2301208845057
 51
257.2548010259299
  0
ARC
  5
17F
330
2
100
AcDbEntity
  8
GAIKEI
 62
     1
100
AcDbCircle
 10
18.58127760857229
 20
-15.82765251945551
 30
0.0
 40
2.646648797563313
100
AcDbArc
 50
186.8401917175733
 51
197.4807343023993
  0
LINE
  5
180
330
2
100
AcDbEntity
  8
GAIKEI
 62
     1
100
AcDbLine
 10
15.95346711180036
 20
-16.1428696679398
 30
0.0
 11
15.50813776572036
 21
0.9658701802601967
 31
0.0
  0
ARC
  5
181
330
2
100
AcDbEntity
  8
GAIKEI
 62
     1
100
AcDbCircle
 10
15.80582221797135
 20
0.9591410427510709
 30
0.0
 40
0.2977604983935589
100
AcDbArc
 50
129.3029000013969
 51
178.7050531990926
  0
ARC
  5
182
330
2
100
AcDbEntity
  8
GAIKEI
 62
     1
100
AcDbCircle
 10
15.80870774214853
 20
0.9543280426505589
 30
0.0
 40
0.303313683060414
100
AcDbArc
 50
91.56467557592176
 51
129.1487940448258
  0
LINE
  5
183
330
2
100
AcDbEntity
  8
GAIKEI
 62
     1
100
AcDbLine
 10
15.80042565698767
 20
1.257528632025071
 30
0.0
 11
21.34770901362202
 21
1.257528632025071
 31
0.0
  0
ARC
  5
184
330
2
100
AcDbEntity
  8
GAIKEI
 62
     1
100
AcDbCircle
 10
18.05193635209497
 20
-12.13867420454113
 30
0.0
 40
4.658026677961255
100
AcDbArc
 50
270.0119080656018
 51
284.8493068647097
  0
ARC
  5
185
330
2
100
AcDbEntity
  8
GAIKEI
 62
     1
100
AcDbCircle
 10
19.00668382087028
 20
-15.13222924115666
 30
0.0
 40
1.527719262435752
100
AcDbArc
 50
279.0004881092841
 51
318.5829208218492
  0
ARC
  5
186
330
2
100
AcDbEntity
  8
GAIKEI
 62
     1
100
AcDbCircle
 10
17.52882789953156
 20
-14.65393790669498
 30
0.0
 40
3.01657797379805
100
AcDbArc
 50
330.4236415227766
 51
4.149335940653242
  0
LINE
  5
187
330
2
100
AcDbEntity
  8
GAIKEI
 62
     1
100
AcDbLine
 10
20.70512393894111
 20
-8.553807761208759
 30
0.0
 11
20.53749896553632
 21
-14.43566952009422
 31
0.0
  0
LINE
  5
188
330
2
100
AcDbEntity
  8
GAIKEI
 62
     1
100
AcDbLine
 10
20.89206238845705
 20
1.287075277234976
 30
0.0
 11
20.70512393894111
 21
-8.553807761208759
 31
0.0
  0
ARC
  5
189
330
2
100
AcDbEntity
  8
GAIKEI
 62
     1
100
AcDbCircle
 10
-266.368285422673
 20
8.639930947271125
 30
0.0
 40
287.3544360386243
100
AcDbArc
 50
358.5337495056251
 51
359.5954267072704
  0
ARC
  5
18A
330
2
100
AcDbEntity
  8
GAIKEI
 62
     1
100
AcDbCircle
 10
8.80674895982429
 20
6.977779026102439
 30
0.0
 40
12.17776574883133
100
AcDbArc
 50
358.273586806251
 51
10.21712040476834
  0
ARC
  5
18B
330
2
100
AcDbEntity
  8
GAIKEI
 62
     1
100
AcDbCircle
 10
18.52396579907432
 20
8.820320038467173
 30
0.0
 40
2.289568063357325
100
AcDbArc
 50
7.971960332889778
 51
52.47544624772911
  0
ARC
  5
18C
330
2
100
AcDbEntity
  8
GAIKEI
 62
     1
100
AcDbCircle
 10
18.27287556284881
 20
8.115167690385533
 30
0.0
 40
3.01058543763788
100
AcDbArc
 50
56.86403781914433
 51
94.19010160787138
  0
ARC
  5
18D
330
2
100
AcDbEntity
  8
GAIKEI
 62
     1
100
AcDbCircle
 10
21.27473048330484
 20
1.098454431410516
 30
0.0
 40
0.1750156198412891
100
AcDbArc
 50
1.136934886777667
 51
65.35574518571086
  0
ARC
  5
18E
330
2
100
AcDbEntity
  8
GAIKEI
 62
     1
100
AcDbCircle
 10
19.30650689204572
 20
0.9284911876916908
 30
0.0
 40
2.150210834869809
100
AcDbArc
 50
354.4657497176248
 51
4.626500608273756
  0
LINE
  5
18F
330
2
100
AcDbEntity
  8
GAIKEI
 62
     1
100
AcDbLine
 10
21.44669500469035
 20
0.7211232131001566
 30
0.0
 11
21.1835843305974
 21
-8.760687575464714
 31
0.0
  0
LINE
  5
190
330
2
100
AcDbEntity
  8
GAIKEI
 62
     1
100
AcDbLine
 10
21.1835843305974
 20
-8.760687575464714
 30
0.0
 11
20.96882561902035
 21
-14.99319081745983
 31
0.0
  0
ARC
  5
191
330
2
100
AcDbEntity
  8
GAIKEI
 62
     1
100
AcDbCircle
 10
18.05109255783935
 20
-12.17971619597028
 30
0.0
 40
5.042796874630395
100
AcDbArc
 50
270.0205862856715
 51
288.7127871091804
  0
ARC
  5
192
330
2
100
AcDbEntity
  8
GAIKEI
 62
     1
100
AcDbCircle
 10
19.29581627829472
 20
-15.38552627981346
 30
0.0
 40
1.614136773227472
100
AcDbArc
 50
283.3655430634134
 51
337.1796818158046
  0
ARC
  5
193
330
2
100
AcDbEntity
  8
GAIKEI
 62
     1
100
AcDbCircle
 10
17.84399120127585
 20
-14.95087999239348
 30
0.0
 40
3.125120852741296
100
AcDbArc
 50
340.1594612408198
 51
359.2242521534963
  0
ARC
  5
194
330
2
100
AcDbEntity
  8
GAIKEI
 62
     7
100
AcDbCircle
 10
17.79822752300907
 20
-13.52618303134107
 30
0.0
 40
3.923010393004689
100
AcDbArc
 50
243.7647571977188
 51
273.7221876120422
  0
ARC
  5
195
330
2
100
AcDbEntity
  8
GAIKEI
 62
     7
100
AcDbCircle
 10
16.72338576591761
 20
-15.35132986242604
 30
0.0
 40
1.817555456528329
100
AcDbArc
 50
221.6319062910334
 51
248.7295739370413
  0
ARC
  5
196
330
2
100
AcDbEntity
  8
GAIKEI
 62
     7
100
AcDbCircle
 10
16.22350524028655
 20
-15.69336053806097
 30
0.0
 40
1.219104457469376
100
AcDbArc
 50
203.297488256099
 51
225.2272114567304
  0
ARC
  5
197
330
2
100
AcDbEntity
  8
GAIKEI
 62
     7
100
AcDbCircle
 10
16.71784781566899
 20
-15.36502012752817
 30
0.0
 40
1.8061169112752
100
AcDbArc
 50
182.7247181184359
 51
206.6637849331666
  0
ARC
  5
198
330
2
100
AcDbEntity
  8
GAIKEI
 62
     7
100
AcDbCircle
 10
256.5564677151058
 20
-4.62452241475762
 30
0.0
 40
241.8849138715026
100
AcDbArc
 50
180.6603614898008
 51
182.5702635065582
  0
ARC
  5
199
330
2
100
AcDbEntity
  8
GAIKEI
 62
     7
100
AcDbCircle
 10
-206.7904880109574
 20
-9.890299202382209
 30
0.0
 40
221.4924826079212
100
AcDbArc
 50
0.6210060498623348
 51
2.812194320564607
  0
LINE
  5
19A
330
2
100
AcDbEntity
  8
GAIKEI
 62
     1
100
AcDbLine
 10
17.75290442698039
 20
0.5977058477802189
 30
0.0
 11
18.35290442698038
 21
0.5977058477802189
 31
0.0
  0
LINE
  5
19B
330
2
100
AcDbEntity
  8
GAIKEI
  6
Continuous
 62
     1
100
AcDbLine
 10
17.72632449060035
 20
0.5278142606401275
 30
0.0
 11
18.01861424584035
 21
0.268516307340235
 31
0.0
  0
LINE
  5
19C
330
2
100
AcDbEntity
  8
GAIKEI
  6
Continuous
 62
     1
100
AcDbLine
 10
18.09277433154034
 20
0.2728684670601638
 30
0.0
 11
18.38638874555175
 21
0.5359354954209153
 31
0.0
  0
ARC
  5
19D
330
2
100
AcDbEntity
  8
GAIKEI
 62
     1
100
AcDbCircle
 10
18.05294088153781
 20
0.3176099921457194
 30
0.0
 40
0.0599041551654471
100
AcDbArc
 50
235.038494522704
 51
311.67872274468
  0
ARC
  5
19E
330
2
100
AcDbEntity
  8
GAIKEI
 62
     1
100
AcDbCircle
 10
17.752910383222
 20
0.5577035826094062
 30
0.0
 40
0.0400022656142443
100
AcDbArc
 50
90.00853120444855
 51
228.3476125545061
  0
ARC
  5
19F
330
2
100
AcDbEntity
  8
GAIKEI
 62
     1
100
AcDbCircle
 10
18.35734399319199
 20
0.560151712625725
 30
0.0
 40
0.0378156424690804
100
AcDbArc
 50
320.1801623793017
 51
96.74208775237362
  0
LINE
  5
1A0
330
2
100
AcDbEntity
  8
GAIKEI
 62
     1
100
AcDbLine
 10
17.39290447148036
 20
0.7977058477801507
 30
0.0
 11
18.71290438247132
 21
0.7977058477801507
 31
0.0
  0
ARC
  5
1A1
330
2
100
AcDbEntity
  8
GAIKEI
 62
     1
100
AcDbCircle
 10
17.39298786049795
 20
0.8777058395958192
 30
0.0
 40
0.0800000352764629
100
AcDbArc
 50
90.04859350728631
 51
269.9402770309603
  0
LINE
  5
1A2
330
2
100
AcDbEntity
  8
GAIKEI
 62
     1
100
AcDbLine
 10
17.39292001114037
 20
0.9577058461001684
 30
0.0
 11
18.71288884285539
 21
0.9577058461001684
 31
0.0
  0
ARC
  5
1A3
330
2
100
AcDbEntity
  8
GAIKEI
 62
     1
100
AcDbCircle
 10
18.71282099344279
 20
0.8777058395958192
 30
0.0
 40
0.0800000352764629
100
AcDbArc
 50
270.0597229690397
 51
89.95140649271368
  0
LINE
  5
1A4
330
2
100
AcDbEntity
  8
GAIKEI
 62
     1
100
AcDbLine
 10
14.40616658786035
 20
0.9776573611201797
 30
0.0
 11
14.45245432048037
 21
0.9760409117802169
 31
0.0
  0
LINE
  5
1A5
330
2
100
AcDbEntity
  8
GAIKEI
 62
     7
100
AcDbLine
 10
14.31048442654037
 20
2.807706391080216
 30
0.0
 11
14.40616664212038
 21
0.97765765186017
 31
0.0
  0
ARC
  5
1A6
330
2
100
AcDbEntity
  8
GAIKEI
 62
     1
100
AcDbCircle
 10
10.24132332874612
 20
2.655285872584272
 30
0.0
 40
4.533311276504476
100
AcDbArc
 50
338.2584063305245
 51
353.4380618284459
  0
ARC
  5
1A7
330
2
100
AcDbEntity
  8
GAIKEI
 62
     1
100
AcDbCircle
 10
11.40173436775706
 20
2.507910040097783
 30
0.0
 40
3.363688821466344
100
AcDbArc
 50
353.6731571516037
 51
358.9607080366329
  0
LINE
  5
1A8
330
2
100
AcDbEntity
  8
GAIKEI
 62
     1
100
AcDbLine
 10
14.76486983429595
 20
2.446899210191759
 30
0.0
 11
14.70677209001616
 21
4.361073147937474
 31
0.0
  0
ARC
  5
1A9
330
2
100
AcDbEntity
  8
GAIKEI
 62
     7
100
AcDbCircle
 10
10.68813775901756
 20
3.959847608334996
 30
0.0
 40
3.801208300090092
100
AcDbArc
 50
342.4494724169964
 51
2.492003710717693
  0
ARC
  5
1AA
330
2
100
AcDbEntity
  8
GAIKEI
 62
     7
100
AcDbCircle
 10
-228.2857023175521
 20
-7.72643263738297
 30
0.0
 40
243.0605646002554
100
AcDbArc
 50
2.794832377000556
 51
3.397582916319236
  0
LINE
  5
1AB
330
2
100
AcDbEntity
  8
GAIKEI
 62
     1
100
AcDbLine
 10
14.46630478346037
 20
4.521411829180181
 30
0.0
 11
14.31293402072035
 21
4.516056004140125
 31
0.0
  0
LINE
  5
1AC
330
2
100
AcDbEntity
  8
GAIKEI
 62
     1
100
AcDbLine
 10
14.31293402072035
 20
4.516056004140125
 30
0.0
 11
14.31290442698037
 21
4.157737402080158
 31
0.0
  0
ARC
  5
1AD
330
2
100
AcDbEntity
  8
GAIKEI
 62
     1
100
AcDbCircle
 10
13.9159631386112
 20
3.58017431715325
 30
0.0
 40
0.7008148853174122
100
AcDbArc
 50
35.06540121046376
 51
55.50045966702917
  0
LINE
  5
1AE
330
2
100
AcDbEntity
  8
GAIKEI
 62
     1
100
AcDbLine
 10
14.70677209001616
 20
4.361073147937474
 30
0.0
 11
14.48656071308974
 21
9.152782952992254
 31
0.0
  0
ARC
  5
1AF
330
2
100
AcDbEntity
  8
GAIKEI
 62
     1
100
AcDbCircle
 10
43.39996430814247
 20
10.61279076357431
 30
0.0
 40
28.95024231776599
100
AcDbArc
 50
176.7427663897507
 51
182.8907456048693
  0
ARC
  5
1B0
330
2
100
AcDbEntity
  8
GAIKEI
 62
     7
100
AcDbCircle
 10
-17.96645821246966
 20
5.103642779838764
 30
0.0
 40
32.35244705032458
100
AcDbArc
 50
2.78992863987566
 51
5.098632063959783
  0
ARC
  5
1B1
330
2
100
AcDbEntity
  8
GAIKEI
 62
     7
100
AcDbCircle
 10
9.781759542168458
 20
7.324497920644603
 30
0.0
 40
4.523787736429916
100
AcDbArc
 50
8.3164697639858
 51
18.7262085162878
  0
ARC
  5
1B2
330
2
100
AcDbEntity
  8
GAIKEI
 62
     7
100
AcDbCircle
 10
9.833450145494282
 20
7.383349480111007
 30
0.0
 40
4.456111284894261
100
AcDbArc
 50
18.22293378825913
 51
22.70002306585312
  0
LINE
  5
1B3
330
2
100
AcDbEntity
  8
GAIKEI
 62
     1
100
AcDbLine
 10
14.25642221786034
 20
6.677710383960118
 30
0.0
 11
14.26932275206036
 21
6.31766736990022
 31
0.0
  0
LINE
  5
1B4
330
2
100
AcDbEntity
  8
GAIKEI
 62
     1
100
AcDbLine
 10
14.26932275206036
 20
6.31766736990022
 30
0.0
 11
14.33314155935451
 21
6.255039882263758
 31
0.0
  0
LINE
  5
1B5
330
2
100
AcDbEntity
  8
GAIKEI
 62
     1
100
AcDbLine
 10
14.33314155935451
 20
6.255039882263758
 30
0.0
 11
14.37342775214037
 21
6.254884194460203
 31
0.0
  0
LINE
  5
1B6
330
2
100
AcDbEntity
  8
GAIKEI
 62
     1
100
AcDbLine
 10
14.23491025618037
 20
7.278091065780188
 30
0.0
 11
14.23994045146037
 21
7.137705847780182
 31
0.0
  0
LINE
  5
1B7
330
2
100
AcDbEntity
  8
GAIKEI
 62
     1
100
AcDbLine
 10
14.24567305704036
 20
6.977710383960186
 30
0.0
 11
14.25068957736036
 21
6.837703538500193
 31
0.0
  0
ARC
  5
1B8
330
2
100
AcDbEntity
  8
GAIKEI
 62
     1
100
AcDbCircle
 10
14.24462443014033
 20
6.727706546480192
 30
0.0
 40
0.0499999998200264
100
AcDbArc
 50
182.0520603704997
 51
269.9999037860083
  0
LINE
  5
1B9
330
2
100
AcDbEntity
  8
GAIKEI
 62
     1
100
AcDbLine
 10
14.24462434617777
 20
6.67770654666026
 30
0.0
 11
14.27245810416033
 21
6.677705847780146
 31
0.0
  0
LINE
  5
1BA
330
2
100
AcDbEntity
  8
GAIKEI
 62
     1
100
AcDbLine
 10
14.23414237266215
 20
6.837003180814292
 30
0.0
 11
14.26672615218035
 21
6.837705847780114
 31
0.0
  0
ARC
  5
1BB
330
2
100
AcDbEntity
  8
GAIKEI
 62
     1
100
AcDbCircle
 10
14.24247079808563
 20
6.787706470116461
 30
0.0
 40
0.0499952833341329
100
AcDbArc
 50
99.58927757563362
 51
171.9451053739842
  0
LINE
  5
1BC
330
2
100
AcDbEntity
  8
GAIKEI
 62
     1
100
AcDbLine
 10
14.19296875453673
 20
6.79471189944968
 30
0.0
 11
14.19465649512395
 21
6.725916168809817
 31
0.0
  0
ARC
  5
1BD
330
2
100
AcDbEntity
  8
GAIKEI
 62
     1
100
AcDbCircle
 10
13.80487616881242
 20
6.742513864865202
 30
0.0
 40
0.4720522063742635
100
AcDbArc
 50
352.1089524681801
 51
11.50872927174583
  0
ARC
  5
1BE
330
2
100
AcDbEntity
  8
GAIKEI
 62
     1
100
AcDbCircle
 10
13.79412708035244
 20
7.042509328685298
 30
0.0
 40
0.4720522063742635
100
AcDbArc
 50
352.1089524681801
 51
11.50872927174583
  0
LINE
  5
1BF
330
2
100
AcDbEntity
  8
GAIKEI
 62
     1
100
AcDbLine
 10
14.18221966607674
 20
7.094707363269776
 30
0.0
 11
14.18390740666396
 21
7.025911632629913
 31
0.0
  0
ARC
  5
1C0
330
2
100
AcDbEntity
  8
GAIKEI
 62
     1
100
AcDbCircle
 10
14.23172170962564
 20
7.087701933936557
 30
0.0
 40
0.0499952833341329
100
AcDbArc
 50
99.58927757563362
 51
171.9451053739842
  0
LINE
  5
1C1
330
2
100
AcDbEntity
  8
GAIKEI
 62
     1
100
AcDbLine
 10
14.22339328420216
 20
7.136998644634388
 30
0.0
 11
14.25597706372036
 21
7.13770131160021
 31
0.0
  0
LINE
  5
1C2
330
2
100
AcDbEntity
  8
GAIKEI
 62
     1
100
AcDbLine
 10
14.23387525771778
 20
6.977702010480356
 30
0.0
 11
14.26170901570035
 21
6.977701311600242
 31
0.0
  0
ARC
  5
1C3
330
2
100
AcDbEntity
  8
GAIKEI
 62
     1
100
AcDbCircle
 10
14.23387534168034
 20
7.027702010300288
 30
0.0
 40
0.0499999998200264
100
AcDbArc
 50
182.0520603704997
 51
269.9999037860083
  0
ARC
  5
1C4
330
2
100
AcDbEntity
  8
GAIKEI
 62
     1
100
AcDbCircle
 10
14.22311254082035
 20
7.32808269212029
 30
0.0
 40
0.0499999998200264
100
AcDbArc
 50
182.0520603704997
 51
269.9999037860083
  0
LINE
  5
1C5
330
2
100
AcDbEntity
  8
GAIKEI
 62
     1
100
AcDbLine
 10
14.22311245685779
 20
7.278082692300358
 30
0.0
 11
14.25094621484035
 21
7.278081993420244
 31
0.0
  0
LINE
  5
1C6
330
2
100
AcDbEntity
  8
GAIKEI
 62
     1
100
AcDbLine
 10
14.21263048334217
 20
7.43737932645439
 30
0.0
 11
14.24521426286037
 21
7.438081993420212
 31
0.0
  0
ARC
  5
1C7
330
2
100
AcDbEntity
  8
GAIKEI
 62
     1
100
AcDbCircle
 10
14.22095890876565
 20
7.388082615756559
 30
0.0
 40
0.0499952833341329
100
AcDbArc
 50
99.58927757563362
 51
171.9451053739842
  0
LINE
  5
1C8
330
2
100
AcDbEntity
  8
GAIKEI
 62
     1
100
AcDbLine
 10
14.17145686521675
 20
7.395088045089778
 30
0.0
 11
14.17314460580397
 21
7.326292314449915
 31
0.0
  0
ARC
  5
1C9
330
2
100
AcDbEntity
  8
GAIKEI
 62
     1
100
AcDbCircle
 10
13.78336427949244
 20
7.3428900105053
 30
0.0
 40
0.4720522063742635
100
AcDbArc
 50
352.1089524681801
 51
11.50872927174583
  0
ARC
  5
1CA
330
2
100
AcDbEntity
  8
GAIKEI
 62
     1
100
AcDbCircle
 10
7.237393500640081
 20
7.083419158400204
 30
0.0
 40
7.000000000000197
100
AcDbArc
 50
2.901067793001188
 51
10.33567101700085
  0
LINE
  5
1CB
330
2
100
AcDbEntity
  8
GAIKEI
 62
     1
100
AcDbLine
 10
14.12380820483699
 20
8.339322228634216
 30
0.0
 11
14.17193705038036
 21
8.409817236000151
 31
0.0
  0
LINE
  5
1CC
330
2
100
AcDbEntity
  8
GAIKEI
 62
     7
100
AcDbLine
 10
13.94438184438036
 20
9.102991405180148
 30
0.0
 11
13.91230089938204
 21
10.05017921759014
 31
0.0
  0
ARC
  5
1CD
330
2
100
AcDbEntity
  8
GAIKEI
 62
     7
100
AcDbCircle
 10
41.91867444206638
 20
11.17359454624841
 30
0.0
 40
28.00122271712701
100
AcDbArc
 50
177.7811407128411
 51
182.1668353679755
  0
LINE
  5
1CE
330
2
100
AcDbEntity
  8
GAIKEI
 62
     7
100
AcDbLine
 10
13.93747346434037
 20
10.11488519130017
 30
0.0
 11
13.91359874242036
 21
10.07349755384024
 31
0.0
  0
LINE
  5
1CF
330
2
100
AcDbEntity
  8
GAIKEI
 62
     7
100
AcDbLine
 10
13.91359874242036
 20
10.07349755384024
 30
0.0
 11
13.91230089938204
 21
10.05017921759014
 31
0.0
  0
DIMENSION
  5
1D0
330
2
100
AcDbEntity
  8
SUNPO
100
AcDbDimension
  2
*D6
 10
-15.62071862390786
 20
31.44865953618404
 30
0.0
 11
-19.30046979233438
 21
33.19865953618404
 31
0.0
 70
    33
  1
37
 71
     5
 42
7.35950233685304
  3
STANDARD
100
AcDbAlignedDimension
 13
-22.9802209607609
 23
23.44865953618404
 33
0.0
 14
-15.62071862390786
 24
23.44865953618404
 34
0.0
1001
ACAD
1000
DSTYLE
1002
{
1070
    40
1040
1.0
1070
   140
1040
2.5
1070
   147
1040
0.5
1070
   172
1070
     1
1070
   279
1070
     0
1070
   288
1070
     0
1002
}
  0
DIMENSION
  5
1DF
330
2
100
AcDbEntity
  8
SUNPO
100
AcDbDimension
  2
*D5
 10
-7.529029517460941
 20
-17.96108852809852
 30
0.0
 11
-9.279029517460937
 21
2.729600997996155
 31
0.0
 70
    33
  1
207
 71
     5
 42
41.38137905218934
  3
STANDARD
100
AcDbAlignedDimension
 13
-15.52902951746097
 23
23.42029052409083
 33
0.0
 14
-15.52902951746097
 24
-17.96108852809851
 34
0.0
1001
ACAD
1000
DSTYLE
1002
{
1070
    40
1040
1.0
1070
   140
1040
2.5
1070
   147
1040
0.5
1070
   172
1070
     1
1070
   279
1070
     0
1070
   288
1070
     0
1002
}
  0
DIMENSION
  5
1EC
330
2
100
AcDbEntity
  8
SUNPO
100
AcDbDimension
  2
*D4
 10
22.15386300777959
 20
31.44865953618404
 30
0.0
 11
18.03550166346994
 21
33.19865953618404
 31
0.0
 70
    33
  1
41
 71
     5
 42
8.236722688619295
  3
STANDARD
100
AcDbAlignedDimension
 13
13.91714031916029
 23
23.44865953618404
 33
0.0
 14
22.15386300777959
 24
23.44865953618404
 34
0.0
1001
ACAD
1000
DSTYLE
1002
{
1070
    40
1040
1.0
1070
   140
1040
2.5
1070
   147
1040
0.5
1070
   172
1070
     1
1070
   279
1070
     0
1070
   288
1070
     0
1002
}
  0
ENDSEC
  0
SECTION
  2
OBJECTS
  0
DICTIONARY
  5
7
330
0
100
AcDbDictionary
281
     1
  3
ACAD_COLOR
350
2C
  3
ACAD_GROUP
350
28
  3
ACAD_LAYOUT
350
B
  3
ACAD_MATERIAL
350
2B
  3
ACAD_MLINESTYLE
350
29
  3
ACAD_PLOTSETTINGS
350
2A
  3
ACAD_PLOTSTYLENAME
350
6
  3
ACDBHEADERROUNDTRIPXREC
350
235
  3
AcDbVariableDictionary
350
230
  0
DICTIONARY
  5
11
330
10
100
AcDbDictionary
280
     1
281
     1
  3
ACAD_LAYERSTATES
360
12
  0
DICTIONARY
  5
2C
102
{ACAD_REACTORS
330
7
102
}
330
7
100
AcDbDictionary
281
     1
  0
DICTIONARY
  5
28
102
{ACAD_REACTORS
330
7
102
}
330
7
100
AcDbDictionary
281
     1
  0
DICTIONARY
  5
B
102
{ACAD_REACTORS
330
7
102
}
330
7
100
AcDbDictionary
281
     1
  3
Model
350
A
  3
レイアウト1
350
F
  0
DICTIONARY
  5
2B
102
{ACAD_REACTORS
330
7
102
}
330
7
100
AcDbDictionary
281
     1
  0
DICTIONARY
  5
29
102
{ACAD_REACTORS
330
7
102
}
330
7
100
AcDbDictionary
281
     1
  3
Standard
350
2E
  0
DICTIONARY
  5
2A
102
{ACAD_REACTORS
330
7
102
}
330
7
100
AcDbDictionary
281
     1
  0
ACDBDICTIONARYWDFLT
  5
6
102
{ACAD_REACTORS
330
7
102
}
330
7
100
AcDbDictionary
281
     1
  3
Normal
350
5
100
AcDbDictionaryWithDefault
340
5
  0
DICTIONARY
  5
235
102
{ACAD_REACTORS
330
7
102
}
330
7
100
AcDbDictionary
281
     1
  3
COLORDICT
350
237
  3
MATERIALDICT
350
236
  0
DICTIONARY
  5
230
102
{ACAD_REACTORS
330
7
102
}
330
7
100
AcDbDictionary
281
     1
  3
DIMASSOC
350
232
  3
HIDETEXT
350
231
  3
PROJECTNAME
350
233
  0
DICTIONARY
  5
12
102
{ACAD_REACTORS
330
11
102
}
330
11
100
AcDbDictionary
281
     1
  0
LAYOUT
  5
A
102
{ACAD_XDICTIONARY
360
238
102
}
102
{ACAD_REACTORS
330
B
102
}
330
B
100
AcDbPlotSettings
  1

  2
Ａ４－縦3FRIM01.pc3
  4
A4
  6

 40
5.873749732971191
 41
5.873747825622558
 42
5.873748779296875
 43
5.873748779296875
 44
209.9733276367187
 45
296.9259948730469
 46
5.41
 47
0.0
 48
0.0
 49
0.0
140
0.0
141
0.0
142
1.0
143
1.382387757906818
 70
 11956
 72
     1
 73
     0
 74
     1
  7
tmsacad.ctb
 75
     0
147
0.7233860357054797
148
0.0435164063844695
149
0.0048908733479038
100
AcDbLayout
  1
Model
 70
     1
 71
     0
 10
0.0
 20
0.0
 11
12.0
 21
9.0
 12
0.0
 22
0.0
 32
0.0
 14
0.0
 24
0.0
 34
0.0
 15
0.0
 25
0.0
 35
0.0
146
0.0
 13
0.0
 23
0.0
 33
0.0
 16
1.0
 26
0.0
 36
0.0
 17
0.0
 27
1.0
 37
0.0
 76
     0
330
2
  0
LAYOUT
  5
F
102
{ACAD_XDICTIONARY
360
23A
102
}
102
{ACAD_REACTORS
330
B
102
}
330
B
100
AcDbPlotSettings
  1

  2
None
  4

  6

 40
0.0
 41
0.0
 42
0.0
 43
0.0
 44
0.0
 45
0.0
 46
0.0
 47
0.0
 48
0.0
 49
0.0
140
0.0
141
0.0
142
1.0
143
1.0
 70
   688
 72
     0
 73
     0
 74
     5
  7
tmsacad.ctb
 75
    16
147
1.0
148
0.0
149
0.0
100
AcDbLayout
  1
レイアウト1
 70
     1
 71
     1
 10
0.0
 20
0.0
 11
12.0
 21
9.0
 12
0.0
 22
0.0
 32
0.0
 14
0.0
 24
0.0
 34
0.0
 15
0.0
 25
0.0
 35
0.0
146
0.0
 13
0.0
 23
0.0
 33
0.0
 16
1.0
 26
0.0
 36
0.0
 17
0.0
 27
1.0
 37
0.0
 76
     0
330
C
  0
MLINESTYLE
  5
2E
102
{ACAD_REACTORS
330
29
102
}
330
29
100
AcDbMlineStyle
  2
STANDARD
 70
     0
  3

 62
   256
 51
90.0
 52
90.0
 71
     2
 49
0.5
 62
   256
  6
BYLAYER
 49
-0.5
 62
   256
  6
BYLAYER
  0
ACDBPLACEHOLDER
  5
5
102
{ACAD_REACTORS
330
6
102
}
330
6
  0
XRECORD
  5
237
102
{ACAD_REACTORS
330
235
102
}
330
235
100
AcDbXrecord
280
     1
340
2C
  0
XRECORD
  5
236
102
{ACAD_REACTORS
330
235
102
}
330
235
100
AcDbXrecord
280
     1
340
2B
  0
DICTIONARYVAR
  5
232
102
{ACAD_REACTORS
330
230
102
}
330
230
100
DictionaryVariables
280
     0
  1
1
  0
DICTIONARYVAR
  5
231
102
{ACAD_REACTORS
330
230
102
}
330
230
100
DictionaryVariables
280
     0
  1
1
  0
DICTIONARYVAR
  5
233
102
{ACAD_REACTORS
330
230
102
}
330
230
100
DictionaryVariables
280
     0
  1

  0
DICTIONARY
  5
238
330
A
100
AcDbDictionary
280
     1
281
     1
  3
ACAD_XREC_ROUNDTRIP
360
239
  0
DICTIONARY
  5
23A
330
F
100
AcDbDictionary
280
     1
281
     1
  3
ACAD_XREC_ROUNDTRIP
360
23B
  0
XRECORD
  5
239
102
{ACAD_REACTORS
330
238
102
}
330
238
100
AcDbXrecord
280
     1
102
SHADEPLOT
 70
     0
102
SHADEPLOTRESLEVEL
 70
     2
102
SHADEPLOTCUSTOMDPI
 70
   300
  0
XRECORD
  5
23B
102
{ACAD_REACTORS
330
23A
102
}
330
23A
100
AcDbXrecord
280
     1
102
SHADEPLOT
 70
     0
102
SHADEPLOTRESLEVEL
 70
     2
102
SHADEPLOTCUSTOMDPI
 70
   300
  0
ENDSEC
  0
EOF
