  0
SECTION
  2
HEADER
  9
$ACADVER
  1
AC1015
  9
$ACADMAINTVER
 70
    20
  9
$DWGCODEPAGE
  3
ANSI_932
  9
$INSBASE
 10
129.0
 20
120.4992141396419
 30
0.0
  9
$EXTMIN
 10
-68.89514817023382
 20
-52.48125122951842
 30
-0.0015258207003583
  9
$EXTMAX
 10
56.18536079973091
 20
60.64983068610763
 30
0.0000000349246037
  9
$LIMMIN
 10
-1101.784450318844
 20
-1579.160531687244
  9
$LIMMAX
 10
-508.2420711400536
 20
-1161.440814074914
  9
$ORTHOMODE
 70
     1
  9
$REGENMODE
 70
     1
  9
$FILLMODE
 70
     1
  9
$QTEXTMODE
 70
     0
  9
$MIRRTEXT
 70
     1
  9
$LTSCALE
 40
1.0
  9
$ATTMODE
 70
     1
  9
$TEXTSIZE
 40
3.0
  9
$TRACEWID
 40
0.5
  9
$TEXTSTYLE
  7
STANDARD
  9
$CLAYER
  8
GAIKEI
  9
$CELTYPE
  6
BYLAYER
  9
$CECOLOR
 62
   256
  9
$CELTSCALE
 40
1.0
  9
$DISPSILH
 70
     0
  9
$DIMSCALE
 40
1.0
  9
$DIMASZ
 40
2.0
  9
$DIMEXO
 40
2.0
  9
$DIMDLI
 40
8.0
  9
$DIMRND
 40
0.0
  9
$DIMDLE
 40
0.0
  9
$DIMEXE
 40
2.0
  9
$DIMTP
 40
0.0
  9
$DIMTM
 40
0.0
  9
$DIMTXT
 40
2.5
  9
$DIMCEN
 40
0.0
  9
$DIMTSZ
 40
0.0
  9
$DIMTOL
 70
     0
  9
$DIMLIM
 70
     0
  9
$DIMTIH
 70
     0
  9
$DIMTOH
 70
     0
  9
$DIMSE1
 70
     0
  9
$DIMSE2
 70
     0
  9
$DIMTAD
 70
     3
  9
$DIMZIN
 70
     0
  9
$DIMBLK
  1

  9
$DIMASO
 70
     1
  9
$DIMSHO
 70
     1
  9
$DIMPOST
  1

  9
$DIMAPOST
  1

  9
$DIMALT
 70
     0
  9
$DIMALTD
 70
     2
  9
$DIMALTF
 40
25.4
  9
$DIMLFAC
 40
1.0
  9
$DIMTOFL
 70
     1
  9
$DIMTVP
 40
0.0
  9
$DIMTIX
 70
     0
  9
$DIMSOXD
 70
     0
  9
$DIMSAH
 70
     1
  9
$DIMBLK1
  1
OPEN30
  9
$DIMBLK2
  1
OPEN30
  9
$DIMSTYLE
  2
STANDARD
  9
$DIMCLRD
 70
     0
  9
$DIMCLRE
 70
     0
  9
$DIMCLRT
 70
     0
  9
$DIMTFAC
 40
1.0
  9
$DIMGAP
 40
0.5
  9
$DIMJUST
 70
     0
  9
$DIMSD1
 70
     0
  9
$DIMSD2
 70
     0
  9
$DIMTOLJ
 70
     1
  9
$DIMTZIN
 70
     0
  9
$DIMALTZ
 70
     0
  9
$DIMALTTZ
 70
     0
  9
$DIMUPT
 70
     0
  9
$DIMDEC
 70
     4
  9
$DIMTDEC
 70
     4
  9
$DIMALTU
 70
     2
  9
$DIMALTTD
 70
     2
  9
$DIMTXSTY
  7
STANDARD
  9
$DIMAUNIT
 70
     0
  9
$DIMADEC
 70
     0
  9
$DIMALTRND
 40
0.0
  9
$DIMAZIN
 70
     0
  9
$DIMDSEP
 70
    46
  9
$DIMATFIT
 70
     3
  9
$DIMFRAC
 70
     0
  9
$DIMLDRBLK
  1
OPEN30
  9
$DIMLUNIT
 70
     2
  9
$DIMLWD
 70
    -2
  9
$DIMLWE
 70
    -2
  9
$DIMTMOVE
 70
     0
  9
$LUNITS
 70
     2
  9
$LUPREC
 70
     4
  9
$SKETCHINC
 40
0.1
  9
$FILLETRAD
 40
2.0
  9
$AUNITS
 70
     0
  9
$AUPREC
 70
     0
  9
$MENU
  1
ACAD
  9
$ELEVATION
 40
0.0
  9
$PELEVATION
 40
0.0
  9
$THICKNESS
 40
0.0
  9
$LIMCHECK
 70
     0
  9
$CHAMFERA
 40
0.0
  9
$CHAMFERB
 40
0.0
  9
$CHAMFERC
 40
0.0
  9
$CHAMFERD
 40
0.0
  9
$SKPOLY
 70
     0
  9
$TDCREATE
 40
2451815.565532581
  9
$TDUCREATE
 40
2451815.190532581
  9
$TDUPDATE
 40
2454215.641880058
  9
$TDUUPDATE
 40
2454215.266880058
  9
$TDINDWG
 40
1.0834595139
  9
$TDUSRTIMER
 40
1.0834595139
  9
$USRTIMER
 70
     1
  9
$ANGBASE
 50
0.0
  9
$ANGDIR
 70
     0
  9
$PDMODE
 70
     0
  9
$PDSIZE
 40
0.0
  9
$PLINEWID
 40
0.0
  9
$SPLFRAME
 70
     0
  9
$SPLINETYPE
 70
     6
  9
$SPLINESEGS
 70
     8
  9
$HANDSEED
  5
11E
  9
$SURFTAB1
 70
     6
  9
$SURFTAB2
 70
     6
  9
$SURFTYPE
 70
     6
  9
$SURFU
 70
     6
  9
$SURFV
 70
     6
  9
$UCSBASE
  2

  9
$UCSNAME
  2

  9
$UCSORG
 10
0.0
 20
0.0
 30
0.0
  9
$UCSXDIR
 10
1.0
 20
0.0
 30
0.0
  9
$UCSYDIR
 10
0.0
 20
1.0
 30
0.0
  9
$UCSORTHOREF
  2

  9
$UCSORTHOVIEW
 70
     0
  9
$UCSORGTOP
 10
0.0
 20
0.0
 30
0.0
  9
$UCSORGBOTTOM
 10
0.0
 20
0.0
 30
0.0
  9
$UCSORGLEFT
 10
0.0
 20
0.0
 30
0.0
  9
$UCSORGRIGHT
 10
0.0
 20
0.0
 30
0.0
  9
$UCSORGFRONT
 10
0.0
 20
0.0
 30
0.0
  9
$UCSORGBACK
 10
0.0
 20
0.0
 30
0.0
  9
$PUCSBASE
  2

  9
$PUCSNAME
  2

  9
$PUCSORG
 10
0.0
 20
0.0
 30
0.0
  9
$PUCSXDIR
 10
1.0
 20
0.0
 30
0.0
  9
$PUCSYDIR
 10
0.0
 20
1.0
 30
0.0
  9
$PUCSORTHOREF
  2

  9
$PUCSORTHOVIEW
 70
     0
  9
$PUCSORGTOP
 10
0.0
 20
0.0
 30
0.0
  9
$PUCSORGBOTTOM
 10
0.0
 20
0.0
 30
0.0
  9
$PUCSORGLEFT
 10
0.0
 20
0.0
 30
0.0
  9
$PUCSORGRIGHT
 10
0.0
 20
0.0
 30
0.0
  9
$PUCSORGFRONT
 10
0.0
 20
0.0
 30
0.0
  9
$PUCSORGBACK
 10
0.0
 20
0.0
 30
0.0
  9
$USERI1
 70
     0
  9
$USERI2
 70
     0
  9
$USERI3
 70
     0
  9
$USERI4
 70
     0
  9
$USERI5
 70
     0
  9
$USERR1
 40
0.0
  9
$USERR2
 40
0.0
  9
$USERR3
 40
0.0
  9
$USERR4
 40
0.0
  9
$USERR5
 40
0.0
  9
$WORLDVIEW
 70
     1
  9
$SHADEDGE
 70
     3
  9
$SHADEDIF
 70
    70
  9
$TILEMODE
 70
     1
  9
$MAXACTVP
 70
    48
  9
$PINSBASE
 10
0.0
 20
0.0
 30
0.0
  9
$PLIMCHECK
 70
     0
  9
$PEXTMIN
 10
1.000000000000000E+20
 20
1.000000000000000E+20
 30
1.000000000000000E+20
  9
$PEXTMAX
 10
-1.000000000000000E+20
 20
-1.000000000000000E+20
 30
-1.000000000000000E+20
  9
$PLIMMIN
 10
0.0
 20
0.0
  9
$PLIMMAX
 10
12.0
 20
9.0
  9
$UNITMODE
 70
     0
  9
$VISRETAIN
 70
     1
  9
$PLINEGEN
 70
     0
  9
$PSLTSCALE
 70
     1
  9
$TREEDEPTH
 70
  3020
  9
$CMLSTYLE
  2
STANDARD
  9
$CMLJUST
 70
     0
  9
$CMLSCALE
 40
1.0
  9
$PROXYGRAPHICS
 70
     1
  9
$MEASUREMENT
 70
     0
  9
$CELWEIGHT
370
    -1
  9
$ENDCAPS
280
     0
  9
$JOINSTYLE
280
     0
  9
$LWDISPLAY
290
     0
  9
$INSUNITS
 70
     0
  9
$HYPERLINKBASE
  1

  9
$STYLESHEET
  1

  9
$XEDIT
290
     1
  9
$CEPSNTYPE
380
     0
  9
$PSTYLEMODE
290
     1
  9
$FINGERPRINTGUID
  2
{1754B7AB-9B3C-11D4-AD9E-00104B1004F2}
  9
$VERSIONGUID
  2
{8C928A5D-2F30-426B-81AA-5608641CE2F6}
  9
$EXTNAMES
290
     1
  9
$PSVPSCALE
 40
0.0
  9
$OLESTARTUP
290
     0
  0
ENDSEC
  0
SECTION
  2
CLASSES
  0
CLASS
  1
ACDBDICTIONARYWDFLT
  2
AcDbDictionaryWithDefault
  3
ObjectDBX Classes
 90
        0
280
     0
281
     0
  0
CLASS
  1
ACDBPLACEHOLDER
  2
AcDbPlaceHolder
  3
ObjectDBX Classes
 90
        0
280
     0
281
     0
  0
CLASS
  1
LAYOUT
  2
AcDbLayout
  3
ObjectDBX Classes
 90
        0
280
     0
281
     0
  0
CLASS
  1
DICTIONARYVAR
  2
AcDbDictionaryVar
  3
ObjectDBX Classes
 90
        0
280
     0
281
     0
  0
CLASS
  1
IMAGE
  2
AcDbRasterImage
  3
ISM
 90
    32895
280
     0
281
     1
  0
CLASS
  1
IMAGEDEF_REACTOR
  2
AcDbRasterImageDefReactor
  3
ISM
 90
    32769
280
     0
281
     0
  0
ENDSEC
  0
SECTION
  2
TABLES
  0
TABLE
  2
VPORT
  5
20
330
0
100
AcDbSymbolTable
 70
     3
  0
VPORT
  5
116
330
20
100
AcDbSymbolTableRecord
100
AcDbViewportTableRecord
  2
*Active
 70
     0
 10
0.0
 20
0.0
 11
1.0
 21
1.0
 12
-6.354893685251447
 22
4.084289728294606
 13
0.0
 23
0.0
 14
1.0
 24
1.0
 15
0.0
 25
0.0
 16
0.0
 26
0.0
 36
1.0
 17
0.0
 27
0.0
 37
0.0
 40
114.0013210072847
 41
1.432605905006418
 42
50.0
 43
0.0
 44
0.0
 50
0.0
 51
0.0
 71
     0
 72
 10000
 73
     1
 74
     0
 75
     0
 76
     1
 77
     0
 78
     0
281
     0
 65
     1
110
0.0
120
0.0
130
0.0
111
1.0
121
0.0
131
0.0
112
0.0
122
1.0
132
0.0
 79
     0
146
0.0
  0
ENDTAB
  0
TABLE
  2
LTYPE
  5
1B
330
0
100
AcDbSymbolTable
 70
     1
  0
LTYPE
  5
1C
330
1B
100
AcDbSymbolTableRecord
100
AcDbLinetypeTableRecord
  2
BYBLOCK
 70
     0
  3

 72
    65
 73
     0
 40
0.0
  0
LTYPE
  5
1D
330
1B
100
AcDbSymbolTableRecord
100
AcDbLinetypeTableRecord
  2
BYLAYER
 70
     0
  3

 72
    65
 73
     0
 40
0.0
  0
LTYPE
  5
A
330
1B
100
AcDbSymbolTableRecord
100
AcDbLinetypeTableRecord
  2
CONTINUOUS
 70
     0
  3
Solid line
 72
    65
 73
     0
 40
0.0
  0
ENDTAB
  0
TABLE
  2
LAYER
  5
14
102
{ACAD_XDICTIONARY
360
15
102
}
330
0
100
AcDbSymbolTable
 70
     7
  0
LAYER
  5
6
330
14
100
AcDbSymbolTableRecord
100
AcDbLayerTableRecord
  2
0
 70
     0
 62
     7
  6
CONTINUOUS
370
    -3
390
7
  0
LAYER
  5
43
330
14
100
AcDbSymbolTableRecord
100
AcDbLayerTableRecord
  2
DEFPOINTS
 70
     0
 62
     7
  6
CONTINUOUS
290
     0
370
    -3
390
7
  0
LAYER
  5
CA
330
14
100
AcDbSymbolTableRecord
100
AcDbLayerTableRecord
  2
WAKU
 70
     0
 62
     4
  6
CONTINUOUS
370
    -3
390
7
  0
LAYER
  5
35
330
14
100
AcDbSymbolTableRecord
100
AcDbLayerTableRecord
  2
MOJI1
 70
     0
 62
     2
  6
CONTINUOUS
370
    -3
390
7
  0
LAYER
  5
32
330
14
100
AcDbSymbolTableRecord
100
AcDbLayerTableRecord
  2
GAIKEI
 70
     0
 62
     7
  6
CONTINUOUS
370
    -3
390
7
  0
LAYER
  5
37
330
14
100
AcDbSymbolTableRecord
100
AcDbLayerTableRecord
  2
TOUROKU
 70
     0
 62
     1
  6
CONTINUOUS
370
    -3
390
7
  0
LAYER
  5
39
330
14
100
AcDbSymbolTableRecord
100
AcDbLayerTableRecord
  2
SUNPO
 70
     0
 62
     3
  6
CONTINUOUS
370
    -3
390
7
  0
ENDTAB
  0
TABLE
  2
STYLE
  5
18
330
0
100
AcDbSymbolTable
 70
     1
  0
STYLE
  5
19
330
18
100
AcDbSymbolTableRecord
100
AcDbTextStyleTableRecord
  2
STANDARD
 70
     0
 40
0.0
 41
1.0
 50
0.0
 71
     0
 42
3.0
  3
MONOTXT.shx
  4
BIGFONT.shx
  0
ENDTAB
  0
TABLE
  2
VIEW
  5
1E
330
0
100
AcDbSymbolTable
 70
     0
  0
ENDTAB
  0
TABLE
  2
UCS
  5
1F
330
0
100
AcDbSymbolTable
 70
     0
  0
ENDTAB
  0
TABLE
  2
APPID
  5
22
330
0
100
AcDbSymbolTable
 70
     1
  0
APPID
  5
23
330
22
100
AcDbSymbolTableRecord
100
AcDbRegAppTableRecord
  2
ACAD
 70
     0
  0
ENDTAB
  0
TABLE
  2
DIMSTYLE
  5
24
330
0
100
AcDbSymbolTable
 70
     1
100
AcDbDimStyleTable
 71
     1
340
25
  0
DIMSTYLE
105
25
102
{ACAD_REACTORS
330
54
330
47
330
38
102
}
330
24
100
AcDbSymbolTableRecord
100
AcDbDimStyleTableRecord
  2
STANDARD
 70
     0
 40
0.0
 41
2.0
 42
2.0
 43
8.0
 44
2.0
 73
     0
 74
     0
 77
     3
140
3.0
141
0.0
173
     1
279
     2
288
     1
340
19
341
26
343
26
344
26
  0
ENDTAB
  0
TABLE
  2
BLOCK_RECORD
  5
1
330
0
100
AcDbSymbolTable
 70
     7
  0
BLOCK_RECORD
  5
2
102
{ACAD_XDICTIONARY
360
3
102
}
330
1
100
AcDbSymbolTableRecord
100
AcDbBlockTableRecord
  2
*MODEL_SPACE
340
C
  0
BLOCK_RECORD
  5
E
102
{ACAD_XDICTIONARY
360
F
102
}
330
1
100
AcDbSymbolTableRecord
100
AcDbBlockTableRecord
  2
*PAPER_SPACE
340
13
  0
BLOCK_RECORD
  5
26
330
1
100
AcDbSymbolTableRecord
100
AcDbBlockTableRecord
  2
_OPEN30
340
0
102
{BLKREFS
331
3F
331
40
331
4D
331
4E
331
5A
331
5B
331
F2
331
F3
331
FE
331
FF
331
10A
331
10B
102
}
  0
BLOCK_RECORD
  5
55
330
1
100
AcDbSymbolTableRecord
100
AcDbBlockTableRecord
  2
*D1
340
0
  0
BLOCK_RECORD
  5
48
330
1
100
AcDbSymbolTableRecord
100
AcDbBlockTableRecord
  2
*D2
340
0
  0
BLOCK_RECORD
  5
3A
330
1
100
AcDbSymbolTableRecord
100
AcDbBlockTableRecord
  2
*D3
340
0
  0
BLOCK_RECORD
  5
EE
330
1
100
AcDbSymbolTableRecord
100
AcDbBlockTableRecord
  2
*D4
340
0
  0
BLOCK_RECORD
  5
FA
330
1
100
AcDbSymbolTableRecord
100
AcDbBlockTableRecord
  2
*D5
340
0
  0
BLOCK_RECORD
  5
106
330
1
100
AcDbSymbolTableRecord
100
AcDbBlockTableRecord
  2
*D6
340
0
  0
ENDTAB
  0
ENDSEC
  0
SECTION
  2
BLOCKS
  0
BLOCK
  5
5
330
2
100
AcDbEntity
  8
0
100
AcDbBlockBegin
  2
*MODEL_SPACE
 70
     0
 10
0.0
 20
0.0
 30
0.0
  3
*MODEL_SPACE
  1

  0
ENDBLK
  5
B
330
2
100
AcDbEntity
  8
0
100
AcDbBlockEnd
  0
BLOCK
  5
11
330
E
100
AcDbEntity
 67
     1
  8
0
100
AcDbBlockBegin
  2
*PAPER_SPACE
 70
     0
 10
0.0
 20
0.0
 30
0.0
  3
*PAPER_SPACE
  1

  0
ENDBLK
  5
12
330
E
100
AcDbEntity
 67
     1
  8
0
100
AcDbBlockEnd
  0
BLOCK
  5
27
330
26
100
AcDbEntity
  8
0
100
AcDbBlockBegin
  2
_OPEN30
 70
     0
 10
0.0
 20
0.0
 30
0.0
  3
_OPEN30
  1

  0
LINE
  5
28
330
26
100
AcDbEntity
  8
0
  6
ByBlock
 62
     0
100
AcDbLine
 10
-1.0
 20
0.26794919
 30
0.0
 11
0.0
 21
0.0
 31
0.0
  0
LINE
  5
29
330
26
100
AcDbEntity
  8
0
  6
ByBlock
 62
     0
100
AcDbLine
 10
0.0
 20
0.0
 30
0.0
 11
-1.0
 21
-0.26794919
 31
0.0
  0
LINE
  5
2A
330
26
100
AcDbEntity
  8
0
  6
ByBlock
 62
     0
100
AcDbLine
 10
0.0
 20
0.0
 30
0.0
 11
-1.0
 21
0.0
 31
0.0
  0
ENDBLK
  5
2B
330
26
100
AcDbEntity
  8
0
100
AcDbBlockEnd
  0
BLOCK
  5
56
330
55
100
AcDbEntity
  8
0
100
AcDbBlockBegin
  2
*D1
 70
     1
 10
0.0
 20
0.0
 30
0.0
  3
*D1
  1

  0
LINE
  5
57
330
55
100
AcDbEntity
  8
SUNPO
 62
     0
370
    -2
100
AcDbLine
 10
149.0203619269068
 20
61.56777498332241
 30
0.0
 11
149.0203619269068
 21
53.56777498332241
 31
0.0
  0
LINE
  5
58
330
55
100
AcDbEntity
  8
SUNPO
 62
     0
370
    -2
100
AcDbLine
 10
191.0203640305319
 20
61.56777498332241
 30
0.0
 11
191.0203640305319
 21
53.56777498332241
 31
0.0
  0
LINE
  5
59
330
55
100
AcDbEntity
  8
SUNPO
 62
     0
370
    -2
100
AcDbLine
 10
151.0203619269068
 20
55.56777498332241
 30
0.0
 11
189.0203640305319
 21
55.56777498332241
 31
0.0
  0
INSERT
  5
5A
330
55
100
AcDbEntity
  8
SUNPO
 62
     0
370
    -2
100
AcDbBlockReference
  2
_OPEN30
 10
149.0203619269068
 20
55.56777498332241
 30
0.0
 41
2.0
 42
2.0
 43
2.0
 50
180.0
  0
INSERT
  5
5B
330
55
100
AcDbEntity
  8
SUNPO
 62
     0
370
    -2
100
AcDbBlockReference
  2
_OPEN30
 10
191.0203640305319
 20
55.56777498332241
 30
0.0
 41
2.0
 42
2.0
 43
2.0
  0
MTEXT
  5
5C
330
55
100
AcDbEntity
  8
SUNPO
 62
     0
100
AcDbMText
 10
170.0203629787194
 20
57.31777498332241
 30
0.0
 40
2.5
 41
0.0
 71
     5
 72
     1
  1
\A1;210
 73
     1
 44
1.0
1001
ACAD
1000
MTEXTBEGIN
1070
    73
1070
     1
1070
    44
1040
1.0
1070
    74
1070
     0
1000
MTEXTEND
  0
POINT
  5
5D
330
55
100
AcDbEntity
  8
DEFPOINTS
 62
     0
100
AcDbPoint
 10
149.0203619269068
 20
63.56777498332241
 30
0.0
  0
POINT
  5
5E
330
55
100
AcDbEntity
  8
DEFPOINTS
 62
     0
100
AcDbPoint
 10
191.0203640305319
 20
63.56777498332241
 30
0.0
  0
POINT
  5
5F
330
55
100
AcDbEntity
  8
DEFPOINTS
 62
     0
100
AcDbPoint
 10
191.0203640305319
 20
55.56777498332241
 30
0.0
  0
ENDBLK
  5
60
330
55
100
AcDbEntity
  8
0
100
AcDbBlockEnd
  0
BLOCK
  5
49
330
48
100
AcDbEntity
  8
0
100
AcDbBlockBegin
  2
*D2
 70
     1
 10
0.0
 20
0.0
 30
0.0
  3
*D2
  1

  0
LINE
  5
4A
330
48
100
AcDbEntity
  8
SUNPO
 62
     0
370
    -2
100
AcDbLine
 10
217.9722579015461
 20
61.56777498332241
 30
0.0
 11
217.9722579015461
 21
53.5677749833224
 31
0.0
  0
LINE
  5
4B
330
48
100
AcDbEntity
  8
SUNPO
 62
     0
370
    -2
100
AcDbLine
 10
238.9218403091856
 20
61.5677749833224
 30
0.0
 11
238.9218403091856
 21
53.5677749833224
 31
0.0
  0
LINE
  5
4C
330
48
100
AcDbEntity
  8
SUNPO
 62
     0
370
    -2
100
AcDbLine
 10
219.9722579015461
 20
55.5677749833224
 30
0.0
 11
236.9218403091856
 21
55.5677749833224
 31
0.0
  0
INSERT
  5
4D
330
48
100
AcDbEntity
  8
SUNPO
 62
     0
370
    -2
100
AcDbBlockReference
  2
_OPEN30
 10
217.9722579015461
 20
55.5677749833224
 30
0.0
 41
2.0
 42
2.0
 43
2.0
 50
180.0
  0
INSERT
  5
4E
330
48
100
AcDbEntity
  8
SUNPO
 62
     0
370
    -2
100
AcDbBlockReference
  2
_OPEN30
 10
238.9218403091856
 20
55.5677749833224
 30
0.0
 41
2.0
 42
2.0
 43
2.0
  0
MTEXT
  5
4F
330
48
100
AcDbEntity
  8
SUNPO
 62
     0
100
AcDbMText
 10
228.4470491053659
 20
57.3177749833224
 30
0.0
 40
2.5
 41
0.0
 71
     5
 72
     1
  1
\A1;105
 73
     1
 44
1.0
1001
ACAD
1000
MTEXTBEGIN
1070
    73
1070
     1
1070
    44
1040
1.0
1070
    74
1070
     0
1000
MTEXTEND
  0
POINT
  5
50
330
48
100
AcDbEntity
  8
DEFPOINTS
 62
     0
100
AcDbPoint
 10
217.9722579015461
 20
63.56777498332241
 30
0.0
  0
POINT
  5
51
330
48
100
AcDbEntity
  8
DEFPOINTS
 62
     0
100
AcDbPoint
 10
238.9218403091856
 20
63.5677749833224
 30
0.0
  0
POINT
  5
52
330
48
100
AcDbEntity
  8
DEFPOINTS
 62
     0
100
AcDbPoint
 10
238.9218403091856
 20
55.5677749833224
 30
0.0
  0
ENDBLK
  5
53
330
48
100
AcDbEntity
  8
0
100
AcDbBlockEnd
  0
BLOCK
  5
3B
330
3A
100
AcDbEntity
  8
0
100
AcDbBlockBegin
  2
*D3
 70
     1
 10
0.0
 20
0.0
 30
0.0
  3
*D3
  1

  0
LINE
  5
3C
330
3A
100
AcDbEntity
  8
SUNPO
 62
     0
370
    -2
100
AcDbLine
 10
192.9664759876498
 20
63.73318011719835
 30
0.0
 11
200.9664759876498
 21
63.73318011719835
 31
0.0
  0
LINE
  5
3D
330
3A
100
AcDbEntity
  8
SUNPO
 62
     0
370
    -2
100
AcDbLine
 10
192.9664759876498
 20
88.33317625566756
 30
0.0
 11
200.9664759876498
 21
88.33317625566756
 31
0.0
  0
LINE
  5
3E
330
3A
100
AcDbEntity
  8
SUNPO
 62
     0
370
    -2
100
AcDbLine
 10
198.9664759876498
 20
65.73318011719834
 30
0.0
 11
198.9664759876498
 21
86.33317625566757
 31
0.0
  0
INSERT
  5
3F
330
3A
100
AcDbEntity
  8
SUNPO
 62
     0
370
    -2
100
AcDbBlockReference
  2
_OPEN30
 10
198.9664759876498
 20
63.73318011719835
 30
0.0
 41
2.0
 42
2.0
 43
2.0
 50
270.0
  0
INSERT
  5
40
330
3A
100
AcDbEntity
  8
SUNPO
 62
     0
370
    -2
100
AcDbBlockReference
  2
_OPEN30
 10
198.9664759876498
 20
88.33317625566756
 30
0.0
 41
2.0
 42
2.0
 43
2.0
 50
90.0
  0
MTEXT
  5
41
330
3A
100
AcDbEntity
  8
SUNPO
 62
     0
100
AcDbMText
 10
197.2164759876497
 20
76.03317818643297
 30
0.0
 40
2.5
 41
0.0
 71
     5
 72
     1
  1
\A1;123
 11
0.0000000000000001
 21
1.0
 31
0.0
 73
     1
 44
1.0
1001
ACAD
1000
MTEXTBEGIN
1070
    73
1070
     1
1070
    44
1040
1.0
1070
    74
1070
     0
1000
MTEXTEND
  0
POINT
  5
42
330
3A
100
AcDbEntity
  8
DEFPOINTS
 62
     0
100
AcDbPoint
 10
190.9664759876498
 20
63.73318011719835
 30
0.0
  0
POINT
  5
44
330
3A
100
AcDbEntity
  8
DEFPOINTS
 62
     0
100
AcDbPoint
 10
190.9664759876498
 20
88.33317625566756
 30
0.0
  0
POINT
  5
45
330
3A
100
AcDbEntity
  8
DEFPOINTS
 62
     0
100
AcDbPoint
 10
198.9664759876498
 20
88.33317625566756
 30
0.0
  0
ENDBLK
  5
46
330
3A
100
AcDbEntity
  8
0
100
AcDbBlockEnd
  0
BLOCK
  5
F8
330
EE
100
AcDbEntity
  8
0
100
AcDbBlockBegin
  2
*D4
 70
     1
 10
0.0
 20
0.0
 30
0.0
  3
*D4
  1

  0
LINE
  5
EF
330
EE
100
AcDbEntity
  8
SUNPO
 62
     0
370
    -2
100
AcDbLine
 10
-50.83544357375649
 20
3.687144118094977
 30
0.0
 11
-50.83544357375649
 21
-4.312855881905022
 31
0.0
  0
LINE
  5
F0
330
EE
100
AcDbEntity
  8
SUNPO
 62
     0
370
    -2
100
AcDbLine
 10
-8.835441470131399
 20
3.687144118094977
 30
0.0
 11
-8.835441470131399
 21
-4.312855881905022
 31
0.0
  0
LINE
  5
F1
330
EE
100
AcDbEntity
  8
SUNPO
 62
     0
370
    -2
100
AcDbLine
 10
-48.83544357375649
 20
-2.312855881905022
 30
0.0
 11
-10.8354414701314
 21
-2.312855881905022
 31
0.0
  0
INSERT
  5
F2
330
EE
100
AcDbEntity
  8
SUNPO
 62
     0
370
    -2
100
AcDbBlockReference
  2
_OPEN30
 10
-50.83544357375649
 20
-2.312855881905022
 30
0.0
 41
2.0
 42
2.0
 43
2.0
 50
180.0
  0
INSERT
  5
F3
330
EE
100
AcDbEntity
  8
SUNPO
 62
     0
370
    -2
100
AcDbBlockReference
  2
_OPEN30
 10
-8.835441470131399
 20
-2.312855881905022
 30
0.0
 41
2.0
 42
2.0
 43
2.0
  0
MTEXT
  5
F4
330
EE
100
AcDbEntity
  8
SUNPO
 62
     0
100
AcDbMText
 10
-29.83544252194395
 20
-0.5628558819050225
 30
0.0
 40
2.5
 41
0.0
 71
     5
 72
     1
  1
\A1;210
 73
     1
 44
1.0
1001
ACAD
1000
MTEXTBEGIN
1070
    73
1070
     1
1070
    44
1040
1.0
1070
    74
1070
     0
1000
MTEXTEND
  0
POINT
  5
F5
330
EE
100
AcDbEntity
  8
DEFPOINTS
 62
     0
100
AcDbPoint
 10
-50.83544357375649
 20
5.687144118094977
 30
0.0
  0
POINT
  5
F6
330
EE
100
AcDbEntity
  8
DEFPOINTS
 62
     0
100
AcDbPoint
 10
-8.835441470131399
 20
5.687144118094977
 30
0.0
  0
POINT
  5
F7
330
EE
100
AcDbEntity
  8
DEFPOINTS
 62
     0
100
AcDbPoint
 10
-8.835441470131399
 20
-2.312855881905022
 30
0.0
  0
ENDBLK
  5
F9
330
EE
100
AcDbEntity
  8
0
100
AcDbBlockEnd
  0
BLOCK
  5
104
330
FA
100
AcDbEntity
  8
0
100
AcDbBlockBegin
  2
*D5
 70
     1
 10
0.0
 20
0.0
 30
0.0
  3
*D5
  1

  0
LINE
  5
FB
330
FA
100
AcDbEntity
  8
SUNPO
 62
     0
370
    -2
100
AcDbLine
 10
18.11645240088273
 20
3.687144118094977
 30
0.0
 11
18.11645240088273
 21
-4.312855881905029
 31
0.0
  0
LINE
  5
FC
330
FA
100
AcDbEntity
  8
SUNPO
 62
     0
370
    -2
100
AcDbLine
 10
39.06603480852232
 20
3.68714411809497
 30
0.0
 11
39.06603480852232
 21
-4.312855881905029
 31
0.0
  0
LINE
  5
FD
330
FA
100
AcDbEntity
  8
SUNPO
 62
     0
370
    -2
100
AcDbLine
 10
20.11645240088274
 20
-2.312855881905029
 30
0.0
 11
37.06603480852232
 21
-2.312855881905029
 31
0.0
  0
INSERT
  5
FE
330
FA
100
AcDbEntity
  8
SUNPO
 62
     0
370
    -2
100
AcDbBlockReference
  2
_OPEN30
 10
18.11645240088273
 20
-2.312855881905029
 30
0.0
 41
2.0
 42
2.0
 43
2.0
 50
180.0
  0
INSERT
  5
FF
330
FA
100
AcDbEntity
  8
SUNPO
 62
     0
370
    -2
100
AcDbBlockReference
  2
_OPEN30
 10
39.06603480852232
 20
-2.312855881905029
 30
0.0
 41
2.0
 42
2.0
 43
2.0
  0
MTEXT
  5
100
330
FA
100
AcDbEntity
  8
SUNPO
 62
     0
100
AcDbMText
 10
28.59124360470253
 20
-0.5628558819050296
 30
0.0
 40
2.5
 41
0.0
 71
     5
 72
     1
  1
\A1;105
 73
     1
 44
1.0
1001
ACAD
1000
MTEXTBEGIN
1070
    73
1070
     1
1070
    44
1040
1.0
1070
    74
1070
     0
1000
MTEXTEND
  0
POINT
  5
101
330
FA
100
AcDbEntity
  8
DEFPOINTS
 62
     0
100
AcDbPoint
 10
18.11645240088273
 20
5.687144118094977
 30
0.0
  0
POINT
  5
102
330
FA
100
AcDbEntity
  8
DEFPOINTS
 62
     0
100
AcDbPoint
 10
39.06603480852232
 20
5.68714411809497
 30
0.0
  0
POINT
  5
103
330
FA
100
AcDbEntity
  8
DEFPOINTS
 62
     0
100
AcDbPoint
 10
39.06603480852232
 20
-2.312855881905029
 30
0.0
  0
ENDBLK
  5
105
330
FA
100
AcDbEntity
  8
0
100
AcDbBlockEnd
  0
BLOCK
  5
110
330
106
100
AcDbEntity
  8
0
100
AcDbBlockBegin
  2
*D6
 70
     1
 10
0.0
 20
0.0
 30
0.0
  3
*D6
  1

  0
LINE
  5
107
330
106
100
AcDbEntity
  8
SUNPO
 62
     0
370
    -2
100
AcDbLine
 10
-6.889329513013536
 20
5.852549251970913
 30
0.0
 11
1.110670486986458
 21
5.85254925197091
 31
0.0
  0
LINE
  5
108
330
106
100
AcDbEntity
  8
SUNPO
 62
     0
370
    -2
100
AcDbLine
 10
-6.889329513013535
 20
30.45254539044013
 30
0.0
 11
1.110670486986463
 21
30.45254539044013
 31
0.0
  0
LINE
  5
109
330
106
100
AcDbEntity
  8
SUNPO
 62
     0
370
    -2
100
AcDbLine
 10
-0.8893295130135406
 20
7.85254925197091
 30
0.0
 11
-0.889329513013536
 21
28.45254539044013
 31
0.0
  0
INSERT
  5
10A
330
106
100
AcDbEntity
  8
SUNPO
 62
     0
370
    -2
100
AcDbBlockReference
  2
_OPEN30
 10
-0.8893295130135411
 20
5.85254925197091
 30
0.0
 41
2.0
 42
2.0
 43
2.0
 50
270.0
  0
INSERT
  5
10B
330
106
100
AcDbEntity
  8
SUNPO
 62
     0
370
    -2
100
AcDbBlockReference
  2
_OPEN30
 10
-0.8893295130135356
 20
30.45254539044013
 30
0.0
 41
2.0
 42
2.0
 43
2.0
 50
90.0
  0
MTEXT
  5
10C
330
106
100
AcDbEntity
  8
SUNPO
 62
     0
100
AcDbMText
 10
-2.639329513013541
 20
18.15254732120552
 30
0.0
 40
2.5
 41
0.0
 71
     5
 72
     1
  1
\A1;123
 11
0.0000000000000001
 21
1.0
 31
0.0
 73
     1
 44
1.0
1001
ACAD
1000
MTEXTBEGIN
1070
    73
1070
     1
1070
    44
1040
1.0
1070
    74
1070
     0
1000
MTEXTEND
  0
POINT
  5
10D
330
106
100
AcDbEntity
  8
DEFPOINTS
 62
     0
100
AcDbPoint
 10
-8.889329513013535
 20
5.852549251970913
 30
0.0
  0
POINT
  5
10E
330
106
100
AcDbEntity
  8
DEFPOINTS
 62
     0
100
AcDbPoint
 10
-8.889329513013535
 20
30.45254539044014
 30
0.0
  0
POINT
  5
10F
330
106
100
AcDbEntity
  8
DEFPOINTS
 62
     0
100
AcDbPoint
 10
-0.8893295130135356
 20
30.45254539044013
 30
0.0
  0
ENDBLK
  5
111
330
106
100
AcDbEntity
  8
0
100
AcDbBlockEnd
  0
ENDSEC
  0
SECTION
  2
ENTITIES
  0
TEXT
  5
34
330
2
100
AcDbEntity
  8
MOJI1
100
AcDbText
 10
-41.85580550066333
 20
56.6185832744145
 30
0.0
 40
4.0
  1
充電台
100
AcDbText
  0
TEXT
  5
36
330
2
100
AcDbEntity
  8
TOUROKU
100
AcDbText
 10
40.27747786559741
 20
50.61858327441439
 30
0.0
 40
2.0
  1
ＷＸＬＺ１００
 72
     2
 11
56.14414453226408
 21
50.61858327441439
 31
0.0
100
AcDbText
  0
DIMENSION
  5
38
330
2
100
AcDbEntity
  8
SUNPO
100
AcDbDimension
  2
*D6
 10
-0.8893295130135356
 20
30.45254539044013
 30
0.0
 11
-2.639329513013541
 21
18.15254732120552
 31
0.0
 70
    33
  1
123
 71
     5
 42
24.59999613846922
  3
STANDARD
100
AcDbAlignedDimension
 13
-8.889329513013535
 23
5.852549251970913
 33
0.0
 14
-8.889329513013535
 24
30.45254539044014
 34
0.0
1001
ACAD
1000
DSTYLE
1002
{
1070
    40
1040
1.0
1070
   140
1040
2.5
1070
   147
1040
0.5
1070
   172
1070
     1
1070
   279
1070
     0
1070
   288
1070
     0
1002
}
  0
DIMENSION
  5
47
330
2
100
AcDbEntity
  8
SUNPO
100
AcDbDimension
  2
*D5
 10
39.06603480852232
 20
-2.312855881905029
 30
0.0
 11
28.59124360470253
 21
-0.5628558819050296
 31
0.0
 70
    33
  1
105
 71
     5
 42
20.94958240763958
  3
STANDARD
100
AcDbAlignedDimension
 13
18.11645240088273
 23
5.687144118094977
 33
0.0
 14
39.06603480852232
 24
5.68714411809497
 34
0.0
1001
ACAD
1000
DSTYLE
1002
{
1070
    40
1040
1.0
1070
   140
1040
2.5
1070
   147
1040
0.5
1070
   172
1070
     1
1070
   279
1070
     0
1070
   288
1070
     0
1002
}
  0
DIMENSION
  5
54
330
2
100
AcDbEntity
  8
SUNPO
100
AcDbDimension
  2
*D4
 10
-8.835441470131399
 20
-2.312855881905022
 30
0.0
 11
-29.83544252194395
 21
-0.5628558819050225
 31
0.0
 70
    33
  1
210
 71
     5
 42
42.00000210362509
  3
STANDARD
100
AcDbAlignedDimension
 13
-50.83544357375649
 23
5.687144118094977
 33
0.0
 14
-8.835441470131399
 24
5.687144118094977
 34
0.0
1001
ACAD
1000
DSTYLE
1002
{
1070
    40
1040
1.0
1070
   140
1040
2.5
1070
   147
1040
0.5
1070
   172
1070
     1
1070
   279
1070
     0
1070
   288
1070
     0
1002
}
  0
LINE
  5
61
330
2
100
AcDbEntity
  8
GAIKEI
  6
Continuous
100
AcDbLine
 10
-31.74942638388837
 20
30.45254539044015
 30
0.0
 11
-10.93519859878893
 21
30.45254539044015
 31
0.0
  0
ARC
  5
62
330
2
100
AcDbEntity
  8
GAIKEI
  6
Continuous
 62
     1
100
AcDbCircle
 10
-36.9790208117912
 20
41.1569000706786
 30
0.0
 40
0.4
100
AcDbArc
 50
346.6060476463415
 51
51.84180476579482
  0
ARC
  5
63
330
2
100
AcDbEntity
  8
GAIKEI
  6
Continuous
 62
     1
100
AcDbCircle
 10
-42.49356110464725
 20
41.1569000706786
 30
0.0
 40
0.4
100
AcDbArc
 50
128.1581952342051
 51
193.3939523536577
  0
LINE
  5
64
330
2
100
AcDbEntity
  8
GAIKEI
  6
Continuous
 62
     1
100
AcDbLine
 10
28.26666573836292
 20
27.5845590095546
 30
0.0
 11
28.18526101066709
 21
27.28560207436516
 31
0.0
  0
LINE
  5
65
330
2
100
AcDbEntity
  8
GAIKEI
  6
Continuous
 62
     1
100
AcDbLine
 10
27.74381430251469
 20
27.72692927680964
 30
0.0
 11
28.26666573836292
 21
27.5845590095546
 31
0.0
  0
LINE
  5
66
330
2
100
AcDbEntity
  8
GAIKEI
  6
Continuous
 62
     1
100
AcDbLine
 10
27.23507801494634
 20
27.06499380539731
 30
0.0
 11
27.92856683351101
 21
29.61181507308277
 31
0.0
  0
LINE
  5
67
330
2
100
AcDbEntity
  8
GAIKEI
  6
Continuous
 62
     1
100
AcDbLine
 10
28.12064221989022
 20
29.72167478921449
 30
0.0
 11
28.12452617409326
 21
29.72061720466945
 31
0.0
  0
LINE
  5
68
330
2
100
AcDbEntity
  8
GAIKEI
  6
Continuous
 62
     1
100
AcDbLine
 10
28.23438589022499
 20
29.52854181829014
 30
0.0
 11
27.74381430251469
 21
27.72692927680964
 31
0.0
  0
ARC
  5
69
330
2
100
AcDbEntity
  8
GAIKEI
  6
Continuous
 62
     1
100
AcDbCircle
 10
28.07953438476648
 20
29.57070723795897
 30
0.0
 40
0.1564642311860611
100
AcDbArc
 50
74.76789212962993
 51
164.7678921296299
  0
ARC
  5
6A
330
2
100
AcDbEntity
  8
GAIKEI
  6
Continuous
 62
     1
100
AcDbCircle
 10
28.08341833896952
 20
29.56964965341393
 30
0.0
 40
0.1564642311860611
100
AcDbArc
 50
344.7678921296299
 51
74.76789212962666
  0
ARC
  5
6B
330
2
100
AcDbEntity
  8
GAIKEI
  6
Continuous
 62
     1
100
AcDbCircle
 10
25.81443783182022
 20
30.18748359064955
 30
0.0
 40
0.1564642311860611
100
AcDbArc
 50
344.7678921296299
 51
74.76789212962666
  0
ARC
  5
6C
330
2
100
AcDbEntity
  8
GAIKEI
  6
Continuous
 62
     1
100
AcDbCircle
 10
25.81055387761717
 20
30.18854117519459
 30
0.0
 40
0.1564642311860611
100
AcDbArc
 50
74.76789212962993
 51
164.7678921296299
  0
ARC
  5
6D
330
2
100
AcDbEntity
  8
GAIKEI
  6
Continuous
 62
     1
100
AcDbCircle
 10
27.28593973740203
 20
26.77964506829773
 30
0.0
 40
2.159241902333887
100
AcDbArc
 50
166.0702704112974
 51
182.4232488515394
  0
LINE
  5
6E
330
2
100
AcDbEntity
  8
GAIKEI
  6
Continuous
 62
     1
100
AcDbLine
 10
23.64352673481062
 20
26.98969862508682
 30
0.0
 11
23.51057867996269
 21
26.50145004123118
 31
0.0
  0
LINE
  5
6F
330
2
100
AcDbEntity
  8
GAIKEI
  6
Continuous
 62
     1
100
AcDbLine
 10
24.83335868259997
 20
27.19534754971681
 30
0.0
 11
23.64352673481062
 21
26.98969862508682
 31
0.0
  0
LINE
  5
70
330
2
100
AcDbEntity
  8
GAIKEI
  6
Continuous
 62
     1
100
AcDbLine
 10
25.96540538307568
 20
30.14637575552575
 30
0.0
 11
25.19019746531126
 21
27.29944303074609
 31
0.0
  0
LINE
  5
71
330
2
100
AcDbEntity
  8
GAIKEI
  6
Continuous
 62
     1
100
AcDbLine
 10
25.85166171274091
 20
30.33950872645005
 30
0.0
 11
25.85554566694395
 21
30.33845114190507
 31
0.0
  0
LINE
  5
72
330
2
100
AcDbEntity
  8
GAIKEI
  6
Continuous
 62
     1
100
AcDbLine
 10
24.83335868259997
 20
27.19534754971681
 30
0.0
 11
25.65958632636171
 21
30.22964901031833
 31
0.0
  0
ARC
  5
73
330
2
100
AcDbEntity
  8
GAIKEI
  6
Continuous
100
AcDbCircle
 10
20.82920703418836
 20
56.8123263793218
 30
0.0
 40
30.42924544391113
100
AcDbArc
 50
268.7296488278335
 51
300.792842397031
  0
ARC
  5
74
330
2
100
AcDbEntity
  8
GAIKEI
  6
Continuous
100
AcDbCircle
 10
-52.1830969472162
 20
22.8334208565858
 30
0.0
 40
88.93630232308586
100
AcDbArc
 50
5.057007510318548
 51
12.71317836185458
  0
ARC
  5
75
330
2
100
AcDbEntity
  8
GAIKEI
  6
Continuous
100
AcDbCircle
 10
34.2552669818765
 20
32.6340913580309
 30
0.0
 40
9.776751977514114
100
AcDbArc
 50
88.13857171490317
 51
101.2221582674653
  0
ARC
  5
76
330
2
100
AcDbEntity
  8
GAIKEI
  6
Continuous
100
AcDbCircle
 10
34.64941733276601
 20
33.00302416548027
 30
0.0
 40
9.50264375981256
100
AcDbArc
 50
103.9872161813747
 51
131.8370539499564
  0
ARC
  5
77
330
2
100
AcDbEntity
  8
GAIKEI
  6
Continuous
100
AcDbCircle
 10
54.48850920176619
 20
14.20950443811546
 30
0.0
 40
36.8061776446066
100
AcDbArc
 50
135.3347138868421
 51
145.0125238948432
  0
ARC
  5
78
330
2
100
AcDbEntity
  8
GAIKEI
  6
Continuous
100
AcDbCircle
 10
50.70059218891879
 20
17.36863154491982
 30
0.0
 40
31.89410363434061
100
AcDbArc
 50
145.7602581577764
 51
163.5468788673639
  0
ARC
  5
79
330
2
100
AcDbEntity
  8
GAIKEI
  6
Continuous
 62
     1
100
AcDbCircle
 10
-39.73629095821923
 20
36.51874441913611
 30
0.0
 40
0.7823211559303056
100
AcDbArc
 50
220.1618207272965
 51
319.8381792727035
  0
ARC
  5
7A
330
2
100
AcDbEntity
  8
GAIKEI
  6
Continuous
 62
     1
100
AcDbCircle
 10
-48.47631426143664
 20
43.894659329038
 30
0.0
 40
12.21875976674339
100
AcDbArc
 50
319.8381792727035
 51
346.6060476463415
  0
ARC
  5
7B
330
2
100
AcDbEntity
  8
GAIKEI
  6
Continuous
 62
     1
100
AcDbCircle
 10
-39.44604425707201
 20
38.01716131430806
 30
0.0
 40
4.393014417432023
100
AcDbArc
 50
51.84180476579468
 51
93.78829482437041
  0
ARC
  5
7C
330
2
100
AcDbEntity
  8
GAIKEI
  6
Continuous
 62
     1
100
AcDbCircle
 10
-40.02653765936656
 20
38.01716131430806
 30
0.0
 40
4.393014417432023
100
AcDbArc
 50
86.21170517562958
 51
128.1581952342044
  0
ARC
  5
7D
330
2
100
AcDbEntity
  8
GAIKEI
  6
Continuous
 62
     1
100
AcDbCircle
 10
-30.99626765500182
 20
43.894659329038
 30
0.0
 40
12.21875976674339
100
AcDbArc
 50
193.3939523536583
 51
220.1618207272965
  0
ELLIPSE
  5
7E
330
2
100
AcDbEntity
  8
GAIKEI
  6
Continuous
 62
     1
100
AcDbEllipse
 10
-34.47399517145584
 20
41.09724284937448
 30
0.0
 11
-1.315292189190335
 21
0.0
 31
0.0
210
0.0
220
0.0
230
-1.0
 40
0.5646783421771179
 41
0.0
 42
6.283185307179586
  0
ELLIPSE
  5
7F
330
2
100
AcDbEntity
  8
GAIKEI
  6
Continuous
 62
     1
100
AcDbEllipse
 10
-44.99858674498262
 20
41.09724284937448
 30
0.0
 11
1.315292189190335
 21
0.0
 31
0.0
210
0.0
220
0.0
230
1.0
 40
0.5646783421771179
 41
0.0
 42
6.283185307179586
  0
ARC
  5
80
330
2
100
AcDbEntity
  8
GAIKEI
  6
Continuous
100
AcDbCircle
 10
-32.16607767244318
 20
27.0164168977592
 30
0.0
 40
0.6258569247442445
100
AcDbArc
 50
270.0
 51
2.863453074520932
  0
ARC
  5
81
330
2
100
AcDbEntity
  8
GAIKEI
  6
Continuous
100
AcDbCircle
 10
-33.7410935953576
 20
41.04956658618767
 30
0.0
 40
1.351042432162526
100
AcDbArc
 50
10.67362471255331
 51
89.60515375305218
  0
ARC
  5
82
330
2
100
AcDbEntity
  8
GAIKEI
  6
Continuous
100
AcDbCircle
 10
-47.27220574285275
 20
27.0164168977592
 30
0.0
 40
0.6258569247442445
100
AcDbArc
 50
177.1365469254791
 51
270.0
  0
ARC
  5
83
330
2
100
AcDbEntity
  8
GAIKEI
  6
Continuous
100
AcDbCircle
 10
-45.73148832107995
 20
41.04956658618767
 30
0.0
 40
1.351042432162526
100
AcDbArc
 50
90.39484624694779
 51
162.0137126300811
  0
LINE
  5
84
330
2
100
AcDbEntity
  8
GAIKEI
  6
Continuous
100
AcDbLine
 10
-32.41342668132165
 20
41.29979891598952
 30
0.0
 11
-31.54100217673863
 21
27.0476821327677
 31
0.0
  0
LINE
  5
85
330
2
100
AcDbEntity
  8
GAIKEI
  6
Continuous
100
AcDbLine
 10
-47.01650591250154
 20
41.46675412583931
 30
0.0
 11
-47.89728123855707
 21
27.0476821327677
 31
0.0
  0
LINE
  5
86
330
2
100
AcDbEntity
  8
GAIKEI
  6
Continuous
100
AcDbLine
 10
-45.74079877668384
 20
42.40057693733979
 30
0.0
 11
-33.73178313975461
 21
42.40057693733979
 31
0.0
  0
LINE
  5
87
330
2
100
AcDbEntity
  8
GAIKEI
  6
Continuous
100
AcDbLine
 10
-47.27220574285275
 20
26.39055997301495
 30
0.0
 11
-32.16607767244318
 21
26.39055997301495
 31
0.0
  0
ARC
  5
88
330
2
100
AcDbEntity
  8
GAIKEI
  6
Continuous
100
AcDbCircle
 10
36.76862632407483
 20
30.0798872894822
 30
0.0
 40
0.372858338
100
AcDbArc
 50
13.39692069953884
 51
119.4202325571722
  0
ARC
  5
89
330
2
100
AcDbEntity
  8
GAIKEI
  6
Continuous
100
AcDbCircle
 10
21.36350808674297
 20
57.09219577067575
 30
0.0
 40
30.72348790167827
100
AcDbArc
 50
267.8389005872288
 51
299.6994580683926
  0
LINE
  5
8A
330
2
100
AcDbEntity
  8
GAIKEI
  6
Continuous
100
AcDbLine
 10
35.40626414686312
 20
5.852549251970913
 30
0.0
 11
35.27649692582099
 21
6.435734249022118
 31
0.0
  0
LINE
  5
8B
330
2
100
AcDbEntity
  8
GAIKEI
  6
Continuous
100
AcDbLine
 10
37.41956164132626
 20
5.852549251970913
 30
0.0
 11
37.54932886236816
 21
6.435734249022118
 31
0.0
  0
LINE
  5
8C
330
2
100
AcDbEntity
  8
GAIKEI
  6
Continuous
100
AcDbLine
 10
37.41956164132626
 20
5.852549251970913
 30
0.0
 11
35.40626414686312
 21
5.852549251970913
 31
0.0
  0
ARC
  5
8D
330
2
100
AcDbEntity
  8
GAIKEI
  6
Continuous
100
AcDbCircle
 10
-33.22166177712325
 20
13.51027670765541
 30
0.0
 40
72.2977662216731
100
AcDbArc
 50
0.956284503270769
 51
13.31947822425581
  0
LINE
  5
8E
330
2
100
AcDbEntity
  8
GAIKEI
  6
Continuous
100
AcDbLine
 10
38.52211850831873
 20
8.416634426783559
 30
0.0
 11
38.52211850831873
 21
6.435734249022118
 31
0.0
  0
LINE
  5
8F
330
2
100
AcDbEntity
  8
GAIKEI
  6
Continuous
100
AcDbLine
 10
39.06603480852232
 20
14.71689304492002
 30
0.0
 11
38.79450642062261
 21
8.416634426783559
 31
0.0
  0
ARC
  5
90
330
2
100
AcDbEntity
  8
GAIKEI
  6
Continuous
100
AcDbCircle
 10
60.03658756810887
 20
13.56182865321153
 30
0.0
 40
41.93604542857476
100
AcDbArc
 50
162.1869713634068
 51
178.4216755594337
  0
LINE
  5
91
330
2
100
AcDbEntity
  8
GAIKEI
  6
Continuous
100
AcDbLine
 10
18.11645240088273
 20
14.71689304492002
 30
0.0
 11
18.38798078878244
 21
8.416634426783559
 31
0.0
  0
LINE
  5
92
330
2
100
AcDbEntity
  8
GAIKEI
  6
Continuous
100
AcDbLine
 10
18.11645240088273
 20
14.71689304492002
 30
0.0
 11
39.06603480852232
 21
14.71689304492002
 31
0.0
  0
LINE
  5
93
330
2
100
AcDbEntity
  8
GAIKEI
  6
Continuous
100
AcDbLine
 10
18.38798078878244
 20
8.416634426783559
 30
0.0
 11
38.79450642062261
 21
8.416634426783559
 31
0.0
  0
LINE
  5
94
330
2
100
AcDbEntity
  8
GAIKEI
  6
Continuous
100
AcDbLine
 10
18.66036870108655
 20
6.435734249022118
 30
0.0
 11
38.52211850831873
 21
6.435734249022118
 31
0.0
  0
LINE
  5
95
330
2
100
AcDbEntity
  8
GAIKEI
  6
Continuous
100
AcDbLine
 10
21.83563806155439
 20
6.119565342364239
 30
0.0
 11
35.34684914785066
 21
6.119565342364239
 31
0.0
  0
LINE
  5
96
330
2
100
AcDbEntity
  8
GAIKEI
  6
Continuous
100
AcDbLine
 10
18.66036870108655
 20
8.416634426783559
 30
0.0
 11
18.66036870108655
 21
6.435734249022118
 31
0.0
  0
LINE
  5
97
330
2
100
AcDbEntity
  8
GAIKEI
  6
Continuous
100
AcDbLine
 10
19.76292556807903
 20
5.852549251970913
 30
0.0
 11
21.77622306254193
 21
5.852549251970913
 31
0.0
  0
LINE
  5
98
330
2
100
AcDbEntity
  8
GAIKEI
  6
Continuous
100
AcDbLine
 10
19.76292556807903
 20
5.852549251970913
 30
0.0
 11
19.6331583470369
 21
6.435734249022118
 31
0.0
  0
LINE
  5
99
330
2
100
AcDbEntity
  8
GAIKEI
  6
Continuous
100
AcDbLine
 10
21.77622306254193
 20
5.852549251970913
 30
0.0
 11
21.90599028358406
 21
6.435734249022118
 31
0.0
  0
LINE
  5
9A
330
2
100
AcDbEntity
  8
GAIKEI
  6
Continuous
100
AcDbLine
 10
-8.757056772256419
 20
14.71689304492002
 30
0.0
 11
-9.370645932874595
 21
28.95396942239319
 31
0.0
  0
LINE
  5
9B
330
2
100
AcDbEntity
  8
GAIKEI
  6
Continuous
100
AcDbLine
 10
-8.757056772256419
 20
14.71689304492002
 30
0.0
 11
-9.028585160156126
 21
8.416634426783559
 31
0.0
  0
LINE
  5
9C
330
2
100
AcDbEntity
  8
GAIKEI
  6
Continuous
100
AcDbLine
 10
-9.30097307246001
 20
8.416634426783559
 30
0.0
 11
-9.30097307246001
 21
6.435734249022118
 31
0.0
  0
LINE
  5
9D
330
2
100
AcDbEntity
  8
GAIKEI
  6
Continuous
100
AcDbLine
 10
-13.54145678502482
 20
5.852549251970913
 30
0.0
 11
-15.55475427948795
 21
5.852549251970913
 31
0.0
  0
LINE
  5
9E
330
2
100
AcDbEntity
  8
GAIKEI
  6
Continuous
100
AcDbLine
 10
-13.54145678502482
 20
5.852549251970913
 30
0.0
 11
-13.41168956398292
 21
6.435734249022118
 31
0.0
  0
LINE
  5
9F
330
2
100
AcDbEntity
  8
GAIKEI
  6
Continuous
100
AcDbLine
 10
-15.55475427948795
 20
5.852549251970913
 30
0.0
 11
-15.68452150053008
 21
6.435734249022118
 31
0.0
  0
LINE
  5
A0
330
2
100
AcDbEntity
  8
GAIKEI
  6
Continuous
100
AcDbLine
 10
-11.67565174432252
 20
6.435734249022118
 30
0.0
 11
-11.67565174432252
 21
6.111266143927878
 31
0.0
  0
LINE
  5
A1
330
2
100
AcDbEntity
  8
GAIKEI
  6
Continuous
100
AcDbLine
 10
-11.67565174432252
 20
6.111266143927878
 30
0.0
 11
-13.27692512860994
 21
6.111266143927878
 31
0.0
  0
LINE
  5
A2
330
2
100
AcDbEntity
  8
GAIKEI
  6
Continuous
100
AcDbLine
 10
-13.27692512860994
 20
6.111266143927878
 30
0.0
 11
-13.27692512860994
 21
6.435734249022118
 31
0.0
  0
ARC
  5
A3
330
2
100
AcDbEntity
  8
GAIKEI
  6
Continuous
100
AcDbCircle
 10
-10.93519859878893
 20
28.88654037084018
 30
0.0
 40
1.5660050196
100
AcDbArc
 50
2.467804894994256
 51
90.0
  0
ARC
  5
A4
330
2
100
AcDbEntity
  8
GAIKEI
  6
Continuous
100
AcDbCircle
 10
-48.65730174722409
 20
28.88654037084018
 30
0.0
 40
1.5660050196
100
AcDbArc
 50
90.0
 51
177.5321951050057
  0
LINE
  5
A5
330
2
100
AcDbEntity
  8
GAIKEI
  6
Continuous
100
AcDbLine
 10
-43.97833106751249
 20
6.119565342364239
 30
0.0
 11
-15.61416927850041
 21
6.119565342364239
 31
0.0
  0
LINE
  5
A6
330
2
100
AcDbEntity
  8
GAIKEI
  6
Continuous
100
AcDbLine
 10
-46.31557521740307
 20
6.111266143927878
 30
0.0
 11
-46.31557521740307
 21
6.435734249022118
 31
0.0
  0
LINE
  5
A7
330
2
100
AcDbEntity
  8
GAIKEI
  6
Continuous
100
AcDbLine
 10
-47.9168486016905
 20
6.111266143927878
 30
0.0
 11
-46.31557521740307
 21
6.111266143927878
 31
0.0
  0
LINE
  5
A8
330
2
100
AcDbEntity
  8
GAIKEI
  6
Continuous
100
AcDbLine
 10
-47.9168486016905
 20
6.435734249022118
 30
0.0
 11
-47.9168486016905
 21
6.111266143927878
 31
0.0
  0
LINE
  5
A9
330
2
100
AcDbEntity
  8
GAIKEI
  6
Continuous
100
AcDbLine
 10
-44.03774606652496
 20
5.852549251970913
 30
0.0
 11
-43.90797884548294
 21
6.435734249022118
 31
0.0
  0
LINE
  5
AA
330
2
100
AcDbEntity
  8
GAIKEI
  6
Continuous
100
AcDbLine
 10
-46.05104356098798
 20
5.852549251970913
 30
0.0
 11
-46.18081078203011
 21
6.435734249022118
 31
0.0
  0
LINE
  5
AB
330
2
100
AcDbEntity
  8
GAIKEI
  6
Continuous
100
AcDbLine
 10
-46.05104356098798
 20
5.852549251970913
 30
0.0
 11
-44.03774606652496
 21
5.852549251970913
 31
0.0
  0
LINE
  5
AC
330
2
100
AcDbEntity
  8
GAIKEI
  6
Continuous
100
AcDbLine
 10
-50.33233216929147
 20
26.39055997301444
 30
0.0
 11
-9.260168176721435
 21
26.39055997301449
 31
0.0
  0
LINE
  5
AD
330
2
100
AcDbEntity
  8
GAIKEI
  6
Continuous
100
AcDbLine
 10
-50.29152727355278
 20
8.416634426783559
 30
0.0
 11
-50.29152727355278
 21
6.435734249022118
 31
0.0
  0
LINE
  5
AE
330
2
100
AcDbEntity
  8
GAIKEI
  6
Continuous
100
AcDbLine
 10
-50.29152727355278
 20
6.435734249022118
 30
0.0
 11
-9.30097307246001
 21
6.435734249022118
 31
0.0
  0
LINE
  5
AF
330
2
100
AcDbEntity
  8
GAIKEI
  6
Continuous
100
AcDbLine
 10
-50.56391518585678
 20
8.416634426783559
 30
0.0
 11
-9.028585160156126
 21
8.416634426783559
 31
0.0
  0
LINE
  5
B0
330
2
100
AcDbEntity
  8
GAIKEI
  6
Continuous
100
AcDbLine
 10
-50.83544357375649
 20
14.71689304492002
 30
0.0
 11
-50.56391518585678
 21
8.416634426783559
 31
0.0
  0
LINE
  5
B1
330
2
100
AcDbEntity
  8
GAIKEI
  6
Continuous
100
AcDbLine
 10
-50.83544357375649
 20
14.71689304492002
 30
0.0
 11
-50.2218544131382
 21
28.95396942239319
 31
0.0
  0
LINE
  5
B2
330
2
100
AcDbEntity
  8
GAIKEI
  6
Continuous
100
AcDbLine
 10
-48.65730174722409
 20
30.45254539044015
 30
0.0
 11
-47.6892983983721
 21
30.45254539044015
 31
0.0
  0
LINE
  5
B3
330
2
100
AcDbEntity
  8
GAIKEI
  6
Continuous
100
AcDbLine
 10
-50.83544357375649
 20
14.71689304492002
 30
0.0
 11
-8.835441470131399
 21
14.71689304492002
 31
0.0
  0
LINE
  5
B4
330
2
100
AcDbEntity
  8
GAIKEI
  6
Continuous
 62
     1
100
AcDbLine
 10
-28.08949626190281
 20
26.91878047925388
 30
0.0
 11
-11.6572210148272
 21
26.91878047925388
 31
0.0
  0
LINE
  5
B5
330
2
100
AcDbEntity
  8
GAIKEI
  6
Continuous
 62
     1
100
AcDbLine
 10
-28.08949626190281
 20
26.39055997301444
 30
0.0
 11
-28.08949626190281
 21
27.61576410513726
 31
0.0
  0
LINE
  5
B6
330
2
100
AcDbEntity
  8
GAIKEI
  6
Continuous
 62
     1
100
AcDbLine
 10
-25.51948344616846
 20
28.14329106567061
 30
0.0
 11
-14.22723383056154
 21
28.14329106567061
 31
0.0
  0
LINE
  5
B7
330
2
100
AcDbEntity
  8
GAIKEI
  6
Continuous
 62
     1
100
AcDbLine
 10
-25.51948344616846
 20
28.14329106567061
 30
0.0
 11
-26.936593563629
 21
27.61576410513726
 31
0.0
  0
LINE
  5
B8
330
2
100
AcDbEntity
  8
GAIKEI
  6
Continuous
 62
     1
100
AcDbLine
 10
-26.936593563629
 20
27.61576410513726
 30
0.0
 11
-28.08949626190281
 21
27.61576410513726
 31
0.0
  0
LINE
  5
B9
330
2
100
AcDbEntity
  8
GAIKEI
  6
Continuous
 62
     1
100
AcDbLine
 10
-25.51948344616846
 20
28.14329106567061
 30
0.0
 11
-25.51948344616846
 21
26.91878047925388
 31
0.0
  0
LINE
  5
BA
330
2
100
AcDbEntity
  8
GAIKEI
  6
Continuous
 62
     1
100
AcDbLine
 10
-27.61914980631036
 20
26.91878047925388
 30
0.0
 11
-27.61914980631036
 21
27.61576410513726
 31
0.0
  0
LINE
  5
BB
330
2
100
AcDbEntity
  8
GAIKEI
  6
Continuous
 62
     1
100
AcDbLine
 10
-26.87443464293813
 20
26.91878047925388
 30
0.0
 11
-26.87443464293813
 21
27.61576410513726
 31
0.0
  0
LINE
  5
BC
330
2
100
AcDbEntity
  8
GAIKEI
  6
Continuous
 62
     1
100
AcDbLine
 10
-22.9014334238824
 20
26.39055997301444
 30
0.0
 11
-22.9014334238824
 21
26.91878047925388
 31
0.0
  0
LINE
  5
BD
330
2
100
AcDbEntity
  8
GAIKEI
  6
Continuous
 62
     1
100
AcDbLine
 10
-16.84528385284761
 20
26.39055997301444
 30
0.0
 11
-16.84528385284761
 21
26.91878047925388
 31
0.0
  0
LINE
  5
BE
330
2
100
AcDbEntity
  8
GAIKEI
  6
Continuous
 62
     1
100
AcDbLine
 10
-12.87228263379211
 20
26.91878047925388
 30
0.0
 11
-12.87228263379211
 21
27.61576410513726
 31
0.0
  0
LINE
  5
BF
330
2
100
AcDbEntity
  8
GAIKEI
  6
Continuous
 62
     1
100
AcDbLine
 10
-12.12756747041976
 20
26.91878047925388
 30
0.0
 11
-12.12756747041976
 21
27.61576410513726
 31
0.0
  0
LINE
  5
C0
330
2
100
AcDbEntity
  8
GAIKEI
  6
Continuous
 62
     1
100
AcDbLine
 10
-14.22723383056154
 20
28.14329106567061
 30
0.0
 11
-14.22723383056154
 21
26.91878047925388
 31
0.0
  0
LINE
  5
C1
330
2
100
AcDbEntity
  8
GAIKEI
  6
Continuous
 62
     1
100
AcDbLine
 10
-12.81012371310112
 20
27.61576410513726
 30
0.0
 11
-11.6572210148272
 21
27.61576410513726
 31
0.0
  0
LINE
  5
C2
330
2
100
AcDbEntity
  8
GAIKEI
  6
Continuous
 62
     1
100
AcDbLine
 10
-14.22723383056154
 20
28.14329106567061
 30
0.0
 11
-12.81012371310112
 21
27.61576410513726
 31
0.0
  0
LINE
  5
C3
330
2
100
AcDbEntity
  8
GAIKEI
  6
Continuous
 62
     1
100
AcDbLine
 10
-11.6572210148272
 20
26.39055997301444
 30
0.0
 11
-11.6572210148272
 21
27.61576410513726
 31
0.0
  0
LWPOLYLINE
  5
C4
330
2
100
AcDbEntity
  8
GAIKEI
  6
Continuous
 62
     1
100
AcDbPolyline
 90
        4
 70
     1
 43
0.0
 10
-22.20488836257823
 20
29.10438395105524
 10
-17.54523897135505
 20
29.10438395105524
 10
-17.54523897135505
 20
29.77666423404424
 10
-22.20488836257823
 20
29.77666423404424
  0
TEXT
  5
C5
330
2
100
AcDbEntity
  8
MOJI1
100
AcDbText
 10
-66.35580550066333
 20
-41.38141672558572
 30
0.0
 40
3.0
  1
付　属
100
AcDbText
  0
TEXT
  5
C6
330
2
100
AcDbEntity
  8
MOJI1
100
AcDbText
 10
-26.35580550066334
 20
-41.38141672558572
 30
0.0
 40
3.0
  1
ハンドヘルド型マイクロホン用アダプター×２個
100
AcDbText
  0
TEXT
  5
C7
330
2
100
AcDbEntity
  8
MOJI1
100
AcDbText
 10
-26.35580550066334
 20
-36.38141672558572
 30
0.0
 40
3.0
  1
ＨＨＲ－３ＭＰＳまたはＨＨＲ－３ＸＰＳ
100
AcDbText
  0
TEXT
  5
C8
330
2
100
AcDbEntity
  8
MOJI1
100
AcDbText
 10
-26.35580550066334
 20
-46.38141672558572
 30
0.0
 40
3.0
  1
※ハンドヘルド型マイクロホン用アダプター１個装着例
 41
0.9
100
AcDbText
  0
LINE
  5
C9
330
2
100
AcDbEntity
  8
WAKU
 62
     4
100
AcDbLine
 10
56.14419449933667
 20
-52.38141672558572
 30
0.0
 11
56.14419449933667
 21
-17.38141672558572
 31
0.0
  0
LINE
  5
CB
330
2
100
AcDbEntity
  8
WAKU
 62
     4
100
AcDbLine
 10
-28.85580550066334
 20
-52.38141672558572
 30
0.0
 11
-28.85580550066334
 21
-17.38141672558572
 31
0.0
  0
LINE
  5
CC
330
2
100
AcDbEntity
  8
WAKU
 62
     4
100
AcDbLine
 10
-68.85580550066333
 20
-17.38141672558572
 30
0.0
 11
-68.85580550066333
 21
-52.38141672558572
 31
0.0
  0
LINE
  5
CD
330
2
100
AcDbEntity
  8
WAKU
 62
     1
100
AcDbLine
 10
-68.85580550066333
 20
-47.38141672558572
 30
0.0
 11
56.14419449933667
 21
-47.38141672558572
 31
0.0
  0
LINE
  5
CE
330
2
100
AcDbEntity
  8
WAKU
 62
     4
100
AcDbLine
 10
-68.85580550066333
 20
-52.38141672558572
 30
0.0
 11
56.14419449933667
 21
-52.38141672558572
 31
0.0
  0
TEXT
  5
CF
330
2
100
AcDbEntity
  8
MOJI1
100
AcDbText
 10
-66.35580550066333
 20
-26.38141672558572
 30
0.0
 40
3.0
  1
定格出力
100
AcDbText
  0
TEXT
  5
D0
330
2
100
AcDbEntity
  8
MOJI1
100
AcDbText
 10
-66.35580550066333
 20
-31.38141672558572
 30
0.0
 40
3.0
  1
対応充電池
100
AcDbText
  0
LINE
  5
D1
330
2
100
AcDbEntity
  8
WAKU
 62
     1
100
AcDbLine
 10
-68.85580550066333
 20
-22.38141672558572
 30
0.0
 11
56.14419449933667
 21
-22.38141672558572
 31
0.0
  0
LINE
  5
D2
330
2
100
AcDbEntity
  8
WAKU
 62
     1
100
AcDbLine
 10
-68.85580550066333
 20
-27.38141672558572
 30
0.0
 11
56.14419449933667
 21
-27.38141672558572
 31
0.0
  0
LINE
  5
D3
330
2
100
AcDbEntity
  8
WAKU
 62
     1
100
AcDbLine
 10
-68.85580550066333
 20
-32.38141672558572
 30
0.0
 11
56.14419449933667
 21
-32.38141672558572
 31
0.0
  0
LINE
  5
D4
330
2
100
AcDbEntity
  8
WAKU
 62
     1
100
AcDbLine
 10
-68.85580550066333
 20
-37.38141672558572
 30
0.0
 11
56.14419449933667
 21
-37.38141672558572
 31
0.0
  0
LINE
  5
D5
330
2
100
AcDbEntity
  8
WAKU
 62
     1
100
AcDbLine
 10
-68.85580550066333
 20
-42.38141672558572
 30
0.0
 11
56.14419449933667
 21
-42.38141672558572
 31
0.0
  0
LINE
  5
D6
330
2
100
AcDbEntity
  8
WAKU
 62
     4
100
AcDbLine
 10
56.14419449933667
 20
-17.38141672558572
 30
0.0
 11
-68.85580550066333
 21
-17.38141672558572
 31
0.0
  0
TEXT
  5
D7
330
2
100
AcDbEntity
  8
MOJI1
100
AcDbText
 10
-66.35580550066333
 20
-21.38141672558572
 30
0.0
 40
3.0
  1
電　源
100
AcDbText
  0
TEXT
  5
D8
330
2
100
AcDbEntity
  8
MOJI1
100
AcDbText
 10
-26.35580550066334
 20
-21.38141672558572
 30
0.0
 40
3.0
  1
ＡＣ１００Ｖ　０．３Ａ
100
AcDbText
  0
TEXT
  5
D9
330
2
100
AcDbEntity
  8
MOJI1
100
AcDbText
 10
-26.35580550066334
 20
-31.38141672558572
 30
0.0
 40
3.0
  1
単３形ニッケル水素電池
100
AcDbText
  0
TEXT
  5
DA
330
2
100
AcDbEntity
  8
MOJI1
100
AcDbText
 10
-26.35580550066334
 20
-26.38141672558572
 30
0.0
 40
3.0
  1
ＤＣ５Ｖ　２Ａ
100
AcDbText
  0
ENDSEC
  0
SECTION
  2
OBJECTS
  0
DICTIONARY
  5
9
330
0
100
AcDbDictionary
281
     1
  3
ACAD_COLOR
350
31
  3
ACAD_GROUP
350
2D
  3
ACAD_LAYOUT
350
D
  3
ACAD_MATERIAL
350
30
  3
ACAD_MLINESTYLE
350
2E
  3
ACAD_PLOTSETTINGS
350
2F
  3
ACAD_PLOTSTYLENAME
350
8
  3
ACDBHEADERROUNDTRIPXREC
350
117
  3
AcDbVariableDictionary
350
112
  0
DICTIONARY
  5
15
330
14
100
AcDbDictionary
280
     1
281
     1
  3
ACAD_LAYERFILTERS
360
16
  3
ACAD_LAYERSTATES
360
17
  0
DICTIONARY
  5
3
330
2
100
AcDbDictionary
280
     1
281
     1
  3
ACAD_LAYOUTSELFREF
360
4
  0
DICTIONARY
  5
F
330
E
100
AcDbDictionary
280
     1
281
     1
  3
ACAD_LAYOUTSELFREF
360
10
  0
DICTIONARY
  5
31
102
{ACAD_REACTORS
330
9
102
}
330
9
100
AcDbDictionary
281
     1
  0
DICTIONARY
  5
2D
102
{ACAD_REACTORS
330
9
102
}
330
9
100
AcDbDictionary
281
     1
  0
DICTIONARY
  5
D
102
{ACAD_REACTORS
330
9
102
}
330
9
100
AcDbDictionary
281
     1
  3
Model
350
C
  3
ﾚｲｱｳﾄ1
350
13
  0
DICTIONARY
  5
30
102
{ACAD_REACTORS
330
9
102
}
330
9
100
AcDbDictionary
281
     1
  0
DICTIONARY
  5
2E
102
{ACAD_REACTORS
330
9
102
}
330
9
100
AcDbDictionary
281
     1
  3
STANDARD
350
33
  0
DICTIONARY
  5
2F
102
{ACAD_REACTORS
330
9
102
}
330
9
100
AcDbDictionary
281
     1
  0
ACDBDICTIONARYWDFLT
  5
8
102
{ACAD_REACTORS
330
9
102
}
330
9
100
AcDbDictionary
281
     1
  3
Normal
350
7
100
AcDbDictionaryWithDefault
340
7
  0
DICTIONARY
  5
117
102
{ACAD_REACTORS
330
9
102
}
330
9
100
AcDbDictionary
281
     1
  3
COLORDICT
350
119
  3
MATERIALDICT
350
118
  0
DICTIONARY
  5
112
102
{ACAD_REACTORS
330
9
102
}
330
9
100
AcDbDictionary
281
     1
  3
DIMASSOC
350
114
  3
HIDETEXT
350
113
  3
PROJECTNAME
350
115
  0
DICTIONARY
  5
16
102
{ACAD_REACTORS
330
15
102
}
330
15
100
AcDbDictionary
280
     1
281
     1
  0
DICTIONARY
  5
17
102
{ACAD_REACTORS
330
15
102
}
330
15
100
AcDbDictionary
281
     1
  0
XRECORD
  5
4
102
{ACAD_REACTORS
330
3
102
}
330
3
100
AcDbXrecord
280
     1
340
2
  0
XRECORD
  5
10
102
{ACAD_REACTORS
330
F
102
}
330
F
100
AcDbXrecord
280
     1
340
E
  0
LAYOUT
  5
C
102
{ACAD_XDICTIONARY
360
11A
102
}
102
{ACAD_REACTORS
330
D
102
}
330
D
100
AcDbPlotSettings
  1

  2
DocuCentre-II 7000-A4縦.pc3
  4
A4
  6

 40
4.900083065032958
 41
4.900057315826416
 42
4.90008544921875
 43
4.90008544921875
 44
210.0156707763672
 45
297.0106506347656
 46
5.799999999999999
 47
0.0
 48
0.0
 49
0.0
140
0.0
141
0.0
142
1.0
143
1.373452989690432
 70
 11956
 72
     1
 73
     0
 74
     1
  7
tmsacad.ctb
 75
     0
147
0.7280919023121379
148
0.5218452297744989
149
0.1357305783194533
100
AcDbLayout
  1
Model
 70
     1
 71
     0
 10
0.0
 20
0.0
 11
12.0
 21
9.0
 12
0.0
 22
0.0
 32
0.0
 14
0.0
 24
0.0
 34
0.0
 15
0.0
 25
0.0
 35
0.0
146
0.0
 13
0.0
 23
0.0
 33
0.0
 16
1.0
 26
0.0
 36
0.0
 17
0.0
 27
1.0
 37
0.0
 76
     0
330
2
  0
LAYOUT
  5
13
102
{ACAD_XDICTIONARY
360
11C
102
}
102
{ACAD_REACTORS
330
D
102
}
330
D
100
AcDbPlotSettings
  1

  2
C:\Program Files\ACAD2000\plotters\DWF ePlot.pc3
  4

  6

 40
0.0
 41
0.0
 42
0.0
 43
0.0
 44
0.0
 45
0.0
 46
0.0
 47
0.0
 48
0.0
 49
0.0
140
0.0
141
0.0
142
1.0
143
1.0
 70
   688
 72
     0
 73
     0
 74
     5
  7
tmsacad.ctb
 75
    16
147
1.0
148
0.0
149
0.0
100
AcDbLayout
  1
ﾚｲｱｳﾄ1
 70
     1
 71
     1
 10
0.0
 20
0.0
 11
12.0
 21
9.0
 12
0.0
 22
0.0
 32
0.0
 14
1.000000000000000E+20
 24
1.000000000000000E+20
 34
1.000000000000000E+20
 15
-1.000000000000000E+20
 25
-1.000000000000000E+20
 35
-1.000000000000000E+20
146
0.0
 13
0.0
 23
0.0
 33
0.0
 16
1.0
 26
0.0
 36
0.0
 17
0.0
 27
1.0
 37
0.0
 76
     0
330
E
  0
MLINESTYLE
  5
33
102
{ACAD_REACTORS
330
2E
102
}
330
2E
100
AcDbMlineStyle
  2
STANDARD
 70
     0
  3

 62
   256
 51
90.0
 52
90.0
 71
     2
 49
0.5
 62
   256
  6
BYLAYER
 49
-0.5
 62
   256
  6
BYLAYER
  0
ACDBPLACEHOLDER
  5
7
102
{ACAD_REACTORS
330
8
102
}
330
8
  0
XRECORD
  5
119
102
{ACAD_REACTORS
330
117
102
}
330
117
100
AcDbXrecord
280
     1
340
31
  0
XRECORD
  5
118
102
{ACAD_REACTORS
330
117
102
}
330
117
100
AcDbXrecord
280
     1
340
30
  0
DICTIONARYVAR
  5
114
102
{ACAD_REACTORS
330
112
102
}
330
112
100
DictionaryVariables
280
     0
  1
1
  0
DICTIONARYVAR
  5
113
102
{ACAD_REACTORS
330
112
102
}
330
112
100
DictionaryVariables
280
     0
  1
1
  0
DICTIONARYVAR
  5
115
102
{ACAD_REACTORS
330
112
102
}
330
112
100
DictionaryVariables
280
     0
  1

  0
DICTIONARY
  5
11A
330
C
100
AcDbDictionary
280
     1
281
     1
  3
ACAD_XREC_ROUNDTRIP
360
11B
  0
DICTIONARY
  5
11C
330
13
100
AcDbDictionary
280
     1
281
     1
  3
ACAD_XREC_ROUNDTRIP
360
11D
  0
XRECORD
  5
11B
102
{ACAD_REACTORS
330
11A
102
}
330
11A
100
AcDbXrecord
280
     1
102
SHADEPLOT
 70
     0
102
SHADEPLOTRESLEVEL
 70
     2
102
SHADEPLOTCUSTOMDPI
 70
   300
  0
XRECORD
  5
11D
102
{ACAD_REACTORS
330
11C
102
}
330
11C
100
AcDbXrecord
280
     1
102
SHADEPLOT
 70
     0
102
SHADEPLOTRESLEVEL
 70
     2
102
SHADEPLOTCUSTOMDPI
 70
   300
  0
ENDSEC
  0
EOF
