  0
SECTION
  2
HEADER
  9
$ACADVER
  1
AC1015
  9
$ACADMAINTVER
 70
    20
  9
$DWGCODEPAGE
  3
ANSI_932
  9
$INSBASE
 10
0.4999999440410648
 20
372.5008351249344
 30
0.0
  9
$EXTMIN
 10
-61.79260163310982
 20
-55.54701170225974
 30
-0.0015258207003583
  9
$EXTMAX
 10
63.62548884426416
 20
57.47758525153336
 30
0.0000000349246037
  9
$LIMMIN
 10
0.0
 20
0.0
  9
$LIMMAX
 10
420.0
 20
297.0
  9
$ORTHOMODE
 70
     1
  9
$REGENMODE
 70
     0
  9
$FILLMODE
 70
     1
  9
$QTEXTMODE
 70
     0
  9
$MIRRTEXT
 70
     0
  9
$LTSCALE
 40
1.0
  9
$ATTMODE
 70
     1
  9
$TEXTSIZE
 40
2.5
  9
$TRACEWID
 40
1.0
  9
$TEXTSTYLE
  7
Standard
  9
$CLAYER
  8
GAIKEI
  9
$CELTYPE
  6
ByLayer
  9
$CECOLOR
 62
   256
  9
$CELTSCALE
 40
1.0
  9
$DISPSILH
 70
     0
  9
$DIMSCALE
 40
1.0
  9
$DIMASZ
 40
2.0
  9
$DIMEXO
 40
2.0
  9
$DIMDLI
 40
8.0
  9
$DIMRND
 40
0.0
  9
$DIMDLE
 40
0.0
  9
$DIMEXE
 40
2.0
  9
$DIMTP
 40
0.0
  9
$DIMTM
 40
0.0
  9
$DIMTXT
 40
2.5
  9
$DIMCEN
 40
0.0
  9
$DIMTSZ
 40
0.0
  9
$DIMTOL
 70
     0
  9
$DIMLIM
 70
     0
  9
$DIMTIH
 70
     0
  9
$DIMTOH
 70
     0
  9
$DIMSE1
 70
     0
  9
$DIMSE2
 70
     0
  9
$DIMTAD
 70
     3
  9
$DIMZIN
 70
     0
  9
$DIMBLK
  1

  9
$DIMASO
 70
     1
  9
$DIMSHO
 70
     1
  9
$DIMPOST
  1

  9
$DIMAPOST
  1

  9
$DIMALT
 70
     0
  9
$DIMALTD
 70
     2
  9
$DIMALTF
 40
25.4
  9
$DIMLFAC
 40
1.0
  9
$DIMTOFL
 70
     1
  9
$DIMTVP
 40
0.0
  9
$DIMTIX
 70
     0
  9
$DIMSOXD
 70
     0
  9
$DIMSAH
 70
     1
  9
$DIMBLK1
  1
OPEN30
  9
$DIMBLK2
  1
OPEN30
  9
$DIMSTYLE
  2
STANDARD
  9
$DIMCLRD
 70
     0
  9
$DIMCLRE
 70
     0
  9
$DIMCLRT
 70
     0
  9
$DIMTFAC
 40
1.0
  9
$DIMGAP
 40
0.5
  9
$DIMJUST
 70
     0
  9
$DIMSD1
 70
     0
  9
$DIMSD2
 70
     0
  9
$DIMTOLJ
 70
     1
  9
$DIMTZIN
 70
     0
  9
$DIMALTZ
 70
     0
  9
$DIMALTTZ
 70
     0
  9
$DIMUPT
 70
     0
  9
$DIMDEC
 70
     4
  9
$DIMTDEC
 70
     4
  9
$DIMALTU
 70
     2
  9
$DIMALTTD
 70
     2
  9
$DIMTXSTY
  7
Standard
  9
$DIMAUNIT
 70
     0
  9
$DIMADEC
 70
     0
  9
$DIMALTRND
 40
0.0
  9
$DIMAZIN
 70
     0
  9
$DIMDSEP
 70
    46
  9
$DIMATFIT
 70
     3
  9
$DIMFRAC
 70
     0
  9
$DIMLDRBLK
  1
OPEN30
  9
$DIMLUNIT
 70
     2
  9
$DIMLWD
 70
    -2
  9
$DIMLWE
 70
    -2
  9
$DIMTMOVE
 70
     0
  9
$LUNITS
 70
     2
  9
$LUPREC
 70
     4
  9
$SKETCHINC
 40
1.0
  9
$FILLETRAD
 40
0.0
  9
$AUNITS
 70
     0
  9
$AUPREC
 70
     0
  9
$MENU
  1
.
  9
$ELEVATION
 40
0.0
  9
$PELEVATION
 40
0.0
  9
$THICKNESS
 40
0.0
  9
$LIMCHECK
 70
     0
  9
$CHAMFERA
 40
0.0
  9
$CHAMFERB
 40
0.0
  9
$CHAMFERC
 40
0.0
  9
$CHAMFERD
 40
0.0
  9
$SKPOLY
 70
     0
  9
$TDCREATE
 40
2454349.434269746
  9
$TDUCREATE
 40
2454349.059269746
  9
$TDUPDATE
 40
2455113.609030741
  9
$TDUUPDATE
 40
2455113.234030741
  9
$TDINDWG
 40
0.1894212037
  9
$TDUSRTIMER
 40
0.1894212037
  9
$USRTIMER
 70
     1
  9
$ANGBASE
 50
0.0
  9
$ANGDIR
 70
     0
  9
$PDMODE
 70
     0
  9
$PDSIZE
 40
0.0
  9
$PLINEWID
 40
0.0
  9
$SPLFRAME
 70
     0
  9
$SPLINETYPE
 70
     6
  9
$SPLINESEGS
 70
     8
  9
$HANDSEED
  5
547
  9
$SURFTAB1
 70
     6
  9
$SURFTAB2
 70
     6
  9
$SURFTYPE
 70
     6
  9
$SURFU
 70
     6
  9
$SURFV
 70
     6
  9
$UCSBASE
  2

  9
$UCSNAME
  2

  9
$UCSORG
 10
0.0
 20
0.0
 30
0.0
  9
$UCSXDIR
 10
1.0
 20
0.0
 30
0.0
  9
$UCSYDIR
 10
0.0
 20
1.0
 30
0.0
  9
$UCSORTHOREF
  2

  9
$UCSORTHOVIEW
 70
     0
  9
$UCSORGTOP
 10
0.0
 20
0.0
 30
0.0
  9
$UCSORGBOTTOM
 10
0.0
 20
0.0
 30
0.0
  9
$UCSORGLEFT
 10
0.0
 20
0.0
 30
0.0
  9
$UCSORGRIGHT
 10
0.0
 20
0.0
 30
0.0
  9
$UCSORGFRONT
 10
0.0
 20
0.0
 30
0.0
  9
$UCSORGBACK
 10
0.0
 20
0.0
 30
0.0
  9
$PUCSBASE
  2

  9
$PUCSNAME
  2

  9
$PUCSORG
 10
0.0
 20
0.0
 30
0.0
  9
$PUCSXDIR
 10
1.0
 20
0.0
 30
0.0
  9
$PUCSYDIR
 10
0.0
 20
1.0
 30
0.0
  9
$PUCSORTHOREF
  2

  9
$PUCSORTHOVIEW
 70
     0
  9
$PUCSORGTOP
 10
0.0
 20
0.0
 30
0.0
  9
$PUCSORGBOTTOM
 10
0.0
 20
0.0
 30
0.0
  9
$PUCSORGLEFT
 10
0.0
 20
0.0
 30
0.0
  9
$PUCSORGRIGHT
 10
0.0
 20
0.0
 30
0.0
  9
$PUCSORGFRONT
 10
0.0
 20
0.0
 30
0.0
  9
$PUCSORGBACK
 10
0.0
 20
0.0
 30
0.0
  9
$USERI1
 70
     0
  9
$USERI2
 70
     0
  9
$USERI3
 70
     0
  9
$USERI4
 70
     0
  9
$USERI5
 70
     0
  9
$USERR1
 40
0.0
  9
$USERR2
 40
0.0
  9
$USERR3
 40
0.0
  9
$USERR4
 40
0.0
  9
$USERR5
 40
0.0
  9
$WORLDVIEW
 70
     1
  9
$SHADEDGE
 70
     3
  9
$SHADEDIF
 70
    70
  9
$TILEMODE
 70
     1
  9
$MAXACTVP
 70
    64
  9
$PINSBASE
 10
0.0
 20
0.0
 30
0.0
  9
$PLIMCHECK
 70
     0
  9
$PEXTMIN
 10
0.0
 20
0.0
 30
0.0
  9
$PEXTMAX
 10
0.0
 20
0.0
 30
0.0
  9
$PLIMMIN
 10
0.0
 20
0.0
  9
$PLIMMAX
 10
12.0
 20
9.0
  9
$UNITMODE
 70
     0
  9
$VISRETAIN
 70
     1
  9
$PLINEGEN
 70
     0
  9
$PSLTSCALE
 70
     1
  9
$TREEDEPTH
 70
  3020
  9
$CMLSTYLE
  2
Standard
  9
$CMLJUST
 70
     0
  9
$CMLSCALE
 40
20.0
  9
$PROXYGRAPHICS
 70
     1
  9
$MEASUREMENT
 70
     1
  9
$CELWEIGHT
370
    -1
  9
$ENDCAPS
280
     0
  9
$JOINSTYLE
280
     0
  9
$LWDISPLAY
290
     0
  9
$INSUNITS
 70
     4
  9
$HYPERLINKBASE
  1

  9
$STYLESHEET
  1

  9
$XEDIT
290
     1
  9
$CEPSNTYPE
380
     0
  9
$PSTYLEMODE
290
     1
  9
$FINGERPRINTGUID
  2
{FDEAD578-A652-11D2-9A35-0060089B3A3F}
  9
$VERSIONGUID
  2
{93F28FE1-66C2-44E3-8086-985F428D810C}
  9
$EXTNAMES
290
     1
  9
$PSVPSCALE
 40
0.0
  9
$OLESTARTUP
290
     0
  0
ENDSEC
  0
SECTION
  2
CLASSES
  0
CLASS
  1
ACDBDICTIONARYWDFLT
  2
AcDbDictionaryWithDefault
  3
ObjectDBX Classes
 90
        0
280
     0
281
     0
  0
CLASS
  1
ACDBPLACEHOLDER
  2
AcDbPlaceHolder
  3
ObjectDBX Classes
 90
        0
280
     0
281
     0
  0
CLASS
  1
LAYOUT
  2
AcDbLayout
  3
ObjectDBX Classes
 90
        0
280
     0
281
     0
  0
CLASS
  1
DICTIONARYVAR
  2
AcDbDictionaryVar
  3
ObjectDBX Classes
 90
        0
280
     0
281
     0
  0
CLASS
  1
DIMASSOC
  2
AcDbDimAssoc
  3
"AcDbDimAssoc|Product Desc:     AcDim ARX App For Dimension|Company:          Autodesk, Inc.|WEB Address:      www.autodesk.com"
 90
    32768
280
     0
281
     0
  0
ENDSEC
  0
SECTION
  2
TABLES
  0
TABLE
  2
VPORT
  5
19
330
0
100
AcDbSymbolTable
 70
     3
  0
VPORT
  5
53F
330
19
100
AcDbSymbolTableRecord
100
AcDbViewportTableRecord
  2
*Active
 70
     0
 10
0.0
 20
0.0
 11
1.0
 21
1.0
 12
0.9164436055771609
 22
0.9652867746368087
 13
0.0
 23
0.0
 14
10.0
 24
10.0
 15
10.0
 25
10.0
 16
0.0
 26
0.0
 36
1.0
 17
0.0
 27
0.0
 37
0.0
 40
113.9110643808816
 41
1.422774869109947
 42
50.0
 43
0.0
 44
0.0
 50
0.0
 51
0.0
 71
     0
 72
  1000
 73
     1
 74
     2
 75
     0
 76
     0
 77
     0
 78
     0
281
     0
 65
     1
110
0.0
120
0.0
130
0.0
111
1.0
121
0.0
131
0.0
112
0.0
122
1.0
132
0.0
 79
     0
146
0.0
  0
ENDTAB
  0
TABLE
  2
LTYPE
  5
14
330
0
100
AcDbSymbolTable
 70
     1
  0
LTYPE
  5
15
330
14
100
AcDbSymbolTableRecord
100
AcDbLinetypeTableRecord
  2
ByBlock
 70
     0
  3

 72
    65
 73
     0
 40
0.0
  0
LTYPE
  5
16
330
14
100
AcDbSymbolTableRecord
100
AcDbLinetypeTableRecord
  2
ByLayer
 70
     0
  3

 72
    65
 73
     0
 40
0.0
  0
LTYPE
  5
8
330
14
100
AcDbSymbolTableRecord
100
AcDbLinetypeTableRecord
  2
Continuous
 70
     0
  3
Solid line
 72
    65
 73
     0
 40
0.0
  0
ENDTAB
  0
TABLE
  2
LAYER
  5
10
330
0
100
AcDbSymbolTable
 70
     7
  0
LAYER
  5
4
330
10
100
AcDbSymbolTableRecord
100
AcDbLayerTableRecord
  2
0
 70
     0
 62
     7
  6
Continuous
370
    -3
390
5
  0
LAYER
  5
4ED
330
10
100
AcDbSymbolTableRecord
100
AcDbLayerTableRecord
  2
WAKU
 70
     0
 62
     4
  6
Continuous
370
    -3
390
5
  0
LAYER
  5
2E
330
10
100
AcDbSymbolTableRecord
100
AcDbLayerTableRecord
  2
MOJI1
 70
     0
 62
     2
  6
Continuous
370
    -3
390
5
  0
LAYER
  5
30
330
10
100
AcDbSymbolTableRecord
100
AcDbLayerTableRecord
  2
TOUROKU
 70
     0
 62
     1
  6
Continuous
370
    -3
390
5
  0
LAYER
  5
2B
330
10
100
AcDbSymbolTableRecord
100
AcDbLayerTableRecord
  2
GAIKEI
 70
     0
 62
     7
  6
Continuous
370
    -3
390
5
  0
LAYER
  5
32
330
10
100
AcDbSymbolTableRecord
100
AcDbLayerTableRecord
  2
SUNPO
 70
     0
 62
     3
  6
Continuous
370
    -3
390
5
  0
LAYER
  5
3C
330
10
100
AcDbSymbolTableRecord
100
AcDbLayerTableRecord
  2
DEFPOINTS
 70
     0
 62
     7
  6
Continuous
290
     0
370
    -3
390
5
  0
ENDTAB
  0
TABLE
  2
STYLE
  5
11
330
0
100
AcDbSymbolTable
 70
     1
  0
STYLE
  5
12
330
11
100
AcDbSymbolTableRecord
100
AcDbTextStyleTableRecord
  2
Standard
 70
     0
 40
0.0
 41
1.0
 50
0.0
 71
     0
 42
2.5
  3
MONOTXT.shx
  4
BIGFONT.shx
  0
ENDTAB
  0
TABLE
  2
VIEW
  5
17
330
0
100
AcDbSymbolTable
 70
     0
  0
ENDTAB
  0
TABLE
  2
UCS
  5
18
330
0
100
AcDbSymbolTable
 70
     0
  0
ENDTAB
  0
TABLE
  2
APPID
  5
1B
330
0
100
AcDbSymbolTable
 70
     1
  0
APPID
  5
1C
330
1B
100
AcDbSymbolTableRecord
100
AcDbRegAppTableRecord
  2
ACAD
 70
     0
  0
ENDTAB
  0
TABLE
  2
DIMSTYLE
  5
1D
330
0
100
AcDbSymbolTable
 70
     1
100
AcDbDimStyleTable
 71
     1
340
1E
  0
DIMSTYLE
105
1E
102
{ACAD_REACTORS
330
4D
330
40
330
31
102
}
330
1D
100
AcDbSymbolTableRecord
100
AcDbDimStyleTableRecord
  2
STANDARD
 70
     0
 40
0.0
 41
2.0
 42
2.0
 43
8.0
 44
2.0
 73
     0
 74
     0
 77
     3
140
3.0
141
0.0
173
     1
279
     2
288
     1
340
12
341
1F
343
1F
344
1F
  0
ENDTAB
  0
TABLE
  2
BLOCK_RECORD
  5
1
330
0
100
AcDbSymbolTable
 70
     7
  0
BLOCK_RECORD
  5
2
330
1
100
AcDbSymbolTableRecord
100
AcDbBlockTableRecord
  2
*Model_Space
340
A
  0
BLOCK_RECORD
  5
C
330
1
100
AcDbSymbolTableRecord
100
AcDbBlockTableRecord
  2
*Paper_Space
340
F
  0
BLOCK_RECORD
  5
1F
330
1
100
AcDbSymbolTableRecord
100
AcDbBlockTableRecord
  2
_OPEN30
340
0
102
{BLKREFS
331
46
331
47
331
53
331
54
331
38
331
39
331
51B
331
51C
331
527
331
528
331
533
331
534
102
}
  0
BLOCK_RECORD
  5
4E
330
1
100
AcDbSymbolTableRecord
100
AcDbBlockTableRecord
  2
*D1
340
0
  0
BLOCK_RECORD
  5
41
330
1
100
AcDbSymbolTableRecord
100
AcDbBlockTableRecord
  2
*D2
340
0
  0
BLOCK_RECORD
  5
33
330
1
100
AcDbSymbolTableRecord
100
AcDbBlockTableRecord
  2
*D3
340
0
  0
BLOCK_RECORD
  5
517
330
1
100
AcDbSymbolTableRecord
100
AcDbBlockTableRecord
  2
*D4
340
0
  0
BLOCK_RECORD
  5
523
330
1
100
AcDbSymbolTableRecord
100
AcDbBlockTableRecord
  2
*D5
340
0
  0
BLOCK_RECORD
  5
52F
330
1
100
AcDbSymbolTableRecord
100
AcDbBlockTableRecord
  2
*D6
340
0
  0
ENDTAB
  0
ENDSEC
  0
SECTION
  2
BLOCKS
  0
BLOCK
  5
3
330
2
100
AcDbEntity
  8
0
100
AcDbBlockBegin
  2
*Model_Space
 70
     0
 10
0.0
 20
0.0
 30
0.0
  3
*Model_Space
  1

  0
ENDBLK
  5
9
330
2
100
AcDbEntity
  8
0
100
AcDbBlockEnd
  0
BLOCK
  5
D
330
C
100
AcDbEntity
 67
     1
  8
0
100
AcDbBlockBegin
  2
*Paper_Space
 70
     0
 10
0.0
 20
0.0
 30
0.0
  3
*Paper_Space
  1

  0
ENDBLK
  5
E
330
C
100
AcDbEntity
 67
     1
  8
0
100
AcDbBlockEnd
  0
BLOCK
  5
20
330
1F
100
AcDbEntity
  8
0
100
AcDbBlockBegin
  2
_OPEN30
 70
     0
 10
0.0
 20
0.0
 30
0.0
  3
_OPEN30
  1

  0
LINE
  5
21
330
1F
100
AcDbEntity
  8
0
  6
ByBlock
 62
     0
100
AcDbLine
 10
-1.0
 20
0.26794919
 30
0.0
 11
0.0
 21
0.0
 31
0.0
  0
LINE
  5
22
330
1F
100
AcDbEntity
  8
0
  6
ByBlock
 62
     0
100
AcDbLine
 10
0.0
 20
0.0
 30
0.0
 11
-1.0
 21
-0.26794919
 31
0.0
  0
LINE
  5
23
330
1F
100
AcDbEntity
  8
0
  6
ByBlock
 62
     0
100
AcDbLine
 10
0.0
 20
0.0
 30
0.0
 11
-1.0
 21
0.0
 31
0.0
  0
ENDBLK
  5
24
330
1F
100
AcDbEntity
  8
0
100
AcDbBlockEnd
  0
BLOCK
  5
4F
330
4E
100
AcDbEntity
  8
0
100
AcDbBlockBegin
  2
*D1
 70
     1
 10
0.0
 20
0.0
 30
0.0
  3
*D1
  1

  0
LINE
  5
50
330
4E
100
AcDbEntity
  8
SUNPO
 62
     0
370
    -2
100
AcDbLine
 10
61.22516282158528
 20
298.388351776309
 30
0.0
 11
69.22516282158529
 21
298.388351776309
 31
0.0
  0
LINE
  5
51
330
4E
100
AcDbEntity
  8
SUNPO
 62
     0
370
    -2
100
AcDbLine
 10
61.22516282158528
 20
344.3883671629757
 30
0.0
 11
69.22516282158529
 21
344.3883671629757
 31
0.0
  0
LINE
  5
52
330
4E
100
AcDbEntity
  8
SUNPO
 62
     0
370
    -2
100
AcDbLine
 10
67.22516282158529
 20
300.388351776309
 30
0.0
 11
67.22516282158529
 21
342.3883671629757
 31
0.0
  0
INSERT
  5
53
330
4E
100
AcDbEntity
  8
SUNPO
 62
     0
370
    -2
100
AcDbBlockReference
  2
_OPEN30
 10
67.22516282158529
 20
298.388351776309
 30
0.0
 41
2.0
 42
2.0
 43
2.0
 50
270.0
  0
INSERT
  5
54
330
4E
100
AcDbEntity
  8
SUNPO
 62
     0
370
    -2
100
AcDbBlockReference
  2
_OPEN30
 10
67.22516282158529
 20
344.3883671629757
 30
0.0
 41
2.0
 42
2.0
 43
2.0
 50
90.0
  0
MTEXT
  5
55
330
4E
100
AcDbEntity
  8
SUNPO
 62
     0
100
AcDbMText
 10
65.47516282158523
 20
321.3883594696424
 30
0.0
 40
2.5
 41
0.0
 71
     5
 72
     1
  1
\A1;460
 11
0.0000000000000001
 21
1.0
 31
0.0
 73
     1
 44
1.0
1001
ACAD
1000
MTEXTBEGIN
1070
    73
1070
     1
1070
    44
1040
1.0
1070
    74
1070
     0
1000
MTEXTEND
  0
POINT
  5
56
330
4E
100
AcDbEntity
  8
DEFPOINTS
 62
     0
100
AcDbPoint
 10
59.22516282158529
 20
298.388351776309
 30
0.0
  0
POINT
  5
57
330
4E
100
AcDbEntity
  8
DEFPOINTS
 62
     0
100
AcDbPoint
 10
59.22516282158529
 20
344.3883671629757
 30
0.0
  0
POINT
  5
58
330
4E
100
AcDbEntity
  8
DEFPOINTS
 62
     0
100
AcDbPoint
 10
67.22516282158529
 20
344.3883671629757
 30
0.0
  0
ENDBLK
  5
59
330
4E
100
AcDbEntity
  8
0
100
AcDbBlockEnd
  0
BLOCK
  5
42
330
41
100
AcDbEntity
  8
0
100
AcDbBlockBegin
  2
*D2
 70
     1
 10
0.0
 20
0.0
 30
0.0
  3
*D2
  1

  0
LINE
  5
43
330
41
100
AcDbEntity
  8
SUNPO
 62
     0
370
    -2
100
AcDbLine
 10
29.32745354367336
 20
346.3834907734672
 30
0.0
 11
29.32745354367336
 21
358.2375974356964
 31
0.0
  0
LINE
  5
44
330
41
100
AcDbEntity
  8
SUNPO
 62
     0
370
    -2
100
AcDbLine
 10
59.12746377634005
 20
346.3834907734672
 30
0.0
 11
59.12746377634005
 21
358.2375974356964
 31
0.0
  0
LINE
  5
45
330
41
100
AcDbEntity
  8
SUNPO
 62
     0
370
    -2
100
AcDbLine
 10
31.32745354367336
 20
356.2375974356964
 30
0.0
 11
57.12746377634005
 21
356.2375974356964
 31
0.0
  0
INSERT
  5
46
330
41
100
AcDbEntity
  8
SUNPO
 62
     0
370
    -2
100
AcDbBlockReference
  2
_OPEN30
 10
29.32745354367336
 20
356.2375974356964
 30
0.0
 41
2.0
 42
2.0
 43
2.0
 50
180.0
  0
INSERT
  5
47
330
41
100
AcDbEntity
  8
SUNPO
 62
     0
370
    -2
100
AcDbBlockReference
  2
_OPEN30
 10
59.12746377634005
 20
356.2375974356964
 30
0.0
 41
2.0
 42
2.0
 43
2.0
  0
MTEXT
  5
48
330
41
100
AcDbEntity
  8
SUNPO
 62
     0
100
AcDbMText
 10
44.2274586600067
 20
357.9875974356964
 30
0.0
 40
2.5
 41
0.0
 71
     5
 72
     1
  1
\A1;298
 73
     1
 44
1.0
1001
ACAD
1000
MTEXTBEGIN
1070
    73
1070
     1
1070
    44
1040
1.0
1070
    74
1070
     0
1000
MTEXTEND
  0
POINT
  5
49
330
41
100
AcDbEntity
  8
DEFPOINTS
 62
     0
100
AcDbPoint
 10
29.32745354367336
 20
344.3834907734672
 30
0.0
  0
POINT
  5
4A
330
41
100
AcDbEntity
  8
DEFPOINTS
 62
     0
100
AcDbPoint
 10
59.12746377634005
 20
344.3834907734672
 30
0.0
  0
POINT
  5
4B
330
41
100
AcDbEntity
  8
DEFPOINTS
 62
     0
100
AcDbPoint
 10
59.12746377634005
 20
356.2375974356964
 30
0.0
  0
ENDBLK
  5
4C
330
41
100
AcDbEntity
  8
0
100
AcDbBlockEnd
  0
BLOCK
  5
34
330
33
100
AcDbEntity
  8
0
100
AcDbBlockBegin
  2
*D3
 70
     1
 10
0.0
 20
0.0
 30
0.0
  3
*D3
  1

  0
LINE
  5
35
330
33
100
AcDbEntity
  8
SUNPO
 62
     0
370
    -2
100
AcDbLine
 10
83.47545377725891
 20
346.3834907734672
 30
0.0
 11
83.47545377725891
 21
358.2375974356964
 31
0.0
  0
LINE
  5
36
330
33
100
AcDbEntity
  8
SUNPO
 62
     0
370
    -2
100
AcDbLine
 10
103.9754605789255
 20
346.3834907734672
 30
0.0
 11
103.9754605789255
 21
358.2375974356964
 31
0.0
  0
LINE
  5
37
330
33
100
AcDbEntity
  8
SUNPO
 62
     0
370
    -2
100
AcDbLine
 10
85.4754537772589
 20
356.2375974356964
 30
0.0
 11
101.9754605789255
 21
356.2375974356964
 31
0.0
  0
INSERT
  5
38
330
33
100
AcDbEntity
  8
SUNPO
 62
     0
370
    -2
100
AcDbBlockReference
  2
_OPEN30
 10
83.47545377725891
 20
356.2375974356964
 30
0.0
 41
2.0
 42
2.0
 43
2.0
 50
180.0
  0
INSERT
  5
39
330
33
100
AcDbEntity
  8
SUNPO
 62
     0
370
    -2
100
AcDbBlockReference
  2
_OPEN30
 10
103.9754605789255
 20
356.2375974356964
 30
0.0
 41
2.0
 42
2.0
 43
2.0
  0
MTEXT
  5
3A
330
33
100
AcDbEntity
  8
SUNPO
 62
     0
100
AcDbMText
 10
93.7254571780922
 20
357.9875974356964
 30
0.0
 40
2.5
 41
0.0
 71
     5
 72
     1
  1
\A1;205
 73
     1
 44
1.0
1001
ACAD
1000
MTEXTBEGIN
1070
    73
1070
     1
1070
    44
1040
1.0
1070
    74
1070
     0
1000
MTEXTEND
  0
POINT
  5
3B
330
33
100
AcDbEntity
  8
DEFPOINTS
 62
     0
100
AcDbPoint
 10
83.47545377725891
 20
344.3834907734672
 30
0.0
  0
POINT
  5
3D
330
33
100
AcDbEntity
  8
DEFPOINTS
 62
     0
100
AcDbPoint
 10
103.9754605789255
 20
344.3834907734672
 30
0.0
  0
POINT
  5
3E
330
33
100
AcDbEntity
  8
DEFPOINTS
 62
     0
100
AcDbPoint
 10
103.9754605789255
 20
356.2375974356964
 30
0.0
  0
ENDBLK
  5
3F
330
33
100
AcDbEntity
  8
0
100
AcDbBlockEnd
  0
BLOCK
  5
521
330
517
100
AcDbEntity
  8
0
100
AcDbBlockBegin
  2
*D4
 70
     1
 10
0.0
 20
0.0
 30
0.0
  3
*D4
  1

  0
LINE
  5
518
330
517
100
AcDbEntity
  8
SUNPO
 62
     0
370
    -2
100
AcDbLine
 10
-3.06606432023534
 20
-14.65536594683374
 30
0.0
 11
4.933935679764648
 21
-14.65536594683374
 31
0.0
  0
LINE
  5
519
330
517
100
AcDbEntity
  8
SUNPO
 62
     0
370
    -2
100
AcDbLine
 10
-3.066064320235341
 20
31.34464943983289
 30
0.0
 11
4.933935679764658
 21
31.34464943983289
 31
0.0
  0
LINE
  5
51A
330
517
100
AcDbEntity
  8
SUNPO
 62
     0
370
    -2
100
AcDbLine
 10
2.933935679764648
 20
-12.65536594683374
 30
0.0
 11
2.933935679764658
 21
29.34464943983289
 31
0.0
  0
INSERT
  5
51B
330
517
100
AcDbEntity
  8
SUNPO
 62
     0
370
    -2
100
AcDbBlockReference
  2
_OPEN30
 10
2.933935679764648
 20
-14.65536594683374
 30
0.0
 41
2.0
 42
2.0
 43
2.0
 50
270.0
  0
INSERT
  5
51C
330
517
100
AcDbEntity
  8
SUNPO
 62
     0
370
    -2
100
AcDbBlockReference
  2
_OPEN30
 10
2.933935679764658
 20
31.34464943983289
 30
0.0
 41
2.0
 42
2.0
 43
2.0
 50
90.0
  0
MTEXT
  5
51D
330
517
100
AcDbEntity
  8
SUNPO
 62
     0
100
AcDbMText
 10
1.183935679764652
 20
8.344641746499576
 30
0.0
 40
2.5
 41
0.0
 71
     5
 72
     1
  1
\A1;460
 11
0.0000000000000001
 21
1.0
 31
0.0
 73
     1
 44
1.0
1001
ACAD
1000
MTEXTBEGIN
1070
    73
1070
     1
1070
    44
1040
1.0
1070
    74
1070
     0
1000
MTEXTEND
  0
POINT
  5
51E
330
517
100
AcDbEntity
  8
DEFPOINTS
 62
     0
100
AcDbPoint
 10
-5.066064320235341
 20
-14.65536594683374
 30
0.0
  0
POINT
  5
51F
330
517
100
AcDbEntity
  8
DEFPOINTS
 62
     0
100
AcDbPoint
 10
-5.066064320235341
 20
31.34464943983289
 30
0.0
  0
POINT
  5
520
330
517
100
AcDbEntity
  8
DEFPOINTS
 62
     0
100
AcDbPoint
 10
2.933935679764658
 20
31.34464943983289
 30
0.0
  0
ENDBLK
  5
522
330
517
100
AcDbEntity
  8
0
100
AcDbBlockEnd
  0
BLOCK
  5
52D
330
523
100
AcDbEntity
  8
0
100
AcDbBlockBegin
  2
*D5
 70
     1
 10
0.0
 20
0.0
 30
0.0
  3
*D5
  1

  0
LINE
  5
524
330
523
100
AcDbEntity
  8
SUNPO
 62
     0
370
    -2
100
AcDbLine
 10
-34.96377359814727
 20
33.33977305032443
 30
0.0
 11
-34.96377359814727
 21
45.19387971255366
 31
0.0
  0
LINE
  5
525
330
523
100
AcDbEntity
  8
SUNPO
 62
     0
370
    -2
100
AcDbLine
 10
-5.163763365480576
 20
33.33977305032443
 30
0.0
 11
-5.163763365480575
 21
45.19387971255366
 31
0.0
  0
LINE
  5
526
330
523
100
AcDbEntity
  8
SUNPO
 62
     0
370
    -2
100
AcDbLine
 10
-32.96377359814727
 20
43.19387971255366
 30
0.0
 11
-7.163763365480575
 21
43.19387971255366
 31
0.0
  0
INSERT
  5
527
330
523
100
AcDbEntity
  8
SUNPO
 62
     0
370
    -2
100
AcDbBlockReference
  2
_OPEN30
 10
-34.96377359814727
 20
43.19387971255366
 30
0.0
 41
2.0
 42
2.0
 43
2.0
 50
180.0
  0
INSERT
  5
528
330
523
100
AcDbEntity
  8
SUNPO
 62
     0
370
    -2
100
AcDbBlockReference
  2
_OPEN30
 10
-5.163763365480575
 20
43.19387971255366
 30
0.0
 41
2.0
 42
2.0
 43
2.0
  0
MTEXT
  5
529
330
523
100
AcDbEntity
  8
SUNPO
 62
     0
100
AcDbMText
 10
-20.06376848181393
 20
44.94387971255366
 30
0.0
 40
2.5
 41
0.0
 71
     5
 72
     1
  1
\A1;298
 73
     1
 44
1.0
1001
ACAD
1000
MTEXTBEGIN
1070
    73
1070
     1
1070
    44
1040
1.0
1070
    74
1070
     0
1000
MTEXTEND
  0
POINT
  5
52A
330
523
100
AcDbEntity
  8
DEFPOINTS
 62
     0
100
AcDbPoint
 10
-34.96377359814727
 20
31.33977305032443
 30
0.0
  0
POINT
  5
52B
330
523
100
AcDbEntity
  8
DEFPOINTS
 62
     0
100
AcDbPoint
 10
-5.163763365480576
 20
31.33977305032443
 30
0.0
  0
POINT
  5
52C
330
523
100
AcDbEntity
  8
DEFPOINTS
 62
     0
100
AcDbPoint
 10
-5.163763365480575
 20
43.19387971255366
 30
0.0
  0
ENDBLK
  5
52E
330
523
100
AcDbEntity
  8
0
100
AcDbBlockEnd
  0
BLOCK
  5
539
330
52F
100
AcDbEntity
  8
0
100
AcDbBlockBegin
  2
*D6
 70
     1
 10
0.0
 20
0.0
 30
0.0
  3
*D6
  1

  0
LINE
  5
530
330
52F
100
AcDbEntity
  8
SUNPO
 62
     0
370
    -2
100
AcDbLine
 10
19.18422663543828
 20
33.33977305032443
 30
0.0
 11
19.18422663543828
 21
45.19387971255366
 31
0.0
  0
LINE
  5
531
330
52F
100
AcDbEntity
  8
SUNPO
 62
     0
370
    -2
100
AcDbLine
 10
39.68423343710487
 20
33.33977305032443
 30
0.0
 11
39.68423343710487
 21
45.19387971255366
 31
0.0
  0
LINE
  5
532
330
52F
100
AcDbEntity
  8
SUNPO
 62
     0
370
    -2
100
AcDbLine
 10
21.18422663543828
 20
43.19387971255366
 30
0.0
 11
37.68423343710487
 21
43.19387971255366
 31
0.0
  0
INSERT
  5
533
330
52F
100
AcDbEntity
  8
SUNPO
 62
     0
370
    -2
100
AcDbBlockReference
  2
_OPEN30
 10
19.18422663543828
 20
43.19387971255366
 30
0.0
 41
2.0
 42
2.0
 43
2.0
 50
180.0
  0
INSERT
  5
534
330
52F
100
AcDbEntity
  8
SUNPO
 62
     0
370
    -2
100
AcDbBlockReference
  2
_OPEN30
 10
39.68423343710487
 20
43.19387971255366
 30
0.0
 41
2.0
 42
2.0
 43
2.0
  0
MTEXT
  5
535
330
52F
100
AcDbEntity
  8
SUNPO
 62
     0
100
AcDbMText
 10
29.43423003627157
 20
44.94387971255366
 30
0.0
 40
2.5
 41
0.0
 71
     5
 72
     1
  1
\A1;205
 73
     1
 44
1.0
1001
ACAD
1000
MTEXTBEGIN
1070
    73
1070
     1
1070
    44
1040
1.0
1070
    74
1070
     0
1000
MTEXTEND
  0
POINT
  5
536
330
52F
100
AcDbEntity
  8
DEFPOINTS
 62
     0
100
AcDbPoint
 10
19.18422663543828
 20
31.33977305032443
 30
0.0
  0
POINT
  5
537
330
52F
100
AcDbEntity
  8
DEFPOINTS
 62
     0
100
AcDbPoint
 10
39.68423343710487
 20
31.33977305032443
 30
0.0
  0
POINT
  5
538
330
52F
100
AcDbEntity
  8
DEFPOINTS
 62
     0
100
AcDbPoint
 10
39.68423343710487
 20
43.19387971255366
 30
0.0
  0
ENDBLK
  5
53A
330
52F
100
AcDbEntity
  8
0
100
AcDbBlockEnd
  0
ENDSEC
  0
SECTION
  2
ENTITIES
  0
TEXT
  5
2D
330
2
100
AcDbEntity
  8
MOJI1
100
AcDbText
 10
-34.79122719777968
 20
53.45711740179161
 30
0.0
 40
4.0
  1
８００ＭＨｚ帯ＰＬＬポータブルワイヤレスアンプ
 41
0.9
100
AcDbText
  0
TEXT
  5
2F
330
2
100
AcDbEntity
  8
TOUROKU
100
AcDbText
 10
50.14205616848105
 20
47.4571174017916
 30
0.0
 40
2.0
  1
ＷＸＰＷ８１
 72
     2
 11
63.20872283514773
 21
47.4571174017916
 31
0.0
100
AcDbText
  0
DIMENSION
  5
31
330
2
100
AcDbEntity
  8
SUNPO
100
AcDbDimension
  2
*D6
 10
39.68423343710487
 20
43.19387971255366
 30
0.0
 11
29.43423003627157
 21
44.94387971255366
 31
0.0
 70
    33
  1
205
 71
     5
 42
20.50000680166659
  3
STANDARD
100
AcDbAlignedDimension
 13
19.18422663543828
 23
31.33977305032443
 33
0.0
 14
39.68423343710487
 24
31.33977305032443
 34
0.0
1001
ACAD
1000
DSTYLE
1002
{
1070
    40
1040
1.0
1070
   140
1040
2.5
1070
   147
1040
0.5
1070
   172
1070
     1
1070
   279
1070
     0
1070
   288
1070
     0
1002
}
  0
DIMENSION
  5
40
330
2
100
AcDbEntity
  8
SUNPO
100
AcDbDimension
  2
*D5
 10
-5.163763365480575
 20
43.19387971255366
 30
0.0
 11
-20.06376848181393
 21
44.94387971255366
 31
0.0
 70
    33
  1
298
 71
     5
 42
29.8000102326667
  3
STANDARD
100
AcDbAlignedDimension
 13
-34.96377359814727
 23
31.33977305032443
 33
0.0
 14
-5.163763365480576
 24
31.33977305032443
 34
0.0
1001
ACAD
1000
DSTYLE
1002
{
1070
    40
1040
1.0
1070
   140
1040
2.5
1070
   147
1040
0.5
1070
   172
1070
     1
1070
   279
1070
     0
1070
   288
1070
     0
1002
}
  0
DIMENSION
  5
4D
330
2
100
AcDbEntity
  8
SUNPO
100
AcDbDimension
  2
*D4
 10
2.933935679764658
 20
31.34464943983289
 30
0.0
 11
1.183935679764652
 21
8.344641746499576
 31
0.0
 70
    33
  1
460
 71
     5
 42
46.00001538666663
  3
STANDARD
100
AcDbAlignedDimension
 13
-5.066064320235341
 23
-14.65536594683374
 33
0.0
 14
-5.066064320235341
 24
31.34464943983289
 34
0.0
1001
ACAD
1000
DSTYLE
1002
{
1070
    40
1040
1.0
1070
   140
1040
2.5
1070
   147
1040
0.5
1070
   172
1070
     1
1070
   279
1070
     0
1070
   288
1070
     0
1002
}
  0
POLYLINE
  5
5A
330
2
100
AcDbEntity
  8
GAIKEI
370
    30
100
AcDb2dPolyline
 66
     1
 10
0.0
 20
0.0
 30
0.0
  0
VERTEX
  5
5B
330
5A
100
AcDbEntity
  8
GAIKEI
370
    30
100
AcDbVertex
100
AcDb2dVertex
 10
39.68423343710487
 20
-13.46519714614373
 30
0.0
  0
VERTEX
  5
5C
330
5A
100
AcDbEntity
  8
GAIKEI
370
    30
100
AcDbVertex
100
AcDb2dVertex
 10
39.68423343710487
 20
-13.47213794848045
 30
0.0
  0
VERTEX
  5
5D
330
5A
100
AcDbEntity
  8
GAIKEI
370
    30
100
AcDbVertex
100
AcDb2dVertex
 10
39.68423343710487
 20
-13.47907905081729
 30
0.0
  0
VERTEX
  5
5E
330
5A
100
AcDbEntity
  8
GAIKEI
370
    30
100
AcDbVertex
100
AcDb2dVertex
 10
39.68423343710487
 20
-13.52151886510535
 30
0.0
  0
VERTEX
  5
5F
330
5A
100
AcDbEntity
  8
GAIKEI
370
    30
100
AcDbVertex
100
AcDb2dVertex
 10
39.68423343710487
 20
-13.56395867939341
 30
0.0
  0
VERTEX
  5
60
330
5A
100
AcDbEntity
  8
GAIKEI
370
    30
100
AcDbVertex
100
AcDb2dVertex
 10
39.68423343710487
 20
-13.58821788756069
 30
0.0
  0
VERTEX
  5
61
330
5A
100
AcDbEntity
  8
GAIKEI
370
    30
100
AcDbVertex
100
AcDb2dVertex
 10
39.68423343710487
 20
-13.61247709572797
 30
0.0
  0
VERTEX
  5
62
330
5A
100
AcDbEntity
  8
GAIKEI
370
    30
100
AcDbVertex
100
AcDb2dVertex
 10
39.68423343710487
 20
-13.61711239728851
 30
0.0
  0
VERTEX
  5
63
330
5A
100
AcDbEntity
  8
GAIKEI
370
    30
100
AcDbVertex
100
AcDb2dVertex
 10
39.68423343710487
 20
-13.62174769884905
 30
0.0
  0
SEQEND
  5
64
330
5A
100
AcDbEntity
  8
GAIKEI
370
    30
  0
ARC
  5
65
330
2
100
AcDbEntity
  8
GAIKEI
370
    30
100
AcDbCircle
 10
39.6642336303716
 20
-13.62174769884905
 30
0.0
 40
0.0200000067333334
100
AcDbArc
 50
277.2017539999979
 51
0.0
  0
LINE
  5
66
330
2
100
AcDbEntity
  8
GAIKEI
 62
     1
370
    30
100
AcDbLine
 10
39.83423348760488
 20
12.29464302633289
 30
0.0
 11
39.68423343710487
 21
12.29464302633289
 31
0.0
  0
LINE
  5
67
330
2
100
AcDbEntity
  8
GAIKEI
 62
     1
370
    30
100
AcDbLine
 10
39.93423372127166
 20
11.98859942329824
 30
0.0
 11
39.93423372127166
 21
12.19464309266624
 31
0.0
  0
ARC
  5
68
330
2
100
AcDbEntity
  8
GAIKEI
 62
     1
370
    30
100
AcDbCircle
 10
39.83423348760488
 20
12.19464309266624
 30
0.0
 40
0.1000000336666666
100
AcDbArc
 50
0.0
 51
90.0
  0
LINE
  5
69
330
2
100
AcDbEntity
  8
GAIKEI
 62
     1
370
    30
100
AcDbLine
 10
39.68423343710487
 20
11.87904808641599
 30
0.0
 11
39.84045938970093
 21
11.88879328969687
 31
0.0
  0
ARC
  5
6A
330
2
100
AcDbEntity
  8
GAIKEI
 62
     1
370
    30
100
AcDbCircle
 10
39.83423348760488
 20
11.98859942329824
 30
0.0
 40
0.1000000336666667
100
AcDbArc
 50
273.5694009999975
 51
0.0
  0
LINE
  5
6B
330
2
100
AcDbEntity
  8
GAIKEI
370
    30
100
AcDbLine
 10
26.78422909410489
 20
31.24464950616624
 30
0.0
 11
26.68422916043823
 21
31.24464950616624
 31
0.0
  0
LINE
  5
6C
330
2
100
AcDbEntity
  8
GAIKEI
370
    30
100
AcDbLine
 10
26.68422916043823
 20
-14.65536594683374
 30
0.0
 11
21.21309491849036
 21
-14.65536594683374
 31
0.0
  0
LINE
  5
6D
330
2
100
AcDbEntity
  8
GAIKEI
 62
     1
370
    30
100
AcDbLine
 10
26.68422916043823
 20
-14.65536594683374
 30
0.0
 11
26.68422916043823
 21
31.33940873806853
 31
0.0
  0
ARC
  5
6E
330
2
100
AcDbEntity
  8
GAIKEI
370
    30
100
AcDbCircle
 10
20.18422687210489
 20
-13.10810192592169
 30
0.0
 40
1.000000336666666
100
AcDbArc
 50
180.0644760000002
 51
266.9999999999977
  0
LINE
  5
6F
330
2
100
AcDbEntity
  8
GAIKEI
370
    30
100
AcDbLine
 10
20.13189095448513
 20
-14.10673176212697
 30
0.0
 11
26.68422916043823
 21
-14.450125077736
 31
0.0
  0
LINE
  5
70
330
2
100
AcDbEntity
  8
GAIKEI
370
    30
100
AcDbLine
 10
19.18422663543822
 20
-9.475364402900481
 30
0.0
 11
19.18422663543822
 21
-13.10810192592169
 31
0.0
  0
LINE
  5
71
330
2
100
AcDbEntity
  8
GAIKEI
370
    30
100
AcDbLine
 10
19.18422663543822
 20
29.99738528625414
 30
0.0
 11
19.18422663543822
 21
28.7646485712329
 31
0.0
  0
LINE
  5
72
330
2
100
AcDbEntity
  8
GAIKEI
 62
     1
370
    30
100
AcDbLine
 10
19.75660012813728
 20
28.64464853083291
 30
0.0
 11
19.75660012813728
 21
-9.355364362500495
 31
0.0
  0
ARC
  5
73
330
2
100
AcDbEntity
  8
GAIKEI
370
    30
100
AcDbCircle
 10
20.18422687210489
 20
29.99738528625414
 30
0.0
 40
1.000000336666666
100
AcDbArc
 50
92.9999999999991
 51
179.9560750000001
  0
LINE
  5
74
330
2
100
AcDbEntity
  8
GAIKEI
370
    30
100
AcDbLine
 10
20.13189095448513
 20
30.99601512245937
 30
0.0
 11
26.68422916043823
 21
31.33940873806853
 31
0.0
  0
ARC
  5
75
330
2
100
AcDbEntity
  8
GAIKEI
370
    30
100
AcDbCircle
 10
21.21309491849036
 20
-14.60536613000044
 30
0.0
 40
0.0500000168333334
100
AcDbArc
 50
210.0000000000005
 51
270.0
  0
LINE
  5
76
330
2
100
AcDbEntity
  8
GAIKEI
370
    30
100
AcDbLine
 10
21.16979350391216
 20
-14.63036603841715
 30
0.0
 11
20.89042440985799
 21
-14.14648477551049
 31
0.0
  0
LINE
  5
77
330
2
100
AcDbEntity
  8
GAIKEI
370
    30
100
AcDbLine
 10
26.78422909410489
 20
-14.55536601316714
 30
0.0
 11
26.68422916043823
 21
-14.55536601316714
 31
0.0
  0
LINE
  5
78
330
2
100
AcDbEntity
  8
GAIKEI
 62
     1
370
    30
100
AcDbLine
 10
19.75649242810101
 20
28.64464853083291
 30
0.0
 11
19.75660012813728
 21
28.64464853083291
 31
0.0
  0
LINE
  5
79
330
2
100
AcDbEntity
  8
GAIKEI
 62
     1
370
    30
100
AcDbLine
 10
19.28422656910487
 20
-9.355364362500495
 30
0.0
 11
19.28422656910487
 21
-9.45536429616709
 31
0.0
  0
LINE
  5
7A
330
2
100
AcDbEntity
  8
GAIKEI
 62
     1
370
    30
100
AcDbLine
 10
19.28422656910487
 20
28.74464846449951
 30
0.0
 11
19.28422656910487
 21
28.66396223733517
 31
0.0
  0
ARC
  5
7B
330
2
100
AcDbEntity
  8
GAIKEI
 62
     1
370
    30
100
AcDbCircle
 10
19.30422667583826
 20
28.66396223733517
 30
0.0
 40
0.0200000067333334
100
AcDbArc
 50
180.0
 51
267.9999999999996
  0
LINE
  5
7C
330
2
100
AcDbEntity
  8
GAIKEI
 62
     1
370
    30
100
AcDbLine
 10
19.23248165168411
 20
-8.357048926401034
 30
0.0
 11
19.75649242810101
 21
-8.37534803256176
 31
0.0
  0
LINE
  5
7D
330
2
100
AcDbEntity
  8
GAIKEI
 62
     1
370
    30
100
AcDbLine
 10
19.23248165168411
 20
-4.357047679734421
 30
0.0
 11
19.75649242810101
 21
-4.375346485895022
 31
0.0
  0
LINE
  5
7E
330
2
100
AcDbEntity
  8
GAIKEI
 62
     1
370
    30
100
AcDbLine
 10
19.23248165168411
 20
-5.357047916401029
 30
0.0
 11
19.75649242810101
 21
-5.375347022561754
 31
0.0
  0
LINE
  5
7F
330
2
100
AcDbEntity
  8
GAIKEI
 62
     1
370
    30
100
AcDbLine
 10
19.75649242810101
 20
16.62717518495156
 30
0.0
 11
19.30331977553294
 21
16.64295939026556
 31
0.0
  0
LINE
  5
80
330
2
100
AcDbEntity
  8
GAIKEI
 62
     1
370
    30
100
AcDbLine
 10
19.75649242810101
 20
18.62717595828491
 30
0.0
 11
19.30331977553294
 21
18.64296016359896
 31
0.0
  0
LINE
  5
81
330
2
100
AcDbEntity
  8
GAIKEI
 62
     1
370
    30
100
AcDbLine
 10
19.23248165168411
 20
15.64295915359889
 30
0.0
 11
19.75649242810101
 21
15.62466004743822
 31
0.0
  0
LINE
  5
82
330
2
100
AcDbEntity
  8
GAIKEI
 62
     1
370
    30
100
AcDbLine
 10
19.23248165168411
 20
-7.357048689734426
 30
0.0
 11
19.75649242810101
 21
-7.375347495895027
 31
0.0
  0
LINE
  5
83
330
2
100
AcDbEntity
  8
GAIKEI
 62
     1
370
    30
100
AcDbLine
 10
19.75649242810101
 20
17.6271757216183
 30
0.0
 11
19.30331977553294
 21
17.64295962693222
 31
0.0
  0
LINE
  5
84
330
2
100
AcDbEntity
  8
GAIKEI
 62
     1
370
    30
100
AcDbLine
 10
19.23248165168411
 20
27.64296319359892
 30
0.0
 11
19.75649242810101
 21
27.62466408743819
 31
0.0
  0
LINE
  5
85
330
2
100
AcDbEntity
  8
GAIKEI
 62
     1
370
    30
100
AcDbLine
 10
19.23248165168411
 20
26.64296265693219
 30
0.0
 11
19.75649242810101
 21
26.62466385077164
 31
0.0
  0
LINE
  5
86
330
2
100
AcDbEntity
  8
GAIKEI
 62
     1
370
    30
100
AcDbLine
 10
19.23248165168411
 20
25.64296242026558
 30
0.0
 11
19.75649242810101
 21
25.62466361410498
 31
0.0
  0
ARC
  5
87
330
2
100
AcDbEntity
  8
GAIKEI
 62
     1
370
    30
100
AcDbCircle
 10
19.38422680277165
 20
-4.17142711724216
 30
0.0
 40
0.2000000673333333
100
AcDbArc
 50
119.7448810000012
 51
180.0
  0
ARC
  5
88
330
2
100
AcDbEntity
  8
GAIKEI
 62
     1
370
    30
100
AcDbCircle
 10
19.38422680277165
 20
-7.171428127242165
 30
0.0
 40
0.2000000673333333
100
AcDbArc
 50
119.7448810000012
 51
180.0
  0
ARC
  5
89
330
2
100
AcDbEntity
  8
GAIKEI
 62
     1
370
    30
100
AcDbCircle
 10
19.38422680277165
 20
-9.171428600575495
 30
0.0
 40
0.2000000673333333
100
AcDbArc
 50
119.7448810000012
 51
180.0
  0
ARC
  5
8A
330
2
100
AcDbEntity
  8
GAIKEI
 62
     1
370
    30
100
AcDbCircle
 10
19.38422680277165
 20
-6.17142759057549
 30
0.0
 40
0.2000000673333333
100
AcDbArc
 50
119.7448810000012
 51
180.0
  0
ARC
  5
8B
330
2
100
AcDbEntity
  8
GAIKEI
 62
     1
370
    30
100
AcDbCircle
 10
19.38422680277165
 20
-8.17142836390883
 30
0.0
 40
0.2000000673333333
100
AcDbArc
 50
119.7448810000012
 51
180.0
  0
ARC
  5
8C
330
2
100
AcDbEntity
  8
GAIKEI
 62
     1
370
    30
100
AcDbCircle
 10
19.38422680277165
 20
-5.171427353908825
 30
0.0
 40
0.2000000673333333
100
AcDbArc
 50
119.7448810000012
 51
180.0
  0
POLYLINE
  5
8D
330
2
100
AcDbEntity
  8
GAIKEI
 62
     1
370
    30
100
AcDb2dPolyline
 66
     1
 10
0.0
 20
0.0
 30
0.0
  0
VERTEX
  5
8E
330
8D
100
AcDbEntity
  8
GAIKEI
 62
     1
370
    30
100
AcDbVertex
100
AcDb2dVertex
 10
19.27321446539747
 20
18.9119999541756
 30
0.0
  0
VERTEX
  5
8F
330
8D
100
AcDbEntity
  8
GAIKEI
 62
     1
370
    30
100
AcDbVertex
100
AcDb2dVertex
 10
19.26932886408929
 20
18.90278665107382
 30
0.0
  0
VERTEX
  5
90
330
8D
100
AcDbEntity
  8
GAIKEI
 62
     1
370
    30
100
AcDbVertex
100
AcDb2dVertex
 10
19.26573186287834
 20
18.89346744793636
 30
0.0
  0
VERTEX
  5
91
330
8D
100
AcDbEntity
  8
GAIKEI
 62
     1
370
    30
100
AcDbVertex
100
AcDb2dVertex
 10
19.26263046183419
 20
18.88389774471454
 30
0.0
  0
VERTEX
  5
92
330
8D
100
AcDbEntity
  8
GAIKEI
 62
     1
370
    30
100
AcDbVertex
100
AcDb2dVertex
 10
19.26002736095779
 20
18.87416874143912
 30
0.0
  0
VERTEX
  5
93
330
8D
100
AcDbEntity
  8
GAIKEI
 62
     1
370
    30
100
AcDbVertex
100
AcDb2dVertex
 10
19.25763966015393
 20
18.86313653772493
 30
0.0
  0
VERTEX
  5
94
330
8D
100
AcDbEntity
  8
GAIKEI
 62
     1
370
    30
100
AcDbVertex
100
AcDb2dVertex
 10
19.25591345957281
 20
18.8519957339742
 30
0.0
  0
VERTEX
  5
95
330
8D
100
AcDbEntity
  8
GAIKEI
 62
     1
370
    30
100
AcDbVertex
100
AcDb2dVertex
 10
19.25487545922334
 20
18.84031163004056
 30
0.0
  0
VERTEX
  5
96
330
8D
100
AcDbEntity
  8
GAIKEI
 62
     1
370
    30
100
AcDbVertex
100
AcDb2dVertex
 10
19.25427455902104
 20
18.82858072609116
 30
0.0
  0
SEQEND
  5
97
330
8D
100
AcDbEntity
  8
GAIKEI
 62
     1
370
    30
  0
POLYLINE
  5
98
330
2
100
AcDbEntity
  8
GAIKEI
 62
     1
370
    30
100
AcDb2dPolyline
 66
     1
 10
0.0
 20
0.0
 30
0.0
  0
VERTEX
  5
99
330
98
100
AcDbEntity
  8
GAIKEI
 62
     1
370
    30
100
AcDbVertex
100
AcDb2dVertex
 10
19.27321446539747
 20
18.9119999541756
 30
0.0
  0
VERTEX
  5
9A
330
98
100
AcDbEntity
  8
GAIKEI
 62
     1
370
    30
100
AcDbVertex
100
AcDb2dVertex
 10
19.27868856724041
 20
18.92271115778175
 30
0.0
  0
VERTEX
  5
9B
330
98
100
AcDbEntity
  8
GAIKEI
 62
     1
370
    30
100
AcDbVertex
100
AcDb2dVertex
 10
19.28455746921628
 20
18.93319316131067
 30
0.0
  0
VERTEX
  5
9C
330
98
100
AcDbEntity
  8
GAIKEI
 62
     1
370
    30
100
AcDbVertex
100
AcDb2dVertex
 10
19.29123007146273
 20
18.94340126474742
 30
0.0
  0
VERTEX
  5
9D
330
98
100
AcDbEntity
  8
GAIKEI
 62
     1
370
    30
100
AcDbVertex
100
AcDb2dVertex
 10
19.29858247393804
 20
18.95314856802901
 30
0.0
  0
VERTEX
  5
9E
330
98
100
AcDbEntity
  8
GAIKEI
 62
     1
370
    30
100
AcDbVertex
100
AcDb2dVertex
 10
19.30947757760606
 20
18.96566127224162
 30
0.0
  0
VERTEX
  5
9F
330
98
100
AcDbEntity
  8
GAIKEI
 62
     1
370
    30
100
AcDbVertex
100
AcDb2dVertex
 10
19.32134078159998
 20
18.97725987614649
 30
0.0
  0
VERTEX
  5
A0
330
98
100
AcDbEntity
  8
GAIKEI
 62
     1
370
    30
100
AcDbVertex
100
AcDb2dVertex
 10
19.33450298603128
 20
18.98813697980841
 30
0.0
  0
VERTEX
  5
A1
330
98
100
AcDbEntity
  8
GAIKEI
 62
     1
370
    30
100
AcDbVertex
100
AcDb2dVertex
 10
19.34856729076625
 20
18.99779488305989
 30
0.0
  0
VERTEX
  5
A2
330
98
100
AcDbEntity
  8
GAIKEI
 62
     1
370
    30
100
AcDbVertex
100
AcDb2dVertex
 10
19.35225669200832
 20
19.00003438381389
 30
0.0
  0
VERTEX
  5
A3
330
98
100
AcDbEntity
  8
GAIKEI
 62
     1
370
    30
100
AcDbVertex
100
AcDb2dVertex
 10
19.35597279325941
 20
19.00222948455291
 30
0.0
  0
SEQEND
  5
A4
330
98
100
AcDbEntity
  8
GAIKEI
 62
     1
370
    30
  0
POLYLINE
  5
A5
330
2
100
AcDbEntity
  8
GAIKEI
 62
     1
370
    30
100
AcDb2dPolyline
 66
     1
 10
0.0
 20
0.0
 30
0.0
  0
VERTEX
  5
A6
330
A5
100
AcDbEntity
  8
GAIKEI
 62
     1
370
    30
100
AcDbVertex
100
AcDb2dVertex
 10
19.27321446539747
 20
17.91199971750899
 30
0.0
  0
VERTEX
  5
A7
330
A5
100
AcDbEntity
  8
GAIKEI
 62
     1
370
    30
100
AcDbVertex
100
AcDb2dVertex
 10
19.26932886408929
 20
17.90278611440709
 30
0.0
  0
VERTEX
  5
A8
330
A5
100
AcDbEntity
  8
GAIKEI
 62
     1
370
    30
100
AcDbVertex
100
AcDb2dVertex
 10
19.26573186287834
 20
17.89346721126969
 30
0.0
  0
VERTEX
  5
A9
330
A5
100
AcDbEntity
  8
GAIKEI
 62
     1
370
    30
100
AcDbVertex
100
AcDb2dVertex
 10
19.26263046183419
 20
17.88389720804781
 30
0.0
  0
VERTEX
  5
AA
330
A5
100
AcDbEntity
  8
GAIKEI
 62
     1
370
    30
100
AcDbVertex
100
AcDb2dVertex
 10
19.26002736095779
 20
17.87416850477251
 30
0.0
  0
VERTEX
  5
AB
330
A5
100
AcDbEntity
  8
GAIKEI
 62
     1
370
    30
100
AcDbVertex
100
AcDb2dVertex
 10
19.25763966015393
 20
17.86313630105832
 30
0.0
  0
VERTEX
  5
AC
330
A5
100
AcDbEntity
  8
GAIKEI
 62
     1
370
    30
100
AcDbVertex
100
AcDb2dVertex
 10
19.25591345957281
 20
17.8519954973076
 30
0.0
  0
VERTEX
  5
AD
330
A5
100
AcDbEntity
  8
GAIKEI
 62
     1
370
    30
100
AcDbVertex
100
AcDb2dVertex
 10
19.25487545922334
 20
17.84031139337395
 30
0.0
  0
VERTEX
  5
AE
330
A5
100
AcDbEntity
  8
GAIKEI
 62
     1
370
    30
100
AcDbVertex
100
AcDb2dVertex
 10
19.25427455902104
 20
17.82858048942455
 30
0.0
  0
SEQEND
  5
AF
330
A5
100
AcDbEntity
  8
GAIKEI
 62
     1
370
    30
  0
POLYLINE
  5
B0
330
2
100
AcDbEntity
  8
GAIKEI
 62
     1
370
    30
100
AcDb2dPolyline
 66
     1
 10
0.0
 20
0.0
 30
0.0
  0
VERTEX
  5
B1
330
B0
100
AcDbEntity
  8
GAIKEI
 62
     1
370
    30
100
AcDbVertex
100
AcDb2dVertex
 10
19.27321446539747
 20
17.91199971750899
 30
0.0
  0
VERTEX
  5
B2
330
B0
100
AcDbEntity
  8
GAIKEI
 62
     1
370
    30
100
AcDbVertex
100
AcDb2dVertex
 10
19.27868856724041
 20
17.92271092111508
 30
0.0
  0
VERTEX
  5
B3
330
B0
100
AcDbEntity
  8
GAIKEI
 62
     1
370
    30
100
AcDbVertex
100
AcDb2dVertex
 10
19.28455746921628
 20
17.933192924644
 30
0.0
  0
VERTEX
  5
B4
330
B0
100
AcDbEntity
  8
GAIKEI
 62
     1
370
    30
100
AcDbVertex
100
AcDb2dVertex
 10
19.29123007146273
 20
17.94340102808076
 30
0.0
  0
VERTEX
  5
B5
330
B0
100
AcDbEntity
  8
GAIKEI
 62
     1
370
    30
100
AcDbVertex
100
AcDb2dVertex
 10
19.29858247393804
 20
17.9531483313624
 30
0.0
  0
VERTEX
  5
B6
330
B0
100
AcDbEntity
  8
GAIKEI
 62
     1
370
    30
100
AcDbVertex
100
AcDb2dVertex
 10
19.30947757760606
 20
17.96566073557483
 30
0.0
  0
VERTEX
  5
B7
330
B0
100
AcDbEntity
  8
GAIKEI
 62
     1
370
    30
100
AcDbVertex
100
AcDb2dVertex
 10
19.32134078159998
 20
17.97725963947982
 30
0.0
  0
VERTEX
  5
B8
330
B0
100
AcDbEntity
  8
GAIKEI
 62
     1
370
    30
100
AcDbVertex
100
AcDb2dVertex
 10
19.33450298603128
 20
17.98813674314181
 30
0.0
  0
VERTEX
  5
B9
330
B0
100
AcDbEntity
  8
GAIKEI
 62
     1
370
    30
100
AcDbVertex
100
AcDb2dVertex
 10
19.34856729076625
 20
17.99779464639328
 30
0.0
  0
VERTEX
  5
BA
330
B0
100
AcDbEntity
  8
GAIKEI
 62
     1
370
    30
100
AcDbVertex
100
AcDb2dVertex
 10
19.35225669200832
 20
18.00003414714723
 30
0.0
  0
VERTEX
  5
BB
330
B0
100
AcDbEntity
  8
GAIKEI
 62
     1
370
    30
100
AcDbVertex
100
AcDb2dVertex
 10
19.35597279325941
 20
18.00222894788612
 30
0.0
  0
SEQEND
  5
BC
330
B0
100
AcDbEntity
  8
GAIKEI
 62
     1
370
    30
  0
ARC
  5
BD
330
2
100
AcDbEntity
  8
GAIKEI
 62
     1
370
    30
100
AcDbCircle
 10
19.38422680277165
 20
26.82858351942457
 30
0.0
 40
0.2000000673333333
100
AcDbArc
 50
119.7448810000012
 51
180.0
  0
ARC
  5
BE
330
2
100
AcDbEntity
  8
GAIKEI
 62
     1
370
    30
100
AcDbCircle
 10
19.38422680277165
 20
25.82858298275778
 30
0.0
 40
0.2000000673333333
100
AcDbArc
 50
119.7448810000012
 51
180.0
  0
ARC
  5
BF
330
2
100
AcDbEntity
  8
GAIKEI
 62
     1
370
    30
100
AcDbCircle
 10
19.38322660243489
 20
27.8291639562865
 30
0.0
 40
0.1990000669966667
100
AcDbArc
 50
119.7448810000012
 51
180.0
  0
POLYLINE
  5
C0
330
2
100
AcDbEntity
  8
GAIKEI
 62
     1
370
    30
100
AcDb2dPolyline
 66
     1
 10
0.0
 20
0.0
 30
0.0
  0
VERTEX
  5
C1
330
C0
100
AcDbEntity
  8
GAIKEI
 62
     1
370
    30
100
AcDbVertex
100
AcDb2dVertex
 10
19.27321446539747
 20
15.91199894417565
 30
0.0
  0
VERTEX
  5
C2
330
C0
100
AcDbEntity
  8
GAIKEI
 62
     1
370
    30
100
AcDbVertex
100
AcDb2dVertex
 10
19.26932886408929
 20
15.90278564107382
 30
0.0
  0
VERTEX
  5
C3
330
C0
100
AcDbEntity
  8
GAIKEI
 62
     1
370
    30
100
AcDbVertex
100
AcDb2dVertex
 10
19.26573186287834
 20
15.89346643793635
 30
0.0
  0
VERTEX
  5
C4
330
C0
100
AcDbEntity
  8
GAIKEI
 62
     1
370
    30
100
AcDbVertex
100
AcDb2dVertex
 10
19.26263046183419
 20
15.88389673471454
 30
0.0
  0
VERTEX
  5
C5
330
C0
100
AcDbEntity
  8
GAIKEI
 62
     1
370
    30
100
AcDbVertex
100
AcDb2dVertex
 10
19.26002736095779
 20
15.87416773143911
 30
0.0
  0
VERTEX
  5
C6
330
C0
100
AcDbEntity
  8
GAIKEI
 62
     1
370
    30
100
AcDbVertex
100
AcDb2dVertex
 10
19.25763966015393
 20
15.86313552772492
 30
0.0
  0
VERTEX
  5
C7
330
C0
100
AcDbEntity
  8
GAIKEI
 62
     1
370
    30
100
AcDbVertex
100
AcDb2dVertex
 10
19.25591345957281
 20
15.85199472397426
 30
0.0
  0
VERTEX
  5
C8
330
C0
100
AcDbEntity
  8
GAIKEI
 62
     1
370
    30
100
AcDbVertex
100
AcDb2dVertex
 10
19.25487545922334
 20
15.84031062004055
 30
0.0
  0
VERTEX
  5
C9
330
C0
100
AcDbEntity
  8
GAIKEI
 62
     1
370
    30
100
AcDbVertex
100
AcDb2dVertex
 10
19.25427455902104
 20
15.82857971609115
 30
0.0
  0
SEQEND
  5
CA
330
C0
100
AcDbEntity
  8
GAIKEI
 62
     1
370
    30
  0
POLYLINE
  5
CB
330
2
100
AcDbEntity
  8
GAIKEI
 62
     1
370
    30
100
AcDb2dPolyline
 66
     1
 10
0.0
 20
0.0
 30
0.0
  0
VERTEX
  5
CC
330
CB
100
AcDbEntity
  8
GAIKEI
 62
     1
370
    30
100
AcDbVertex
100
AcDb2dVertex
 10
19.27321446539747
 20
15.91199894417565
 30
0.0
  0
VERTEX
  5
CD
330
CB
100
AcDbEntity
  8
GAIKEI
 62
     1
370
    30
100
AcDbVertex
100
AcDb2dVertex
 10
19.27868856724041
 20
15.92271014778174
 30
0.0
  0
VERTEX
  5
CE
330
CB
100
AcDbEntity
  8
GAIKEI
 62
     1
370
    30
100
AcDbVertex
100
AcDb2dVertex
 10
19.28455746921628
 20
15.93319215131066
 30
0.0
  0
VERTEX
  5
CF
330
CB
100
AcDbEntity
  8
GAIKEI
 62
     1
370
    30
100
AcDbVertex
100
AcDb2dVertex
 10
19.29123007146273
 20
15.94340025474742
 30
0.0
  0
VERTEX
  5
D0
330
CB
100
AcDbEntity
  8
GAIKEI
 62
     1
370
    30
100
AcDbVertex
100
AcDb2dVertex
 10
19.29858247393804
 20
15.953147558029
 30
0.0
  0
VERTEX
  5
D1
330
CB
100
AcDbEntity
  8
GAIKEI
 62
     1
370
    30
100
AcDbVertex
100
AcDb2dVertex
 10
19.30947757760606
 20
15.96566026224161
 30
0.0
  0
VERTEX
  5
D2
330
CB
100
AcDbEntity
  8
GAIKEI
 62
     1
370
    30
100
AcDbVertex
100
AcDb2dVertex
 10
19.32134078159998
 20
15.97725886614648
 30
0.0
  0
VERTEX
  5
D3
330
CB
100
AcDbEntity
  8
GAIKEI
 62
     1
370
    30
100
AcDbVertex
100
AcDb2dVertex
 10
19.33450298603128
 20
15.98813596980841
 30
0.0
  0
VERTEX
  5
D4
330
CB
100
AcDbEntity
  8
GAIKEI
 62
     1
370
    30
100
AcDbVertex
100
AcDb2dVertex
 10
19.34856729076625
 20
15.99779387305989
 30
0.0
  0
VERTEX
  5
D5
330
CB
100
AcDbEntity
  8
GAIKEI
 62
     1
370
    30
100
AcDbVertex
100
AcDb2dVertex
 10
19.35225669200832
 20
16.00003337381389
 30
0.0
  0
VERTEX
  5
D6
330
CB
100
AcDbEntity
  8
GAIKEI
 62
     1
370
    30
100
AcDbVertex
100
AcDb2dVertex
 10
19.35597279325941
 20
16.00222847455291
 30
0.0
  0
SEQEND
  5
D7
330
CB
100
AcDbEntity
  8
GAIKEI
 62
     1
370
    30
  0
ARC
  5
D8
330
2
100
AcDbEntity
  8
GAIKEI
 62
     1
370
    30
100
AcDbCircle
 10
19.38422680277165
 20
19.82858096275777
 30
0.0
 40
0.2000000673333333
100
AcDbArc
 50
119.7448810000012
 51
180.0
  0
POLYLINE
  5
D9
330
2
100
AcDbEntity
  8
GAIKEI
 62
     1
370
    30
100
AcDb2dPolyline
 66
     1
 10
0.0
 20
0.0
 30
0.0
  0
VERTEX
  5
DA
330
D9
100
AcDbEntity
  8
GAIKEI
 62
     1
370
    30
100
AcDbVertex
100
AcDb2dVertex
 10
19.27321446539747
 20
16.91199918084226
 30
0.0
  0
VERTEX
  5
DB
330
D9
100
AcDbEntity
  8
GAIKEI
 62
     1
370
    30
100
AcDbVertex
100
AcDb2dVertex
 10
19.26932886408929
 20
16.90278587774048
 30
0.0
  0
VERTEX
  5
DC
330
D9
100
AcDbEntity
  8
GAIKEI
 62
     1
370
    30
100
AcDbVertex
100
AcDb2dVertex
 10
19.26573186287834
 20
16.89346697460308
 30
0.0
  0
VERTEX
  5
DD
330
D9
100
AcDbEntity
  8
GAIKEI
 62
     1
370
    30
100
AcDbVertex
100
AcDb2dVertex
 10
19.26263046183419
 20
16.8838969713812
 30
0.0
  0
VERTEX
  5
DE
330
D9
100
AcDbEntity
  8
GAIKEI
 62
     1
370
    30
100
AcDbVertex
100
AcDb2dVertex
 10
19.26002736095779
 20
16.87416826810585
 30
0.0
  0
VERTEX
  5
DF
330
D9
100
AcDbEntity
  8
GAIKEI
 62
     1
370
    30
100
AcDbVertex
100
AcDb2dVertex
 10
19.25763966015393
 20
16.86313576439158
 30
0.0
  0
VERTEX
  5
E0
330
D9
100
AcDbEntity
  8
GAIKEI
 62
     1
370
    30
100
AcDbVertex
100
AcDb2dVertex
 10
19.25591345957281
 20
16.85199496064081
 30
0.0
  0
VERTEX
  5
E1
330
D9
100
AcDbEntity
  8
GAIKEI
 62
     1
370
    30
100
AcDbVertex
100
AcDb2dVertex
 10
19.25487545922334
 20
16.84031115670734
 30
0.0
  0
VERTEX
  5
E2
330
D9
100
AcDbEntity
  8
GAIKEI
 62
     1
370
    30
100
AcDbVertex
100
AcDb2dVertex
 10
19.25427455902104
 20
16.82857995275776
 30
0.0
  0
SEQEND
  5
E3
330
D9
100
AcDbEntity
  8
GAIKEI
 62
     1
370
    30
  0
POLYLINE
  5
E4
330
2
100
AcDbEntity
  8
GAIKEI
 62
     1
370
    30
100
AcDb2dPolyline
 66
     1
 10
0.0
 20
0.0
 30
0.0
  0
VERTEX
  5
E5
330
E4
100
AcDbEntity
  8
GAIKEI
 62
     1
370
    30
100
AcDbVertex
100
AcDb2dVertex
 10
19.27321446539747
 20
16.91199918084226
 30
0.0
  0
VERTEX
  5
E6
330
E4
100
AcDbEntity
  8
GAIKEI
 62
     1
370
    30
100
AcDbVertex
100
AcDb2dVertex
 10
19.27868856724041
 20
16.92271038444835
 30
0.0
  0
VERTEX
  5
E7
330
E4
100
AcDbEntity
  8
GAIKEI
 62
     1
370
    30
100
AcDbVertex
100
AcDb2dVertex
 10
19.28455746921628
 20
16.93319238797733
 30
0.0
  0
VERTEX
  5
E8
330
E4
100
AcDbEntity
  8
GAIKEI
 62
     1
370
    30
100
AcDbVertex
100
AcDb2dVertex
 10
19.29123007146273
 20
16.94340049141402
 30
0.0
  0
VERTEX
  5
E9
330
E4
100
AcDbEntity
  8
GAIKEI
 62
     1
370
    30
100
AcDbVertex
100
AcDb2dVertex
 10
19.29858247393804
 20
16.95314809469573
 30
0.0
  0
VERTEX
  5
EA
330
E4
100
AcDbEntity
  8
GAIKEI
 62
     1
370
    30
100
AcDbVertex
100
AcDb2dVertex
 10
19.30947757760606
 20
16.96566049890828
 30
0.0
  0
VERTEX
  5
EB
330
E4
100
AcDbEntity
  8
GAIKEI
 62
     1
370
    30
100
AcDbVertex
100
AcDb2dVertex
 10
19.32134078159998
 20
16.97725940281316
 30
0.0
  0
VERTEX
  5
EC
330
E4
100
AcDbEntity
  8
GAIKEI
 62
     1
370
    30
100
AcDbVertex
100
AcDb2dVertex
 10
19.33450298603128
 20
16.98813620647502
 30
0.0
  0
VERTEX
  5
ED
330
E4
100
AcDbEntity
  8
GAIKEI
 62
     1
370
    30
100
AcDbVertex
100
AcDb2dVertex
 10
19.34856729076625
 20
16.99779440972668
 30
0.0
  0
VERTEX
  5
EE
330
E4
100
AcDbEntity
  8
GAIKEI
 62
     1
370
    30
100
AcDbVertex
100
AcDb2dVertex
 10
19.35225669200832
 20
17.0000336104805
 30
0.0
  0
VERTEX
  5
EF
330
E4
100
AcDbEntity
  8
GAIKEI
 62
     1
370
    30
100
AcDbVertex
100
AcDb2dVertex
 10
19.35597279325941
 20
17.00222871121957
 30
0.0
  0
SEQEND
  5
F0
330
E4
100
AcDbEntity
  8
GAIKEI
 62
     1
370
    30
  0
LINE
  5
F1
330
2
100
AcDbEntity
  8
GAIKEI
 62
     1
370
    30
100
AcDbLine
 10
19.75649242810101
 20
28.27165750525927
 30
0.0
 11
19.28449506919526
 21
28.00194451445594
 31
0.0
  0
LINE
  5
F2
330
2
100
AcDbEntity
  8
GAIKEI
 62
     1
370
    30
100
AcDbLine
 10
19.35597279325941
 20
19.00222948455291
 30
0.0
 11
19.75649212810089
 21
19.23050316140501
 31
0.0
  0
LINE
  5
F3
330
2
100
AcDbEntity
  8
GAIKEI
 62
     1
370
    30
100
AcDbLine
 10
19.75649242810101
 20
26.27165673192588
 30
0.0
 11
19.28499876936484
 21
26.00223174121953
 31
0.0
  0
LINE
  5
F4
330
2
100
AcDbEntity
  8
GAIKEI
 62
     1
370
    30
100
AcDbLine
 10
19.75649242810101
 20
27.27165696859254
 30
0.0
 11
19.28499876936484
 21
27.00223197788614
 31
0.0
  0
LINE
  5
F5
330
2
100
AcDbEntity
  8
GAIKEI
 62
     1
370
    30
100
AcDbLine
 10
19.35597279325941
 20
17.00222871121957
 30
0.0
 11
19.75649212810089
 21
17.23050238807161
 31
0.0
  0
LINE
  5
F6
330
2
100
AcDbEntity
  8
GAIKEI
 62
     1
370
    30
100
AcDbLine
 10
19.75649242810101
 20
20.27165471192592
 30
0.0
 11
19.28499876936484
 21
20.00222972121952
 31
0.0
  0
LINE
  5
F7
330
2
100
AcDbEntity
  8
GAIKEI
 62
     1
370
    30
100
AcDbLine
 10
19.35597279325941
 20
16.00222847455291
 30
0.0
 11
19.75649212810089
 21
16.230502151405
 31
0.0
  0
LINE
  5
F8
330
2
100
AcDbEntity
  8
GAIKEI
 62
     1
370
    30
100
AcDbLine
 10
19.35597279325941
 20
18.00222894788612
 30
0.0
 11
19.75649212810089
 21
18.2305029247384
 31
0.0
  0
LINE
  5
F9
330
2
100
AcDbEntity
  8
GAIKEI
 62
     1
370
    30
100
AcDbLine
 10
19.75649242810101
 20
-3.728353368074067
 30
0.0
 11
19.28499876936484
 21
-3.997778358780465
 31
0.0
  0
LINE
  5
FA
330
2
100
AcDbEntity
  8
GAIKEI
 62
     1
370
    30
100
AcDbLine
 10
19.75649242810101
 20
-7.728354614740737
 30
0.0
 11
19.28499876936484
 21
-7.997779605447135
 31
0.0
  0
LINE
  5
FB
330
2
100
AcDbEntity
  8
GAIKEI
 62
     1
370
    30
100
AcDbLine
 10
19.75649242810101
 20
-6.728354378074072
 30
0.0
 11
19.28499876936484
 21
-6.99777936878047
 31
0.0
  0
LINE
  5
FC
330
2
100
AcDbEntity
  8
GAIKEI
 62
     1
370
    30
100
AcDbLine
 10
19.75649242810101
 20
-5.728354141407464
 30
0.0
 11
19.28499876936484
 21
-5.997779132113805
 31
0.0
  0
LINE
  5
FD
330
2
100
AcDbEntity
  8
GAIKEI
 62
     1
370
    30
100
AcDbLine
 10
19.75649242810101
 20
-4.728353604740732
 30
0.0
 11
19.28499876936484
 21
-4.99777859544713
 31
0.0
  0
LINE
  5
FE
330
2
100
AcDbEntity
  8
GAIKEI
 62
     1
370
    30
100
AcDbLine
 10
19.75649242810101
 20
-8.728355151407413
 30
0.0
 11
19.28499876936484
 21
-8.997780142113811
 31
0.0
  0
ARC
  5
FF
330
2
100
AcDbEntity
  8
GAIKEI
 62
     1
370
    30
100
AcDbCircle
 10
19.20422674217161
 20
-9.475364402900481
 30
0.0
 40
0.0200000067333334
100
AcDbArc
 50
90.0
 51
180.0
  0
ARC
  5
100
330
2
100
AcDbEntity
  8
GAIKEI
 62
     1
370
    30
100
AcDbCircle
 10
19.20422674217161
 20
28.7646485712329
 30
0.0
 40
0.0200000067333334
100
AcDbArc
 50
180.0
 51
270.0
  0
LINE
  5
101
330
2
100
AcDbEntity
  8
GAIKEI
 62
     1
370
    30
100
AcDbLine
 10
19.30352857560319
 20
28.64397443060591
 30
0.0
 11
19.75649242810101
 21
28.62815662528061
 31
0.0
  0
ARC
  5
102
330
2
100
AcDbEntity
  8
GAIKEI
 62
     1
370
    30
100
AcDbCircle
 10
19.23422675227164
 20
-9.305364245667135
 30
0.0
 40
0.0500000168333334
100
AcDbArc
 50
180.0
 51
270.0
  0
LINE
  5
103
330
2
100
AcDbEntity
  8
GAIKEI
 62
     1
370
    30
100
AcDbLine
 10
19.75660012813728
 20
-9.355364362500495
 30
0.0
 11
19.23422675227164
 21
-9.355364362500495
 31
0.0
  0
POLYLINE
  5
104
330
2
100
AcDbEntity
  8
GAIKEI
 62
     1
370
    30
100
AcDb2dPolyline
 66
     1
 10
0.0
 20
0.0
 30
0.0
  0
VERTEX
  5
105
330
104
100
AcDbEntity
  8
GAIKEI
 62
     1
370
    30
100
AcDbVertex
100
AcDb2dVertex
 10
19.27321446539747
 20
18.65432236742424
 30
0.0
  0
VERTEX
  5
106
330
104
100
AcDbEntity
  8
GAIKEI
 62
     1
370
    30
100
AcDbVertex
100
AcDb2dVertex
 10
19.27445676581573
 20
18.65334706709586
 30
0.0
  0
VERTEX
  5
107
330
104
100
AcDbEntity
  8
GAIKEI
 62
     1
370
    30
100
AcDbVertex
100
AcDb2dVertex
 10
19.27571736624009
 20
18.65239666677587
 30
0.0
  0
VERTEX
  5
108
330
104
100
AcDbEntity
  8
GAIKEI
 62
     1
370
    30
100
AcDbVertex
100
AcDb2dVertex
 10
19.27701636667746
 20
18.65148856647016
 30
0.0
  0
VERTEX
  5
109
330
104
100
AcDbEntity
  8
GAIKEI
 62
     1
370
    30
100
AcDbVertex
100
AcDb2dVertex
 10
19.27834686712538
 20
18.65062606617977
 30
0.0
  0
VERTEX
  5
10A
330
104
100
AcDbEntity
  8
GAIKEI
 62
     1
370
    30
100
AcDbVertex
100
AcDb2dVertex
 10
19.28196006834184
 20
18.6485614654847
 30
0.0
  0
VERTEX
  5
10B
330
104
100
AcDbEntity
  8
GAIKEI
 62
     1
370
    30
100
AcDbVertex
100
AcDb2dVertex
 10
19.28573076961129
 20
18.64679986489164
 30
0.0
  0
VERTEX
  5
10C
330
104
100
AcDbEntity
  8
GAIKEI
 62
     1
370
    30
100
AcDbVertex
100
AcDb2dVertex
 10
19.28974927096419
 20
18.64532476439501
 30
0.0
  0
VERTEX
  5
10D
330
104
100
AcDbEntity
  8
GAIKEI
 62
     1
370
    30
100
AcDbVertex
100
AcDb2dVertex
 10
19.29387787235413
 20
18.64419136401341
 30
0.0
  0
VERTEX
  5
10E
330
104
100
AcDbEntity
  8
GAIKEI
 62
     1
370
    30
100
AcDbVertex
100
AcDb2dVertex
 10
19.29620317313703
 20
18.64371196385207
 30
0.0
  0
VERTEX
  5
10F
330
104
100
AcDbEntity
  8
GAIKEI
 62
     1
370
    30
100
AcDbVertex
100
AcDb2dVertex
 10
19.29854827392654
 20
18.64335436373164
 30
0.0
  0
VERTEX
  5
110
330
104
100
AcDbEntity
  8
GAIKEI
 62
     1
370
    30
100
AcDbVertex
100
AcDb2dVertex
 10
19.30092997472837
 20
18.64312126365314
 30
0.0
  0
VERTEX
  5
111
330
104
100
AcDbEntity
  8
GAIKEI
 62
     1
370
    30
100
AcDbVertex
100
AcDb2dVertex
 10
19.30331977553294
 20
18.64296016359896
 30
0.0
  0
SEQEND
  5
112
330
104
100
AcDbEntity
  8
GAIKEI
 62
     1
370
    30
  0
POLYLINE
  5
113
330
2
100
AcDbEntity
  8
GAIKEI
 62
     1
370
    30
100
AcDb2dPolyline
 66
     1
 10
0.0
 20
0.0
 30
0.0
  0
VERTEX
  5
114
330
113
100
AcDbEntity
  8
GAIKEI
 62
     1
370
    30
100
AcDbVertex
100
AcDb2dVertex
 10
19.25427455902104
 20
18.69292968042202
 30
0.0
  0
VERTEX
  5
115
330
113
100
AcDbEntity
  8
GAIKEI
 62
     1
370
    30
100
AcDbVertex
100
AcDb2dVertex
 10
19.25585705955382
 20
18.68305547709769
 30
0.0
  0
VERTEX
  5
116
330
113
100
AcDbEntity
  8
GAIKEI
 62
     1
370
    30
100
AcDbVertex
100
AcDb2dVertex
 10
19.2586071604797
 20
18.67356107390122
 30
0.0
  0
VERTEX
  5
117
330
113
100
AcDbEntity
  8
GAIKEI
 62
     1
370
    30
100
AcDbVertex
100
AcDb2dVertex
 10
19.26186906157784
 20
18.66716567174808
 30
0.0
  0
VERTEX
  5
118
330
113
100
AcDbEntity
  8
GAIKEI
 62
     1
370
    30
100
AcDbVertex
100
AcDb2dVertex
 10
19.2661395630156
 20
18.66136936979671
 30
0.0
  0
VERTEX
  5
119
330
113
100
AcDbEntity
  8
GAIKEI
 62
     1
370
    30
100
AcDbVertex
100
AcDb2dVertex
 10
19.26957996417388
 20
18.65774866857771
 30
0.0
  0
VERTEX
  5
11A
330
113
100
AcDbEntity
  8
GAIKEI
 62
     1
370
    30
100
AcDbVertex
100
AcDb2dVertex
 10
19.27321446539747
 20
18.65432236742424
 30
0.0
  0
SEQEND
  5
11B
330
113
100
AcDbEntity
  8
GAIKEI
 62
     1
370
    30
  0
POLYLINE
  5
11C
330
2
100
AcDbEntity
  8
GAIKEI
 62
     1
370
    30
100
AcDb2dPolyline
 66
     1
 10
0.0
 20
0.0
 30
0.0
  0
VERTEX
  5
11D
330
11C
100
AcDbEntity
  8
GAIKEI
 62
     1
370
    30
100
AcDbVertex
100
AcDb2dVertex
 10
19.27321446539747
 20
17.65432213075758
 30
0.0
  0
VERTEX
  5
11E
330
11C
100
AcDbEntity
  8
GAIKEI
 62
     1
370
    30
100
AcDbVertex
100
AcDb2dVertex
 10
19.27445676581573
 20
17.65334653042913
 30
0.0
  0
VERTEX
  5
11F
330
11C
100
AcDbEntity
  8
GAIKEI
 62
     1
370
    30
100
AcDbVertex
100
AcDb2dVertex
 10
19.27571736624009
 20
17.65239643010926
 30
0.0
  0
VERTEX
  5
120
330
11C
100
AcDbEntity
  8
GAIKEI
 62
     1
370
    30
100
AcDbVertex
100
AcDb2dVertex
 10
19.27701636667746
 20
17.65148832980355
 30
0.0
  0
VERTEX
  5
121
330
11C
100
AcDbEntity
  8
GAIKEI
 62
     1
370
    30
100
AcDbVertex
100
AcDb2dVertex
 10
19.27834686712538
 20
17.65062552951303
 30
0.0
  0
VERTEX
  5
122
330
11C
100
AcDbEntity
  8
GAIKEI
 62
     1
370
    30
100
AcDbVertex
100
AcDb2dVertex
 10
19.28196006834184
 20
17.64856122881804
 30
0.0
  0
VERTEX
  5
123
330
11C
100
AcDbEntity
  8
GAIKEI
 62
     1
370
    30
100
AcDbVertex
100
AcDb2dVertex
 10
19.28573076961129
 20
17.64679962822504
 30
0.0
  0
VERTEX
  5
124
330
11C
100
AcDbEntity
  8
GAIKEI
 62
     1
370
    30
100
AcDbVertex
100
AcDb2dVertex
 10
19.28974927096419
 20
17.64532422772828
 30
0.0
  0
VERTEX
  5
125
330
11C
100
AcDbEntity
  8
GAIKEI
 62
     1
370
    30
100
AcDbVertex
100
AcDb2dVertex
 10
19.29387787235413
 20
17.6441911273468
 30
0.0
  0
VERTEX
  5
126
330
11C
100
AcDbEntity
  8
GAIKEI
 62
     1
370
    30
100
AcDbVertex
100
AcDb2dVertex
 10
19.29620317313703
 20
17.64371142718528
 30
0.0
  0
VERTEX
  5
127
330
11C
100
AcDbEntity
  8
GAIKEI
 62
     1
370
    30
100
AcDbVertex
100
AcDb2dVertex
 10
19.29854827392654
 20
17.64335412706498
 30
0.0
  0
VERTEX
  5
128
330
11C
100
AcDbEntity
  8
GAIKEI
 62
     1
370
    30
100
AcDbVertex
100
AcDb2dVertex
 10
19.30092997472837
 20
17.64312102698653
 30
0.0
  0
VERTEX
  5
129
330
11C
100
AcDbEntity
  8
GAIKEI
 62
     1
370
    30
100
AcDbVertex
100
AcDb2dVertex
 10
19.30331977553294
 20
17.64295962693222
 30
0.0
  0
SEQEND
  5
12A
330
11C
100
AcDbEntity
  8
GAIKEI
 62
     1
370
    30
  0
POLYLINE
  5
12B
330
2
100
AcDbEntity
  8
GAIKEI
 62
     1
370
    30
100
AcDb2dPolyline
 66
     1
 10
0.0
 20
0.0
 30
0.0
  0
VERTEX
  5
12C
330
12B
100
AcDbEntity
  8
GAIKEI
 62
     1
370
    30
100
AcDbVertex
100
AcDb2dVertex
 10
19.25427455902104
 20
17.69292914375524
 30
0.0
  0
VERTEX
  5
12D
330
12B
100
AcDbEntity
  8
GAIKEI
 62
     1
370
    30
100
AcDbVertex
100
AcDb2dVertex
 10
19.25585705955382
 20
17.68305494043096
 30
0.0
  0
VERTEX
  5
12E
330
12B
100
AcDbEntity
  8
GAIKEI
 62
     1
370
    30
100
AcDbVertex
100
AcDb2dVertex
 10
19.2586071604797
 20
17.67356053723449
 30
0.0
  0
VERTEX
  5
12F
330
12B
100
AcDbEntity
  8
GAIKEI
 62
     1
370
    30
100
AcDbVertex
100
AcDb2dVertex
 10
19.26186906157784
 20
17.66716543508147
 30
0.0
  0
VERTEX
  5
130
330
12B
100
AcDbEntity
  8
GAIKEI
 62
     1
370
    30
100
AcDbVertex
100
AcDb2dVertex
 10
19.2661395630156
 20
17.66136883312998
 30
0.0
  0
VERTEX
  5
131
330
12B
100
AcDbEntity
  8
GAIKEI
 62
     1
370
    30
100
AcDbVertex
100
AcDb2dVertex
 10
19.26957996417388
 20
17.65774813191103
 30
0.0
  0
VERTEX
  5
132
330
12B
100
AcDbEntity
  8
GAIKEI
 62
     1
370
    30
100
AcDbVertex
100
AcDb2dVertex
 10
19.27321446539747
 20
17.65432213075758
 30
0.0
  0
SEQEND
  5
133
330
12B
100
AcDbEntity
  8
GAIKEI
 62
     1
370
    30
  0
ARC
  5
134
330
2
100
AcDbEntity
  8
GAIKEI
 62
     1
370
    30
100
AcDbCircle
 10
19.23422675227164
 20
15.69292867042202
 30
0.0
 40
0.0500000168333334
100
AcDbArc
 50
180.0
 51
267.9999999999996
  0
POLYLINE
  5
135
330
2
100
AcDbEntity
  8
GAIKEI
 62
     1
370
    30
100
AcDb2dPolyline
 66
     1
 10
0.0
 20
0.0
 30
0.0
  0
VERTEX
  5
136
330
135
100
AcDbEntity
  8
GAIKEI
 62
     1
370
    30
100
AcDbVertex
100
AcDb2dVertex
 10
19.27321446539747
 20
16.65432189409091
 30
0.0
  0
VERTEX
  5
137
330
135
100
AcDbEntity
  8
GAIKEI
 62
     1
370
    30
100
AcDbVertex
100
AcDb2dVertex
 10
19.27445676581573
 20
16.65334629376252
 30
0.0
  0
VERTEX
  5
138
330
135
100
AcDbEntity
  8
GAIKEI
 62
     1
370
    30
100
AcDbVertex
100
AcDb2dVertex
 10
19.27571736624009
 20
16.65239619344265
 30
0.0
  0
VERTEX
  5
139
330
135
100
AcDbEntity
  8
GAIKEI
 62
     1
370
    30
100
AcDbVertex
100
AcDb2dVertex
 10
19.27701636667746
 20
16.65148779313676
 30
0.0
  0
VERTEX
  5
13A
330
135
100
AcDbEntity
  8
GAIKEI
 62
     1
370
    30
100
AcDbVertex
100
AcDb2dVertex
 10
19.27834686712538
 20
16.65062529284643
 30
0.0
  0
VERTEX
  5
13B
330
135
100
AcDbEntity
  8
GAIKEI
 62
     1
370
    30
100
AcDbVertex
100
AcDb2dVertex
 10
19.28196006834184
 20
16.64856069215136
 30
0.0
  0
VERTEX
  5
13C
330
135
100
AcDbEntity
  8
GAIKEI
 62
     1
370
    30
100
AcDbVertex
100
AcDb2dVertex
 10
19.28573076961129
 20
16.64679909155825
 30
0.0
  0
VERTEX
  5
13D
330
135
100
AcDbEntity
  8
GAIKEI
 62
     1
370
    30
100
AcDbVertex
100
AcDb2dVertex
 10
19.28974927096419
 20
16.64532399106167
 30
0.0
  0
VERTEX
  5
13E
330
135
100
AcDbEntity
  8
GAIKEI
 62
     1
370
    30
100
AcDbVertex
100
AcDb2dVertex
 10
19.29387787235413
 20
16.64419089068019
 30
0.0
  0
VERTEX
  5
13F
330
135
100
AcDbEntity
  8
GAIKEI
 62
     1
370
    30
100
AcDbVertex
100
AcDb2dVertex
 10
19.29620317313703
 20
16.64371119051867
 30
0.0
  0
VERTEX
  5
140
330
135
100
AcDbEntity
  8
GAIKEI
 62
     1
370
    30
100
AcDbVertex
100
AcDb2dVertex
 10
19.29854827392654
 20
16.6433535903983
 30
0.0
  0
VERTEX
  5
141
330
135
100
AcDbEntity
  8
GAIKEI
 62
     1
370
    30
100
AcDbVertex
100
AcDb2dVertex
 10
19.30092997472837
 20
16.64312079031993
 30
0.0
  0
VERTEX
  5
142
330
135
100
AcDbEntity
  8
GAIKEI
 62
     1
370
    30
100
AcDbVertex
100
AcDb2dVertex
 10
19.30331977553294
 20
16.64295939026556
 30
0.0
  0
SEQEND
  5
143
330
135
100
AcDbEntity
  8
GAIKEI
 62
     1
370
    30
  0
POLYLINE
  5
144
330
2
100
AcDbEntity
  8
GAIKEI
 62
     1
370
    30
100
AcDb2dPolyline
 66
     1
 10
0.0
 20
0.0
 30
0.0
  0
VERTEX
  5
145
330
144
100
AcDbEntity
  8
GAIKEI
 62
     1
370
    30
100
AcDbVertex
100
AcDb2dVertex
 10
19.25427455902104
 20
16.69292890708863
 30
0.0
  0
VERTEX
  5
146
330
144
100
AcDbEntity
  8
GAIKEI
 62
     1
370
    30
100
AcDbVertex
100
AcDb2dVertex
 10
19.25585705955382
 20
16.68305470376435
 30
0.0
  0
VERTEX
  5
147
330
144
100
AcDbEntity
  8
GAIKEI
 62
     1
370
    30
100
AcDbVertex
100
AcDb2dVertex
 10
19.2586071604797
 20
16.67356030056788
 30
0.0
  0
VERTEX
  5
148
330
144
100
AcDbEntity
  8
GAIKEI
 62
     1
370
    30
100
AcDbVertex
100
AcDb2dVertex
 10
19.26186906157784
 20
16.66716489841474
 30
0.0
  0
VERTEX
  5
149
330
144
100
AcDbEntity
  8
GAIKEI
 62
     1
370
    30
100
AcDbVertex
100
AcDb2dVertex
 10
19.2661395630156
 20
16.66136859646332
 30
0.0
  0
VERTEX
  5
14A
330
144
100
AcDbEntity
  8
GAIKEI
 62
     1
370
    30
100
AcDbVertex
100
AcDb2dVertex
 10
19.26957996417388
 20
16.65774789524437
 30
0.0
  0
VERTEX
  5
14B
330
144
100
AcDbEntity
  8
GAIKEI
 62
     1
370
    30
100
AcDbVertex
100
AcDb2dVertex
 10
19.27321446539747
 20
16.65432189409091
 30
0.0
  0
SEQEND
  5
14C
330
144
100
AcDbEntity
  8
GAIKEI
 62
     1
370
    30
  0
ARC
  5
14D
330
2
100
AcDbEntity
  8
GAIKEI
 62
     1
370
    30
100
AcDbCircle
 10
19.23422675227164
 20
-8.307079409578022
 30
0.0
 40
0.0500000168333334
100
AcDbArc
 50
180.0
 51
267.9999999999996
  0
ARC
  5
14E
330
2
100
AcDbEntity
  8
GAIKEI
 62
     1
370
    30
100
AcDbCircle
 10
19.23422675227164
 20
-7.307079172911358
 30
0.0
 40
0.0500000168333334
100
AcDbArc
 50
180.0
 51
267.9999999999996
  0
ARC
  5
14F
330
2
100
AcDbEntity
  8
GAIKEI
 62
     1
370
    30
100
AcDbCircle
 10
19.23422675227164
 20
26.69293217375525
 30
0.0
 40
0.0500000168333334
100
AcDbArc
 50
180.0
 51
267.9999999999996
  0
ARC
  5
150
330
2
100
AcDbEntity
  8
GAIKEI
 62
     1
370
    30
100
AcDbCircle
 10
19.23422675227164
 20
25.69293193708859
 30
0.0
 40
0.0500000168333334
100
AcDbArc
 50
180.0
 51
267.9999999999996
  0
ARC
  5
151
330
2
100
AcDbEntity
  8
GAIKEI
 62
     1
370
    30
100
AcDbCircle
 10
19.23422675227164
 20
27.69293271042204
 30
0.0
 40
0.0500000168333334
100
AcDbArc
 50
180.0
 51
267.9999999999996
  0
ARC
  5
152
330
2
100
AcDbEntity
  8
GAIKEI
 62
     1
370
    30
100
AcDbCircle
 10
19.23422675227164
 20
-5.307078399578017
 30
0.0
 40
0.0500000168333334
100
AcDbArc
 50
180.0
 51
267.9999999999996
  0
ARC
  5
153
330
2
100
AcDbEntity
  8
GAIKEI
 62
     1
370
    30
100
AcDbCircle
 10
19.23422675227164
 20
-4.307078162911352
 30
0.0
 40
0.0500000168333334
100
AcDbArc
 50
180.0
 51
267.9999999999996
  0
ARC
  5
154
330
2
100
AcDbEntity
  8
GAIKEI
 62
     1
370
    30
100
AcDbCircle
 10
19.23422675227164
 20
-6.307078936244693
 30
0.0
 40
0.0500000168333334
100
AcDbArc
 50
180.0
 51
267.9999999999996
  0
LINE
  5
155
330
2
100
AcDbEntity
  8
GAIKEI
 62
     1
370
    30
100
AcDbLine
 10
19.18422663543822
 20
-5.171427353908825
 30
0.0
 11
19.18422663543822
 21
-5.307078399578017
 31
0.0
  0
LINE
  5
156
330
2
100
AcDbEntity
  8
GAIKEI
 62
     1
370
    30
100
AcDbLine
 10
19.18422663543822
 20
-7.171428127242165
 30
0.0
 11
19.18422663543822
 21
-7.307079172911358
 31
0.0
  0
LINE
  5
157
330
2
100
AcDbEntity
  8
GAIKEI
 62
     1
370
    30
100
AcDbLine
 10
19.18422663543822
 20
-8.17142836390883
 30
0.0
 11
19.18422663543822
 21
-8.307079409578022
 31
0.0
  0
LINE
  5
158
330
2
100
AcDbEntity
  8
GAIKEI
 62
     1
370
    30
100
AcDbLine
 10
19.18422663543822
 20
-4.17142711724216
 30
0.0
 11
19.18422663543822
 21
-4.307078162911352
 31
0.0
  0
LINE
  5
159
330
2
100
AcDbEntity
  8
GAIKEI
 62
     1
370
    30
100
AcDbLine
 10
19.18422663543822
 20
-9.171428600575495
 30
0.0
 11
19.18422663543822
 21
-9.305364245667135
 31
0.0
  0
LINE
  5
15A
330
2
100
AcDbEntity
  8
GAIKEI
 62
     1
370
    30
100
AcDbLine
 10
19.18422663543822
 20
-6.17142759057549
 30
0.0
 11
19.18422663543822
 21
-6.307078936244693
 31
0.0
  0
LINE
  5
15B
330
2
100
AcDbEntity
  8
GAIKEI
 62
     1
370
    30
100
AcDbLine
 10
19.18422663543822
 20
26.82858351942457
 30
0.0
 11
19.18422663543822
 21
26.69293217375525
 31
0.0
  0
LINE
  5
15C
330
2
100
AcDbEntity
  8
GAIKEI
 62
     1
370
    30
100
AcDbLine
 10
19.18422663543822
 20
19.64595440127357
 30
0.0
 11
19.25123375799728
 21
19.64536970107667
 31
0.0
  0
LINE
  5
15D
330
2
100
AcDbEntity
  8
GAIKEI
 62
     1
370
    30
100
AcDbLine
 10
19.18422663543822
 20
15.94333515472544
 30
0.0
 11
19.18422663543822
 21
15.69292867042202
 31
0.0
  0
LINE
  5
15E
330
2
100
AcDbEntity
  8
GAIKEI
 62
     1
370
    30
100
AcDbLine
 10
19.18422663543822
 20
19.82858096275777
 30
0.0
 11
19.18422663543822
 21
19.64595440127357
 31
0.0
  0
LINE
  5
15F
330
2
100
AcDbEntity
  8
GAIKEI
 62
     1
370
    30
100
AcDbLine
 10
19.18422663543822
 20
15.94333515472544
 30
0.0
 11
19.25123375799728
 21
15.94391985492234
 31
0.0
  0
LINE
  5
160
330
2
100
AcDbEntity
  8
GAIKEI
 62
     1
370
    30
100
AcDbLine
 10
19.25123375799728
 20
19.64536970107667
 30
0.0
 11
19.25123375799728
 21
15.94391985492234
 31
0.0
  0
LINE
  5
161
330
2
100
AcDbEntity
  8
GAIKEI
 62
     1
370
    30
100
AcDbLine
 10
19.18422663543822
 20
25.82858298275778
 30
0.0
 11
19.18422663543822
 21
25.69293193708859
 31
0.0
  0
LINE
  5
162
330
2
100
AcDbEntity
  8
GAIKEI
 62
     1
370
    30
100
AcDbLine
 10
19.18422663543822
 20
27.8291639562865
 30
0.0
 11
19.18422663543822
 21
27.69293271042204
 31
0.0
  0
POLYLINE
  5
163
330
2
100
AcDbEntity
  8
GAIKEI
370
    30
100
AcDb2dPolyline
 66
     1
 10
0.0
 20
0.0
 30
0.0
  0
VERTEX
  5
164
330
163
100
AcDbEntity
  8
GAIKEI
370
    30
100
AcDbVertex
100
AcDb2dVertex
 10
35.16074491419761
 20
30.90160119067338
 30
0.0
  0
VERTEX
  5
165
330
163
100
AcDbEntity
  8
GAIKEI
370
    30
100
AcDbVertex
100
AcDb2dVertex
 10
35.16423961537413
 20
30.90138939060205
 30
0.0
  0
VERTEX
  5
166
330
163
100
AcDbEntity
  8
GAIKEI
370
    30
100
AcDbVertex
100
AcDb2dVertex
 10
35.16773401655058
 20
30.90117039052837
 30
0.0
  0
VERTEX
  5
167
330
163
100
AcDbEntity
  8
GAIKEI
370
    30
100
AcDbVertex
100
AcDb2dVertex
 10
35.18922572378614
 20
30.89951348997045
 30
0.0
  0
VERTEX
  5
168
330
163
100
AcDbEntity
  8
GAIKEI
370
    30
100
AcDbVertex
100
AcDb2dVertex
 10
35.21067063100588
 20
30.89733368923663
 30
0.0
  0
VERTEX
  5
169
330
163
100
AcDbEntity
  8
GAIKEI
370
    30
100
AcDbVertex
100
AcDb2dVertex
 10
35.2114539312696
 20
30.89724428920653
 30
0.0
  0
VERTEX
  5
16A
330
163
100
AcDbEntity
  8
GAIKEI
370
    30
100
AcDbVertex
100
AcDb2dVertex
 10
35.21223753153345
 20
30.89715488917648
 30
0.0
  0
SEQEND
  5
16B
330
163
100
AcDbEntity
  8
GAIKEI
370
    30
  0
POLYLINE
  5
16C
330
2
100
AcDbEntity
  8
GAIKEI
370
    30
100
AcDb2dPolyline
 66
     1
 10
0.0
 20
0.0
 30
0.0
  0
VERTEX
  5
16D
330
16C
100
AcDbEntity
  8
GAIKEI
370
    30
100
AcDbVertex
100
AcDb2dVertex
 10
35.11832579991648
 20
30.90646239231001
 30
0.0
  0
VERTEX
  5
16E
330
16C
100
AcDbEntity
  8
GAIKEI
370
    30
100
AcDbVertex
100
AcDb2dVertex
 10
35.11448459862328
 20
30.90677889241647
 30
0.0
  0
VERTEX
  5
16F
330
16C
100
AcDbEntity
  8
GAIKEI
370
    30
100
AcDbVertex
100
AcDb2dVertex
 10
35.11064309733001
 20
30.90709209252191
 30
0.0
  0
VERTEX
  5
170
330
16C
100
AcDbEntity
  8
GAIKEI
370
    30
100
AcDbVertex
100
AcDb2dVertex
 10
35.1034391949047
 20
30.90766509271487
 30
0.0
  0
VERTEX
  5
171
330
16C
100
AcDbEntity
  8
GAIKEI
370
    30
100
AcDbVertex
100
AcDb2dVertex
 10
35.09623379247887
 20
30.90821949290154
 30
0.0
  0
VERTEX
  5
172
330
16C
100
AcDbEntity
  8
GAIKEI
370
    30
100
AcDbVertex
100
AcDb2dVertex
 10
35.09551589223719
 20
30.90827379291977
 30
0.0
  0
VERTEX
  5
173
330
16C
100
AcDbEntity
  8
GAIKEI
370
    30
100
AcDbVertex
100
AcDb2dVertex
 10
35.09479769199538
 20
30.90832809293806
 30
0.0
  0
SEQEND
  5
174
330
16C
100
AcDbEntity
  8
GAIKEI
370
    30
  0
LINE
  5
175
330
2
100
AcDbEntity
  8
GAIKEI
370
    30
100
AcDbLine
 10
38.68423320043826
 20
-14.45536607950049
 30
0.0
 11
26.78422909410489
 21
-14.45536607950049
 31
0.0
  0
LINE
  5
176
330
2
100
AcDbEntity
  8
GAIKEI
370
    30
100
AcDbLine
 10
26.78422909410489
 20
31.34464943983289
 30
0.0
 11
35.02644386898294
 21
30.91269339440771
 31
0.0
  0
LINE
  5
177
330
2
100
AcDbEntity
  8
GAIKEI
 62
     1
370
    30
100
AcDbLine
 10
26.78422909410489
 20
-14.55536601316714
 30
0.0
 11
26.78422909410489
 21
31.34464943983289
 31
0.0
  0
ARC
  5
178
330
2
100
AcDbEntity
  8
GAIKEI
370
    30
100
AcDbCircle
 10
34.86943581612354
 20
27.91680358579185
 30
0.0
 40
3.00000101
100
AcDbArc
 50
45.0
 51
86.99999999999766
  0
LINE
  5
179
330
2
100
AcDbEntity
  8
GAIKEI
370
    30
100
AcDbLine
 10
36.99075693030142
 20
30.03812469996967
 30
0.0
 11
38.80555354128274
 21
28.22332808898841
 31
0.0
  0
ARC
  5
17A
330
2
100
AcDbEntity
  8
GAIKEI
370
    30
100
AcDbCircle
 10
36.68423242710486
 20
26.10200697481048
 30
0.0
 40
3.00000101
100
AcDbArc
 50
0.597076000000725
 51
45.0
  0
LINE
  5
17B
330
2
100
AcDbEntity
  8
GAIKEI
370
    30
100
AcDbLine
 10
39.68411853706618
 20
26.10200697481048
 30
0.0
 11
39.68407053705005
 21
26.13326908533543
 31
0.0
  0
POLYLINE
  5
17C
330
2
100
AcDbEntity
  8
GAIKEI
370
    30
100
AcDb2dPolyline
 66
     1
 10
0.0
 20
0.0
 30
0.0
  0
VERTEX
  5
17D
330
17C
100
AcDbEntity
  8
GAIKEI
370
    30
100
AcDbVertex
100
AcDb2dVertex
 10
39.68423343710487
 20
25.55653239116748
 30
0.0
  0
VERTEX
  5
17E
330
17C
100
AcDbEntity
  8
GAIKEI
370
    30
100
AcDbVertex
100
AcDb2dVertex
 10
39.68384853697535
 20
25.60588150778165
 30
0.0
  0
VERTEX
  5
17F
330
17C
100
AcDbEntity
  8
GAIKEI
370
    30
100
AcDbVertex
100
AcDb2dVertex
 10
39.68336373681211
 20
25.65522972439556
 30
0.0
  0
VERTEX
  5
180
330
17C
100
AcDbEntity
  8
GAIKEI
370
    30
100
AcDbVertex
100
AcDb2dVertex
 10
39.68267373657977
 20
25.70910374253316
 30
0.0
  0
VERTEX
  5
181
330
17C
100
AcDbEntity
  8
GAIKEI
370
    30
100
AcDbVertex
100
AcDb2dVertex
 10
39.68203773636566
 20
25.76297866067103
 30
0.0
  0
VERTEX
  5
182
330
17C
100
AcDbEntity
  8
GAIKEI
370
    30
100
AcDbVertex
100
AcDb2dVertex
 10
39.68169963625184
 20
25.816236178601
 30
0.0
  0
VERTEX
  5
183
330
17C
100
AcDbEntity
  8
GAIKEI
370
    30
100
AcDbVertex
100
AcDb2dVertex
 10
39.68169513625031
 20
25.86949489653148
 30
0.0
  0
VERTEX
  5
184
330
17C
100
AcDbEntity
  8
GAIKEI
370
    30
100
AcDbVertex
100
AcDb2dVertex
 10
39.6820194363595
 20
25.92406011490175
 30
0.0
  0
VERTEX
  5
185
330
17C
100
AcDbEntity
  8
GAIKEI
370
    30
100
AcDbVertex
100
AcDb2dVertex
 10
39.68261523656008
 20
25.97862323327132
 30
0.0
  0
VERTEX
  5
186
330
17C
100
AcDbEntity
  8
GAIKEI
370
    30
100
AcDbVertex
100
AcDb2dVertex
 10
39.68304003670312
 20
26.00984544378281
 30
0.0
  0
VERTEX
  5
187
330
17C
100
AcDbEntity
  8
GAIKEI
370
    30
100
AcDbVertex
100
AcDb2dVertex
 10
39.68345763684374
 20
26.04106795429436
 30
0.0
  0
VERTEX
  5
188
330
17C
100
AcDbEntity
  8
GAIKEI
370
    30
100
AcDbVertex
100
AcDb2dVertex
 10
39.68380713696138
 20
26.07153716455235
 30
0.0
  0
VERTEX
  5
189
330
17C
100
AcDbEntity
  8
GAIKEI
370
    30
100
AcDbVertex
100
AcDb2dVertex
 10
39.68411853706618
 20
26.10200697481048
 30
0.0
  0
SEQEND
  5
18A
330
17C
100
AcDbEntity
  8
GAIKEI
370
    30
  0
LINE
  5
18B
330
2
100
AcDbEntity
  8
GAIKEI
370
    30
100
AcDbLine
 10
39.68423343710487
 20
26.10200697481048
 30
0.0
 11
39.68423343710487
 21
-13.45536554283376
 31
0.0
  0
LINE
  5
18C
330
2
100
AcDbEntity
  8
GAIKEI
370
    30
100
AcDbLine
 10
35.47375061957615
 20
-14.45536607950049
 30
0.0
 11
35.48174892226888
 21
-14.60798273088142
 31
0.0
  0
LINE
  5
18D
330
2
100
AcDbEntity
  8
GAIKEI
370
    30
100
AcDbLine
 10
37.88671623194097
 20
-14.60798273088142
 30
0.0
 11
37.89471453463375
 21
-14.45536607950049
 31
0.0
  0
ARC
  5
18E
330
2
100
AcDbEntity
  8
GAIKEI
370
    30
100
AcDbCircle
 10
35.53168033907912
 20
-14.60536613000044
 30
0.0
 40
0.0500000168333334
100
AcDbArc
 50
183.0000000000007
 51
270.0
  0
ARC
  5
18F
330
2
100
AcDbEntity
  8
GAIKEI
370
    30
100
AcDbCircle
 10
37.8367845151306
 20
-14.60536613000044
 30
0.0
 40
0.0500000168333334
100
AcDbArc
 50
270.0
 51
356.9999999999993
  0
LINE
  5
190
330
2
100
AcDbEntity
  8
GAIKEI
370
    30
100
AcDbLine
 10
37.8367845151306
 20
-14.65536594683374
 30
0.0
 11
35.53168033907912
 21
-14.65536594683374
 31
0.0
  0
POLYLINE
  5
191
330
2
100
AcDbEntity
  8
GAIKEI
370
    30
100
AcDb2dPolyline
 66
     1
 10
0.0
 20
0.0
 30
0.0
  0
VERTEX
  5
192
330
191
100
AcDbEntity
  8
GAIKEI
370
    30
100
AcDbVertex
100
AcDb2dVertex
 10
39.66651513113971
 20
-13.64277650592873
 30
0.0
  0
VERTEX
  5
193
330
191
100
AcDbEntity
  8
GAIKEI
370
    30
100
AcDbVertex
100
AcDb2dVertex
 10
39.65100452591781
 20
-13.70816542794301
 30
0.0
  0
VERTEX
  5
194
330
191
100
AcDbEntity
  8
GAIKEI
370
    30
100
AcDbVertex
100
AcDb2dVertex
 10
39.63255871970773
 20
-13.77266574965813
 30
0.0
  0
VERTEX
  5
195
330
191
100
AcDbEntity
  8
GAIKEI
370
    30
100
AcDbVertex
100
AcDb2dVertex
 10
39.62259061635183
 20
-13.80120295926565
 30
0.0
  0
VERTEX
  5
196
330
191
100
AcDbEntity
  8
GAIKEI
370
    30
100
AcDbVertex
100
AcDb2dVertex
 10
39.61164931266825
 20
-13.82939756875783
 30
0.0
  0
VERTEX
  5
197
330
191
100
AcDbEntity
  8
GAIKEI
370
    30
100
AcDbVertex
100
AcDb2dVertex
 10
39.60240870955727
 20
-13.8515051762007
 30
0.0
  0
VERTEX
  5
198
330
191
100
AcDbEntity
  8
GAIKEI
370
    30
100
AcDbVertex
100
AcDb2dVertex
 10
39.59266800627791
 20
-13.87339288356958
 30
0.0
  0
VERTEX
  5
199
330
191
100
AcDbEntity
  8
GAIKEI
370
    30
100
AcDbVertex
100
AcDb2dVertex
 10
39.58596930402263
 20
-13.88767258837708
 30
0.0
  0
VERTEX
  5
19A
330
191
100
AcDbEntity
  8
GAIKEI
370
    30
100
AcDbVertex
100
AcDb2dVertex
 10
39.5790312016868
 20
-13.90183739314591
 30
0.0
  0
VERTEX
  5
19B
330
191
100
AcDbEntity
  8
GAIKEI
370
    30
100
AcDbVertex
100
AcDb2dVertex
 10
39.57644730081688
 20
-13.90696289487147
 30
0.0
  0
VERTEX
  5
19C
330
191
100
AcDbEntity
  8
GAIKEI
370
    30
100
AcDbVertex
100
AcDb2dVertex
 10
39.57384689994143
 20
-13.91207999659423
 30
0.0
  0
SEQEND
  5
19D
330
191
100
AcDbEntity
  8
GAIKEI
370
    30
  0
POLYLINE
  5
19E
330
2
100
AcDbEntity
  8
GAIKEI
370
    30
100
AcDb2dPolyline
 66
     1
 10
0.0
 20
0.0
 30
0.0
  0
VERTEX
  5
19F
330
19E
100
AcDbEntity
  8
GAIKEI
370
    30
100
AcDbVertex
100
AcDb2dVertex
 10
38.83661885174138
 20
-14.44368707556856
 30
0.0
  0
VERTEX
  5
1A0
330
19E
100
AcDbEntity
  8
GAIKEI
370
    30
100
AcDbVertex
100
AcDb2dVertex
 10
38.85214475696847
 20
-14.44112177470492
 30
0.0
  0
VERTEX
  5
1A1
330
19E
100
AcDbEntity
  8
GAIKEI
370
    30
100
AcDbVertex
100
AcDb2dVertex
 10
38.86764306218623
 20
-14.4384025737894
 30
0.0
  0
VERTEX
  5
1A2
330
19E
100
AcDbEntity
  8
GAIKEI
370
    30
100
AcDbVertex
100
AcDb2dVertex
 10
38.88394926767598
 20
-14.43523307272238
 30
0.0
  0
VERTEX
  5
1A3
330
19E
100
AcDbEntity
  8
GAIKEI
370
    30
100
AcDbVertex
100
AcDb2dVertex
 10
38.90019607314571
 20
-14.43176747155564
 30
0.0
  0
VERTEX
  5
1A4
330
19E
100
AcDbEntity
  8
GAIKEI
370
    30
100
AcDbVertex
100
AcDb2dVertex
 10
38.91289177741993
 20
-14.42886947057997
 30
0.0
  0
VERTEX
  5
1A5
330
19E
100
AcDbEntity
  8
GAIKEI
370
    30
100
AcDbVertex
100
AcDb2dVertex
 10
38.92554938168132
 20
-14.4258124695508
 30
0.0
  0
VERTEX
  5
1A6
330
19E
100
AcDbEntity
  8
GAIKEI
370
    30
100
AcDbVertex
100
AcDb2dVertex
 10
38.93365478441012
 20
-14.42376316886083
 30
0.0
  0
VERTEX
  5
1A7
330
19E
100
AcDbEntity
  8
GAIKEI
370
    30
100
AcDbVertex
100
AcDb2dVertex
 10
38.9417415871327
 20
-14.42164216814677
 30
0.0
  0
VERTEX
  5
1A8
330
19E
100
AcDbEntity
  8
GAIKEI
370
    30
100
AcDbVertex
100
AcDb2dVertex
 10
38.94456698808392
 20
-14.42088286789112
 30
0.0
  0
VERTEX
  5
1A9
330
19E
100
AcDbEntity
  8
GAIKEI
370
    30
100
AcDbVertex
100
AcDb2dVertex
 10
38.94739118903476
 20
-14.42011876763388
 30
0.0
  0
SEQEND
  5
1AA
330
19E
100
AcDbEntity
  8
GAIKEI
370
    30
  0
ARC
  5
1AB
330
2
100
AcDbEntity
  8
GAIKEI
370
    30
100
AcDbCircle
 10
38.68423320043826
 20
-13.45536554283376
 30
0.0
 40
1.000000336666666
100
AcDbArc
 50
270.0
 51
0.0
  0
LINE
  5
1AC
330
2
100
AcDbEntity
  8
GAIKEI
 62
     1
370
    30
100
AcDbLine
 10
19.7514185263928
 20
28.74464846449951
 30
0.0
 11
19.20422674217161
 21
28.74464846449951
 31
0.0
  0
LINE
  5
1AD
330
2
100
AcDbEntity
  8
GAIKEI
 62
     1
370
    30
100
AcDbLine
 10
19.20422674217161
 20
-9.45536429616709
 30
0.0
 11
19.75092172622555
 21
-9.45536429616709
 31
0.0
  0
LINE
  5
1AE
330
2
100
AcDbEntity
  8
GAIKEI
 62
     1
370
    30
100
AcDbLine
 10
19.23248165168411
 20
-3.357047443067813
 30
0.0
 11
19.75649242810101
 21
-3.375346249228414
 31
0.0
  0
ARC
  5
1AF
330
2
100
AcDbEntity
  8
GAIKEI
 62
     1
370
    30
100
AcDbCircle
 10
19.38422680277165
 20
-3.171426580575484
 30
0.0
 40
0.2000000673333333
100
AcDbArc
 50
119.7448810000012
 51
180.0
  0
LINE
  5
1B0
330
2
100
AcDbEntity
  8
GAIKEI
 62
     1
370
    30
100
AcDbLine
 10
19.75649242810101
 20
-2.728353131407459
 30
0.0
 11
19.28499876936484
 21
-2.997778122113857
 31
0.0
  0
ARC
  5
1B1
330
2
100
AcDbEntity
  8
GAIKEI
 62
     1
370
    30
100
AcDbCircle
 10
19.23422675227164
 20
-3.307077926244744
 30
0.0
 40
0.0500000168333334
100
AcDbArc
 50
180.0
 51
267.9999999999996
  0
LINE
  5
1B2
330
2
100
AcDbEntity
  8
GAIKEI
 62
     1
370
    30
100
AcDbLine
 10
19.18422663543822
 20
-3.171426580575484
 30
0.0
 11
19.18422663543822
 21
-3.307077926244744
 31
0.0
  0
LINE
  5
1B3
330
2
100
AcDbEntity
  8
GAIKEI
 62
     1
370
    30
100
AcDbLine
 10
19.23248165168411
 20
-2.35704690640108
 30
0.0
 11
19.75649242810101
 21
-2.375346012561749
 31
0.0
  0
ARC
  5
1B4
330
2
100
AcDbEntity
  8
GAIKEI
 62
     1
370
    30
100
AcDbCircle
 10
19.38422680277165
 20
-2.171426343908819
 30
0.0
 40
0.2000000673333333
100
AcDbArc
 50
119.7448810000012
 51
180.0
  0
LINE
  5
1B5
330
2
100
AcDbEntity
  8
GAIKEI
 62
     1
370
    30
100
AcDbLine
 10
19.75649242810101
 20
-1.728352594740726
 30
0.0
 11
19.28499876936484
 21
-1.997777585447124
 31
0.0
  0
ARC
  5
1B6
330
2
100
AcDbEntity
  8
GAIKEI
 62
     1
370
    30
100
AcDbCircle
 10
19.23422675227164
 20
-2.307077389578012
 30
0.0
 40
0.0500000168333334
100
AcDbArc
 50
180.0
 51
267.9999999999996
  0
LINE
  5
1B7
330
2
100
AcDbEntity
  8
GAIKEI
 62
     1
370
    30
100
AcDbLine
 10
19.18422663543822
 20
-2.171426343908819
 30
0.0
 11
19.18422663543822
 21
-2.307077389578012
 31
0.0
  0
LINE
  5
1B8
330
2
100
AcDbEntity
  8
GAIKEI
 62
     1
370
    30
100
AcDbLine
 10
19.23248165168411
 20
-1.357046669734472
 30
0.0
 11
19.75649242810101
 21
-1.375345475895073
 31
0.0
  0
ARC
  5
1B9
330
2
100
AcDbEntity
  8
GAIKEI
 62
     1
370
    30
100
AcDbCircle
 10
19.38422680277165
 20
-1.171426107242155
 30
0.0
 40
0.2000000673333333
100
AcDbArc
 50
119.7448810000012
 51
180.0
  0
LINE
  5
1BA
330
2
100
AcDbEntity
  8
GAIKEI
 62
     1
370
    30
100
AcDbLine
 10
19.75649242810101
 20
-0.7283523580740621
 30
0.0
 11
19.28499876936484
 21
-0.9977773487804597
 31
0.0
  0
ARC
  5
1BB
330
2
100
AcDbEntity
  8
GAIKEI
 62
     1
370
    30
100
AcDbCircle
 10
19.23422675227164
 20
-1.307077152911347
 30
0.0
 40
0.0500000168333334
100
AcDbArc
 50
180.0
 51
267.9999999999996
  0
LINE
  5
1BC
330
2
100
AcDbEntity
  8
GAIKEI
 62
     1
370
    30
100
AcDbLine
 10
19.18422663543822
 20
-1.171426107242155
 30
0.0
 11
19.18422663543822
 21
-1.307077152911347
 31
0.0
  0
LINE
  5
1BD
330
2
100
AcDbEntity
  8
GAIKEI
 62
     1
370
    30
100
AcDbLine
 10
19.23248165168411
 20
-0.3570464330678078
 30
0.0
 11
19.75649242810101
 21
-0.3753452392284089
 31
0.0
  0
ARC
  5
1BE
330
2
100
AcDbEntity
  8
GAIKEI
 62
     1
370
    30
100
AcDbCircle
 10
19.38422680277165
 20
-0.1714255705754795
 30
0.0
 40
0.2000000673333333
100
AcDbArc
 50
119.7448810000012
 51
180.0
  0
LINE
  5
1BF
330
2
100
AcDbEntity
  8
GAIKEI
 62
     1
370
    30
100
AcDbLine
 10
19.75649242810101
 20
0.271647878592546
 30
0.0
 11
19.28499876936484
 21
0.0022228878861483
 31
0.0
  0
ARC
  5
1C0
330
2
100
AcDbEntity
  8
GAIKEI
 62
     1
370
    30
100
AcDbCircle
 10
19.23422675227164
 20
-0.3070769162447391
 30
0.0
 40
0.0500000168333334
100
AcDbArc
 50
180.0
 51
267.9999999999996
  0
LINE
  5
1C1
330
2
100
AcDbEntity
  8
GAIKEI
 62
     1
370
    30
100
AcDbLine
 10
19.18422663543822
 20
-0.1714255705754795
 30
0.0
 11
19.18422663543822
 21
-0.3070769162447391
 31
0.0
  0
LINE
  5
1C2
330
2
100
AcDbEntity
  8
GAIKEI
 62
     1
370
    30
100
AcDbLine
 10
19.23248165168411
 20
0.6429541035989246
 30
0.0
 11
19.75649242810101
 21
0.6246549974382561
 31
0.0
  0
ARC
  5
1C3
330
2
100
AcDbEntity
  8
GAIKEI
 62
     1
370
    30
100
AcDbCircle
 10
19.38422680277165
 20
0.8285746660911854
 30
0.0
 40
0.2000000673333333
100
AcDbArc
 50
119.7448810000012
 51
180.0
  0
LINE
  5
1C4
330
2
100
AcDbEntity
  8
GAIKEI
 62
     1
370
    30
100
AcDbLine
 10
19.75649242810101
 20
1.271648415259278
 30
0.0
 11
19.28499876936484
 21
1.00222342455288
 31
0.0
  0
ARC
  5
1C5
330
2
100
AcDbEntity
  8
GAIKEI
 62
     1
370
    30
100
AcDbCircle
 10
19.23422675227164
 20
0.6929236204219933
 30
0.0
 40
0.0500000168333334
100
AcDbArc
 50
180.0
 51
267.9999999999996
  0
LINE
  5
1C6
330
2
100
AcDbEntity
  8
GAIKEI
 62
     1
370
    30
100
AcDbLine
 10
19.18422663543822
 20
0.8285746660911854
 30
0.0
 11
19.18422663543822
 21
0.6929236204219933
 31
0.0
  0
LINE
  5
1C7
330
2
100
AcDbEntity
  8
GAIKEI
 62
     1
370
    30
100
AcDbLine
 10
19.23248165168411
 20
1.642954340265532
 30
0.0
 11
19.75649242810101
 21
1.624655534104931
 31
0.0
  0
ARC
  5
1C8
330
2
100
AcDbEntity
  8
GAIKEI
 62
     1
370
    30
100
AcDbCircle
 10
19.38422680277165
 20
1.828574902757793
 30
0.0
 40
0.2000000673333333
100
AcDbArc
 50
119.7448810000012
 51
180.0
  0
LINE
  5
1C9
330
2
100
AcDbEntity
  8
GAIKEI
 62
     1
370
    30
100
AcDbLine
 10
19.75649242810101
 20
2.271648651925943
 30
0.0
 11
19.28499876936484
 21
2.002223661219545
 31
0.0
  0
ARC
  5
1CA
330
2
100
AcDbEntity
  8
GAIKEI
 62
     1
370
    30
100
AcDbCircle
 10
19.23422675227164
 20
1.692923857088658
 30
0.0
 40
0.0500000168333334
100
AcDbArc
 50
180.0
 51
267.9999999999996
  0
LINE
  5
1CB
330
2
100
AcDbEntity
  8
GAIKEI
 62
     1
370
    30
100
AcDbLine
 10
19.18422663543822
 20
1.828574902757793
 30
0.0
 11
19.18422663543822
 21
1.692923857088658
 31
0.0
  0
LINE
  5
1CC
330
2
100
AcDbEntity
  8
GAIKEI
 62
     1
370
    30
100
AcDbLine
 10
19.23248165168411
 20
2.642954576932197
 30
0.0
 11
19.75649242810101
 21
2.624655770771596
 31
0.0
  0
ARC
  5
1CD
330
2
100
AcDbEntity
  8
GAIKEI
 62
     1
370
    30
100
AcDbCircle
 10
19.38422680277165
 20
2.828575439424525
 30
0.0
 40
0.2000000673333333
100
AcDbArc
 50
119.7448810000012
 51
180.0
  0
LINE
  5
1CE
330
2
100
AcDbEntity
  8
GAIKEI
 62
     1
370
    30
100
AcDbLine
 10
19.75649242810101
 20
3.271648888592551
 30
0.0
 11
19.28499876936484
 21
3.002223897886153
 31
0.0
  0
ARC
  5
1CF
330
2
100
AcDbEntity
  8
GAIKEI
 62
     1
370
    30
100
AcDbCircle
 10
19.23422675227164
 20
2.692924093755266
 30
0.0
 40
0.0500000168333334
100
AcDbArc
 50
180.0
 51
267.9999999999996
  0
LINE
  5
1D0
330
2
100
AcDbEntity
  8
GAIKEI
 62
     1
370
    30
100
AcDbLine
 10
19.18422663543822
 20
2.828575439424525
 30
0.0
 11
19.18422663543822
 21
2.692924093755266
 31
0.0
  0
LINE
  5
1D1
330
2
100
AcDbEntity
  8
GAIKEI
 62
     1
370
    30
100
AcDbLine
 10
19.23248165168411
 20
3.642955113598929
 30
0.0
 11
19.75649242810101
 21
3.624656007438261
 31
0.0
  0
ARC
  5
1D2
330
2
100
AcDbEntity
  8
GAIKEI
 62
     1
370
    30
100
AcDbCircle
 10
19.38422680277165
 20
3.82857567609119
 30
0.0
 40
0.2000000673333333
100
AcDbArc
 50
119.7448810000012
 51
180.0
  0
LINE
  5
1D3
330
2
100
AcDbEntity
  8
GAIKEI
 62
     1
370
    30
100
AcDbLine
 10
19.75649242810101
 20
4.271649425259283
 30
0.0
 11
19.28499876936484
 21
4.002224434552886
 31
0.0
  0
ARC
  5
1D4
330
2
100
AcDbEntity
  8
GAIKEI
 62
     1
370
    30
100
AcDbCircle
 10
19.23422675227164
 20
3.692924630421998
 30
0.0
 40
0.0500000168333334
100
AcDbArc
 50
180.0
 51
267.9999999999996
  0
LINE
  5
1D5
330
2
100
AcDbEntity
  8
GAIKEI
 62
     1
370
    30
100
AcDbLine
 10
19.18422663543822
 20
3.82857567609119
 30
0.0
 11
19.18422663543822
 21
3.692924630421998
 31
0.0
  0
LINE
  5
1D6
330
2
100
AcDbEntity
  8
GAIKEI
 62
     1
370
    30
100
AcDbLine
 10
19.23248165168411
 20
4.642955350265538
 30
0.0
 11
19.75649242810101
 21
4.624656544104936
 31
0.0
  0
ARC
  5
1D7
330
2
100
AcDbEntity
  8
GAIKEI
 62
     1
370
    30
100
AcDbCircle
 10
19.38422680277165
 20
4.828575912757798
 30
0.0
 40
0.2000000673333333
100
AcDbArc
 50
119.7448810000012
 51
180.0
  0
LINE
  5
1D8
330
2
100
AcDbEntity
  8
GAIKEI
 62
     1
370
    30
100
AcDbLine
 10
19.75649242810101
 20
5.271649661925948
 30
0.0
 11
19.28499876936484
 21
5.002224671219551
 31
0.0
  0
ARC
  5
1D9
330
2
100
AcDbEntity
  8
GAIKEI
 62
     1
370
    30
100
AcDbCircle
 10
19.23422675227164
 20
4.692924867088663
 30
0.0
 40
0.0500000168333334
100
AcDbArc
 50
180.0
 51
267.9999999999996
  0
LINE
  5
1DA
330
2
100
AcDbEntity
  8
GAIKEI
 62
     1
370
    30
100
AcDbLine
 10
19.18422663543822
 20
4.828575912757798
 30
0.0
 11
19.18422663543822
 21
4.692924867088663
 31
0.0
  0
LINE
  5
1DB
330
2
100
AcDbEntity
  8
GAIKEI
 62
     1
370
    30
100
AcDbLine
 10
19.23248165168411
 20
5.642955586932203
 30
0.0
 11
19.75649242810101
 21
5.624656780771601
 31
0.0
  0
ARC
  5
1DC
330
2
100
AcDbEntity
  8
GAIKEI
 62
     1
370
    30
100
AcDbCircle
 10
19.38422680277165
 20
5.828576449424531
 30
0.0
 40
0.2000000673333333
100
AcDbArc
 50
119.7448810000012
 51
180.0
  0
LINE
  5
1DD
330
2
100
AcDbEntity
  8
GAIKEI
 62
     1
370
    30
100
AcDbLine
 10
19.75649242810101
 20
6.271649898592556
 30
0.0
 11
19.28499876936484
 21
6.002224907886159
 31
0.0
  0
ARC
  5
1DE
330
2
100
AcDbEntity
  8
GAIKEI
 62
     1
370
    30
100
AcDbCircle
 10
19.23422675227164
 20
5.692925103755271
 30
0.0
 40
0.0500000168333334
100
AcDbArc
 50
180.0
 51
267.9999999999996
  0
LINE
  5
1DF
330
2
100
AcDbEntity
  8
GAIKEI
 62
     1
370
    30
100
AcDbLine
 10
19.18422663543822
 20
5.828576449424531
 30
0.0
 11
19.18422663543822
 21
5.692925103755271
 31
0.0
  0
LINE
  5
1E0
330
2
100
AcDbEntity
  8
GAIKEI
 62
     1
370
    30
100
AcDbLine
 10
19.23248165168411
 20
6.642956123598935
 30
0.0
 11
19.75649242810101
 21
6.624657017438266
 31
0.0
  0
ARC
  5
1E1
330
2
100
AcDbEntity
  8
GAIKEI
 62
     1
370
    30
100
AcDbCircle
 10
19.38422680277165
 20
6.828576686091196
 30
0.0
 40
0.2000000673333333
100
AcDbArc
 50
119.7448810000012
 51
180.0
  0
LINE
  5
1E2
330
2
100
AcDbEntity
  8
GAIKEI
 62
     1
370
    30
100
AcDbLine
 10
19.75649242810101
 20
7.271650435259289
 30
0.0
 11
19.28499876936484
 21
7.002225444552891
 31
0.0
  0
ARC
  5
1E3
330
2
100
AcDbEntity
  8
GAIKEI
 62
     1
370
    30
100
AcDbCircle
 10
19.23422675227164
 20
6.692925640422004
 30
0.0
 40
0.0500000168333334
100
AcDbArc
 50
180.0
 51
267.9999999999996
  0
LINE
  5
1E4
330
2
100
AcDbEntity
  8
GAIKEI
 62
     1
370
    30
100
AcDbLine
 10
19.18422663543822
 20
6.828576686091196
 30
0.0
 11
19.18422663543822
 21
6.692925640422004
 31
0.0
  0
LINE
  5
1E5
330
2
100
AcDbEntity
  8
GAIKEI
 62
     1
370
    30
100
AcDbLine
 10
19.23248165168411
 20
7.642956360265543
 30
0.0
 11
19.75649242810101
 21
7.624657554104942
 31
0.0
  0
ARC
  5
1E6
330
2
100
AcDbEntity
  8
GAIKEI
 62
     1
370
    30
100
AcDbCircle
 10
19.38422680277165
 20
7.828576922757804
 30
0.0
 40
0.2000000673333333
100
AcDbArc
 50
119.7448810000012
 51
180.0
  0
LINE
  5
1E7
330
2
100
AcDbEntity
  8
GAIKEI
 62
     1
370
    30
100
AcDbLine
 10
19.75649242810101
 20
8.271650671925897
 30
0.0
 11
19.28499876936484
 21
8.002225681219556
 31
0.0
  0
ARC
  5
1E8
330
2
100
AcDbEntity
  8
GAIKEI
 62
     1
370
    30
100
AcDbCircle
 10
19.23422675227164
 20
7.692925877088669
 30
0.0
 40
0.0500000168333334
100
AcDbArc
 50
180.0
 51
267.9999999999996
  0
LINE
  5
1E9
330
2
100
AcDbEntity
  8
GAIKEI
 62
     1
370
    30
100
AcDbLine
 10
19.18422663543822
 20
7.828576922757804
 30
0.0
 11
19.18422663543822
 21
7.692925877088669
 31
0.0
  0
LINE
  5
1EA
330
2
100
AcDbEntity
  8
GAIKEI
 62
     1
370
    30
100
AcDbLine
 10
19.23248165168411
 20
8.642956596932208
 30
0.0
 11
19.75649242810101
 21
8.624657790771607
 31
0.0
  0
ARC
  5
1EB
330
2
100
AcDbEntity
  8
GAIKEI
 62
     1
370
    30
100
AcDbCircle
 10
19.38422680277165
 20
8.828577459424536
 30
0.0
 40
0.2000000673333333
100
AcDbArc
 50
119.7448810000012
 51
180.0
  0
LINE
  5
1EC
330
2
100
AcDbEntity
  8
GAIKEI
 62
     1
370
    30
100
AcDbLine
 10
19.75649242810101
 20
9.271650908592562
 30
0.0
 11
19.28499876936484
 21
9.002225917886164
 31
0.0
  0
ARC
  5
1ED
330
2
100
AcDbEntity
  8
GAIKEI
 62
     1
370
    30
100
AcDbCircle
 10
19.23422675227164
 20
8.69292611375522
 30
0.0
 40
0.0500000168333334
100
AcDbArc
 50
180.0
 51
267.9999999999996
  0
LINE
  5
1EE
330
2
100
AcDbEntity
  8
GAIKEI
 62
     1
370
    30
100
AcDbLine
 10
19.18422663543822
 20
8.828577459424536
 30
0.0
 11
19.18422663543822
 21
8.69292611375522
 31
0.0
  0
LINE
  5
1EF
330
2
100
AcDbEntity
  8
GAIKEI
 62
     1
370
    30
100
AcDbLine
 10
19.23248165168411
 20
9.64295713359894
 30
0.0
 11
19.75649242810101
 21
9.624658027438215
 31
0.0
  0
ARC
  5
1F0
330
2
100
AcDbEntity
  8
GAIKEI
 62
     1
370
    30
100
AcDbCircle
 10
19.38422680277165
 20
9.828577696091201
 30
0.0
 40
0.2000000673333333
100
AcDbArc
 50
119.7448810000012
 51
180.0
  0
LINE
  5
1F1
330
2
100
AcDbEntity
  8
GAIKEI
 62
     1
370
    30
100
AcDbLine
 10
19.75649242810101
 20
10.27165144525929
 30
0.0
 11
19.28499876936484
 21
10.0022264545529
 31
0.0
  0
ARC
  5
1F2
330
2
100
AcDbEntity
  8
GAIKEI
 62
     1
370
    30
100
AcDbCircle
 10
19.23422675227164
 20
9.692926650422009
 30
0.0
 40
0.0500000168333334
100
AcDbArc
 50
180.0
 51
267.9999999999996
  0
LINE
  5
1F3
330
2
100
AcDbEntity
  8
GAIKEI
 62
     1
370
    30
100
AcDbLine
 10
19.18422663543822
 20
9.828577696091201
 30
0.0
 11
19.18422663543822
 21
9.692926650422009
 31
0.0
  0
LINE
  5
1F4
330
2
100
AcDbEntity
  8
GAIKEI
 62
     1
370
    30
100
AcDbLine
 10
19.23248165168411
 20
10.64295737026555
 30
0.0
 11
19.75649242810101
 21
10.62465856410494
 31
0.0
  0
ARC
  5
1F5
330
2
100
AcDbEntity
  8
GAIKEI
 62
     1
370
    30
100
AcDbCircle
 10
19.38422680277165
 20
10.82857793275781
 30
0.0
 40
0.2000000673333333
100
AcDbArc
 50
119.7448810000012
 51
180.0
  0
LINE
  5
1F6
330
2
100
AcDbEntity
  8
GAIKEI
 62
     1
370
    30
100
AcDbLine
 10
19.75649242810101
 20
11.2716516819259
 30
0.0
 11
19.28499876936484
 21
11.00222669121956
 31
0.0
  0
ARC
  5
1F7
330
2
100
AcDbEntity
  8
GAIKEI
 62
     1
370
    30
100
AcDbCircle
 10
19.23422675227164
 20
10.69292688708862
 30
0.0
 40
0.0500000168333334
100
AcDbArc
 50
180.0
 51
267.9999999999996
  0
LINE
  5
1F8
330
2
100
AcDbEntity
  8
GAIKEI
 62
     1
370
    30
100
AcDbLine
 10
19.18422663543822
 20
10.82857793275781
 30
0.0
 11
19.18422663543822
 21
10.69292688708862
 31
0.0
  0
LINE
  5
1F9
330
2
100
AcDbEntity
  8
GAIKEI
 62
     1
370
    30
100
AcDbLine
 10
19.23248165168411
 20
11.64295760693221
 30
0.0
 11
19.75649242810101
 21
11.62465880077161
 31
0.0
  0
ARC
  5
1FA
330
2
100
AcDbEntity
  8
GAIKEI
 62
     1
370
    30
100
AcDbCircle
 10
19.38422680277165
 20
11.82857846942454
 30
0.0
 40
0.2000000673333333
100
AcDbArc
 50
119.7448810000012
 51
180.0
  0
LINE
  5
1FB
330
2
100
AcDbEntity
  8
GAIKEI
 62
     1
370
    30
100
AcDbLine
 10
19.75649242810101
 20
12.27165191859251
 30
0.0
 11
19.28499876936484
 21
12.00222692788617
 31
0.0
  0
ARC
  5
1FC
330
2
100
AcDbEntity
  8
GAIKEI
 62
     1
370
    30
100
AcDbCircle
 10
19.23422675227164
 20
11.69292712375522
 30
0.0
 40
0.0500000168333334
100
AcDbArc
 50
180.0
 51
267.9999999999996
  0
LINE
  5
1FD
330
2
100
AcDbEntity
  8
GAIKEI
 62
     1
370
    30
100
AcDbLine
 10
19.18422663543822
 20
11.82857846942454
 30
0.0
 11
19.18422663543822
 21
11.69292712375522
 31
0.0
  0
LINE
  5
1FE
330
2
100
AcDbEntity
  8
GAIKEI
 62
     1
370
    30
100
AcDbLine
 10
19.23248165168411
 20
12.64295814359895
 30
0.0
 11
19.75649242810101
 21
12.62465903743822
 31
0.0
  0
ARC
  5
1FF
330
2
100
AcDbEntity
  8
GAIKEI
 62
     1
370
    30
100
AcDbCircle
 10
19.38422680277165
 20
12.82857870609115
 30
0.0
 40
0.2000000673333333
100
AcDbArc
 50
119.7448810000012
 51
180.0
  0
LINE
  5
200
330
2
100
AcDbEntity
  8
GAIKEI
 62
     1
370
    30
100
AcDbLine
 10
19.75649242810101
 20
13.2716524552593
 30
0.0
 11
19.28499876936484
 21
13.0022274645529
 31
0.0
  0
ARC
  5
201
330
2
100
AcDbEntity
  8
GAIKEI
 62
     1
370
    30
100
AcDbCircle
 10
19.23422675227164
 20
12.69292766042201
 30
0.0
 40
0.0500000168333334
100
AcDbArc
 50
180.0
 51
267.9999999999996
  0
LINE
  5
202
330
2
100
AcDbEntity
  8
GAIKEI
 62
     1
370
    30
100
AcDbLine
 10
19.18422663543822
 20
12.82857870609115
 30
0.0
 11
19.18422663543822
 21
12.69292766042201
 31
0.0
  0
LINE
  5
203
330
2
100
AcDbEntity
  8
GAIKEI
 62
     1
370
    30
100
AcDbLine
 10
19.23248165168411
 20
13.64295838026555
 30
0.0
 11
19.75649242810101
 21
13.62465957410495
 31
0.0
  0
ARC
  5
204
330
2
100
AcDbEntity
  8
GAIKEI
 62
     1
370
    30
100
AcDbCircle
 10
19.38422680277165
 20
13.82857894275781
 30
0.0
 40
0.2000000673333333
100
AcDbArc
 50
119.7448810000012
 51
180.0
  0
LINE
  5
205
330
2
100
AcDbEntity
  8
GAIKEI
 62
     1
370
    30
100
AcDbLine
 10
19.75649242810101
 20
14.27165269192591
 30
0.0
 11
19.28499876936484
 21
14.00222770121956
 31
0.0
  0
ARC
  5
206
330
2
100
AcDbEntity
  8
GAIKEI
 62
     1
370
    30
100
AcDbCircle
 10
19.23422675227164
 20
13.69292789708862
 30
0.0
 40
0.0500000168333334
100
AcDbArc
 50
180.0
 51
267.9999999999996
  0
LINE
  5
207
330
2
100
AcDbEntity
  8
GAIKEI
 62
     1
370
    30
100
AcDbLine
 10
19.18422663543822
 20
13.82857894275781
 30
0.0
 11
19.18422663543822
 21
13.69292789708862
 31
0.0
  0
LINE
  5
208
330
2
100
AcDbEntity
  8
GAIKEI
 62
     1
370
    30
100
AcDbLine
 10
19.23248165168411
 20
14.64295861693222
 30
0.0
 11
19.75649242810101
 21
14.62465981077162
 31
0.0
  0
ARC
  5
209
330
2
100
AcDbEntity
  8
GAIKEI
 62
     1
370
    30
100
AcDbCircle
 10
19.38422680277165
 20
14.82857947942455
 30
0.0
 40
0.2000000673333333
100
AcDbArc
 50
119.7448810000012
 51
180.0
  0
LINE
  5
20A
330
2
100
AcDbEntity
  8
GAIKEI
 62
     1
370
    30
100
AcDbLine
 10
19.75649242810101
 20
15.27165292859251
 30
0.0
 11
19.28499876936484
 21
15.00222793788617
 31
0.0
  0
ARC
  5
20B
330
2
100
AcDbEntity
  8
GAIKEI
 62
     1
370
    30
100
AcDbCircle
 10
19.23422675227164
 20
14.69292813375523
 30
0.0
 40
0.0500000168333334
100
AcDbArc
 50
180.0
 51
267.9999999999996
  0
LINE
  5
20C
330
2
100
AcDbEntity
  8
GAIKEI
 62
     1
370
    30
100
AcDbLine
 10
19.18422663543822
 20
14.82857947942455
 30
0.0
 11
19.18422663543822
 21
14.69292813375523
 31
0.0
  0
LINE
  5
20D
330
2
100
AcDbEntity
  8
GAIKEI
 62
     1
370
    30
100
AcDbLine
 10
19.23248165168411
 20
24.64296218359891
 30
0.0
 11
19.75649242810101
 21
24.62466307743824
 31
0.0
  0
ARC
  5
20E
330
2
100
AcDbEntity
  8
GAIKEI
 62
     1
370
    30
100
AcDbCircle
 10
19.38422680277165
 20
24.82858274609117
 30
0.0
 40
0.2000000673333333
100
AcDbArc
 50
119.7448810000012
 51
180.0
  0
LINE
  5
20F
330
2
100
AcDbEntity
  8
GAIKEI
 62
     1
370
    30
100
AcDbLine
 10
19.75649242810101
 20
25.27165649525932
 30
0.0
 11
19.28499876936484
 21
25.00223150455293
 31
0.0
  0
ARC
  5
210
330
2
100
AcDbEntity
  8
GAIKEI
 62
     1
370
    30
100
AcDbCircle
 10
19.23422675227164
 20
24.69293170042204
 30
0.0
 40
0.0500000168333334
100
AcDbArc
 50
180.0
 51
267.9999999999996
  0
LINE
  5
211
330
2
100
AcDbEntity
  8
GAIKEI
 62
     1
370
    30
100
AcDbLine
 10
19.18422663543822
 20
24.82858274609117
 30
0.0
 11
19.18422663543822
 21
24.69293170042204
 31
0.0
  0
LINE
  5
212
330
2
100
AcDbEntity
  8
GAIKEI
 62
     1
370
    30
100
AcDbLine
 10
19.23248165168411
 20
23.64296164693223
 30
0.0
 11
19.75649242810101
 21
23.62466284077163
 31
0.0
  0
ARC
  5
213
330
2
100
AcDbEntity
  8
GAIKEI
 62
     1
370
    30
100
AcDbCircle
 10
19.38422680277165
 20
23.82858250942456
 30
0.0
 40
0.2000000673333333
100
AcDbArc
 50
119.7448810000012
 51
180.0
  0
LINE
  5
214
330
2
100
AcDbEntity
  8
GAIKEI
 62
     1
370
    30
100
AcDbLine
 10
19.75649242810101
 20
24.27165595859253
 30
0.0
 11
19.28499876936484
 21
24.00223096788614
 31
0.0
  0
ARC
  5
215
330
2
100
AcDbEntity
  8
GAIKEI
 62
     1
370
    30
100
AcDbCircle
 10
19.23422675227164
 20
23.69293116375525
 30
0.0
 40
0.0500000168333334
100
AcDbArc
 50
180.0
 51
267.9999999999996
  0
LINE
  5
216
330
2
100
AcDbEntity
  8
GAIKEI
 62
     1
370
    30
100
AcDbLine
 10
19.18422663543822
 20
23.82858250942456
 30
0.0
 11
19.18422663543822
 21
23.69293116375525
 31
0.0
  0
LINE
  5
217
330
2
100
AcDbEntity
  8
GAIKEI
 62
     1
370
    30
100
AcDbLine
 10
19.23248165168411
 20
22.64296141026557
 30
0.0
 11
19.75649242810101
 21
22.62466260410497
 31
0.0
  0
ARC
  5
218
330
2
100
AcDbEntity
  8
GAIKEI
 62
     1
370
    30
100
AcDbCircle
 10
19.38422680277165
 20
22.82858197275777
 30
0.0
 40
0.2000000673333333
100
AcDbArc
 50
119.7448810000012
 51
180.0
  0
LINE
  5
219
330
2
100
AcDbEntity
  8
GAIKEI
 62
     1
370
    30
100
AcDbLine
 10
19.75649242810101
 20
23.27165572192587
 30
0.0
 11
19.28499876936484
 21
23.00223073121953
 31
0.0
  0
ARC
  5
21A
330
2
100
AcDbEntity
  8
GAIKEI
 62
     1
370
    30
100
AcDbCircle
 10
19.23422675227164
 20
22.69293092708864
 30
0.0
 40
0.0500000168333334
100
AcDbArc
 50
180.0
 51
267.9999999999996
  0
LINE
  5
21B
330
2
100
AcDbEntity
  8
GAIKEI
 62
     1
370
    30
100
AcDbLine
 10
19.18422663543822
 20
22.82858197275777
 30
0.0
 11
19.18422663543822
 21
22.69293092708864
 31
0.0
  0
LINE
  5
21C
330
2
100
AcDbEntity
  8
GAIKEI
 62
     1
370
    30
100
AcDbLine
 10
19.23248165168411
 20
21.6429611735989
 30
0.0
 11
19.75649242810101
 21
21.62466206743824
 31
0.0
  0
ARC
  5
21D
330
2
100
AcDbEntity
  8
GAIKEI
 62
     1
370
    30
100
AcDbCircle
 10
19.38422680277165
 20
21.82858173609117
 30
0.0
 40
0.2000000673333333
100
AcDbArc
 50
119.7448810000012
 51
180.0
  0
LINE
  5
21E
330
2
100
AcDbEntity
  8
GAIKEI
 62
     1
370
    30
100
AcDbLine
 10
19.75649242810101
 20
22.27165548525932
 30
0.0
 11
19.28499876936484
 21
22.00223049455292
 31
0.0
  0
ARC
  5
21F
330
2
100
AcDbEntity
  8
GAIKEI
 62
     1
370
    30
100
AcDbCircle
 10
19.23422675227164
 20
21.69293069042203
 30
0.0
 40
0.0500000168333334
100
AcDbArc
 50
180.0
 51
267.9999999999996
  0
LINE
  5
220
330
2
100
AcDbEntity
  8
GAIKEI
 62
     1
370
    30
100
AcDbLine
 10
19.18422663543822
 20
21.82858173609117
 30
0.0
 11
19.18422663543822
 21
21.69293069042203
 31
0.0
  0
LINE
  5
221
330
2
100
AcDbEntity
  8
GAIKEI
 62
     1
370
    30
100
AcDbLine
 10
19.23248165168411
 20
20.64296063693223
 30
0.0
 11
19.75649242810101
 21
20.62466183077163
 31
0.0
  0
ARC
  5
222
330
2
100
AcDbEntity
  8
GAIKEI
 62
     1
370
    30
100
AcDbCircle
 10
19.38422680277165
 20
20.82858149942456
 30
0.0
 40
0.2000000673333333
100
AcDbArc
 50
119.7448810000012
 51
180.0
  0
LINE
  5
223
330
2
100
AcDbEntity
  8
GAIKEI
 62
     1
370
    30
100
AcDbLine
 10
19.75649242810101
 20
21.27165494859253
 30
0.0
 11
19.28499876936484
 21
21.00222995788613
 31
0.0
  0
ARC
  5
224
330
2
100
AcDbEntity
  8
GAIKEI
 62
     1
370
    30
100
AcDbCircle
 10
19.23422675227164
 20
20.69293015375524
 30
0.0
 40
0.0500000168333334
100
AcDbArc
 50
180.0
 51
267.9999999999996
  0
LINE
  5
225
330
2
100
AcDbEntity
  8
GAIKEI
 62
     1
370
    30
100
AcDbLine
 10
19.18422663543822
 20
20.82858149942456
 30
0.0
 11
19.18422663543822
 21
20.69293015375524
 31
0.0
  0
POLYLINE
  5
226
330
2
100
AcDbEntity
  8
GAIKEI
370
    30
100
AcDb2dPolyline
 66
     1
 10
0.0
 20
0.0
 30
0.0
  0
VERTEX
  5
227
330
226
100
AcDbEntity
  8
GAIKEI
370
    30
100
AcDbVertex
100
AcDb2dVertex
 10
29.43423018627163
 20
36.69465114099955
 30
0.0
  0
VERTEX
  5
228
330
226
100
AcDbEntity
  8
GAIKEI
370
    30
100
AcDbVertex
100
AcDb2dVertex
 10
29.42173008206328
 20
36.69465114099955
 30
0.0
  0
VERTEX
  5
229
330
226
100
AcDbEntity
  8
GAIKEI
370
    30
100
AcDbVertex
100
AcDb2dVertex
 10
29.40922997785487
 20
36.69465114099955
 30
0.0
  0
VERTEX
  5
22A
330
226
100
AcDbEntity
  8
GAIKEI
370
    30
100
AcDbVertex
100
AcDb2dVertex
 10
29.39673017364663
 20
36.69465114099955
 30
0.0
  0
VERTEX
  5
22B
330
226
100
AcDbEntity
  8
GAIKEI
370
    30
100
AcDbVertex
100
AcDb2dVertex
 10
29.38423006943827
 20
36.69465114099955
 30
0.0
  0
SEQEND
  5
22C
330
226
100
AcDbEntity
  8
GAIKEI
370
    30
  0
LINE
  5
22D
330
2
100
AcDbEntity
  8
GAIKEI
370
    30
100
AcDbLine
 10
27.98806709939686
 20
35.80721964223102
 30
0.0
 11
27.98670719893903
 21
35.78999093643068
 31
0.0
  0
ARC
  5
22E
330
2
100
AcDbEntity
  8
GAIKEI
370
    30
100
AcDbCircle
 10
28.9842300347716
 20
35.71969491276434
 30
0.0
 40
1.000000336666666
100
AcDbArc
 50
92.9999999999991
 51
175.080513
  0
LINE
  5
22F
330
2
100
AcDbEntity
  8
GAIKEI
370
    30
100
AcDbLine
 10
27.98679629896901
 20
35.79124733685365
 30
0.0
 11
27.98805569939304
 21
35.80708674218624
 31
0.0
  0
LINE
  5
230
330
2
100
AcDbEntity
  8
GAIKEI
370
    30
100
AcDbLine
 10
29.38420336942926
 20
36.74202955695023
 30
0.0
 11
28.93189381715178
 21
36.71832504896975
 31
0.0
  0
LINE
  5
231
330
2
100
AcDbEntity
  8
GAIKEI
370
    30
100
AcDbLine
 10
27.98422949810487
 20
31.28176011866015
 30
0.0
 11
27.98422949810487
 21
35.71943901267821
 31
0.0
  0
POLYLINE
  5
232
330
2
100
AcDbEntity
  8
GAIKEI
370
    30
100
AcDb2dPolyline
 66
     1
 10
0.0
 20
0.0
 30
0.0
  0
VERTEX
  5
233
330
232
100
AcDbEntity
  8
GAIKEI
370
    30
100
AcDbVertex
100
AcDb2dVertex
 10
27.98670719893903
 20
35.78999093643068
 30
0.0
  0
VERTEX
  5
234
330
232
100
AcDbEntity
  8
GAIKEI
370
    30
100
AcDbVertex
100
AcDb2dVertex
 10
27.98520509843331
 20
35.76133072678175
 30
0.0
  0
VERTEX
  5
235
330
232
100
AcDbEntity
  8
GAIKEI
370
    30
100
AcDbVertex
100
AcDb2dVertex
 10
27.98431649813415
 20
35.73265581712786
 30
0.0
  0
VERTEX
  5
236
330
232
100
AcDbEntity
  8
GAIKEI
370
    30
100
AcDbVertex
100
AcDb2dVertex
 10
27.98425679811407
 20
35.72604771490313
 30
0.0
  0
VERTEX
  5
237
330
232
100
AcDbEntity
  8
GAIKEI
370
    30
100
AcDbVertex
100
AcDb2dVertex
 10
27.98422949810487
 20
35.71943901267821
 30
0.0
  0
SEQEND
  5
238
330
232
100
AcDbEntity
  8
GAIKEI
370
    30
  0
ARC
  5
239
330
2
100
AcDbEntity
  8
GAIKEI
370
    30
100
AcDbCircle
 10
29.88423033777161
 20
35.71969491276434
 30
0.0
 40
1.000000336666666
100
AcDbArc
 50
0.0
 51
86.99999999999766
  0
LINE
  5
23A
330
2
100
AcDbEntity
  8
GAIKEI
370
    30
100
AcDbLine
 10
30.88423057443822
 20
31.12977736749264
 30
0.0
 11
30.88423057443822
 21
35.71969491276434
 31
0.0
  0
LINE
  5
23B
330
2
100
AcDbEntity
  8
GAIKEI
370
    30
100
AcDbLine
 10
29.93656625539137
 20
36.71832504896975
 30
0.0
 11
29.43423018627163
 21
36.74465125783286
 31
0.0
  0
POLYLINE
  5
23C
330
2
100
AcDbEntity
  8
GAIKEI
 62
     1
370
     9
100
AcDb2dPolyline
 66
     1
 10
0.0
 20
0.0
 30
0.0
  0
VERTEX
  5
23D
330
23C
100
AcDbEntity
  8
GAIKEI
 62
     1
370
     9
100
AcDbVertex
100
AcDb2dVertex
 10
-19.70584826131414
 20
35.40623920723431
 30
0.0
  0
VERTEX
  5
23E
330
23C
100
AcDbEntity
  8
GAIKEI
 62
     1
370
     9
100
AcDbVertex
100
AcDb2dVertex
 10
-19.71880526567634
 20
35.3468370872356
 30
0.0
  0
VERTEX
  5
23F
330
23C
100
AcDbEntity
  8
GAIKEI
 62
     1
370
     9
100
AcDbVertex
100
AcDb2dVertex
 10
-19.73761797200996
 20
35.28963576797782
 30
0.0
  0
VERTEX
  5
240
330
23C
100
AcDbEntity
  8
GAIKEI
 62
     1
370
     9
100
AcDbVertex
100
AcDb2dVertex
 10
-19.76633968167959
 20
35.23728095035171
 30
0.0
  0
VERTEX
  5
241
330
23C
100
AcDbEntity
  8
GAIKEI
 62
     1
370
     9
100
AcDbVertex
100
AcDb2dVertex
 10
-19.80407309438317
 20
35.19042903457825
 30
0.0
  0
VERTEX
  5
242
330
23C
100
AcDbEntity
  8
GAIKEI
 62
     1
370
     9
100
AcDbVertex
100
AcDb2dVertex
 10
-19.84939050964004
 20
35.14972322087397
 30
0.0
  0
VERTEX
  5
243
330
23C
100
AcDbEntity
  8
GAIKEI
 62
     1
370
     9
100
AcDbVertex
100
AcDb2dVertex
 10
-19.90063982689395
 20
35.11713960990415
 30
0.0
  0
VERTEX
  5
244
330
23C
100
AcDbEntity
  8
GAIKEI
 62
     1
370
     9
100
AcDbVertex
100
AcDb2dVertex
 10
-19.95735094598671
 20
35.09361000198249
 30
0.0
  0
VERTEX
  5
245
330
23C
100
AcDbEntity
  8
GAIKEI
 62
     1
370
     9
100
AcDbVertex
100
AcDb2dVertex
 10
-20.01732816617903
 20
35.08021799747388
 30
0.0
  0
VERTEX
  5
246
330
23C
100
AcDbEntity
  8
GAIKEI
 62
     1
370
     9
100
AcDbVertex
100
AcDb2dVertex
 10
-20.07700718627098
 20
35.07740459652666
 30
0.0
  0
VERTEX
  5
247
330
23C
100
AcDbEntity
  8
GAIKEI
 62
     1
370
     9
100
AcDbVertex
100
AcDb2dVertex
 10
-20.13629620623158
 20
35.084694598981
 30
0.0
  0
VERTEX
  5
248
330
23C
100
AcDbEntity
  8
GAIKEI
 62
     1
370
     9
100
AcDbVertex
100
AcDb2dVertex
 10
-20.19248202514746
 20
35.10149580463741
 30
0.0
  0
VERTEX
  5
249
330
23C
100
AcDbEntity
  8
GAIKEI
 62
     1
370
     9
100
AcDbVertex
100
AcDb2dVertex
 10
-20.24509514286058
 20
35.12729251332229
 30
0.0
  0
VERTEX
  5
24A
330
23C
100
AcDbEntity
  8
GAIKEI
 62
     1
370
     9
100
AcDbVertex
100
AcDb2dVertex
 10
-20.29387785928407
 20
35.16235772512755
 30
0.0
  0
VERTEX
  5
24B
330
23C
100
AcDbEntity
  8
GAIKEI
 62
     1
370
     9
100
AcDbVertex
100
AcDb2dVertex
 10
-20.33642927360972
 20
35.20501413948853
 30
0.0
  0
VERTEX
  5
24C
330
23C
100
AcDbEntity
  8
GAIKEI
 62
     1
370
     9
100
AcDbVertex
100
AcDb2dVertex
 10
-20.37282198586195
 20
35.25588605661545
 30
0.0
  0
VERTEX
  5
24D
330
23C
100
AcDbEntity
  8
GAIKEI
 62
     1
370
     9
100
AcDbVertex
100
AcDb2dVertex
 10
-20.39930479477778
 20
35.31211627554626
 30
0.0
  0
VERTEX
  5
24E
330
23C
100
AcDbEntity
  8
GAIKEI
 62
     1
370
     9
100
AcDbVertex
100
AcDb2dVertex
 10
-20.41235869917262
 20
35.35859259119332
 30
0.0
  0
VERTEX
  5
24F
330
23C
100
AcDbEntity
  8
GAIKEI
 62
     1
370
     9
100
AcDbVertex
100
AcDb2dVertex
 10
-20.42168900231377
 20
35.40623920723431
 30
0.0
  0
SEQEND
  5
250
330
23C
100
AcDbEntity
  8
GAIKEI
 62
     1
370
     9
  0
POLYLINE
  5
251
330
2
100
AcDbEntity
  8
GAIKEI
 62
     1
370
     9
100
AcDb2dPolyline
 66
     1
 10
0.0
 20
0.0
 30
0.0
  0
VERTEX
  5
252
330
251
100
AcDbEntity
  8
GAIKEI
 62
     1
370
     9
100
AcDbVertex
100
AcDb2dVertex
 10
-30.57195481956882
 20
35.19541413625655
 30
0.0
  0
VERTEX
  5
253
330
251
100
AcDbEntity
  8
GAIKEI
 62
     1
370
     9
100
AcDbVertex
100
AcDb2dVertex
 10
-30.52505790378018
 20
35.23482934952631
 30
0.0
  0
VERTEX
  5
254
330
251
100
AcDbEntity
  8
GAIKEI
 62
     1
370
     9
100
AcDbVertex
100
AcDb2dVertex
 10
-30.47468578682157
 20
35.2685346608738
 30
0.0
  0
VERTEX
  5
255
330
251
100
AcDbEntity
  8
GAIKEI
 62
     1
370
     9
100
AcDbVertex
100
AcDb2dVertex
 10
-30.41886626802898
 20
35.29174596868825
 30
0.0
  0
VERTEX
  5
256
330
251
100
AcDbEntity
  8
GAIKEI
 62
     1
370
     9
100
AcDbVertex
100
AcDb2dVertex
 10
-30.3592424479557
 20
35.3042682729041
 30
0.0
  0
VERTEX
  5
257
330
251
100
AcDbEntity
  8
GAIKEI
 62
     1
370
     9
100
AcDbVertex
100
AcDb2dVertex
 10
-30.29860492754102
 20
35.30656087367595
 30
0.0
  0
VERTEX
  5
258
330
251
100
AcDbEntity
  8
GAIKEI
 62
     1
370
     9
100
AcDbVertex
100
AcDb2dVertex
 10
-30.23857040732941
 20
35.29862827100533
 30
0.0
  0
VERTEX
  5
259
330
251
100
AcDbEntity
  8
GAIKEI
 62
     1
370
     9
100
AcDbVertex
100
AcDb2dVertex
 10
-30.18035478773015
 20
35.28036096485533
 30
0.0
  0
VERTEX
  5
25A
330
251
100
AcDbEntity
  8
GAIKEI
 62
     1
370
     9
100
AcDbVertex
100
AcDb2dVertex
 10
-30.126357169551
 20
35.2522779554007
 30
0.0
  0
VERTEX
  5
25B
330
251
100
AcDbEntity
  8
GAIKEI
 62
     1
370
     9
100
AcDbVertex
100
AcDb2dVertex
 10
-30.11767516662803
 20
35.24655005347233
 30
0.0
  0
VERTEX
  5
25C
330
251
100
AcDbEntity
  8
GAIKEI
 62
     1
370
     9
100
AcDbVertex
100
AcDb2dVertex
 10
-30.10908796373701
 20
35.24068715149849
 30
0.0
  0
SEQEND
  5
25D
330
251
100
AcDbEntity
  8
GAIKEI
 62
     1
370
     9
  0
POLYLINE
  5
25E
330
2
100
AcDbEntity
  8
GAIKEI
 62
     1
370
     9
100
AcDb2dPolyline
 66
     1
 10
0.0
 20
0.0
 30
0.0
  0
VERTEX
  5
25F
330
25E
100
AcDbEntity
  8
GAIKEI
 62
     1
370
     9
100
AcDbVertex
100
AcDb2dVertex
 10
-10.01844929989096
 20
35.24068715149849
 30
0.0
  0
VERTEX
  5
260
330
25E
100
AcDbEntity
  8
GAIKEI
 62
     1
370
     9
100
AcDbVertex
100
AcDb2dVertex
 10
-9.964803881830334
 20
35.27026836145751
 30
0.0
  0
VERTEX
  5
261
330
25E
100
AcDbEntity
  8
GAIKEI
 62
     1
370
     9
100
AcDbVertex
100
AcDb2dVertex
 10
-9.908855362994358
 20
35.29357446930385
 30
0.0
  0
VERTEX
  5
262
330
25E
100
AcDbEntity
  8
GAIKEI
 62
     1
370
     9
100
AcDbVertex
100
AcDb2dVertex
 10
-9.849596043043675
 20
35.3055300733289
 30
0.0
  0
VERTEX
  5
263
330
25E
100
AcDbEntity
  8
GAIKEI
 62
     1
370
     9
100
AcDbVertex
100
AcDb2dVertex
 10
-9.788675922533911
 20
35.30626207357534
 30
0.0
  0
VERTEX
  5
264
330
25E
100
AcDbEntity
  8
GAIKEI
 62
     1
370
     9
100
AcDbVertex
100
AcDb2dVertex
 10
-9.728743402356656
 20
35.29676137037677
 30
0.0
  0
VERTEX
  5
265
330
25E
100
AcDbEntity
  8
GAIKEI
 62
     1
370
     9
100
AcDbVertex
100
AcDb2dVertex
 10
-9.671383683045576
 20
35.27734656384047
 30
0.0
  0
VERTEX
  5
266
330
25E
100
AcDbEntity
  8
GAIKEI
 62
     1
370
     9
100
AcDbVertex
100
AcDb2dVertex
 10
-9.617810865009403
 20
35.24814515400931
 30
0.0
  0
VERTEX
  5
267
330
25E
100
AcDbEntity
  8
GAIKEI
 62
     1
370
     9
100
AcDbVertex
100
AcDb2dVertex
 10
-9.570278549006843
 20
35.21013154121141
 30
0.0
  0
VERTEX
  5
268
330
25E
100
AcDbEntity
  8
GAIKEI
 62
     1
370
     9
100
AcDbVertex
100
AcDb2dVertex
 10
-9.562870646512863
 20
35.20282983875314
 30
0.0
  0
VERTEX
  5
269
330
25E
100
AcDbEntity
  8
GAIKEI
 62
     1
370
     9
100
AcDbVertex
100
AcDb2dVertex
 10
-9.555582144059087
 20
35.19541413625655
 30
0.0
  0
SEQEND
  5
26A
330
25E
100
AcDbEntity
  8
GAIKEI
 62
     1
370
     9
  0
POLYLINE
  5
26B
330
2
100
AcDbEntity
  8
GAIKEI
 62
     1
370
     9
100
AcDb2dPolyline
 66
     1
 10
0.0
 20
0.0
 30
0.0
  0
VERTEX
  5
26C
330
26B
100
AcDbEntity
  8
GAIKEI
 62
     1
370
     9
100
AcDbVertex
100
AcDb2dVertex
 10
-20.29630636010165
 20
35.71943901267821
 30
0.0
  0
VERTEX
  5
26D
330
26B
100
AcDbEntity
  8
GAIKEI
 62
     1
370
     9
100
AcDbVertex
100
AcDb2dVertex
 10
-20.24579534309629
 20
35.75410162434798
 30
0.0
  0
VERTEX
  5
26E
330
26B
100
AcDbEntity
  8
GAIKEI
 62
     1
370
     9
100
AcDbVertex
100
AcDb2dVertex
 10
-20.19238122511354
 20
35.78274323399063
 30
0.0
  0
VERTEX
  5
26F
330
26B
100
AcDbEntity
  8
GAIKEI
 62
     1
370
     9
100
AcDbVertex
100
AcDb2dVertex
 10
-20.13456730564951
 20
35.80041083993871
 30
0.0
  0
VERTEX
  5
270
330
26B
100
AcDbEntity
  8
GAIKEI
 62
     1
370
     9
100
AcDbVertex
100
AcDb2dVertex
 10
-20.07400808526126
 20
35.80706964218052
 30
0.0
  0
VERTEX
  5
271
330
26B
100
AcDbEntity
  8
GAIKEI
 62
     1
370
     9
100
AcDbVertex
100
AcDb2dVertex
 10
-20.01343506486836
 20
35.80344834096133
 30
0.0
  0
VERTEX
  5
272
330
26B
100
AcDbEntity
  8
GAIKEI
 62
     1
370
     9
100
AcDbVertex
100
AcDb2dVertex
 10
-19.95445774501263
 20
35.78970923633586
 30
0.0
  0
VERTEX
  5
273
330
26B
100
AcDbEntity
  8
GAIKEI
 62
     1
370
     9
100
AcDbVertex
100
AcDb2dVertex
 10
-19.89829712610526
 20
35.76586162830711
 30
0.0
  0
VERTEX
  5
274
330
26B
100
AcDbEntity
  8
GAIKEI
 62
     1
370
     9
100
AcDbVertex
100
AcDb2dVertex
 10
-19.84728960893272
 20
35.73265581712786
 30
0.0
  0
VERTEX
  5
275
330
26B
100
AcDbEntity
  8
GAIKEI
 62
     1
370
     9
100
AcDbVertex
100
AcDb2dVertex
 10
-19.83920640621142
 20
35.72610981492403
 30
0.0
  0
VERTEX
  5
276
330
26B
100
AcDbEntity
  8
GAIKEI
 62
     1
370
     9
100
AcDbVertex
100
AcDb2dVertex
 10
-19.83123060352619
 20
35.71943901267821
 30
0.0
  0
SEQEND
  5
277
330
26B
100
AcDbEntity
  8
GAIKEI
 62
     1
370
     9
  0
ARC
  5
278
330
2
100
AcDbEntity
  8
GAIKEI
 62
     1
370
     9
100
AcDbCircle
 10
-9.813764930980539
 20
34.94456755180488
 30
0.0
 40
0.3599755781840407
100
AcDbArc
 50
124.6530529999991
 51
44.17428599999905
  0
ARC
  5
279
330
2
100
AcDbEntity
  8
GAIKEI
 62
     1
370
     9
100
AcDbCircle
 10
-20.06376848181395
 20
35.44465092016628
 30
0.0
 40
0.3599755781840419
100
AcDbArc
 50
353.8745319999995
 51
49.76061599999933
  0
ARC
  5
27A
330
2
100
AcDbEntity
  8
GAIKEI
 62
     1
370
     9
100
AcDbCircle
 10
-9.813764930980539
 20
31.19464938933288
 30
0.0
 40
0.3599755781840407
100
AcDbArc
 50
350.426579
 51
190.1719340000003
  0
ARC
  5
27B
330
2
100
AcDbEntity
  8
GAIKEI
 62
     1
370
     9
100
AcDbCircle
 10
-20.06376848181395
 20
35.44465092016628
 30
0.0
 40
0.3599755781840419
100
AcDbArc
 50
130.2393840000006
 51
186.1254680000005
  0
ARC
  5
27C
330
2
100
AcDbEntity
  8
GAIKEI
 62
     1
370
     9
100
AcDbCircle
 10
-30.31377203264731
 20
31.19464938933288
 30
0.0
 40
0.3599755781840407
100
AcDbArc
 50
349.8280659999997
 51
189.5734209999999
  0
ARC
  5
27D
330
2
100
AcDbEntity
  8
GAIKEI
 62
     1
370
     9
100
AcDbCircle
 10
-30.31377203264731
 20
34.94456755180488
 30
0.0
 40
0.3599755781840407
100
AcDbArc
 50
135.8257140000009
 51
55.34694700000088
  0
LINE
  5
27E
330
2
100
AcDbEntity
  8
GAIKEI
370
     9
100
AcDbLine
 10
-31.51377243664729
 20
35.85860455953059
 30
0.0
 11
-31.51377243664729
 21
31.14667637318201
 31
0.0
  0
LINE
  5
27F
330
2
100
AcDbEntity
  8
GAIKEI
370
     9
100
AcDbLine
 10
-31.24561044636613
 20
36.15654065983574
 30
0.0
 11
-31.27904455762229
 21
36.15109175800126
 31
0.0
  0
POLYLINE
  5
280
330
2
100
AcDbEntity
  8
GAIKEI
370
     9
100
AcDb2dPolyline
 66
     1
 10
0.0
 20
0.0
 30
0.0
  0
VERTEX
  5
281
330
280
100
AcDbEntity
  8
GAIKEI
370
     9
100
AcDbVertex
100
AcDb2dVertex
 10
-31.27904455762229
 20
36.15109175800126
 30
0.0
  0
VERTEX
  5
282
330
280
100
AcDbEntity
  8
GAIKEI
370
     9
100
AcDbVertex
100
AcDb2dVertex
 10
-31.31123336845917
 20
36.14128835470075
 30
0.0
  0
VERTEX
  5
283
330
280
100
AcDbEntity
  8
GAIKEI
370
     9
100
AcDbVertex
100
AcDb2dVertex
 10
-31.34251257898984
 20
36.12934355067932
 30
0.0
  0
VERTEX
  5
284
330
280
100
AcDbEntity
  8
GAIKEI
370
     9
100
AcDbVertex
100
AcDb2dVertex
 10
-31.38613529367615
 20
36.10426594223657
 30
0.0
  0
VERTEX
  5
285
330
280
100
AcDbEntity
  8
GAIKEI
370
     9
100
AcDbVertex
100
AcDb2dVertex
 10
-31.42494540674221
 20
36.07158783123492
 30
0.0
  0
VERTEX
  5
286
330
280
100
AcDbEntity
  8
GAIKEI
370
     9
100
AcDbVertex
100
AcDb2dVertex
 10
-31.45797631786263
 20
36.03317221830173
 30
0.0
  0
VERTEX
  5
287
330
280
100
AcDbEntity
  8
GAIKEI
370
     9
100
AcDbVertex
100
AcDb2dVertex
 10
-31.48351592646094
 20
35.98988550372849
 30
0.0
  0
VERTEX
  5
288
330
280
100
AcDbEntity
  8
GAIKEI
370
     9
100
AcDbVertex
100
AcDb2dVertex
 10
-31.49474673024196
 20
35.962049394357
 30
0.0
  0
VERTEX
  5
289
330
280
100
AcDbEntity
  8
GAIKEI
370
     9
100
AcDbVertex
100
AcDb2dVertex
 10
-31.50428493345316
 20
35.93346328473302
 30
0.0
  0
SEQEND
  5
28A
330
280
100
AcDbEntity
  8
GAIKEI
370
     9
  0
POLYLINE
  5
28B
330
2
100
AcDbEntity
  8
GAIKEI
370
     9
100
AcDb2dPolyline
 66
     1
 10
0.0
 20
0.0
 30
0.0
  0
VERTEX
  5
28C
330
28B
100
AcDbEntity
  8
GAIKEI
370
     9
100
AcDbVertex
100
AcDb2dVertex
 10
-31.50428493345316
 20
35.93346328473302
 30
0.0
  0
VERTEX
  5
28D
330
28B
100
AcDbEntity
  8
GAIKEI
370
     9
100
AcDbVertex
100
AcDb2dVertex
 10
-31.50852903488203
 20
35.91351267801633
 30
0.0
  0
VERTEX
  5
28E
330
28B
100
AcDbEntity
  8
GAIKEI
370
     9
100
AcDbVertex
100
AcDb2dVertex
 10
-31.51174443596455
 20
35.89343667125741
 30
0.0
  0
VERTEX
  5
28F
330
28B
100
AcDbEntity
  8
GAIKEI
370
     9
100
AcDbVertex
100
AcDb2dVertex
 10
-31.5131361364331
 20
35.8760666654095
 30
0.0
  0
VERTEX
  5
290
330
28B
100
AcDbEntity
  8
GAIKEI
370
     9
100
AcDbVertex
100
AcDb2dVertex
 10
-31.51377243664729
 20
35.85860455953059
 30
0.0
  0
SEQEND
  5
291
330
28B
100
AcDbEntity
  8
GAIKEI
370
     9
  0
ARC
  5
292
330
2
100
AcDbEntity
  8
GAIKEI
370
     9
100
AcDbCircle
 10
-20.06376848181395
 20
-69.85048942918573
 30
0.0
 40
106.5951407169503
100
AcDbArc
 50
83.9785889999991
 51
96.02141100000089
  0
POLYLINE
  5
293
330
2
100
AcDbEntity
  8
GAIKEI
370
     9
100
AcDb2dPolyline
 66
     1
 10
0.0
 20
0.0
 30
0.0
  0
VERTEX
  5
294
330
293
100
AcDbEntity
  8
GAIKEI
370
     9
100
AcDbVertex
100
AcDb2dVertex
 10
-8.61376452698056
 20
35.85860455953059
 30
0.0
  0
VERTEX
  5
295
330
293
100
AcDbEntity
  8
GAIKEI
370
     9
100
AcDbVertex
100
AcDb2dVertex
 10
-8.614486027223449
 20
35.8760408654008
 30
0.0
  0
VERTEX
  5
296
330
293
100
AcDbEntity
  8
GAIKEI
370
     9
100
AcDbVertex
100
AcDb2dVertex
 10
-8.615792527663302
 20
35.89343667125741
 30
0.0
  0
VERTEX
  5
297
330
293
100
AcDbEntity
  8
GAIKEI
370
     9
100
AcDbVertex
100
AcDb2dVertex
 10
-8.625623530973086
 20
35.94282928788624
 30
0.0
  0
VERTEX
  5
298
330
293
100
AcDbEntity
  8
GAIKEI
370
     9
100
AcDbVertex
100
AcDb2dVertex
 10
-8.644021037166908
 20
35.98988550372849
 30
0.0
  0
VERTEX
  5
299
330
293
100
AcDbEntity
  8
GAIKEI
370
     9
100
AcDbVertex
100
AcDb2dVertex
 10
-8.669930545889769
 20
36.03310861828027
 30
0.0
  0
VERTEX
  5
29A
330
293
100
AcDbEntity
  8
GAIKEI
370
     9
100
AcDbVertex
100
AcDb2dVertex
 10
-8.702591556885636
 20
36.07158783123492
 30
0.0
  0
VERTEX
  5
29B
330
293
100
AcDbEntity
  8
GAIKEI
370
     9
100
AcDbVertex
100
AcDb2dVertex
 10
-8.741309569920701
 20
36.1043613422687
 30
0.0
  0
VERTEX
  5
29C
330
293
100
AcDbEntity
  8
GAIKEI
370
     9
100
AcDbVertex
100
AcDb2dVertex
 10
-8.785024384638006
 20
36.12934355067932
 30
0.0
  0
VERTEX
  5
29D
330
293
100
AcDbEntity
  8
GAIKEI
370
     9
100
AcDbVertex
100
AcDb2dVertex
 10
-8.832499100621191
 20
36.14546285610618
 30
0.0
  0
VERTEX
  5
29E
330
293
100
AcDbEntity
  8
GAIKEI
370
     9
100
AcDbVertex
100
AcDb2dVertex
 10
-8.881926817261842
 20
36.15654065983574
 30
0.0
  0
SEQEND
  5
29F
330
293
100
AcDbEntity
  8
GAIKEI
370
     9
  0
LINE
  5
2A0
330
2
100
AcDbEntity
  8
GAIKEI
370
     9
100
AcDbLine
 10
-8.61376452698056
 20
31.14667637318201
 30
0.0
 11
-8.61376452698056
 21
35.14946222078606
 31
0.0
  0
LINE
  5
2A1
330
2
100
AcDbEntity
  8
GAIKEI
370
     9
100
AcDbLine
 10
-11.21376550231395
 20
33.62976040915328
 30
0.0
 11
-11.21376550231395
 21
31.12608676625018
 31
0.0
  0
ARC
  5
2A2
330
2
100
AcDbEntity
  8
GAIKEI
370
     9
100
AcDbCircle
 10
-20.06376848181395
 20
-69.85048942918573
 30
0.0
 40
103.995139841617
100
AcDbArc
 50
85.19410100000014
 51
94.80589899999987
  0
POLYLINE
  5
2A3
330
2
100
AcDbEntity
  8
GAIKEI
370
     9
100
AcDb2dPolyline
 66
     1
 10
0.0
 20
0.0
 30
0.0
  0
VERTEX
  5
2A4
330
2A3
100
AcDbEntity
  8
GAIKEI
370
     9
100
AcDbVertex
100
AcDb2dVertex
 10
-28.91377146131396
 20
33.62976040915328
 30
0.0
  0
VERTEX
  5
2A5
330
2A3
100
AcDbEntity
  8
GAIKEI
370
     9
100
AcDbVertex
100
AcDb2dVertex
 10
-28.91327046114526
 20
33.64006331262198
 30
0.0
  0
VERTEX
  5
2A6
330
2A3
100
AcDbEntity
  8
GAIKEI
370
     9
100
AcDbVertex
100
AcDb2dVertex
 10
-28.9123554608372
 20
33.65032871607798
 30
0.0
  0
VERTEX
  5
2A7
330
2A3
100
AcDbEntity
  8
GAIKEI
370
     9
100
AcDbVertex
100
AcDb2dVertex
 10
-28.9069314590111
 20
33.67491432435514
 30
0.0
  0
VERTEX
  5
2A8
330
2A3
100
AcDbEntity
  8
GAIKEI
370
     9
100
AcDbVertex
100
AcDb2dVertex
 10
-28.89722405574298
 20
33.69824053220828
 30
0.0
  0
VERTEX
  5
2A9
330
2A3
100
AcDbEntity
  8
GAIKEI
370
     9
100
AcDbVertex
100
AcDb2dVertex
 10
-28.88381075122715
 20
33.71957263939009
 30
0.0
  0
VERTEX
  5
2AA
330
2A3
100
AcDbEntity
  8
GAIKEI
370
     9
100
AcDbVertex
100
AcDb2dVertex
 10
-28.86707974559437
 20
33.73846184574944
 30
0.0
  0
VERTEX
  5
2AB
330
2A3
100
AcDbEntity
  8
GAIKEI
370
     9
100
AcDbVertex
100
AcDb2dVertex
 10
-28.84737753896132
 20
33.75443505112708
 30
0.0
  0
VERTEX
  5
2AC
330
2A3
100
AcDbEntity
  8
GAIKEI
370
     9
100
AcDbVertex
100
AcDb2dVertex
 10
-28.82525793151439
 20
33.76646025517562
 30
0.0
  0
VERTEX
  5
2AD
330
2A3
100
AcDbEntity
  8
GAIKEI
370
     9
100
AcDbVertex
100
AcDb2dVertex
 10
-28.80135332346652
 20
33.77401485771895
 30
0.0
  0
VERTEX
  5
2AE
330
2A3
100
AcDbEntity
  8
GAIKEI
370
     9
100
AcDbVertex
100
AcDb2dVertex
 10
-28.77652681510824
 20
33.77902815940678
 30
0.0
  0
SEQEND
  5
2AF
330
2A3
100
AcDbEntity
  8
GAIKEI
370
     9
  0
LINE
  5
2B0
330
2
100
AcDbEntity
  8
GAIKEI
370
     9
100
AcDbLine
 10
-28.91377146131396
 20
31.12608676625018
 30
0.0
 11
-28.91377146131396
 21
33.62976040915328
 31
0.0
  0
POLYLINE
  5
2B1
330
2
100
AcDbEntity
  8
GAIKEI
370
     9
100
AcDb2dPolyline
 66
     1
 10
0.0
 20
0.0
 30
0.0
  0
VERTEX
  5
2B2
330
2B1
100
AcDbEntity
  8
GAIKEI
370
     9
100
AcDbVertex
100
AcDb2dVertex
 10
-11.3510101485196
 20
33.77902815940678
 30
0.0
  0
VERTEX
  5
2B3
330
2B1
100
AcDbEntity
  8
GAIKEI
370
     9
100
AcDbVertex
100
AcDb2dVertex
 10
-11.34078554507732
 20
33.77766585894813
 30
0.0
  0
VERTEX
  5
2B4
330
2B1
100
AcDbEntity
  8
GAIKEI
370
     9
100
AcDbVertex
100
AcDb2dVertex
 10
-11.33063264165918
 20
33.77589405835164
 30
0.0
  0
VERTEX
  5
2B5
330
2B1
100
AcDbEntity
  8
GAIKEI
370
     9
100
AcDbVertex
100
AcDb2dVertex
 10
-11.30658823356424
 20
33.76842945583855
 30
0.0
  0
VERTEX
  5
2B6
330
2B1
100
AcDbEntity
  8
GAIKEI
370
     9
100
AcDbVertex
100
AcDb2dVertex
 10
-11.28415722601249
 20
33.75680175192389
 30
0.0
  0
VERTEX
  5
2B7
330
2B1
100
AcDbEntity
  8
GAIKEI
370
     9
100
AcDbVertex
100
AcDb2dVertex
 10
-11.26402391923426
 20
33.7416484468223
 30
0.0
  0
VERTEX
  5
2B8
330
2B1
100
AcDbEntity
  8
GAIKEI
370
     9
100
AcDbVertex
100
AcDb2dVertex
 10
-11.2466029133692
 20
33.72339344067643
 30
0.0
  0
VERTEX
  5
2B9
330
2B1
100
AcDbEntity
  8
GAIKEI
370
     9
100
AcDbVertex
100
AcDb2dVertex
 10
-11.23233640856614
 20
33.70242253361619
 30
0.0
  0
VERTEX
  5
2BA
330
2B1
100
AcDbEntity
  8
GAIKEI
370
     9
100
AcDbVertex
100
AcDb2dVertex
 10
-11.22220660515575
 20
33.67937292585623
 30
0.0
  0
VERTEX
  5
2BB
330
2B1
100
AcDbEntity
  8
GAIKEI
370
     9
100
AcDbVertex
100
AcDb2dVertex
 10
-11.21668150329566
 20
33.65491961762359
 30
0.0
  0
VERTEX
  5
2BC
330
2B1
100
AcDbEntity
  8
GAIKEI
370
     9
100
AcDbVertex
100
AcDb2dVertex
 10
-11.21376550231395
 20
33.62976040915328
 30
0.0
  0
SEQEND
  5
2BD
330
2B1
100
AcDbEntity
  8
GAIKEI
370
     9
  0
POLYLINE
  5
2BE
330
2
100
AcDbEntity
  8
GAIKEI
370
     9
100
AcDb2dPolyline
 66
     1
 10
0.0
 20
0.0
 30
0.0
  0
VERTEX
  5
2BF
330
2BE
100
AcDbEntity
  8
GAIKEI
370
     9
100
AcDbVertex
100
AcDb2dVertex
 10
-8.42900616477857
 20
31.34464943983289
 30
0.0
  0
VERTEX
  5
2C0
330
2BE
100
AcDbEntity
  8
GAIKEI
370
     9
100
AcDbVertex
100
AcDb2dVertex
 10
-8.432103665821443
 20
31.3445015397831
 30
0.0
  0
VERTEX
  5
2C1
330
2BE
100
AcDbEntity
  8
GAIKEI
370
     9
100
AcDbVertex
100
AcDb2dVertex
 10
-8.43630636723634
 20
31.34411303965226
 30
0.0
  0
VERTEX
  5
2C2
330
2BE
100
AcDbEntity
  8
GAIKEI
370
     9
100
AcDbVertex
100
AcDb2dVertex
 10
-8.440605668683758
 20
31.34337443940365
 30
0.0
  0
VERTEX
  5
2C3
330
2BE
100
AcDbEntity
  8
GAIKEI
370
     9
100
AcDbVertex
100
AcDb2dVertex
 10
-8.444784370090587
 20
31.3420910389716
 30
0.0
  0
VERTEX
  5
2C4
330
2BE
100
AcDbEntity
  8
GAIKEI
370
     9
100
AcDbVertex
100
AcDb2dVertex
 10
-8.448557471360857
 20
31.34061083847325
 30
0.0
  0
VERTEX
  5
2C5
330
2BE
100
AcDbEntity
  8
GAIKEI
370
     9
100
AcDbVertex
100
AcDb2dVertex
 10
-8.451275172275813
 20
31.33940873806853
 30
0.0
  0
SEQEND
  5
2C6
330
2BE
100
AcDbEntity
  8
GAIKEI
370
     9
  0
LINE
  5
2C7
330
2
100
AcDbEntity
  8
GAIKEI
370
     9
100
AcDbLine
 10
-8.42900616477857
 20
31.34464943983289
 30
0.0
 11
-6.162393501685926
 21
31.34464943983289
 31
0.0
  0
POLYLINE
  5
2C8
330
2
100
AcDbEntity
  8
GAIKEI
370
     9
100
AcDb2dPolyline
 66
     1
 10
0.0
 20
0.0
 30
0.0
  0
VERTEX
  5
2C9
330
2C8
100
AcDbEntity
  8
GAIKEI
370
     9
100
AcDbVertex
100
AcDb2dVertex
 10
-5.163763365480576
 20
30.34601960362761
 30
0.0
  0
VERTEX
  5
2CA
330
2C8
100
AcDbEntity
  8
GAIKEI
370
     9
100
AcDbVertex
100
AcDb2dVertex
 10
-5.172261768341684
 20
30.45611904069438
 30
0.0
  0
VERTEX
  5
2CB
330
2C8
100
AcDbEntity
  8
GAIKEI
370
     9
100
AcDbVertex
100
AcDb2dVertex
 10
-5.197530476848839
 20
30.60377549040538
 30
0.0
  0
VERTEX
  5
2CC
330
2C8
100
AcDbEntity
  8
GAIKEI
370
     9
100
AcDbVertex
100
AcDb2dVertex
 10
-5.223689585655733
 20
30.69009871946753
 30
0.0
  0
VERTEX
  5
2CD
330
2C8
100
AcDbEntity
  8
GAIKEI
370
     9
100
AcDbVertex
100
AcDb2dVertex
 10
-5.257005496872068
 20
30.76771774559927
 30
0.0
  0
VERTEX
  5
2CE
330
2C8
100
AcDbEntity
  8
GAIKEI
370
     9
100
AcDbVertex
100
AcDb2dVertex
 10
-5.297220810411204
 20
30.84432697139107
 30
0.0
  0
VERTEX
  5
2CF
330
2C8
100
AcDbEntity
  8
GAIKEI
370
     9
100
AcDbVertex
100
AcDb2dVertex
 10
-5.344073926185103
 20
30.91876329645129
 30
0.0
  0
VERTEX
  5
2D0
330
2C8
100
AcDbEntity
  8
GAIKEI
370
     9
100
AcDbVertex
100
AcDb2dVertex
 10
-5.397218944077224
 20
30.98821271983258
 30
0.0
  0
VERTEX
  5
2D1
330
2C8
100
AcDbEntity
  8
GAIKEI
370
     9
100
AcDbVertex
100
AcDb2dVertex
 10
-5.456089763897068
 20
31.05232334141647
 30
0.0
  0
VERTEX
  5
2D2
330
2C8
100
AcDbEntity
  8
GAIKEI
370
     9
100
AcDbVertex
100
AcDb2dVertex
 10
-5.520200385480961
 20
31.11119416123631
 30
0.0
  0
VERTEX
  5
2D3
330
2C8
100
AcDbEntity
  8
GAIKEI
370
     9
100
AcDbVertex
100
AcDb2dVertex
 10
-5.58964950886218
 20
31.16433917912843
 30
0.0
  0
VERTEX
  5
2D4
330
2C8
100
AcDbEntity
  8
GAIKEI
370
     9
100
AcDbVertex
100
AcDb2dVertex
 10
-5.664085833922399
 20
31.21119199490227
 30
0.0
  0
VERTEX
  5
2D5
330
2C8
100
AcDbEntity
  8
GAIKEI
370
     9
100
AcDbVertex
100
AcDb2dVertex
 10
-5.740695359714266
 20
31.25140730844135
 30
0.0
  0
VERTEX
  5
2D6
330
2C8
100
AcDbEntity
  8
GAIKEI
370
     9
100
AcDbVertex
100
AcDb2dVertex
 10
-5.818314085845884
 20
31.28472351965786
 30
0.0
  0
VERTEX
  5
2D7
330
2C8
100
AcDbEntity
  8
GAIKEI
370
     9
100
AcDbVertex
100
AcDb2dVertex
 10
-5.904637314908029
 20
31.3108826284647
 30
0.0
  0
VERTEX
  5
2D8
330
2C8
100
AcDbEntity
  8
GAIKEI
370
     9
100
AcDbVertex
100
AcDb2dVertex
 10
-6.052293764619037
 20
31.33615103697173
 30
0.0
  0
VERTEX
  5
2D9
330
2C8
100
AcDbEntity
  8
GAIKEI
370
     9
100
AcDbVertex
100
AcDb2dVertex
 10
-6.162393501685926
 20
31.34464943983289
 30
0.0
  0
SEQEND
  5
2DA
330
2C8
100
AcDbEntity
  8
GAIKEI
370
     9
  0
LINE
  5
2DB
330
2
100
AcDbEntity
  8
GAIKEI
370
     9
100
AcDbLine
 10
-5.163763365480576
 20
30.34601960362761
 30
0.0
 11
-5.163763365480576
 21
-13.45536554283376
 31
0.0
  0
POLYLINE
  5
2DC
330
2
100
AcDbEntity
  8
GAIKEI
370
     9
100
AcDb2dPolyline
 66
     1
 10
0.0
 20
0.0
 30
0.0
  0
VERTEX
  5
2DD
330
2DC
100
AcDbEntity
  8
GAIKEI
370
     9
100
AcDbVertex
100
AcDb2dVertex
 10
-6.165136102609267
 20
-14.45536607950049
 30
0.0
  0
VERTEX
  5
2DE
330
2DC
100
AcDbEntity
  8
GAIKEI
370
     9
100
AcDbVertex
100
AcDb2dVertex
 10
-6.092652478206446
 20
-14.4515689782221
 30
0.0
  0
VERTEX
  5
2DF
330
2DC
100
AcDbEntity
  8
GAIKEI
370
     9
100
AcDbVertex
100
AcDb2dVertex
 10
-5.991249744067545
 20
-14.44017377438575
 30
0.0
  0
VERTEX
  5
2E0
330
2DC
100
AcDbEntity
  8
GAIKEI
370
     9
100
AcDbVertex
100
AcDb2dVertex
 10
-5.812919784029816
 20
-14.39507595920281
 30
0.0
  0
VERTEX
  5
2E1
330
2DC
100
AcDbEntity
  8
GAIKEI
370
     9
100
AcDbVertex
100
AcDb2dVertex
 10
-5.664449734044922
 20
-14.3213914343957
 30
0.0
  0
VERTEX
  5
2E2
330
2DC
100
AcDbEntity
  8
GAIKEI
370
     9
100
AcDbVertex
100
AcDb2dVertex
 10
-5.461278265643841
 20
-14.16295958105701
 30
0.0
  0
VERTEX
  5
2E3
330
2DC
100
AcDbEntity
  8
GAIKEI
370
     9
100
AcDbVertex
100
AcDb2dVertex
 10
-5.297921910647232
 20
-13.9553658111671
 30
0.0
  0
VERTEX
  5
2E4
330
2DC
100
AcDbEntity
  8
GAIKEI
370
     9
100
AcDbVertex
100
AcDb2dVertex
 10
-5.257295596969754
 20
-13.87682248472424
 30
0.0
  0
VERTEX
  5
2E5
330
2DC
100
AcDbEntity
  8
GAIKEI
370
     9
100
AcDbVertex
100
AcDb2dVertex
 10
-5.224153685811984
 20
-13.79738605798059
 30
0.0
  0
VERTEX
  5
2E6
330
2DC
100
AcDbEntity
  8
GAIKEI
370
     9
100
AcDbVertex
100
AcDb2dVertex
 10
-5.197964576994991
 20
-13.7179427312347
 30
0.0
  0
VERTEX
  5
2E7
330
2DC
100
AcDbEntity
  8
GAIKEI
370
     9
100
AcDbVertex
100
AcDb2dVertex
 10
-5.178976670602366
 20
-13.62901400129539
 30
0.0
  0
VERTEX
  5
2E8
330
2DC
100
AcDbEntity
  8
GAIKEI
370
     9
100
AcDbVertex
100
AcDb2dVertex
 10
-5.167561066759105
 20
-13.52866426751097
 30
0.0
  0
VERTEX
  5
2E9
330
2DC
100
AcDbEntity
  8
GAIKEI
370
     9
100
AcDbVertex
100
AcDb2dVertex
 10
-5.163763365480576
 20
-13.45536554283376
 30
0.0
  0
SEQEND
  5
2EA
330
2DC
100
AcDbEntity
  8
GAIKEI
370
     9
  0
POLYLINE
  5
2EB
330
2
100
AcDbEntity
  8
GAIKEI
370
     9
100
AcDb2dPolyline
 66
     1
 10
0.0
 20
0.0
 30
0.0
  0
VERTEX
  5
2EC
330
2EB
100
AcDbEntity
  8
GAIKEI
370
     9
100
AcDbVertex
100
AcDb2dVertex
 10
-34.96377359814733
 20
-13.45536554283376
 30
0.0
  0
VERTEX
  5
2ED
330
2EB
100
AcDbEntity
  8
GAIKEI
370
     9
100
AcDbVertex
100
AcDb2dVertex
 10
-34.95997589686874
 20
-13.52866426751097
 30
0.0
  0
VERTEX
  5
2EE
330
2EB
100
AcDbEntity
  8
GAIKEI
370
     9
100
AcDbVertex
100
AcDb2dVertex
 10
-34.94856029302548
 20
-13.62901400129539
 30
0.0
  0
VERTEX
  5
2EF
330
2EB
100
AcDbEntity
  8
GAIKEI
370
     9
100
AcDbVertex
100
AcDb2dVertex
 10
-34.92957238663291
 20
-13.7179427312347
 30
0.0
  0
VERTEX
  5
2F0
330
2EB
100
AcDbEntity
  8
GAIKEI
370
     9
100
AcDbVertex
100
AcDb2dVertex
 10
-34.90338327781586
 20
-13.79738605798059
 30
0.0
  0
VERTEX
  5
2F1
330
2EB
100
AcDbEntity
  8
GAIKEI
370
     9
100
AcDbVertex
100
AcDb2dVertex
 10
-34.87024166665822
 20
-13.87682248472424
 30
0.0
  0
VERTEX
  5
2F2
330
2EB
100
AcDbEntity
  8
GAIKEI
370
     9
100
AcDbVertex
100
AcDb2dVertex
 10
-34.82961505298062
 20
-13.9553658111671
 30
0.0
  0
VERTEX
  5
2F3
330
2EB
100
AcDbEntity
  8
GAIKEI
370
     9
100
AcDbVertex
100
AcDb2dVertex
 10
-34.66625869798401
 20
-14.16295958105701
 30
0.0
  0
VERTEX
  5
2F4
330
2EB
100
AcDbEntity
  8
GAIKEI
370
     9
100
AcDbVertex
100
AcDb2dVertex
 10
-34.46308722958292
 20
-14.3213914343957
 30
0.0
  0
VERTEX
  5
2F5
330
2EB
100
AcDbEntity
  8
GAIKEI
370
     9
100
AcDbVertex
100
AcDb2dVertex
 10
-34.31461717959803
 20
-14.39507595920281
 30
0.0
  0
VERTEX
  5
2F6
330
2EB
100
AcDbEntity
  8
GAIKEI
370
     9
100
AcDbVertex
100
AcDb2dVertex
 10
-34.13628751956043
 20
-14.44017377438575
 30
0.0
  0
VERTEX
  5
2F7
330
2EB
100
AcDbEntity
  8
GAIKEI
370
     9
100
AcDbVertex
100
AcDb2dVertex
 10
-34.03488478542147
 20
-14.4515689782221
 30
0.0
  0
VERTEX
  5
2F8
330
2EB
100
AcDbEntity
  8
GAIKEI
370
     9
100
AcDbVertex
100
AcDb2dVertex
 10
-33.96240086101858
 20
-14.45536607950049
 30
0.0
  0
SEQEND
  5
2F9
330
2EB
100
AcDbEntity
  8
GAIKEI
370
     9
  0
LINE
  5
2FA
330
2
100
AcDbEntity
  8
GAIKEI
370
     9
100
AcDbLine
 10
-34.96377359814733
 20
-13.45536554283376
 30
0.0
 11
-34.96377359814733
 21
30.34601960362761
 31
0.0
  0
POLYLINE
  5
2FB
330
2
100
AcDbEntity
  8
GAIKEI
370
     9
100
AcDb2dPolyline
 66
     1
 10
0.0
 20
0.0
 30
0.0
  0
VERTEX
  5
2FC
330
2FB
100
AcDbEntity
  8
GAIKEI
370
     9
100
AcDbVertex
100
AcDb2dVertex
 10
-33.96514376194204
 20
31.34464943983289
 30
0.0
  0
VERTEX
  5
2FD
330
2FB
100
AcDbEntity
  8
GAIKEI
370
     9
100
AcDbVertex
100
AcDb2dVertex
 10
-34.07524319900881
 20
31.33615103697173
 30
0.0
  0
VERTEX
  5
2FE
330
2FB
100
AcDbEntity
  8
GAIKEI
370
     9
100
AcDbVertex
100
AcDb2dVertex
 10
-34.22289964871982
 20
31.3108826284647
 30
0.0
  0
VERTEX
  5
2FF
330
2FB
100
AcDbEntity
  8
GAIKEI
370
     9
100
AcDbVertex
100
AcDb2dVertex
 10
-34.30922287778197
 20
31.28472351965786
 30
0.0
  0
VERTEX
  5
300
330
2FB
100
AcDbEntity
  8
GAIKEI
370
     9
100
AcDbVertex
100
AcDb2dVertex
 10
-34.3868419039137
 20
31.25140730844135
 30
0.0
  0
VERTEX
  5
301
330
2FB
100
AcDbEntity
  8
GAIKEI
370
     9
100
AcDbVertex
100
AcDb2dVertex
 10
-34.46345112970545
 20
31.21119199490227
 30
0.0
  0
VERTEX
  5
302
330
2FB
100
AcDbEntity
  8
GAIKEI
370
     9
100
AcDbVertex
100
AcDb2dVertex
 10
-34.53788745476567
 20
31.16433917912843
 30
0.0
  0
VERTEX
  5
303
330
2FB
100
AcDbEntity
  8
GAIKEI
370
     9
100
AcDbVertex
100
AcDb2dVertex
 10
-34.60733687814695
 20
31.11119416123631
 30
0.0
  0
VERTEX
  5
304
330
2FB
100
AcDbEntity
  8
GAIKEI
370
     9
100
AcDbVertex
100
AcDb2dVertex
 10
-34.67144719973078
 20
31.05232334141647
 30
0.0
  0
VERTEX
  5
305
330
2FB
100
AcDbEntity
  8
GAIKEI
370
     9
100
AcDbVertex
100
AcDb2dVertex
 10
-34.73031831955069
 20
30.98821271983258
 30
0.0
  0
VERTEX
  5
306
330
2FB
100
AcDbEntity
  8
GAIKEI
370
     9
100
AcDbVertex
100
AcDb2dVertex
 10
-34.78346303744274
 20
30.91876329645129
 30
0.0
  0
VERTEX
  5
307
330
2FB
100
AcDbEntity
  8
GAIKEI
370
     9
100
AcDbVertex
100
AcDb2dVertex
 10
-34.83031615321664
 20
30.84432697139107
 30
0.0
  0
VERTEX
  5
308
330
2FB
100
AcDbEntity
  8
GAIKEI
370
     9
100
AcDbVertex
100
AcDb2dVertex
 10
-34.87053146675578
 20
30.76771774559927
 30
0.0
  0
VERTEX
  5
309
330
2FB
100
AcDbEntity
  8
GAIKEI
370
     9
100
AcDbVertex
100
AcDb2dVertex
 10
-34.90384767797224
 20
30.69009871946753
 30
0.0
  0
VERTEX
  5
30A
330
2FB
100
AcDbEntity
  8
GAIKEI
370
     9
100
AcDbVertex
100
AcDb2dVertex
 10
-34.93000648677901
 20
30.60377549040538
 30
0.0
  0
VERTEX
  5
30B
330
2FB
100
AcDbEntity
  8
GAIKEI
370
     9
100
AcDbVertex
100
AcDb2dVertex
 10
-34.95527519528617
 20
30.45611904069438
 30
0.0
  0
VERTEX
  5
30C
330
2FB
100
AcDbEntity
  8
GAIKEI
370
     9
100
AcDbVertex
100
AcDb2dVertex
 10
-34.96377359814733
 20
30.34601960362761
 30
0.0
  0
SEQEND
  5
30D
330
2FB
100
AcDbEntity
  8
GAIKEI
370
     9
  0
LINE
  5
30E
330
2
100
AcDbEntity
  8
GAIKEI
370
     9
100
AcDbLine
 10
-33.96514376194204
 20
31.34464943983289
 30
0.0
 11
-31.69853109884935
 21
31.34464943983289
 31
0.0
  0
POLYLINE
  5
30F
330
2
100
AcDbEntity
  8
GAIKEI
370
     9
100
AcDb2dPolyline
 66
     1
 10
0.0
 20
0.0
 30
0.0
  0
VERTEX
  5
310
330
30F
100
AcDbEntity
  8
GAIKEI
370
     9
100
AcDbVertex
100
AcDb2dVertex
 10
-31.67626209135216
 20
31.33940873806853
 30
0.0
  0
VERTEX
  5
311
330
30F
100
AcDbEntity
  8
GAIKEI
370
     9
100
AcDbVertex
100
AcDb2dVertex
 10
-31.67897979226712
 20
31.34061083847325
 30
0.0
  0
VERTEX
  5
312
330
30F
100
AcDbEntity
  8
GAIKEI
370
     9
100
AcDbVertex
100
AcDb2dVertex
 10
-31.68275259353726
 20
31.3420910389716
 30
0.0
  0
VERTEX
  5
313
330
30F
100
AcDbEntity
  8
GAIKEI
370
     9
100
AcDbVertex
100
AcDb2dVertex
 10
-31.68693129494409
 20
31.34337443940365
 30
0.0
  0
VERTEX
  5
314
330
30F
100
AcDbEntity
  8
GAIKEI
370
     9
100
AcDbVertex
100
AcDb2dVertex
 10
-31.69123059639151
 20
31.34411303965226
 30
0.0
  0
VERTEX
  5
315
330
30F
100
AcDbEntity
  8
GAIKEI
370
     9
100
AcDbVertex
100
AcDb2dVertex
 10
-31.69543329780646
 20
31.3445015397831
 30
0.0
  0
VERTEX
  5
316
330
30F
100
AcDbEntity
  8
GAIKEI
370
     9
100
AcDbVertex
100
AcDb2dVertex
 10
-31.69853109884935
 20
31.34464943983289
 30
0.0
  0
SEQEND
  5
317
330
30F
100
AcDbEntity
  8
GAIKEI
370
     9
  0
LINE
  5
318
330
2
100
AcDbEntity
  8
GAIKEI
370
     9
100
AcDbLine
 10
-6.165136102609267
 20
-14.45536607950049
 30
0.0
 11
-7.966016008905285
 21
-14.45536607950049
 31
0.0
  0
LINE
  5
319
330
2
100
AcDbEntity
  8
GAIKEI
370
     9
100
AcDbLine
 10
-9.161513411389307
 20
-14.45536607950049
 30
0.0
 11
-30.9660235522386
 21
-14.45536607950049
 31
0.0
  0
LINE
  5
31A
330
2
100
AcDbEntity
  8
GAIKEI
370
     9
100
AcDbLine
 10
-32.16152095472256
 20
-14.45536607950049
 30
0.0
 11
-33.96240086101858
 21
-14.45536607950049
 31
0.0
  0
LINE
  5
31B
330
2
100
AcDbEntity
  8
GAIKEI
370
     9
100
AcDbLine
 10
-10.27424678600937
 20
-14.45536607950049
 30
0.0
 11
-10.26624848331664
 21
-14.60798273088142
 31
0.0
  0
LINE
  5
31C
330
2
100
AcDbEntity
  8
GAIKEI
370
     9
100
AcDbLine
 10
-7.861281173644613
 20
-14.60798273088142
 30
0.0
 11
-7.853282870951829
 21
-14.45536607950049
 31
0.0
  0
LINE
  5
31D
330
2
100
AcDbEntity
  8
GAIKEI
370
     9
100
AcDbLine
 10
-32.27425409267608
 20
-14.45536607950049
 30
0.0
 11
-32.26625578998329
 21
-14.60798273088142
 31
0.0
  0
LINE
  5
31E
330
2
100
AcDbEntity
  8
GAIKEI
370
     9
100
AcDbLine
 10
-29.8612884803112
 20
-14.60798273088142
 30
0.0
 11
-29.85329017761848
 21
-14.45536607950049
 31
0.0
  0
ARC
  5
31F
330
2
100
AcDbEntity
  8
GAIKEI
370
     9
100
AcDbCircle
 10
-10.2163170665064
 20
-14.60536613000044
 30
0.0
 40
0.0500000168333334
100
AcDbArc
 50
183.0000000000007
 51
270.0
  0
ARC
  5
320
330
2
100
AcDbEntity
  8
GAIKEI
370
     9
100
AcDbCircle
 10
-7.911212590454795
 20
-14.60536613000044
 30
0.0
 40
0.0500000168333334
100
AcDbArc
 50
270.0
 51
356.9999999999993
  0
ARC
  5
321
330
2
100
AcDbEntity
  8
GAIKEI
370
     9
100
AcDbCircle
 10
-32.21632437317305
 20
-14.60536613000044
 30
0.0
 40
0.0500000168333334
100
AcDbArc
 50
183.0000000000007
 51
270.0
  0
ARC
  5
322
330
2
100
AcDbEntity
  8
GAIKEI
370
     9
100
AcDbCircle
 10
-29.91122019712157
 20
-14.60536613000044
 30
0.0
 40
0.0500000168333334
100
AcDbArc
 50
270.0
 51
356.9999999999993
  0
POLYLINE
  5
323
330
2
100
AcDbEntity
  8
GAIKEI
 62
     1
370
     9
100
AcDb2dPolyline
 66
     1
 10
0.0
 20
0.0
 30
0.0
  0
VERTEX
  5
324
330
323
100
AcDbEntity
  8
GAIKEI
 62
     1
370
     9
100
AcDbVertex
100
AcDb2dVertex
 10
-8.148127770216206
 20
-14.14213387404567
 30
0.0
  0
VERTEX
  5
325
330
323
100
AcDbEntity
  8
GAIKEI
 62
     1
370
     9
100
AcDbVertex
100
AcDb2dVertex
 10
-8.94064643703075
 20
-14.13789937262004
 30
0.0
  0
VERTEX
  5
326
330
323
100
AcDbEntity
  8
GAIKEI
 62
     1
370
     9
100
AcDbVertex
100
AcDb2dVertex
 10
-9.733165403845418
 20
-14.13374047121988
 30
0.0
  0
VERTEX
  5
327
330
323
100
AcDbEntity
  8
GAIKEI
 62
     1
370
     9
100
AcDbVertex
100
AcDb2dVertex
 10
-10.52568527066034
 20
-14.12973336987085
 30
0.0
  0
VERTEX
  5
328
330
323
100
AcDbEntity
  8
GAIKEI
 62
     1
370
     9
100
AcDbVertex
100
AcDb2dVertex
 10
-11.31820603747559
 20
-14.12595336859823
 30
0.0
  0
VERTEX
  5
329
330
323
100
AcDbEntity
  8
GAIKEI
 62
     1
370
     9
100
AcDbVertex
100
AcDb2dVertex
 10
-12.11072830429134
 20
-14.12247666742775
 30
0.0
  0
VERTEX
  5
32A
330
323
100
AcDbEntity
  8
GAIKEI
 62
     1
370
     9
100
AcDbVertex
100
AcDb2dVertex
 10
-12.90547237185507
 20
-14.11935786637775
 30
0.0
  0
VERTEX
  5
32B
330
323
100
AcDbEntity
  8
GAIKEI
 62
     1
370
     9
100
AcDbVertex
100
AcDb2dVertex
 10
-13.7002179394193
 20
-14.11661916545574
 30
0.0
  0
VERTEX
  5
32C
330
323
100
AcDbEntity
  8
GAIKEI
 62
     1
370
     9
100
AcDbVertex
100
AcDb2dVertex
 10
-14.49496470698398
 20
-14.1142596646614
 30
0.0
  0
VERTEX
  5
32D
330
323
100
AcDbEntity
  8
GAIKEI
 62
     1
370
     9
100
AcDbVertex
100
AcDb2dVertex
 10
-15.28971237454891
 20
-14.11227876399448
 30
0.0
  0
VERTEX
  5
32E
330
323
100
AcDbEntity
  8
GAIKEI
 62
     1
370
     9
100
AcDbVertex
100
AcDb2dVertex
 10
-16.08446094211416
 20
-14.11067556345472
 30
0.0
  0
VERTEX
  5
32F
330
323
100
AcDbEntity
  8
GAIKEI
 62
     1
370
     9
100
AcDbVertex
100
AcDb2dVertex
 10
-16.88032191005396
 20
-14.10943506303704
 30
0.0
  0
VERTEX
  5
330
330
323
100
AcDbEntity
  8
GAIKEI
 62
     1
370
     9
100
AcDbVertex
100
AcDb2dVertex
 10
-17.67618317799383
 20
-14.10849666272116
 30
0.0
  0
VERTEX
  5
331
330
323
100
AcDbEntity
  8
GAIKEI
 62
     1
370
     9
100
AcDbVertex
100
AcDb2dVertex
 10
-18.47204474593377
 20
-14.10778536248165
 30
0.0
  0
VERTEX
  5
332
330
323
100
AcDbEntity
  8
GAIKEI
 62
     1
370
     9
100
AcDbVertex
100
AcDb2dVertex
 10
-19.26790661387383
 20
-14.10722466229288
 30
0.0
  0
VERTEX
  5
333
330
323
100
AcDbEntity
  8
GAIKEI
 62
     1
370
     9
100
AcDbVertex
100
AcDb2dVertex
 10
-20.06376848181395
 20
-14.1067398621297
 30
0.0
  0
SEQEND
  5
334
330
323
100
AcDbEntity
  8
GAIKEI
 62
     1
370
     9
  0
POLYLINE
  5
335
330
2
100
AcDbEntity
  8
GAIKEI
 62
     1
370
     9
100
AcDb2dPolyline
 66
     1
 10
0.0
 20
0.0
 30
0.0
  0
VERTEX
  5
336
330
335
100
AcDbEntity
  8
GAIKEI
 62
     1
370
     9
100
AcDbVertex
100
AcDb2dVertex
 10
-20.06376848181395
 20
-14.1067398621297
 30
0.0
  0
VERTEX
  5
337
330
335
100
AcDbEntity
  8
GAIKEI
 62
     1
370
     9
100
AcDbVertex
100
AcDb2dVertex
 10
-20.85963034975401
 20
-14.10722466229288
 30
0.0
  0
VERTEX
  5
338
330
335
100
AcDbEntity
  8
GAIKEI
 62
     1
370
     9
100
AcDbVertex
100
AcDb2dVertex
 10
-21.65549221769408
 20
-14.10778536248165
 30
0.0
  0
VERTEX
  5
339
330
335
100
AcDbEntity
  8
GAIKEI
 62
     1
370
     9
100
AcDbVertex
100
AcDb2dVertex
 10
-22.45135378563407
 20
-14.10849666272116
 30
0.0
  0
VERTEX
  5
33A
330
335
100
AcDbEntity
  8
GAIKEI
 62
     1
370
     9
100
AcDbVertex
100
AcDb2dVertex
 10
-23.24721535357401
 20
-14.10943506303704
 30
0.0
  0
VERTEX
  5
33B
330
335
100
AcDbEntity
  8
GAIKEI
 62
     1
370
     9
100
AcDbVertex
100
AcDb2dVertex
 10
-24.04307632151381
 20
-14.11067556345472
 30
0.0
  0
VERTEX
  5
33C
330
335
100
AcDbEntity
  8
GAIKEI
 62
     1
370
     9
100
AcDbVertex
100
AcDb2dVertex
 10
-24.83782458907894
 20
-14.11227876399448
 30
0.0
  0
VERTEX
  5
33D
330
335
100
AcDbEntity
  8
GAIKEI
 62
     1
370
     9
100
AcDbVertex
100
AcDb2dVertex
 10
-25.63257255664399
 20
-14.1142596646614
 30
0.0
  0
VERTEX
  5
33E
330
335
100
AcDbEntity
  8
GAIKEI
 62
     1
370
     9
100
AcDbVertex
100
AcDb2dVertex
 10
-26.42731932420867
 20
-14.11661916545574
 30
0.0
  0
VERTEX
  5
33F
330
335
100
AcDbEntity
  8
GAIKEI
 62
     1
370
     9
100
AcDbVertex
100
AcDb2dVertex
 10
-27.22206489177291
 20
-14.11935786637775
 30
0.0
  0
VERTEX
  5
340
330
335
100
AcDbEntity
  8
GAIKEI
 62
     1
370
     9
100
AcDbVertex
100
AcDb2dVertex
 10
-28.01680865933656
 20
-14.12247666742775
 30
0.0
  0
VERTEX
  5
341
330
335
100
AcDbEntity
  8
GAIKEI
 62
     1
370
     9
100
AcDbVertex
100
AcDb2dVertex
 10
-28.80933092615232
 20
-14.12595336859823
 30
0.0
  0
VERTEX
  5
342
330
335
100
AcDbEntity
  8
GAIKEI
 62
     1
370
     9
100
AcDbVertex
100
AcDb2dVertex
 10
-29.60185169296756
 20
-14.12973336987085
 30
0.0
  0
VERTEX
  5
343
330
335
100
AcDbEntity
  8
GAIKEI
 62
     1
370
     9
100
AcDbVertex
100
AcDb2dVertex
 10
-30.39437155978243
 20
-14.13374047121988
 30
0.0
  0
VERTEX
  5
344
330
335
100
AcDbEntity
  8
GAIKEI
 62
     1
370
     9
100
AcDbVertex
100
AcDb2dVertex
 10
-31.1868905265971
 20
-14.13789937262004
 30
0.0
  0
VERTEX
  5
345
330
335
100
AcDbEntity
  8
GAIKEI
 62
     1
370
     9
100
AcDbVertex
100
AcDb2dVertex
 10
-31.97940919341159
 20
-14.14213387404567
 30
0.0
  0
SEQEND
  5
346
330
335
100
AcDbEntity
  8
GAIKEI
 62
     1
370
     9
  0
LINE
  5
347
330
2
100
AcDbEntity
  8
GAIKEI
 62
     1
370
     9
100
AcDbLine
 10
-16.26376680248046
 20
-11.05536473483374
 30
0.0
 11
-9.113764795313954
 21
-11.05536473483374
 31
0.0
  0
POLYLINE
  5
348
330
2
100
AcDbEntity
  8
GAIKEI
 62
     1
370
     9
100
AcDb2dPolyline
 66
     1
 10
0.0
 20
0.0
 30
0.0
  0
VERTEX
  5
349
330
348
100
AcDbEntity
  8
GAIKEI
 62
     1
370
     9
100
AcDbVertex
100
AcDb2dVertex
 10
-9.113764795313954
 20
-11.05536473483374
 30
0.0
  0
VERTEX
  5
34A
330
348
100
AcDbEntity
  8
GAIKEI
 62
     1
370
     9
100
AcDbVertex
100
AcDb2dVertex
 10
-9.105337192476611
 20
-11.05438253450307
 30
0.0
  0
VERTEX
  5
34B
330
348
100
AcDbEntity
  8
GAIKEI
 62
     1
370
     9
100
AcDbVertex
100
AcDb2dVertex
 10
-9.097147789719542
 20
-11.05252283387699
 30
0.0
  0
VERTEX
  5
34C
330
348
100
AcDbEntity
  8
GAIKEI
 62
     1
370
     9
100
AcDbVertex
100
AcDb2dVertex
 10
-9.089423387118984
 20
-11.04911063272823
 30
0.0
  0
VERTEX
  5
34D
330
348
100
AcDbEntity
  8
GAIKEI
 62
     1
370
     9
100
AcDbVertex
100
AcDb2dVertex
 10
-9.082403984755785
 20
-11.04430703111097
 30
0.0
  0
VERTEX
  5
34E
330
348
100
AcDbEntity
  8
GAIKEI
 62
     1
370
     9
100
AcDbVertex
100
AcDb2dVertex
 10
-9.076301082701149
 20
-11.03844052913598
 30
0.0
  0
VERTEX
  5
34F
330
348
100
AcDbEntity
  8
GAIKEI
 62
     1
370
     9
100
AcDbVertex
100
AcDb2dVertex
 10
-9.071240080997256
 20
-11.03166382685447
 30
0.0
  0
VERTEX
  5
350
330
348
100
AcDbEntity
  8
GAIKEI
 62
     1
370
     9
100
AcDbVertex
100
AcDb2dVertex
 10
-9.067371279694782
 20
-11.02414222432219
 30
0.0
  0
VERTEX
  5
351
330
348
100
AcDbEntity
  8
GAIKEI
 62
     1
370
     9
100
AcDbVertex
100
AcDb2dVertex
 10
-9.064927778872117
 20
-11.01608662161015
 30
0.0
  0
VERTEX
  5
352
330
348
100
AcDbEntity
  8
GAIKEI
 62
     1
370
     9
100
AcDbVertex
100
AcDb2dVertex
 10
-9.064170578617222
 20
-11.0107541198148
 30
0.0
  0
VERTEX
  5
353
330
348
100
AcDbEntity
  8
GAIKEI
 62
     1
370
     9
100
AcDbVertex
100
AcDb2dVertex
 10
-9.063764678480538
 20
-11.00536491800051
 30
0.0
  0
SEQEND
  5
354
330
348
100
AcDbEntity
  8
GAIKEI
 62
     1
370
     9
  0
LINE
  5
355
330
2
100
AcDbEntity
  8
GAIKEI
 62
     1
370
     9
100
AcDbLine
 10
-9.063764678480538
 20
-10.25536466550045
 30
0.0
 11
-9.063764678480538
 21
-11.00536491800051
 31
0.0
  0
POLYLINE
  5
356
330
2
100
AcDbEntity
  8
GAIKEI
 62
     1
370
     9
100
AcDb2dPolyline
 66
     1
 10
0.0
 20
0.0
 30
0.0
  0
VERTEX
  5
357
330
356
100
AcDbEntity
  8
GAIKEI
 62
     1
370
     9
100
AcDbVertex
100
AcDb2dVertex
 10
-9.063764678480538
 20
-10.25536466550045
 30
0.0
  0
VERTEX
  5
358
330
356
100
AcDbEntity
  8
GAIKEI
 62
     1
370
     9
100
AcDbVertex
100
AcDb2dVertex
 10
-9.064730678805801
 20
-10.24700666268666
 30
0.0
  0
VERTEX
  5
359
330
356
100
AcDbEntity
  8
GAIKEI
 62
     1
370
     9
100
AcDbVertex
100
AcDb2dVertex
 10
-9.066560079421662
 20
-10.23888055995087
 30
0.0
  0
VERTEX
  5
35A
330
356
100
AcDbEntity
  8
GAIKEI
 62
     1
370
     9
100
AcDbVertex
100
AcDb2dVertex
 10
-9.06990778054876
 20
-10.23122605737381
 30
0.0
  0
VERTEX
  5
35B
330
356
100
AcDbEntity
  8
GAIKEI
 62
     1
370
     9
100
AcDbVertex
100
AcDb2dVertex
 10
-9.074621082135536
 20
-10.22425555502707
 30
0.0
  0
VERTEX
  5
35C
330
356
100
AcDbEntity
  8
GAIKEI
 62
     1
370
     9
100
AcDbVertex
100
AcDb2dVertex
 10
-9.080388884077365
 20
-10.2181682529777
 30
0.0
  0
VERTEX
  5
35D
330
356
100
AcDbEntity
  8
GAIKEI
 62
     1
370
     9
100
AcDbVertex
100
AcDb2dVertex
 10
-9.087058186322678
 20
-10.21309435126949
 30
0.0
  0
VERTEX
  5
35E
330
356
100
AcDbEntity
  8
GAIKEI
 62
     1
370
     9
100
AcDbVertex
100
AcDb2dVertex
 10
-9.094524888836474
 20
-10.20915954994473
 30
0.0
  0
VERTEX
  5
35F
330
356
100
AcDbEntity
  8
GAIKEI
 62
     1
370
     9
100
AcDbVertex
100
AcDb2dVertex
 10
-9.102536691533828
 20
-10.20664164909709
 30
0.0
  0
VERTEX
  5
360
330
356
100
AcDbEntity
  8
GAIKEI
 62
     1
370
     9
100
AcDbVertex
100
AcDb2dVertex
 10
-9.108117593412714
 20
-10.20580944881692
 30
0.0
  0
VERTEX
  5
361
330
356
100
AcDbEntity
  8
GAIKEI
 62
     1
370
     9
100
AcDbVertex
100
AcDb2dVertex
 10
-9.113764795313954
 20
-10.20536454866715
 30
0.0
  0
SEQEND
  5
362
330
356
100
AcDbEntity
  8
GAIKEI
 62
     1
370
     9
  0
LINE
  5
363
330
2
100
AcDbEntity
  8
GAIKEI
 62
     1
370
     9
100
AcDbLine
 10
-9.113764795313954
 20
-10.20536454866715
 30
0.0
 11
-16.26376560248008
 21
-10.20536454866715
 31
0.0
  0
POLYLINE
  5
364
330
2
100
AcDbEntity
  8
GAIKEI
 62
     1
370
     9
100
AcDb2dPolyline
 66
     1
 10
0.0
 20
0.0
 30
0.0
  0
VERTEX
  5
365
330
364
100
AcDbEntity
  8
GAIKEI
 62
     1
370
     9
100
AcDbVertex
100
AcDb2dVertex
 10
-16.26376560248008
 20
-10.20536454866715
 30
0.0
  0
VERTEX
  5
366
330
364
100
AcDbEntity
  8
GAIKEI
 62
     1
370
     9
100
AcDbVertex
100
AcDb2dVertex
 10
-16.27216230530695
 20
-10.20633924899527
 30
0.0
  0
VERTEX
  5
367
330
364
100
AcDbEntity
  8
GAIKEI
 62
     1
370
     9
100
AcDbVertex
100
AcDb2dVertex
 10
-16.28032380805467
 20
-10.20818514961672
 30
0.0
  0
VERTEX
  5
368
330
364
100
AcDbEntity
  8
GAIKEI
 62
     1
370
     9
100
AcDbVertex
100
AcDb2dVertex
 10
-16.28801731064482
 20
-10.21156855075583
 30
0.0
  0
VERTEX
  5
369
330
364
100
AcDbEntity
  8
GAIKEI
 62
     1
370
     9
100
AcDbVertex
100
AcDb2dVertex
 10
-16.29501541300084
 20
-10.21633195235949
 30
0.0
  0
VERTEX
  5
36A
330
364
100
AcDbEntity
  8
GAIKEI
 62
     1
370
     9
100
AcDbVertex
100
AcDb2dVertex
 10
-16.30111171505325
 20
-10.22215435431968
 30
0.0
  0
VERTEX
  5
36B
330
364
100
AcDbEntity
  8
GAIKEI
 62
     1
370
     9
100
AcDbVertex
100
AcDb2dVertex
 10
-16.30617871675912
 20
-10.22888335658513
 30
0.0
  0
VERTEX
  5
36C
330
364
100
AcDbEntity
  8
GAIKEI
 62
     1
370
     9
100
AcDbVertex
100
AcDb2dVertex
 10
-16.31007721807162
 20
-10.23638035910915
 30
0.0
  0
VERTEX
  5
36D
330
364
100
AcDbEntity
  8
GAIKEI
 62
     1
370
     9
100
AcDbVertex
100
AcDb2dVertex
 10
-16.31255401890547
 20
-10.2444167618147
 30
0.0
  0
VERTEX
  5
36E
330
364
100
AcDbEntity
  8
GAIKEI
 62
     1
370
     9
100
AcDbVertex
100
AcDb2dVertex
 10
-16.31334421917154
 20
-10.24986026364735
 30
0.0
  0
VERTEX
  5
36F
330
364
100
AcDbEntity
  8
GAIKEI
 62
     1
370
     9
100
AcDbVertex
100
AcDb2dVertex
 10
-16.31376721931394
 20
-10.25536466550045
 30
0.0
  0
SEQEND
  5
370
330
364
100
AcDbEntity
  8
GAIKEI
 62
     1
370
     9
  0
LINE
  5
371
330
2
100
AcDbEntity
  8
GAIKEI
 62
     1
370
     9
100
AcDbLine
 10
-16.31376751931401
 20
-11.00536491800051
 30
0.0
 11
-16.31376721931394
 21
-10.25536466550045
 31
0.0
  0
POLYLINE
  5
372
330
2
100
AcDbEntity
  8
GAIKEI
 62
     1
370
     9
100
AcDb2dPolyline
 66
     1
 10
0.0
 20
0.0
 30
0.0
  0
VERTEX
  5
373
330
372
100
AcDbEntity
  8
GAIKEI
 62
     1
370
     9
100
AcDbVertex
100
AcDb2dVertex
 10
-16.31376721931394
 20
-11.00536491800051
 30
0.0
  0
VERTEX
  5
374
330
372
100
AcDbEntity
  8
GAIKEI
 62
     1
370
     9
100
AcDbVertex
100
AcDb2dVertex
 10
-16.31279401898626
 20
-11.01375352082465
 30
0.0
  0
VERTEX
  5
375
330
372
100
AcDbEntity
  8
GAIKEI
 62
     1
370
     9
100
AcDbVertex
100
AcDb2dVertex
 10
-16.31095141836596
 20
-11.02190752356984
 30
0.0
  0
VERTEX
  5
376
330
372
100
AcDbEntity
  8
GAIKEI
 62
     1
370
     9
100
AcDbVertex
100
AcDb2dVertex
 10
-16.30757551722939
 20
-11.02959262615712
 30
0.0
  0
VERTEX
  5
377
330
372
100
AcDbEntity
  8
GAIKEI
 62
     1
370
     9
100
AcDbVertex
100
AcDb2dVertex
 10
-16.30282261562922
 20
-11.03658472851111
 30
0.0
  0
VERTEX
  5
378
330
372
100
AcDbEntity
  8
GAIKEI
 62
     1
370
     9
100
AcDbVertex
100
AcDb2dVertex
 10
-16.29701131367278
 20
-11.04267923056295
 30
0.0
  0
VERTEX
  5
379
330
372
100
AcDbEntity
  8
GAIKEI
 62
     1
370
     9
100
AcDbVertex
100
AcDb2dVertex
 10
-16.29029491141159
 20
-11.04774743226926
 30
0.0
  0
VERTEX
  5
37A
330
372
100
AcDbEntity
  8
GAIKEI
 62
     1
370
     9
100
AcDbVertex
100
AcDb2dVertex
 10
-16.2828039088896
 20
-11.0516534335843
 30
0.0
  0
VERTEX
  5
37B
330
372
100
AcDbEntity
  8
GAIKEI
 62
     1
370
     9
100
AcDbVertex
100
AcDb2dVertex
 10
-16.27477290618583
 20
-11.05413863442095
 30
0.0
  0
VERTEX
  5
37C
330
372
100
AcDbEntity
  8
GAIKEI
 62
     1
370
     9
100
AcDbVertex
100
AcDb2dVertex
 10
-16.26930090434359
 20
-11.05493723468987
 30
0.0
  0
VERTEX
  5
37D
330
372
100
AcDbEntity
  8
GAIKEI
 62
     1
370
     9
100
AcDbVertex
100
AcDb2dVertex
 10
-16.26376680248046
 20
-11.05536473483374
 30
0.0
  0
SEQEND
  5
37E
330
372
100
AcDbEntity
  8
GAIKEI
 62
     1
370
     9
  0
POLYLINE
  5
37F
330
2
100
AcDbEntity
  8
GAIKEI
 62
     1
370
     9
100
AcDb2dPolyline
 66
     1
 10
0.0
 20
0.0
 30
0.0
  0
VERTEX
  5
380
330
37F
100
AcDbEntity
  8
GAIKEI
 62
     1
370
     9
100
AcDbVertex
100
AcDb2dVertex
 10
-30.96582135217051
 20
-9.475364402900481
 30
0.0
  0
VERTEX
  5
381
330
37F
100
AcDbEntity
  8
GAIKEI
 62
     1
370
     9
100
AcDbVertex
100
AcDb2dVertex
 10
-30.98605095898114
 20
-9.473006702106772
 30
0.0
  0
VERTEX
  5
382
330
37F
100
AcDbEntity
  8
GAIKEI
 62
     1
370
     9
100
AcDbVertex
100
AcDb2dVertex
 10
-31.00570966559957
 20
-9.468543300604039
 30
0.0
  0
VERTEX
  5
383
330
37F
100
AcDbEntity
  8
GAIKEI
 62
     1
370
     9
100
AcDbVertex
100
AcDb2dVertex
 10
-31.02425057184166
 20
-9.460355097847354
 30
0.0
  0
VERTEX
  5
384
330
37F
100
AcDbEntity
  8
GAIKEI
 62
     1
370
     9
100
AcDbVertex
100
AcDb2dVertex
 10
-31.04110067751452
 20
-9.448826393966044
 30
0.0
  0
VERTEX
  5
385
330
37F
100
AcDbEntity
  8
GAIKEI
 62
     1
370
     9
100
AcDbVertex
100
AcDb2dVertex
 10
-31.05574998244646
 20
-9.434747089225993
 30
0.0
  0
VERTEX
  5
386
330
37F
100
AcDbEntity
  8
GAIKEI
 62
     1
370
     9
100
AcDbVertex
100
AcDb2dVertex
 10
-31.06789938653674
 20
-9.418482883750357
 30
0.0
  0
VERTEX
  5
387
330
37F
100
AcDbEntity
  8
GAIKEI
 62
     1
370
     9
100
AcDbVertex
100
AcDb2dVertex
 10
-31.07718678966353
 20
-9.400430677672829
 30
0.0
  0
VERTEX
  5
388
330
37F
100
AcDbEntity
  8
GAIKEI
 62
     1
370
     9
100
AcDbVertex
100
AcDb2dVertex
 10
-31.08305179163807
 20
-9.381096871163776
 30
0.0
  0
VERTEX
  5
389
330
37F
100
AcDbEntity
  8
GAIKEI
 62
     1
370
     9
100
AcDbVertex
100
AcDb2dVertex
 10
-31.08486949225
 20
-9.36829886685507
 30
0.0
  0
VERTEX
  5
38A
330
37F
100
AcDbEntity
  8
GAIKEI
 62
     1
370
     9
100
AcDbVertex
100
AcDb2dVertex
 10
-31.08584389257806
 20
-9.355364362500495
 30
0.0
  0
SEQEND
  5
38B
330
37F
100
AcDbEntity
  8
GAIKEI
 62
     1
370
     9
  0
LINE
  5
38C
330
2
100
AcDbEntity
  8
GAIKEI
 62
     1
370
     9
100
AcDbLine
 10
-9.161715911457463
 20
-9.475364402900481
 30
0.0
 11
-30.96582135217051
 21
-9.475364402900481
 31
0.0
  0
POLYLINE
  5
38D
330
2
100
AcDbEntity
  8
GAIKEI
 62
     1
370
     9
100
AcDb2dPolyline
 66
     1
 10
0.0
 20
0.0
 30
0.0
  0
VERTEX
  5
38E
330
38D
100
AcDbEntity
  8
GAIKEI
 62
     1
370
     9
100
AcDbVertex
100
AcDb2dVertex
 10
-9.041693071049792
 20
-9.355364362500495
 30
0.0
  0
VERTEX
  5
38F
330
38D
100
AcDbEntity
  8
GAIKEI
 62
     1
370
     9
100
AcDbVertex
100
AcDb2dVertex
 10
-9.044012071830536
 20
-9.375423269253644
 30
0.0
  0
VERTEX
  5
390
330
38D
100
AcDbEntity
  8
GAIKEI
 62
     1
370
     9
100
AcDbVertex
100
AcDb2dVertex
 10
-9.048403173308884
 20
-9.394925375819354
 30
0.0
  0
VERTEX
  5
391
330
38D
100
AcDbEntity
  8
GAIKEI
 62
     1
370
     9
100
AcDbVertex
100
AcDb2dVertex
 10
-9.056438976014248
 20
-9.413296782004408
 30
0.0
  0
VERTEX
  5
392
330
38D
100
AcDbEntity
  8
GAIKEI
 62
     1
370
     9
100
AcDbVertex
100
AcDb2dVertex
 10
-9.067752579823149
 20
-9.430025087636238
 30
0.0
  0
VERTEX
  5
393
330
38D
100
AcDbEntity
  8
GAIKEI
 62
     1
370
     9
100
AcDbVertex
100
AcDb2dVertex
 10
-9.081597884484381
 20
-9.444635392555028
 30
0.0
  0
VERTEX
  5
394
330
38D
100
AcDbEntity
  8
GAIKEI
 62
     1
370
     9
100
AcDbVertex
100
AcDb2dVertex
 10
-9.097607689874394
 20
-9.45681239665464
 30
0.0
  0
VERTEX
  5
395
330
38D
100
AcDbEntity
  8
GAIKEI
 62
     1
370
     9
100
AcDbVertex
100
AcDb2dVertex
 10
-9.115531495908726
 20
-9.466256399834151
 30
0.0
  0
VERTEX
  5
396
330
38D
100
AcDbEntity
  8
GAIKEI
 62
     1
370
     9
100
AcDbVertex
100
AcDb2dVertex
 10
-9.134764202383735
 20
-9.472299601868655
 30
0.0
  0
VERTEX
  5
397
330
38D
100
AcDbEntity
  8
GAIKEI
 62
     1
370
     9
100
AcDbVertex
100
AcDb2dVertex
 10
-9.148160406893794
 20
-9.474296702541039
 30
0.0
  0
VERTEX
  5
398
330
38D
100
AcDbEntity
  8
GAIKEI
 62
     1
370
     9
100
AcDbVertex
100
AcDb2dVertex
 10
-9.161715911457463
 20
-9.475364402900481
 30
0.0
  0
SEQEND
  5
399
330
38D
100
AcDbEntity
  8
GAIKEI
 62
     1
370
     9
  0
LINE
  5
39A
330
2
100
AcDbEntity
  8
GAIKEI
 62
     1
370
     9
100
AcDbLine
 10
-9.041693071049792
 20
28.64464853083291
 30
0.0
 11
-9.041693071049792
 21
-9.355364362500495
 31
0.0
  0
POLYLINE
  5
39B
330
2
100
AcDbEntity
  8
GAIKEI
 62
     1
370
     9
100
AcDb2dPolyline
 66
     1
 10
0.0
 20
0.0
 30
0.0
  0
VERTEX
  5
39C
330
39B
100
AcDbEntity
  8
GAIKEI
 62
     1
370
     9
100
AcDbVertex
100
AcDb2dVertex
 10
-9.161715911457463
 20
28.7646485712329
 30
0.0
  0
VERTEX
  5
39D
330
39B
100
AcDbEntity
  8
GAIKEI
 62
     1
370
     9
100
AcDbVertex
100
AcDb2dVertex
 10
-9.141486004646708
 20
28.76229087043913
 30
0.0
  0
VERTEX
  5
39E
330
39B
100
AcDbEntity
  8
GAIKEI
 62
     1
370
     9
100
AcDbVertex
100
AcDb2dVertex
 10
-9.121827298028279
 20
28.75782776893652
 30
0.0
  0
VERTEX
  5
39F
330
39B
100
AcDbEntity
  8
GAIKEI
 62
     1
370
     9
100
AcDbVertex
100
AcDb2dVertex
 10
-9.103286391786184
 20
28.74963926617977
 30
0.0
  0
VERTEX
  5
3A0
330
39B
100
AcDbEntity
  8
GAIKEI
 62
     1
370
     9
100
AcDbVertex
100
AcDb2dVertex
 10
-9.08643658611345
 20
28.7381105622984
 30
0.0
  0
VERTEX
  5
3A1
330
39B
100
AcDbEntity
  8
GAIKEI
 62
     1
370
     9
100
AcDbVertex
100
AcDb2dVertex
 10
-9.071786981181389
 20
28.72403155755847
 30
0.0
  0
VERTEX
  5
3A2
330
39B
100
AcDbEntity
  8
GAIKEI
 62
     1
370
     9
100
AcDbVertex
100
AcDb2dVertex
 10
-9.059637577091109
 20
28.70776705208277
 30
0.0
  0
VERTEX
  5
3A3
330
39B
100
AcDbEntity
  8
GAIKEI
 62
     1
370
     9
100
AcDbVertex
100
AcDb2dVertex
 10
-9.050350473964442
 20
28.68971514600526
 30
0.0
  0
VERTEX
  5
3A4
330
39B
100
AcDbEntity
  8
GAIKEI
 62
     1
370
     9
100
AcDbVertex
100
AcDb2dVertex
 10
-9.044485171989776
 20
28.67038103949619
 30
0.0
  0
VERTEX
  5
3A5
330
39B
100
AcDbEntity
  8
GAIKEI
 62
     1
370
     9
100
AcDbVertex
100
AcDb2dVertex
 10
-9.042667471377853
 20
28.65758303518749
 30
0.0
  0
VERTEX
  5
3A6
330
39B
100
AcDbEntity
  8
GAIKEI
 62
     1
370
     9
100
AcDbVertex
100
AcDb2dVertex
 10
-9.041693071049792
 20
28.64464853083291
 30
0.0
  0
SEQEND
  5
3A7
330
39B
100
AcDbEntity
  8
GAIKEI
 62
     1
370
     9
  0
LINE
  5
3A8
330
2
100
AcDbEntity
  8
GAIKEI
 62
     1
370
     9
100
AcDbLine
 10
-30.96582135217051
 20
28.7646485712329
 30
0.0
 11
-9.161715911457463
 21
28.7646485712329
 31
0.0
  0
POLYLINE
  5
3A9
330
2
100
AcDbEntity
  8
GAIKEI
 62
     1
370
     9
100
AcDb2dPolyline
 66
     1
 10
0.0
 20
0.0
 30
0.0
  0
VERTEX
  5
3AA
330
3A9
100
AcDbEntity
  8
GAIKEI
 62
     1
370
     9
100
AcDbVertex
100
AcDb2dVertex
 10
-31.08584389257806
 20
28.64464853083291
 30
0.0
  0
VERTEX
  5
3AB
330
3A9
100
AcDbEntity
  8
GAIKEI
 62
     1
370
     9
100
AcDbVertex
100
AcDb2dVertex
 10
-31.08352519179744
 20
28.66470743758601
 30
0.0
  0
VERTEX
  5
3AC
330
3A9
100
AcDbEntity
  8
GAIKEI
 62
     1
370
     9
100
AcDbVertex
100
AcDb2dVertex
 10
-31.07913379031902
 20
28.68420954415177
 30
0.0
  0
VERTEX
  5
3AD
330
3A9
100
AcDbEntity
  8
GAIKEI
 62
     1
370
     9
100
AcDbVertex
100
AcDb2dVertex
 10
-31.07109828761372
 20
28.70258095033682
 30
0.0
  0
VERTEX
  5
3AE
330
3A9
100
AcDbEntity
  8
GAIKEI
 62
     1
370
     9
100
AcDbVertex
100
AcDb2dVertex
 10
-31.0597843838047
 20
28.71930925596866
 30
0.0
  0
VERTEX
  5
3AF
330
3A9
100
AcDbEntity
  8
GAIKEI
 62
     1
370
     9
100
AcDbVertex
100
AcDb2dVertex
 10
-31.04593907914347
 20
28.73391986088757
 30
0.0
  0
VERTEX
  5
3B0
330
3A9
100
AcDbEntity
  8
GAIKEI
 62
     1
370
     9
100
AcDbVertex
100
AcDb2dVertex
 10
-31.02992927375351
 20
28.74609656498705
 30
0.0
  0
VERTEX
  5
3B1
330
3A9
100
AcDbEntity
  8
GAIKEI
 62
     1
370
     9
100
AcDbVertex
100
AcDb2dVertex
 10
-31.01200546771918
 20
28.75554056816651
 30
0.0
  0
VERTEX
  5
3B2
330
3A9
100
AcDbEntity
  8
GAIKEI
 62
     1
370
     9
100
AcDbVertex
100
AcDb2dVertex
 10
-30.99277276124411
 20
28.76158407020114
 30
0.0
  0
VERTEX
  5
3B3
330
3A9
100
AcDbEntity
  8
GAIKEI
 62
     1
370
     9
100
AcDbVertex
100
AcDb2dVertex
 10
-30.97937655673405
 20
28.7635808708734
 30
0.0
  0
VERTEX
  5
3B4
330
3A9
100
AcDbEntity
  8
GAIKEI
 62
     1
370
     9
100
AcDbVertex
100
AcDb2dVertex
 10
-30.96582135217051
 20
28.7646485712329
 30
0.0
  0
SEQEND
  5
3B5
330
3A9
100
AcDbEntity
  8
GAIKEI
 62
     1
370
     9
  0
LINE
  5
3B6
330
2
100
AcDbEntity
  8
GAIKEI
 62
     1
370
     9
100
AcDbLine
 10
-31.08584389257806
 20
-9.355364362500495
 30
0.0
 11
-31.08584389257806
 21
28.64464853083291
 31
0.0
  0
LINE
  5
3B7
330
2
100
AcDbEntity
  8
GAIKEI
 62
     1
370
     9
100
AcDbLine
 10
-9.142838705102121
 20
28.66396223733517
 30
0.0
 11
-30.9846985585258
 21
28.66396223733517
 31
0.0
  0
POLYLINE
  5
3B8
330
2
100
AcDbEntity
  8
GAIKEI
370
     9
100
AcDb2dPolyline
 66
     1
 10
0.0
 20
0.0
 30
0.0
  0
VERTEX
  5
3B9
330
3B8
100
AcDbEntity
  8
GAIKEI
370
     9
100
AcDbVertex
100
AcDb2dVertex
 10
-31.22979894104293
 20
31.13789537022569
 30
0.0
  0
VERTEX
  5
3BA
330
3B8
100
AcDbEntity
  8
GAIKEI
370
     9
100
AcDbVertex
100
AcDb2dVertex
 10
-29.80055675986489
 20
31.13052886774563
 30
0.0
  0
VERTEX
  5
3BB
330
3B8
100
AcDbEntity
  8
GAIKEI
370
     9
100
AcDbVertex
100
AcDb2dVertex
 10
-27.83533859824166
 20
31.12215796492745
 30
0.0
  0
VERTEX
  5
3BC
330
3B8
100
AcDbEntity
  8
GAIKEI
370
     9
100
AcDbVertex
100
AcDb2dVertex
 10
-25.46813860128458
 20
31.11430066228218
 30
0.0
  0
VERTEX
  5
3BD
330
3B8
100
AcDbEntity
  8
GAIKEI
370
     9
100
AcDbVertex
100
AcDb2dVertex
 10
-22.83295061410496
 20
31.10847346032034
 30
0.0
  0
VERTEX
  5
3BE
330
3B8
100
AcDbEntity
  8
GAIKEI
370
     9
100
AcDbVertex
100
AcDb2dVertex
 10
-20.06376848181395
 20
31.10619405955294
 30
0.0
  0
VERTEX
  5
3BF
330
3B8
100
AcDbEntity
  8
GAIKEI
370
     9
100
AcDbVertex
100
AcDb2dVertex
 10
-17.29458634952294
 20
31.10847346032034
 30
0.0
  0
VERTEX
  5
3C0
330
3B8
100
AcDbEntity
  8
GAIKEI
370
     9
100
AcDbVertex
100
AcDb2dVertex
 10
-14.65939836234326
 20
31.11430066228218
 30
0.0
  0
VERTEX
  5
3C1
330
3B8
100
AcDbEntity
  8
GAIKEI
370
     9
100
AcDbVertex
100
AcDb2dVertex
 10
-12.29219836538618
 20
31.12215796492745
 30
0.0
  0
VERTEX
  5
3C2
330
3B8
100
AcDbEntity
  8
GAIKEI
370
     9
100
AcDbVertex
100
AcDb2dVertex
 10
-10.32698020376301
 20
31.13052886774563
 30
0.0
  0
VERTEX
  5
3C3
330
3B8
100
AcDbEntity
  8
GAIKEI
370
     9
100
AcDbVertex
100
AcDb2dVertex
 10
-8.897738322585041
 20
31.13789537022569
 30
0.0
  0
SEQEND
  5
3C4
330
3B8
100
AcDbEntity
  8
GAIKEI
370
     9
  0
POLYLINE
  5
3C5
330
2
100
AcDbEntity
  8
GAIKEI
370
     9
100
AcDb2dPolyline
 66
     1
 10
0.0
 20
0.0
 30
0.0
  0
VERTEX
  5
3C6
330
3C5
100
AcDbEntity
  8
GAIKEI
370
     9
100
AcDbVertex
100
AcDb2dVertex
 10
-8.897738322585041
 20
31.13789537022569
 30
0.0
  0
VERTEX
  5
3C7
330
3C5
100
AcDbEntity
  8
GAIKEI
370
     9
100
AcDbVertex
100
AcDb2dVertex
 10
-8.886955418954812
 20
31.13796647024964
 30
0.0
  0
VERTEX
  5
3C8
330
3C5
100
AcDbEntity
  8
GAIKEI
370
     9
100
AcDbVertex
100
AcDb2dVertex
 10
-8.871490713748357
 20
31.13809127029163
 30
0.0
  0
VERTEX
  5
3C9
330
3C5
100
AcDbEntity
  8
GAIKEI
370
     9
100
AcDbVertex
100
AcDb2dVertex
 10
-8.801675890244041
 20
31.13914457064629
 30
0.0
  0
VERTEX
  5
3CA
330
3C5
100
AcDbEntity
  8
GAIKEI
370
     9
100
AcDbVertex
100
AcDb2dVertex
 10
-8.740949869799578
 20
31.14058127112997
 30
0.0
  0
VERTEX
  5
3CB
330
3C5
100
AcDbEntity
  8
GAIKEI
370
     9
100
AcDbVertex
100
AcDb2dVertex
 10
-8.669506345746981
 20
31.14277667186906
 30
0.0
  0
VERTEX
  5
3CC
330
3C5
100
AcDbEntity
  8
GAIKEI
370
     9
100
AcDbVertex
100
AcDb2dVertex
 10
-8.594539620508157
 20
31.14825437371326
 30
0.0
  0
VERTEX
  5
3CD
330
3C5
100
AcDbEntity
  8
GAIKEI
370
     9
100
AcDbVertex
100
AcDb2dVertex
 10
-8.57938871540739
 20
31.14998477429583
 30
0.0
  0
VERTEX
  5
3CE
330
3C5
100
AcDbEntity
  8
GAIKEI
370
     9
100
AcDbVertex
100
AcDb2dVertex
 10
-8.565072710587628
 20
31.15156607482817
 30
0.0
  0
VERTEX
  5
3CF
330
3C5
100
AcDbEntity
  8
GAIKEI
370
     9
100
AcDbVertex
100
AcDb2dVertex
 10
-8.556644507750149
 20
31.15258817517224
 30
0.0
  0
VERTEX
  5
3D0
330
3C5
100
AcDbEntity
  8
GAIKEI
370
     9
100
AcDbVertex
100
AcDb2dVertex
 10
-8.547026804512199
 20
31.15509557601644
 30
0.0
  0
VERTEX
  5
3D1
330
3C5
100
AcDbEntity
  8
GAIKEI
370
     9
100
AcDbVertex
100
AcDb2dVertex
 10
-8.543146003205663
 20
31.15668227655061
 30
0.0
  0
VERTEX
  5
3D2
330
3C5
100
AcDbEntity
  8
GAIKEI
370
     9
100
AcDbVertex
100
AcDb2dVertex
 10
-8.541010602486721
 20
31.15837007711889
 30
0.0
  0
SEQEND
  5
3D3
330
3C5
100
AcDbEntity
  8
GAIKEI
370
     9
  0
LINE
  5
3D4
330
2
100
AcDbEntity
  8
GAIKEI
370
     9
100
AcDbLine
 10
-8.480713582186751
 20
31.33940873806853
 30
0.0
 11
-8.541010602486721
 21
31.15837007711889
 31
0.0
  0
LINE
  5
3D5
330
2
100
AcDbEntity
  8
GAIKEI
370
     9
100
AcDbLine
 10
-31.58652636114112
 20
31.15837007711889
 30
0.0
 11
-31.6468233814411
 21
31.33940873806853
 31
0.0
  0
POLYLINE
  5
3D6
330
2
100
AcDbEntity
  8
GAIKEI
370
     9
100
AcDb2dPolyline
 66
     1
 10
0.0
 20
0.0
 30
0.0
  0
VERTEX
  5
3D7
330
3D6
100
AcDbEntity
  8
GAIKEI
370
     9
100
AcDbVertex
100
AcDb2dVertex
 10
-31.58652636114112
 20
31.15837007711889
 30
0.0
  0
VERTEX
  5
3D8
330
3D6
100
AcDbEntity
  8
GAIKEI
370
     9
100
AcDbVertex
100
AcDb2dVertex
 10
-31.58439096042219
 20
31.15668227655061
 30
0.0
  0
VERTEX
  5
3D9
330
3D6
100
AcDbEntity
  8
GAIKEI
370
     9
100
AcDbVertex
100
AcDb2dVertex
 10
-31.58051045911577
 20
31.15509557601644
 30
0.0
  0
VERTEX
  5
3DA
330
3D6
100
AcDbEntity
  8
GAIKEI
370
     9
100
AcDbVertex
100
AcDb2dVertex
 10
-31.5708924558777
 20
31.15258817517224
 30
0.0
  0
VERTEX
  5
3DB
330
3D6
100
AcDbEntity
  8
GAIKEI
370
     9
100
AcDbVertex
100
AcDb2dVertex
 10
-31.56246425304022
 20
31.15156607482817
 30
0.0
  0
VERTEX
  5
3DC
330
3D6
100
AcDbEntity
  8
GAIKEI
370
     9
100
AcDbVertex
100
AcDb2dVertex
 10
-31.54814854822058
 20
31.14998477429583
 30
0.0
  0
VERTEX
  5
3DD
330
3D6
100
AcDbEntity
  8
GAIKEI
370
     9
100
AcDbVertex
100
AcDb2dVertex
 10
-31.53299734311969
 20
31.14825437371326
 30
0.0
  0
VERTEX
  5
3DE
330
3D6
100
AcDbEntity
  8
GAIKEI
370
     9
100
AcDbVertex
100
AcDb2dVertex
 10
-31.45803061788092
 20
31.14277667186906
 30
0.0
  0
VERTEX
  5
3DF
330
3D6
100
AcDbEntity
  8
GAIKEI
370
     9
100
AcDbVertex
100
AcDb2dVertex
 10
-31.38658709382827
 20
31.14058127112997
 30
0.0
  0
VERTEX
  5
3E0
330
3D6
100
AcDbEntity
  8
GAIKEI
370
     9
100
AcDbVertex
100
AcDb2dVertex
 10
-31.32586107338381
 20
31.13914457064629
 30
0.0
  0
VERTEX
  5
3E1
330
3D6
100
AcDbEntity
  8
GAIKEI
370
     9
100
AcDbVertex
100
AcDb2dVertex
 10
-31.25604624987949
 20
31.13809127029163
 30
0.0
  0
VERTEX
  5
3E2
330
3D6
100
AcDbEntity
  8
GAIKEI
370
     9
100
AcDbVertex
100
AcDb2dVertex
 10
-31.24058154467304
 20
31.13796647024964
 30
0.0
  0
VERTEX
  5
3E3
330
3D6
100
AcDbEntity
  8
GAIKEI
370
     9
100
AcDbVertex
100
AcDb2dVertex
 10
-31.22979894104293
 20
31.13789537022569
 30
0.0
  0
SEQEND
  5
3E4
330
3D6
100
AcDbEntity
  8
GAIKEI
370
     9
  0
LINE
  5
3E5
330
2
100
AcDbEntity
  8
GAIKEI
370
     9
100
AcDbLine
 10
-7.965970408889916
 20
-14.45012477773594
 30
0.0
 11
-8.063452741708999
 21
-14.14956337654695
 31
0.0
  0
POLYLINE
  5
3E6
330
2
100
AcDbEntity
  8
GAIKEI
370
     9
100
AcDb2dPolyline
 66
     1
 10
0.0
 20
0.0
 30
0.0
  0
VERTEX
  5
3E7
330
3E6
100
AcDbEntity
  8
GAIKEI
370
     9
100
AcDbVertex
100
AcDb2dVertex
 10
-8.063453641709315
 20
-14.14956337654695
 30
0.0
  0
VERTEX
  5
3E8
330
3E6
100
AcDbEntity
  8
GAIKEI
370
     9
100
AcDbVertex
100
AcDb2dVertex
 10
-8.063714341797094
 20
-14.14931587646362
 30
0.0
  0
VERTEX
  5
3E9
330
3E6
100
AcDbEntity
  8
GAIKEI
370
     9
100
AcDbVertex
100
AcDb2dVertex
 10
-8.064208441963387
 20
-14.14906537637927
 30
0.0
  0
VERTEX
  5
3EA
330
3E6
100
AcDbEntity
  8
GAIKEI
370
     9
100
AcDbVertex
100
AcDb2dVertex
 10
-8.06539974236449
 20
-14.14868887625255
 30
0.0
  0
VERTEX
  5
3EB
330
3E6
100
AcDbEntity
  8
GAIKEI
370
     9
100
AcDbVertex
100
AcDb2dVertex
 10
-8.06646414272285
 20
-14.14854007620244
 30
0.0
  0
VERTEX
  5
3EC
330
3E6
100
AcDbEntity
  8
GAIKEI
370
     9
100
AcDbVertex
100
AcDb2dVertex
 10
-8.068257843326705
 20
-14.14830667612386
 30
0.0
  0
VERTEX
  5
3ED
330
3E6
100
AcDbEntity
  8
GAIKEI
370
     9
100
AcDbVertex
100
AcDb2dVertex
 10
-8.070147243962821
 20
-14.1480468760364
 30
0.0
  0
VERTEX
  5
3EE
330
3E6
100
AcDbEntity
  8
GAIKEI
370
     9
100
AcDbVertex
100
AcDb2dVertex
 10
-8.079477547103977
 20
-14.14722847576087
 30
0.0
  0
VERTEX
  5
3EF
330
3E6
100
AcDbEntity
  8
GAIKEI
370
     9
100
AcDbVertex
100
AcDb2dVertex
 10
-8.088448750124314
 20
-14.14690387565156
 30
0.0
  0
VERTEX
  5
3F0
330
3E6
100
AcDbEntity
  8
GAIKEI
370
     9
100
AcDbVertex
100
AcDb2dVertex
 10
-8.096147652716297
 20
-14.14668877557915
 30
0.0
  0
VERTEX
  5
3F1
330
3E6
100
AcDbEntity
  8
GAIKEI
370
     9
100
AcDbVertex
100
AcDb2dVertex
 10
-8.104766355617925
 20
-14.14653247552655
 30
0.0
  0
VERTEX
  5
3F2
330
3E6
100
AcDbEntity
  8
GAIKEI
370
     9
100
AcDbVertex
100
AcDb2dVertex
 10
-8.109836957325001
 20
-14.14649497551392
 30
0.0
  0
VERTEX
  5
3F3
330
3E6
100
AcDbEntity
  8
GAIKEI
370
     9
100
AcDbVertex
100
AcDb2dVertex
 10
-8.11344865854096
 20
-14.14648477551049
 30
0.0
  0
SEQEND
  5
3F4
330
3E6
100
AcDbEntity
  8
GAIKEI
370
     9
  0
LINE
  5
3F5
330
2
100
AcDbEntity
  8
GAIKEI
370
     9
100
AcDbLine
 10
-8.11348675855379
 20
-14.14648477551049
 30
0.0
 11
-9.014012361730635
 21
-14.14648477551049
 31
0.0
  0
POLYLINE
  5
3F6
330
2
100
AcDbEntity
  8
GAIKEI
370
     9
100
AcDb2dPolyline
 66
     1
 10
0.0
 20
0.0
 30
0.0
  0
VERTEX
  5
3F7
330
3F6
100
AcDbEntity
  8
GAIKEI
370
     9
100
AcDbVertex
100
AcDb2dVertex
 10
-9.014012361730635
 20
-14.14648477551049
 30
0.0
  0
VERTEX
  5
3F8
330
3F6
100
AcDbEntity
  8
GAIKEI
370
     9
100
AcDbVertex
100
AcDb2dVertex
 10
-9.014040261739978
 20
-14.14648477551049
 30
0.0
  0
VERTEX
  5
3F9
330
3F6
100
AcDbEntity
  8
GAIKEI
370
     9
100
AcDbVertex
100
AcDb2dVertex
 10
-9.014080761753632
 20
-14.14648477551049
 30
0.0
  0
VERTEX
  5
3FA
330
3F6
100
AcDbEntity
  8
GAIKEI
370
     9
100
AcDbVertex
100
AcDb2dVertex
 10
-9.018782663336594
 20
-14.14649497551392
 30
0.0
  0
VERTEX
  5
3FB
330
3F6
100
AcDbEntity
  8
GAIKEI
370
     9
100
AcDbVertex
100
AcDb2dVertex
 10
-9.022763064676723
 20
-14.14653247552655
 30
0.0
  0
VERTEX
  5
3FC
330
3F6
100
AcDbEntity
  8
GAIKEI
370
     9
100
AcDbVertex
100
AcDb2dVertex
 10
-9.030717267354589
 20
-14.14668877557915
 30
0.0
  0
VERTEX
  5
3FD
330
3F6
100
AcDbEntity
  8
GAIKEI
370
     9
100
AcDbVertex
100
AcDb2dVertex
 10
-9.039080670170278
 20
-14.14690387565156
 30
0.0
  0
VERTEX
  5
3FE
330
3F6
100
AcDbEntity
  8
GAIKEI
370
     9
100
AcDbVertex
100
AcDb2dVertex
 10
-9.048225273248988
 20
-14.14722847576087
 30
0.0
  0
VERTEX
  5
3FF
330
3F6
100
AcDbEntity
  8
GAIKEI
370
     9
100
AcDbVertex
100
AcDb2dVertex
 10
-9.057381876331703
 20
-14.1480468760364
 30
0.0
  0
VERTEX
  5
400
330
3F6
100
AcDbEntity
  8
GAIKEI
370
     9
100
AcDbVertex
100
AcDb2dVertex
 10
-9.05926797696668
 20
-14.14830667612386
 30
0.0
  0
VERTEX
  5
401
330
3F6
100
AcDbEntity
  8
GAIKEI
370
     9
100
AcDbVertex
100
AcDb2dVertex
 10
-9.061065277571742
 20
-14.14854007620244
 30
0.0
  0
VERTEX
  5
402
330
3F6
100
AcDbEntity
  8
GAIKEI
370
     9
100
AcDbVertex
100
AcDb2dVertex
 10
-9.062129977930226
 20
-14.14868887625255
 30
0.0
  0
VERTEX
  5
403
330
3F6
100
AcDbEntity
  8
GAIKEI
370
     9
100
AcDbVertex
100
AcDb2dVertex
 10
-9.063320978331148
 20
-14.14906537637927
 30
0.0
  0
VERTEX
  5
404
330
3F6
100
AcDbEntity
  8
GAIKEI
370
     9
100
AcDbVertex
100
AcDb2dVertex
 10
-9.06381477849743
 20
-14.14931587646362
 30
0.0
  0
VERTEX
  5
405
330
3F6
100
AcDbEntity
  8
GAIKEI
370
     9
100
AcDbVertex
100
AcDb2dVertex
 10
-9.064075778585277
 20
-14.14956337654695
 30
0.0
  0
SEQEND
  5
406
330
3F6
100
AcDbEntity
  8
GAIKEI
370
     9
  0
LINE
  5
407
330
2
100
AcDbEntity
  8
GAIKEI
370
     9
100
AcDbLine
 10
-9.064076678585593
 20
-14.14956337654695
 30
0.0
 11
-9.161559011404619
 21
-14.45012477773594
 31
0.0
  0
LINE
  5
408
330
2
100
AcDbEntity
  8
GAIKEI
370
     9
100
AcDbLine
 10
-30.96597795222323
 20
-14.45012477773594
 30
0.0
 11
-31.06346058504238
 21
-14.14956337654695
 31
0.0
  0
POLYLINE
  5
409
330
2
100
AcDbEntity
  8
GAIKEI
370
     9
100
AcDb2dPolyline
 66
     1
 10
0.0
 20
0.0
 30
0.0
  0
VERTEX
  5
40A
330
409
100
AcDbEntity
  8
GAIKEI
370
     9
100
AcDbVertex
100
AcDb2dVertex
 10
-31.0634614850427
 20
-14.14956337654695
 30
0.0
  0
VERTEX
  5
40B
330
409
100
AcDbEntity
  8
GAIKEI
370
     9
100
AcDbVertex
100
AcDb2dVertex
 10
-31.06372218513042
 20
-14.14931587646362
 30
0.0
  0
VERTEX
  5
40C
330
409
100
AcDbEntity
  8
GAIKEI
370
     9
100
AcDbVertex
100
AcDb2dVertex
 10
-31.0642159852967
 20
-14.14906537637927
 30
0.0
  0
VERTEX
  5
40D
330
409
100
AcDbEntity
  8
GAIKEI
370
     9
100
AcDbVertex
100
AcDb2dVertex
 10
-31.06540728569775
 20
-14.14868887625255
 30
0.0
  0
VERTEX
  5
40E
330
409
100
AcDbEntity
  8
GAIKEI
370
     9
100
AcDbVertex
100
AcDb2dVertex
 10
-31.0664716860561
 20
-14.14854007620244
 30
0.0
  0
VERTEX
  5
40F
330
409
100
AcDbEntity
  8
GAIKEI
370
     9
100
AcDbVertex
100
AcDb2dVertex
 10
-31.06826568666008
 20
-14.14830667612386
 30
0.0
  0
VERTEX
  5
410
330
409
100
AcDbEntity
  8
GAIKEI
370
     9
100
AcDbVertex
100
AcDb2dVertex
 10
-31.07015508729614
 20
-14.1480468760364
 30
0.0
  0
VERTEX
  5
411
330
409
100
AcDbEntity
  8
GAIKEI
370
     9
100
AcDbVertex
100
AcDb2dVertex
 10
-31.07948539043736
 20
-14.14722847576087
 30
0.0
  0
VERTEX
  5
412
330
409
100
AcDbEntity
  8
GAIKEI
370
     9
100
AcDbVertex
100
AcDb2dVertex
 10
-31.08845629345757
 20
-14.14690387565156
 30
0.0
  0
VERTEX
  5
413
330
409
100
AcDbEntity
  8
GAIKEI
370
     9
100
AcDbVertex
100
AcDb2dVertex
 10
-31.09615549604962
 20
-14.14668877557915
 30
0.0
  0
VERTEX
  5
414
330
409
100
AcDbEntity
  8
GAIKEI
370
     9
100
AcDbVertex
100
AcDb2dVertex
 10
-31.10477389895118
 20
-14.14653247552655
 30
0.0
  0
VERTEX
  5
415
330
409
100
AcDbEntity
  8
GAIKEI
370
     9
100
AcDbVertex
100
AcDb2dVertex
 10
-31.10984480065838
 20
-14.14649497551392
 30
0.0
  0
VERTEX
  5
416
330
409
100
AcDbEntity
  8
GAIKEI
370
     9
100
AcDbVertex
100
AcDb2dVertex
 10
-31.11345650187434
 20
-14.14648477551049
 30
0.0
  0
SEQEND
  5
417
330
409
100
AcDbEntity
  8
GAIKEI
370
     9
  0
LINE
  5
418
330
2
100
AcDbEntity
  8
GAIKEI
370
     9
100
AcDbLine
 10
-31.11349460188711
 20
-14.14648477551049
 30
0.0
 11
-32.01402020506402
 21
-14.14648477551049
 31
0.0
  0
POLYLINE
  5
419
330
2
100
AcDbEntity
  8
GAIKEI
370
     9
100
AcDb2dPolyline
 66
     1
 10
0.0
 20
0.0
 30
0.0
  0
VERTEX
  5
41A
330
419
100
AcDbEntity
  8
GAIKEI
370
     9
100
AcDbVertex
100
AcDb2dVertex
 10
-32.01402020506402
 20
-14.14648477551049
 30
0.0
  0
VERTEX
  5
41B
330
419
100
AcDbEntity
  8
GAIKEI
370
     9
100
AcDbVertex
100
AcDb2dVertex
 10
-32.01404780507329
 20
-14.14648477551049
 30
0.0
  0
VERTEX
  5
41C
330
419
100
AcDbEntity
  8
GAIKEI
370
     9
100
AcDbVertex
100
AcDb2dVertex
 10
-32.01408830508694
 20
-14.14648477551049
 30
0.0
  0
VERTEX
  5
41D
330
419
100
AcDbEntity
  8
GAIKEI
370
     9
100
AcDbVertex
100
AcDb2dVertex
 10
-32.01879050666998
 20
-14.14649497551392
 30
0.0
  0
VERTEX
  5
41E
330
419
100
AcDbEntity
  8
GAIKEI
370
     9
100
AcDbVertex
100
AcDb2dVertex
 10
-32.02277090801004
 20
-14.14653247552655
 30
0.0
  0
VERTEX
  5
41F
330
419
100
AcDbEntity
  8
GAIKEI
370
     9
100
AcDbVertex
100
AcDb2dVertex
 10
-32.03072511068797
 20
-14.14668877557915
 30
0.0
  0
VERTEX
  5
420
330
419
100
AcDbEntity
  8
GAIKEI
370
     9
100
AcDbVertex
100
AcDb2dVertex
 10
-32.03908851350366
 20
-14.14690387565156
 30
0.0
  0
VERTEX
  5
421
330
419
100
AcDbEntity
  8
GAIKEI
370
     9
100
AcDbVertex
100
AcDb2dVertex
 10
-32.04823281658224
 20
-14.14722847576087
 30
0.0
  0
VERTEX
  5
422
330
419
100
AcDbEntity
  8
GAIKEI
370
     9
100
AcDbVertex
100
AcDb2dVertex
 10
-32.05738971966503
 20
-14.1480468760364
 30
0.0
  0
VERTEX
  5
423
330
419
100
AcDbEntity
  8
GAIKEI
370
     9
100
AcDbVertex
100
AcDb2dVertex
 10
-32.05927552029994
 20
-14.14830667612386
 30
0.0
  0
VERTEX
  5
424
330
419
100
AcDbEntity
  8
GAIKEI
370
     9
100
AcDbVertex
100
AcDb2dVertex
 10
-32.06107312090512
 20
-14.14854007620244
 30
0.0
  0
VERTEX
  5
425
330
419
100
AcDbEntity
  8
GAIKEI
370
     9
100
AcDbVertex
100
AcDb2dVertex
 10
-32.0621378212636
 20
-14.14868887625255
 30
0.0
  0
VERTEX
  5
426
330
419
100
AcDbEntity
  8
GAIKEI
370
     9
100
AcDbVertex
100
AcDb2dVertex
 10
-32.06332882166459
 20
-14.14906537637927
 30
0.0
  0
VERTEX
  5
427
330
419
100
AcDbEntity
  8
GAIKEI
370
     9
100
AcDbVertex
100
AcDb2dVertex
 10
-32.06382262183081
 20
-14.14931587646362
 30
0.0
  0
VERTEX
  5
428
330
419
100
AcDbEntity
  8
GAIKEI
370
     9
100
AcDbVertex
100
AcDb2dVertex
 10
-32.06408332191859
 20
-14.14956337654695
 30
0.0
  0
SEQEND
  5
429
330
419
100
AcDbEntity
  8
GAIKEI
370
     9
  0
LINE
  5
42A
330
2
100
AcDbEntity
  8
GAIKEI
370
     9
100
AcDbLine
 10
-32.06408422191885
 20
-14.14956337654695
 30
0.0
 11
-32.161566854738
 21
-14.45012477773594
 31
0.0
  0
LINE
  5
42B
330
2
100
AcDbEntity
  8
GAIKEI
370
     9
100
AcDbLine
 10
-10.2163170665064
 20
-14.65536594683374
 30
0.0
 11
-7.911212590454795
 21
-14.65536594683374
 31
0.0
  0
LINE
  5
42C
330
2
100
AcDbEntity
  8
GAIKEI
370
     9
100
AcDbLine
 10
-32.21632437317305
 20
-14.65536594683374
 30
0.0
 11
-29.91122019712157
 21
-14.65536594683374
 31
0.0
  0
LINE
  5
42D
330
2
100
AcDbEntity
  8
GAIKEI
370
     9
100
AcDbLine
 10
-8.61376452698056
 20
35.85860455953059
 30
0.0
 11
-8.61376452698056
 21
31.14667637318201
 31
0.0
  0
ARC
  5
42E
330
2
100
AcDbEntity
  8
GAIKEI
 62
     1
370
     9
100
AcDbCircle
 10
-9.813764930980539
 20
34.94548375211337
 30
0.0
 40
0.1850000622833334
100
AcDbArc
 50
215.2005809999997
 51
234.799418999999
  0
ARC
  5
42F
330
2
100
AcDbEntity
  8
GAIKEI
 62
     1
370
     9
100
AcDbCircle
 10
-9.813764930980539
 20
34.94548375211337
 30
0.0
 40
0.1850000622833336
100
AcDbArc
 50
125.200581000001
 51
144.7994190000003
  0
ARC
  5
430
330
2
100
AcDbEntity
  8
GAIKEI
 62
     1
370
     9
100
AcDbCircle
 10
-9.813764930980539
 20
34.94548375211337
 30
0.0
 40
0.1850000622833334
100
AcDbArc
 50
35.2005809999997
 51
54.79941899999898
  0
ARC
  5
431
330
2
100
AcDbEntity
  8
GAIKEI
 62
     1
370
     9
100
AcDbCircle
 10
-9.813764930980539
 20
34.94548375211337
 30
0.0
 40
0.1850000622833336
100
AcDbArc
 50
305.200581000001
 51
324.7994190000004
  0
LINE
  5
432
330
2
100
AcDbEntity
  8
GAIKEI
 62
     1
370
     9
100
AcDbLine
 10
-9.964935881874794
 20
34.83884241621081
 30
0.0
 11
-9.902415560826284
 21
34.90358333800691
 31
0.0
  0
LINE
  5
433
330
2
100
AcDbEntity
  8
GAIKEI
 62
     1
370
     9
100
AcDbLine
 10
-9.902415560826284
 20
34.90358333800691
 30
0.0
 11
-9.887164455691731
 21
34.94548375211337
 31
0.0
  0
LINE
  5
434
330
2
100
AcDbEntity
  8
GAIKEI
 62
     1
370
     9
100
AcDbLine
 10
-9.887164455691731
 20
34.94548375211337
 30
0.0
 11
-9.902415560826284
 21
34.98738446621991
 31
0.0
  0
LINE
  5
435
330
2
100
AcDbEntity
  8
GAIKEI
 62
     1
370
     9
100
AcDbLine
 10
-9.902415560826284
 20
34.98738446621991
 30
0.0
 11
-9.964935881874794
 21
35.05212538801601
 31
0.0
  0
LINE
  5
436
330
2
100
AcDbEntity
  8
GAIKEI
 62
     1
370
     9
100
AcDbLine
 10
-9.920406566883229
 20
35.09665470300757
 30
0.0
 11
-9.855665645087128
 21
35.03413438195906
 31
0.0
  0
LINE
  5
437
330
2
100
AcDbEntity
  8
GAIKEI
 62
     1
370
     9
100
AcDbLine
 10
-9.855665645087128
 20
35.03413438195906
 30
0.0
 11
-9.813764930980539
 21
35.01888327682457
 31
0.0
  0
LINE
  5
438
330
2
100
AcDbEntity
  8
GAIKEI
 62
     1
370
     9
100
AcDbLine
 10
-9.813764930980539
 20
35.01888327682457
 30
0.0
 11
-9.771864516874074
 21
35.03413438195906
 31
0.0
  0
LINE
  5
439
330
2
100
AcDbEntity
  8
GAIKEI
 62
     1
370
     9
100
AcDbLine
 10
-9.771864516874074
 20
35.03413438195906
 30
0.0
 11
-9.707123595077973
 21
35.09665470300757
 31
0.0
  0
LINE
  5
43A
330
2
100
AcDbEntity
  8
GAIKEI
 62
     1
370
     9
100
AcDbLine
 10
-9.725114601134976
 20
34.98738446621991
 30
0.0
 11
-9.662594280086466
 21
35.05212538801601
 31
0.0
  0
LINE
  5
43B
330
2
100
AcDbEntity
  8
GAIKEI
 62
     1
370
     9
100
AcDbLine
 10
-9.725114601134976
 20
34.98738446621991
 30
0.0
 11
-9.740365706269471
 21
34.94548375211337
 31
0.0
  0
LINE
  5
43C
330
2
100
AcDbEntity
  8
GAIKEI
 62
     1
370
     9
100
AcDbLine
 10
-9.920406566883229
 20
34.79431310121924
 30
0.0
 11
-9.855665645087128
 21
34.85683342226776
 31
0.0
  0
LINE
  5
43D
330
2
100
AcDbEntity
  8
GAIKEI
 62
     1
370
     9
100
AcDbLine
 10
-9.855665645087128
 20
34.85683342226776
 30
0.0
 11
-9.813764930980539
 21
34.87208452740231
 31
0.0
  0
LINE
  5
43E
330
2
100
AcDbEntity
  8
GAIKEI
 62
     1
370
     9
100
AcDbLine
 10
-9.813764930980539
 20
34.87208452740231
 30
0.0
 11
-9.771864516874074
 21
34.85683342226776
 31
0.0
  0
LINE
  5
43F
330
2
100
AcDbEntity
  8
GAIKEI
 62
     1
370
     9
100
AcDbLine
 10
-9.771864516874074
 20
34.85683342226776
 30
0.0
 11
-9.707123595077973
 21
34.79431310121924
 31
0.0
  0
LINE
  5
440
330
2
100
AcDbEntity
  8
GAIKEI
 62
     1
370
     9
100
AcDbLine
 10
-9.662594280086466
 20
34.83884241621081
 30
0.0
 11
-9.725114601134976
 21
34.90358333800691
 31
0.0
  0
LINE
  5
441
330
2
100
AcDbEntity
  8
GAIKEI
 62
     1
370
     9
100
AcDbLine
 10
-9.740365706269471
 20
34.94548375211337
 30
0.0
 11
-9.725114601134976
 21
34.90358333800691
 31
0.0
  0
ARC
  5
442
330
2
100
AcDbEntity
  8
GAIKEI
 62
     1
370
     9
100
AcDbCircle
 10
-9.813764930980539
 20
31.19556558964132
 30
0.0
 40
0.1145000845483488
100
AcDbArc
 50
327.1805660000003
 51
331.6221119999998
  0
ARC
  5
443
330
2
100
AcDbEntity
  8
GAIKEI
 62
     1
370
     9
100
AcDbCircle
 10
-9.813765230980664
 20
31.19556558964132
 30
0.0
 40
0.1145000845483487
100
AcDbArc
 50
208.3778509999993
 51
213.3931389999996
  0
ARC
  5
444
330
2
100
AcDbEntity
  8
GAIKEI
 62
     1
370
     9
100
AcDbCircle
 10
-9.813764930980539
 20
31.19556558964132
 30
0.0
 40
0.1850000622833336
100
AcDbArc
 50
125.200581000001
 51
144.7994190000003
  0
ARC
  5
445
330
2
100
AcDbEntity
  8
GAIKEI
 62
     1
370
     9
100
AcDbCircle
 10
-9.813764930980539
 20
31.19556558964132
 30
0.0
 40
0.1850000622833334
100
AcDbArc
 50
35.2005809999997
 51
54.79941899999898
  0
LINE
  5
446
330
2
100
AcDbEntity
  8
GAIKEI
 62
     1
370
     9
100
AcDbLine
 10
-9.922873167713646
 20
31.13248096840289
 30
0.0
 11
-9.902415560826284
 21
31.15366487553479
 31
0.0
  0
LINE
  5
447
330
2
100
AcDbEntity
  8
GAIKEI
 62
     1
370
     9
100
AcDbLine
 10
-9.902415560826284
 20
31.15366487553479
 30
0.0
 11
-9.887164455691731
 21
31.19556558964132
 31
0.0
  0
LINE
  5
448
330
2
100
AcDbEntity
  8
GAIKEI
 62
     1
370
     9
100
AcDbLine
 10
-9.887164455691731
 20
31.19556558964132
 30
0.0
 11
-9.902415560826284
 21
31.23746630374791
 31
0.0
  0
LINE
  5
449
330
2
100
AcDbEntity
  8
GAIKEI
 62
     1
370
     9
100
AcDbLine
 10
-9.902415560826284
 20
31.23746630374791
 30
0.0
 11
-9.964935881874794
 21
31.30220722554401
 31
0.0
  0
LINE
  5
44A
330
2
100
AcDbEntity
  8
GAIKEI
 62
     1
370
     9
100
AcDbLine
 10
-9.920406566883229
 20
31.34673624053539
 30
0.0
 11
-9.855665645087128
 21
31.28421621948701
 31
0.0
  0
LINE
  5
44B
330
2
100
AcDbEntity
  8
GAIKEI
 62
     1
370
     9
100
AcDbLine
 10
-9.855665645087128
 20
31.28421621948701
 30
0.0
 11
-9.813764930980539
 21
31.26896511435251
 31
0.0
  0
LINE
  5
44C
330
2
100
AcDbEntity
  8
GAIKEI
 62
     1
370
     9
100
AcDbLine
 10
-9.813764930980539
 20
31.26896511435251
 30
0.0
 11
-9.771864516874074
 21
31.28421621948701
 31
0.0
  0
LINE
  5
44D
330
2
100
AcDbEntity
  8
GAIKEI
 62
     1
370
     9
100
AcDbLine
 10
-9.771864516874074
 20
31.28421621948701
 30
0.0
 11
-9.707123595077973
 21
31.34673624053539
 31
0.0
  0
LINE
  5
44E
330
2
100
AcDbEntity
  8
GAIKEI
 62
     1
370
     9
100
AcDbLine
 10
-9.725114601134976
 20
31.23746630374791
 30
0.0
 11
-9.662594280086466
 21
31.30220722554401
 31
0.0
  0
LINE
  5
44F
330
2
100
AcDbEntity
  8
GAIKEI
 62
     1
370
     9
100
AcDbLine
 10
-9.725114601134976
 20
31.23746630374791
 30
0.0
 11
-9.740365706269471
 21
31.19556558964132
 31
0.0
  0
LINE
  5
450
330
2
100
AcDbEntity
  8
GAIKEI
 62
     1
370
     9
100
AcDbLine
 10
-9.705706994601086
 20
31.13356786876875
 30
0.0
 11
-9.725114601134976
 21
31.15366487553479
 31
0.0
  0
LINE
  5
451
330
2
100
AcDbEntity
  8
GAIKEI
 62
     1
370
     9
100
AcDbLine
 10
-9.740365706269471
 20
31.19556558964132
 30
0.0
 11
-9.725114601134976
 21
31.15366487553479
 31
0.0
  0
ARC
  5
452
330
2
100
AcDbEntity
  8
GAIKEI
 62
     1
370
     9
100
AcDbCircle
 10
-30.31377203264731
 20
31.19556558964132
 30
0.0
 40
0.1850000622833336
100
AcDbArc
 50
125.200581000001
 51
144.7994190000003
  0
ARC
  5
453
330
2
100
AcDbEntity
  8
GAIKEI
 62
     1
370
     9
100
AcDbCircle
 10
-30.31377203264731
 20
31.19556558964132
 30
0.0
 40
0.1850000622833334
100
AcDbArc
 50
35.2005809999997
 51
54.79941899999898
  0
LINE
  5
454
330
2
100
AcDbEntity
  8
GAIKEI
 62
     1
370
     9
100
AcDbLine
 10
-30.42183026902689
 20
31.13356786876875
 30
0.0
 11
-30.402422662493
 21
31.15366487553479
 31
0.0
  0
LINE
  5
455
330
2
100
AcDbEntity
  8
GAIKEI
 62
     1
370
     9
100
AcDbLine
 10
-30.402422662493
 20
31.15366487553479
 30
0.0
 11
-30.38717125735838
 21
31.19556558964132
 31
0.0
  0
LINE
  5
456
330
2
100
AcDbEntity
  8
GAIKEI
 62
     1
370
     9
100
AcDbLine
 10
-30.38717125735838
 20
31.19556558964132
 30
0.0
 11
-30.402422662493
 21
31.23746630374791
 31
0.0
  0
LINE
  5
457
330
2
100
AcDbEntity
  8
GAIKEI
 62
     1
370
     9
100
AcDbLine
 10
-30.402422662493
 20
31.23746630374791
 30
0.0
 11
-30.46494268354138
 21
31.30220722554401
 31
0.0
  0
LINE
  5
458
330
2
100
AcDbEntity
  8
GAIKEI
 62
     1
370
     9
100
AcDbLine
 10
-30.42041366854994
 20
31.34673624053539
 30
0.0
 11
-30.35567274675384
 21
31.28421621948701
 31
0.0
  0
LINE
  5
459
330
2
100
AcDbEntity
  8
GAIKEI
 62
     1
370
     9
100
AcDbLine
 10
-30.35567274675384
 20
31.28421621948701
 30
0.0
 11
-30.31377203264731
 21
31.26896511435251
 31
0.0
  0
LINE
  5
45A
330
2
100
AcDbEntity
  8
GAIKEI
 62
     1
370
     9
100
AcDbLine
 10
-30.31377203264731
 20
31.26896511435251
 30
0.0
 11
-30.27187131854072
 21
31.28421621948701
 31
0.0
  0
LINE
  5
45B
330
2
100
AcDbEntity
  8
GAIKEI
 62
     1
370
     9
100
AcDbLine
 10
-30.27187131854072
 20
31.28421621948701
 30
0.0
 11
-30.20713039674462
 21
31.34673624053539
 31
0.0
  0
LINE
  5
45C
330
2
100
AcDbEntity
  8
GAIKEI
 62
     1
370
     9
100
AcDbLine
 10
-30.22512140280156
 20
31.23746630374791
 30
0.0
 11
-30.16260108175311
 21
31.30220722554401
 31
0.0
  0
LINE
  5
45D
330
2
100
AcDbEntity
  8
GAIKEI
 62
     1
370
     9
100
AcDbLine
 10
-30.22512140280156
 20
31.23746630374791
 30
0.0
 11
-30.24037250793611
 21
31.19556558964132
 31
0.0
  0
LINE
  5
45E
330
2
100
AcDbEntity
  8
GAIKEI
 62
     1
370
     9
100
AcDbLine
 10
-30.20466409591433
 20
31.13248096840289
 30
0.0
 11
-30.22512140280156
 21
31.15366487553479
 31
0.0
  0
LINE
  5
45F
330
2
100
AcDbEntity
  8
GAIKEI
 62
     1
370
     9
100
AcDbLine
 10
-30.24037250793611
 20
31.19556558964132
 30
0.0
 11
-30.22512140280156
 21
31.15366487553479
 31
0.0
  0
ARC
  5
460
330
2
100
AcDbEntity
  8
GAIKEI
 62
     1
370
     9
100
AcDbCircle
 10
-30.31377203264731
 20
34.94548375211337
 30
0.0
 40
0.1850000622833334
100
AcDbArc
 50
215.2005809999997
 51
234.799418999999
  0
ARC
  5
461
330
2
100
AcDbEntity
  8
GAIKEI
 62
     1
370
     9
100
AcDbCircle
 10
-30.31377203264731
 20
34.94548375211337
 30
0.0
 40
0.1850000622833336
100
AcDbArc
 50
125.200581000001
 51
144.7994190000003
  0
ARC
  5
462
330
2
100
AcDbEntity
  8
GAIKEI
 62
     1
370
     9
100
AcDbCircle
 10
-30.31377203264731
 20
34.94548375211337
 30
0.0
 40
0.1850000622833334
100
AcDbArc
 50
35.2005809999997
 51
54.79941899999898
  0
ARC
  5
463
330
2
100
AcDbEntity
  8
GAIKEI
 62
     1
370
     9
100
AcDbCircle
 10
-30.31377203264731
 20
34.94548375211337
 30
0.0
 40
0.1850000622833336
100
AcDbArc
 50
305.200581000001
 51
324.7994190000004
  0
LINE
  5
464
330
2
100
AcDbEntity
  8
GAIKEI
 62
     1
370
     9
100
AcDbLine
 10
-30.46494268354138
 20
34.83884241621081
 30
0.0
 11
-30.402422662493
 21
34.90358333800691
 31
0.0
  0
LINE
  5
465
330
2
100
AcDbEntity
  8
GAIKEI
 62
     1
370
     9
100
AcDbLine
 10
-30.402422662493
 20
34.90358333800691
 30
0.0
 11
-30.38717125735838
 21
34.94548375211337
 31
0.0
  0
LINE
  5
466
330
2
100
AcDbEntity
  8
GAIKEI
 62
     1
370
     9
100
AcDbLine
 10
-30.38717125735838
 20
34.94548375211337
 30
0.0
 11
-30.402422662493
 21
34.98738446621991
 31
0.0
  0
LINE
  5
467
330
2
100
AcDbEntity
  8
GAIKEI
 62
     1
370
     9
100
AcDbLine
 10
-30.402422662493
 20
34.98738446621991
 30
0.0
 11
-30.46494268354138
 21
35.05212538801601
 31
0.0
  0
LINE
  5
468
330
2
100
AcDbEntity
  8
GAIKEI
 62
     1
370
     9
100
AcDbLine
 10
-30.42041366854994
 20
35.09665470300757
 30
0.0
 11
-30.35567274675384
 21
35.03413438195906
 31
0.0
  0
LINE
  5
469
330
2
100
AcDbEntity
  8
GAIKEI
 62
     1
370
     9
100
AcDbLine
 10
-30.35567274675384
 20
35.03413438195906
 30
0.0
 11
-30.31377203264731
 21
35.01888327682457
 31
0.0
  0
LINE
  5
46A
330
2
100
AcDbEntity
  8
GAIKEI
 62
     1
370
     9
100
AcDbLine
 10
-30.31377203264731
 20
35.01888327682457
 30
0.0
 11
-30.27187131854072
 21
35.03413438195906
 31
0.0
  0
LINE
  5
46B
330
2
100
AcDbEntity
  8
GAIKEI
 62
     1
370
     9
100
AcDbLine
 10
-30.27187131854072
 20
35.03413438195906
 30
0.0
 11
-30.20713039674462
 21
35.09665470300757
 31
0.0
  0
LINE
  5
46C
330
2
100
AcDbEntity
  8
GAIKEI
 62
     1
370
     9
100
AcDbLine
 10
-30.22512140280156
 20
34.98738446621991
 30
0.0
 11
-30.16260108175311
 21
35.05212538801601
 31
0.0
  0
LINE
  5
46D
330
2
100
AcDbEntity
  8
GAIKEI
 62
     1
370
     9
100
AcDbLine
 10
-30.22512140280156
 20
34.98738446621991
 30
0.0
 11
-30.24037250793611
 21
34.94548375211337
 31
0.0
  0
LINE
  5
46E
330
2
100
AcDbEntity
  8
GAIKEI
 62
     1
370
     9
100
AcDbLine
 10
-30.42041366854994
 20
34.79431310121924
 30
0.0
 11
-30.35567274675384
 21
34.85683342226776
 31
0.0
  0
LINE
  5
46F
330
2
100
AcDbEntity
  8
GAIKEI
 62
     1
370
     9
100
AcDbLine
 10
-30.35567274675384
 20
34.85683342226776
 30
0.0
 11
-30.31377203264731
 21
34.87208452740231
 31
0.0
  0
LINE
  5
470
330
2
100
AcDbEntity
  8
GAIKEI
 62
     1
370
     9
100
AcDbLine
 10
-30.31377203264731
 20
34.87208452740231
 30
0.0
 11
-30.27187131854072
 21
34.85683342226776
 31
0.0
  0
LINE
  5
471
330
2
100
AcDbEntity
  8
GAIKEI
 62
     1
370
     9
100
AcDbLine
 10
-30.27187131854072
 20
34.85683342226776
 30
0.0
 11
-30.20713039674462
 21
34.79431310121924
 31
0.0
  0
LINE
  5
472
330
2
100
AcDbEntity
  8
GAIKEI
 62
     1
370
     9
100
AcDbLine
 10
-30.16260108175311
 20
34.83884241621081
 30
0.0
 11
-30.22512140280156
 21
34.90358333800691
 31
0.0
  0
LINE
  5
473
330
2
100
AcDbEntity
  8
GAIKEI
 62
     1
370
     9
100
AcDbLine
 10
-30.24037250793611
 20
34.94548375211337
 30
0.0
 11
-30.22512140280156
 21
34.90358333800691
 31
0.0
  0
ARC
  5
474
330
2
100
AcDbEntity
  8
GAIKEI
 62
     1
370
     9
100
AcDbCircle
 10
-20.06376848181395
 20
35.44556712047472
 30
0.0
 40
0.1850000622833334
100
AcDbArc
 50
215.2005809999997
 51
234.799418999999
  0
ARC
  5
475
330
2
100
AcDbEntity
  8
GAIKEI
 62
     1
370
     9
100
AcDbCircle
 10
-20.06376848181395
 20
35.44556712047472
 30
0.0
 40
0.1850000622833336
100
AcDbArc
 50
125.200581000001
 51
144.7994190000003
  0
ARC
  5
476
330
2
100
AcDbEntity
  8
GAIKEI
 62
     1
370
     9
100
AcDbCircle
 10
-20.06376848181395
 20
35.44556712047472
 30
0.0
 40
0.1850000622833334
100
AcDbArc
 50
35.2005809999997
 51
54.79941899999898
  0
ARC
  5
477
330
2
100
AcDbEntity
  8
GAIKEI
 62
     1
370
     9
100
AcDbCircle
 10
-20.06376848181395
 20
35.44556712047472
 30
0.0
 40
0.1850000622833336
100
AcDbArc
 50
305.200581000001
 51
324.7994190000004
  0
LINE
  5
478
330
2
100
AcDbEntity
  8
GAIKEI
 62
     1
370
     9
100
AcDbLine
 10
-20.21493943270815
 20
35.33892548457203
 30
0.0
 11
-20.15241911165964
 21
35.40366640636813
 31
0.0
  0
LINE
  5
479
330
2
100
AcDbEntity
  8
GAIKEI
 62
     1
370
     9
100
AcDbLine
 10
-20.15241911165964
 20
35.40366640636813
 30
0.0
 11
-20.13716800652509
 21
35.44556712047472
 31
0.0
  0
LINE
  5
47A
330
2
100
AcDbEntity
  8
GAIKEI
 62
     1
370
     9
100
AcDbLine
 10
-20.13716800652509
 20
35.44556712047472
 30
0.0
 11
-20.15241911165964
 21
35.48746753458118
 31
0.0
  0
LINE
  5
47B
330
2
100
AcDbEntity
  8
GAIKEI
 62
     1
370
     9
100
AcDbLine
 10
-20.15241911165964
 20
35.48746753458118
 30
0.0
 11
-20.21493943270815
 21
35.55220845637729
 31
0.0
  0
LINE
  5
47C
330
2
100
AcDbEntity
  8
GAIKEI
 62
     1
370
     9
100
AcDbLine
 10
-20.17041011771659
 20
35.59673777136879
 30
0.0
 11
-20.10566919592049
 21
35.53421745032029
 31
0.0
  0
LINE
  5
47D
330
2
100
AcDbEntity
  8
GAIKEI
 62
     1
370
     9
100
AcDbLine
 10
-20.10566919592049
 20
35.53421745032029
 30
0.0
 11
-20.06376848181395
 21
35.51896634518579
 31
0.0
  0
LINE
  5
47E
330
2
100
AcDbEntity
  8
GAIKEI
 62
     1
370
     9
100
AcDbLine
 10
-20.06376848181395
 20
35.51896634518579
 30
0.0
 11
-20.02186776770736
 21
35.53421745032029
 31
0.0
  0
LINE
  5
47F
330
2
100
AcDbEntity
  8
GAIKEI
 62
     1
370
     9
100
AcDbLine
 10
-20.02186776770736
 20
35.53421745032029
 30
0.0
 11
-19.95712684591126
 21
35.59673777136879
 31
0.0
  0
LINE
  5
480
330
2
100
AcDbEntity
  8
GAIKEI
 62
     1
370
     9
100
AcDbLine
 10
-19.9751178519682
 20
35.48746753458118
 30
0.0
 11
-19.91259783091982
 21
35.55220845637729
 31
0.0
  0
LINE
  5
481
330
2
100
AcDbEntity
  8
GAIKEI
 62
     1
370
     9
100
AcDbLine
 10
-19.9751178519682
 20
35.48746753458118
 30
0.0
 11
-19.99036925710288
 21
35.44556712047472
 31
0.0
  0
LINE
  5
482
330
2
100
AcDbEntity
  8
GAIKEI
 62
     1
370
     9
100
AcDbLine
 10
-20.17041011771659
 20
35.29439616958053
 30
0.0
 11
-20.10566919592049
 21
35.35691649062903
 31
0.0
  0
LINE
  5
483
330
2
100
AcDbEntity
  8
GAIKEI
 62
     1
370
     9
100
AcDbLine
 10
-20.10566919592049
 20
35.35691649062903
 30
0.0
 11
-20.06376848181395
 21
35.37216759576353
 31
0.0
  0
LINE
  5
484
330
2
100
AcDbEntity
  8
GAIKEI
 62
     1
370
     9
100
AcDbLine
 10
-20.06376848181395
 20
35.37216759576353
 30
0.0
 11
-20.02186776770736
 21
35.35691649062903
 31
0.0
  0
LINE
  5
485
330
2
100
AcDbEntity
  8
GAIKEI
 62
     1
370
     9
100
AcDbLine
 10
-20.02186776770736
 20
35.35691649062903
 30
0.0
 11
-19.95712684591126
 21
35.29439616958053
 31
0.0
  0
LINE
  5
486
330
2
100
AcDbEntity
  8
GAIKEI
 62
     1
370
     9
100
AcDbLine
 10
-19.91259783091982
 20
35.33892548457203
 30
0.0
 11
-19.9751178519682
 21
35.40366640636813
 31
0.0
  0
LINE
  5
487
330
2
100
AcDbEntity
  8
GAIKEI
 62
     1
370
     9
100
AcDbLine
 10
-19.99036925710288
 20
35.44556712047472
 30
0.0
 11
-19.9751178519682
 21
35.40366640636813
 31
0.0
  0
LINE
  5
488
330
2
100
AcDbEntity
  8
GAIKEI
 62
     1
370
     9
100
AcDbLine
 10
-9.142838705102121
 20
28.66396223733517
 30
0.0
 11
-9.142841705103137
 21
-9.355364362500495
 31
0.0
  0
LINE
  5
489
330
2
100
AcDbEntity
  8
GAIKEI
 62
     1
370
     9
100
AcDbLine
 10
-30.9846958585249
 20
-9.355364362500495
 30
0.0
 11
-30.9846985585258
 21
28.66396223733517
 31
0.0
  0
LINE
  5
48A
330
2
100
AcDbEntity
  8
GAIKEI
 62
     1
370
     9
100
AcDbLine
 10
-9.142841705103137
 20
-9.355364362500495
 30
0.0
 11
-30.9846958585249
 21
-9.355364362500495
 31
0.0
  0
LINE
  5
48B
330
2
100
AcDbEntity
  8
GAIKEI
 62
     1
370
     9
100
AcDbLine
 10
-30.98469825852573
 20
27.64296319359892
 30
0.0
 11
-9.142838705102121
 21
27.64296319359892
 31
0.0
  0
LINE
  5
48C
330
2
100
AcDbEntity
  8
GAIKEI
 62
     1
370
     9
100
AcDbLine
 10
-30.98469825852573
 20
26.64296265693219
 30
0.0
 11
-9.142838705102121
 21
26.64296265693219
 31
0.0
  0
LINE
  5
48D
330
2
100
AcDbEntity
  8
GAIKEI
 62
     1
370
     9
100
AcDbLine
 10
-30.98469825852573
 20
25.64296242026558
 30
0.0
 11
-9.142839005102246
 21
25.64296242026558
 31
0.0
  0
LINE
  5
48E
330
2
100
AcDbEntity
  8
GAIKEI
 62
     1
370
     9
100
AcDbLine
 10
-30.98469825852573
 20
24.64296218359891
 30
0.0
 11
-9.142839005102246
 21
24.64296218359891
 31
0.0
  0
LINE
  5
48F
330
2
100
AcDbEntity
  8
GAIKEI
 62
     1
370
     9
100
AcDbLine
 10
-30.9846979585256
 20
23.64296164693223
 30
0.0
 11
-9.142839005102246
 21
23.64296164693223
 31
0.0
  0
LINE
  5
490
330
2
100
AcDbEntity
  8
GAIKEI
 62
     1
370
     9
100
AcDbLine
 10
-30.9846979585256
 20
22.64296141026557
 30
0.0
 11
-9.142839005102246
 21
22.64296141026557
 31
0.0
  0
LINE
  5
491
330
2
100
AcDbEntity
  8
GAIKEI
 62
     1
370
     9
100
AcDbLine
 10
-30.9846979585256
 20
21.6429611735989
 30
0.0
 11
-9.14283930510237
 21
21.6429611735989
 31
0.0
  0
LINE
  5
492
330
2
100
AcDbEntity
  8
GAIKEI
 62
     1
370
     9
100
AcDbLine
 10
-9.14283930510237
 20
20.64296063693223
 30
0.0
 11
-30.9846979585256
 21
20.64296063693223
 31
0.0
  0
LINE
  5
493
330
2
100
AcDbEntity
  8
GAIKEI
 62
     1
370
     9
100
AcDbLine
 10
-30.98469765852553
 20
15.64295915359889
 30
0.0
 11
-9.142839605102437
 21
15.64295915359889
 31
0.0
  0
LINE
  5
494
330
2
100
AcDbEntity
  8
GAIKEI
 62
     1
370
     9
100
AcDbLine
 10
-9.142839905102562
 20
13.64115297965776
 30
0.0
 11
-30.98469735852541
 21
13.64033367938191
 31
0.0
  0
LINE
  5
495
330
2
100
AcDbEntity
  8
GAIKEI
 62
     1
370
     9
100
AcDbLine
 10
-9.142839605102437
 20
14.64115321632437
 30
0.0
 11
-30.98469735852541
 21
14.64033391604857
 31
0.0
  0
LINE
  5
496
330
2
100
AcDbEntity
  8
GAIKEI
 62
     1
370
     9
100
AcDbLine
 10
-30.98469705852529
 20
10.64295737026555
 30
0.0
 11
-9.142839905102562
 21
10.64295737026555
 31
0.0
  0
LINE
  5
497
330
2
100
AcDbEntity
  8
GAIKEI
 62
     1
370
     9
100
AcDbLine
 10
-30.98469735852541
 20
11.64295760693221
 30
0.0
 11
-9.142839905102562
 21
11.64295760693221
 31
0.0
  0
LINE
  5
498
330
2
100
AcDbEntity
  8
GAIKEI
 62
     1
370
     9
100
AcDbLine
 10
-9.142839905102562
 20
12.64115244299103
 30
0.0
 11
-30.98469735852541
 21
12.6403334427153
 31
0.0
  0
LINE
  5
499
330
2
100
AcDbEntity
  8
GAIKEI
 62
     1
370
     9
100
AcDbLine
 10
-30.98469705852529
 20
8.642956596932208
 30
0.0
 11
-9.142840205102629
 21
8.642956596932208
 31
0.0
  0
LINE
  5
49A
330
2
100
AcDbEntity
  8
GAIKEI
 62
     1
370
     9
100
AcDbLine
 10
-9.142840205102629
 20
7.64115095965775
 30
0.0
 11
-30.98469705852529
 21
7.640276159363224
 31
0.0
  0
LINE
  5
49B
330
2
100
AcDbEntity
  8
GAIKEI
 62
     1
370
     9
100
AcDbLine
 10
-9.142840205102629
 20
9.641150532990707
 30
0.0
 11
-30.98469705852529
 21
9.64085143289003
 31
0.0
  0
LINE
  5
49C
330
2
100
AcDbEntity
  8
GAIKEI
 62
     1
370
     9
100
AcDbLine
 10
-9.142840505102753
 20
5.641149286324093
 30
0.0
 11
-30.98469675852522
 21
5.640875386231869
 31
0.0
  0
LINE
  5
49D
330
2
100
AcDbEntity
  8
GAIKEI
 62
     1
370
     9
100
AcDbLine
 10
-9.142840205102629
 20
6.641150722991142
 30
0.0
 11
-30.98469705852529
 21
6.640185622666194
 31
0.0
  0
LINE
  5
49E
330
2
100
AcDbEntity
  8
GAIKEI
 62
     1
370
     9
100
AcDbLine
 10
-30.98469645852509
 20
0.6429541035989246
 30
0.0
 11
-9.142840805102878
 21
0.6429541035989246
 31
0.0
  0
LINE
  5
49F
330
2
100
AcDbEntity
  8
GAIKEI
 62
     1
370
     9
100
AcDbLine
 10
-30.98469645852509
 20
-2.35704690640108
 30
0.0
 11
-9.142841105102945
 21
-2.35704690640108
 31
0.0
  0
LINE
  5
4A0
330
2
100
AcDbEntity
  8
GAIKEI
 62
     1
370
     9
100
AcDbLine
 10
-30.98469675852522
 20
2.642954576932197
 30
0.0
 11
-9.142840805102878
 21
2.642954576932197
 31
0.0
  0
LINE
  5
4A1
330
2
100
AcDbEntity
  8
GAIKEI
 62
     1
370
     9
100
AcDbLine
 10
-30.98469615852503
 20
-4.357047679734421
 30
0.0
 11
-9.142841105102945
 21
-4.357047679734421
 31
0.0
  0
LINE
  5
4A2
330
2
100
AcDbEntity
  8
GAIKEI
 62
     1
370
     9
100
AcDbLine
 10
-30.98469675852522
 20
3.642955113598929
 30
0.0
 11
-9.142840505102753
 21
3.642955113598929
 31
0.0
  0
LINE
  5
4A3
330
2
100
AcDbEntity
  8
GAIKEI
 62
     1
370
     9
100
AcDbLine
 10
-30.98469645852509
 20
-0.3570464330678078
 30
0.0
 11
-9.142840805102878
 21
-0.3570464330678078
 31
0.0
  0
LINE
  5
4A4
330
2
100
AcDbEntity
  8
GAIKEI
 62
     1
370
     9
100
AcDbLine
 10
-30.98469675852522
 20
4.642955350265538
 30
0.0
 11
-9.142840505102753
 21
4.642955350265538
 31
0.0
  0
LINE
  5
4A5
330
2
100
AcDbEntity
  8
GAIKEI
 62
     1
370
     9
100
AcDbLine
 10
-9.142841105102945
 20
-3.358853743675922
 30
0.0
 11
-30.98469615852503
 21
-3.359138143771701
 31
0.0
  0
LINE
  5
4A6
330
2
100
AcDbEntity
  8
GAIKEI
 62
     1
370
     9
100
AcDbLine
 10
-9.142840805102878
 20
1.641148339657547
 30
0.0
 11
-30.98469645852509
 21
1.640688439502696
 31
0.0
  0
LINE
  5
4A7
330
2
100
AcDbEntity
  8
GAIKEI
 62
     1
370
     9
100
AcDbLine
 10
-9.142841105102945
 20
-1.358852070342265
 30
0.0
 11
-30.98469645852509
 21
-1.359671370618116
 31
0.0
  0
LINE
  5
4A8
330
2
100
AcDbEntity
  8
GAIKEI
 62
     1
370
     9
100
AcDbLine
 10
-30.98469615852503
 20
-6.357048453067818
 30
0.0
 11
-9.142841405103069
 21
-6.357048453067818
 31
0.0
  0
LINE
  5
4A9
330
2
100
AcDbEntity
  8
GAIKEI
 62
     1
370
     9
100
AcDbLine
 10
-30.98469615852503
 20
-5.357047916401029
 30
0.0
 11
-9.142841405103069
 21
-5.357047916401029
 31
0.0
  0
LINE
  5
4AA
330
2
100
AcDbEntity
  8
GAIKEI
 62
     1
370
     9
100
AcDbLine
 10
-30.9846958585249
 20
-8.357048926401034
 30
0.0
 11
-9.142841405103069
 21
-8.357048926401034
 31
0.0
  0
LINE
  5
4AB
330
2
100
AcDbEntity
  8
GAIKEI
 62
     1
370
     9
100
AcDbLine
 10
-30.9846958585249
 20
-7.357048689734426
 30
0.0
 11
-9.142841405103069
 21
-7.357048689734426
 31
0.0
  0
LINE
  5
4AC
330
2
100
AcDbEntity
  8
GAIKEI
 62
     1
370
     9
100
AcDbLine
 10
-30.98469765852553
 20
19.64296040026556
 30
0.0
 11
-23.92418658148756
 21
19.64296040026556
 31
0.0
  0
LINE
  5
4AD
330
2
100
AcDbEntity
  8
GAIKEI
 62
     1
370
     9
100
AcDbLine
 10
-30.98469765852553
 20
18.64296016359896
 30
0.0
 11
-23.92418658148756
 21
18.64296016359896
 31
0.0
  0
LINE
  5
4AE
330
2
100
AcDbEntity
  8
GAIKEI
 62
     1
370
     9
100
AcDbLine
 10
-30.98469765852553
 20
17.64295962693222
 30
0.0
 11
-23.92418658148756
 21
17.64295962693222
 31
0.0
  0
LINE
  5
4AF
330
2
100
AcDbEntity
  8
GAIKEI
 62
     1
370
     9
100
AcDbLine
 10
-30.98469765852553
 20
16.64295939026556
 30
0.0
 11
-23.92418658148756
 21
16.64295939026556
 31
0.0
  0
LINE
  5
4B0
330
2
100
AcDbEntity
  8
GAIKEI
 62
     1
370
     9
100
AcDbLine
 10
-16.20335068214041
 20
16.64295939026556
 30
0.0
 11
-9.142839605102437
 21
16.64295939026556
 31
0.0
  0
LINE
  5
4B1
330
2
100
AcDbEntity
  8
GAIKEI
 62
     1
370
     9
100
AcDbLine
 10
-16.20335068214041
 20
17.64295962693222
 30
0.0
 11
-9.142839605102437
 21
17.64295962693222
 31
0.0
  0
LINE
  5
4B2
330
2
100
AcDbEntity
  8
GAIKEI
 62
     1
370
     9
100
AcDbLine
 10
-9.14283930510237
 20
18.64296016359896
 30
0.0
 11
-16.20335068214041
 21
18.64296016359896
 31
0.0
  0
LINE
  5
4B3
330
2
100
AcDbEntity
  8
GAIKEI
 62
     1
370
     9
100
AcDbLine
 10
-16.20335068214041
 20
19.64296040026556
 30
0.0
 11
-9.14283930510237
 21
19.64296040026556
 31
0.0
  0
LINE
  5
4B4
330
2
100
AcDbEntity
  8
GAIKEI
 62
     1
370
    30
100
AcDbLine
 10
-23.83876965273055
 20
19.64296040026556
 30
0.0
 11
-16.2887673108973
 21
19.64296040026556
 31
0.0
  0
LINE
  5
4B5
330
2
100
AcDbEntity
  8
GAIKEI
 62
     1
370
    30
100
AcDbLine
 10
-16.2887673108973
 20
15.94295925459892
 30
0.0
 11
-23.83876965273055
 21
15.94295925459892
 31
0.0
  0
LINE
  5
4B6
330
2
100
AcDbEntity
  8
GAIKEI
 62
     1
370
    30
100
AcDbLine
 10
-23.83876965273055
 20
15.94295925459892
 30
0.0
 11
-23.83876965273055
 21
19.64296040026556
 31
0.0
  0
LINE
  5
4B7
330
2
100
AcDbEntity
  8
GAIKEI
 62
     1
370
    30
100
AcDbLine
 10
-16.2887673108973
 20
15.94295925459892
 30
0.0
 11
-16.2887673108973
 21
19.64296040026556
 31
0.0
  0
LINE
  5
4B8
330
2
100
AcDbEntity
  8
GAIKEI
 62
     1
370
    30
100
AcDbLine
 10
19.75649242810101
 20
19.62717619495151
 30
0.0
 11
19.25123375799728
 21
19.64477450087634
 31
0.0
  0
LINE
  5
4B9
330
2
100
AcDbEntity
  8
GAIKEI
 62
     1
370
    30
100
AcDbLine
 10
19.25427455902104
 20
15.82857971609115
 30
0.0
 11
19.25427455902104
 21
15.64219805334267
 31
0.0
  0
LINE
  5
4BA
330
2
100
AcDbEntity
  8
GAIKEI
 62
     1
370
    30
100
AcDbLine
 10
19.23248165168411
 20
-6.357048453067818
 30
0.0
 11
19.75660012813728
 21
-6.375350859229627
 31
0.0
  0
POLYLINE
  5
4BB
330
2
100
AcDbEntity
  8
GAIKEI
 62
     1
370
    30
100
AcDb2dPolyline
 66
     1
 10
0.0
 20
0.0
 30
0.0
  0
VERTEX
  5
4BC
330
4BB
100
AcDbEntity
  8
GAIKEI
 62
     1
370
    30
100
AcDbVertex
100
AcDb2dVertex
 10
19.7514185263928
 20
28.74464846449951
 30
0.0
  0
VERTEX
  5
4BD
330
4BB
100
AcDbEntity
  8
GAIKEI
 62
     1
370
    30
100
AcDbVertex
100
AcDb2dVertex
 10
19.75170322648864
 20
28.74138146339965
 30
0.0
  0
VERTEX
  5
4BE
330
4BB
100
AcDbEntity
  8
GAIKEI
 62
     1
370
    30
100
AcDbVertex
100
AcDb2dVertex
 10
19.75195012657173
 20
28.7381105622984
 30
0.0
  0
VERTEX
  5
4BF
330
4BB
100
AcDbEntity
  8
GAIKEI
 62
     1
370
    30
100
AcDbVertex
100
AcDb2dVertex
 10
19.75333792703901
 20
28.72284535715915
 30
0.0
  0
VERTEX
  5
4C0
330
4BB
100
AcDbEntity
  8
GAIKEI
 62
     1
370
    30
100
AcDbVertex
100
AcDb2dVertex
 10
19.7547329275086
 20
28.70776705208277
 30
0.0
  0
VERTEX
  5
4C1
330
4BB
100
AcDbEntity
  8
GAIKEI
 62
     1
370
    30
100
AcDbVertex
100
AcDb2dVertex
 10
19.75580752787044
 20
28.68912174580555
 30
0.0
  0
VERTEX
  5
4C2
330
4BB
100
AcDbEntity
  8
GAIKEI
 62
     1
370
    30
100
AcDbVertex
100
AcDb2dVertex
 10
19.7563094280394
 20
28.67038103949619
 30
0.0
  0
VERTEX
  5
4C3
330
4BB
100
AcDbEntity
  8
GAIKEI
 62
     1
370
    30
100
AcDbVertex
100
AcDb2dVertex
 10
19.75648372809809
 20
28.65750773516214
 30
0.0
  0
VERTEX
  5
4C4
330
4BB
100
AcDbEntity
  8
GAIKEI
 62
     1
370
    30
100
AcDbVertex
100
AcDb2dVertex
 10
19.75660012813728
 20
28.64464853083291
 30
0.0
  0
SEQEND
  5
4C5
330
4BB
100
AcDbEntity
  8
GAIKEI
 62
     1
370
    30
  0
POLYLINE
  5
4C6
330
2
100
AcDbEntity
  8
GAIKEI
 62
     1
370
    30
100
AcDb2dPolyline
 66
     1
 10
0.0
 20
0.0
 30
0.0
  0
VERTEX
  5
4C7
330
4C6
100
AcDbEntity
  8
GAIKEI
 62
     1
370
    30
100
AcDbVertex
100
AcDb2dVertex
 10
19.75660012813728
 20
-9.355364362500495
 30
0.0
  0
VERTEX
  5
4C8
330
4C6
100
AcDbEntity
  8
GAIKEI
 62
     1
370
    30
100
AcDbVertex
100
AcDb2dVertex
 10
19.75632412804435
 20
-9.375114569149729
 30
0.0
  0
VERTEX
  5
4C9
330
4C6
100
AcDbEntity
  8
GAIKEI
 62
     1
370
    30
100
AcDbVertex
100
AcDb2dVertex
 10
19.75590142790202
 20
-9.394925375819354
 30
0.0
  0
VERTEX
  5
4CA
330
4C6
100
AcDbEntity
  8
GAIKEI
 62
     1
370
    30
100
AcDbVertex
100
AcDb2dVertex
 10
19.75522942767577
 20
-9.412572281760503
 30
0.0
  0
VERTEX
  5
4CB
330
4C6
100
AcDbEntity
  8
GAIKEI
 62
     1
370
    30
100
AcDbVertex
100
AcDb2dVertex
 10
19.75388962722474
 20
-9.430025087636238
 30
0.0
  0
VERTEX
  5
4CC
330
4C6
100
AcDbEntity
  8
GAIKEI
 62
     1
370
    30
100
AcDbVertex
100
AcDb2dVertex
 10
19.7523803267166
 20
-9.442541391850113
 30
0.0
  0
VERTEX
  5
4CD
330
4C6
100
AcDbEntity
  8
GAIKEI
 62
     1
370
    30
100
AcDbVertex
100
AcDb2dVertex
 10
19.75092172622555
 20
-9.45536429616709
 30
0.0
  0
SEQEND
  5
4CE
330
4C6
100
AcDbEntity
  8
GAIKEI
 62
     1
370
    30
  0
POLYLINE
  5
4CF
330
2
100
AcDbEntity
  8
GAIKEI
370
    30
100
AcDb2dPolyline
 66
     1
 10
0.0
 20
0.0
 30
0.0
  0
VERTEX
  5
4D0
330
4CF
100
AcDbEntity
  8
GAIKEI
370
    30
100
AcDbVertex
100
AcDb2dVertex
 10
29.38423006943827
 20
31.20838909395855
 30
0.0
  0
VERTEX
  5
4D1
330
4CF
100
AcDbEntity
  8
GAIKEI
370
    30
100
AcDbVertex
100
AcDb2dVertex
 10
29.38423006943827
 20
31.24652420679741
 30
0.0
  0
VERTEX
  5
4D2
330
4CF
100
AcDbEntity
  8
GAIKEI
370
    30
100
AcDbVertex
100
AcDb2dVertex
 10
29.38423006943827
 20
31.28465901963614
 30
0.0
  0
VERTEX
  5
4D3
330
4CF
100
AcDbEntity
  8
GAIKEI
370
    30
100
AcDbVertex
100
AcDb2dVertex
 10
29.38423006943827
 20
31.44582987389697
 30
0.0
  0
VERTEX
  5
4D4
330
4CF
100
AcDbEntity
  8
GAIKEI
370
    30
100
AcDbVertex
100
AcDb2dVertex
 10
29.38423006943827
 20
31.6070007281578
 30
0.0
  0
VERTEX
  5
4D5
330
4CF
100
AcDbEntity
  8
GAIKEI
370
    30
100
AcDbVertex
100
AcDb2dVertex
 10
29.38423006943827
 20
31.76817158241863
 30
0.0
  0
VERTEX
  5
4D6
330
4CF
100
AcDbEntity
  8
GAIKEI
370
    30
100
AcDbVertex
100
AcDb2dVertex
 10
29.38423006943827
 20
31.92934213667934
 30
0.0
  0
VERTEX
  5
4D7
330
4CF
100
AcDbEntity
  8
GAIKEI
370
    30
100
AcDbVertex
100
AcDb2dVertex
 10
29.38423006943827
 20
32.251683845201
 30
0.0
  0
VERTEX
  5
4D8
330
4CF
100
AcDbEntity
  8
GAIKEI
370
    30
100
AcDbVertex
100
AcDb2dVertex
 10
29.38423006943827
 20
32.57402555372272
 30
0.0
  0
VERTEX
  5
4D9
330
4CF
100
AcDbEntity
  8
GAIKEI
370
    30
100
AcDbVertex
100
AcDb2dVertex
 10
29.38423006943827
 20
32.73519610798349
 30
0.0
  0
VERTEX
  5
4DA
330
4CF
100
AcDbEntity
  8
GAIKEI
370
    30
100
AcDbVertex
100
AcDb2dVertex
 10
29.38423006943827
 20
32.89636696224426
 30
0.0
  0
VERTEX
  5
4DB
330
4CF
100
AcDbEntity
  8
GAIKEI
370
    30
100
AcDbVertex
100
AcDb2dVertex
 10
29.38423006943827
 20
33.21870867076598
 30
0.0
  0
VERTEX
  5
4DC
330
4CF
100
AcDbEntity
  8
GAIKEI
370
    30
100
AcDbVertex
100
AcDb2dVertex
 10
29.38423006943827
 20
33.54105007928751
 30
0.0
  0
VERTEX
  5
4DD
330
4CF
100
AcDbEntity
  8
GAIKEI
370
    30
100
AcDbVertex
100
AcDb2dVertex
 10
29.38423006943827
 20
33.70222093354835
 30
0.0
  0
VERTEX
  5
4DE
330
4CF
100
AcDbEntity
  8
GAIKEI
370
    30
100
AcDbVertex
100
AcDb2dVertex
 10
29.38423006943827
 20
33.86339178780918
 30
0.0
  0
VERTEX
  5
4DF
330
4CF
100
AcDbEntity
  8
GAIKEI
370
    30
100
AcDbVertex
100
AcDb2dVertex
 10
29.38423006943827
 20
34.02456264207001
 30
0.0
  0
VERTEX
  5
4E0
330
4CF
100
AcDbEntity
  8
GAIKEI
370
    30
100
AcDbVertex
100
AcDb2dVertex
 10
29.38423006943827
 20
34.18573319633078
 30
0.0
  0
VERTEX
  5
4E1
330
4CF
100
AcDbEntity
  8
GAIKEI
370
    30
100
AcDbVertex
100
AcDb2dVertex
 10
29.38423006943827
 20
34.50807490485244
 30
0.0
  0
VERTEX
  5
4E2
330
4CF
100
AcDbEntity
  8
GAIKEI
370
    30
100
AcDbVertex
100
AcDb2dVertex
 10
29.38423006943827
 20
34.8304166133741
 30
0.0
  0
VERTEX
  5
4E3
330
4CF
100
AcDbEntity
  8
GAIKEI
370
    30
100
AcDbVertex
100
AcDb2dVertex
 10
29.38423006943827
 20
34.99158716763486
 30
0.0
  0
VERTEX
  5
4E4
330
4CF
100
AcDbEntity
  8
GAIKEI
370
    30
100
AcDbVertex
100
AcDb2dVertex
 10
29.38423006943827
 20
35.15275802189569
 30
0.0
  0
VERTEX
  5
4E5
330
4CF
100
AcDbEntity
  8
GAIKEI
370
    30
100
AcDbVertex
100
AcDb2dVertex
 10
29.38423006943827
 20
35.5056814407132
 30
0.0
  0
VERTEX
  5
4E6
330
4CF
100
AcDbEntity
  8
GAIKEI
370
    30
100
AcDbVertex
100
AcDb2dVertex
 10
29.38423006943827
 20
35.85860455953059
 30
0.0
  0
VERTEX
  5
4E7
330
4CF
100
AcDbEntity
  8
GAIKEI
370
    30
100
AcDbVertex
100
AcDb2dVertex
 10
29.38423006943827
 20
36.30031690824035
 30
0.0
  0
VERTEX
  5
4E8
330
4CF
100
AcDbEntity
  8
GAIKEI
370
    30
100
AcDbVertex
100
AcDb2dVertex
 10
29.38423006943827
 20
36.74202955695023
 30
0.0
  0
SEQEND
  5
4E9
330
4CF
100
AcDbEntity
  8
GAIKEI
370
    30
  0
LINE
  5
4EA
330
2
100
AcDbEntity
  8
GAIKEI
370
    30
100
AcDbLine
 10
29.43423018627163
 20
31.20576889307642
 30
0.0
 11
29.43423018627163
 21
36.74465125783286
 31
0.0
  0
TEXT
  5
4EB
330
2
100
AcDbEntity
  8
MOJI1
100
AcDbText
 10
-19.29122719777956
 20
-39.54288259820845
 30
0.0
 40
3.0
  1
（１２５ｋＨｚ間隔３０チャンネル）
100
AcDbText
  0
LINE
  5
4EC
330
2
100
AcDbEntity
  8
WAKU
 62
     4
100
AcDbLine
 10
63.20877280222044
 20
-55.54288259820845
 30
0.0
 11
63.20877280222044
 21
-20.54288259820845
 31
0.0
  0
TEXT
  5
4EE
330
2
100
AcDbEntity
  8
MOJI1
100
AcDbText
 10
-19.29122719777956
 20
-34.54288259820845
 30
0.0
 40
3.0
  1
８０６．１２５ＭＨｚ～８０９．７５０ＭＨｚ
100
AcDbText
  0
TEXT
  5
4EF
330
2
100
AcDbEntity
  8
MOJI1
100
AcDbText
 10
-19.29122719777956
 20
-44.54288259820844
 30
0.0
 40
3.0
  1
有線マイク×１、モノラル予備×１、外部入力×１
100
AcDbText
  0
TEXT
  5
4F0
330
2
100
AcDbEntity
  8
MOJI1
100
AcDbText
 10
-19.29122719777956
 20
-49.54288259820845
 30
0.0
 40
3.0
  1
ライン×１、外部スピーカー×１、内蔵スピーカー×１
 41
0.9
100
AcDbText
  0
TEXT
  5
4F1
330
2
100
AcDbEntity
  8
MOJI1
100
AcDbText
 10
-19.29122719777956
 20
-24.54288259820845
 30
0.0
 40
3.0
  1
ＡＣ１００Ｖ　５０／６０Ｈｚ
100
AcDbText
  0
TEXT
  5
4F2
330
2
100
AcDbEntity
  8
MOJI1
100
AcDbText
 10
-19.29122719777956
 20
-54.54288259820845
 30
0.0
 40
3.0
  1
ＣＤプレーヤー内蔵、有線・ワイヤレスマイク同時使用可
 41
0.85
100
AcDbText
  0
LINE
  5
4F3
330
2
100
AcDbEntity
  8
WAKU
 62
     4
100
AcDbLine
 10
-21.79122719777956
 20
-55.54288259820845
 30
0.0
 11
-21.79122719777956
 21
-20.54288259820845
 31
0.0
  0
TEXT
  5
4F4
330
2
100
AcDbEntity
  8
MOJI1
100
AcDbText
 10
-59.29122719777956
 20
-44.54288259820844
 30
0.0
 40
3.0
  1
入　力
100
AcDbText
  0
TEXT
  5
4F5
330
2
100
AcDbEntity
  8
MOJI1
100
AcDbText
 10
-59.29122719777956
 20
-49.54288259820845
 30
0.0
 40
3.0
  1
出　力
100
AcDbText
  0
TEXT
  5
4F6
330
2
100
AcDbEntity
  8
MOJI1
100
AcDbText
 10
-59.29122719777956
 20
-29.54288259820845
 30
0.0
 40
3.0
  1
最大出力
100
AcDbText
  0
TEXT
  5
4F7
330
2
100
AcDbEntity
  8
MOJI1
100
AcDbText
 10
-59.29122719777956
 20
-24.54288259820845
 30
0.0
 40
3.0
  1
電　源
100
AcDbText
  0
TEXT
  5
4F8
330
2
100
AcDbEntity
  8
MOJI1
100
AcDbText
 10
-59.29122719777956
 20
-54.54288259820845
 30
0.0
 40
3.0
  1
その他
100
AcDbText
  0
LINE
  5
4F9
330
2
100
AcDbEntity
  8
WAKU
 62
     4
100
AcDbLine
 10
-61.79122719777956
 20
-20.54288259820845
 30
0.0
 11
-61.79122719777956
 21
-55.54288259820845
 31
0.0
  0
TEXT
  5
4FA
330
2
100
AcDbEntity
  8
MOJI1
100
AcDbText
 10
-59.29122719777956
 20
-34.54288259820845
 30
0.0
 40
3.0
  1
受信周波数
100
AcDbText
  0
TEXT
  5
4FB
330
2
100
AcDbEntity
  8
MOJI1
100
AcDbText
 10
-19.29122719777956
 20
-29.54288259820845
 30
0.0
 40
3.0
  1
２５Ｗ（ＡＣ１００Ｖ時）
100
AcDbText
  0
LINE
  5
4FC
330
2
100
AcDbEntity
  8
WAKU
 62
     4
100
AcDbLine
 10
-61.79122719777956
 20
-55.54288259820845
 30
0.0
 11
63.20877280222044
 21
-55.54288259820845
 31
0.0
  0
LINE
  5
4FD
330
2
100
AcDbEntity
  8
WAKU
 62
     4
100
AcDbLine
 10
63.20877280222044
 20
-20.54288259820845
 30
0.0
 11
-61.79122719777956
 21
-20.54288259820845
 31
0.0
  0
LINE
  5
4FE
330
2
100
AcDbEntity
  8
WAKU
 62
     1
100
AcDbLine
 10
-61.79122719777956
 20
-50.54288259820845
 30
0.0
 11
63.20877280222044
 21
-50.54288259820845
 31
0.0
  0
LINE
  5
4FF
330
2
100
AcDbEntity
  8
WAKU
 62
     1
100
AcDbLine
 10
-61.79122719777956
 20
-45.54288259820845
 30
0.0
 11
63.20877280222044
 21
-45.54288259820845
 31
0.0
  0
LINE
  5
500
330
2
100
AcDbEntity
  8
WAKU
 62
     1
100
AcDbLine
 10
-61.79122719777956
 20
-40.54288259820845
 30
0.0
 11
63.20877280222044
 21
-40.54288259820845
 31
0.0
  0
LINE
  5
501
330
2
100
AcDbEntity
  8
WAKU
 62
     1
100
AcDbLine
 10
-61.79122719777956
 20
-35.54288259820845
 30
0.0
 11
63.20877280222044
 21
-35.54288259820845
 31
0.0
  0
LINE
  5
502
330
2
100
AcDbEntity
  8
WAKU
 62
     1
100
AcDbLine
 10
-61.79122719777956
 20
-30.54288259820845
 30
0.0
 11
63.20877280222044
 21
-30.54288259820845
 31
0.0
  0
LINE
  5
503
330
2
100
AcDbEntity
  8
WAKU
 62
     1
100
AcDbLine
 10
-61.79122719777956
 20
-25.54288259820845
 30
0.0
 11
63.20877280222044
 21
-25.54288259820845
 31
0.0
  0
ENDSEC
  0
SECTION
  2
OBJECTS
  0
DICTIONARY
  5
7
330
0
100
AcDbDictionary
281
     1
  3
ACAD_COLOR
350
2A
  3
ACAD_GROUP
350
26
  3
ACAD_LAYOUT
350
B
  3
ACAD_MATERIAL
350
29
  3
ACAD_MLINESTYLE
350
27
  3
ACAD_PLOTSETTINGS
350
28
  3
ACAD_PLOTSTYLENAME
350
6
  3
ACDBHEADERROUNDTRIPXREC
350
540
  3
AcDbVariableDictionary
350
53B
  0
DICTIONARY
  5
2A
102
{ACAD_REACTORS
330
7
102
}
330
7
100
AcDbDictionary
281
     1
  0
DICTIONARY
  5
26
102
{ACAD_REACTORS
330
7
102
}
330
7
100
AcDbDictionary
281
     1
  0
DICTIONARY
  5
B
102
{ACAD_REACTORS
330
7
102
}
330
7
100
AcDbDictionary
281
     1
  3
Model
350
A
  3
レイアウト1
350
F
  0
DICTIONARY
  5
29
102
{ACAD_REACTORS
330
7
102
}
330
7
100
AcDbDictionary
281
     1
  0
DICTIONARY
  5
27
102
{ACAD_REACTORS
330
7
102
}
330
7
100
AcDbDictionary
281
     1
  3
Standard
350
2C
  0
DICTIONARY
  5
28
102
{ACAD_REACTORS
330
7
102
}
330
7
100
AcDbDictionary
281
     1
  0
ACDBDICTIONARYWDFLT
  5
6
102
{ACAD_REACTORS
330
7
102
}
330
7
100
AcDbDictionary
281
     1
  3
Normal
350
5
100
AcDbDictionaryWithDefault
340
5
  0
DICTIONARY
  5
540
102
{ACAD_REACTORS
330
7
102
}
330
7
100
AcDbDictionary
281
     1
  3
COLORDICT
350
542
  3
MATERIALDICT
350
541
  0
DICTIONARY
  5
53B
102
{ACAD_REACTORS
330
7
102
}
330
7
100
AcDbDictionary
281
     1
  3
DIMASSOC
350
53D
  3
HIDETEXT
350
53C
  3
PROJECTNAME
350
53E
  0
LAYOUT
  5
A
102
{ACAD_XDICTIONARY
360
543
102
}
102
{ACAD_REACTORS
330
B
102
}
330
B
100
AcDbPlotSettings
  1

  2
10F06M_RICOH_SP-8100
  4
A4
  6

 40
5.873749732971191
 41
5.873747825622558
 42
5.873748779296875
 43
5.873748779296875
 44
209.9733276367187
 45
296.9259948730469
 46
5.429999999999999
 47
0.0
 48
0.0
 49
0.0
140
0.0
141
0.0
142
1.0
143
1.382430978808389
 70
 11956
 72
     1
 73
     0
 74
     1
  7
tmsacad.ctb
 75
     0
147
0.7233634194612505
148
0.0128101044139157
149
0.0120236189740126
100
AcDbLayout
  1
Model
 70
     1
 71
     0
 10
0.0
 20
0.0
 11
12.0
 21
9.0
 12
0.0
 22
0.0
 32
0.0
 14
0.0
 24
0.0
 34
0.0
 15
0.0
 25
0.0
 35
0.0
146
0.0
 13
0.0
 23
0.0
 33
0.0
 16
1.0
 26
0.0
 36
0.0
 17
0.0
 27
1.0
 37
0.0
 76
     0
330
2
  0
LAYOUT
  5
F
102
{ACAD_XDICTIONARY
360
545
102
}
102
{ACAD_REACTORS
330
B
102
}
330
B
100
AcDbPlotSettings
  1

  2
None
  4

  6

 40
0.0
 41
0.0
 42
0.0
 43
0.0
 44
0.0
 45
0.0
 46
0.0
 47
0.0
 48
0.0
 49
0.0
140
0.0
141
0.0
142
1.0
143
1.0
 70
   688
 72
     0
 73
     0
 74
     5
  7
tmsacad.ctb
 75
    16
147
1.0
148
0.0
149
0.0
100
AcDbLayout
  1
レイアウト1
 70
     1
 71
     1
 10
0.0
 20
0.0
 11
12.0
 21
9.0
 12
0.0
 22
0.0
 32
0.0
 14
0.0
 24
0.0
 34
0.0
 15
0.0
 25
0.0
 35
0.0
146
0.0
 13
0.0
 23
0.0
 33
0.0
 16
1.0
 26
0.0
 36
0.0
 17
0.0
 27
1.0
 37
0.0
 76
     0
330
C
  0
MLINESTYLE
  5
2C
102
{ACAD_REACTORS
330
27
102
}
330
27
100
AcDbMlineStyle
  2
STANDARD
 70
     0
  3

 62
   256
 51
90.0
 52
90.0
 71
     2
 49
0.5
 62
   256
  6
BYLAYER
 49
-0.5
 62
   256
  6
BYLAYER
  0
ACDBPLACEHOLDER
  5
5
102
{ACAD_REACTORS
330
6
102
}
330
6
  0
XRECORD
  5
542
102
{ACAD_REACTORS
330
540
102
}
330
540
100
AcDbXrecord
280
     1
340
2A
  0
XRECORD
  5
541
102
{ACAD_REACTORS
330
540
102
}
330
540
100
AcDbXrecord
280
     1
340
29
  0
DICTIONARYVAR
  5
53D
102
{ACAD_REACTORS
330
53B
102
}
330
53B
100
DictionaryVariables
280
     0
  1
1
  0
DICTIONARYVAR
  5
53C
102
{ACAD_REACTORS
330
53B
102
}
330
53B
100
DictionaryVariables
280
     0
  1
1
  0
DICTIONARYVAR
  5
53E
102
{ACAD_REACTORS
330
53B
102
}
330
53B
100
DictionaryVariables
280
     0
  1

  0
DICTIONARY
  5
543
330
A
100
AcDbDictionary
280
     1
281
     1
  3
ACAD_XREC_ROUNDTRIP
360
544
  0
DICTIONARY
  5
545
330
F
100
AcDbDictionary
280
     1
281
     1
  3
ACAD_XREC_ROUNDTRIP
360
546
  0
XRECORD
  5
544
102
{ACAD_REACTORS
330
543
102
}
330
543
100
AcDbXrecord
280
     1
102
SHADEPLOT
 70
     0
102
SHADEPLOTRESLEVEL
 70
     2
102
SHADEPLOTCUSTOMDPI
 70
   300
  0
XRECORD
  5
546
102
{ACAD_REACTORS
330
545
102
}
330
545
100
AcDbXrecord
280
     1
102
SHADEPLOT
 70
     0
102
SHADEPLOTRESLEVEL
 70
     2
102
SHADEPLOTCUSTOMDPI
 70
   300
  0
ENDSEC
  0
EOF
