  0
SECTION
  2
HEADER
  9
$ACADVER
  1
AC1015
  9
$ACADMAINTVER
 70
    20
  9
$DWGCODEPAGE
  3
ANSI_932
  9
$INSBASE
 10
0.0
 20
246.4992141396417
 30
0.0
  9
$EXTMIN
 10
-57.7414081091274
 20
-62.09857713860492
 30
-0.0015258207003583
  9
$EXTMAX
 10
67.41325683346895
 20
51.60521808805697
 30
0.0000000349246037
  9
$LIMMIN
 10
-1101.784450318844
 20
-1579.160531687244
  9
$LIMMAX
 10
-508.2420711400536
 20
-1161.440814074914
  9
$ORTHOMODE
 70
     1
  9
$REGENMODE
 70
     1
  9
$FILLMODE
 70
     1
  9
$QTEXTMODE
 70
     0
  9
$MIRRTEXT
 70
     1
  9
$LTSCALE
 40
1.0
  9
$ATTMODE
 70
     1
  9
$TEXTSIZE
 40
3.0
  9
$TRACEWID
 40
0.5
  9
$TEXTSTYLE
  7
STANDARD
  9
$CLAYER
  8
SUNPO
  9
$CELTYPE
  6
BYLAYER
  9
$CECOLOR
 62
   256
  9
$CELTSCALE
 40
1.0
  9
$DISPSILH
 70
     0
  9
$DIMSCALE
 40
1.0
  9
$DIMASZ
 40
2.0
  9
$DIMEXO
 40
2.0
  9
$DIMDLI
 40
8.0
  9
$DIMRND
 40
0.0
  9
$DIMDLE
 40
0.0
  9
$DIMEXE
 40
2.0
  9
$DIMTP
 40
0.0
  9
$DIMTM
 40
0.0
  9
$DIMTXT
 40
2.5
  9
$DIMCEN
 40
0.0
  9
$DIMTSZ
 40
0.0
  9
$DIMTOL
 70
     0
  9
$DIMLIM
 70
     0
  9
$DIMTIH
 70
     0
  9
$DIMTOH
 70
     0
  9
$DIMSE1
 70
     0
  9
$DIMSE2
 70
     0
  9
$DIMTAD
 70
     3
  9
$DIMZIN
 70
     0
  9
$DIMBLK
  1

  9
$DIMASO
 70
     1
  9
$DIMSHO
 70
     1
  9
$DIMPOST
  1

  9
$DIMAPOST
  1

  9
$DIMALT
 70
     0
  9
$DIMALTD
 70
     2
  9
$DIMALTF
 40
25.4
  9
$DIMLFAC
 40
1.0
  9
$DIMTOFL
 70
     1
  9
$DIMTVP
 40
0.0
  9
$DIMTIX
 70
     0
  9
$DIMSOXD
 70
     0
  9
$DIMSAH
 70
     1
  9
$DIMBLK1
  1
OPEN30
  9
$DIMBLK2
  1
OPEN30
  9
$DIMSTYLE
  2
STANDARD
  9
$DIMCLRD
 70
     0
  9
$DIMCLRE
 70
     0
  9
$DIMCLRT
 70
     0
  9
$DIMTFAC
 40
1.0
  9
$DIMGAP
 40
0.5
  9
$DIMJUST
 70
     0
  9
$DIMSD1
 70
     0
  9
$DIMSD2
 70
     0
  9
$DIMTOLJ
 70
     1
  9
$DIMTZIN
 70
     0
  9
$DIMALTZ
 70
     0
  9
$DIMALTTZ
 70
     0
  9
$DIMUPT
 70
     0
  9
$DIMDEC
 70
     4
  9
$DIMTDEC
 70
     4
  9
$DIMALTU
 70
     2
  9
$DIMALTTD
 70
     2
  9
$DIMTXSTY
  7
STANDARD
  9
$DIMAUNIT
 70
     0
  9
$DIMADEC
 70
     0
  9
$DIMALTRND
 40
0.0
  9
$DIMAZIN
 70
     0
  9
$DIMDSEP
 70
    46
  9
$DIMATFIT
 70
     3
  9
$DIMFRAC
 70
     0
  9
$DIMLDRBLK
  1
OPEN30
  9
$DIMLUNIT
 70
     2
  9
$DIMLWD
 70
    -2
  9
$DIMLWE
 70
    -2
  9
$DIMTMOVE
 70
     0
  9
$LUNITS
 70
     2
  9
$LUPREC
 70
     4
  9
$SKETCHINC
 40
0.1
  9
$FILLETRAD
 40
0.0
  9
$AUNITS
 70
     0
  9
$AUPREC
 70
     0
  9
$MENU
  1
ACAD
  9
$ELEVATION
 40
0.0
  9
$PELEVATION
 40
0.0
  9
$THICKNESS
 40
0.0
  9
$LIMCHECK
 70
     0
  9
$CHAMFERA
 40
0.0
  9
$CHAMFERB
 40
0.0
  9
$CHAMFERC
 40
0.0
  9
$CHAMFERD
 40
0.0
  9
$SKPOLY
 70
     0
  9
$TDCREATE
 40
2451815.565532581
  9
$TDUCREATE
 40
2451815.190532581
  9
$TDUPDATE
 40
2453979.480662616
  9
$TDUUPDATE
 40
2453979.105662616
  9
$TDINDWG
 40
0.9321406019
  9
$TDUSRTIMER
 40
0.9321406019
  9
$USRTIMER
 70
     1
  9
$ANGBASE
 50
0.0
  9
$ANGDIR
 70
     0
  9
$PDMODE
 70
     0
  9
$PDSIZE
 40
0.0
  9
$PLINEWID
 40
0.0
  9
$SPLFRAME
 70
     0
  9
$SPLINETYPE
 70
     6
  9
$SPLINESEGS
 70
     8
  9
$HANDSEED
  5
2F2
  9
$SURFTAB1
 70
     6
  9
$SURFTAB2
 70
     6
  9
$SURFTYPE
 70
     6
  9
$SURFU
 70
     6
  9
$SURFV
 70
     6
  9
$UCSBASE
  2

  9
$UCSNAME
  2

  9
$UCSORG
 10
0.0
 20
0.0
 30
0.0
  9
$UCSXDIR
 10
1.0
 20
0.0
 30
0.0
  9
$UCSYDIR
 10
0.0
 20
1.0
 30
0.0
  9
$UCSORTHOREF
  2

  9
$UCSORTHOVIEW
 70
     0
  9
$UCSORGTOP
 10
0.0
 20
0.0
 30
0.0
  9
$UCSORGBOTTOM
 10
0.0
 20
0.0
 30
0.0
  9
$UCSORGLEFT
 10
0.0
 20
0.0
 30
0.0
  9
$UCSORGRIGHT
 10
0.0
 20
0.0
 30
0.0
  9
$UCSORGFRONT
 10
0.0
 20
0.0
 30
0.0
  9
$UCSORGBACK
 10
0.0
 20
0.0
 30
0.0
  9
$PUCSBASE
  2

  9
$PUCSNAME
  2

  9
$PUCSORG
 10
0.0
 20
0.0
 30
0.0
  9
$PUCSXDIR
 10
1.0
 20
0.0
 30
0.0
  9
$PUCSYDIR
 10
0.0
 20
1.0
 30
0.0
  9
$PUCSORTHOREF
  2

  9
$PUCSORTHOVIEW
 70
     0
  9
$PUCSORGTOP
 10
0.0
 20
0.0
 30
0.0
  9
$PUCSORGBOTTOM
 10
0.0
 20
0.0
 30
0.0
  9
$PUCSORGLEFT
 10
0.0
 20
0.0
 30
0.0
  9
$PUCSORGRIGHT
 10
0.0
 20
0.0
 30
0.0
  9
$PUCSORGFRONT
 10
0.0
 20
0.0
 30
0.0
  9
$PUCSORGBACK
 10
0.0
 20
0.0
 30
0.0
  9
$USERI1
 70
     0
  9
$USERI2
 70
     0
  9
$USERI3
 70
     0
  9
$USERI4
 70
     0
  9
$USERI5
 70
     0
  9
$USERR1
 40
0.0
  9
$USERR2
 40
0.0
  9
$USERR3
 40
0.0
  9
$USERR4
 40
0.0
  9
$USERR5
 40
0.0
  9
$WORLDVIEW
 70
     1
  9
$SHADEDGE
 70
     3
  9
$SHADEDIF
 70
    70
  9
$TILEMODE
 70
     1
  9
$MAXACTVP
 70
    48
  9
$PINSBASE
 10
0.0
 20
0.0
 30
0.0
  9
$PLIMCHECK
 70
     0
  9
$PEXTMIN
 10
1.000000000000000E+20
 20
1.000000000000000E+20
 30
1.000000000000000E+20
  9
$PEXTMAX
 10
-1.000000000000000E+20
 20
-1.000000000000000E+20
 30
-1.000000000000000E+20
  9
$PLIMMIN
 10
0.0
 20
0.0
  9
$PLIMMAX
 10
12.0
 20
9.0
  9
$UNITMODE
 70
     0
  9
$VISRETAIN
 70
     1
  9
$PLINEGEN
 70
     0
  9
$PSLTSCALE
 70
     1
  9
$TREEDEPTH
 70
  3020
  9
$CMLSTYLE
  2
STANDARD
  9
$CMLJUST
 70
     0
  9
$CMLSCALE
 40
1.0
  9
$PROXYGRAPHICS
 70
     1
  9
$MEASUREMENT
 70
     0
  9
$CELWEIGHT
370
    -1
  9
$ENDCAPS
280
     0
  9
$JOINSTYLE
280
     0
  9
$LWDISPLAY
290
     0
  9
$INSUNITS
 70
     0
  9
$HYPERLINKBASE
  1

  9
$STYLESHEET
  1

  9
$XEDIT
290
     1
  9
$CEPSNTYPE
380
     0
  9
$PSTYLEMODE
290
     1
  9
$FINGERPRINTGUID
  2
{1754B7AB-9B3C-11D4-AD9E-00104B1004F2}
  9
$VERSIONGUID
  2
{7B05442D-019C-4F75-9E1A-3335B38E96C5}
  9
$EXTNAMES
290
     1
  9
$PSVPSCALE
 40
0.0
  9
$OLESTARTUP
290
     0
  0
ENDSEC
  0
SECTION
  2
CLASSES
  0
CLASS
  1
ACDBDICTIONARYWDFLT
  2
AcDbDictionaryWithDefault
  3
ObjectDBX Classes
 90
        0
280
     0
281
     0
  0
CLASS
  1
ACDBPLACEHOLDER
  2
AcDbPlaceHolder
  3
ObjectDBX Classes
 90
        0
280
     0
281
     0
  0
CLASS
  1
LAYOUT
  2
AcDbLayout
  3
ObjectDBX Classes
 90
        0
280
     0
281
     0
  0
CLASS
  1
DICTIONARYVAR
  2
AcDbDictionaryVar
  3
ObjectDBX Classes
 90
        0
280
     0
281
     0
  0
ENDSEC
  0
SECTION
  2
TABLES
  0
TABLE
  2
VPORT
  5
24
330
0
100
AcDbSymbolTable
 70
     2
  0
VPORT
  5
2EA
330
24
100
AcDbSymbolTableRecord
100
AcDbViewportTableRecord
  2
*Active
 70
     0
 10
0.0
 20
0.0
 11
1.0
 21
1.0
 12
4.835924362170761
 22
-5.246679525273975
 13
0.0
 23
0.0
 14
1.0
 24
1.0
 15
0.0
 25
0.0
 16
0.0
 26
0.0
 36
1.0
 17
0.0
 27
0.0
 37
0.0
 40
114.5886496642234
 41
1.503896103896103
 42
50.0
 43
0.0
 44
0.0
 50
0.0
 51
0.0
 71
     0
 72
 10000
 73
     1
 74
     0
 75
     0
 76
     0
 77
     0
 78
     0
281
     0
 65
     1
110
0.0
120
0.0
130
0.0
111
1.0
121
0.0
131
0.0
112
0.0
122
1.0
132
0.0
 79
     0
146
0.0
  0
ENDTAB
  0
TABLE
  2
LTYPE
  5
1F
330
0
100
AcDbSymbolTable
 70
     1
  0
LTYPE
  5
20
330
1F
100
AcDbSymbolTableRecord
100
AcDbLinetypeTableRecord
  2
BYBLOCK
 70
     0
  3

 72
    65
 73
     0
 40
0.0
  0
LTYPE
  5
21
330
1F
100
AcDbSymbolTableRecord
100
AcDbLinetypeTableRecord
  2
BYLAYER
 70
     0
  3

 72
    65
 73
     0
 40
0.0
  0
LTYPE
  5
A
330
1F
100
AcDbSymbolTableRecord
100
AcDbLinetypeTableRecord
  2
CONTINUOUS
 70
     0
  3
Solid line
 72
    65
 73
     0
 40
0.0
  0
ENDTAB
  0
TABLE
  2
LAYER
  5
18
102
{ACAD_XDICTIONARY
360
19
102
}
330
0
100
AcDbSymbolTable
 70
     7
  0
LAYER
  5
6
330
18
100
AcDbSymbolTableRecord
100
AcDbLayerTableRecord
  2
0
 70
     0
 62
     7
  6
CONTINUOUS
370
    -3
390
7
  0
LAYER
  5
43
330
18
100
AcDbSymbolTableRecord
100
AcDbLayerTableRecord
  2
DEFPOINTS
 70
     0
 62
     7
  6
CONTINUOUS
290
     0
370
    -3
390
7
  0
LAYER
  5
207
330
18
100
AcDbSymbolTableRecord
100
AcDbLayerTableRecord
  2
WAKU
 70
     0
 62
     4
  6
CONTINUOUS
370
    -3
390
7
  0
LAYER
  5
37
330
18
100
AcDbSymbolTableRecord
100
AcDbLayerTableRecord
  2
MOJI1
 70
     0
 62
     2
  6
CONTINUOUS
370
    -3
390
7
  0
LAYER
  5
63
330
18
100
AcDbSymbolTableRecord
100
AcDbLayerTableRecord
  2
GAIKEI
 70
     0
 62
     7
  6
CONTINUOUS
370
    -3
390
7
  0
LAYER
  5
39
330
18
100
AcDbSymbolTableRecord
100
AcDbLayerTableRecord
  2
TOUROKU
 70
     0
 62
     1
  6
CONTINUOUS
370
    -3
390
7
  0
LAYER
  5
34
330
18
100
AcDbSymbolTableRecord
100
AcDbLayerTableRecord
  2
SUNPO
 70
     0
 62
     3
  6
CONTINUOUS
370
    -3
390
7
  0
ENDTAB
  0
TABLE
  2
STYLE
  5
1C
330
0
100
AcDbSymbolTable
 70
     1
  0
STYLE
  5
1D
330
1C
100
AcDbSymbolTableRecord
100
AcDbTextStyleTableRecord
  2
STANDARD
 70
     0
 40
0.0
 41
1.0
 50
0.0
 71
     0
 42
3.0
  3
MONOTXT.shx
  4
BIGFONT.shx
  0
ENDTAB
  0
TABLE
  2
VIEW
  5
22
330
0
100
AcDbSymbolTable
 70
     0
  0
ENDTAB
  0
TABLE
  2
UCS
  5
23
330
0
100
AcDbSymbolTable
 70
     0
  0
ENDTAB
  0
TABLE
  2
APPID
  5
26
330
0
100
AcDbSymbolTable
 70
     1
  0
APPID
  5
27
330
26
100
AcDbSymbolTableRecord
100
AcDbRegAppTableRecord
  2
ACAD
 70
     0
  0
ENDTAB
  0
TABLE
  2
DIMSTYLE
  5
28
330
0
100
AcDbSymbolTable
 70
     1
100
AcDbDimStyleTable
 71
     0
  0
DIMSTYLE
105
29
102
{ACAD_REACTORS
330
48
330
3A
330
55
102
}
330
28
100
AcDbSymbolTableRecord
100
AcDbDimStyleTableRecord
  2
STANDARD
 70
     0
 40
0.0
 41
2.0
 42
2.0
 43
8.0
 44
2.0
 73
     0
 74
     0
 77
     3
140
3.0
141
0.0
173
     1
279
     2
288
     1
340
1D
341
2A
343
2A
344
2A
  0
ENDTAB
  0
TABLE
  2
BLOCK_RECORD
  5
1
330
0
100
AcDbSymbolTable
 70
     4
  0
BLOCK_RECORD
  5
2
102
{ACAD_XDICTIONARY
360
3
102
}
330
1
100
AcDbSymbolTableRecord
100
AcDbBlockTableRecord
  2
*MODEL_SPACE
340
C
  0
BLOCK_RECORD
  5
10
102
{ACAD_XDICTIONARY
360
11
102
}
330
1
100
AcDbSymbolTableRecord
100
AcDbBlockTableRecord
  2
*PAPER_SPACE
340
15
  0
BLOCK_RECORD
  5
2A
330
1
100
AcDbSymbolTableRecord
100
AcDbBlockTableRecord
  2
_OPEN30
340
0
102
{BLKREFS
331
2D1
331
2D2
331
2DA
331
2DB
331
2E3
331
2E4
102
}
  0
BLOCK_RECORD
  5
255
330
1
100
AcDbSymbolTableRecord
100
AcDbBlockTableRecord
  2
*D1
340
0
  0
BLOCK_RECORD
  5
263
330
1
100
AcDbSymbolTableRecord
100
AcDbBlockTableRecord
  2
*D2
340
0
  0
BLOCK_RECORD
  5
26F
330
1
100
AcDbSymbolTableRecord
100
AcDbBlockTableRecord
  2
*D3
340
0
  0
ENDTAB
  0
ENDSEC
  0
SECTION
  2
BLOCKS
  0
BLOCK
  5
5
330
2
100
AcDbEntity
  8
0
100
AcDbBlockBegin
  2
*MODEL_SPACE
 70
     0
 10
0.0
 20
0.0
 30
0.0
  3
*MODEL_SPACE
  1

  0
ENDBLK
  5
B
330
2
100
AcDbEntity
  8
0
100
AcDbBlockEnd
  0
BLOCK
  5
13
330
10
100
AcDbEntity
 67
     1
  8
0
100
AcDbBlockBegin
  2
*PAPER_SPACE
 70
     0
 10
0.0
 20
0.0
 30
0.0
  3
*PAPER_SPACE
  1

  0
ENDBLK
  5
14
330
10
100
AcDbEntity
 67
     1
  8
0
100
AcDbBlockEnd
  0
BLOCK
  5
2E
330
2A
100
AcDbEntity
  8
0
100
AcDbBlockBegin
  2
_OPEN30
 70
     0
 10
0.0
 20
0.0
 30
0.0
  3
_OPEN30
  1

  0
LINE
  5
2B
330
2A
100
AcDbEntity
  8
0
  6
ByBlock
 62
     0
100
AcDbLine
 10
-1.0
 20
0.26794919
 30
0.0
 11
0.0
 21
0.0
 31
0.0
  0
LINE
  5
2C
330
2A
100
AcDbEntity
  8
0
  6
ByBlock
 62
     0
100
AcDbLine
 10
0.0
 20
0.0
 30
0.0
 11
-1.0
 21
-0.26794919
 31
0.0
  0
LINE
  5
2D
330
2A
100
AcDbEntity
  8
0
  6
ByBlock
 62
     0
100
AcDbLine
 10
0.0
 20
0.0
 30
0.0
 11
-1.0
 21
0.0
 31
0.0
  0
ENDBLK
  5
2F
330
2A
100
AcDbEntity
  8
0
100
AcDbBlockEnd
  0
BLOCK
  5
25F
330
255
100
AcDbEntity
  8
0
100
AcDbBlockBegin
  2
*D1
 70
     1
 10
0.0
 20
0.0
 30
0.0
  3
*D1
  1

  0
LINE
  5
2E0
330
255
100
AcDbEntity
  8
SUNPO
 62
     0
370
    -2
100
AcDbLine
 10
20.25062856064257
 20
-7.83832555172944
 30
0.0
 11
20.25062856064257
 21
-15.83832555172949
 31
0.0
  0
LINE
  5
2E1
330
255
100
AcDbEntity
  8
SUNPO
 62
     0
370
    -2
100
AcDbLine
 10
26.65053692132041
 20
-7.838325551729496
 30
0.0
 11
26.65053692132041
 21
-15.83832555172949
 31
0.0
  0
LINE
  5
2E2
330
255
100
AcDbEntity
  8
SUNPO
 62
     0
370
    -2
100
AcDbLine
 10
22.25062856064257
 20
-13.8383255517295
 30
0.0
 11
24.65053692132041
 21
-13.8383255517295
 31
0.0
  0
INSERT
  5
2E3
330
255
100
AcDbEntity
  8
SUNPO
 62
     0
370
    -2
100
AcDbBlockReference
  2
_OPEN30
 10
20.25062856064257
 20
-13.8383255517295
 30
0.0
 41
2.0
 42
2.0
 43
2.0
 50
180.0
  0
INSERT
  5
2E4
330
255
100
AcDbEntity
  8
SUNPO
 62
     0
370
    -2
100
AcDbBlockReference
  2
_OPEN30
 10
26.65053692132041
 20
-13.8383255517295
 30
0.0
 41
2.0
 42
2.0
 43
2.0
  0
MTEXT
  5
2E5
330
255
100
AcDbEntity
  8
SUNPO
 62
     0
100
AcDbMText
 10
23.45058274098149
 20
-12.08832555172949
 30
0.0
 40
2.5
 41
0.0
 71
     5
 72
     1
  1
\A1;32
 73
     1
 44
1.0
1001
ACAD
1000
MTEXTBEGIN
1070
    73
1070
     1
1070
    44
1040
1.0
1070
    74
1070
     0
1000
MTEXTEND
  0
POINT
  5
2E6
330
255
100
AcDbEntity
  8
DEFPOINTS
 62
     0
100
AcDbPoint
 10
20.25062856064257
 20
-5.83832555172944
 30
0.0
  0
POINT
  5
2E7
330
255
100
AcDbEntity
  8
DEFPOINTS
 62
     0
100
AcDbPoint
 10
26.65053692132041
 20
-5.838325551729496
 30
0.0
  0
POINT
  5
2E8
330
255
100
AcDbEntity
  8
DEFPOINTS
 62
     0
100
AcDbPoint
 10
26.65053692132041
 20
-13.8383255517295
 30
0.0
  0
ENDBLK
  5
260
330
255
100
AcDbEntity
  8
0
100
AcDbBlockEnd
  0
BLOCK
  5
26D
330
263
100
AcDbEntity
  8
0
100
AcDbBlockBegin
  2
*D2
 70
     1
 10
0.0
 20
0.0
 30
0.0
  3
*D2
  1

  0
LINE
  5
2D7
330
263
100
AcDbEntity
  8
SUNPO
 62
     0
370
    -2
100
AcDbLine
 10
-24.36560148688398
 20
-7.857638229775005
 30
0.0
 11
-24.36560148688398
 21
-15.85763822977506
 31
0.0
  0
LINE
  5
2D8
330
263
100
AcDbEntity
  8
SUNPO
 62
     0
370
    -2
100
AcDbLine
 10
-5.365600815721663
 20
-7.857638229775062
 30
0.0
 11
-5.365600815721664
 21
-15.85763822977506
 31
0.0
  0
LINE
  5
2D9
330
263
100
AcDbEntity
  8
SUNPO
 62
     0
370
    -2
100
AcDbLine
 10
-22.36560148688397
 20
-13.85763822977506
 30
0.0
 11
-7.365600815721664
 21
-13.85763822977506
 31
0.0
  0
INSERT
  5
2DA
330
263
100
AcDbEntity
  8
SUNPO
 62
     0
370
    -2
100
AcDbBlockReference
  2
_OPEN30
 10
-24.36560148688398
 20
-13.85763822977506
 30
0.0
 41
2.0
 42
2.0
 43
2.0
 50
180.0
  0
INSERT
  5
2DB
330
263
100
AcDbEntity
  8
SUNPO
 62
     0
370
    -2
100
AcDbBlockReference
  2
_OPEN30
 10
-5.365600815721664
 20
-13.85763822977506
 30
0.0
 41
2.0
 42
2.0
 43
2.0
  0
MTEXT
  5
2DC
330
263
100
AcDbEntity
  8
SUNPO
 62
     0
100
AcDbMText
 10
-14.86560115130282
 20
-12.10763822977506
 30
0.0
 40
2.5
 41
0.0
 71
     5
 72
     1
  1
\A1;95
 73
     1
 44
1.0
1001
ACAD
1000
MTEXTBEGIN
1070
    73
1070
     1
1070
    44
1040
1.0
1070
    74
1070
     0
1000
MTEXTEND
  0
POINT
  5
2DD
330
263
100
AcDbEntity
  8
DEFPOINTS
 62
     0
100
AcDbPoint
 10
-24.36560148688398
 20
-5.857638229775005
 30
0.0
  0
POINT
  5
2DE
330
263
100
AcDbEntity
  8
DEFPOINTS
 62
     0
100
AcDbPoint
 10
-5.365600815721663
 20
-5.857638229775062
 30
0.0
  0
POINT
  5
2DF
330
263
100
AcDbEntity
  8
DEFPOINTS
 62
     0
100
AcDbPoint
 10
-5.365600815721664
 20
-13.85763822977506
 30
0.0
  0
ENDBLK
  5
26E
330
263
100
AcDbEntity
  8
0
100
AcDbBlockEnd
  0
BLOCK
  5
279
330
26F
100
AcDbEntity
  8
0
100
AcDbBlockBegin
  2
*D3
 70
     1
 10
0.0
 20
0.0
 30
0.0
  3
*D3
  1

  0
LINE
  5
2CE
330
26F
100
AcDbEntity
  8
SUNPO
 62
     0
370
    -2
100
AcDbLine
 10
-3.327351433551357
 20
-5.882307183463097
 30
0.0
 11
4.672648566448632
 21
-5.8823071834631
 31
0.0
  0
LINE
  5
2CF
330
26F
100
AcDbEntity
  8
SUNPO
 62
     0
370
    -2
100
AcDbLine
 10
-3.327351433551356
 20
15.11765590859477
 30
0.0
 11
4.672648566448636
 21
15.11765590859476
 31
0.0
  0
LINE
  5
2D0
330
26F
100
AcDbEntity
  8
SUNPO
 62
     0
370
    -2
100
AcDbLine
 10
2.672648566448631
 20
-3.8823071834631
 30
0.0
 11
2.672648566448635
 21
13.11765590859477
 31
0.0
  0
INSERT
  5
2D1
330
26F
100
AcDbEntity
  8
SUNPO
 62
     0
370
    -2
100
AcDbBlockReference
  2
_OPEN30
 10
2.672648566448631
 20
-5.8823071834631
 30
0.0
 41
2.0
 42
2.0
 43
2.0
 50
270.0
  0
INSERT
  5
2D2
330
26F
100
AcDbEntity
  8
SUNPO
 62
     0
370
    -2
100
AcDbBlockReference
  2
_OPEN30
 10
2.672648566448636
 20
15.11765590859477
 30
0.0
 41
2.0
 42
2.0
 43
2.0
 50
90.0
  0
MTEXT
  5
2D3
330
26F
100
AcDbEntity
  8
SUNPO
 62
     0
100
AcDbMText
 10
0.9226485664486327
 20
4.617674362565834
 30
0.0
 40
2.5
 41
0.0
 71
     5
 72
     1
  1
\A1;105
 11
0.0000000000000001
 21
1.0
 31
0.0
 73
     1
 44
1.0
1001
ACAD
1000
MTEXTBEGIN
1070
    73
1070
     1
1070
    44
1040
1.0
1070
    74
1070
     0
1000
MTEXTEND
  0
POINT
  5
2D4
330
26F
100
AcDbEntity
  8
DEFPOINTS
 62
     0
100
AcDbPoint
 10
-5.327351433551356
 20
-5.882307183463097
 30
0.0
  0
POINT
  5
2D5
330
26F
100
AcDbEntity
  8
DEFPOINTS
 62
     0
100
AcDbPoint
 10
-5.327351433551356
 20
15.11765590859477
 30
0.0
  0
POINT
  5
2D6
330
26F
100
AcDbEntity
  8
DEFPOINTS
 62
     0
100
AcDbPoint
 10
2.672648566448636
 20
15.11765590859477
 30
0.0
  0
ENDBLK
  5
27A
330
26F
100
AcDbEntity
  8
0
100
AcDbBlockEnd
  0
ENDSEC
  0
SECTION
  2
ENTITIES
  0
TEXT
  5
36
330
2
100
AcDbEntity
  8
MOJI1
100
AcDbText
 10
-30.65874319477585
 20
47.50518497821843
 30
0.0
 40
4.0
  1
ワイヤレス受信機
100
AcDbText
  0
TEXT
  5
38
330
2
100
AcDbEntity
  8
TOUROKU
100
AcDbText
 10
48.80787350481821
 20
41.00530914735492
 30
0.0
 40
2.0
  1
ＷＸＲＪ７００Ａ
 72
     2
 11
67.34120683815155
 21
41.00530914735492
 31
0.0
100
AcDbText
  0
DIMENSION
  5
3A
330
2
100
AcDbEntity
  8
SUNPO
100
AcDbDimension
  2
*D1
 10
26.65053692132041
 20
-13.8383255517295
 30
0.0
 11
23.45058274098149
 21
-12.08832555172949
 31
0.0
 70
    33
  1
32
 71
     5
 42
6.399908360677841
  3
STANDARD
100
AcDbAlignedDimension
 13
20.25062856064257
 23
-5.83832555172944
 33
0.0
 14
26.65053692132041
 24
-5.838325551729496
 34
0.0
1001
ACAD
1000
DSTYLE
1002
{
1070
   287
1070
     3
1070
   287
1070
     3
1070
    40
1040
1.0
1070
   140
1040
2.5
1070
   147
1040
0.5
1070
   172
1070
     1
1070
   279
1070
     0
1070
   288
1070
     0
1002
}
  0
DIMENSION
  5
48
330
2
100
AcDbEntity
  8
SUNPO
100
AcDbDimension
  2
*D2
 10
-5.365600815721664
 20
-13.85763822977506
 30
0.0
 11
-14.86560115130282
 21
-12.10763822977506
 31
0.0
 70
    33
  1
95
 71
     5
 42
19.00000067116231
  3
STANDARD
100
AcDbAlignedDimension
 13
-24.36560148688398
 23
-5.857638229775005
 33
0.0
 14
-5.365600815721663
 24
-5.857638229775062
 34
0.0
1001
ACAD
1000
DSTYLE
1002
{
1070
   287
1070
     3
1070
   287
1070
     3
1070
    40
1040
1.0
1070
   140
1040
2.5
1070
   147
1040
0.5
1070
   172
1070
     1
1070
   279
1070
     0
1070
   288
1070
     0
1002
}
  0
DIMENSION
  5
55
330
2
100
AcDbEntity
  8
SUNPO
100
AcDbDimension
  2
*D3
 10
2.672648566448636
 20
15.11765590859477
 30
0.0
 11
0.9226485664486327
 21
4.617674362565834
 31
0.0
 70
    33
  1
105
 71
     5
 42
20.99996309205787
  3
STANDARD
100
AcDbAlignedDimension
 13
-5.327351433551356
 23
-5.882307183463097
 33
0.0
 14
-5.327351433551356
 24
15.11765590859477
 34
0.0
1001
ACAD
1000
DSTYLE
1002
{
1070
   287
1070
     3
1070
   287
1070
     3
1070
    40
1040
1.0
1070
   140
1040
2.5
1070
   147
1040
0.5
1070
   172
1070
     1
1070
   279
1070
     0
1070
   288
1070
     0
1002
}
  0
LINE
  5
62
330
2
100
AcDbEntity
  8
GAIKEI
100
AcDbLine
 10
-7.969757150086138
 20
30.72344586380248
 30
0.0
 11
-8.657272723798307
 21
22.91728301772975
 31
0.0
  0
LINE
  5
64
330
2
100
AcDbEntity
  8
GAIKEI
100
AcDbLine
 10
-6.557305028404975
 20
30.51803639593993
 30
0.0
 11
-5.869882049903587
 21
22.91728457201589
 31
0.0
  0
LINE
  5
65
330
2
100
AcDbEntity
  8
GAIKEI
100
AcDbLine
 10
-21.75975204629895
 20
30.51803639593993
 30
0.0
 11
-21.07232906779756
 21
22.91728457201589
 31
0.0
  0
LINE
  5
66
330
2
100
AcDbEntity
  8
GAIKEI
100
AcDbLine
 10
-23.17220416798012
 20
30.72344586380231
 30
0.0
 11
-23.85971974169228
 21
22.91728301772975
 31
0.0
  0
LINE
  5
67
330
2
100
AcDbEntity
  8
GAIKEI
 62
     1
100
AcDbLine
 10
-16.49594464993037
 20
15.29756525434737
 30
0.0
 11
-16.09599508646988
 21
15.29756525434737
 31
0.0
  0
LINE
  5
68
330
2
100
AcDbEntity
  8
GAIKEI
100
AcDbLine
 10
-24.12867911983312
 20
15.11765590859477
 30
0.0
 11
-5.602523182907013
 21
15.11765590859477
 31
0.0
  0
LINE
  5
69
330
2
100
AcDbEntity
  8
GAIKEI
100
AcDbLine
 10
-24.20586487890556
 20
-5.882307183463097
 30
0.0
 11
-5.525337423665511
 21
-5.882307183463097
 31
0.0
  0
LINE
  5
6A
330
2
100
AcDbEntity
  8
GAIKEI
 62
     1
100
AcDbLine
 10
-5.365958488377138
 20
-4.982545851106607
 30
0.0
 11
-24.36560148688397
 21
-4.982545851106607
 31
0.0
  0
LINE
  5
6B
330
2
100
AcDbEntity
  8
GAIKEI
 62
     1
100
AcDbLine
 10
-5.365600815721556
 20
-5.082264987480044
 30
0.0
 11
-24.36560148688397
 21
-5.082264987480044
 31
0.0
  0
LINE
  5
6C
330
2
100
AcDbEntity
  8
GAIKEI
 62
     1
100
AcDbLine
 10
-5.365600815721556
 20
-5.722355971891374
 30
0.0
 11
-24.36560148688397
 21
-5.722355971891374
 31
0.0
  0
LINE
  5
6D
330
2
100
AcDbEntity
  8
GAIKEI
 62
     1
100
AcDbLine
 10
-5.365600815721556
 20
14.2175369035827
 30
0.0
 11
-24.36560148688397
 21
14.2175369035827
 31
0.0
  0
LINE
  5
6E
330
2
100
AcDbEntity
  8
GAIKEI
 62
     1
100
AcDbLine
 10
-5.365600815721556
 20
14.11760316361591
 30
0.0
 11
-24.36560148688402
 21
14.11760316361585
 31
0.0
  0
LINE
  5
6F
330
2
100
AcDbEntity
  8
GAIKEI
 62
     1
100
AcDbLine
 10
-21.10620211118896
 20
15.8176212955488
 30
0.0
 11
-23.82615958775045
 21
15.8176212955488
 31
0.0
  0
LINE
  5
70
330
2
100
AcDbEntity
  8
GAIKEI
100
AcDbLine
 10
-21.07014870750731
 20
18.51754910339838
 30
0.0
 11
-21.07232906779756
 21
22.91728457201589
 31
0.0
  0
LINE
  5
71
330
2
100
AcDbEntity
  8
GAIKEI
100
AcDbLine
 10
-23.86600432158115
 20
18.51754910339838
 30
0.0
 11
-23.85971974169228
 21
22.91728301772975
 31
0.0
  0
LINE
  5
72
330
2
100
AcDbEntity
  8
GAIKEI
100
AcDbLine
 10
-21.07014870750731
 20
18.51754910339838
 30
0.0
 11
-21.16593344466946
 21
18.41761536343159
 31
0.0
  0
LINE
  5
73
330
2
100
AcDbEntity
  8
GAIKEI
 62
     1
100
AcDbLine
 10
-23.86600432158115
 20
18.51754910339838
 30
0.0
 11
-21.07014870750731
 21
18.51754910339838
 31
0.0
  0
LINE
  5
74
330
2
100
AcDbEntity
  8
GAIKEI
100
AcDbLine
 10
-23.76607058161448
 20
18.41761536343159
 30
0.0
 11
-23.86600432158115
 21
18.51754910339838
 31
0.0
  0
LINE
  5
75
330
2
100
AcDbEntity
  8
GAIKEI
100
AcDbLine
 10
-23.76607058161448
 20
18.41761536343159
 30
0.0
 11
-21.16593344466946
 21
18.41761536343159
 31
0.0
  0
LINE
  5
76
330
2
100
AcDbEntity
  8
GAIKEI
100
AcDbLine
 10
-21.36594399366515
 20
18.41761536343159
 30
0.0
 11
-21.3659439936652
 21
18.2176763489669
 31
0.0
  0
LINE
  5
77
330
2
100
AcDbEntity
  8
GAIKEI
100
AcDbLine
 10
-23.56684691246095
 20
18.41761536343159
 30
0.0
 11
-23.5668469124609
 21
18.2176763489669
 31
0.0
  0
LINE
  5
78
330
2
100
AcDbEntity
  8
GAIKEI
100
AcDbLine
 10
-23.62614903875476
 20
18.2176763489669
 30
0.0
 11
-21.30621266018476
 21
18.2176763489669
 31
0.0
  0
LINE
  5
79
330
2
100
AcDbEntity
  8
GAIKEI
100
AcDbLine
 10
-21.1559901448445
 20
17.11754679495908
 30
0.0
 11
-21.1559901448445
 21
17.01746998593012
 31
0.0
  0
ARC
  5
7A
330
2
100
AcDbEntity
  8
GAIKEI
100
AcDbCircle
 10
-21.05626755559768
 20
17.87774797923964
 30
0.0
 40
0.0398412811309593
100
AcDbArc
 50
359.9946472043563
 51
90.21071379256316
  0
LINE
  5
7B
330
2
100
AcDbEntity
  8
GAIKEI
100
AcDbLine
 10
-21.10620211118907
 20
17.91758899094219
 30
0.0
 11
-21.10620211118907
 21
18.01766579997115
 31
0.0
  0
ARC
  5
7C
330
2
100
AcDbEntity
  8
GAIKEI
100
AcDbCircle
 10
-21.30618410076601
 20
18.01769435938996
 30
0.0
 40
0.1999819916162252
100
AcDbArc
 50
359.9918175923972
 51
90.00818240758659
  0
LINE
  5
7D
330
2
100
AcDbEntity
  8
GAIKEI
 62
     7
100
AcDbLine
 10
-21.01642627464059
 20
17.15753459785202
 30
0.0
 11
-21.01642627464059
 21
17.87774425711148
 31
0.0
  0
ARC
  5
7E
330
2
100
AcDbEntity
  8
GAIKEI
100
AcDbCircle
 10
-21.05629784090274
 20
17.15741836122123
 30
0.0
 40
0.0398717356927353
100
AcDbArc
 50
269.8329674472347
 51
0.1670325529082782
  0
LINE
  5
7F
330
2
100
AcDbEntity
  8
GAIKEI
100
AcDbLine
 10
-23.87594762140611
 20
17.91758899094219
 30
0.0
 11
-21.05641407753187
 21
17.91758899094219
 31
0.0
  0
LINE
  5
80
330
2
100
AcDbEntity
  8
GAIKEI
100
AcDbLine
 10
-23.87594762140611
 20
17.11754679495908
 30
0.0
 11
-21.05641407753187
 21
17.11754679495908
 31
0.0
  0
LINE
  5
81
330
2
100
AcDbEntity
  8
GAIKEI
100
AcDbLine
 10
-23.82615958775056
 20
17.01746998593006
 30
0.0
 11
-21.10620211118896
 21
17.01746998593006
 31
0.0
  0
ARC
  5
82
330
2
100
AcDbEntity
  8
GAIKEI
100
AcDbCircle
 10
-21.20642995379824
 20
15.41782276566857
 30
0.0
 40
0.1002279564055425
100
AcDbArc
 50
270.086339084417
 51
359.9136609156318
  0
LINE
  5
83
330
2
100
AcDbEntity
  8
GAIKEI
100
AcDbLine
 10
-21.10620211118896
 20
15.41767173208842
 30
0.0
 11
-21.10620211118896
 21
17.01746998593006
 31
0.0
  0
LINE
  5
84
330
2
100
AcDbEntity
  8
GAIKEI
100
AcDbLine
 10
-21.51623804353641
 20
15.3175949230594
 30
0.0
 11
-21.51623804353641
 21
15.11765590859477
 31
0.0
  0
LINE
  5
85
330
2
100
AcDbEntity
  8
GAIKEI
100
AcDbLine
 10
-23.77601388143932
 20
17.11754679495908
 30
0.0
 11
-23.77601388143932
 21
17.01746998593012
 31
0.0
  0
ARC
  5
86
330
2
100
AcDbEntity
  8
GAIKEI
100
AcDbCircle
 10
-23.87606385803678
 20
17.15741836122123
 30
0.0
 40
0.0398717356927353
100
AcDbArc
 50
179.8329674470917
 51
270.1670325527652
  0
ARC
  5
87
330
2
100
AcDbEntity
  8
GAIKEI
100
AcDbCircle
 10
-23.62617759817351
 20
18.01769435938996
 30
0.0
 40
0.1999819916162252
100
AcDbArc
 50
89.9918175924134
 51
180.0081824076028
  0
LINE
  5
88
330
2
100
AcDbEntity
  8
GAIKEI
100
AcDbLine
 10
-23.82615958775045
 20
17.91758899094219
 30
0.0
 11
-23.82615958775045
 21
18.01766579997115
 31
0.0
  0
ARC
  5
89
330
2
100
AcDbEntity
  8
GAIKEI
100
AcDbCircle
 10
-23.87609414334184
 20
17.87774797923964
 30
0.0
 40
0.0398412811309593
100
AcDbArc
 50
89.78928620743685
 51
180.0053527956437
  0
ARC
  5
8A
330
2
100
AcDbEntity
  8
GAIKEI
100
AcDbCircle
 10
-23.72593174514127
 20
15.41782276566857
 30
0.0
 40
0.1002279564055425
100
AcDbArc
 50
180.0863390843682
 51
269.913660915583
  0
LINE
  5
8B
330
2
100
AcDbEntity
  8
GAIKEI
100
AcDbLine
 10
-23.41612365540299
 20
15.3175949230594
 30
0.0
 11
-23.41612365540299
 21
15.11765590859477
 31
0.0
  0
LINE
  5
8C
330
2
100
AcDbEntity
  8
GAIKEI
 62
     7
100
AcDbLine
 10
-23.91593542429893
 20
17.15753459785202
 30
0.0
 11
-23.91593542429893
 21
17.87774425711148
 31
0.0
  0
LINE
  5
8D
330
2
100
AcDbEntity
  8
GAIKEI
100
AcDbLine
 10
-23.82615958775045
 20
15.41767173208842
 30
0.0
 11
-23.82615958775045
 21
17.01746998593012
 31
0.0
  0
LINE
  5
8E
330
2
100
AcDbEntity
  8
GAIKEI
100
AcDbLine
 10
-21.20592124756228
 20
15.3175949230594
 30
0.0
 11
-23.72608277872154
 21
15.3175949230594
 31
0.0
  0
ARC
  5
8F
330
2
100
AcDbEntity
  8
GAIKEI
 62
     1
100
AcDbCircle
 10
-16.4960066241652
 20
15.19776504193305
 30
0.0
 40
0.0998002316568448
100
AcDbArc
 50
89.96442029980007
 51
179.9945221746231
  0
LINE
  5
90
330
2
100
AcDbEntity
  8
GAIKEI
 62
     1
100
AcDbLine
 10
-16.59580685536593
 20
15.11765590859477
 30
0.0
 11
-16.59580685536593
 21
15.19777458344288
 31
0.0
  0
LINE
  5
91
330
2
100
AcDbEntity
  8
GAIKEI
 62
     1
100
AcDbLine
 10
-17.87563115153295
 20
15.11765590859477
 30
0.0
 11
-17.87563115153295
 21
15.19777458344288
 31
0.0
  0
LINE
  5
92
330
2
100
AcDbEntity
  8
GAIKEI
 62
     1
100
AcDbLine
 10
-17.77576894609739
 20
15.29756525434737
 30
0.0
 11
-17.3758193826369
 21
15.29756525434737
 31
0.0
  0
LINE
  5
93
330
2
100
AcDbEntity
  8
GAIKEI
 62
     1
100
AcDbLine
 10
-17.27559950454576
 20
15.19777458344288
 30
0.0
 11
-17.27559950454576
 21
15.11765590859477
 31
0.0
  0
ARC
  5
94
330
2
100
AcDbEntity
  8
GAIKEI
 62
     1
100
AcDbCircle
 10
-17.77583092033222
 20
15.19776504193305
 30
0.0
 40
0.0998002316568448
100
AcDbArc
 50
89.96442029980007
 51
179.9945221746231
  0
ARC
  5
95
330
2
100
AcDbEntity
  8
GAIKEI
 62
     1
100
AcDbCircle
 10
-17.37570555253199
 20
15.19745877292678
 30
0.0
 40
0.1001065461381127
100
AcDbArc
 50
0.1807538108968032
 51
90.06515044469944
  0
ARC
  5
96
330
2
100
AcDbEntity
  8
GAIKEI
 62
     1
100
AcDbCircle
 10
-19.11571148735782
 20
15.19745877292678
 30
0.0
 40
0.1001065461381127
100
AcDbArc
 50
0.1807538108968032
 51
90.06515044469944
  0
ARC
  5
97
330
2
100
AcDbEntity
  8
GAIKEI
 62
     1
100
AcDbCircle
 10
-19.51583685515805
 20
15.19776504193305
 30
0.0
 40
0.0998002316568448
100
AcDbArc
 50
89.96442029980007
 51
179.9945221746231
  0
LINE
  5
98
330
2
100
AcDbEntity
  8
GAIKEI
 62
     1
100
AcDbLine
 10
-19.01560543937159
 20
15.19777458344288
 30
0.0
 11
-19.01560543937159
 21
15.11765590859477
 31
0.0
  0
LINE
  5
99
330
2
100
AcDbEntity
  8
GAIKEI
 62
     1
100
AcDbLine
 10
-19.51577488092322
 20
15.29756525434737
 30
0.0
 11
-19.11582531746273
 21
15.29756525434737
 31
0.0
  0
LINE
  5
9A
330
2
100
AcDbEntity
  8
GAIKEI
 62
     1
100
AcDbLine
 10
-19.61563708635878
 20
15.11765590859477
 30
0.0
 11
-19.61563708635878
 21
15.19777458344288
 31
0.0
  0
ARC
  5
9B
330
2
100
AcDbEntity
  8
GAIKEI
100
AcDbCircle
 10
-24.12872800330086
 20
14.91777834530029
 30
0.0
 40
0.1998775692721393
100
AcDbArc
 50
89.98598734001189
 51
177.0019113964927
  0
LINE
  5
9C
330
2
100
AcDbEntity
  8
GAIKEI
100
AcDbLine
 10
-24.36560148688397
 20
14.2175369035827
 30
0.0
 11
-24.32833199617334
 21
14.92823247020391
 31
0.0
  0
LINE
  5
9D
330
2
100
AcDbEntity
  8
GAIKEI
100
AcDbLine
 10
-24.30579861887235
 20
14.2175369035827
 30
0.0
 11
-24.30579861887235
 21
14.11760316361591
 31
0.0
  0
LINE
  5
9E
330
2
100
AcDbEntity
  8
GAIKEI
 62
     1
100
AcDbLine
 10
-24.20586487890556
 20
-5.882307183463097
 30
0.0
 11
-24.20586487890556
 21
15.10217179724498
 31
0.0
  0
LINE
  5
9F
330
2
100
AcDbEntity
  8
GAIKEI
100
AcDbLine
 10
-24.36560148688397
 20
-4.982545851106578
 30
0.0
 11
-24.36560148688402
 21
14.11760316361585
 31
0.0
  0
LINE
  5
A0
330
2
100
AcDbEntity
  8
GAIKEI
 62
     1
100
AcDbLine
 10
-24.30579861887235
 20
-4.982545851106578
 30
0.0
 11
-24.30579861887235
 21
-5.082264987480016
 31
0.0
  0
ARC
  5
A1
330
2
100
AcDbEntity
  8
GAIKEI
100
AcDbCircle
 10
-24.20588740349171
 20
-5.722592925885152
 30
0.0
 40
0.1597142591662522
100
AcDbArc
 50
179.9149952619482
 51
270.0080804540076
  0
LINE
  5
A2
330
2
100
AcDbEntity
  8
GAIKEI
100
AcDbLine
 10
-24.36560148688397
 20
-5.082264987480044
 30
0.0
 11
-24.36560148688397
 21
-5.722355971891374
 31
0.0
  0
LINE
  5
A3
330
2
100
AcDbEntity
  8
GAIKEI
 62
     1
100
AcDbLine
 10
-21.56573993906755
 20
-5.882307183463097
 30
0.0
 11
-21.56573993906761
 21
15.11765590859477
 31
0.0
  0
LINE
  5
A4
330
2
100
AcDbEntity
  8
GAIKEI
 62
     1
100
AcDbLine
 10
-23.84618925646247
 20
17.2176236039881
 30
0.0
 11
-23.84618925646247
 21
17.81751218191317
 31
0.0
  0
LINE
  5
A5
330
2
100
AcDbEntity
  8
GAIKEI
 62
     1
100
AcDbLine
 10
-23.77601388143932
 20
17.2176236039881
 30
0.0
 11
-23.77601388143932
 21
17.81751218191317
 31
0.0
  0
LINE
  5
A6
330
2
100
AcDbEntity
  8
GAIKEI
 62
     1
100
AcDbLine
 10
-23.67600860694142
 20
17.2176236039881
 30
0.0
 11
-23.67600860694142
 21
17.81751218191317
 31
0.0
  0
LINE
  5
A7
330
2
100
AcDbEntity
  8
GAIKEI
 62
     1
100
AcDbLine
 10
-23.54603036390665
 20
17.2176236039881
 30
0.0
 11
-23.54603036390665
 21
17.81751218191317
 31
0.0
  0
LINE
  5
A8
330
2
100
AcDbEntity
  8
GAIKEI
 62
     1
100
AcDbLine
 10
-23.41612365540299
 20
17.2176236039881
 30
0.0
 11
-23.41612365540299
 21
17.81751218191317
 31
0.0
  0
LINE
  5
A9
330
2
100
AcDbEntity
  8
GAIKEI
 62
     1
100
AcDbLine
 10
-23.26590114006273
 20
17.2176236039881
 30
0.0
 11
-23.26590114006273
 21
17.81751218191317
 31
0.0
  0
LINE
  5
AA
330
2
100
AcDbEntity
  8
GAIKEI
 62
     1
100
AcDbLine
 10
-23.06624826372262
 20
17.2176236039881
 30
0.0
 11
-23.06624826372262
 21
17.81751218191317
 31
0.0
  0
LINE
  5
AB
330
2
100
AcDbEntity
  8
GAIKEI
 62
     1
100
AcDbLine
 10
-22.86609464566458
 20
17.2176236039881
 30
0.0
 11
-22.86609464566458
 21
17.81751218191317
 31
0.0
  0
LINE
  5
AC
330
2
100
AcDbEntity
  8
GAIKEI
 62
     1
100
AcDbLine
 10
-22.66615563119989
 20
17.2176236039881
 30
0.0
 11
-22.66615563119989
 21
17.81751218191317
 31
0.0
  0
LINE
  5
AD
330
2
100
AcDbEntity
  8
GAIKEI
 62
     1
100
AcDbLine
 10
-22.4661450822042
 20
17.2176236039881
 30
0.0
 11
-22.4661450822042
 21
17.81751218191317
 31
0.0
  0
LINE
  5
AE
330
2
100
AcDbEntity
  8
GAIKEI
 62
     1
100
AcDbLine
 10
-21.08610090794581
 20
17.81751218191317
 30
0.0
 11
-21.08610090794581
 21
17.2176236039881
 31
0.0
  0
LINE
  5
AF
330
2
100
AcDbEntity
  8
GAIKEI
 62
     1
100
AcDbLine
 10
-21.1559901448445
 20
17.81751218191317
 30
0.0
 11
-21.1559901448445
 21
17.2176236039881
 31
0.0
  0
LINE
  5
B0
330
2
100
AcDbEntity
  8
GAIKEI
 62
     1
100
AcDbLine
 10
-21.25606695387352
 20
17.81751218191317
 30
0.0
 11
-21.25606695387352
 21
17.2176236039881
 31
0.0
  0
LINE
  5
B1
330
2
100
AcDbEntity
  8
GAIKEI
 62
     1
100
AcDbLine
 10
-21.38597366237718
 20
17.81751218191317
 30
0.0
 11
-21.38597366237718
 21
17.2176236039881
 31
0.0
  0
LINE
  5
B2
330
2
100
AcDbEntity
  8
GAIKEI
 62
     1
100
AcDbLine
 10
-21.51623804353641
 20
17.81751218191317
 30
0.0
 11
-21.51623804353641
 21
17.2176236039881
 31
0.0
  0
LINE
  5
B3
330
2
100
AcDbEntity
  8
GAIKEI
 62
     1
100
AcDbLine
 10
-21.66610288622109
 20
17.81751218191317
 30
0.0
 11
-21.66610288622109
 21
17.2176236039881
 31
0.0
  0
LINE
  5
B4
330
2
100
AcDbEntity
  8
GAIKEI
 62
     1
100
AcDbLine
 10
-21.86611343521678
 20
17.81751218191317
 30
0.0
 11
-21.86611343521678
 21
17.2176236039881
 31
0.0
  0
LINE
  5
B5
330
2
100
AcDbEntity
  8
GAIKEI
 62
     1
100
AcDbLine
 10
-22.0661955187437
 20
17.81751218191317
 30
0.0
 11
-22.0661955187437
 21
17.2176236039881
 31
0.0
  0
LINE
  5
B6
330
2
100
AcDbEntity
  8
GAIKEI
 62
     1
100
AcDbLine
 10
-22.26620606773951
 20
17.81751218191317
 30
0.0
 11
-22.26620606773951
 21
17.2176236039881
 31
0.0
  0
LINE
  5
B7
330
2
100
AcDbEntity
  8
GAIKEI
 62
     1
100
AcDbLine
 10
-7.063759049845536
 20
17.81751218191317
 30
0.0
 11
-7.063759049845536
 21
17.2176236039881
 31
0.0
  0
LINE
  5
B8
330
2
100
AcDbEntity
  8
GAIKEI
 62
     1
100
AcDbLine
 10
-6.86374850084973
 20
17.81751218191317
 30
0.0
 11
-6.86374850084973
 21
17.2176236039881
 31
0.0
  0
LINE
  5
B9
330
2
100
AcDbEntity
  8
GAIKEI
 62
     1
100
AcDbLine
 10
-6.663666417322808
 20
17.81751218191317
 30
0.0
 11
-6.663666417322808
 21
17.2176236039881
 31
0.0
  0
LINE
  5
BA
330
2
100
AcDbEntity
  8
GAIKEI
 62
     1
100
AcDbLine
 10
-6.463655868327116
 20
17.81751218191317
 30
0.0
 11
-6.463655868327116
 21
17.2176236039881
 31
0.0
  0
LINE
  5
BB
330
2
100
AcDbEntity
  8
GAIKEI
 62
     1
100
AcDbLine
 10
-6.313791025642437
 20
17.81751218191317
 30
0.0
 11
-6.313791025642437
 21
17.2176236039881
 31
0.0
  0
LINE
  5
BC
330
2
100
AcDbEntity
  8
GAIKEI
 62
     1
100
AcDbLine
 10
-6.183526644483201
 20
17.81751218191317
 30
0.0
 11
-6.183526644483201
 21
17.2176236039881
 31
0.0
  0
LINE
  5
BD
330
2
100
AcDbEntity
  8
GAIKEI
 62
     1
100
AcDbLine
 10
-6.053619935979547
 20
17.81751218191317
 30
0.0
 11
-6.053619935979547
 21
17.2176236039881
 31
0.0
  0
LINE
  5
BE
330
2
100
AcDbEntity
  8
GAIKEI
 62
     1
100
AcDbLine
 10
-5.953543126950528
 20
17.81751218191317
 30
0.0
 11
-5.953543126950528
 21
17.2176236039881
 31
0.0
  0
LINE
  5
BF
330
2
100
AcDbEntity
  8
GAIKEI
 62
     1
100
AcDbLine
 10
-5.883653890051839
 20
17.81751218191317
 30
0.0
 11
-5.883653890051839
 21
17.2176236039881
 31
0.0
  0
LINE
  5
C0
330
2
100
AcDbEntity
  8
GAIKEI
 62
     1
100
AcDbLine
 10
-7.263698064310226
 20
17.2176236039881
 30
0.0
 11
-7.263698064310226
 21
17.81751218191317
 31
0.0
  0
LINE
  5
C1
330
2
100
AcDbEntity
  8
GAIKEI
 62
     1
100
AcDbLine
 10
-7.463708613305918
 20
17.2176236039881
 30
0.0
 11
-7.463708613305918
 21
17.81751218191317
 31
0.0
  0
LINE
  5
C2
330
2
100
AcDbEntity
  8
GAIKEI
 62
     1
100
AcDbLine
 10
-7.663647627770608
 20
17.2176236039881
 30
0.0
 11
-7.663647627770608
 21
17.81751218191317
 31
0.0
  0
LINE
  5
C3
330
2
100
AcDbEntity
  8
GAIKEI
 62
     1
100
AcDbLine
 10
-7.863801245828646
 20
17.2176236039881
 30
0.0
 11
-7.863801245828646
 21
17.81751218191317
 31
0.0
  0
LINE
  5
C4
330
2
100
AcDbEntity
  8
GAIKEI
 62
     1
100
AcDbLine
 10
-8.063454122168757
 20
17.2176236039881
 30
0.0
 11
-8.063454122168757
 21
17.81751218191317
 31
0.0
  0
LINE
  5
C5
330
2
100
AcDbEntity
  8
GAIKEI
 62
     1
100
AcDbLine
 10
-8.213676637509017
 20
17.2176236039881
 30
0.0
 11
-8.213676637509017
 21
17.81751218191317
 31
0.0
  0
LINE
  5
C6
330
2
100
AcDbEntity
  8
GAIKEI
 62
     1
100
AcDbLine
 10
-8.343583346012671
 20
17.2176236039881
 30
0.0
 11
-8.343583346012671
 21
17.81751218191317
 31
0.0
  0
LINE
  5
C7
330
2
100
AcDbEntity
  8
GAIKEI
 62
     1
100
AcDbLine
 10
-8.473561589047442
 20
17.2176236039881
 30
0.0
 11
-8.473561589047442
 21
17.81751218191317
 31
0.0
  0
LINE
  5
C8
330
2
100
AcDbEntity
  8
GAIKEI
 62
     1
100
AcDbLine
 10
-8.573566863545345
 20
17.2176236039881
 30
0.0
 11
-8.573566863545345
 21
17.81751218191317
 31
0.0
  0
LINE
  5
C9
330
2
100
AcDbEntity
  8
GAIKEI
 62
     1
100
AcDbLine
 10
-8.643742238568499
 20
17.2176236039881
 30
0.0
 11
-8.643742238568499
 21
17.81751218191317
 31
0.0
  0
LINE
  5
CA
330
2
100
AcDbEntity
  8
GAIKEI
100
AcDbLine
 10
-6.003474229668306
 20
15.3175949230594
 30
0.0
 11
-8.523635760827566
 21
15.3175949230594
 31
0.0
  0
LINE
  5
CB
330
2
100
AcDbEntity
  8
GAIKEI
100
AcDbLine
 10
-8.623712569856472
 20
15.41767173208842
 30
0.0
 11
-8.623712569856472
 21
17.01746998593012
 31
0.0
  0
LINE
  5
CC
330
2
100
AcDbEntity
  8
GAIKEI
 62
     7
100
AcDbLine
 10
-8.713488406404955
 20
17.15753459785202
 30
0.0
 11
-8.713488406404955
 21
17.87774425711148
 31
0.0
  0
LINE
  5
CD
330
2
100
AcDbEntity
  8
GAIKEI
100
AcDbLine
 10
-8.213676637509017
 20
15.3175949230594
 30
0.0
 11
-8.213676637509017
 21
15.11765590859477
 31
0.0
  0
ARC
  5
CE
330
2
100
AcDbEntity
  8
GAIKEI
100
AcDbCircle
 10
-8.5234847272473
 20
15.41782276566857
 30
0.0
 40
0.1002279564055425
100
AcDbArc
 50
180.0863390843682
 51
269.913660915583
  0
ARC
  5
CF
330
2
100
AcDbEntity
  8
GAIKEI
100
AcDbCircle
 10
-8.673647125447864
 20
17.87774797923964
 30
0.0
 40
0.0398412811309593
100
AcDbArc
 50
89.78928620743685
 51
180.0053527956437
  0
LINE
  5
D0
330
2
100
AcDbEntity
  8
GAIKEI
100
AcDbLine
 10
-8.623712569856472
 20
17.91758899094219
 30
0.0
 11
-8.623712569856472
 21
18.01766579997115
 31
0.0
  0
ARC
  5
D1
330
2
100
AcDbEntity
  8
GAIKEI
100
AcDbCircle
 10
-8.423730580279531
 20
18.01769435938996
 30
0.0
 40
0.1999819916162252
100
AcDbArc
 50
89.9918175924134
 51
180.0081824076028
  0
ARC
  5
D2
330
2
100
AcDbEntity
  8
GAIKEI
100
AcDbCircle
 10
-8.673616840142805
 20
17.15741836122123
 30
0.0
 40
0.0398717356927353
100
AcDbArc
 50
179.8329674470917
 51
270.1670325527652
  0
LINE
  5
D3
330
2
100
AcDbEntity
  8
GAIKEI
100
AcDbLine
 10
-8.573566863545345
 20
17.11754679495908
 30
0.0
 11
-8.573566863545345
 21
17.01746998593012
 31
0.0
  0
LINE
  5
D4
330
2
100
AcDbEntity
  8
GAIKEI
100
AcDbLine
 10
-6.313791025642437
 20
15.3175949230594
 30
0.0
 11
-6.313791025642437
 21
15.11765590859477
 31
0.0
  0
LINE
  5
D5
330
2
100
AcDbEntity
  8
GAIKEI
100
AcDbLine
 10
-5.903755093294982
 20
15.41767173208842
 30
0.0
 11
-5.903755093294982
 21
17.01746998593006
 31
0.0
  0
ARC
  5
D6
330
2
100
AcDbEntity
  8
GAIKEI
100
AcDbCircle
 10
-6.003982935904268
 20
15.41782276566857
 30
0.0
 40
0.1002279564055425
100
AcDbArc
 50
270.086339084417
 51
359.9136609156318
  0
LINE
  5
D7
330
2
100
AcDbEntity
  8
GAIKEI
100
AcDbLine
 10
-8.623712569856586
 20
17.01746998593006
 30
0.0
 11
-5.903755093294982
 21
17.01746998593006
 31
0.0
  0
LINE
  5
D8
330
2
100
AcDbEntity
  8
GAIKEI
100
AcDbLine
 10
-8.673500603512131
 20
17.11754679495908
 30
0.0
 11
-5.853967059637902
 21
17.11754679495908
 31
0.0
  0
LINE
  5
D9
330
2
100
AcDbEntity
  8
GAIKEI
100
AcDbLine
 10
-8.673500603512131
 20
17.91758899094219
 30
0.0
 11
-5.853967059637902
 21
17.91758899094219
 31
0.0
  0
ARC
  5
DA
330
2
100
AcDbEntity
  8
GAIKEI
100
AcDbCircle
 10
-5.853850823008762
 20
17.15741836122123
 30
0.0
 40
0.0398717356927353
100
AcDbArc
 50
269.8329674472347
 51
0.1670325529082782
  0
LINE
  5
DB
330
2
100
AcDbEntity
  8
GAIKEI
 62
     7
100
AcDbLine
 10
-5.813979256746613
 20
17.15753459785202
 30
0.0
 11
-5.813979256746613
 21
17.87774425711148
 31
0.0
  0
ARC
  5
DC
330
2
100
AcDbEntity
  8
GAIKEI
100
AcDbCircle
 10
-6.103737082872036
 20
18.01769435938996
 30
0.0
 40
0.1999819916162252
100
AcDbArc
 50
359.9918175923972
 51
90.00818240758659
  0
LINE
  5
DD
330
2
100
AcDbEntity
  8
GAIKEI
100
AcDbLine
 10
-5.903755093295096
 20
17.91758899094219
 30
0.0
 11
-5.903755093295096
 21
18.01766579997115
 31
0.0
  0
ARC
  5
DE
330
2
100
AcDbEntity
  8
GAIKEI
100
AcDbCircle
 10
-5.853820537703704
 20
17.87774797923964
 30
0.0
 40
0.0398412811309593
100
AcDbArc
 50
359.9946472043563
 51
90.21071379256316
  0
LINE
  5
DF
330
2
100
AcDbEntity
  8
GAIKEI
100
AcDbLine
 10
-5.953543126950528
 20
17.11754679495908
 30
0.0
 11
-5.953543126950528
 21
17.01746998593012
 31
0.0
  0
LINE
  5
E0
330
2
100
AcDbEntity
  8
GAIKEI
100
AcDbLine
 10
-8.42370202086078
 20
18.2176763489669
 30
0.0
 11
-6.103765642290788
 21
18.2176763489669
 31
0.0
  0
LINE
  5
E1
330
2
100
AcDbEntity
  8
GAIKEI
100
AcDbLine
 10
-8.364399894566979
 20
18.41761536343159
 30
0.0
 11
-8.364399894566922
 21
18.2176763489669
 31
0.0
  0
LINE
  5
E2
330
2
100
AcDbEntity
  8
GAIKEI
100
AcDbLine
 10
-6.163496975771174
 20
18.41761536343159
 30
0.0
 11
-6.163496975771231
 21
18.2176763489669
 31
0.0
  0
LINE
  5
E3
330
2
100
AcDbEntity
  8
GAIKEI
100
AcDbLine
 10
-8.563623563720504
 20
18.41761536343159
 30
0.0
 11
-5.963486426775482
 21
18.41761536343159
 31
0.0
  0
LINE
  5
E4
330
2
100
AcDbEntity
  8
GAIKEI
100
AcDbLine
 10
-8.563623563720504
 20
18.41761536343159
 30
0.0
 11
-8.663557303687177
 21
18.51754910339838
 31
0.0
  0
LINE
  5
E5
330
2
100
AcDbEntity
  8
GAIKEI
 62
     1
100
AcDbLine
 10
-8.663557303687177
 20
18.51754910339838
 30
0.0
 11
-5.867701689613333
 21
18.51754910339838
 31
0.0
  0
LINE
  5
E6
330
2
100
AcDbEntity
  8
GAIKEI
100
AcDbLine
 10
-5.867701689613333
 20
18.51754910339838
 30
0.0
 11
-5.963486426775482
 21
18.41761536343159
 31
0.0
  0
LINE
  5
E7
330
2
100
AcDbEntity
  8
GAIKEI
100
AcDbLine
 10
-8.663557303687177
 20
18.51754910339838
 30
0.0
 11
-8.657272723798307
 21
22.91728301772975
 31
0.0
  0
LINE
  5
E8
330
2
100
AcDbEntity
  8
GAIKEI
100
AcDbLine
 10
-5.867701689613333
 20
18.51754910339838
 30
0.0
 11
-5.869882049903587
 21
22.91728457201589
 31
0.0
  0
LINE
  5
E9
330
2
100
AcDbEntity
  8
GAIKEI
 62
     1
100
AcDbLine
 10
-5.903755093294982
 20
15.8176212955488
 30
0.0
 11
-8.623712569856472
 21
15.8176212955488
 31
0.0
  0
ARC
  5
EA
330
2
100
AcDbEntity
  8
GAIKEI
 62
     1
100
AcDbCircle
 10
-14.8159138911356
 20
15.19745877292678
 30
0.0
 40
0.1001065461381127
100
AcDbArc
 50
0.1807538108968032
 51
90.06515044469944
  0
ARC
  5
EB
330
2
100
AcDbEntity
  8
GAIKEI
 62
     1
100
AcDbCircle
 10
-15.21603925893583
 20
15.19776504193305
 30
0.0
 40
0.0998002316568448
100
AcDbArc
 50
89.96442029980007
 51
179.9945221746231
  0
LINE
  5
EC
330
2
100
AcDbEntity
  8
GAIKEI
 62
     1
100
AcDbLine
 10
-14.71580784314937
 20
15.19777458344288
 30
0.0
 11
-14.71580784314937
 21
15.11765590859477
 31
0.0
  0
LINE
  5
ED
330
2
100
AcDbEntity
  8
GAIKEI
 62
     1
100
AcDbLine
 10
-15.215977284701
 20
15.29756525434737
 30
0.0
 11
-14.81602772124051
 21
15.29756525434737
 31
0.0
  0
LINE
  5
EE
330
2
100
AcDbEntity
  8
GAIKEI
 62
     1
100
AcDbLine
 10
-15.31583949013656
 20
15.11765590859477
 30
0.0
 11
-15.31583949013656
 21
15.19777458344288
 31
0.0
  0
ARC
  5
EF
330
2
100
AcDbEntity
  8
GAIKEI
 62
     1
100
AcDbCircle
 10
-16.09588125636497
 20
15.19745877292678
 30
0.0
 40
0.1001065461381127
100
AcDbArc
 50
19.07392336422114
 51
90.06515044469944
  0
LINE
  5
F0
330
2
100
AcDbEntity
  8
GAIKEI
 62
     1
100
AcDbLine
 10
-5.262090349199063
 20
-4.482233340492712
 30
0.0
 11
-5.365600815721556
 21
-4.482233340492712
 31
0.0
  0
LINE
  5
F1
330
2
100
AcDbEntity
  8
GAIKEI
 62
     1
100
AcDbLine
 10
-5.262090349199063
 20
0.7177547952728105
 30
0.0
 11
-5.262090349199063
 21
-4.482233340492712
 31
0.0
  0
LINE
  5
F2
330
2
100
AcDbEntity
  8
GAIKEI
 62
     1
100
AcDbLine
 10
-5.365600815721556
 20
0.7177547952728105
 30
0.0
 11
-5.262090349199063
 21
0.7177547952728105
 31
0.0
  0
LINE
  5
F3
330
2
100
AcDbEntity
  8
GAIKEI
100
AcDbLine
 10
-5.425403683733286
 20
14.2175369035827
 30
0.0
 11
-5.425403683733286
 21
14.11760316361591
 31
0.0
  0
LINE
  5
F4
330
2
100
AcDbEntity
  8
GAIKEI
100
AcDbLine
 10
-5.36560081572167
 20
14.2175369035827
 30
0.0
 11
-5.402870306432298
 21
14.92823247020391
 31
0.0
  0
ARC
  5
F5
330
2
100
AcDbEntity
  8
GAIKEI
100
AcDbCircle
 10
-5.60247429930478
 20
14.91777834530029
 30
0.0
 40
0.1998775692721393
100
AcDbArc
 50
2.99808860350732
 51
90.01401265998811
  0
LINE
  5
F6
330
2
100
AcDbEntity
  8
GAIKEI
100
AcDbLine
 10
-5.36560081572167
 20
-4.982545851106578
 30
0.0
 11
-5.365600815721613
 21
14.11760316361585
 31
0.0
  0
LINE
  5
F7
330
2
100
AcDbEntity
  8
GAIKEI
100
AcDbLine
 10
-5.36560081572167
 20
-5.082264987480044
 30
0.0
 11
-5.36560081572167
 21
-5.722355971891374
 31
0.0
  0
ARC
  5
F8
330
2
100
AcDbEntity
  8
GAIKEI
100
AcDbCircle
 10
-5.525314899113929
 20
-5.722592925885152
 30
0.0
 40
0.1597142591662522
100
AcDbArc
 50
269.9919195459924
 51
0.085004738051828
  0
LINE
  5
F9
330
2
100
AcDbEntity
  8
GAIKEI
 62
     1
100
AcDbLine
 10
-5.425403683733286
 20
-4.982545851106578
 30
0.0
 11
-5.425403683733286
 21
-5.082264987480016
 31
0.0
  0
LINE
  5
FA
330
2
100
AcDbEntity
  8
GAIKEI
 62
     1
100
AcDbLine
 10
-8.165605432600095
 20
-5.882307183463097
 30
0.0
 11
-8.165605432600152
 21
15.11765590859477
 31
0.0
  0
SPLINE
  5
FB
330
2
100
AcDbEntity
  8
GAIKEI
 62
     1
100
AcDbSpline
210
0.0
220
0.0
230
1.0
 70
    24
 71
     3
 72
     8
 73
     4
 74
     0
 42
0.0000000001
 43
0.0000000001
 40
128.0
 40
128.0
 40
128.0
 40
128.0
 40
129.0
 40
129.0
 40
129.0
 40
129.0
 10
-5.365600815721556
 20
0.7177547952728105
 30
0.0
 10
-5.365600815721556
 20
0.7177547952728105
 30
0.0
 10
-5.262090349199063
 20
0.7177547952728105
 30
0.0
 10
-5.262090349199063
 20
0.7177547952728105
 30
0.0
  0
SPLINE
  5
FC
330
2
100
AcDbEntity
  8
GAIKEI
 62
     1
100
AcDbSpline
210
0.0
220
0.0
230
1.0
 70
    24
 71
     3
 72
     8
 73
     4
 74
     0
 42
0.0000000001
 43
0.0000000001
 40
129.0
 40
129.0
 40
129.0
 40
129.0
 40
130.0
 40
130.0
 40
130.0
 40
130.0
 10
-5.262090349199063
 20
0.7177547952728105
 30
0.0
 10
-5.262090349199063
 20
0.7177547952728105
 30
0.0
 10
-5.262090349199063
 20
-4.482233340492712
 30
0.0
 10
-5.262090349199063
 20
-4.482233340492712
 30
0.0
  0
SPLINE
  5
FD
330
2
100
AcDbEntity
  8
GAIKEI
 62
     1
100
AcDbSpline
210
0.0
220
0.0
230
1.0
 70
    24
 71
     3
 72
     8
 73
     4
 74
     0
 42
0.0000000001
 43
0.0000000001
 40
130.0
 40
130.0
 40
130.0
 40
130.0
 40
131.0
 40
131.0
 40
131.0
 40
131.0
 10
-5.262090349199063
 20
-4.482233340492712
 30
0.0
 10
-5.262090349199063
 20
-4.482233340492712
 30
0.0
 10
-5.365600815721556
 20
-4.482233340492712
 30
0.0
 10
-5.365600815721556
 20
-4.482233340492712
 30
0.0
  0
LINE
  5
FE
330
2
100
AcDbEntity
  8
GAIKEI
 62
     1
100
AcDbLine
 10
-15.98912249698491
 20
15.11765590859477
 30
0.0
 11
-16.01373037568839
 21
15.20864783217223
 31
0.0
  0
LINE
  5
FF
330
2
100
AcDbEntity
  8
GAIKEI
 62
     1
100
AcDbLine
 10
-16.01373037568839
 20
15.20864783217223
 30
0.0
 11
-15.94283965535407
 21
15.33111494944001
 31
0.0
  0
LINE
  5
100
330
2
100
AcDbEntity
  8
GAIKEI
 62
     1
100
AcDbLine
 10
-15.94283965535407
 20
15.33111494944001
 30
0.0
 11
-15.76908227927719
 21
15.37768392919548
 31
0.0
  0
LINE
  5
101
330
2
100
AcDbEntity
  8
GAIKEI
 62
     1
100
AcDbLine
 10
-15.76908227927719
 20
15.37768392919548
 30
0.0
 11
-15.64661516200942
 21
15.30693627792334
 31
0.0
  0
LINE
  5
102
330
2
100
AcDbEntity
  8
GAIKEI
 62
     1
100
AcDbLine
 10
-15.64661516200942
 20
15.30693627792334
 30
0.0
 11
-15.59589717944924
 21
15.11765590859477
 31
0.0
  0
LINE
  5
103
330
2
100
AcDbEntity
  8
GAIKEI
 62
     1
100
AcDbLine
 10
-15.64661516200942
 20
15.30693627792334
 30
0.0
 11
-16.01373037568839
 21
15.20864783217223
 31
0.0
  0
LINE
  5
104
330
2
100
AcDbEntity
  8
GAIKEI
 62
     1
100
AcDbLine
 10
-8.845684219904335
 20
15.11765590859477
 30
0.0
 11
-8.845684219904335
 21
15.4374867972071
 31
0.0
  0
LINE
  5
105
330
2
100
AcDbEntity
  8
GAIKEI
 62
     1
100
AcDbLine
 10
-8.845684219904335
 20
15.4374867972071
 30
0.0
 11
-13.28568949711086
 21
15.4374867972071
 31
0.0
  0
LINE
  5
106
330
2
100
AcDbEntity
  8
GAIKEI
 62
     1
100
AcDbLine
 10
-13.28568949711086
 20
15.4374867972071
 30
0.0
 11
-13.28568949711086
 21
15.11765590859477
 31
0.0
  0
LINE
  5
107
330
2
100
AcDbEntity
  8
GAIKEI
100
AcDbLine
 10
-21.76603662618799
 20
37.26766200618016
 30
0.0
 11
-21.76603662618799
 21
37.81776255044963
 31
0.0
  0
ARC
  5
108
330
2
100
AcDbEntity
  8
GAIKEI
 62
     1
100
AcDbCircle
 10
-21.8159978948982
 20
37.06783598924562
 30
0.0
 40
0.0499612777601787
100
AcDbArc
 50
0.0344861471645022
 51
89.88336938020379
  0
LINE
  5
109
330
2
100
AcDbEntity
  8
GAIKEI
 62
     1
100
AcDbLine
 10
-21.81589619437482
 20
37.2178739725245
 30
0.0
 11
-21.81589619437477
 21
37.11779716349554
 31
0.0
  0
ARC
  5
10A
330
2
100
AcDbEntity
  8
GAIKEI
 62
     1
100
AcDbCircle
 10
-21.81592155597587
 20
37.2677589901412
 30
0.0
 40
0.0498850240636075
100
AcDbArc
 50
270.0291292385803
 51
359.8886083498066
  0
ARC
  5
10B
330
2
100
AcDbEntity
  8
GAIKEI
100
AcDbCircle
 10
-22.46603778040758
 20
37.8177267804283
 30
0.0
 40
0.7000011551335152
100
AcDbArc
 50
0.0029278112439268
 51
179.9970721887549
  0
LINE
  5
10C
330
2
100
AcDbEntity
  8
GAIKEI
100
AcDbLine
 10
-23.16603893462717
 20
37.26766200618016
 30
0.0
 11
-23.16603893462717
 21
37.81776255044963
 31
0.0
  0
ARC
  5
10D
330
2
100
AcDbEntity
  8
GAIKEI
 62
     1
100
AcDbCircle
 10
-23.1161540048393
 20
37.2677589901412
 30
0.0
 40
0.0498850240636075
100
AcDbArc
 50
180.1113916501934
 51
269.9708707614197
  0
LINE
  5
10E
330
2
100
AcDbEntity
  8
GAIKEI
 62
     1
100
AcDbLine
 10
-23.11617936644034
 20
37.2178739725245
 30
0.0
 11
-23.1161793664404
 21
37.11779716349554
 31
0.0
  0
ARC
  5
10F
330
2
100
AcDbEntity
  8
GAIKEI
 62
     1
100
AcDbCircle
 10
-23.11607766591697
 20
37.06783598924562
 30
0.0
 40
0.0499612777601787
100
AcDbArc
 50
90.11663061979621
 51
179.9655138528355
  0
LINE
  5
110
330
2
100
AcDbEntity
  8
GAIKEI
 62
     1
100
AcDbLine
 10
-23.11617936644034
 20
37.2178739725245
 30
0.0
 11
-21.81611079796789
 21
37.2178739725245
 31
0.0
  0
LINE
  5
111
330
2
100
AcDbEntity
  8
GAIKEI
 62
     1
100
AcDbLine
 10
-23.1161793664404
 20
37.11779716349554
 30
0.0
 11
-21.81611079796789
 21
37.11779716349554
 31
0.0
  0
LINE
  5
112
330
2
100
AcDbEntity
  8
GAIKEI
100
AcDbLine
 10
-21.75975204629895
 20
30.51803639593993
 30
0.0
 11
-21.76603662618788
 21
37.0678660607777
 31
0.0
  0
LINE
  5
113
330
2
100
AcDbEntity
  8
GAIKEI
100
AcDbLine
 10
-23.17220416798012
 20
30.72344586380231
 30
0.0
 11
-23.16603893462717
 21
37.0678660607777
 31
0.0
  0
LINE
  5
114
330
2
100
AcDbEntity
  8
GAIKEI
100
AcDbLine
 10
-7.969757150086138
 20
30.72344586380248
 30
0.0
 11
-7.9635919167332
 21
37.0678660607777
 31
0.0
  0
LINE
  5
115
330
2
100
AcDbEntity
  8
GAIKEI
100
AcDbLine
 10
-6.557305028404975
 20
30.51803639593993
 30
0.0
 11
-6.563589608293902
 21
37.0678660607777
 31
0.0
  0
LINE
  5
116
330
2
100
AcDbEntity
  8
GAIKEI
 62
     1
100
AcDbLine
 10
-7.913732348546425
 20
37.11779716349554
 30
0.0
 11
-6.613663780073913
 21
37.11779716349554
 31
0.0
  0
LINE
  5
117
330
2
100
AcDbEntity
  8
GAIKEI
 62
     1
100
AcDbLine
 10
-7.913732348546368
 20
37.2178739725245
 30
0.0
 11
-6.613663780073913
 21
37.2178739725245
 31
0.0
  0
ARC
  5
118
330
2
100
AcDbEntity
  8
GAIKEI
 62
     1
100
AcDbCircle
 10
-7.913630648022994
 20
37.06783598924562
 30
0.0
 40
0.0499612777601787
100
AcDbArc
 50
90.11663061979621
 51
179.9655138528355
  0
LINE
  5
119
330
2
100
AcDbEntity
  8
GAIKEI
 62
     1
100
AcDbLine
 10
-7.913732348546368
 20
37.2178739725245
 30
0.0
 11
-7.913732348546425
 21
37.11779716349554
 31
0.0
  0
ARC
  5
11A
330
2
100
AcDbEntity
  8
GAIKEI
 62
     1
100
AcDbCircle
 10
-7.913706986945321
 20
37.2677589901412
 30
0.0
 40
0.0498850240636075
100
AcDbArc
 50
180.1113916501934
 51
269.9708707614197
  0
LINE
  5
11B
330
2
100
AcDbEntity
  8
GAIKEI
100
AcDbLine
 10
-7.9635919167332
 20
37.26766200618016
 30
0.0
 11
-7.9635919167332
 21
37.81776255044963
 31
0.0
  0
ARC
  5
11C
330
2
100
AcDbEntity
  8
GAIKEI
100
AcDbCircle
 10
-7.263590762513608
 20
37.8177267804283
 30
0.0
 40
0.7000011551335152
100
AcDbArc
 50
0.0029278112439268
 51
179.9970721887549
  0
ARC
  5
11D
330
2
100
AcDbEntity
  8
GAIKEI
 62
     1
100
AcDbCircle
 10
-6.613474538081895
 20
37.2677589901412
 30
0.0
 40
0.0498850240636075
100
AcDbArc
 50
270.0291292385803
 51
359.8886083498066
  0
LINE
  5
11E
330
2
100
AcDbEntity
  8
GAIKEI
 62
     1
100
AcDbLine
 10
-6.613449176480848
 20
37.2178739725245
 30
0.0
 11
-6.613449176480791
 21
37.11779716349554
 31
0.0
  0
ARC
  5
11F
330
2
100
AcDbEntity
  8
GAIKEI
 62
     1
100
AcDbCircle
 10
-6.613550877004222
 20
37.06783598924562
 30
0.0
 40
0.0499612777601787
100
AcDbArc
 50
0.0344861471645022
 51
89.88336938020379
  0
LINE
  5
120
330
2
100
AcDbEntity
  8
GAIKEI
100
AcDbLine
 10
-6.563589608294016
 20
37.26766200618016
 30
0.0
 11
-6.563589608294016
 21
37.81776255044963
 31
0.0
  0
LINE
  5
121
330
2
100
AcDbEntity
  8
GAIKEI
100
AcDbLine
 10
22.53057713631962
 20
12.57760777778585
 30
0.0
 11
24.37073141470559
 21
12.57760777778585
 31
0.0
  0
LINE
  5
122
330
2
100
AcDbEntity
  8
GAIKEI
 62
     1
100
AcDbLine
 10
22.45045846147151
 20
-2.182398165165778
 30
0.0
 11
23.65066482450841
 21
-2.182398165165778
 31
0.0
  0
LINE
  5
123
330
2
100
AcDbEntity
  8
GAIKEI
 62
     1
100
AcDbLine
 10
22.45045846147151
 20
-3.982350037065458
 30
0.0
 11
23.65066482450835
 21
-3.982350037065458
 31
0.0
  0
LINE
  5
124
330
2
100
AcDbEntity
  8
GAIKEI
100
AcDbLine
 10
20.48769399675554
 20
15.1176559085948
 30
0.0
 11
26.41347148520744
 21
15.1176559085948
 31
0.0
  0
LINE
  5
125
330
2
100
AcDbEntity
  8
GAIKEI
100
AcDbLine
 10
20.41043670315209
 20
-5.882307183463041
 30
0.0
 11
26.49058570974877
 21
-5.882307183463041
 31
0.0
  0
LINE
  5
126
330
2
100
AcDbEntity
  8
GAIKEI
 62
     1
100
AcDbLine
 10
24.81045417746556
 20
15.81762129554883
 30
0.0
 11
22.09049670090407
 21
15.81762129554883
 31
0.0
  0
LINE
  5
127
330
2
100
AcDbEntity
  8
GAIKEI
 62
     1
100
AcDbLine
 10
22.05065196707336
 20
18.51754910339841
 30
0.0
 11
24.84650758114721
 21
18.51754910339841
 31
0.0
  0
LINE
  5
128
330
2
100
AcDbEntity
  8
GAIKEI
100
AcDbLine
 10
22.15058570704004
 20
18.41761536343162
 30
0.0
 11
24.75072284398506
 21
18.41761536343162
 31
0.0
  0
LINE
  5
129
330
2
100
AcDbEntity
  8
GAIKEI
100
AcDbLine
 10
22.29050724989976
 20
18.21767634896693
 30
0.0
 11
24.61044362846975
 21
18.21767634896693
 31
0.0
  0
LINE
  5
12A
330
2
100
AcDbEntity
  8
GAIKEI
100
AcDbLine
 10
22.04070866724841
 20
17.91758899094222
 30
0.0
 11
24.86024221112264
 21
17.91758899094222
 31
0.0
  0
LINE
  5
12B
330
2
100
AcDbEntity
  8
GAIKEI
100
AcDbLine
 10
22.04070866724841
 20
17.11754679495911
 30
0.0
 11
24.86024221112264
 21
17.11754679495911
 31
0.0
  0
LINE
  5
12C
330
2
100
AcDbEntity
  8
GAIKEI
100
AcDbLine
 10
22.09049670090395
 20
17.01746998593009
 30
0.0
 11
24.81045417746556
 21
17.01746998593009
 31
0.0
  0
LINE
  5
12D
330
2
100
AcDbEntity
  8
GAIKEI
100
AcDbLine
 10
24.71073504109224
 20
15.31759492305943
 30
0.0
 11
22.19057350993297
 21
15.31759492305943
 31
0.0
  0
ARC
  5
12E
330
2
100
AcDbEntity
  8
GAIKEI
100
AcDbCircle
 10
23.45061850824693
 20
37.81772678042836
 30
0.0
 40
0.7000011551335152
100
AcDbArc
 50
0.0029278112439268
 51
179.9970721887549
  0
LINE
  5
12F
330
2
100
AcDbEntity
  8
GAIKEI
 62
     1
100
AcDbLine
 10
22.80047692221417
 20
37.21787397252456
 30
0.0
 11
24.10054549068663
 21
37.21787397252453
 31
0.0
  0
LINE
  5
130
330
2
100
AcDbEntity
  8
GAIKEI
 62
     1
100
AcDbLine
 10
22.80047692221412
 20
37.11779716349557
 30
0.0
 11
24.10054549068663
 21
37.11779716349557
 31
0.0
  0
CIRCLE
  5
131
330
2
100
AcDbEntity
  8
GAIKEI
 62
     1
100
AcDbCircle
 10
23.45051120645043
 20
13.31756096763288
 30
0.0
 40
0.5000263724894207
  0
CIRCLE
  5
132
330
2
100
AcDbEntity
  8
GAIKEI
 62
     1
100
AcDbCircle
 10
23.45058274098155
 20
1.617516127629329
 30
0.0
 40
0.4000926325226509
  0
CIRCLE
  5
133
330
2
100
AcDbEntity
  8
GAIKEI
 62
     1
100
AcDbCircle
 10
23.45051120645043
 20
13.31756096763288
 30
0.0
 40
0.4299225319973416
  0
CIRCLE
  5
134
330
2
100
AcDbEntity
  8
GAIKEI
 62
     1
100
AcDbCircle
 10
23.45058274098155
 20
11.71776271379119
 30
0.0
 40
0.4000926325226509
  0
CIRCLE
  5
135
330
2
100
AcDbEntity
  8
GAIKEI
 62
     1
100
AcDbCircle
 10
23.65059328997724
 20
-3.082588704708967
 30
0.0
 40
0.6400194498802354
  0
CIRCLE
  5
136
330
2
100
AcDbEntity
  8
GAIKEI
 62
     1
100
AcDbCircle
 10
23.65059328997724
 20
-3.082588704708967
 30
0.0
 40
0.2000820835268826
  0
LINE
  5
137
330
2
100
AcDbEntity
  8
GAIKEI
 62
     1
100
AcDbLine
 10
25.45447956108821
 20
-2.062506291018138
 30
0.0
 11
21.45054878555495
 21
-2.062506291018138
 31
0.0
  0
LINE
  5
138
330
2
100
AcDbEntity
  8
GAIKEI
 62
     1
100
AcDbLine
 10
20.25062856064257
 20
-4.98254585110655
 30
0.0
 11
26.65053692132041
 21
-4.98254585110655
 31
0.0
  0
LINE
  5
139
330
2
100
AcDbEntity
  8
GAIKEI
 62
     1
100
AcDbLine
 10
20.25062856064257
 20
-5.082264987479987
 30
0.0
 11
26.65053692132041
 21
-5.082264987479987
 31
0.0
  0
LINE
  5
13A
330
2
100
AcDbEntity
  8
GAIKEI
 62
     1
100
AcDbLine
 10
20.25062856064257
 20
14.21753690358272
 30
0.0
 11
26.65053692132041
 21
14.21753690358272
 31
0.0
  0
LINE
  5
13B
330
2
100
AcDbEntity
  8
GAIKEI
 62
     1
100
AcDbLine
 10
20.25062856064257
 20
14.11760316361594
 30
0.0
 11
26.65053692132041
 21
14.11760316361594
 31
0.0
  0
LINE
  5
13C
330
2
100
AcDbEntity
  8
GAIKEI
100
AcDbLine
 10
25.65048417634161
 20
-4.482233340492683
 30
0.0
 11
21.25068130562137
 21
-4.482233340492683
 31
0.0
  0
LINE
  5
13D
330
2
100
AcDbEntity
  8
GAIKEI
100
AcDbLine
 10
21.25068130562137
 20
0.717754795272839
 30
0.0
 11
25.65048417634161
 21
0.717754795272839
 31
0.0
  0
LINE
  5
13E
330
2
100
AcDbEntity
  8
GAIKEI
 62
     1
100
AcDbLine
 10
21.44668592087477
 20
0.5216071109572625
 30
0.0
 11
25.45447956108821
 21
0.5216071109572625
 31
0.0
  0
LINE
  5
13F
330
2
100
AcDbEntity
  8
GAIKEI
 62
     1
100
AcDbLine
 10
25.45447956108821
 20
-4.286514863363748
 30
0.0
 11
21.44668592087477
 21
-4.286514863363748
 31
0.0
  0
LINE
  5
140
330
2
100
AcDbEntity
  8
GAIKEI
100
AcDbLine
 10
22.74445212067441
 20
30.72344586380223
 30
0.0
 11
22.05693654696224
 21
22.9172830177298
 31
0.0
  0
ARC
  5
141
330
2
100
AcDbEntity
  8
GAIKEI
100
AcDbCircle
 10
22.5304341911603
 20
12.97734289352013
 30
0.0
 40
0.3997351412928318
100
AcDbArc
 50
179.9692622715524
 51
270.0204889529583
  0
LINE
  5
142
330
2
100
AcDbEntity
  8
GAIKEI
100
AcDbLine
 10
22.13069910739036
 20
14.11760316361594
 30
0.0
 11
22.13069910739036
 21
12.97755734124629
 31
0.0
  0
ARC
  5
143
330
2
100
AcDbEntity
  8
GAIKEI
 62
     1
100
AcDbCircle
 10
22.45056734005017
 20
-2.382517592740242
 30
0.0
 40
0.2001194571930237
100
AcDbArc
 50
90.03117279764667
 51
179.9688272023472
  0
ARC
  5
144
330
2
100
AcDbEntity
  8
GAIKEI
 62
     1
100
AcDbCircle
 10
22.4505368580558
 20
-3.782260984161808
 30
0.0
 40
0.2000890682618858
100
AcDbArc
 50
180.0634477372847
 51
269.9775510298401
  0
LINE
  5
145
330
2
100
AcDbEntity
  8
GAIKEI
 62
     1
100
AcDbLine
 10
22.25044791247582
 20
-2.382408714161584
 30
0.0
 11
22.25044791247582
 21
-3.782482557131942
 31
0.0
  0
ARC
  5
146
330
2
100
AcDbEntity
  8
GAIKEI
 62
     1
100
AcDbCircle
 10
21.83068328389665
 20
-3.082445635646735
 30
0.0
 40
0.2000105489957682
100
AcDbArc
 50
113.0901953060713
 51
66.90980469391049
  0
LINE
  5
147
330
2
100
AcDbEntity
  8
GAIKEI
 62
     1
100
AcDbLine
 10
20.85051713856764
 20
15.43748679720713
 30
0.0
 11
22.09049670090407
 21
15.43748679720713
 31
0.0
  0
LINE
  5
148
330
2
100
AcDbEntity
  8
GAIKEI
 62
     1
100
AcDbLine
 10
20.85051713856764
 20
15.1176559085948
 30
0.0
 11
20.85051713856764
 21
15.43748679720713
 31
0.0
  0
ARC
  5
149
330
2
100
AcDbEntity
  8
GAIKEI
100
AcDbCircle
 10
20.48768870997692
 20
14.9173550784995
 30
0.0
 40
0.2003008301650627
100
AcDbArc
 50
89.99848772418102
 51
176.8870055760519
  0
LINE
  5
14A
330
2
100
AcDbEntity
  8
GAIKEI
100
AcDbLine
 10
20.25062856064257
 20
14.21753690358272
 30
0.0
 11
20.28768344775984
 21
14.92823247020394
 31
0.0
  0
LINE
  5
14B
330
2
100
AcDbEntity
  8
GAIKEI
100
AcDbLine
 10
20.31057449771642
 20
14.11760316361594
 30
0.0
 11
20.31057449771642
 21
14.21753690358272
 31
0.0
  0
LINE
  5
14C
330
2
100
AcDbEntity
  8
GAIKEI
100
AcDbLine
 10
20.25062856064257
 20
-4.98254585110655
 30
0.0
 11
20.25062856064257
 21
14.11760316361594
 31
0.0
  0
LINE
  5
14D
330
2
100
AcDbEntity
  8
GAIKEI
100
AcDbLine
 10
20.31057449771642
 20
-4.98254585110655
 30
0.0
 11
20.31057449771642
 21
-5.082264987479987
 31
0.0
  0
LINE
  5
14E
330
2
100
AcDbEntity
  8
GAIKEI
100
AcDbLine
 10
20.25062856064257
 20
-5.722355971891346
 30
0.0
 11
20.25062856064257
 21
-5.082264987479987
 31
0.0
  0
ARC
  5
14F
330
2
100
AcDbEntity
  8
GAIKEI
100
AcDbCircle
 10
20.41044932798907
 20
-5.722486363424451
 30
0.0
 40
0.1598208205372452
100
AcDbArc
 50
179.953254617667
 51
269.995473994724
  0
LINE
  5
150
330
2
100
AcDbEntity
  8
GAIKEI
100
AcDbLine
 10
22.15058570704004
 20
18.41761536343162
 30
0.0
 11
22.05065196707336
 21
18.51754910339841
 31
0.0
  0
LINE
  5
151
330
2
100
AcDbEntity
  8
GAIKEI
100
AcDbLine
 10
22.34980937619356
 20
18.41761536343162
 30
0.0
 11
22.34980937619362
 21
18.21767634896693
 31
0.0
  0
LINE
  5
152
330
2
100
AcDbEntity
  8
GAIKEI
100
AcDbLine
 10
22.1406424072152
 20
17.11754679495911
 30
0.0
 11
22.1406424072152
 21
17.01746998593015
 31
0.0
  0
ARC
  5
153
330
2
100
AcDbEntity
  8
GAIKEI
100
AcDbCircle
 10
22.04059243061774
 20
17.15741836122129
 30
0.0
 40
0.0398717356927353
100
AcDbArc
 50
179.8329674470917
 51
270.1670325527652
  0
ARC
  5
154
330
2
100
AcDbEntity
  8
GAIKEI
100
AcDbCircle
 10
22.29047869048101
 20
18.01769435938999
 30
0.0
 40
0.1999819916162252
100
AcDbArc
 50
89.9918175924134
 51
180.0081824076028
  0
LINE
  5
155
330
2
100
AcDbEntity
  8
GAIKEI
100
AcDbLine
 10
22.09049670090407
 20
17.91758899094222
 30
0.0
 11
22.09049670090407
 21
18.01766579997118
 31
0.0
  0
ARC
  5
156
330
2
100
AcDbEntity
  8
GAIKEI
100
AcDbCircle
 10
22.04056214531268
 20
17.87774797923967
 30
0.0
 40
0.0398412811309593
100
AcDbArc
 50
89.78928620743685
 51
180.0053527956437
  0
ARC
  5
157
330
2
100
AcDbEntity
  8
GAIKEI
100
AcDbCircle
 10
22.19072454351324
 20
15.4178227656686
 30
0.0
 40
0.1002279564055425
100
AcDbArc
 50
180.0863390843682
 51
269.913660915583
  0
LINE
  5
158
330
2
100
AcDbEntity
  8
GAIKEI
100
AcDbLine
 10
22.50053263325153
 20
15.31759492305943
 30
0.0
 11
22.50053263325153
 21
15.1176559085948
 31
0.0
  0
LINE
  5
159
330
2
100
AcDbEntity
  8
GAIKEI
100
AcDbLine
 10
22.00072086435559
 20
17.15753459785205
 30
0.0
 11
22.00072086435559
 21
17.87774425711151
 31
0.0
  0
LINE
  5
15A
330
2
100
AcDbEntity
  8
GAIKEI
100
AcDbLine
 10
22.09049670090407
 20
15.41767173208845
 30
0.0
 11
22.09049670090407
 21
17.01746998593015
 31
0.0
  0
LINE
  5
15B
330
2
100
AcDbEntity
  8
GAIKEI
 62
     1
100
AcDbLine
 10
22.07046703219204
 20
17.21762360398813
 30
0.0
 11
22.07046703219204
 21
17.8175121819132
 31
0.0
  0
LINE
  5
15C
330
2
100
AcDbEntity
  8
GAIKEI
 62
     1
100
AcDbLine
 10
22.1406424072152
 20
17.21762360398813
 30
0.0
 11
22.1406424072152
 21
17.8175121819132
 31
0.0
  0
LINE
  5
15D
330
2
100
AcDbEntity
  8
GAIKEI
 62
     1
100
AcDbLine
 10
22.2406476817131
 20
17.21762360398813
 30
0.0
 11
22.2406476817131
 21
17.8175121819132
 31
0.0
  0
LINE
  5
15E
330
2
100
AcDbEntity
  8
GAIKEI
 62
     1
100
AcDbLine
 10
22.37062592474787
 20
17.21762360398813
 30
0.0
 11
22.37062592474787
 21
17.8175121819132
 31
0.0
  0
LINE
  5
15F
330
2
100
AcDbEntity
  8
GAIKEI
 62
     1
100
AcDbLine
 10
22.50053263325153
 20
17.21762360398813
 30
0.0
 11
22.50053263325153
 21
17.8175121819132
 31
0.0
  0
LINE
  5
160
330
2
100
AcDbEntity
  8
GAIKEI
 62
     1
100
AcDbLine
 10
22.65075514859178
 20
17.21762360398813
 30
0.0
 11
22.65075514859178
 21
17.8175121819132
 31
0.0
  0
LINE
  5
161
330
2
100
AcDbEntity
  8
GAIKEI
 62
     1
100
AcDbLine
 10
22.8504080249319
 20
17.21762360398813
 30
0.0
 11
22.8504080249319
 21
17.8175121819132
 31
0.0
  0
LINE
  5
162
330
2
100
AcDbEntity
  8
GAIKEI
 62
     1
100
AcDbLine
 10
23.05056164298993
 20
17.21762360398813
 30
0.0
 11
23.05056164298993
 21
17.8175121819132
 31
0.0
  0
LINE
  5
163
330
2
100
AcDbEntity
  8
GAIKEI
 62
     1
100
AcDbLine
 10
23.25050065745462
 20
17.21762360398813
 30
0.0
 11
23.25050065745462
 21
17.8175121819132
 31
0.0
  0
LINE
  5
164
330
2
100
AcDbEntity
  8
GAIKEI
 62
     1
100
AcDbLine
 10
23.45051120645031
 20
17.21762360398813
 30
0.0
 11
23.45051120645031
 21
17.8175121819132
 31
0.0
  0
LINE
  5
165
330
2
100
AcDbEntity
  8
GAIKEI
100
AcDbLine
 10
22.05065196707336
 20
18.51754910339841
 30
0.0
 11
22.05693654696224
 21
22.9172830177298
 31
0.0
  0
LINE
  5
166
330
2
100
AcDbEntity
  8
GAIKEI
 62
     1
100
AcDbLine
 10
21.73368245970563
 20
-3.057694687881195
 30
0.0
 11
21.80593233613105
 21
-2.985587880517897
 31
0.0
  0
LINE
  5
167
330
2
100
AcDbEntity
  8
GAIKEI
 62
     1
100
AcDbLine
 10
21.73067800939874
 20
-3.089026812509274
 30
0.0
 11
21.83712139169701
 21
-2.982583430211121
 31
0.0
  0
LINE
  5
168
330
2
100
AcDbEntity
  8
GAIKEI
 62
     1
100
AcDbLine
 10
21.73525621939008
 20
-3.112633207777008
 30
0.0
 11
21.86087085602698
 21
-2.987161640202401
 31
0.0
  0
LINE
  5
169
330
2
100
AcDbEntity
  8
GAIKEI
 62
     1
100
AcDbLine
 10
21.74384036312382
 20
-3.13237673836457
 30
0.0
 11
21.88047131755231
 21
-2.995745783936143
 31
0.0
  0
LINE
  5
16A
330
2
100
AcDbEntity
  8
GAIKEI
 62
     1
100
AcDbLine
 10
21.75571509528881
 20
-3.14882968052089
 30
0.0
 11
21.89678119064639
 21
-3.007477447038894
 31
0.0
  0
LINE
  5
16B
330
2
100
AcDbEntity
  8
GAIKEI
 62
     1
100
AcDbLine
 10
21.77059427776068
 20
-3.16242124143261
 30
0.0
 11
21.91051582062029
 21
-3.022499698572943
 31
0.0
  0
LINE
  5
16C
330
2
100
AcDbEntity
  8
GAIKEI
 62
     1
100
AcDbLine
 10
21.78819177241475
 20
-3.173008352037555
 30
0.0
 11
21.92110293122518
 21
-3.040097193227069
 31
0.0
  0
LINE
  5
16D
330
2
100
AcDbEntity
  8
GAIKEI
 62
     1
100
AcDbLine
 10
21.80907985550017
 20
-3.180161805148969
 30
0.0
 11
21.92839945339894
 21
-3.060985276312436
 31
0.0
  0
LINE
  5
16E
330
2
100
AcDbEntity
  8
GAIKEI
 62
     1
100
AcDbLine
 10
21.83540456295022
 20
-3.182307841082405
 30
0.0
 11
21.93040242027008
 21
-3.087166914700304
 31
0.0
  0
LINE
  5
16F
330
2
100
AcDbEntity
  8
GAIKEI
 62
     1
100
AcDbLine
 10
21.87303172631643
 20
-3.173008352037555
 30
0.0
 11
21.92110293122518
 21
-3.12493714712869
 31
0.0
  0
CIRCLE
  5
170
330
2
100
AcDbEntity
  8
GAIKEI
 62
     1
100
AcDbCircle
 10
21.83054021483441
 20
-3.082588704708967
 30
0.0
 40
0.1000052744978841
  0
CIRCLE
  5
171
330
2
100
AcDbEntity
  8
GAIKEI
 62
     1
100
AcDbCircle
 10
21.83054021483441
 20
-2.48241398865943
 30
0.0
 40
0.2000105489957682
  0
CIRCLE
  5
172
330
2
100
AcDbEntity
  8
GAIKEI
 62
     1
100
AcDbCircle
 10
21.83054021483441
 20
-3.682477282634039
 30
0.0
 40
0.2000105489957682
  0
CIRCLE
  5
173
330
2
100
AcDbEntity
  8
GAIKEI
 62
     1
100
AcDbCircle
 10
22.45060153053374
 20
-0.4824515677640023
 30
0.0
 40
0.3500899952737088
  0
CIRCLE
  5
174
330
2
100
AcDbEntity
  8
GAIKEI
 62
     1
100
AcDbCircle
 10
22.45045846147151
 20
-0.4824515677640023
 30
0.0
 40
0.6000316469873047
  0
CIRCLE
  5
175
330
2
100
AcDbEntity
  8
GAIKEI
 62
     1
100
AcDbCircle
 10
22.45052999600263
 20
-0.4824515677640023
 30
0.0
 40
0.7999706614519586
  0
LINE
  5
176
330
2
100
AcDbEntity
  8
GAIKEI
 62
     1
100
AcDbLine
 10
21.71050527162448
 20
-2.48241398865943
 30
0.0
 11
21.95043208898211
 21
-2.48241398865943
 31
0.0
  0
LINE
  5
177
330
2
100
AcDbEntity
  8
GAIKEI
 62
     1
100
AcDbLine
 10
21.71050527162448
 20
-3.682477282634039
 30
0.0
 11
21.95043208898211
 21
-3.682477282634039
 31
0.0
  0
LINE
  5
178
330
2
100
AcDbEntity
  8
GAIKEI
100
AcDbLine
 10
22.75047428496522
 20
12.57760777778585
 30
0.0
 11
22.75047428496522
 21
0.717754795272839
 31
0.0
  0
LINE
  5
179
330
2
100
AcDbEntity
  8
GAIKEI
 62
     1
100
AcDbLine
 10
21.83068328389665
 20
-3.562299270361933
 30
0.0
 11
21.83068328389665
 21
-3.802512225843969
 31
0.0
  0
LINE
  5
17A
330
2
100
AcDbEntity
  8
GAIKEI
 62
     1
100
AcDbLine
 10
21.83068328389665
 20
-3.282456184642541
 30
0.0
 11
21.83068328389665
 21
-3.48246673363829
 31
0.0
  0
LINE
  5
17B
330
2
100
AcDbEntity
  8
GAIKEI
 62
     1
100
AcDbLine
 10
21.83068328389665
 20
-2.682424537655236
 30
0.0
 11
21.83068328389665
 21
-2.982440361148888
 31
0.0
  0
LINE
  5
17C
330
2
100
AcDbEntity
  8
GAIKEI
100
AcDbLine
 10
21.25068130562137
 20
-4.482233340492683
 30
0.0
 11
21.25068130562137
 21
0.717754795272839
 31
0.0
  0
LINE
  5
17D
330
2
100
AcDbEntity
  8
GAIKEI
 62
     1
100
AcDbLine
 10
21.44668592087477
 20
-4.286514863363748
 30
0.0
 11
21.44668592087477
 21
0.5216071109572625
 31
0.0
  0
LINE
  5
17E
330
2
100
AcDbEntity
  8
GAIKEI
100
AcDbLine
 10
22.75061735402734
 20
37.26766200618019
 30
0.0
 11
22.75061735402734
 21
37.81776255044966
 31
0.0
  0
ARC
  5
17F
330
2
100
AcDbEntity
  8
GAIKEI
 62
     1
100
AcDbCircle
 10
22.80050228381522
 20
37.26775899014123
 30
0.0
 40
0.0498850240636075
100
AcDbArc
 50
180.1113916501934
 51
269.9708707614197
  0
LINE
  5
180
330
2
100
AcDbEntity
  8
GAIKEI
 62
     1
100
AcDbLine
 10
22.80047692221417
 20
37.21787397252456
 30
0.0
 11
22.80047692221412
 21
37.11779716349557
 31
0.0
  0
ARC
  5
181
330
2
100
AcDbEntity
  8
GAIKEI
 62
     1
100
AcDbCircle
 10
22.80057862273755
 20
37.06783598924565
 30
0.0
 40
0.0499612777601787
100
AcDbArc
 50
90.11663061979621
 51
179.9655138528355
  0
LINE
  5
182
330
2
100
AcDbEntity
  8
GAIKEI
100
AcDbLine
 10
22.74445212067441
 20
30.72344586380223
 30
0.0
 11
22.75061735402734
 21
37.06786606077773
 31
0.0
  0
LINE
  5
183
330
2
100
AcDbEntity
  8
GAIKEI
100
AcDbLine
 10
24.15690424235557
 20
30.51803639593996
 30
0.0
 11
24.84432722085696
 21
22.91728457201594
 31
0.0
  0
ARC
  5
184
330
2
100
AcDbEntity
  8
GAIKEI
100
AcDbCircle
 10
24.37067025575881
 20
12.97740392135898
 30
0.0
 40
0.3997961482510178
100
AcDbArc
 50
270.008764840679
 51
0.0219869858419574
  0
LINE
  5
185
330
2
100
AcDbEntity
  8
GAIKEI
100
AcDbLine
 10
24.77046637457274
 20
14.11760316361594
 30
0.0
 11
24.77046637457274
 21
12.97755734124629
 31
0.0
  0
ARC
  5
186
330
2
100
AcDbEntity
  8
GAIKEI
 62
     1
100
AcDbCircle
 10
24.65064603495604
 20
-0.2823695097321206
 30
0.0
 40
0.2199686947999442
100
AcDbArc
 50
359.9813738675746
 51
180.0186261324253
  0
ARC
  5
187
330
2
100
AcDbEntity
  8
GAIKEI
 62
     1
100
AcDbCircle
 10
24.65064603495604
 20
-0.6823905572292404
 30
0.0
 40
0.2199686948001053
100
AcDbArc
 50
179.9813737384816
 51
0.0186262615183463
  0
LINE
  5
188
330
2
100
AcDbEntity
  8
GAIKEI
 62
     1
100
AcDbLine
 10
24.87061471813276
 20
-0.2824410187682531
 30
0.0
 11
24.87061471813276
 21
-0.6823190476975185
 31
0.0
  0
LINE
  5
189
330
2
100
AcDbEntity
  8
GAIKEI
 62
     1
100
AcDbLine
 10
24.43067735177944
 20
-0.2824410187682531
 30
0.0
 11
24.43067735177944
 21
-0.6969831639737265
 31
0.0
  0
ARC
  5
18A
330
2
100
AcDbEntity
  8
GAIKEI
 62
     1
100
AcDbCircle
 10
24.65071756948721
 20
-0.1822927134493568
 30
0.0
 40
0.3000158575882114
100
AcDbArc
 50
359.9726845682189
 51
180.0273154317825
  0
ARC
  5
18B
330
2
100
AcDbEntity
  8
GAIKEI
 62
     1
100
AcDbCircle
 10
24.65071756948733
 20
-0.7823242848914163
 30
0.0
 40
0.3000158576243503
100
AcDbArc
 50
180.0273298591053
 51
359.9726701408946
  0
LINE
  5
18C
330
2
100
AcDbEntity
  8
GAIKEI
 62
     1
100
AcDbLine
 10
24.95073339298087
 20
-0.1824357442703501
 30
0.0
 11
24.95073339298087
 21
-0.7824673912576543
 31
0.0
  0
LINE
  5
18D
330
2
100
AcDbEntity
  8
GAIKEI
 62
     1
100
AcDbLine
 10
24.35070174599356
 20
-0.1824357442703501
 30
0.0
 11
24.35070174599356
 21
-0.7824673912576543
 31
0.0
  0
CIRCLE
  5
18E
330
2
100
AcDbEntity
  8
GAIKEI
 62
     1
100
AcDbCircle
 10
24.15302276798936
 20
-0.242416719394356
 30
0.0
 40
0.0768281878657326
  0
CIRCLE
  5
18F
330
2
100
AcDbEntity
  8
GAIKEI
 62
     1
100
AcDbCircle
 10
24.15133055043329
 20
-0.4810255804431734
 30
0.0
 40
0.0768281878657326
  0
CIRCLE
  5
190
330
2
100
AcDbEntity
  8
GAIKEI
 62
     1
100
AcDbCircle
 10
24.15054790487086
 20
-0.7198250525042056
 30
0.0
 40
0.0768281878657326
  0
ARC
  5
191
330
2
100
AcDbEntity
  8
GAIKEI
 62
     1
100
AcDbCircle
 10
23.65059327235083
 20
-3.082374101115675
 30
0.0
 40
0.8999759387942567
100
AcDbArc
 50
270.004555273612
 51
89.9954447263844
  0
LINE
  5
192
330
2
100
AcDbEntity
  8
GAIKEI
100
AcDbLine
 10
26.65053692132041
 20
-4.98254585110655
 30
0.0
 11
26.65053692132041
 21
14.11760316361594
 31
0.0
  0
LINE
  5
193
330
2
100
AcDbEntity
  8
GAIKEI
100
AcDbLine
 10
26.59059098424656
 20
14.11760316361594
 30
0.0
 11
26.59059098424656
 21
14.21753690358272
 31
0.0
  0
ARC
  5
194
330
2
100
AcDbEntity
  8
GAIKEI
 62
     1
100
AcDbCircle
 10
25.65069963394599
 20
15.19748912413755
 30
0.0
 40
0.1000763621429994
100
AcDbArc
 50
0.1634315561339748
 51
90.12335401354993
  0
LINE
  5
195
330
2
100
AcDbEntity
  8
GAIKEI
 62
     1
100
AcDbLine
 10
25.75077558896398
 20
15.1176559085948
 30
0.0
 11
25.75077558896398
 21
15.19777458344291
 31
0.0
  0
LINE
  5
196
330
2
100
AcDbEntity
  8
GAIKEI
 62
     1
100
AcDbLine
 10
25.65048417634161
 20
15.43748679720713
 30
0.0
 11
25.65048417634161
 21
15.1176559085948
 31
0.0
  0
LINE
  5
197
330
2
100
AcDbEntity
  8
GAIKEI
 62
     1
100
AcDbLine
 10
24.81066878105902
 20
15.43748679720713
 30
0.0
 11
25.65048417634161
 21
15.43748679720713
 31
0.0
  0
LINE
  5
198
330
2
100
AcDbEntity
  8
GAIKEI
100
AcDbLine
 10
26.65053692132041
 20
14.21753690358272
 30
0.0
 11
26.61348203420313
 21
14.92823247020394
 31
0.0
  0
ARC
  5
199
330
2
100
AcDbEntity
  8
GAIKEI
100
AcDbCircle
 10
26.41347677198606
 20
14.9173550784995
 30
0.0
 40
0.2003008301650627
100
AcDbArc
 50
3.112994423948066
 51
90.00151227581897
  0
ARC
  5
19A
330
2
100
AcDbEntity
  8
GAIKEI
100
AcDbCircle
 10
26.49071615397391
 20
-5.722486363424451
 30
0.0
 40
0.1598208205372452
100
AcDbArc
 50
270.004526005276
 51
0.0467453823329601
  0
LINE
  5
19B
330
2
100
AcDbEntity
  8
GAIKEI
100
AcDbLine
 10
26.65053692132041
 20
-5.722355971891346
 30
0.0
 11
26.65053692132041
 21
-5.082264987479987
 31
0.0
  0
LINE
  5
19C
330
2
100
AcDbEntity
  8
GAIKEI
100
AcDbLine
 10
26.59059098424656
 20
-4.98254585110655
 30
0.0
 11
26.59059098424656
 21
-5.082264987479987
 31
0.0
  0
LINE
  5
19D
330
2
100
AcDbEntity
  8
GAIKEI
100
AcDbLine
 10
24.84650758114721
 20
18.51754910339841
 30
0.0
 11
24.75072284398506
 21
18.41761536343162
 31
0.0
  0
LINE
  5
19E
330
2
100
AcDbEntity
  8
GAIKEI
100
AcDbLine
 10
24.55071229498937
 20
18.41761536343162
 30
0.0
 11
24.55071229498931
 21
18.21767634896693
 31
0.0
  0
LINE
  5
19F
330
2
100
AcDbEntity
  8
GAIKEI
100
AcDbLine
 10
24.76066614381001
 20
17.11754679495911
 30
0.0
 11
24.76066614381001
 21
17.01746998593015
 31
0.0
  0
ARC
  5
1A0
330
2
100
AcDbEntity
  8
GAIKEI
100
AcDbCircle
 10
24.86038873305684
 20
17.87774797923967
 30
0.0
 40
0.0398412811309593
100
AcDbArc
 50
359.9946472043563
 51
90.21071379256316
  0
LINE
  5
1A1
330
2
100
AcDbEntity
  8
GAIKEI
100
AcDbLine
 10
24.81045417746545
 20
17.91758899094222
 30
0.0
 11
24.81045417746545
 21
18.01766579997118
 31
0.0
  0
ARC
  5
1A2
330
2
100
AcDbEntity
  8
GAIKEI
100
AcDbCircle
 10
24.61047218788851
 20
18.01769435938999
 30
0.0
 40
0.1999819916162252
100
AcDbArc
 50
359.9918175923972
 51
90.00818240758659
  0
LINE
  5
1A3
330
2
100
AcDbEntity
  8
GAIKEI
100
AcDbLine
 10
24.90023001401393
 20
17.15753459785205
 30
0.0
 11
24.90023001401393
 21
17.87774425711151
 31
0.0
  0
ARC
  5
1A4
330
2
100
AcDbEntity
  8
GAIKEI
100
AcDbCircle
 10
24.86035844775178
 20
17.15741836122129
 30
0.0
 40
0.0398717356927353
100
AcDbArc
 50
269.8329674472347
 51
0.1670325529082782
  0
ARC
  5
1A5
330
2
100
AcDbEntity
  8
GAIKEI
100
AcDbCircle
 10
24.71022633485628
 20
15.4178227656686
 30
0.0
 40
0.1002279564055425
100
AcDbArc
 50
270.086339084417
 51
359.9136609156318
  0
LINE
  5
1A6
330
2
100
AcDbEntity
  8
GAIKEI
100
AcDbLine
 10
24.81045417746556
 20
15.41767173208845
 30
0.0
 11
24.81045417746556
 21
17.01746998593009
 31
0.0
  0
LINE
  5
1A7
330
2
100
AcDbEntity
  8
GAIKEI
100
AcDbLine
 10
24.40041824511811
 20
15.31759492305943
 30
0.0
 11
24.40041824511811
 21
15.1176559085948
 31
0.0
  0
LINE
  5
1A8
330
2
100
AcDbEntity
  8
GAIKEI
 62
     1
100
AcDbLine
 10
24.8305553807087
 20
17.8175121819132
 30
0.0
 11
24.8305553807087
 21
17.21762360398813
 31
0.0
  0
LINE
  5
1A9
330
2
100
AcDbEntity
  8
GAIKEI
 62
     1
100
AcDbLine
 10
24.76066614381001
 20
17.8175121819132
 30
0.0
 11
24.76066614381001
 21
17.21762360398813
 31
0.0
  0
LINE
  5
1AA
330
2
100
AcDbEntity
  8
GAIKEI
 62
     1
100
AcDbLine
 10
24.660589334781
 20
17.8175121819132
 30
0.0
 11
24.660589334781
 21
17.21762360398813
 31
0.0
  0
LINE
  5
1AB
330
2
100
AcDbEntity
  8
GAIKEI
 62
     1
100
AcDbLine
 10
24.53068262627734
 20
17.8175121819132
 30
0.0
 11
24.53068262627734
 21
17.21762360398813
 31
0.0
  0
LINE
  5
1AC
330
2
100
AcDbEntity
  8
GAIKEI
 62
     1
100
AcDbLine
 10
24.40041824511811
 20
17.8175121819132
 30
0.0
 11
24.40041824511811
 21
17.21762360398813
 31
0.0
  0
LINE
  5
1AD
330
2
100
AcDbEntity
  8
GAIKEI
 62
     1
100
AcDbLine
 10
24.25055340243343
 20
17.8175121819132
 30
0.0
 11
24.25055340243343
 21
17.21762360398813
 31
0.0
  0
LINE
  5
1AE
330
2
100
AcDbEntity
  8
GAIKEI
 62
     1
100
AcDbLine
 10
24.05054285343773
 20
17.8175121819132
 30
0.0
 11
24.05054285343773
 21
17.21762360398813
 31
0.0
  0
LINE
  5
1AF
330
2
100
AcDbEntity
  8
GAIKEI
 62
     1
100
AcDbLine
 10
23.85046076991081
 20
17.8175121819132
 30
0.0
 11
23.85046076991081
 21
17.21762360398813
 31
0.0
  0
LINE
  5
1B0
330
2
100
AcDbEntity
  8
GAIKEI
 62
     1
100
AcDbLine
 10
23.650450220915
 20
17.8175121819132
 30
0.0
 11
23.650450220915
 21
17.21762360398813
 31
0.0
  0
LINE
  5
1B1
330
2
100
AcDbEntity
  8
GAIKEI
100
AcDbLine
 10
24.84650758114721
 20
18.51754910339841
 30
0.0
 11
24.84432722085696
 21
22.91728457201594
 31
0.0
  0
LINE
  5
1B2
330
2
100
AcDbEntity
  8
GAIKEI
 62
     1
100
AcDbLine
 10
24.46057878578519
 20
-0.5253722864325994
 30
0.0
 11
24.46429858140324
 21
-0.486171363381942
 31
0.0
  0
LINE
  5
1B3
330
2
100
AcDbEntity
  8
GAIKEI
 62
     1
100
AcDbLine
 10
24.46429858140324
 20
-0.486171363381942
 30
0.0
 11
24.47545796825706
 21
-0.4485442000157889
 31
0.0
  0
LINE
  5
1B4
330
2
100
AcDbEntity
  8
GAIKEI
 62
     1
100
AcDbLine
 10
24.47545796825706
 20
-0.4485442000157889
 30
0.0
 11
24.49362773916006
 21
-0.4143506941431099
 31
0.0
  0
LINE
  5
1B5
330
2
100
AcDbEntity
  8
GAIKEI
 62
     1
100
AcDbLine
 10
24.49362773916006
 20
-0.4143506941431099
 30
0.0
 11
24.5176633416145
 21
-0.3848784673240004
 31
0.0
  0
LINE
  5
1B6
330
2
100
AcDbEntity
  8
GAIKEI
 62
     1
100
AcDbLine
 10
24.5176633416145
 20
-0.3848784673240004
 30
0.0
 11
24.54670636124696
 21
-0.3608428648695678
 31
0.0
  0
LINE
  5
1B7
330
2
100
AcDbEntity
  8
GAIKEI
 62
     1
100
AcDbLine
 10
24.54670636124696
 20
-0.3608428648695678
 30
0.0
 11
24.57918303837291
 21
-0.343102301153209
 31
0.0
  0
LINE
  5
1B8
330
2
100
AcDbEntity
  8
GAIKEI
 62
     1
100
AcDbLine
 10
24.57918303837291
 20
-0.343102301153209
 30
0.0
 11
24.61437802768116
 21
-0.3320859833616225
 31
0.0
  0
LINE
  5
1B9
330
2
100
AcDbEntity
  8
GAIKEI
 62
     1
100
AcDbLine
 10
24.61437802768116
 20
-0.3320859833616225
 30
0.0
 11
24.65057450042504
 21
-0.3286523258680916
 31
0.0
  0
LINE
  5
1BA
330
2
100
AcDbEntity
  8
GAIKEI
 62
     1
100
AcDbLine
 10
24.65057450042504
 20
-0.3286523258680916
 30
0.0
 11
24.68705711129338
 21
-0.3320859833616225
 31
0.0
  0
LINE
  5
1BB
330
2
100
AcDbEntity
  8
GAIKEI
 62
     1
100
AcDbLine
 10
24.68705711129338
 20
-0.3320859833616225
 30
0.0
 11
24.72196596247717
 21
-0.343102301153209
 31
0.0
  0
LINE
  5
1BC
330
2
100
AcDbEntity
  8
GAIKEI
 62
     1
100
AcDbLine
 10
24.72196596247717
 20
-0.343102301153209
 30
0.0
 11
24.75472877772758
 21
-0.3608428648695678
 31
0.0
  0
LINE
  5
1BD
330
2
100
AcDbEntity
  8
GAIKEI
 62
     1
100
AcDbLine
 10
24.75472877772758
 20
-0.3608428648695678
 30
0.0
 11
24.78348565923547
 21
-0.3848784673240004
 31
0.0
  0
LINE
  5
1BE
330
2
100
AcDbEntity
  8
GAIKEI
 62
     1
100
AcDbLine
 10
24.78348565923547
 20
-0.3848784673240004
 30
0.0
 11
24.8075212616899
 21
-0.4143506941431099
 31
0.0
  0
LINE
  5
1BF
330
2
100
AcDbEntity
  8
GAIKEI
 62
     1
100
AcDbLine
 10
24.8075212616899
 20
-0.4143506941431099
 30
0.0
 11
24.82554796353078
 21
-0.4485442000157889
 31
0.0
  0
LINE
  5
1C0
330
2
100
AcDbEntity
  8
GAIKEI
 62
     1
100
AcDbLine
 10
24.82554796353078
 20
-0.4485442000157889
 30
0.0
 11
24.8367073503846
 21
-0.486171363381942
 31
0.0
  0
LINE
  5
1C1
330
2
100
AcDbEntity
  8
GAIKEI
 62
     1
100
AcDbLine
 10
24.8367073503846
 20
-0.486171363381942
 30
0.0
 11
24.84071328412701
 21
-0.5253722864325994
 31
0.0
  0
LINE
  5
1C2
330
2
100
AcDbEntity
  8
GAIKEI
 62
     1
100
AcDbLine
 10
24.84071328412701
 20
-0.5253722864325994
 30
0.0
 11
24.84071328412701
 21
-0.696769022982636
 31
0.0
  0
LINE
  5
1C3
330
2
100
AcDbEntity
  8
GAIKEI
 62
     1
100
AcDbLine
 10
24.84071328412701
 20
-0.696769022982636
 30
0.0
 11
24.83956873162914
 21
-0.6777408377062386
 31
0.0
  0
LINE
  5
1C4
330
2
100
AcDbEntity
  8
GAIKEI
 62
     1
100
AcDbLine
 10
24.83956873162914
 20
-0.6777408377062386
 30
0.0
 11
24.83127072601987
 21
-0.6399706052778527
 31
0.0
  0
LINE
  5
1C5
330
2
100
AcDbEntity
  8
GAIKEI
 62
     1
100
AcDbLine
 10
24.83127072601987
 20
-0.6399706052778527
 30
0.0
 11
24.81524699105025
 21
-0.6052048231562424
 31
0.0
  0
LINE
  5
1C6
330
2
100
AcDbEntity
  8
GAIKEI
 62
     1
100
AcDbLine
 10
24.81524699105025
 20
-0.6052048231562424
 30
0.0
 11
24.79192673390698
 21
-0.5740157675903959
 31
0.0
  0
LINE
  5
1C7
330
2
100
AcDbEntity
  8
GAIKEI
 62
     1
100
AcDbLine
 10
24.79192673390698
 20
-0.5740157675903959
 30
0.0
 11
24.76216836896346
 21
-0.5481202673269934
 31
0.0
  0
LINE
  5
1C8
330
2
100
AcDbEntity
  8
GAIKEI
 62
     1
100
AcDbLine
 10
24.76216836896346
 20
-0.5481202673269934
 30
0.0
 11
24.72768872496626
 21
-0.529092082050596
 31
0.0
  0
LINE
  5
1C9
330
2
100
AcDbEntity
  8
GAIKEI
 62
     1
100
AcDbLine
 10
24.72768872496626
 20
-0.529092082050596
 30
0.0
 11
24.68991849253793
 21
-0.5172173498855557
 31
0.0
  0
LINE
  5
1CA
330
2
100
AcDbEntity
  8
GAIKEI
 62
     1
100
AcDbLine
 10
24.68991849253793
 20
-0.5172173498855557
 30
0.0
 11
24.65057450042504
 21
-0.5133544852053831
 31
0.0
  0
LINE
  5
1CB
330
2
100
AcDbEntity
  8
GAIKEI
 62
     1
100
AcDbLine
 10
24.65057450042504
 20
-0.5133544852053831
 30
0.0
 11
24.61094437018757
 21
-0.5172173498855557
 31
0.0
  0
LINE
  5
1CC
330
2
100
AcDbEntity
  8
GAIKEI
 62
     1
100
AcDbLine
 10
24.61094437018757
 20
-0.5172173498855557
 30
0.0
 11
24.57317413775924
 21
-0.529092082050596
 31
0.0
  0
LINE
  5
1CD
330
2
100
AcDbEntity
  8
GAIKEI
 62
     1
100
AcDbLine
 10
24.57317413775924
 20
-0.529092082050596
 30
0.0
 11
24.53883756282439
 21
-0.5481202673269934
 31
0.0
  0
LINE
  5
1CE
330
2
100
AcDbEntity
  8
GAIKEI
 62
     1
100
AcDbLine
 10
24.53883756282439
 20
-0.5481202673269934
 30
0.0
 11
24.50950840506745
 21
-0.5740157675903959
 31
0.0
  0
LINE
  5
1CF
330
2
100
AcDbEntity
  8
GAIKEI
 62
     1
100
AcDbLine
 10
24.50950840506745
 20
-0.5740157675903959
 30
0.0
 11
24.48618814792418
 21
-0.6052048231562424
 31
0.0
  0
LINE
  5
1D0
330
2
100
AcDbEntity
  8
GAIKEI
 62
     1
100
AcDbLine
 10
24.48618814792418
 20
-0.6052048231562424
 30
0.0
 11
24.4698782748301
 21
-0.6399706052778527
 31
0.0
  0
LINE
  5
1D1
330
2
100
AcDbEntity
  8
GAIKEI
 62
     1
100
AcDbLine
 10
24.4698782748301
 20
-0.6399706052778527
 30
0.0
 11
24.46172333828305
 21
-0.6777408377062386
 31
0.0
  0
LINE
  5
1D2
330
2
100
AcDbEntity
  8
GAIKEI
 62
     1
100
AcDbLine
 10
24.46172333828305
 20
-0.6777408377062386
 30
0.0
 11
24.46057878578519
 21
-0.696769022982636
 31
0.0
  0
LINE
  5
1D3
330
2
100
AcDbEntity
  8
GAIKEI
 62
     1
100
AcDbLine
 10
24.46057878578519
 20
-0.696769022982636
 30
0.0
 11
24.46057878578519
 21
-0.5253722864325994
 31
0.0
  0
LINE
  5
1D4
330
2
100
AcDbEntity
  8
GAIKEI
 62
     1
100
AcDbLine
 10
24.70064867220505
 20
-0.0701265304208221
 30
0.0
 11
24.70064867220505
 21
-0.1423764068462958
 31
0.0
  0
LINE
  5
1D5
330
2
100
AcDbEntity
  8
GAIKEI
 62
     1
100
AcDbLine
 10
24.70064867220505
 20
-0.1423764068462958
 30
0.0
 11
24.60050032864491
 21
-0.1423764068462958
 31
0.0
  0
LINE
  5
1D6
330
2
100
AcDbEntity
  8
GAIKEI
 62
     1
100
AcDbLine
 10
24.60050032864491
 20
-0.1423764068462958
 30
0.0
 11
24.60050032864491
 21
-0.0701265304208221
 31
0.0
  0
LINE
  5
1D7
330
2
100
AcDbEntity
  8
GAIKEI
 62
     1
100
AcDbLine
 10
24.65057450042504
 20
-0.8096505130810953
 30
0.0
 11
24.67375168850607
 21
-0.8066460627743197
 31
0.0
  0
LINE
  5
1D8
330
2
100
AcDbEntity
  8
GAIKEI
 62
     1
100
AcDbLine
 10
24.67375168850607
 20
-0.8066460627743197
 30
0.0
 11
24.69564125502702
 21
-0.7979188499783448
 31
0.0
  0
LINE
  5
1D9
330
2
100
AcDbEntity
  8
GAIKEI
 62
     1
100
AcDbLine
 10
24.69564125502702
 20
-0.7979188499783448
 30
0.0
 11
24.71424023311683
 21
-0.7840411509421586
 31
0.0
  0
LINE
  5
1DA
330
2
100
AcDbEntity
  8
GAIKEI
 62
     1
100
AcDbLine
 10
24.71424023311683
 20
-0.7840411509421586
 30
0.0
 11
24.72840407027742
 21
-0.7660144491013341
 31
0.0
  0
LINE
  5
1DB
330
2
100
AcDbEntity
  8
GAIKEI
 62
     1
100
AcDbLine
 10
24.72840407027742
 20
-0.7660144491013341
 30
0.0
 11
24.7375604902601
 21
-0.7454125041404325
 31
0.0
  0
LINE
  5
1DC
330
2
100
AcDbEntity
  8
GAIKEI
 62
     1
100
AcDbLine
 10
24.7375604902601
 20
-0.7454125041404325
 30
0.0
 11
24.74056494056687
 21
-0.7226645232460385
 31
0.0
  0
LINE
  5
1DD
330
2
100
AcDbEntity
  8
GAIKEI
 62
     1
100
AcDbLine
 10
24.74056494056687
 20
-0.7226645232460385
 30
0.0
 11
24.7375604902601
 21
-0.7000596114138773
 31
0.0
  0
LINE
  5
1DE
330
2
100
AcDbEntity
  8
GAIKEI
 62
     1
100
AcDbLine
 10
24.7375604902601
 20
-0.7000596114138773
 30
0.0
 11
24.72840407027742
 21
-0.6791715283285101
 31
0.0
  0
LINE
  5
1DF
330
2
100
AcDbEntity
  8
GAIKEI
 62
     1
100
AcDbLine
 10
24.72840407027742
 20
-0.6791715283285101
 30
0.0
 11
24.71424023311683
 21
-0.6612878955499184
 31
0.0
  0
LINE
  5
1E0
330
2
100
AcDbEntity
  8
GAIKEI
 62
     1
100
AcDbLine
 10
24.71424023311683
 20
-0.6612878955499184
 30
0.0
 11
24.69564125502702
 21
-0.6475532655759651
 31
0.0
  0
LINE
  5
1E1
330
2
100
AcDbEntity
  8
GAIKEI
 62
     1
100
AcDbLine
 10
24.69564125502702
 20
-0.6475532655759651
 30
0.0
 11
24.67375168850607
 21
-0.6385399146555244
 31
0.0
  0
LINE
  5
1E2
330
2
100
AcDbEntity
  8
GAIKEI
 62
     1
100
AcDbLine
 10
24.67375168850607
 20
-0.6385399146555244
 30
0.0
 11
24.65057450042504
 21
-0.6358216024732144
 31
0.0
  0
LINE
  5
1E3
330
2
100
AcDbEntity
  8
GAIKEI
 62
     1
100
AcDbLine
 10
24.65057450042504
 20
-0.6358216024732144
 30
0.0
 11
24.627397312344
 21
-0.6385399146555244
 31
0.0
  0
LINE
  5
1E4
330
2
100
AcDbEntity
  8
GAIKEI
 62
     1
100
AcDbLine
 10
24.627397312344
 20
-0.6385399146555244
 30
0.0
 11
24.60550774582295
 21
-0.6475532655759651
 31
0.0
  0
LINE
  5
1E5
330
2
100
AcDbEntity
  8
GAIKEI
 62
     1
100
AcDbLine
 10
24.60550774582295
 20
-0.6475532655759651
 30
0.0
 11
24.58690876773325
 21
-0.6612878955499184
 31
0.0
  0
LINE
  5
1E6
330
2
100
AcDbEntity
  8
GAIKEI
 62
     1
100
AcDbLine
 10
24.58690876773325
 20
-0.6612878955499184
 30
0.0
 11
24.57274493057254
 21
-0.6791715283285101
 31
0.0
  0
LINE
  5
1E7
330
2
100
AcDbEntity
  8
GAIKEI
 62
     1
100
AcDbLine
 10
24.57274493057254
 20
-0.6791715283285101
 30
0.0
 11
24.56358851058998
 21
-0.7000596114138773
 31
0.0
  0
LINE
  5
1E8
330
2
100
AcDbEntity
  8
GAIKEI
 62
     1
100
AcDbLine
 10
24.56358851058998
 20
-0.7000596114138773
 30
0.0
 11
24.56058406028321
 21
-0.7226645232460385
 31
0.0
  0
LINE
  5
1E9
330
2
100
AcDbEntity
  8
GAIKEI
 62
     1
100
AcDbLine
 10
24.56058406028321
 20
-0.7226645232460385
 30
0.0
 11
24.56358851058998
 21
-0.7454125041404325
 31
0.0
  0
LINE
  5
1EA
330
2
100
AcDbEntity
  8
GAIKEI
 62
     1
100
AcDbLine
 10
24.56358851058998
 20
-0.7454125041404325
 30
0.0
 11
24.57274493057254
 21
-0.7660144491013341
 31
0.0
  0
LINE
  5
1EB
330
2
100
AcDbEntity
  8
GAIKEI
 62
     1
100
AcDbLine
 10
24.57274493057254
 20
-0.7660144491013341
 30
0.0
 11
24.58690876773325
 21
-0.7840411509421586
 31
0.0
  0
LINE
  5
1EC
330
2
100
AcDbEntity
  8
GAIKEI
 62
     1
100
AcDbLine
 10
24.58690876773325
 20
-0.7840411509421586
 30
0.0
 11
24.60550774582295
 21
-0.7979188499783448
 31
0.0
  0
LINE
  5
1ED
330
2
100
AcDbEntity
  8
GAIKEI
 62
     1
100
AcDbLine
 10
24.60550774582295
 20
-0.7979188499783448
 30
0.0
 11
24.627397312344
 21
-0.8066460627743197
 31
0.0
  0
LINE
  5
1EE
330
2
100
AcDbEntity
  8
GAIKEI
 62
     1
100
AcDbLine
 10
24.627397312344
 20
-0.8066460627743197
 30
0.0
 11
24.65057450042504
 21
-0.8096505130810953
 31
0.0
  0
LINE
  5
1EF
330
2
100
AcDbEntity
  8
GAIKEI
 62
     1
100
AcDbLine
 10
24.4605787857853
 20
-0.696769022982636
 30
0.0
 11
24.46172333828305
 21
-0.7160833463834991
 31
0.0
  0
LINE
  5
1F0
330
2
100
AcDbEntity
  8
GAIKEI
 62
     1
100
AcDbLine
 10
24.46172333828305
 20
-0.7160833463834991
 30
0.0
 11
24.4698782748301
 21
-0.7535674406874762
 31
0.0
  0
LINE
  5
1F1
330
2
100
AcDbEntity
  8
GAIKEI
 62
     1
100
AcDbLine
 10
24.4698782748301
 20
-0.7535674406874762
 30
0.0
 11
24.48618814792418
 21
-0.7886193609334953
 31
0.0
  0
LINE
  5
1F2
330
2
100
AcDbEntity
  8
GAIKEI
 62
     1
100
AcDbLine
 10
24.48618814792418
 20
-0.7886193609334953
 30
0.0
 11
24.50950840506745
 21
-0.8196653474371089
 31
0.0
  0
LINE
  5
1F3
330
2
100
AcDbEntity
  8
GAIKEI
 62
     1
100
AcDbLine
 10
24.50950840506745
 20
-0.8196653474371089
 30
0.0
 11
24.53883756282439
 21
-0.8451316405138129
 31
0.0
  0
LINE
  5
1F4
330
2
100
AcDbEntity
  8
GAIKEI
 62
     1
100
AcDbLine
 10
24.53883756282439
 20
-0.8451316405138129
 30
0.0
 11
24.57317413775924
 21
-0.8643028948525
 31
0.0
  0
LINE
  5
1F5
330
2
100
AcDbEntity
  8
GAIKEI
 62
     1
100
AcDbLine
 10
24.57317413775924
 20
-0.8643028948525
 30
0.0
 11
24.61094437018757
 21
-0.8763206960797162
 31
0.0
  0
LINE
  5
1F6
330
2
100
AcDbEntity
  8
GAIKEI
 62
     1
100
AcDbLine
 10
24.61094437018757
 20
-0.8763206960797162
 30
0.0
 11
24.65057450042504
 21
-0.8803266298221217
 31
0.0
  0
LINE
  5
1F7
330
2
100
AcDbEntity
  8
GAIKEI
 62
     1
100
AcDbLine
 10
24.65057450042504
 20
-0.8803266298221217
 30
0.0
 11
24.68991849253793
 21
-0.8763206960797162
 31
0.0
  0
LINE
  5
1F8
330
2
100
AcDbEntity
  8
GAIKEI
 62
     1
100
AcDbLine
 10
24.68991849253793
 20
-0.8763206960797162
 30
0.0
 11
24.72768872496626
 21
-0.8643028948525
 31
0.0
  0
LINE
  5
1F9
330
2
100
AcDbEntity
  8
GAIKEI
 62
     1
100
AcDbLine
 10
24.72768872496626
 20
-0.8643028948525
 30
0.0
 11
24.76216836896346
 21
-0.8451316405138129
 31
0.0
  0
LINE
  5
1FA
330
2
100
AcDbEntity
  8
GAIKEI
 62
     1
100
AcDbLine
 10
24.76216836896346
 20
-0.8451316405138129
 30
0.0
 11
24.79192673390698
 21
-0.8196653474371089
 31
0.0
  0
LINE
  5
1FB
330
2
100
AcDbEntity
  8
GAIKEI
 62
     1
100
AcDbLine
 10
24.79192673390698
 20
-0.8196653474371089
 30
0.0
 11
24.81524699105025
 21
-0.7886193609334953
 31
0.0
  0
LINE
  5
1FC
330
2
100
AcDbEntity
  8
GAIKEI
 62
     1
100
AcDbLine
 10
24.81524699105025
 20
-0.7886193609334953
 30
0.0
 11
24.83127072601987
 21
-0.7535674406874762
 31
0.0
  0
LINE
  5
1FD
330
2
100
AcDbEntity
  8
GAIKEI
 62
     1
100
AcDbLine
 10
24.83127072601987
 20
-0.7535674406874762
 30
0.0
 11
24.83956873162914
 21
-0.7160833463834991
 31
0.0
  0
LINE
  5
1FE
330
2
100
AcDbEntity
  8
GAIKEI
 62
     1
100
AcDbLine
 10
24.83956873162914
 20
-0.7160833463834991
 30
0.0
 11
24.84071328412701
 21
-0.696769022982636
 31
0.0
  0
LINE
  5
1FF
330
2
100
AcDbEntity
  8
GAIKEI
100
AcDbLine
 10
25.65048417634161
 20
0.717754795272839
 30
0.0
 11
25.65048417634161
 21
-4.98254585110655
 31
0.0
  0
LINE
  5
200
330
2
100
AcDbEntity
  8
GAIKEI
 62
     1
100
AcDbLine
 10
25.45447956108821
 20
0.5216071109572625
 30
0.0
 11
25.45447956108821
 21
-4.286514863363748
 31
0.0
  0
LINE
  5
201
330
2
100
AcDbEntity
  8
GAIKEI
100
AcDbLine
 10
24.15061966246653
 20
37.26766200618019
 30
0.0
 11
24.15061966246653
 21
37.81776255044966
 31
0.0
  0
ARC
  5
202
330
2
100
AcDbEntity
  8
GAIKEI
 62
     1
100
AcDbCircle
 10
24.10065839375632
 20
37.06783598924565
 30
0.0
 40
0.0499612777601787
100
AcDbArc
 50
0.0344861471645022
 51
89.88336938020379
  0
LINE
  5
203
330
2
100
AcDbEntity
  8
GAIKEI
 62
     1
100
AcDbLine
 10
24.1007600942797
 20
37.21787397252456
 30
0.0
 11
24.10076009427975
 21
37.11779716349557
 31
0.0
  0
ARC
  5
204
330
2
100
AcDbEntity
  8
GAIKEI
 62
     1
100
AcDbCircle
 10
24.10073473267865
 20
37.26775899014123
 30
0.0
 40
0.0498850240636075
100
AcDbArc
 50
270.0291292385803
 51
359.8886083498066
  0
LINE
  5
205
330
2
100
AcDbEntity
  8
GAIKEI
100
AcDbLine
 10
24.15690424235557
 20
30.51803639593996
 30
0.0
 11
24.15061966246664
 21
37.06786606077773
 31
0.0
  0
LINE
  5
206
330
2
100
AcDbEntity
  8
WAKU
 62
     4
100
AcDbLine
 10
-57.65874319477562
 20
-61.99469085264508
 30
0.0
 11
67.34125680522438
 21
-61.99469085264508
 31
0.0
  0
LINE
  5
208
330
2
100
AcDbEntity
  8
WAKU
 62
     4
100
AcDbLine
 10
67.34125680522438
 20
-21.99469085264508
 30
0.0
 11
-57.65874319477562
 21
-21.99469085264508
 31
0.0
  0
LINE
  5
209
330
2
100
AcDbEntity
  8
WAKU
 62
     1
100
AcDbLine
 10
-57.65874319477562
 20
-56.99469085264508
 30
0.0
 11
67.34125680522438
 21
-56.99469085264508
 31
0.0
  0
LINE
  5
20A
330
2
100
AcDbEntity
  8
WAKU
 62
     1
100
AcDbLine
 10
-57.65874319477562
 20
-46.99469085264508
 30
0.0
 11
67.34125680522438
 21
-46.99469085264508
 31
0.0
  0
LINE
  5
20B
330
2
100
AcDbEntity
  8
WAKU
 62
     1
100
AcDbLine
 10
-57.65874319477562
 20
-41.99469085264508
 30
0.0
 11
67.34125680522438
 21
-41.99469085264508
 31
0.0
  0
LINE
  5
20C
330
2
100
AcDbEntity
  8
WAKU
 62
     1
100
AcDbLine
 10
-57.65874319477562
 20
-36.99469085264508
 30
0.0
 11
67.34125680522438
 21
-36.99469085264508
 31
0.0
  0
LINE
  5
20D
330
2
100
AcDbEntity
  8
WAKU
 62
     1
100
AcDbLine
 10
-57.65874319477562
 20
-31.99469085264508
 30
0.0
 11
67.34125680522438
 21
-31.99469085264508
 31
0.0
  0
LINE
  5
20E
330
2
100
AcDbEntity
  8
WAKU
 62
     1
100
AcDbLine
 10
-57.65874319477562
 20
-26.99469085264508
 30
0.0
 11
67.34125680522438
 21
-26.99469085264508
 31
0.0
  0
LINE
  5
20F
330
2
100
AcDbEntity
  8
WAKU
 62
     1
100
AcDbLine
 10
-57.65874319477562
 20
-51.99469085264508
 30
0.0
 11
67.34125680522438
 21
-51.99469085264508
 31
0.0
  0
LINE
  5
210
330
2
100
AcDbEntity
  8
WAKU
 62
     4
100
AcDbLine
 10
-57.65874319477562
 20
-21.99469085264508
 30
0.0
 11
-57.65874319477562
 21
-61.99469085264508
 31
0.0
  0
TEXT
  5
211
330
2
100
AcDbEntity
  8
MOJI1
100
AcDbText
 10
-15.15874319477562
 20
-35.99469085264508
 30
0.0
 40
3.0
  1
スペースダイバシティ受信 ダブルスーパーヘテロダイン方式
 41
0.8
100
AcDbText
  0
TEXT
  5
212
330
2
100
AcDbEntity
  8
MOJI1
100
AcDbText
 10
-15.15874319477562
 20
-40.99469085264508
 30
0.0
 40
3.0
  1
７９７．１２５ＭＨｚ～８０５．８７５ＭＨｚ ７１波
 41
0.9
100
AcDbText
  0
TEXT
  5
213
330
2
100
AcDbEntity
  8
MOJI1
100
AcDbText
 10
-15.15874319477562
 20
-45.99469085264508
 30
0.0
 40
3.0
  1
８０６．１２５ＭＨｚ～８０９．７５０ＭＨｚ ３０波
 41
0.9
100
AcDbText
  0
TEXT
  5
214
330
2
100
AcDbEntity
  8
MOJI1
100
AcDbText
 10
-15.15874319477562
 20
-25.99469085264508
 30
0.0
 40
3.0
  1
ＤＣ１２Ｖ（外部電源端子入力）
100
AcDbText
  0
TEXT
  5
215
330
2
100
AcDbEntity
  8
MOJI1
100
AcDbText
 10
-15.15874319477562
 20
-30.99469085264508
 30
0.0
 40
3.0
  1
単３形乾電池×４個
100
AcDbText
  0
TEXT
  5
216
330
2
100
AcDbEntity
  8
MOJI1
100
AcDbText
 10
-15.15874319477562
 20
-55.99469085264508
 30
0.0
 40
3.0
  1
４０ｄＢ以上
100
AcDbText
  0
TEXT
  5
217
330
2
100
AcDbEntity
  8
MOJI1
100
AcDbText
 10
-15.15874319477562
 20
-60.99469085264513
 30
0.0
 40
3.0
  1
１／２λフレキシブルアンテナ
100
AcDbText
  0
TEXT
  5
218
330
2
100
AcDbEntity
  8
MOJI1
100
AcDbText
 10
-15.15874319477562
 20
-50.99469085264508
 30
0.0
 40
3.0
  1
合計１０１波中の１波
100
AcDbText
  0
TEXT
  5
219
330
2
100
AcDbEntity
  8
MOJI1
100
AcDbText
 10
-55.15874319477562
 20
-55.99469085264508
 30
0.0
 40
3.0
  1
受信感度
100
AcDbText
  0
TEXT
  5
21A
330
2
100
AcDbEntity
  8
MOJI1
100
AcDbText
 10
-55.15874319477562
 20
-60.99469085264508
 30
0.0
 40
3.0
  1
アンテナ形式
100
AcDbText
  0
TEXT
  5
21B
330
2
100
AcDbEntity
  8
MOJI1
100
AcDbText
 10
-55.15874319477564
 20
-25.99469085264508
 30
0.0
 40
3.0
  1
電源（２方式）
100
AcDbText
  0
TEXT
  5
21C
330
2
100
AcDbEntity
  8
MOJI1
100
AcDbText
 10
-55.15874319477562
 20
-40.99469085264508
 30
0.0
 40
3.0
  1
受信周波数
100
AcDbText
  0
TEXT
  5
21D
330
2
100
AcDbEntity
  8
MOJI1
100
AcDbText
 10
-55.15874319477562
 20
-35.99469085264508
 30
0.0
 40
3.0
  1
受信方式
100
AcDbText
  0
LINE
  5
21E
330
2
100
AcDbEntity
  8
WAKU
 62
     4
100
AcDbLine
 10
-17.65874319477562
 20
-61.99469085264508
 30
0.0
 11
-17.65874319477562
 21
-21.99469085264508
 31
0.0
  0
LINE
  5
21F
330
2
100
AcDbEntity
  8
WAKU
 62
     4
100
AcDbLine
 10
67.34125680522438
 20
-61.99469085264508
 30
0.0
 11
67.34125680522438
 21
-21.99469085264508
 31
0.0
  0
ENDSEC
  0
SECTION
  2
OBJECTS
  0
DICTIONARY
  5
9
330
0
100
AcDbDictionary
281
     1
  3
ACAD_COLOR
350
2CA
  3
ACAD_GROUP
350
31
  3
ACAD_LAYOUT
350
D
  3
ACAD_MATERIAL
350
2C9
  3
ACAD_MLINESTYLE
350
32
  3
ACAD_PLOTSETTINGS
350
33
  3
ACAD_PLOTSTYLENAME
350
8
  3
ACDBHEADERROUNDTRIPXREC
350
2EB
  3
AcDbVariableDictionary
350
222
  0
DICTIONARY
  5
19
330
18
100
AcDbDictionary
280
     1
281
     1
  3
ACAD_LAYERFILTERS
360
1A
  3
ACAD_LAYERSTATES
360
1B
  0
DICTIONARY
  5
3
330
2
100
AcDbDictionary
280
     1
281
     1
  3
ACAD_LAYOUTSELFREF
360
2A3
  0
DICTIONARY
  5
11
330
10
100
AcDbDictionary
280
     1
281
     1
  3
ACAD_LAYOUTSELFREF
360
2A8
  0
DICTIONARY
  5
2CA
102
{ACAD_REACTORS
330
9
102
}
330
9
100
AcDbDictionary
281
     1
  0
DICTIONARY
  5
31
102
{ACAD_REACTORS
330
9
102
}
330
9
100
AcDbDictionary
281
     1
  0
DICTIONARY
  5
D
102
{ACAD_REACTORS
330
9
102
}
330
9
100
AcDbDictionary
281
     1
  3
Model
350
C
  3
ﾚｲｱｳﾄ1
350
15
  0
DICTIONARY
  5
2C9
102
{ACAD_REACTORS
330
9
102
}
330
9
100
AcDbDictionary
281
     1
  0
DICTIONARY
  5
32
102
{ACAD_REACTORS
330
9
102
}
330
9
100
AcDbDictionary
281
     1
  3
STANDARD
350
35
  0
DICTIONARY
  5
33
102
{ACAD_REACTORS
330
9
102
}
330
9
100
AcDbDictionary
281
     1
  0
ACDBDICTIONARYWDFLT
  5
8
102
{ACAD_REACTORS
330
9
102
}
330
9
100
AcDbDictionary
281
     1
  3
Normal
350
7
100
AcDbDictionaryWithDefault
340
7
  0
DICTIONARY
  5
2EB
102
{ACAD_REACTORS
330
9
102
}
330
9
100
AcDbDictionary
281
     1
  3
COLORDICT
350
2ED
  3
MATERIALDICT
350
2EC
  0
DICTIONARY
  5
222
102
{ACAD_REACTORS
330
9
102
}
330
9
100
AcDbDictionary
281
     1
  3
DIMASSOC
350
224
  3
HIDETEXT
350
223
  3
PROJECTNAME
350
2E9
  0
DICTIONARY
  5
1A
102
{ACAD_REACTORS
330
19
102
}
330
19
100
AcDbDictionary
280
     1
281
     1
  0
DICTIONARY
  5
1B
102
{ACAD_REACTORS
330
19
102
}
330
19
100
AcDbDictionary
281
     1
  0
XRECORD
  5
2A3
102
{ACAD_REACTORS
330
3
102
}
330
3
100
AcDbXrecord
280
     1
340
2
  0
XRECORD
  5
2A8
102
{ACAD_REACTORS
330
11
102
}
330
11
100
AcDbXrecord
280
     1
340
10
  0
LAYOUT
  5
C
102
{ACAD_XDICTIONARY
360
2EE
102
}
102
{ACAD_REACTORS
330
D
102
}
330
D
100
AcDbPlotSettings
  1

  2
\\URANUS\8FPAM09
  4
A4
  6

 40
4.180416584014892
 41
4.349743366241455
 42
4.222747802734375
 43
4.349761962890625
 44
210.0156707763672
 45
297.0106506347656
 46
6.07
 47
0.0
 48
0.0
 49
0.0
140
0.0
141
0.0
142
1.0
143
1.367653346576094
 70
 11956
 72
     1
 73
     0
 74
     1
  7
tmsacad.ctb
 75
     0
147
0.7311794341040359
148
0.5853892418881515
149
0.0246843376780817
100
AcDbLayout
  1
Model
 70
     1
 71
     0
 10
0.0
 20
0.0
 11
12.0
 21
9.0
 12
0.0
 22
0.0
 32
0.0
 14
0.0
 24
0.0
 34
0.0
 15
0.0
 25
0.0
 35
0.0
146
0.0
 13
0.0
 23
0.0
 33
0.0
 16
1.0
 26
0.0
 36
0.0
 17
0.0
 27
1.0
 37
0.0
 76
     0
330
2
  0
LAYOUT
  5
15
102
{ACAD_XDICTIONARY
360
2F0
102
}
102
{ACAD_REACTORS
330
D
102
}
330
D
100
AcDbPlotSettings
  1

  2
C:\Program Files\ACAD2000\plotters\DWF ePlot.pc3
  4

  6

 40
0.0
 41
0.0
 42
0.0
 43
0.0
 44
0.0
 45
0.0
 46
0.0
 47
0.0
 48
0.0
 49
0.0
140
0.0
141
0.0
142
1.0
143
1.0
 70
   688
 72
     0
 73
     0
 74
     5
  7
tmsacad.ctb
 75
    16
147
1.0
148
0.0
149
0.0
100
AcDbLayout
  1
ﾚｲｱｳﾄ1
 70
     1
 71
     1
 10
0.0
 20
0.0
 11
12.0
 21
9.0
 12
0.0
 22
0.0
 32
0.0
 14
1.000000000000000E+20
 24
1.000000000000000E+20
 34
1.000000000000000E+20
 15
-1.000000000000000E+20
 25
-1.000000000000000E+20
 35
-1.000000000000000E+20
146
0.0
 13
0.0
 23
0.0
 33
0.0
 16
1.0
 26
0.0
 36
0.0
 17
0.0
 27
1.0
 37
0.0
 76
     0
330
10
  0
MLINESTYLE
  5
35
102
{ACAD_REACTORS
330
32
102
}
330
32
100
AcDbMlineStyle
  2
STANDARD
 70
     0
  3

 62
   256
 51
90.0
 52
90.0
 71
     2
 49
0.5
 62
   256
  6
BYLAYER
 49
-0.5
 62
   256
  6
BYLAYER
  0
ACDBPLACEHOLDER
  5
7
102
{ACAD_REACTORS
330
8
102
}
330
8
  0
XRECORD
  5
2ED
102
{ACAD_REACTORS
330
2EB
102
}
330
2EB
100
AcDbXrecord
280
     1
340
2CA
  0
XRECORD
  5
2EC
102
{ACAD_REACTORS
330
2EB
102
}
330
2EB
100
AcDbXrecord
280
     1
340
2C9
  0
DICTIONARYVAR
  5
224
102
{ACAD_REACTORS
330
222
102
}
330
222
100
DictionaryVariables
280
     0
  1
1
  0
DICTIONARYVAR
  5
223
102
{ACAD_REACTORS
330
222
102
}
330
222
100
DictionaryVariables
280
     0
  1
1
  0
DICTIONARYVAR
  5
2E9
102
{ACAD_REACTORS
330
222
102
}
330
222
100
DictionaryVariables
280
     0
  1

  0
DICTIONARY
  5
2EE
330
C
100
AcDbDictionary
280
     1
281
     1
  3
ACAD_XREC_ROUNDTRIP
360
2EF
  0
DICTIONARY
  5
2F0
330
15
100
AcDbDictionary
280
     1
281
     1
  3
ACAD_XREC_ROUNDTRIP
360
2F1
  0
XRECORD
  5
2EF
102
{ACAD_REACTORS
330
2EE
102
}
330
2EE
100
AcDbXrecord
280
     1
102
SHADEPLOT
 70
     0
102
SHADEPLOTRESLEVEL
 70
     2
102
SHADEPLOTCUSTOMDPI
 70
   300
  0
XRECORD
  5
2F1
102
{ACAD_REACTORS
330
2F0
102
}
330
2F0
100
AcDbXrecord
280
     1
102
SHADEPLOT
 70
     0
102
SHADEPLOTRESLEVEL
 70
     2
102
SHADEPLOTCUSTOMDPI
 70
   300
  0
ENDSEC
  0
EOF
