  0
SECTION
  2
HEADER
  9
$ACADVER
  1
AC1015
  9
$ACADMAINTVER
 70
    20
  9
$DWGCODEPAGE
  3
ANSI_932
  9
$INSBASE
 10
0.0
 20
246.4992141396417
 30
0.0
  9
$EXTMIN
 10
-59.89763082566788
 20
-56.61506255160293
 30
-0.0015258207003583
  9
$EXTMAX
 10
65.25703411692894
 20
56.2062693192529
 30
0.0000000349246037
  9
$LIMMIN
 10
-1101.784450318844
 20
-1579.160531687244
  9
$LIMMAX
 10
-508.2420711400536
 20
-1161.440814074914
  9
$ORTHOMODE
 70
     1
  9
$REGENMODE
 70
     1
  9
$FILLMODE
 70
     1
  9
$QTEXTMODE
 70
     0
  9
$MIRRTEXT
 70
     1
  9
$LTSCALE
 40
1.0
  9
$ATTMODE
 70
     1
  9
$TEXTSIZE
 40
3.0
  9
$TRACEWID
 40
0.5
  9
$TEXTSTYLE
  7
STANDARD
  9
$CLAYER
  8
GAIKEI
  9
$CELTYPE
  6
BYLAYER
  9
$CECOLOR
 62
   256
  9
$CELTSCALE
 40
1.0
  9
$DISPSILH
 70
     0
  9
$DIMSCALE
 40
1.0
  9
$DIMASZ
 40
2.0
  9
$DIMEXO
 40
2.0
  9
$DIMDLI
 40
8.0
  9
$DIMRND
 40
0.0
  9
$DIMDLE
 40
0.0
  9
$DIMEXE
 40
2.0
  9
$DIMTP
 40
0.0
  9
$DIMTM
 40
0.0
  9
$DIMTXT
 40
2.5
  9
$DIMCEN
 40
0.0
  9
$DIMTSZ
 40
0.0
  9
$DIMTOL
 70
     0
  9
$DIMLIM
 70
     0
  9
$DIMTIH
 70
     0
  9
$DIMTOH
 70
     0
  9
$DIMSE1
 70
     0
  9
$DIMSE2
 70
     0
  9
$DIMTAD
 70
     3
  9
$DIMZIN
 70
     0
  9
$DIMBLK
  1

  9
$DIMASO
 70
     1
  9
$DIMSHO
 70
     1
  9
$DIMPOST
  1

  9
$DIMAPOST
  1

  9
$DIMALT
 70
     0
  9
$DIMALTD
 70
     2
  9
$DIMALTF
 40
25.4
  9
$DIMLFAC
 40
1.0
  9
$DIMTOFL
 70
     1
  9
$DIMTVP
 40
0.0
  9
$DIMTIX
 70
     0
  9
$DIMSOXD
 70
     0
  9
$DIMSAH
 70
     1
  9
$DIMBLK1
  1
OPEN30
  9
$DIMBLK2
  1
OPEN30
  9
$DIMSTYLE
  2
STANDARD
  9
$DIMCLRD
 70
     0
  9
$DIMCLRE
 70
     0
  9
$DIMCLRT
 70
     0
  9
$DIMTFAC
 40
1.0
  9
$DIMGAP
 40
0.5
  9
$DIMJUST
 70
     0
  9
$DIMSD1
 70
     0
  9
$DIMSD2
 70
     0
  9
$DIMTOLJ
 70
     1
  9
$DIMTZIN
 70
     0
  9
$DIMALTZ
 70
     0
  9
$DIMALTTZ
 70
     0
  9
$DIMUPT
 70
     0
  9
$DIMDEC
 70
     4
  9
$DIMTDEC
 70
     4
  9
$DIMALTU
 70
     2
  9
$DIMALTTD
 70
     2
  9
$DIMTXSTY
  7
STANDARD
  9
$DIMAUNIT
 70
     0
  9
$DIMADEC
 70
     0
  9
$DIMALTRND
 40
0.0
  9
$DIMAZIN
 70
     0
  9
$DIMDSEP
 70
    46
  9
$DIMATFIT
 70
     3
  9
$DIMFRAC
 70
     0
  9
$DIMLDRBLK
  1
OPEN30
  9
$DIMLUNIT
 70
     2
  9
$DIMLWD
 70
    -2
  9
$DIMLWE
 70
    -2
  9
$DIMTMOVE
 70
     0
  9
$LUNITS
 70
     2
  9
$LUPREC
 70
     4
  9
$SKETCHINC
 40
0.1
  9
$FILLETRAD
 40
0.0
  9
$AUNITS
 70
     0
  9
$AUPREC
 70
     0
  9
$MENU
  1
ACAD
  9
$ELEVATION
 40
0.0
  9
$PELEVATION
 40
0.0
  9
$THICKNESS
 40
0.0
  9
$LIMCHECK
 70
     0
  9
$CHAMFERA
 40
0.0
  9
$CHAMFERB
 40
0.0
  9
$CHAMFERC
 40
0.0
  9
$CHAMFERD
 40
0.0
  9
$SKPOLY
 70
     0
  9
$TDCREATE
 40
2451815.565532581
  9
$TDUCREATE
 40
2451815.190532581
  9
$TDUPDATE
 40
2453983.344638310
  9
$TDUUPDATE
 40
2453982.969638310
  9
$TDINDWG
 40
0.9648266898
  9
$TDUSRTIMER
 40
0.9648266898
  9
$USRTIMER
 70
     1
  9
$ANGBASE
 50
0.0
  9
$ANGDIR
 70
     0
  9
$PDMODE
 70
     0
  9
$PDSIZE
 40
0.0
  9
$PLINEWID
 40
0.0
  9
$SPLFRAME
 70
     0
  9
$SPLINETYPE
 70
     6
  9
$SPLINESEGS
 70
     8
  9
$HANDSEED
  5
255
  9
$SURFTAB1
 70
     6
  9
$SURFTAB2
 70
     6
  9
$SURFTYPE
 70
     6
  9
$SURFU
 70
     6
  9
$SURFV
 70
     6
  9
$UCSBASE
  2

  9
$UCSNAME
  2

  9
$UCSORG
 10
0.0
 20
0.0
 30
0.0
  9
$UCSXDIR
 10
1.0
 20
0.0
 30
0.0
  9
$UCSYDIR
 10
0.0
 20
1.0
 30
0.0
  9
$UCSORTHOREF
  2

  9
$UCSORTHOVIEW
 70
     0
  9
$UCSORGTOP
 10
0.0
 20
0.0
 30
0.0
  9
$UCSORGBOTTOM
 10
0.0
 20
0.0
 30
0.0
  9
$UCSORGLEFT
 10
0.0
 20
0.0
 30
0.0
  9
$UCSORGRIGHT
 10
0.0
 20
0.0
 30
0.0
  9
$UCSORGFRONT
 10
0.0
 20
0.0
 30
0.0
  9
$UCSORGBACK
 10
0.0
 20
0.0
 30
0.0
  9
$PUCSBASE
  2

  9
$PUCSNAME
  2

  9
$PUCSORG
 10
0.0
 20
0.0
 30
0.0
  9
$PUCSXDIR
 10
1.0
 20
0.0
 30
0.0
  9
$PUCSYDIR
 10
0.0
 20
1.0
 30
0.0
  9
$PUCSORTHOREF
  2

  9
$PUCSORTHOVIEW
 70
     0
  9
$PUCSORGTOP
 10
0.0
 20
0.0
 30
0.0
  9
$PUCSORGBOTTOM
 10
0.0
 20
0.0
 30
0.0
  9
$PUCSORGLEFT
 10
0.0
 20
0.0
 30
0.0
  9
$PUCSORGRIGHT
 10
0.0
 20
0.0
 30
0.0
  9
$PUCSORGFRONT
 10
0.0
 20
0.0
 30
0.0
  9
$PUCSORGBACK
 10
0.0
 20
0.0
 30
0.0
  9
$USERI1
 70
     0
  9
$USERI2
 70
     0
  9
$USERI3
 70
     0
  9
$USERI4
 70
     0
  9
$USERI5
 70
     0
  9
$USERR1
 40
0.0
  9
$USERR2
 40
0.0
  9
$USERR3
 40
0.0
  9
$USERR4
 40
0.0
  9
$USERR5
 40
0.0
  9
$WORLDVIEW
 70
     1
  9
$SHADEDGE
 70
     3
  9
$SHADEDIF
 70
    70
  9
$TILEMODE
 70
     1
  9
$MAXACTVP
 70
    48
  9
$PINSBASE
 10
0.0
 20
0.0
 30
0.0
  9
$PLIMCHECK
 70
     0
  9
$PEXTMIN
 10
1.000000000000000E+20
 20
1.000000000000000E+20
 30
1.000000000000000E+20
  9
$PEXTMAX
 10
-1.000000000000000E+20
 20
-1.000000000000000E+20
 30
-1.000000000000000E+20
  9
$PLIMMIN
 10
0.0
 20
0.0
  9
$PLIMMAX
 10
12.0
 20
9.0
  9
$UNITMODE
 70
     0
  9
$VISRETAIN
 70
     1
  9
$PLINEGEN
 70
     0
  9
$PSLTSCALE
 70
     1
  9
$TREEDEPTH
 70
  3020
  9
$CMLSTYLE
  2
STANDARD
  9
$CMLJUST
 70
     0
  9
$CMLSCALE
 40
1.0
  9
$PROXYGRAPHICS
 70
     1
  9
$MEASUREMENT
 70
     0
  9
$CELWEIGHT
370
    -1
  9
$ENDCAPS
280
     0
  9
$JOINSTYLE
280
     0
  9
$LWDISPLAY
290
     0
  9
$INSUNITS
 70
     0
  9
$HYPERLINKBASE
  1

  9
$STYLESHEET
  1

  9
$XEDIT
290
     1
  9
$CEPSNTYPE
380
     0
  9
$PSTYLEMODE
290
     1
  9
$FINGERPRINTGUID
  2
{1754B7AB-9B3C-11D4-AD9E-00104B1004F2}
  9
$VERSIONGUID
  2
{4AEF65B9-E2D0-4357-9CA8-6AFD36BD6C4E}
  9
$EXTNAMES
290
     1
  9
$PSVPSCALE
 40
0.0
  9
$OLESTARTUP
290
     0
  0
ENDSEC
  0
SECTION
  2
CLASSES
  0
CLASS
  1
ACDBDICTIONARYWDFLT
  2
AcDbDictionaryWithDefault
  3
ObjectDBX Classes
 90
        0
280
     0
281
     0
  0
CLASS
  1
ACDBPLACEHOLDER
  2
AcDbPlaceHolder
  3
ObjectDBX Classes
 90
        0
280
     0
281
     0
  0
CLASS
  1
LAYOUT
  2
AcDbLayout
  3
ObjectDBX Classes
 90
        0
280
     0
281
     0
  0
CLASS
  1
DICTIONARYVAR
  2
AcDbDictionaryVar
  3
ObjectDBX Classes
 90
        0
280
     0
281
     0
  0
ENDSEC
  0
SECTION
  2
TABLES
  0
TABLE
  2
VPORT
  5
24
330
0
100
AcDbSymbolTable
 70
     2
  0
VPORT
  5
24D
330
24
100
AcDbSymbolTableRecord
100
AcDbViewportTableRecord
  2
*Active
 70
     0
 10
0.0
 20
0.0
 11
1.0
 21
1.0
 12
2.67970164563053
 22
-0.2043966161750177
 13
0.0
 23
0.0
 14
1.0
 24
1.0
 15
0.0
 25
0.0
 16
0.0
 26
0.0
 36
1.0
 17
0.0
 27
0.0
 37
0.0
 40
113.699318889306
 41
1.52077922077922
 42
50.0
 43
0.0
 44
0.0
 50
0.0
 51
0.0
 71
     0
 72
 10000
 73
     1
 74
     0
 75
     0
 76
     1
 77
     0
 78
     0
281
     0
 65
     1
110
0.0
120
0.0
130
0.0
111
1.0
121
0.0
131
0.0
112
0.0
122
1.0
132
0.0
 79
     0
146
0.0
  0
ENDTAB
  0
TABLE
  2
LTYPE
  5
1F
330
0
100
AcDbSymbolTable
 70
     2
  0
LTYPE
  5
20
330
1F
100
AcDbSymbolTableRecord
100
AcDbLinetypeTableRecord
  2
BYBLOCK
 70
     0
  3

 72
    65
 73
     0
 40
0.0
  0
LTYPE
  5
21
330
1F
100
AcDbSymbolTableRecord
100
AcDbLinetypeTableRecord
  2
BYLAYER
 70
     0
  3

 72
    65
 73
     0
 40
0.0
  0
LTYPE
  5
A
330
1F
100
AcDbSymbolTableRecord
100
AcDbLinetypeTableRecord
  2
CONTINUOUS
 70
     0
  3
Solid line
 72
    65
 73
     0
 40
0.0
  0
LTYPE
  5
F0
330
1F
100
AcDbSymbolTableRecord
100
AcDbLinetypeTableRecord
  2
HIDDEN2
 70
     0
  3
Hidden (.5x) _ _ _ _ _ _ _ _ _ _ _ _ _ _ _ _ _
 72
    65
 73
     2
 40
1.399999999999999
 49
0.7
 74
     0
 49
-0.7
 74
     0
  0
ENDTAB
  0
TABLE
  2
LAYER
  5
18
102
{ACAD_XDICTIONARY
360
19
102
}
330
0
100
AcDbSymbolTable
 70
     7
  0
LAYER
  5
6
330
18
100
AcDbSymbolTableRecord
100
AcDbLayerTableRecord
  2
0
 70
     0
 62
     7
  6
CONTINUOUS
370
    -3
390
7
  0
LAYER
  5
46
330
18
100
AcDbSymbolTableRecord
100
AcDbLayerTableRecord
  2
DEFPOINTS
 70
     0
 62
     7
  6
CONTINUOUS
290
     0
370
    -3
390
7
  0
LAYER
  5
163
330
18
100
AcDbSymbolTableRecord
100
AcDbLayerTableRecord
  2
WAKU
 70
     0
 62
     4
  6
CONTINUOUS
370
    -3
390
7
  0
LAYER
  5
37
330
18
100
AcDbSymbolTableRecord
100
AcDbLayerTableRecord
  2
MOJI1
 70
     0
 62
     2
  6
CONTINUOUS
370
    -3
390
7
  0
LAYER
  5
34
330
18
100
AcDbSymbolTableRecord
100
AcDbLayerTableRecord
  2
GAIKEI
 70
     0
 62
     7
  6
CONTINUOUS
370
    -3
390
7
  0
LAYER
  5
39
330
18
100
AcDbSymbolTableRecord
100
AcDbLayerTableRecord
  2
TOUROKU
 70
     0
 62
     1
  6
CONTINUOUS
370
    -3
390
7
  0
LAYER
  5
3D
330
18
100
AcDbSymbolTableRecord
100
AcDbLayerTableRecord
  2
SUNPO
 70
     0
 62
     3
  6
CONTINUOUS
370
    -3
390
7
  0
ENDTAB
  0
TABLE
  2
STYLE
  5
1C
330
0
100
AcDbSymbolTable
 70
     1
  0
STYLE
  5
1D
330
1C
100
AcDbSymbolTableRecord
100
AcDbTextStyleTableRecord
  2
STANDARD
 70
     0
 40
0.0
 41
1.0
 50
0.0
 71
     0
 42
3.0
  3
MONOTXT.shx
  4
BIGFONT.shx
  0
ENDTAB
  0
TABLE
  2
VIEW
  5
22
330
0
100
AcDbSymbolTable
 70
     0
  0
ENDTAB
  0
TABLE
  2
UCS
  5
23
330
0
100
AcDbSymbolTable
 70
     0
  0
ENDTAB
  0
TABLE
  2
APPID
  5
26
330
0
100
AcDbSymbolTable
 70
     1
  0
APPID
  5
27
330
26
100
AcDbSymbolTableRecord
100
AcDbRegAppTableRecord
  2
ACAD
 70
     0
  0
ENDTAB
  0
TABLE
  2
DIMSTYLE
  5
28
330
0
100
AcDbSymbolTable
 70
     1
100
AcDbDimStyleTable
 71
     0
  0
DIMSTYLE
105
29
102
{ACAD_REACTORS
330
3C
330
AC
330
9A
102
}
330
28
100
AcDbSymbolTableRecord
100
AcDbDimStyleTableRecord
  2
STANDARD
 70
     0
 40
0.0
 41
2.0
 42
2.0
 43
8.0
 44
2.0
 73
     0
 74
     0
 77
     3
140
3.0
141
0.0
173
     1
279
     2
288
     1
340
1D
341
2A
343
2A
344
2A
  0
ENDTAB
  0
TABLE
  2
BLOCK_RECORD
  5
1
330
0
100
AcDbSymbolTable
 70
     4
  0
BLOCK_RECORD
  5
2
102
{ACAD_XDICTIONARY
360
3
102
}
330
1
100
AcDbSymbolTableRecord
100
AcDbBlockTableRecord
  2
*MODEL_SPACE
340
C
  0
BLOCK_RECORD
  5
10
102
{ACAD_XDICTIONARY
360
11
102
}
330
1
100
AcDbSymbolTableRecord
100
AcDbBlockTableRecord
  2
*PAPER_SPACE
340
15
  0
BLOCK_RECORD
  5
2A
330
1
100
AcDbSymbolTableRecord
100
AcDbBlockTableRecord
  2
_OPEN30
340
0
102
{BLKREFS
331
232
331
233
331
23D
331
23E
331
246
331
247
102
}
  0
BLOCK_RECORD
  5
1B2
330
1
100
AcDbSymbolTableRecord
100
AcDbBlockTableRecord
  2
*D1
340
0
  0
BLOCK_RECORD
  5
1C0
330
1
100
AcDbSymbolTableRecord
100
AcDbBlockTableRecord
  2
*D2
340
0
  0
BLOCK_RECORD
  5
1CE
330
1
100
AcDbSymbolTableRecord
100
AcDbBlockTableRecord
  2
*D3
340
0
  0
ENDTAB
  0
ENDSEC
  0
SECTION
  2
BLOCKS
  0
BLOCK
  5
5
330
2
100
AcDbEntity
  8
0
100
AcDbBlockBegin
  2
*MODEL_SPACE
 70
     0
 10
0.0
 20
0.0
 30
0.0
  3
*MODEL_SPACE
  1

  0
ENDBLK
  5
B
330
2
100
AcDbEntity
  8
0
100
AcDbBlockEnd
  0
BLOCK
  5
13
330
10
100
AcDbEntity
 67
     1
  8
0
100
AcDbBlockBegin
  2
*PAPER_SPACE
 70
     0
 10
0.0
 20
0.0
 30
0.0
  3
*PAPER_SPACE
  1

  0
ENDBLK
  5
14
330
10
100
AcDbEntity
 67
     1
  8
0
100
AcDbBlockEnd
  0
BLOCK
  5
2E
330
2A
100
AcDbEntity
  8
0
100
AcDbBlockBegin
  2
_OPEN30
 70
     0
 10
0.0
 20
0.0
 30
0.0
  3
_OPEN30
  1

  0
LINE
  5
2B
330
2A
100
AcDbEntity
  8
0
  6
ByBlock
 62
     0
100
AcDbLine
 10
-1.0
 20
0.26794919
 30
0.0
 11
0.0
 21
0.0
 31
0.0
  0
LINE
  5
2C
330
2A
100
AcDbEntity
  8
0
  6
ByBlock
 62
     0
100
AcDbLine
 10
0.0
 20
0.0
 30
0.0
 11
-1.0
 21
-0.26794919
 31
0.0
  0
LINE
  5
2D
330
2A
100
AcDbEntity
  8
0
  6
ByBlock
 62
     0
100
AcDbLine
 10
0.0
 20
0.0
 30
0.0
 11
-1.0
 21
0.0
 31
0.0
  0
ENDBLK
  5
2F
330
2A
100
AcDbEntity
  8
0
100
AcDbBlockEnd
  0
BLOCK
  5
1BC
330
1B2
100
AcDbEntity
  8
0
100
AcDbBlockBegin
  2
*D1
 70
     1
 10
0.0
 20
0.0
 30
0.0
  3
*D1
  1

  0
LINE
  5
243
330
1B2
100
AcDbEntity
  8
SUNPO
 62
     0
370
    -2
100
AcDbLine
 10
-14.18229496677758
 20
1.632403832039699
 30
0.0
 11
-14.18229496677758
 21
-6.367596167960272
 31
0.0
  0
LINE
  5
244
330
1B2
100
AcDbEntity
  8
SUNPO
 62
     0
370
    -2
100
AcDbLine
 10
-1.382297514306273
 20
1.632403832039727
 30
0.0
 11
-1.382297514306274
 21
-6.367596167960272
 31
0.0
  0
LINE
  5
245
330
1B2
100
AcDbEntity
  8
SUNPO
 62
     0
370
    -2
100
AcDbLine
 10
-12.18229496677758
 20
-4.367596167960272
 30
0.0
 11
-3.382297514306273
 21
-4.367596167960272
 31
0.0
  0
INSERT
  5
246
330
1B2
100
AcDbEntity
  8
SUNPO
 62
     0
370
    -2
100
AcDbBlockReference
  2
_OPEN30
 10
-14.18229496677758
 20
-4.367596167960272
 30
0.0
 41
2.0
 42
2.0
 43
2.0
 50
180.0
  0
INSERT
  5
247
330
1B2
100
AcDbEntity
  8
SUNPO
 62
     0
370
    -2
100
AcDbBlockReference
  2
_OPEN30
 10
-1.382297514306273
 20
-4.367596167960272
 30
0.0
 41
2.0
 42
2.0
 43
2.0
  0
MTEXT
  5
248
330
1B2
100
AcDbEntity
  8
SUNPO
 62
     0
100
AcDbMText
 10
-7.782296240541928
 20
-2.617596167960272
 30
0.0
 40
2.5
 41
0.0
 71
     5
 72
     1
  1
\A1;64
 73
     1
 44
1.0
1001
ACAD
1000
MTEXTBEGIN
1070
    73
1070
     1
1070
    44
1040
1.0
1070
    74
1070
     0
1000
MTEXTEND
  0
POINT
  5
249
330
1B2
100
AcDbEntity
  8
DEFPOINTS
 62
     0
100
AcDbPoint
 10
-14.18229496677758
 20
3.632403832039699
 30
0.0
  0
POINT
  5
24A
330
1B2
100
AcDbEntity
  8
DEFPOINTS
 62
     0
100
AcDbPoint
 10
-1.382297514306273
 20
3.632403832039727
 30
0.0
  0
POINT
  5
24B
330
1B2
100
AcDbEntity
  8
DEFPOINTS
 62
     0
100
AcDbPoint
 10
-1.382297514306273
 20
-4.367596167960272
 30
0.0
  0
ENDBLK
  5
1BD
330
1B2
100
AcDbEntity
  8
0
100
AcDbBlockEnd
  0
BLOCK
  5
1CC
330
1C0
100
AcDbEntity
  8
0
100
AcDbBlockBegin
  2
*D2
 70
     1
 10
0.0
 20
0.0
 30
0.0
  3
*D2
  1

  0
LINE
  5
238
330
1C0
100
AcDbEntity
  8
SUNPO
 62
     0
370
    -2
100
AcDbLine
 10
21.43273601170633
 20
1.632403832039699
 30
0.0
 11
21.43273601170633
 21
-6.367596167960272
 31
0.0
  0
LINE
  5
239
330
1C0
100
AcDbEntity
  8
SUNPO
 62
     0
370
    -2
100
AcDbLine
 10
25.03273601170902
 20
1.632403832039727
 30
0.0
 11
25.03273601170902
 21
-6.367596167960272
 31
0.0
  0
LINE
  5
23A
330
1C0
100
AcDbEntity
  8
SUNPO
 62
     0
370
    -2
100
AcDbLine
 10
19.43273601170632
 20
-4.367596167960272
 30
0.0
 11
17.43273601170632
 21
-4.367596167960272
 31
0.0
  0
LINE
  5
23B
330
1C0
100
AcDbEntity
  8
SUNPO
 62
     0
370
    -2
100
AcDbLine
 10
27.03273601170902
 20
-4.367596167960272
 30
0.0
 11
34.19940267837568
 21
-4.367596167960272
 31
0.0
  0
LINE
  5
23C
330
1C0
100
AcDbEntity
  8
SUNPO
 62
     0
370
    -2
100
AcDbLine
 10
21.43273601170633
 20
-4.367596167960272
 30
0.0
 11
25.03273601170902
 21
-4.367596167960272
 31
0.0
  0
INSERT
  5
23D
330
1C0
100
AcDbEntity
  8
SUNPO
 62
     0
370
    -2
100
AcDbBlockReference
  2
_OPEN30
 10
21.43273601170633
 20
-4.367596167960272
 30
0.0
 41
2.0
 42
2.0
 43
2.0
  0
INSERT
  5
23E
330
1C0
100
AcDbEntity
  8
SUNPO
 62
     0
370
    -2
100
AcDbBlockReference
  2
_OPEN30
 10
25.03273601170902
 20
-4.367596167960272
 30
0.0
 41
2.0
 42
2.0
 43
2.0
 50
180.0
  0
MTEXT
  5
23F
330
1C0
100
AcDbEntity
  8
SUNPO
 62
     0
100
AcDbMText
 10
31.61606934504235
 20
-2.617596167960272
 30
0.0
 40
2.5
 41
0.0
 71
     5
 72
     1
  1
\A1;18
 73
     1
 44
1.0
1001
ACAD
1000
MTEXTBEGIN
1070
    73
1070
     1
1070
    44
1040
1.0
1070
    74
1070
     0
1000
MTEXTEND
  0
POINT
  5
240
330
1C0
100
AcDbEntity
  8
DEFPOINTS
 62
     0
100
AcDbPoint
 10
21.43273601170633
 20
3.632403832039699
 30
0.0
  0
POINT
  5
241
330
1C0
100
AcDbEntity
  8
DEFPOINTS
 62
     0
100
AcDbPoint
 10
25.03273601170902
 20
3.632403832039727
 30
0.0
  0
POINT
  5
242
330
1C0
100
AcDbEntity
  8
DEFPOINTS
 62
     0
100
AcDbPoint
 10
25.03273601170902
 20
-4.367596167960272
 30
0.0
  0
ENDBLK
  5
1CD
330
1C0
100
AcDbEntity
  8
0
100
AcDbBlockEnd
  0
BLOCK
  5
1D8
330
1CE
100
AcDbEntity
  8
0
100
AcDbBlockBegin
  2
*D3
 70
     1
 10
0.0
 20
0.0
 30
0.0
  3
*D3
  1

  0
LINE
  5
22F
330
1CE
100
AcDbEntity
  8
SUNPO
 62
     0
370
    -2
100
AcDbLine
 10
0.5798675491199389
 20
21.63943466607396
 30
0.0
 11
8.579867549119956
 21
21.63943466607395
 31
0.0
  0
LINE
  5
230
330
1CE
100
AcDbEntity
  8
SUNPO
 62
     0
370
    -2
100
AcDbLine
 10
0.579867549119946
 20
3.639442433514659
 30
0.0
 11
8.579867549119953
 21
3.639442433514656
 31
0.0
  0
LINE
  5
231
330
1CE
100
AcDbEntity
  8
SUNPO
 62
     0
370
    -2
100
AcDbLine
 10
6.579867549119956
 20
19.63943466607395
 30
0.0
 11
6.579867549119953
 21
5.639442433514656
 31
0.0
  0
INSERT
  5
232
330
1CE
100
AcDbEntity
  8
SUNPO
 62
     0
370
    -2
100
AcDbBlockReference
  2
_OPEN30
 10
6.579867549119956
 20
21.63943466607396
 30
0.0
 41
2.0
 42
2.0
 43
2.0
 50
90.0
  0
INSERT
  5
233
330
1CE
100
AcDbEntity
  8
SUNPO
 62
     0
370
    -2
100
AcDbBlockReference
  2
_OPEN30
 10
6.579867549119953
 20
3.639442433514657
 30
0.0
 41
2.0
 42
2.0
 43
2.0
 50
270.0
  0
MTEXT
  5
234
330
1CE
100
AcDbEntity
  8
SUNPO
 62
     0
100
AcDbMText
 10
4.829867549119953
 20
12.6394385497943
 30
0.0
 40
2.5
 41
0.0
 71
     5
 72
     1
  1
\A1;90
 11
0.0000000000000001
 21
1.0
 31
0.0
 73
     1
 44
1.0
1001
ACAD
1000
MTEXTBEGIN
1070
    73
1070
     1
1070
    44
1040
1.0
1070
    74
1070
     0
1000
MTEXTEND
  0
POINT
  5
235
330
1CE
100
AcDbEntity
  8
DEFPOINTS
 62
     0
100
AcDbPoint
 10
-1.420132450880061
 20
21.63943466607396
 30
0.0
  0
POINT
  5
236
330
1CE
100
AcDbEntity
  8
DEFPOINTS
 62
     0
100
AcDbPoint
 10
-1.420132450880053
 20
3.639442433514659
 30
0.0
  0
POINT
  5
237
330
1CE
100
AcDbEntity
  8
DEFPOINTS
 62
     0
100
AcDbPoint
 10
6.579867549119953
 20
3.639442433514657
 30
0.0
  0
ENDBLK
  5
1D9
330
1CE
100
AcDbEntity
  8
0
100
AcDbBlockEnd
  0
ENDSEC
  0
SECTION
  2
ENTITIES
  0
TEXT
  5
36
330
2
100
AcDbEntity
  8
MOJI1
100
AcDbText
 10
-32.81094209311782
 20
52.39510525277779
 30
0.0
 40
4.0
  1
ワイヤレスマイクロホン
100
AcDbText
  0
TEXT
  5
38
330
2
100
AcDbEntity
  8
TOUROKU
100
AcDbText
 10
49.72234127314291
 20
46.39510525277768
 30
0.0
 40
2.0
  1
ＷＸＴＡ８３１
 72
     2
 11
65.18900793980958
 21
46.39510525277768
 31
0.0
100
AcDbText
  0
LINE
  5
3A
330
2
100
AcDbEntity
  8
GAIKEI
 62
     1
100
AcDbLine
 10
-13.98428158869232
 20
4.512685399062831
 30
0.0
 11
-1.580310892386179
 21
4.512685399062831
 31
0.0
  0
LINE
  5
3B
330
2
100
AcDbEntity
  8
GAIKEI
 62
     1
100
AcDbLine
 10
-13.98428158869232
 20
4.423638901985214
 30
0.0
 11
-1.580310892386179
 21
4.423638901985214
 31
0.0
  0
DIMENSION
  5
3C
330
2
100
AcDbEntity
  8
SUNPO
100
AcDbDimension
  2
*D1
 10
-1.382297514306273
 20
-4.367596167960272
 30
0.0
 11
-7.782296240541928
 21
-2.617596167960272
 31
0.0
 70
    33
  1
64
 71
     5
 42
12.79999745247131
  3
STANDARD
100
AcDbAlignedDimension
 13
-14.18229496677758
 23
3.632403832039699
 33
0.0
 14
-1.382297514306273
 24
3.632403832039727
 34
0.0
1001
ACAD
1000
DSTYLE
1002
{
1070
   287
1070
     3
1070
   287
1070
     3
1070
    40
1040
1.0
1070
   140
1040
2.5
1070
   147
1040
0.5
1070
   172
1070
     1
1070
   279
1070
     0
1070
   288
1070
     0
1002
}
  0
LINE
  5
4B
330
2
100
AcDbEntity
  8
GAIKEI
 62
     1
100
AcDbLine
 10
-9.760763375697976
 20
10.83123751409914
 30
0.0
 11
-2.768708617199351
 21
10.83123751409914
 31
0.0
  0
LINE
  5
4C
330
2
100
AcDbEntity
  8
GAIKEI
 62
     1
100
AcDbLine
 10
-9.760763375697976
 20
11.0506791936175
 30
0.0
 11
-2.768708617199351
 21
11.0506791936175
 31
0.0
  0
LINE
  5
4D
330
2
100
AcDbEntity
  8
GAIKEI
 62
     1
100
AcDbLine
 10
-8.352527150969464
 20
11.60733884647169
 30
0.0
 11
-4.16559577857474
 21
11.60733884647169
 31
0.0
  0
LINE
  5
4E
330
2
100
AcDbEntity
  8
GAIKEI
 62
     1
100
AcDbLine
 10
-8.352527150969464
 20
11.8267805259901
 30
0.0
 11
-4.16559577857474
 21
11.8267805259901
 31
0.0
  0
LINE
  5
4F
330
2
100
AcDbEntity
  8
GAIKEI
 62
     1
100
AcDbLine
 10
-8.352527150969464
 20
14.68380802001616
 30
0.0
 11
-4.16559577857474
 21
14.68380802001616
 31
0.0
  0
LINE
  5
50
330
2
100
AcDbEntity
  8
GAIKEI
 62
     1
100
AcDbLine
 10
-8.352527150969464
 20
14.9034084276933
 30
0.0
 11
-4.16559577857474
 21
14.9034084276933
 31
0.0
  0
LINE
  5
51
330
2
100
AcDbEntity
  8
GAIKEI
 62
     1
100
AcDbLine
 10
-9.760763375697976
 20
15.44871901719449
 30
0.0
 11
-2.768708617199351
 21
15.44871901719449
 31
0.0
  0
LINE
  5
52
330
2
100
AcDbEntity
  8
GAIKEI
 62
     1
100
AcDbLine
 10
-9.760763375697976
 20
15.6681606967129
 30
0.0
 11
-2.768708617199351
 21
15.6681606967129
 31
0.0
  0
ARC
  5
53
330
2
100
AcDbEntity
  8
GAIKEI
100
AcDbCircle
 10
-3.465414567809418
 20
18.88776112489887
 30
0.0
 40
1.887717211453577
100
AcDbArc
 50
190.2573287217926
 51
266.4726752881809
  0
LINE
  5
54
330
2
100
AcDbEntity
  8
GAIKEI
100
AcDbLine
 10
-13.85674351310972
 20
3.639442433514659
 30
0.0
 11
-1.707848967968899
 21
3.639442433514659
 31
0.0
  0
LINE
  5
55
330
2
100
AcDbEntity
  8
GAIKEI
100
AcDbLine
 10
-14.1822949667749
 20
16.40219906700781
 30
0.0
 11
-1.382297514303601
 21
16.40219906700781
 31
0.0
  0
LINE
  5
56
330
2
100
AcDbEntity
  8
GAIKEI
 62
     1
100
AcDbLine
 10
-14.1822949667749
 20
4.788554939028756
 30
0.0
 11
-1.382297514303601
 21
4.788554939028756
 31
0.0
  0
LINE
  5
57
330
2
100
AcDbEntity
  8
GAIKEI
 62
     1
100
AcDbLine
 10
-14.20745337994212
 20
4.13078544902936
 30
0.0
 11
-1.357139101136382
 21
4.13078544902936
 31
0.0
  0
SPLINE
  5
58
330
2
100
AcDbEntity
  8
GAIKEI
100
AcDbSpline
210
0.0
220
0.0
230
1.0
 70
    24
 71
     3
 72
     8
 73
     4
 74
     0
 42
0.0000000001
 43
0.0000000001
 40
16.0
 40
16.0
 40
16.0
 40
16.0
 40
17.0
 40
17.0
 40
17.0
 40
17.0
 10
-1.707848967968899
 20
3.639442433514659
 30
0.0
 10
-1.707848967968899
 20
3.639442433514659
 30
0.0
 10
-13.85674351310972
 20
3.639442433514659
 30
0.0
 10
-13.85674351310972
 20
3.639442433514659
 30
0.0
  0
ARC
  5
59
330
2
100
AcDbEntity
  8
GAIKEI
 62
     1
100
AcDbCircle
 10
-8.350890658968339
 20
13.02506851757391
 30
0.0
 40
1.417730615607065
100
AcDbArc
 50
180.0629257404713
 51
269.9338632426598
  0
ARC
  5
5A
330
2
100
AcDbEntity
  8
GAIKEI
 62
     1
100
AcDbCircle
 10
-8.349064432994438
 20
13.48353427211816
 30
0.0
 40
1.200278742754752
100
AcDbArc
 50
90.16529443849668
 51
179.8233060630134
  0
ARC
  5
5B
330
2
100
AcDbEntity
  8
GAIKEI
 62
     1
100
AcDbCircle
 10
-8.350890658968339
 20
13.48567875659114
 30
0.0
 40
1.417730615607065
100
AcDbArc
 50
90.06613675734021
 51
179.9370742595287
  0
ARC
  5
5C
330
2
100
AcDbEntity
  8
GAIKEI
 62
     1
100
AcDbCircle
 10
-8.349064432994438
 20
13.02721300204689
 30
0.0
 40
1.200278742754752
100
AcDbArc
 50
180.1766939369865
 51
269.8347055615033
  0
ARC
  5
5D
330
2
100
AcDbEntity
  8
GAIKEI
 62
     1
100
AcDbCircle
 10
-9.759919518760099
 20
11.64992820916973
 30
0.0
 40
0.8186911299688841
100
AcDbArc
 50
180.0590570092275
 51
269.9409429907742
  0
ARC
  5
5E
330
2
100
AcDbEntity
  8
GAIKEI
 62
     1
100
AcDbCircle
 10
-9.759143602174205
 20
11.65094290983171
 30
0.0
 40
0.6002659016382501
100
AcDbArc
 50
180.1774008423759
 51
269.8453913523161
  0
ARC
  5
5F
330
2
100
AcDbEntity
  8
GAIKEI
 62
     1
100
AcDbCircle
 10
-9.759143602174205
 20
14.84845530098027
 30
0.0
 40
0.6002659016382501
100
AcDbArc
 50
90.15460864768391
 51
179.8225991576241
  0
ARC
  5
60
330
2
100
AcDbEntity
  8
GAIKEI
 62
     1
100
AcDbCircle
 10
-9.759919518760099
 20
14.84947000164226
 30
0.0
 40
0.8186911299688841
100
AcDbArc
 50
90.05905700922587
 51
179.9409429907725
  0
LINE
  5
61
330
2
100
AcDbEntity
  8
GAIKEI
 62
     1
100
AcDbLine
 10
-9.768541055478337
 20
13.48723579502575
 30
0.0
 11
-9.768541055478337
 21
13.02367020729809
 31
0.0
  0
LINE
  5
62
330
2
100
AcDbEntity
  8
GAIKEI
 62
     1
100
AcDbLine
 10
-9.549258104118777
 20
13.48723579502575
 30
0.0
 11
-9.549258104118777
 21
13.02367020729809
 31
0.0
  0
LINE
  5
63
330
2
100
AcDbEntity
  8
GAIKEI
 62
     1
100
AcDbLine
 10
-10.57845148567189
 20
14.85031385858019
 30
0.0
 11
-10.57845148567189
 21
11.64908435223179
 31
0.0
  0
LINE
  5
64
330
2
100
AcDbEntity
  8
GAIKEI
 62
     1
100
AcDbLine
 10
-10.35908917023282
 20
14.85031385858019
 30
0.0
 11
-10.35908917023282
 21
11.64908435223179
 31
0.0
  0
ARC
  5
65
330
2
100
AcDbEntity
  8
GAIKEI
100
AcDbCircle
 10
-5.673887191174728
 20
21.34100580072464
 30
0.0
 40
0.2984295903768699
100
AcDbArc
 50
0.9790532389753272
 51
90.12629729091974
  0
LINE
  5
66
330
2
100
AcDbEntity
  8
GAIKEI
100
AcDbLine
 10
-5.375501168902971
 20
21.34610502864177
 30
0.0
 11
-5.322962148345638
 21
18.55161642917642
 31
0.0
  0
ARC
  5
67
330
2
100
AcDbEntity
  8
GAIKEI
100
AcDbCircle
 10
-11.73197800161465
 20
23.89013900385663
 30
0.0
 40
0.7493441262885808
100
AcDbArc
 50
1.500518113053894
 51
90.65164229509257
  0
ARC
  5
68
330
2
100
AcDbEntity
  8
GAIKEI
100
AcDbCircle
 10
-12.55766851108676
 20
23.89038975806881
 30
0.0
 40
0.7490943555542767
100
AcDbArc
 50
89.34166924802005
 51
178.5181673243019
  0
LINE
  5
69
330
2
100
AcDbEntity
  8
GAIKEI
100
AcDbLine
 10
-12.54906157697069
 20
24.63943466607395
 30
0.0
 11
-11.74050033612688
 21
24.63943466607395
 31
0.0
  0
LINE
  5
6A
330
2
100
AcDbEntity
  8
GAIKEI
100
AcDbLine
 10
-10.98289083425247
 20
23.90976132014555
 30
0.0
 11
-10.98289083425247
 21
21.63943466607396
 31
0.0
  0
LINE
  5
6B
330
2
100
AcDbEntity
  8
GAIKEI
100
AcDbLine
 10
-13.30651235068619
 20
21.63943466607396
 30
0.0
 11
-13.30651235068619
 21
23.90976132014555
 31
0.0
  0
LINE
  5
6C
330
2
100
AcDbEntity
  8
GAIKEI
100
AcDbLine
 10
-13.65793649423317
 20
21.63943466607396
 30
0.0
 11
-5.674545020051297
 21
21.63943466607396
 31
0.0
  0
ARC
  5
6D
330
2
100
AcDbEntity
  8
GAIKEI
100
AcDbCircle
 10
-13.68290440454034
 20
21.26287082987454
 30
0.0
 40
0.3773906719545431
100
AcDbArc
 50
86.20657940174929
 51
181.0391237449411
  0
LINE
  5
6E
330
2
100
AcDbEntity
  8
GAIKEI
100
AcDbLine
 10
-14.1822949667749
 20
16.40219906700781
 30
0.0
 11
-14.06023301267036
 21
21.25602679853205
 31
0.0
  0
ARC
  5
6F
330
2
100
AcDbEntity
  8
GAIKEI
100
AcDbCircle
 10
-14.01166688157291
 20
4.644709495082963
 30
0.0
 40
0.1656654793393966
100
AcDbArc
 50
121.8312504582775
 51
232.8381058874364
  0
ARC
  5
70
330
2
100
AcDbEntity
  8
GAIKEI
100
AcDbCircle
 10
-13.99663008317093
 20
4.274827569434819
 30
0.0
 40
0.1671239251282579
100
AcDbArc
 50
117.0732904674347
 51
240.4541166133193
  0
LINE
  5
71
330
2
100
AcDbEntity
  8
GAIKEI
100
AcDbLine
 10
-14.1822949667749
 20
4.788554939028756
 30
0.0
 11
-14.1822949667749
 21
16.40219906700781
 31
0.0
  0
LINE
  5
72
330
2
100
AcDbEntity
  8
GAIKEI
100
AcDbLine
 10
-13.98428158869232
 20
4.512685399062831
 30
0.0
 11
-14.11174030019565
 21
4.512685399062831
 31
0.0
  0
LINE
  5
73
330
2
100
AcDbEntity
  8
GAIKEI
100
AcDbLine
 10
-13.98428158869232
 20
4.423638901985214
 30
0.0
 11
-13.98428158869232
 21
4.512685399062831
 31
0.0
  0
LINE
  5
74
330
2
100
AcDbEntity
  8
GAIKEI
100
AcDbLine
 10
-14.07269317313482
 20
4.423638901985214
 30
0.0
 11
-13.98428158869232
 21
4.423638901985214
 31
0.0
  0
ARC
  5
75
330
2
100
AcDbEntity
  8
GAIKEI
100
AcDbCircle
 10
-13.81527973004215
 20
4.037342287664273
 30
0.0
 40
0.4000544203462655
100
AcDbArc
 50
191.391422519458
 51
264.0508746255239
  0
LINE
  5
76
330
2
100
AcDbEntity
  8
GAIKEI
100
AcDbLine
 10
-14.20745337994212
 20
3.958327304510987
 30
0.0
 11
-14.20745337994212
 21
4.13078544902936
 31
0.0
  0
CIRCLE
  5
77
330
2
100
AcDbEntity
  8
GAIKEI
 62
     1
100
AcDbCircle
 10
-9.755406300338947
 20
14.8525360528032
 30
0.0
 40
0.3060675721745483
  0
CIRCLE
  5
78
330
2
100
AcDbEntity
  8
GAIKEI
 62
     1
100
AcDbCircle
 10
-9.755406300338947
 20
11.65868740583823
 30
0.0
 40
0.3060675721745483
  0
LINE
  5
79
330
2
100
AcDbEntity
  8
GAIKEI
 62
     1
100
AcDbLine
 10
-6.611596705430585
 20
13.11581190347203
 30
0.0
 11
-6.688341770202484
 21
13.27414324185866
 31
0.0
  0
LINE
  5
7A
330
2
100
AcDbEntity
  8
GAIKEI
 62
     1
100
AcDbLine
 10
-6.688341770202484
 20
13.27414324185866
 30
0.0
 11
-6.452789182567514
 21
13.43683960461192
 31
0.0
  0
LINE
  5
7B
330
2
100
AcDbEntity
  8
GAIKEI
 62
     1
100
AcDbLine
 10
-6.452789182567514
 20
13.43683960461192
 30
0.0
 11
-6.337711267449364
 21
13.19890609459526
 31
0.0
  0
LINE
  5
7C
330
2
100
AcDbEntity
  8
GAIKEI
 62
     1
100
AcDbLine
 10
-6.337711267449364
 20
13.19890609459526
 30
0.0
 11
-6.611596705430585
 21
13.11581190347203
 31
0.0
  0
CIRCLE
  5
7D
330
2
100
AcDbEntity
  8
GAIKEI
 62
     1
100
AcDbCircle
 10
-6.208665274358324
 20
13.40295114271163
 30
0.0
 40
0.6017022943478905
  0
LINE
  5
7E
330
2
100
AcDbEntity
  8
GAIKEI
 62
     1
100
AcDbLine
 10
-6.189459167145443
 20
13.12882761249227
 30
0.0
 11
-6.413742055506801
 21
13.58652025834487
 31
0.0
  0
LINE
  5
7F
330
2
100
AcDbEntity
  8
GAIKEI
 62
     1
100
AcDbLine
 10
-6.413742055506801
 20
13.58652025834487
 30
0.0
 11
-6.235172876875182
 21
13.67413820199345
 31
0.0
  0
LINE
  5
80
330
2
100
AcDbEntity
  8
GAIKEI
 62
     1
100
AcDbLine
 10
-6.235172876875182
 20
13.67413820199345
 30
0.0
 11
-6.01081062443454
 21
13.21612809982326
 31
0.0
  0
LINE
  5
81
330
2
100
AcDbEntity
  8
GAIKEI
 62
     1
100
AcDbLine
 10
-6.01081062443454
 20
13.21612809982326
 30
0.0
 11
-6.189459167145443
 21
13.12882761249227
 31
0.0
  0
LINE
  5
82
330
2
100
AcDbEntity
  8
GAIKEI
 62
     1
100
AcDbLine
 10
-9.583225930098407
 20
11.71590890707972
 30
0.0
 11
-9.697986388898968
 21
11.71590890707972
 31
0.0
  0
LINE
  5
83
330
2
100
AcDbEntity
  8
GAIKEI
 62
     1
100
AcDbLine
 10
-9.697986388898968
 20
11.71590890707972
 30
0.0
 11
-9.697986388898968
 21
11.83066936588028
 31
0.0
  0
LINE
  5
84
330
2
100
AcDbEntity
  8
GAIKEI
 62
     1
100
AcDbLine
 10
-9.697986388898968
 20
11.83066936588028
 30
0.0
 11
-9.812905575858323
 21
11.83066936588028
 31
0.0
  0
LINE
  5
85
330
2
100
AcDbEntity
  8
GAIKEI
 62
     1
100
AcDbLine
 10
-9.812905575858323
 20
11.83066936588028
 30
0.0
 11
-9.812905575858323
 21
11.71590890707972
 31
0.0
  0
LINE
  5
86
330
2
100
AcDbEntity
  8
GAIKEI
 62
     1
100
AcDbLine
 10
-9.812905575858323
 20
11.71590890707972
 30
0.0
 11
-9.927666034658884
 21
11.71590890707972
 31
0.0
  0
LINE
  5
87
330
2
100
AcDbEntity
  8
GAIKEI
 62
     1
100
AcDbLine
 10
-9.927666034658884
 20
11.71590890707972
 30
0.0
 11
-9.927666034658884
 21
11.60130717643795
 31
0.0
  0
LINE
  5
88
330
2
100
AcDbEntity
  8
GAIKEI
 62
     1
100
AcDbLine
 10
-9.927666034658884
 20
11.60130717643795
 30
0.0
 11
-9.812905575858323
 21
11.60130717643795
 31
0.0
  0
LINE
  5
89
330
2
100
AcDbEntity
  8
GAIKEI
 62
     1
100
AcDbLine
 10
-9.812905575858323
 20
11.60130717643795
 30
0.0
 11
-9.812905575858323
 21
11.48654671763734
 31
0.0
  0
LINE
  5
8A
330
2
100
AcDbEntity
  8
GAIKEI
 62
     1
100
AcDbLine
 10
-9.812905575858323
 20
11.48654671763734
 30
0.0
 11
-9.697986388898968
 21
11.48654671763734
 31
0.0
  0
LINE
  5
8B
330
2
100
AcDbEntity
  8
GAIKEI
 62
     1
100
AcDbLine
 10
-9.697986388898968
 20
11.48654671763734
 30
0.0
 11
-9.697986388898968
 21
11.60130717643795
 31
0.0
  0
LINE
  5
8C
330
2
100
AcDbEntity
  8
GAIKEI
 62
     1
100
AcDbLine
 10
-9.697986388898968
 20
11.60130717643795
 30
0.0
 11
-9.583225930098407
 21
11.60130717643795
 31
0.0
  0
LINE
  5
8D
330
2
100
AcDbEntity
  8
GAIKEI
 62
     1
100
AcDbLine
 10
-9.583225930098407
 20
11.60130717643795
 30
0.0
 11
-9.583225930098407
 21
11.71590890707972
 31
0.0
  0
LINE
  5
8E
330
2
100
AcDbEntity
  8
GAIKEI
 62
     1
100
AcDbLine
 10
-9.583225930098407
 20
14.90991628220348
 30
0.0
 11
-9.697986388898968
 21
14.90991628220348
 31
0.0
  0
LINE
  5
8F
330
2
100
AcDbEntity
  8
GAIKEI
 62
     1
100
AcDbLine
 10
-9.697986388898968
 20
14.90991628220348
 30
0.0
 11
-9.697986388898968
 21
15.02483546916284
 31
0.0
  0
LINE
  5
90
330
2
100
AcDbEntity
  8
GAIKEI
 62
     1
100
AcDbLine
 10
-9.697986388898968
 20
15.02483546916284
 30
0.0
 11
-9.812905575858323
 21
15.02483546916284
 31
0.0
  0
LINE
  5
91
330
2
100
AcDbEntity
  8
GAIKEI
 62
     1
100
AcDbLine
 10
-9.812905575858323
 20
15.02483546916284
 30
0.0
 11
-9.812905575858323
 21
14.90991628220348
 31
0.0
  0
LINE
  5
92
330
2
100
AcDbEntity
  8
GAIKEI
 62
     1
100
AcDbLine
 10
-9.812905575858323
 20
14.90991628220348
 30
0.0
 11
-9.927666034658884
 21
14.90991628220348
 31
0.0
  0
LINE
  5
93
330
2
100
AcDbEntity
  8
GAIKEI
 62
     1
100
AcDbLine
 10
-9.927666034658884
 20
14.90991628220348
 30
0.0
 11
-9.927666034658884
 21
14.79515582340292
 31
0.0
  0
LINE
  5
94
330
2
100
AcDbEntity
  8
GAIKEI
 62
     1
100
AcDbLine
 10
-9.927666034658884
 20
14.79515582340292
 30
0.0
 11
-9.812905575858323
 21
14.79515582340292
 31
0.0
  0
LINE
  5
95
330
2
100
AcDbEntity
  8
GAIKEI
 62
     1
100
AcDbLine
 10
-9.812905575858323
 20
14.79515582340292
 30
0.0
 11
-9.812905575858323
 21
14.6804747286817
 31
0.0
  0
LINE
  5
96
330
2
100
AcDbEntity
  8
GAIKEI
 62
     1
100
AcDbLine
 10
-9.812905575858323
 20
14.6804747286817
 30
0.0
 11
-9.697986388898968
 21
14.6804747286817
 31
0.0
  0
LINE
  5
97
330
2
100
AcDbEntity
  8
GAIKEI
 62
     1
100
AcDbLine
 10
-9.697986388898968
 20
14.6804747286817
 30
0.0
 11
-9.697986388898968
 21
14.79515582340292
 31
0.0
  0
LINE
  5
98
330
2
100
AcDbEntity
  8
GAIKEI
 62
     1
100
AcDbLine
 10
-9.697986388898968
 20
14.79515582340292
 30
0.0
 11
-9.583225930098407
 21
14.79515582340292
 31
0.0
  0
LINE
  5
99
330
2
100
AcDbEntity
  8
GAIKEI
 62
     1
100
AcDbLine
 10
-9.583225930098407
 20
14.79515582340292
 30
0.0
 11
-9.583225930098407
 21
14.90991628220348
 31
0.0
  0
DIMENSION
  5
9A
330
2
100
AcDbEntity
  8
SUNPO
100
AcDbDimension
  2
*D2
 10
25.03273601170902
 20
-4.367596167960272
 30
0.0
 11
31.61606934504235
 21
-2.617596167960272
 31
0.0
 70
    33
  1
18
 71
     5
 42
3.600000000002694
  3
STANDARD
100
AcDbAlignedDimension
 13
21.43273601170633
 23
3.632403832039699
 33
0.0
 14
25.03273601170902
 24
3.632403832039727
 34
0.0
1001
ACAD
1000
DSTYLE
1002
{
1070
   287
1070
     3
1070
   287
1070
     3
1070
    40
1040
1.0
1070
   140
1040
2.5
1070
   147
1040
0.5
1070
   172
1070
     1
1070
   279
1070
     0
1070
   288
1070
     0
1002
}
  0
ARC
  5
A9
330
2
100
AcDbEntity
  8
GAIKEI
 62
     1
100
AcDbCircle
 10
21.47620486205388
 20
15.43837381077492
 30
0.0
 40
0.2554073702500081
100
AcDbArc
 50
101.1570722401988
 51
179.0322942518943
  0
ARC
  5
AA
330
2
100
AcDbEntity
  8
GAIKEI
 62
     1
100
AcDbCircle
 10
21.47637168877823
 20
11.12203334683892
 30
0.0
 40
0.255573802322496
100
AcDbArc
 50
180.9621359602848
 51
258.8121644799552
  0
ARC
  5
AB
330
2
100
AcDbEntity
  8
GAIKEI
100
AcDbCircle
 10
21.79975124844187
 20
4.037342287664273
 30
0.0
 40
0.4000544203462655
100
AcDbArc
 50
191.391422519458
 51
264.0508746255239
  0
DIMENSION
  5
AC
330
2
100
AcDbEntity
  8
SUNPO
100
AcDbDimension
  2
*D3
 10
6.579867549119953
 20
3.639442433514657
 30
0.0
 11
4.829867549119953
 21
12.6394385497943
 31
0.0
 70
    33
  1
90
 71
     5
 42
17.99999223255929
  3
STANDARD
100
AcDbAlignedDimension
 13
-1.420132450880061
 23
21.63943466607396
 33
0.0
 14
-1.420132450880053
 24
3.639442433514659
 34
0.0
1001
ACAD
1000
DSTYLE
1002
{
1070
   287
1070
     3
1070
   287
1070
     3
1070
    40
1040
1.0
1070
   140
1040
2.5
1070
   147
1040
0.5
1070
   172
1070
     1
1070
   279
1070
     0
1070
   288
1070
     0
1002
}
  0
ARC
  5
B9
330
2
100
AcDbEntity
  8
GAIKEI
 62
     1
100
AcDbCircle
 10
-2.931628972617815
 20
25.86048891323077
 30
0.0
 40
0.7300549510156062
100
AcDbArc
 50
114.8804303071493
 51
169.1438205964914
  0
LINE
  5
BA
330
2
100
AcDbEntity
  8
GAIKEI
 62
     1
100
AcDbLine
 10
-3.64861816541638
 20
25.68930427335909
 30
0.0
 11
-3.64861816541638
 21
25.9979906547191
 31
0.0
  0
LINE
  5
BB
330
2
100
AcDbEntity
  8
GAIKEI
 62
     1
100
AcDbLine
 10
-3.238782059437014
 20
26.52278583513197
 30
0.0
 11
-3.238782059437014
 21
25.68930427335909
 31
0.0
  0
ARC
  5
BC
330
2
100
AcDbEntity
  8
GAIKEI
 62
     1
100
AcDbCircle
 10
-4.169058496549766
 20
13.02721300204689
 30
0.0
 40
1.200278742754752
100
AcDbArc
 50
270.1652944384967
 51
359.8233060630134
  0
ARC
  5
BD
330
2
100
AcDbEntity
  8
GAIKEI
 62
     1
100
AcDbCircle
 10
-4.167232270575865
 20
13.02506851757391
 30
0.0
 40
1.417730615607065
100
AcDbArc
 50
270.0661367573402
 51
359.9370742595287
  0
ARC
  5
BE
330
2
100
AcDbEntity
  8
GAIKEI
 62
     1
100
AcDbCircle
 10
-2.770328390723008
 20
11.65094290983171
 30
0.0
 40
0.6002659016382501
100
AcDbArc
 50
270.1546086476839
 51
359.8225991576241
  0
ARC
  5
BF
330
2
100
AcDbEntity
  8
GAIKEI
 62
     1
100
AcDbCircle
 10
-2.769552474137228
 20
11.64992820916973
 30
0.0
 40
0.8186911299688841
100
AcDbArc
 50
270.0590570092259
 51
359.9409429907725
  0
ARC
  5
C0
330
2
100
AcDbEntity
  8
GAIKEI
 62
     1
100
AcDbCircle
 10
-4.167232270575865
 20
13.48567875659114
 30
0.0
 40
1.417730615607065
100
AcDbArc
 50
0.0629257404712469
 51
89.9338632426598
  0
ARC
  5
C1
330
2
100
AcDbEntity
  8
GAIKEI
 62
     1
100
AcDbCircle
 10
-4.169058496549766
 20
13.48353427211816
 30
0.0
 40
1.200278742754752
100
AcDbArc
 50
0.1766939369865472
 51
89.83470556150333
  0
ARC
  5
C2
330
2
100
AcDbEntity
  8
GAIKEI
 62
     1
100
AcDbCircle
 10
-2.769552474137228
 20
14.84947000164226
 30
0.0
 40
0.8186911299688841
100
AcDbArc
 50
0.0590570092274856
 51
89.94094299077412
  0
ARC
  5
C3
330
2
100
AcDbEntity
  8
GAIKEI
 62
     1
100
AcDbCircle
 10
-2.770328390723008
 20
14.84845530098027
 30
0.0
 40
0.6002659016382501
100
AcDbArc
 50
0.1774008423758921
 51
89.8453913523161
  0
LINE
  5
C4
330
2
100
AcDbEntity
  8
GAIKEI
 62
     1
100
AcDbLine
 10
-1.950861779066642
 20
14.85031385858019
 30
0.0
 11
-1.950861779066642
 21
11.64908435223179
 31
0.0
  0
LINE
  5
C5
330
2
100
AcDbEntity
  8
GAIKEI
 62
     1
100
AcDbLine
 10
-2.170065366346804
 20
14.85031385858019
 30
0.0
 11
-2.170065366346804
 21
11.64908435223179
 31
0.0
  0
LINE
  5
C6
330
2
100
AcDbEntity
  8
GAIKEI
 62
     1
100
AcDbLine
 10
-2.74950250998647
 20
13.48723579502575
 30
0.0
 11
-2.74950250998647
 21
13.02367020729809
 31
0.0
  0
LINE
  5
C7
330
2
100
AcDbEntity
  8
GAIKEI
 62
     1
100
AcDbLine
 10
-2.96878546134603
 20
13.48723579502575
 30
0.0
 11
-2.96878546134603
 21
13.02367020729809
 31
0.0
  0
ARC
  5
C8
330
2
100
AcDbEntity
  8
GAIKEI
100
AcDbCircle
 10
-1.688695989592972
 20
16.69689957918285
 30
0.0
 40
0.3067213753598923
100
AcDbArc
 50
2.629285741557383
 51
90.13832831501817
  0
LINE
  5
C9
330
2
100
AcDbEntity
  8
GAIKEI
100
AcDbLine
 10
-1.382297514303601
 20
4.788554939028756
 30
0.0
 11
-1.382297514303601
 21
16.71096998937708
 31
0.0
  0
LINE
  5
CA
330
2
100
AcDbEntity
  8
GAIKEI
100
AcDbLine
 10
-1.357139101136496
 20
3.958327304510987
 30
0.0
 11
-1.357139101136382
 21
4.13078544902936
 31
0.0
  0
ARC
  5
CB
330
2
100
AcDbEntity
  8
GAIKEI
100
AcDbCircle
 10
-1.749312751036356
 20
4.037342287664273
 30
0.0
 40
0.4000544203462655
100
AcDbArc
 50
275.9491253744761
 51
348.608577480542
  0
LINE
  5
CC
330
2
100
AcDbEntity
  8
GAIKEI
100
AcDbLine
 10
-1.491899307943683
 20
4.423638901985214
 30
0.0
 11
-1.580310892386179
 21
4.423638901985214
 31
0.0
  0
LINE
  5
CD
330
2
100
AcDbEntity
  8
GAIKEI
100
AcDbLine
 10
-1.580310892386179
 20
4.423638901985214
 30
0.0
 11
-1.580310892386179
 21
4.512685399062831
 31
0.0
  0
LINE
  5
CE
330
2
100
AcDbEntity
  8
GAIKEI
100
AcDbLine
 10
-1.580310892386179
 20
4.512685399062831
 30
0.0
 11
-1.45285218088297
 21
4.512685399062831
 31
0.0
  0
ARC
  5
CF
330
2
100
AcDbEntity
  8
GAIKEI
100
AcDbCircle
 10
-1.567962397907578
 20
4.274827569434819
 30
0.0
 40
0.1671239251282579
100
AcDbArc
 50
299.5458833866807
 51
62.92670953256531
  0
ARC
  5
D0
330
2
100
AcDbEntity
  8
GAIKEI
100
AcDbCircle
 10
-1.552925599505599
 20
4.644709495082963
 30
0.0
 40
0.1656654793393966
100
AcDbArc
 50
307.1618941125636
 51
58.16874954172246
  0
ARC
  5
D1
330
2
100
AcDbEntity
  8
GAIKEI
 62
     1
100
AcDbCircle
 10
-2.980212785094792
 20
17.78115481781083
 30
0.0
 40
0.2512249707923257
100
AcDbArc
 50
358.242892431445
 51
83.47004609294584
  0
ARC
  5
D2
330
2
100
AcDbEntity
  8
GAIKEI
 62
     1
100
AcDbCircle
 10
-3.439652421716388
 20
17.74384882912653
 30
0.0
 40
0.2869012456930941
100
AcDbArc
 50
89.95247614231526
 51
270.0475238576848
  0
LINE
  5
D3
330
2
100
AcDbEntity
  8
GAIKEI
 62
     1
100
AcDbLine
 10
-3.238782059437014
 20
17.45694768212513
 30
0.0
 11
-3.439414452139587
 21
17.45694768212513
 31
0.0
  0
LINE
  5
D4
330
2
100
AcDbEntity
  8
GAIKEI
 62
     1
100
AcDbLine
 10
-3.238782059437014
 20
17.45694768212513
 30
0.0
 11
-3.238782059437014
 21
17.1833797004615
 31
0.0
  0
LINE
  5
D5
330
2
100
AcDbEntity
  8
GAIKEI
 62
     1
100
AcDbLine
 10
-3.439414452139587
 20
18.03074997612799
 30
0.0
 11
-2.951642820197477
 21
18.03074997612799
 31
0.0
  0
LINE
  5
D6
330
2
100
AcDbEntity
  8
GAIKEI
 62
     1
100
AcDbLine
 10
-2.729105941582858
 20
17.1833797004615
 30
0.0
 11
-2.729105941582744
 21
17.77345163073971
 31
0.0
  0
LINE
  5
D7
330
2
100
AcDbEntity
  8
GAIKEI
100
AcDbLine
 10
-3.581555518330375
 20
17.00362006063904
 30
0.0
 11
-1.689436501549991
 21
17.00362006063904
 31
0.0
  0
LINE
  5
D8
330
2
100
AcDbEntity
  8
GAIKEI
100
AcDbLine
 10
-4.276931807583807
 20
17.1833797004615
 30
0.0
 11
-2.062288946532746
 21
17.1833797004615
 31
0.0
  0
LINE
  5
D9
330
2
100
AcDbEntity
  8
GAIKEI
 62
     1
100
AcDbLine
 10
-2.359269331616857
 20
18.24717582062948
 30
0.0
 11
-2.359269331616857
 21
16.99846139547856
 31
0.0
  0
LINE
  5
DA
330
2
100
AcDbEntity
  8
GAIKEI
 62
     1
100
AcDbLine
 10
-4.556543233658814
 20
18.24717582062948
 30
0.0
 11
-2.359269331616857
 21
18.24717582062948
 31
0.0
  0
LINE
  5
DB
330
2
100
AcDbEntity
  8
GAIKEI
 62
     1
100
AcDbLine
 10
-4.556543233658814
 20
17.34733439669014
 30
0.0
 11
-4.556543233658814
 21
18.24717582062948
 31
0.0
  0
CIRCLE
  5
DC
330
2
100
AcDbEntity
  8
GAIKEI
 62
     1
100
AcDbCircle
 10
-3.457668190399701
 20
17.67162751687999
 30
0.0
 40
0.1917436158106336
  0
LINE
  5
DD
330
2
100
AcDbEntity
  8
GAIKEI
100
AcDbLine
 10
-4.818127239334259
 20
18.03789274327323
 30
0.0
 11
-4.818127239334259
 21
17.57108170350796
 31
0.0
  0
LINE
  5
DE
330
2
100
AcDbEntity
  8
GAIKEI
100
AcDbLine
 10
-4.922570367813861
 20
18.03789274327323
 30
0.0
 11
-1.957845818053144
 21
18.03789274327323
 31
0.0
  0
LINE
  5
DF
330
2
100
AcDbEntity
  8
GAIKEI
100
AcDbLine
 10
-4.922570367813861
 20
18.63066305225072
 30
0.0
 11
-4.922570367813861
 21
18.03789274327323
 31
0.0
  0
LINE
  5
E0
330
2
100
AcDbEntity
  8
GAIKEI
100
AcDbLine
 10
-4.730985480162004
 20
18.96200808371157
 30
0.0
 11
-4.922570367813861
 21
18.63066305225072
 31
0.0
  0
LINE
  5
E1
330
2
100
AcDbEntity
  8
GAIKEI
100
AcDbLine
 10
-4.608764797898558
 20
18.96200808371157
 30
0.0
 11
-4.730985480162004
 21
18.96200808371157
 31
0.0
  0
LINE
  5
E2
330
2
100
AcDbEntity
  8
GAIKEI
100
AcDbLine
 10
-4.608764797898558
 20
19.81667985468203
 30
0.0
 11
-4.608764797898558
 21
18.96200808371157
 31
0.0
  0
LINE
  5
E3
330
2
100
AcDbEntity
  8
GAIKEI
100
AcDbLine
 10
-4.434481279554162
 20
20.14778679390474
 30
0.0
 11
-4.608764797898558
 21
19.81667985468203
 31
0.0
  0
LINE
  5
E4
330
2
100
AcDbEntity
  8
GAIKEI
100
AcDbLine
 10
-4.259880304892178
 20
21.51530924590514
 30
0.0
 11
-4.434481279554162
 21
20.14778679390474
 31
0.0
  0
LINE
  5
E5
330
2
100
AcDbEntity
  8
GAIKEI
100
AcDbLine
 10
-4.155437176412576
 20
21.72498914365832
 30
0.0
 11
-4.259880304892178
 21
21.51530924590514
 31
0.0
  0
LINE
  5
E6
330
2
100
AcDbEntity
  8
GAIKEI
100
AcDbLine
 10
-2.725296465772018
 20
21.72498914365832
 30
0.0
 11
-4.155437176412576
 21
21.72498914365832
 31
0.0
  0
LINE
  5
E7
330
2
100
AcDbEntity
  8
GAIKEI
100
AcDbLine
 10
-2.620218424657238
 20
21.51530924590514
 30
0.0
 11
-2.725296465772018
 21
21.72498914365832
 31
0.0
  0
LINE
  5
E8
330
2
100
AcDbEntity
  8
GAIKEI
100
AcDbLine
 10
-2.446093634471523
 20
20.14778679390474
 30
0.0
 11
-2.620218424657238
 21
21.51530924590514
 31
0.0
  0
LINE
  5
E9
330
2
100
AcDbEntity
  8
GAIKEI
100
AcDbLine
 10
-2.271810116127127
 20
19.81667985468203
 30
0.0
 11
-2.446093634471523
 21
20.14778679390474
 31
0.0
  0
LINE
  5
EA
330
2
100
AcDbEntity
  8
GAIKEI
100
AcDbLine
 10
-2.271810116127127
 20
18.96200808371157
 30
0.0
 11
-2.271810116127127
 21
19.81667985468203
 31
0.0
  0
LINE
  5
EB
330
2
100
AcDbEntity
  8
GAIKEI
100
AcDbLine
 10
-2.149748162022476
 20
18.96200808371157
 30
0.0
 11
-2.271810116127127
 21
18.96200808371157
 31
0.0
  0
LINE
  5
EC
330
2
100
AcDbEntity
  8
GAIKEI
100
AcDbLine
 10
-1.957845818053144
 20
18.63066305225072
 30
0.0
 11
-2.149748162022476
 21
18.96200808371157
 31
0.0
  0
LINE
  5
ED
330
2
100
AcDbEntity
  8
GAIKEI
100
AcDbLine
 10
-1.957845818053144
 20
18.03789274327323
 30
0.0
 11
-1.957845818053144
 21
18.63066305225072
 31
0.0
  0
LINE
  5
EE
330
2
100
AcDbEntity
  8
GAIKEI
100
AcDbLine
 10
-2.062288946532746
 20
17.1833797004615
 30
0.0
 11
-2.062288946532746
 21
18.03789274327323
 31
0.0
  0
LINE
  5
EF
330
2
100
AcDbEntity
  8
GAIKEI
  6
HIDDEN2
 62
     1
100
AcDbLine
 10
-3.695442972257566
 20
25.68930427335909
 30
0.0
 11
-3.912265637156039
 21
21.72617960484922
 31
0.0
  0
LINE
  5
F1
330
2
100
AcDbEntity
  8
GAIKEI
 62
     1
100
AcDbLine
 10
-3.205449146092448
 20
25.68930427335909
 30
0.0
 11
-3.695442972257566
 21
25.68930427335909
 31
0.0
  0
LINE
  5
F2
330
2
100
AcDbEntity
  8
GAIKEI
  6
HIDDEN2
 62
     1
100
AcDbLine
 10
-2.988785209352769
 20
21.72617960484922
 30
0.0
 11
-3.205449146092448
 21
25.68930427335909
 31
0.0
  0
LINE
  5
F3
330
2
100
AcDbEntity
  8
GAIKEI
 62
     1
100
AcDbLine
 10
-1.962131478340253
 20
18.63859946018988
 30
0.0
 11
-4.91098321222266
 21
18.63859946018988
 31
0.0
  0
LINE
  5
F4
330
2
100
AcDbEntity
  8
GAIKEI
100
AcDbLine
 10
-2.26069914501231
 20
18.96089698660006
 30
0.0
 11
-4.612098089233128
 21
18.96089698660006
 31
0.0
  0
LINE
  5
F5
330
2
100
AcDbEntity
  8
GAIKEI
 62
     1
100
AcDbLine
 10
-2.27847669879604
 20
19.82755273355872
 30
0.0
 11
-4.597177642307357
 21
19.82755273355872
 31
0.0
  0
LINE
  5
F6
330
2
100
AcDbEntity
  8
GAIKEI
100
AcDbLine
 10
-2.436411216785742
 20
20.13215207026451
 30
0.0
 11
-4.43940185247645
 21
20.13215207026451
 31
0.0
  0
LINE
  5
F7
330
2
100
AcDbEntity
  8
GAIKEI
 62
     1
100
AcDbLine
 10
-2.626408822849768
 20
21.49602377461292
 30
0.0
 11
-4.25495973196989
 21
21.49602377461292
 31
0.0
  0
CIRCLE
  5
F8
330
2
100
AcDbEntity
  8
GAIKEI
 62
     1
100
AcDbCircle
 10
-4.182063825048473
 20
13.40279241455283
 30
0.0
 40
0.6015374220231276
  0
CIRCLE
  5
F9
330
2
100
AcDbEntity
  8
GAIKEI
 62
     1
100
AcDbCircle
 10
-2.747637454120805
 20
14.8525360528032
 30
0.0
 40
0.3061469362539401
  0
CIRCLE
  5
FA
330
2
100
AcDbEntity
  8
GAIKEI
 62
     1
100
AcDbCircle
 10
-2.747637454120805
 20
11.65868740583823
 30
0.0
 40
0.3061469362539401
  0
LINE
  5
FB
330
2
100
AcDbEntity
  8
GAIKEI
 62
     1
100
AcDbLine
 10
-4.585193666319284
 20
13.11581190347203
 30
0.0
 11
-4.661462546614799
 21
13.27414324185866
 31
0.0
  0
LINE
  5
FC
330
2
100
AcDbEntity
  8
GAIKEI
 62
     1
100
AcDbLine
 10
-4.661462546614799
 20
13.27414324185866
 30
0.0
 11
-4.425909958979829
 21
13.43668087645312
 31
0.0
  0
LINE
  5
FD
330
2
100
AcDbEntity
  8
GAIKEI
 62
     1
100
AcDbLine
 10
-4.425909958979829
 20
13.43668087645312
 30
0.0
 11
-4.311228864258666
 21
13.19890609459526
 31
0.0
  0
LINE
  5
FE
330
2
100
AcDbEntity
  8
GAIKEI
 62
     1
100
AcDbLine
 10
-4.311228864258666
 20
13.19890609459526
 30
0.0
 11
-4.585193666319284
 21
13.11581190347203
 31
0.0
  0
LINE
  5
FF
330
2
100
AcDbEntity
  8
GAIKEI
 62
     1
100
AcDbLine
 10
-4.162659307637156
 20
13.12882761249227
 30
0.0
 11
-4.387259652316103
 21
13.58652025834487
 31
0.0
  0
LINE
  5
100
330
2
100
AcDbEntity
  8
GAIKEI
 62
     1
100
AcDbLine
 10
-4.387259652316103
 20
13.58652025834487
 30
0.0
 11
-4.208611109605087
 21
13.67413820199345
 31
0.0
  0
LINE
  5
101
330
2
100
AcDbEntity
  8
GAIKEI
 62
     1
100
AcDbLine
 10
-4.208611109605087
 20
13.67413820199345
 30
0.0
 11
-3.984328221243842
 21
13.21612809982326
 31
0.0
  0
LINE
  5
102
330
2
100
AcDbEntity
  8
GAIKEI
 62
     1
100
AcDbLine
 10
-3.984328221243842
 20
13.21612809982326
 30
0.0
 11
-4.162659307637156
 21
13.12882761249227
 31
0.0
  0
LINE
  5
103
330
2
100
AcDbEntity
  8
GAIKEI
 62
     1
100
AcDbLine
 10
-2.575457083880266
 20
11.71590890707972
 30
0.0
 11
-2.690376270839621
 21
11.71590890707972
 31
0.0
  0
LINE
  5
104
330
2
100
AcDbEntity
  8
GAIKEI
 62
     1
100
AcDbLine
 10
-2.690376270839621
 20
11.71590890707972
 30
0.0
 11
-2.690376270839621
 21
11.83066936588028
 31
0.0
  0
LINE
  5
105
330
2
100
AcDbEntity
  8
GAIKEI
 62
     1
100
AcDbLine
 10
-2.690376270839621
 20
11.83066936588028
 30
0.0
 11
-2.805136729640182
 21
11.83066936588028
 31
0.0
  0
LINE
  5
106
330
2
100
AcDbEntity
  8
GAIKEI
 62
     1
100
AcDbLine
 10
-2.805136729640182
 20
11.83066936588028
 30
0.0
 11
-2.805136729640182
 21
11.71590890707972
 31
0.0
  0
LINE
  5
107
330
2
100
AcDbEntity
  8
GAIKEI
 62
     1
100
AcDbLine
 10
-2.805136729640182
 20
11.71590890707972
 30
0.0
 11
-2.919897188440742
 21
11.71590890707972
 31
0.0
  0
LINE
  5
108
330
2
100
AcDbEntity
  8
GAIKEI
 62
     1
100
AcDbLine
 10
-2.919897188440742
 20
11.71590890707972
 30
0.0
 11
-2.919897188440742
 21
11.60130717643795
 31
0.0
  0
LINE
  5
109
330
2
100
AcDbEntity
  8
GAIKEI
 62
     1
100
AcDbLine
 10
-2.919897188440742
 20
11.60130717643795
 30
0.0
 11
-2.805136729640182
 21
11.60130717643795
 31
0.0
  0
LINE
  5
10A
330
2
100
AcDbEntity
  8
GAIKEI
 62
     1
100
AcDbLine
 10
-2.805136729640182
 20
11.60130717643795
 30
0.0
 11
-2.805136729640182
 21
11.48654671763734
 31
0.0
  0
LINE
  5
10B
330
2
100
AcDbEntity
  8
GAIKEI
 62
     1
100
AcDbLine
 10
-2.805136729640182
 20
11.48654671763734
 30
0.0
 11
-2.690376270839621
 21
11.48654671763734
 31
0.0
  0
LINE
  5
10C
330
2
100
AcDbEntity
  8
GAIKEI
 62
     1
100
AcDbLine
 10
-2.690376270839621
 20
11.48654671763734
 30
0.0
 11
-2.690376270839621
 21
11.60130717643795
 31
0.0
  0
LINE
  5
10D
330
2
100
AcDbEntity
  8
GAIKEI
 62
     1
100
AcDbLine
 10
-2.690376270839621
 20
11.60130717643795
 30
0.0
 11
-2.575457083880266
 21
11.60130717643795
 31
0.0
  0
LINE
  5
10E
330
2
100
AcDbEntity
  8
GAIKEI
 62
     1
100
AcDbLine
 10
-2.575457083880266
 20
11.60130717643795
 30
0.0
 11
-2.575457083880266
 21
11.71590890707972
 31
0.0
  0
LINE
  5
10F
330
2
100
AcDbEntity
  8
GAIKEI
 62
     1
100
AcDbLine
 10
-2.575457083880266
 20
14.90991628220348
 30
0.0
 11
-2.690376270839621
 21
14.90991628220348
 31
0.0
  0
LINE
  5
110
330
2
100
AcDbEntity
  8
GAIKEI
 62
     1
100
AcDbLine
 10
-2.690376270839621
 20
14.90991628220348
 30
0.0
 11
-2.690376270839621
 21
15.02483546916284
 31
0.0
  0
LINE
  5
111
330
2
100
AcDbEntity
  8
GAIKEI
 62
     1
100
AcDbLine
 10
-2.690376270839621
 20
15.02483546916284
 30
0.0
 11
-2.805136729640182
 21
15.02483546916284
 31
0.0
  0
LINE
  5
112
330
2
100
AcDbEntity
  8
GAIKEI
 62
     1
100
AcDbLine
 10
-2.805136729640182
 20
15.02483546916284
 30
0.0
 11
-2.805136729640182
 21
14.90991628220348
 31
0.0
  0
LINE
  5
113
330
2
100
AcDbEntity
  8
GAIKEI
 62
     1
100
AcDbLine
 10
-2.805136729640182
 20
14.90991628220348
 30
0.0
 11
-2.919897188440742
 21
14.90991628220348
 31
0.0
  0
LINE
  5
114
330
2
100
AcDbEntity
  8
GAIKEI
 62
     1
100
AcDbLine
 10
-2.919897188440742
 20
14.90991628220348
 30
0.0
 11
-2.919897188440742
 21
14.79515582340292
 31
0.0
  0
LINE
  5
115
330
2
100
AcDbEntity
  8
GAIKEI
 62
     1
100
AcDbLine
 10
-2.919897188440742
 20
14.79515582340292
 30
0.0
 11
-2.805136729640182
 21
14.79515582340292
 31
0.0
  0
LINE
  5
116
330
2
100
AcDbEntity
  8
GAIKEI
 62
     1
100
AcDbLine
 10
-2.805136729640182
 20
14.79515582340292
 30
0.0
 11
-2.805136729640182
 21
14.6804747286817
 31
0.0
  0
LINE
  5
117
330
2
100
AcDbEntity
  8
GAIKEI
 62
     1
100
AcDbLine
 10
-2.805136729640182
 20
14.6804747286817
 30
0.0
 11
-2.690376270839621
 21
14.6804747286817
 31
0.0
  0
LINE
  5
118
330
2
100
AcDbEntity
  8
GAIKEI
 62
     1
100
AcDbLine
 10
-2.690376270839621
 20
14.6804747286817
 30
0.0
 11
-2.690376270839621
 21
14.79515582340292
 31
0.0
  0
LINE
  5
119
330
2
100
AcDbEntity
  8
GAIKEI
 62
     1
100
AcDbLine
 10
-2.690376270839621
 20
14.79515582340292
 30
0.0
 11
-2.575457083880266
 21
14.79515582340292
 31
0.0
  0
LINE
  5
11A
330
2
100
AcDbEntity
  8
GAIKEI
 62
     1
100
AcDbLine
 10
-2.575457083880266
 20
14.79515582340292
 30
0.0
 11
-2.575457083880266
 21
14.90991628220348
 31
0.0
  0
LINE
  5
11B
330
2
100
AcDbEntity
  8
GAIKEI
 62
     1
100
AcDbLine
 10
21.22083391973292
 20
15.44268734716075
 30
0.0
 11
21.22083391973292
 21
11.11774184070356
 31
0.0
  0
LINE
  5
11C
330
2
100
AcDbEntity
  8
GAIKEI
100
AcDbLine
 10
22.0710492227346
 20
21.63943466607396
 30
0.0
 11
22.0710492227346
 21
23.90976132014555
 31
0.0
  0
LINE
  5
11D
330
2
100
AcDbEntity
  8
GAIKEI
100
AcDbLine
 10
24.39467073916832
 20
23.90976132014555
 30
0.0
 11
24.39467073916832
 21
21.63943466607396
 31
0.0
  0
LINE
  5
11E
330
2
100
AcDbEntity
  8
GAIKEI
100
AcDbLine
 10
22.8284999964501
 20
24.63943466607395
 30
0.0
 11
23.63706123729391
 21
24.63943466607395
 31
0.0
  0
ARC
  5
11F
330
2
100
AcDbEntity
  8
GAIKEI
100
AcDbCircle
 10
22.81989306233403
 20
23.89038975806881
 30
0.0
 40
0.7490943555542767
100
AcDbArc
 50
89.34166924802005
 51
178.5181673243019
  0
ARC
  5
120
330
2
100
AcDbEntity
  8
GAIKEI
100
AcDbCircle
 10
23.64558357180614
 20
23.89013900385663
 30
0.0
 40
0.7493441262885808
100
AcDbArc
 50
1.500518113053894
 51
90.65164229509257
  0
ARC
  5
121
330
2
100
AcDbEntity
  8
GAIKEI
 62
     1
100
AcDbCircle
 10
23.23020128429182
 20
17.45305891166248
 30
0.0
 40
0.0980940341773473
100
AcDbArc
 50
179.9536847534171
 51
0.0463152465795813
  0
LINE
  5
122
330
2
100
AcDbEntity
  8
GAIKEI
 62
     1
100
AcDbLine
 10
23.3282952864201
 20
18.25352494698075
 30
0.0
 11
23.3282952864201
 21
17.45313820631429
 31
0.0
  0
LINE
  5
123
330
2
100
AcDbEntity
  8
GAIKEI
 62
     1
100
AcDbLine
 10
23.13210728216354
 20
18.25352494698075
 30
0.0
 11
23.13210728216354
 21
17.45313820631429
 31
0.0
  0
ARC
  5
124
330
2
100
AcDbEntity
  8
GAIKEI
100
AcDbCircle
 10
24.38065761634034
 20
16.47199556593415
 30
0.0
 40
0.6496385334085917
100
AcDbArc
 50
0.0953088655123708
 51
27.29014351251417
  0
ARC
  5
125
330
2
100
AcDbEntity
  8
GAIKEI
100
AcDbCircle
 10
24.62298001474422
 20
16.57696389716511
 30
0.0
 40
0.3868196171962499
100
AcDbArc
 50
36.5254179456108
 51
93.68062908310148
  0
ARC
  5
126
330
2
100
AcDbEntity
  8
GAIKEI
100
AcDbCircle
 10
23.93396655367014
 20
16.1349853395389
 30
0.0
 40
1.204856099729979
100
AcDbArc
 50
31.79784208612844
 51
72.10516914758541
  0
ARC
  5
127
330
2
100
AcDbEntity
  8
GAIKEI
100
AcDbCircle
 10
21.83577992943647
 20
16.58609136432233
 30
0.0
 40
0.377828546710139
100
AcDbArc
 50
85.96992218284613
 51
146.9633171097225
  0
ARC
  5
128
330
2
100
AcDbEntity
  8
GAIKEI
100
AcDbCircle
 10
22.11880061200243
 20
16.45482260438569
 30
0.0
 40
0.6880798445398142
100
AcDbArc
 50
150.6505685206265
 51
184.3861967673015
  0
ARC
  5
129
330
2
100
AcDbEntity
  8
GAIKEI
100
AcDbCircle
 10
22.56633857574271
 20
16.07645535915407
 30
0.0
 40
1.272921212982929
100
AcDbArc
 50
108.7877353740456
 51
148.0250921190484
  0
LINE
  5
12A
330
2
100
AcDbEntity
  8
GAIKEI
100
AcDbLine
 10
21.86233377345691
 20
16.96298565199043
 30
0.0
 11
24.59814815920602
 21
16.96298565199043
 31
0.0
  0
ARC
  5
12B
330
2
100
AcDbEntity
  8
GAIKEI
100
AcDbCircle
 10
24.53347834753113
 20
21.26299475832514
 30
0.0
 40
0.3772699089277562
100
AcDbArc
 50
358.9417194962944
 51
93.80128607523451
  0
ARC
  5
12C
330
2
100
AcDbEntity
  8
GAIKEI
100
AcDbCircle
 10
21.93212650782841
 20
21.26287089924699
 30
0.0
 40
0.3773906071082578
100
AcDbArc
 50
86.20656868926934
 51
181.0391344574271
  0
LINE
  5
12D
330
2
100
AcDbEntity
  8
GAIKEI
100
AcDbLine
 10
21.95709448425073
 20
21.63943466607396
 30
0.0
 11
24.50846674949328
 21
21.63943466607396
 31
0.0
  0
LINE
  5
12E
330
2
100
AcDbEntity
  8
GAIKEI
100
AcDbLine
 10
25.03274585795562
 20
16.38331041611258
 30
0.0
 11
24.91068390385108
 21
21.25602679853205
 31
0.0
  0
LINE
  5
12F
330
2
100
AcDbEntity
  8
GAIKEI
100
AcDbLine
 10
21.432736011709
 20
16.38331041611258
 30
0.0
 11
21.55479796581365
 21
21.25602679853205
 31
0.0
  0
LINE
  5
130
330
2
100
AcDbEntity
  8
GAIKEI
100
AcDbLine
 10
21.7582874653743
 20
3.639442433514602
 30
0.0
 11
24.70719440429043
 21
3.639442433514659
 31
0.0
  0
LINE
  5
131
330
2
100
AcDbEntity
  8
GAIKEI
100
AcDbLine
 10
25.03273601170902
 20
4.788554939028756
 30
0.0
 11
25.03273601170902
 21
16.40219906700781
 31
0.0
  0
ARC
  5
132
330
2
100
AcDbEntity
  8
GAIKEI
100
AcDbCircle
 10
24.86211777275374
 20
4.644709495082963
 30
0.0
 40
0.1656654793393966
100
AcDbArc
 50
307.1618941125636
 51
58.16874954172246
  0
ARC
  5
133
330
2
100
AcDbEntity
  8
GAIKEI
100
AcDbCircle
 10
24.84708097435176
 20
4.274827569434819
 30
0.0
 40
0.1671239251282579
100
AcDbArc
 50
299.5458833866807
 51
62.92670953256531
  0
LINE
  5
134
330
2
100
AcDbEntity
  8
GAIKEI
100
AcDbLine
 10
24.83473247987304
 20
4.512685399062831
 30
0.0
 11
24.96219119137637
 21
4.512685399062831
 31
0.0
  0
LINE
  5
135
330
2
100
AcDbEntity
  8
GAIKEI
100
AcDbLine
 10
24.83473247987304
 20
4.423638901985214
 30
0.0
 11
24.83473247987304
 21
4.512685399062831
 31
0.0
  0
LINE
  5
136
330
2
100
AcDbEntity
  8
GAIKEI
100
AcDbLine
 10
24.92314406431554
 20
4.423638901985214
 30
0.0
 11
24.83473247987304
 21
4.423638901985214
 31
0.0
  0
ARC
  5
137
330
2
100
AcDbEntity
  8
GAIKEI
100
AcDbCircle
 10
24.66573062122286
 20
4.037342287664273
 30
0.0
 40
0.4000544203462655
100
AcDbArc
 50
275.9491253744761
 51
348.608577480542
  0
LINE
  5
138
330
2
100
AcDbEntity
  8
GAIKEI
100
AcDbLine
 10
25.05790427112284
 20
3.958327304510987
 30
0.0
 11
25.05790427112284
 21
4.13078544902936
 31
0.0
  0
LINE
  5
139
330
2
100
AcDbEntity
  8
GAIKEI
100
AcDbLine
 10
21.432736011709
 20
4.788554939028756
 30
0.0
 11
21.432736011709
 21
16.40219906700781
 31
0.0
  0
LINE
  5
13A
330
2
100
AcDbEntity
  8
GAIKEI
100
AcDbLine
 10
21.40757759854189
 20
3.958327304510987
 30
0.0
 11
21.40757759854189
 21
4.13078544902936
 31
0.0
  0
LINE
  5
13B
330
2
100
AcDbEntity
  8
GAIKEI
100
AcDbLine
 10
21.54233780534908
 20
4.423638901985214
 30
0.0
 11
21.63074938979157
 21
4.423638901985214
 31
0.0
  0
LINE
  5
13C
330
2
100
AcDbEntity
  8
GAIKEI
100
AcDbLine
 10
21.63074938979157
 20
4.423638901985214
 30
0.0
 11
21.63074938979157
 21
4.512685399062831
 31
0.0
  0
LINE
  5
13D
330
2
100
AcDbEntity
  8
GAIKEI
100
AcDbLine
 10
21.63074938979157
 20
4.512685399062831
 30
0.0
 11
21.50329067828836
 21
4.512685399062831
 31
0.0
  0
ARC
  5
13E
330
2
100
AcDbEntity
  8
GAIKEI
100
AcDbCircle
 10
21.61840089531297
 20
4.274827569434762
 30
0.0
 40
0.1671239251282579
100
AcDbArc
 50
117.0732904674347
 51
240.4541166133193
  0
ARC
  5
13F
330
2
100
AcDbEntity
  8
GAIKEI
100
AcDbCircle
 10
21.60336409691099
 20
4.644709495082906
 30
0.0
 40
0.1656654793393966
100
AcDbArc
 50
121.8312504582775
 51
232.8381058874364
  0
LINE
  5
140
330
2
100
AcDbEntity
  8
GAIKEI
 62
     1
100
AcDbLine
 10
21.432736011709
 20
4.788554939028756
 30
0.0
 11
25.03273601170902
 21
4.788554939028756
 31
0.0
  0
LINE
  5
141
330
2
100
AcDbEntity
  8
GAIKEI
 62
     1
100
AcDbLine
 10
21.62067015170892
 20
4.516494874873615
 30
0.0
 11
24.83465311579364
 21
4.516494874873615
 31
0.0
  0
LINE
  5
142
330
2
100
AcDbEntity
  8
GAIKEI
 62
     1
100
AcDbLine
 10
21.62067015170892
 20
4.427527741875394
 30
0.0
 11
24.83465311579364
 21
4.427527741875394
 31
0.0
  0
LINE
  5
143
330
2
100
AcDbEntity
  8
GAIKEI
 62
     1
100
AcDbLine
 10
21.40757759854189
 20
4.13078544902936
 30
0.0
 11
25.05790427112284
 21
4.13078544902936
 31
0.0
  0
CIRCLE
  5
144
330
2
100
AcDbEntity
  8
GAIKEI
 62
     1
100
AcDbCircle
 10
23.20274131282231
 20
14.95023323453449
 30
0.0
 40
0.2525365006247667
  0
CIRCLE
  5
145
330
2
100
AcDbEntity
  8
GAIKEI
100
AcDbCircle
 10
23.20258258466352
 20
14.95023323453449
 30
0.0
 40
0.5517390799319228
  0
CIRCLE
  5
146
330
2
100
AcDbEntity
  8
GAIKEI
 62
     1
100
AcDbCircle
 10
23.19218589026316
 20
6.846782973976189
 30
0.0
 40
0.3061072542142442
  0
LINE
  5
147
330
2
100
AcDbEntity
  8
GAIKEI
 62
     1
100
AcDbLine
 10
23.36440594254334
 20
6.904163203376469
 30
0.0
 11
23.24948675558399
 21
6.904163203376469
 31
0.0
  0
LINE
  5
148
330
2
100
AcDbEntity
  8
GAIKEI
 62
     1
100
AcDbLine
 10
23.24948675558399
 20
6.904163203376469
 30
0.0
 11
23.24948675558399
 21
7.019082390335825
 31
0.0
  0
LINE
  5
149
330
2
100
AcDbEntity
  8
GAIKEI
 62
     1
100
AcDbLine
 10
23.24948675558399
 20
7.019082390335825
 30
0.0
 11
23.13456756862463
 21
7.019082390335825
 31
0.0
  0
LINE
  5
14A
330
2
100
AcDbEntity
  8
GAIKEI
 62
     1
100
AcDbLine
 10
23.13456756862463
 20
7.019082390335825
 30
0.0
 11
23.13456756862463
 21
6.904163203376469
 31
0.0
  0
LINE
  5
14B
330
2
100
AcDbEntity
  8
GAIKEI
 62
     1
100
AcDbLine
 10
23.13456756862463
 20
6.904163203376469
 30
0.0
 11
23.01996583798286
 21
6.904163203376469
 31
0.0
  0
LINE
  5
14C
330
2
100
AcDbEntity
  8
GAIKEI
 62
     1
100
AcDbLine
 10
23.01996583798286
 20
6.904163203376469
 30
0.0
 11
23.01996583798286
 21
6.789402744575909
 31
0.0
  0
LINE
  5
14D
330
2
100
AcDbEntity
  8
GAIKEI
 62
     1
100
AcDbLine
 10
23.01996583798286
 20
6.789402744575909
 30
0.0
 11
23.13456756862463
 21
6.789402744575909
 31
0.0
  0
LINE
  5
14E
330
2
100
AcDbEntity
  8
GAIKEI
 62
     1
100
AcDbLine
 10
23.13456756862463
 20
6.789402744575909
 30
0.0
 11
23.13456756862463
 21
6.674642285775348
 31
0.0
  0
LINE
  5
14F
330
2
100
AcDbEntity
  8
GAIKEI
 62
     1
100
AcDbLine
 10
23.13456756862463
 20
6.674642285775348
 30
0.0
 11
23.24948675558399
 21
6.674642285775348
 31
0.0
  0
LINE
  5
150
330
2
100
AcDbEntity
  8
GAIKEI
 62
     1
100
AcDbLine
 10
23.24948675558399
 20
6.674642285775348
 30
0.0
 11
23.24948675558399
 21
6.789402744575909
 31
0.0
  0
LINE
  5
151
330
2
100
AcDbEntity
  8
GAIKEI
 62
     1
100
AcDbLine
 10
23.24948675558399
 20
6.789402744575909
 30
0.0
 11
23.36440594254334
 21
6.789402744575909
 31
0.0
  0
LINE
  5
152
330
2
100
AcDbEntity
  8
GAIKEI
 62
     1
100
AcDbLine
 10
23.36440594254334
 20
6.789402744575909
 30
0.0
 11
23.36440594254334
 21
6.904163203376469
 31
0.0
  0
LINE
  5
153
330
2
100
AcDbEntity
  8
GAIKEI
 62
     1
100
AcDbLine
 10
23.09623471827849
 20
14.76555302178974
 30
0.0
 11
22.98941066741709
 21
14.95023323453449
 31
0.0
  0
LINE
  5
154
330
2
100
AcDbEntity
  8
GAIKEI
 62
     1
100
AcDbLine
 10
22.98941066741709
 20
14.95023323453449
 30
0.0
 11
23.09623471827849
 21
15.13491344727924
 31
0.0
  0
LINE
  5
155
330
2
100
AcDbEntity
  8
GAIKEI
 62
     1
100
AcDbLine
 10
23.09623471827849
 20
15.13491344727924
 30
0.0
 11
23.30908917920734
 21
15.13491344727924
 31
0.0
  0
LINE
  5
156
330
2
100
AcDbEntity
  8
GAIKEI
 62
     1
100
AcDbLine
 10
23.30908917920734
 20
15.13491344727924
 30
0.0
 11
23.41591323006863
 21
14.95023323453449
 31
0.0
  0
LINE
  5
157
330
2
100
AcDbEntity
  8
GAIKEI
 62
     1
100
AcDbLine
 10
23.41591323006863
 20
14.95023323453449
 30
0.0
 11
23.30908917920734
 21
14.76555302178974
 31
0.0
  0
LINE
  5
158
330
2
100
AcDbEntity
  8
GAIKEI
 62
     1
100
AcDbLine
 10
23.30908917920734
 20
14.76555302178974
 30
0.0
 11
23.09623471827849
 21
14.76555302178974
 31
0.0
  0
LINE
  5
159
330
2
100
AcDbEntity
  8
GAIKEI
 62
     1
100
AcDbLine
 10
24.30418360913878
 20
17.85313316644902
 30
0.0
 11
24.51624442927364
 21
17.85313316644902
 31
0.0
  0
LINE
  5
15A
330
2
100
AcDbEntity
  8
GAIKEI
 62
     1
100
AcDbLine
 10
24.51624442927364
 20
17.85313316644902
 30
0.0
 11
24.51624442927364
 21
17.45313820631429
 31
0.0
  0
LINE
  5
15B
330
2
100
AcDbEntity
  8
GAIKEI
 62
     1
100
AcDbLine
 10
24.51624442927364
 20
17.45313820631429
 30
0.0
 11
24.30418360913878
 21
17.45313820631429
 31
0.0
  0
LINE
  5
15C
330
2
100
AcDbEntity
  8
GAIKEI
 62
     1
100
AcDbLine
 10
24.30418360913878
 20
16.96298565199043
 30
0.0
 11
24.30418360913878
 21
18.25352494698075
 31
0.0
  0
LINE
  5
15D
330
2
100
AcDbEntity
  8
GAIKEI
 62
     1
100
AcDbLine
 10
24.30418360913878
 20
18.25352494698075
 30
0.0
 11
22.15637768760366
 21
18.25352494698075
 31
0.0
  0
LINE
  5
15E
330
2
100
AcDbEntity
  8
GAIKEI
 62
     1
100
AcDbLine
 10
22.15637768760366
 20
18.25352494698075
 30
0.0
 11
22.15637768760366
 21
16.96298565199043
 31
0.0
  0
LINE
  5
15F
330
2
100
AcDbEntity
  8
GAIKEI
 62
     1
100
AcDbLine
 10
22.15637768760366
 20
17.85313316644902
 30
0.0
 11
21.9439200470717
 21
17.85313316644902
 31
0.0
  0
LINE
  5
160
330
2
100
AcDbEntity
  8
GAIKEI
 62
     1
100
AcDbLine
 10
21.9439200470717
 20
17.85313316644902
 30
0.0
 11
21.9439200470717
 21
17.45313820631429
 31
0.0
  0
LINE
  5
161
330
2
100
AcDbEntity
  8
GAIKEI
 62
     1
100
AcDbLine
 10
21.9439200470717
 20
17.45313820631429
 30
0.0
 11
22.15637768760366
 21
17.45313820631429
 31
0.0
  0
LINE
  5
162
330
2
100
AcDbEntity
  8
WAKU
 62
     1
100
AcDbLine
 10
-59.81094209311781
 20
-51.6048947472222
 30
0.0
 11
65.18905790688219
 21
-51.6048947472222
 31
0.0
  0
LINE
  5
164
330
2
100
AcDbEntity
  8
WAKU
 62
     4
100
AcDbLine
 10
-59.81094209311781
 20
-56.6048947472222
 30
0.0
 11
65.18905790688219
 21
-56.6048947472222
 31
0.0
  0
LINE
  5
165
330
2
100
AcDbEntity
  8
WAKU
 62
     4
100
AcDbLine
 10
65.18905790688219
 20
-16.6048947472222
 30
0.0
 11
-59.81094209311781
 21
-16.6048947472222
 31
0.0
  0
LINE
  5
166
330
2
100
AcDbEntity
  8
WAKU
 62
     1
100
AcDbLine
 10
-59.81094209311781
 20
-46.6048947472222
 30
0.0
 11
65.18905790688219
 21
-46.6048947472222
 31
0.0
  0
LINE
  5
167
330
2
100
AcDbEntity
  8
WAKU
 62
     1
100
AcDbLine
 10
-59.81094209311781
 20
-41.6048947472222
 30
0.0
 11
65.18905790688219
 21
-41.6048947472222
 31
0.0
  0
LINE
  5
168
330
2
100
AcDbEntity
  8
WAKU
 62
     1
100
AcDbLine
 10
-59.81094209311781
 20
-36.60489474722221
 30
0.0
 11
65.18905790688219
 21
-36.60489474722221
 31
0.0
  0
LINE
  5
169
330
2
100
AcDbEntity
  8
WAKU
 62
     1
100
AcDbLine
 10
-59.81094209311781
 20
-31.60489474722221
 30
0.0
 11
65.18905790688219
 21
-31.60489474722221
 31
0.0
  0
LINE
  5
16A
330
2
100
AcDbEntity
  8
WAKU
 62
     1
100
AcDbLine
 10
-59.81094209311781
 20
-26.60489474722221
 30
0.0
 11
65.18905790688219
 21
-26.60489474722221
 31
0.0
  0
LINE
  5
16B
330
2
100
AcDbEntity
  8
WAKU
 62
     1
100
AcDbLine
 10
-59.81094209311781
 20
-21.6048947472222
 30
0.0
 11
65.18905790688219
 21
-21.6048947472222
 31
0.0
  0
LINE
  5
16C
330
2
100
AcDbEntity
  8
WAKU
 62
     4
100
AcDbLine
 10
-59.81094209311781
 20
-16.6048947472222
 30
0.0
 11
-59.81094209311781
 21
-56.6048947472222
 31
0.0
  0
TEXT
  5
16D
330
2
100
AcDbEntity
  8
MOJI1
100
AcDbText
 10
-17.31094209311781
 20
-30.60489474722221
 30
0.0
 40
3.0
  1
７７９．１２５ＭＨｚ～７８７．８７５ＭＨｚ ７１波
 41
0.9
100
AcDbText
  0
TEXT
  5
16E
330
2
100
AcDbEntity
  8
MOJI1
100
AcDbText
 10
-17.31094209311781
 20
-35.60489474722221
 30
0.0
 40
3.0
  1
７９７．１２５ＭＨｚ～８０５．８７５ＭＨｚ ７１波
 41
0.9
100
AcDbText
  0
TEXT
  5
16F
330
2
100
AcDbEntity
  8
MOJI1
100
AcDbText
 10
-17.31094209311781
 20
-45.6048947472222
 30
0.0
 40
3.0
  1
周波数変調方式（リアクタンス変調方式）
100
AcDbText
  0
TEXT
  5
170
330
2
100
AcDbEntity
  8
MOJI1
100
AcDbText
 10
-17.31094209311783
 20
-55.60489474722221
 30
0.0
 40
3.0
  1
電池電圧、電池残量（３段階）
100
AcDbText
  0
TEXT
  5
171
330
2
100
AcDbEntity
  8
MOJI1
100
AcDbText
 10
-17.31094209311781
 20
-40.6048947472222
 30
0.0
 40
3.0
  1
合計１４２波中の１波
100
AcDbText
  0
TEXT
  5
172
330
2
100
AcDbEntity
  8
MOJI1
100
AcDbText
 10
-17.31094209311781
 20
-20.60489474722221
 30
0.0
 40
3.0
  1
Ｆ３Ｅ、Ｆ８Ｗ
100
AcDbText
  0
TEXT
  5
173
330
2
100
AcDbEntity
  8
MOJI1
100
AcDbText
 10
-17.31094209311781
 20
-50.60489474722221
 30
0.0
 40
3.0
  1
ヘリカルアンテナ
100
AcDbText
  0
TEXT
  5
174
330
2
100
AcDbEntity
  8
MOJI1
100
AcDbText
 10
-17.31094209311781
 20
-25.60489474722221
 30
0.0
 40
3.0
  1
水晶制御ＰＬＬシンセサイザー方式
100
AcDbText
  0
TEXT
  5
175
330
2
100
AcDbEntity
  8
MOJI1
100
AcDbText
 10
-57.31094209311781
 20
-50.60489474722221
 30
0.0
 40
3.0
  1
アンテナ形式
100
AcDbText
  0
TEXT
  5
176
330
2
100
AcDbEntity
  8
MOJI1
100
AcDbText
 10
-57.31094209311783
 20
-55.60489474722221
 30
0.0
 40
3.0
  1
制御信号
100
AcDbText
  0
TEXT
  5
177
330
2
100
AcDbEntity
  8
MOJI1
100
AcDbText
 10
-57.31094209311781
 20
-20.60489474722221
 30
0.0
 40
3.0
  1
電波形式
100
AcDbText
  0
TEXT
  5
178
330
2
100
AcDbEntity
  8
MOJI1
100
AcDbText
 10
-57.31094209311781
 20
-25.60489474722221
 30
0.0
 40
3.0
  1
発振方式
100
AcDbText
  0
TEXT
  5
179
330
2
100
AcDbEntity
  8
MOJI1
100
AcDbText
 10
-57.31094209311781
 20
-30.60489474722221
 30
0.0
 40
3.0
  1
送信周波数
100
AcDbText
  0
TEXT
  5
17A
330
2
100
AcDbEntity
  8
MOJI1
100
AcDbText
 10
-57.31094209311781
 20
-45.6048947472222
 30
0.0
 40
3.0
  1
変調方式
100
AcDbText
  0
LINE
  5
17B
330
2
100
AcDbEntity
  8
WAKU
 62
     4
100
AcDbLine
 10
-19.81094209311781
 20
-56.6048947472222
 30
0.0
 11
-19.81094209311781
 21
-16.6048947472222
 31
0.0
  0
LINE
  5
17C
330
2
100
AcDbEntity
  8
WAKU
 62
     4
100
AcDbLine
 10
65.18905790688219
 20
-56.6048947472222
 30
0.0
 11
65.18905790688219
 21
-16.6048947472222
 31
0.0
  0
ENDSEC
  0
SECTION
  2
OBJECTS
  0
DICTIONARY
  5
9
330
0
100
AcDbDictionary
281
     1
  3
ACAD_COLOR
350
22B
  3
ACAD_GROUP
350
31
  3
ACAD_LAYOUT
350
D
  3
ACAD_MATERIAL
350
22A
  3
ACAD_MLINESTYLE
350
32
  3
ACAD_PLOTSETTINGS
350
33
  3
ACAD_PLOTSTYLENAME
350
8
  3
ACDBHEADERROUNDTRIPXREC
350
24E
  3
AcDbVariableDictionary
350
17F
  0
DICTIONARY
  5
19
330
18
100
AcDbDictionary
280
     1
281
     1
  3
ACAD_LAYERFILTERS
360
1A
  3
ACAD_LAYERSTATES
360
1B
  0
DICTIONARY
  5
3
330
2
100
AcDbDictionary
280
     1
281
     1
  3
ACAD_LAYOUTSELFREF
360
202
  0
DICTIONARY
  5
11
330
10
100
AcDbDictionary
280
     1
281
     1
  3
ACAD_LAYOUTSELFREF
360
207
  0
DICTIONARY
  5
22B
102
{ACAD_REACTORS
330
9
102
}
330
9
100
AcDbDictionary
281
     1
  0
DICTIONARY
  5
31
102
{ACAD_REACTORS
330
9
102
}
330
9
100
AcDbDictionary
281
     1
  0
DICTIONARY
  5
D
102
{ACAD_REACTORS
330
9
102
}
330
9
100
AcDbDictionary
281
     1
  3
Model
350
C
  3
ﾚｲｱｳﾄ1
350
15
  0
DICTIONARY
  5
22A
102
{ACAD_REACTORS
330
9
102
}
330
9
100
AcDbDictionary
281
     1
  0
DICTIONARY
  5
32
102
{ACAD_REACTORS
330
9
102
}
330
9
100
AcDbDictionary
281
     1
  3
STANDARD
350
35
  0
DICTIONARY
  5
33
102
{ACAD_REACTORS
330
9
102
}
330
9
100
AcDbDictionary
281
     1
  0
ACDBDICTIONARYWDFLT
  5
8
102
{ACAD_REACTORS
330
9
102
}
330
9
100
AcDbDictionary
281
     1
  3
Normal
350
7
100
AcDbDictionaryWithDefault
340
7
  0
DICTIONARY
  5
24E
102
{ACAD_REACTORS
330
9
102
}
330
9
100
AcDbDictionary
281
     1
  3
COLORDICT
350
250
  3
MATERIALDICT
350
24F
  0
DICTIONARY
  5
17F
102
{ACAD_REACTORS
330
9
102
}
330
9
100
AcDbDictionary
281
     1
  3
DIMASSOC
350
181
  3
HIDETEXT
350
180
  3
PROJECTNAME
350
24C
  0
DICTIONARY
  5
1A
102
{ACAD_REACTORS
330
19
102
}
330
19
100
AcDbDictionary
280
     1
281
     1
  0
DICTIONARY
  5
1B
102
{ACAD_REACTORS
330
19
102
}
330
19
100
AcDbDictionary
281
     1
  0
XRECORD
  5
202
102
{ACAD_REACTORS
330
3
102
}
330
3
100
AcDbXrecord
280
     1
340
2
  0
XRECORD
  5
207
102
{ACAD_REACTORS
330
11
102
}
330
11
100
AcDbXrecord
280
     1
340
10
  0
LAYOUT
  5
C
102
{ACAD_XDICTIONARY
360
251
102
}
102
{ACAD_REACTORS
330
D
102
}
330
D
100
AcDbPlotSettings
  1

  2
\\URANUS\8FPAM09
  4
A4
  6

 40
4.180416584014892
 41
4.349743366241455
 42
4.222747802734375
 43
4.349761962890625
 44
210.0156707763672
 45
297.0106506347656
 46
6.07
 47
0.0
 48
0.0
 49
0.0
140
0.0
141
0.0
142
1.0
143
1.367708423477386
 70
 11956
 72
     1
 73
     0
 74
     1
  7
tmsacad.ctb
 75
     0
147
0.7311499898914921
148
0.5849856657064266
149
0.1116542191393819
100
AcDbLayout
  1
Model
 70
     1
 71
     0
 10
0.0
 20
0.0
 11
12.0
 21
9.0
 12
0.0
 22
0.0
 32
0.0
 14
0.0
 24
0.0
 34
0.0
 15
0.0
 25
0.0
 35
0.0
146
0.0
 13
0.0
 23
0.0
 33
0.0
 16
1.0
 26
0.0
 36
0.0
 17
0.0
 27
1.0
 37
0.0
 76
     0
330
2
  0
LAYOUT
  5
15
102
{ACAD_XDICTIONARY
360
253
102
}
102
{ACAD_REACTORS
330
D
102
}
330
D
100
AcDbPlotSettings
  1

  2
C:\Program Files\ACAD2000\plotters\DWF ePlot.pc3
  4

  6

 40
0.0
 41
0.0
 42
0.0
 43
0.0
 44
0.0
 45
0.0
 46
0.0
 47
0.0
 48
0.0
 49
0.0
140
0.0
141
0.0
142
1.0
143
1.0
 70
   688
 72
     0
 73
     0
 74
     5
  7
tmsacad.ctb
 75
    16
147
1.0
148
0.0
149
0.0
100
AcDbLayout
  1
ﾚｲｱｳﾄ1
 70
     1
 71
     1
 10
0.0
 20
0.0
 11
12.0
 21
9.0
 12
0.0
 22
0.0
 32
0.0
 14
1.000000000000000E+20
 24
1.000000000000000E+20
 34
1.000000000000000E+20
 15
-1.000000000000000E+20
 25
-1.000000000000000E+20
 35
-1.000000000000000E+20
146
0.0
 13
0.0
 23
0.0
 33
0.0
 16
1.0
 26
0.0
 36
0.0
 17
0.0
 27
1.0
 37
0.0
 76
     0
330
10
  0
MLINESTYLE
  5
35
102
{ACAD_REACTORS
330
32
102
}
330
32
100
AcDbMlineStyle
  2
STANDARD
 70
     0
  3

 62
   256
 51
90.0
 52
90.0
 71
     2
 49
0.5
 62
   256
  6
BYLAYER
 49
-0.5
 62
   256
  6
BYLAYER
  0
ACDBPLACEHOLDER
  5
7
102
{ACAD_REACTORS
330
8
102
}
330
8
  0
XRECORD
  5
250
102
{ACAD_REACTORS
330
24E
102
}
330
24E
100
AcDbXrecord
280
     1
340
22B
  0
XRECORD
  5
24F
102
{ACAD_REACTORS
330
24E
102
}
330
24E
100
AcDbXrecord
280
     1
340
22A
  0
DICTIONARYVAR
  5
181
102
{ACAD_REACTORS
330
17F
102
}
330
17F
100
DictionaryVariables
280
     0
  1
1
  0
DICTIONARYVAR
  5
180
102
{ACAD_REACTORS
330
17F
102
}
330
17F
100
DictionaryVariables
280
     0
  1
1
  0
DICTIONARYVAR
  5
24C
102
{ACAD_REACTORS
330
17F
102
}
330
17F
100
DictionaryVariables
280
     0
  1

  0
DICTIONARY
  5
251
330
C
100
AcDbDictionary
280
     1
281
     1
  3
ACAD_XREC_ROUNDTRIP
360
252
  0
DICTIONARY
  5
253
330
15
100
AcDbDictionary
280
     1
281
     1
  3
ACAD_XREC_ROUNDTRIP
360
254
  0
XRECORD
  5
252
102
{ACAD_REACTORS
330
251
102
}
330
251
100
AcDbXrecord
280
     1
102
SHADEPLOT
 70
     0
102
SHADEPLOTRESLEVEL
 70
     2
102
SHADEPLOTCUSTOMDPI
 70
   300
  0
XRECORD
  5
254
102
{ACAD_REACTORS
330
253
102
}
330
253
100
AcDbXrecord
280
     1
102
SHADEPLOT
 70
     0
102
SHADEPLOTRESLEVEL
 70
     2
102
SHADEPLOTCUSTOMDPI
 70
   300
  0
ENDSEC
  0
EOF
