  0
SECTION
  2
HEADER
  9
$ACADVER
  1
AC1015
  9
$ACADMAINTVER
 70
    20
  9
$DWGCODEPAGE
  3
ANSI_932
  9
$INSBASE
 10
129.0
 20
120.4992141396419
 30
0.0
  9
$EXTMIN
 10
-66.54010065306739
 20
-63.53479040104502
 30
-0.0015258207003583
  9
$EXTMAX
 10
58.59750289127987
 20
49.38991822098341
 30
0.0000000349246037
  9
$LIMMIN
 10
-1101.784450318844
 20
-1579.160531687244
  9
$LIMMAX
 10
-508.2420711400536
 20
-1161.440814074914
  9
$ORTHOMODE
 70
     1
  9
$REGENMODE
 70
     1
  9
$FILLMODE
 70
     1
  9
$QTEXTMODE
 70
     0
  9
$MIRRTEXT
 70
     1
  9
$LTSCALE
 40
1.0
  9
$ATTMODE
 70
     1
  9
$TEXTSIZE
 40
3.0
  9
$TRACEWID
 40
0.5
  9
$TEXTSTYLE
  7
STANDARD
  9
$CLAYER
  8
SUNPO
  9
$CELTYPE
  6
BYLAYER
  9
$CECOLOR
 62
   256
  9
$CELTSCALE
 40
1.0
  9
$DISPSILH
 70
     0
  9
$DIMSCALE
 40
1.0
  9
$DIMASZ
 40
2.0
  9
$DIMEXO
 40
2.0
  9
$DIMDLI
 40
8.0
  9
$DIMRND
 40
0.0
  9
$DIMDLE
 40
0.0
  9
$DIMEXE
 40
2.0
  9
$DIMTP
 40
0.0
  9
$DIMTM
 40
0.0
  9
$DIMTXT
 40
2.5
  9
$DIMCEN
 40
0.0
  9
$DIMTSZ
 40
0.0
  9
$DIMTOL
 70
     0
  9
$DIMLIM
 70
     0
  9
$DIMTIH
 70
     0
  9
$DIMTOH
 70
     0
  9
$DIMSE1
 70
     0
  9
$DIMSE2
 70
     0
  9
$DIMTAD
 70
     3
  9
$DIMZIN
 70
     0
  9
$DIMBLK
  1

  9
$DIMASO
 70
     1
  9
$DIMSHO
 70
     1
  9
$DIMPOST
  1

  9
$DIMAPOST
  1

  9
$DIMALT
 70
     0
  9
$DIMALTD
 70
     2
  9
$DIMALTF
 40
25.4
  9
$DIMLFAC
 40
1.0
  9
$DIMTOFL
 70
     1
  9
$DIMTVP
 40
0.0
  9
$DIMTIX
 70
     0
  9
$DIMSOXD
 70
     0
  9
$DIMSAH
 70
     1
  9
$DIMBLK1
  1
OPEN30
  9
$DIMBLK2
  1
OPEN30
  9
$DIMSTYLE
  2
STANDARD
  9
$DIMCLRD
 70
     0
  9
$DIMCLRE
 70
     0
  9
$DIMCLRT
 70
     0
  9
$DIMTFAC
 40
1.0
  9
$DIMGAP
 40
0.5
  9
$DIMJUST
 70
     0
  9
$DIMSD1
 70
     0
  9
$DIMSD2
 70
     0
  9
$DIMTOLJ
 70
     1
  9
$DIMTZIN
 70
     0
  9
$DIMALTZ
 70
     0
  9
$DIMALTTZ
 70
     0
  9
$DIMUPT
 70
     0
  9
$DIMDEC
 70
     4
  9
$DIMTDEC
 70
     4
  9
$DIMALTU
 70
     2
  9
$DIMALTTD
 70
     2
  9
$DIMTXSTY
  7
STANDARD
  9
$DIMAUNIT
 70
     0
  9
$DIMADEC
 70
     0
  9
$DIMALTRND
 40
0.0
  9
$DIMAZIN
 70
     0
  9
$DIMDSEP
 70
    46
  9
$DIMATFIT
 70
     3
  9
$DIMFRAC
 70
     0
  9
$DIMLDRBLK
  1
OPEN30
  9
$DIMLUNIT
 70
     2
  9
$DIMLWD
 70
    -2
  9
$DIMLWE
 70
    -2
  9
$DIMTMOVE
 70
     0
  9
$LUNITS
 70
     2
  9
$LUPREC
 70
     4
  9
$SKETCHINC
 40
0.1
  9
$FILLETRAD
 40
0.0
  9
$AUNITS
 70
     0
  9
$AUPREC
 70
     0
  9
$MENU
  1
ACAD
  9
$ELEVATION
 40
0.0
  9
$PELEVATION
 40
0.0
  9
$THICKNESS
 40
0.0
  9
$LIMCHECK
 70
     0
  9
$CHAMFERA
 40
0.0
  9
$CHAMFERB
 40
0.0
  9
$CHAMFERC
 40
0.0
  9
$CHAMFERD
 40
0.0
  9
$SKPOLY
 70
     0
  9
$TDCREATE
 40
2451815.565532581
  9
$TDUCREATE
 40
2451815.190532581
  9
$TDUPDATE
 40
2453983.345699502
  9
$TDUUPDATE
 40
2453982.970699502
  9
$TDINDWG
 40
0.8897435069
  9
$TDUSRTIMER
 40
0.8897435069
  9
$USRTIMER
 70
     1
  9
$ANGBASE
 50
0.0
  9
$ANGDIR
 70
     0
  9
$PDMODE
 70
     0
  9
$PDSIZE
 40
0.0
  9
$PLINEWID
 40
0.0
  9
$SPLFRAME
 70
     0
  9
$SPLINETYPE
 70
     6
  9
$SPLINESEGS
 70
     8
  9
$HANDSEED
  5
153
  9
$SURFTAB1
 70
     6
  9
$SURFTAB2
 70
     6
  9
$SURFTYPE
 70
     6
  9
$SURFU
 70
     6
  9
$SURFV
 70
     6
  9
$UCSBASE
  2

  9
$UCSNAME
  2

  9
$UCSORG
 10
0.0
 20
0.0
 30
0.0
  9
$UCSXDIR
 10
1.0
 20
0.0
 30
0.0
  9
$UCSYDIR
 10
0.0
 20
1.0
 30
0.0
  9
$UCSORTHOREF
  2

  9
$UCSORTHOVIEW
 70
     0
  9
$UCSORGTOP
 10
0.0
 20
0.0
 30
0.0
  9
$UCSORGBOTTOM
 10
0.0
 20
0.0
 30
0.0
  9
$UCSORGLEFT
 10
0.0
 20
0.0
 30
0.0
  9
$UCSORGRIGHT
 10
0.0
 20
0.0
 30
0.0
  9
$UCSORGFRONT
 10
0.0
 20
0.0
 30
0.0
  9
$UCSORGBACK
 10
0.0
 20
0.0
 30
0.0
  9
$PUCSBASE
  2

  9
$PUCSNAME
  2

  9
$PUCSORG
 10
0.0
 20
0.0
 30
0.0
  9
$PUCSXDIR
 10
1.0
 20
0.0
 30
0.0
  9
$PUCSYDIR
 10
0.0
 20
1.0
 30
0.0
  9
$PUCSORTHOREF
  2

  9
$PUCSORTHOVIEW
 70
     0
  9
$PUCSORGTOP
 10
0.0
 20
0.0
 30
0.0
  9
$PUCSORGBOTTOM
 10
0.0
 20
0.0
 30
0.0
  9
$PUCSORGLEFT
 10
0.0
 20
0.0
 30
0.0
  9
$PUCSORGRIGHT
 10
0.0
 20
0.0
 30
0.0
  9
$PUCSORGFRONT
 10
0.0
 20
0.0
 30
0.0
  9
$PUCSORGBACK
 10
0.0
 20
0.0
 30
0.0
  9
$USERI1
 70
     0
  9
$USERI2
 70
     0
  9
$USERI3
 70
     0
  9
$USERI4
 70
     0
  9
$USERI5
 70
     0
  9
$USERR1
 40
0.0
  9
$USERR2
 40
0.0
  9
$USERR3
 40
0.0
  9
$USERR4
 40
0.0
  9
$USERR5
 40
0.0
  9
$WORLDVIEW
 70
     1
  9
$SHADEDGE
 70
     3
  9
$SHADEDIF
 70
    70
  9
$TILEMODE
 70
     1
  9
$MAXACTVP
 70
    48
  9
$PINSBASE
 10
0.0
 20
0.0
 30
0.0
  9
$PLIMCHECK
 70
     0
  9
$PEXTMIN
 10
1.000000000000000E+20
 20
1.000000000000000E+20
 30
1.000000000000000E+20
  9
$PEXTMAX
 10
-1.000000000000000E+20
 20
-1.000000000000000E+20
 30
-1.000000000000000E+20
  9
$PLIMMIN
 10
0.0
 20
0.0
  9
$PLIMMAX
 10
12.0
 20
9.0
  9
$UNITMODE
 70
     0
  9
$VISRETAIN
 70
     1
  9
$PLINEGEN
 70
     0
  9
$PSLTSCALE
 70
     1
  9
$TREEDEPTH
 70
  3020
  9
$CMLSTYLE
  2
STANDARD
  9
$CMLJUST
 70
     0
  9
$CMLSCALE
 40
1.0
  9
$PROXYGRAPHICS
 70
     1
  9
$MEASUREMENT
 70
     0
  9
$CELWEIGHT
370
    -1
  9
$ENDCAPS
280
     0
  9
$JOINSTYLE
280
     0
  9
$LWDISPLAY
290
     0
  9
$INSUNITS
 70
     0
  9
$HYPERLINKBASE
  1

  9
$STYLESHEET
  1

  9
$XEDIT
290
     1
  9
$CEPSNTYPE
380
     0
  9
$PSTYLEMODE
290
     1
  9
$FINGERPRINTGUID
  2
{1754B7AB-9B3C-11D4-AD9E-00104B1004F2}
  9
$VERSIONGUID
  2
{C41A443A-10B5-4580-A9EF-45E460EA2B71}
  9
$EXTNAMES
290
     1
  9
$PSVPSCALE
 40
0.0
  9
$OLESTARTUP
290
     0
  0
ENDSEC
  0
SECTION
  2
CLASSES
  0
CLASS
  1
ACDBDICTIONARYWDFLT
  2
AcDbDictionaryWithDefault
  3
ObjectDBX Classes
 90
        0
280
     0
281
     0
  0
CLASS
  1
ACDBPLACEHOLDER
  2
AcDbPlaceHolder
  3
ObjectDBX Classes
 90
        0
280
     0
281
     0
  0
CLASS
  1
LAYOUT
  2
AcDbLayout
  3
ObjectDBX Classes
 90
        0
280
     0
281
     0
  0
CLASS
  1
DICTIONARYVAR
  2
AcDbDictionaryVar
  3
ObjectDBX Classes
 90
        0
280
     0
281
     0
  0
ENDSEC
  0
SECTION
  2
TABLES
  0
TABLE
  2
VPORT
  5
24
330
0
100
AcDbSymbolTable
 70
     2
  0
VPORT
  5
14B
330
24
100
AcDbSymbolTableRecord
100
AcDbViewportTableRecord
  2
*Active
 70
     0
 10
0.0
 20
0.0
 11
1.0
 21
1.0
 12
-3.971298880893751
 22
-7.072436090030805
 13
0.0
 23
0.0
 14
1.0
 24
1.0
 15
0.0
 25
0.0
 16
0.0
 26
0.0
 36
1.0
 17
0.0
 27
0.0
 37
0.0
 40
113.8035001288146
 41
1.52077922077922
 42
50.0
 43
0.0
 44
0.0
 50
0.0
 51
0.0
 71
     0
 72
 10000
 73
     1
 74
     0
 75
     0
 76
     1
 77
     0
 78
     0
281
     0
 65
     1
110
0.0
120
0.0
130
0.0
111
1.0
121
0.0
131
0.0
112
0.0
122
1.0
132
0.0
 79
     0
146
0.0
  0
ENDTAB
  0
TABLE
  2
LTYPE
  5
1F
330
0
100
AcDbSymbolTable
 70
     1
  0
LTYPE
  5
20
330
1F
100
AcDbSymbolTableRecord
100
AcDbLinetypeTableRecord
  2
BYBLOCK
 70
     0
  3

 72
    65
 73
     0
 40
0.0
  0
LTYPE
  5
21
330
1F
100
AcDbSymbolTableRecord
100
AcDbLinetypeTableRecord
  2
BYLAYER
 70
     0
  3

 72
    65
 73
     0
 40
0.0
  0
LTYPE
  5
A
330
1F
100
AcDbSymbolTableRecord
100
AcDbLinetypeTableRecord
  2
CONTINUOUS
 70
     0
  3
Solid line
 72
    65
 73
     0
 40
0.0
  0
ENDTAB
  0
TABLE
  2
LAYER
  5
18
102
{ACAD_XDICTIONARY
360
19
102
}
330
0
100
AcDbSymbolTable
 70
     7
  0
LAYER
  5
6
330
18
100
AcDbSymbolTableRecord
100
AcDbLayerTableRecord
  2
0
 70
     0
 62
     7
  6
CONTINUOUS
370
    -3
390
7
  0
LAYER
  5
44
330
18
100
AcDbSymbolTableRecord
100
AcDbLayerTableRecord
  2
DEFPOINTS
 70
     0
 62
     7
  6
CONTINUOUS
290
     0
370
    -3
390
7
  0
LAYER
  5
84
330
18
100
AcDbSymbolTableRecord
100
AcDbLayerTableRecord
  2
WAKU
 70
     0
 62
     4
  6
CONTINUOUS
370
    -3
390
7
  0
LAYER
  5
37
330
18
100
AcDbSymbolTableRecord
100
AcDbLayerTableRecord
  2
MOJI1
 70
     0
 62
     2
  6
CONTINUOUS
370
    -3
390
7
  0
LAYER
  5
57
330
18
100
AcDbSymbolTableRecord
100
AcDbLayerTableRecord
  2
GAIKEI
 70
     0
 62
     7
  6
CONTINUOUS
370
    -3
390
7
  0
LAYER
  5
39
330
18
100
AcDbSymbolTableRecord
100
AcDbLayerTableRecord
  2
TOUROKU
 70
     0
 62
     1
  6
CONTINUOUS
370
    -3
390
7
  0
LAYER
  5
34
330
18
100
AcDbSymbolTableRecord
100
AcDbLayerTableRecord
  2
SUNPO
 70
     0
 62
     3
  6
CONTINUOUS
370
    -3
390
7
  0
ENDTAB
  0
TABLE
  2
STYLE
  5
1C
330
0
100
AcDbSymbolTable
 70
     1
  0
STYLE
  5
1D
330
1C
100
AcDbSymbolTableRecord
100
AcDbTextStyleTableRecord
  2
STANDARD
 70
     0
 40
0.0
 41
1.0
 50
0.0
 71
     0
 42
3.0
  3
MONOTXT.shx
  4
BIGFONT.shx
  0
ENDTAB
  0
TABLE
  2
VIEW
  5
22
330
0
100
AcDbSymbolTable
 70
     0
  0
ENDTAB
  0
TABLE
  2
UCS
  5
23
330
0
100
AcDbSymbolTable
 70
     0
  0
ENDTAB
  0
TABLE
  2
APPID
  5
26
330
0
100
AcDbSymbolTable
 70
     1
  0
APPID
  5
27
330
26
100
AcDbSymbolTableRecord
100
AcDbRegAppTableRecord
  2
ACAD
 70
     0
  0
ENDTAB
  0
TABLE
  2
DIMSTYLE
  5
28
330
0
100
AcDbSymbolTable
 70
     1
100
AcDbDimStyleTable
 71
     0
  0
DIMSTYLE
105
29
102
{ACAD_REACTORS
330
49
330
3A
102
}
330
28
100
AcDbSymbolTableRecord
100
AcDbDimStyleTableRecord
  2
STANDARD
 70
     0
 40
0.0
 41
2.0
 42
2.0
 43
8.0
 44
2.0
 73
     0
 74
     0
 77
     3
140
3.0
141
0.0
173
     1
279
     2
288
     1
340
1D
341
2A
343
2A
344
2A
  0
ENDTAB
  0
TABLE
  2
BLOCK_RECORD
  5
1
330
0
100
AcDbSymbolTable
 70
     3
  0
BLOCK_RECORD
  5
2
102
{ACAD_XDICTIONARY
360
3
102
}
330
1
100
AcDbSymbolTableRecord
100
AcDbBlockTableRecord
  2
*MODEL_SPACE
340
C
  0
BLOCK_RECORD
  5
10
102
{ACAD_XDICTIONARY
360
11
102
}
330
1
100
AcDbSymbolTableRecord
100
AcDbBlockTableRecord
  2
*PAPER_SPACE
340
15
  0
BLOCK_RECORD
  5
2A
330
1
100
AcDbSymbolTableRecord
100
AcDbBlockTableRecord
  2
_OPEN30
340
0
102
{BLKREFS
331
13A
331
13B
331
144
331
145
102
}
  0
BLOCK_RECORD
  5
D1
330
1
100
AcDbSymbolTableRecord
100
AcDbBlockTableRecord
  2
*D1
340
0
  0
BLOCK_RECORD
  5
E0
330
1
100
AcDbSymbolTableRecord
100
AcDbBlockTableRecord
  2
*D2
340
0
  0
ENDTAB
  0
ENDSEC
  0
SECTION
  2
BLOCKS
  0
BLOCK
  5
5
330
2
100
AcDbEntity
  8
0
100
AcDbBlockBegin
  2
*MODEL_SPACE
 70
     0
 10
0.0
 20
0.0
 30
0.0
  3
*MODEL_SPACE
  1

  0
ENDBLK
  5
B
330
2
100
AcDbEntity
  8
0
100
AcDbBlockEnd
  0
BLOCK
  5
13
330
10
100
AcDbEntity
 67
     1
  8
0
100
AcDbBlockBegin
  2
*PAPER_SPACE
 70
     0
 10
0.0
 20
0.0
 30
0.0
  3
*PAPER_SPACE
  1

  0
ENDBLK
  5
14
330
10
100
AcDbEntity
 67
     1
  8
0
100
AcDbBlockEnd
  0
BLOCK
  5
2E
330
2A
100
AcDbEntity
  8
0
100
AcDbBlockBegin
  2
_OPEN30
 70
     0
 10
0.0
 20
0.0
 30
0.0
  3
_OPEN30
  1

  0
LINE
  5
2B
330
2A
100
AcDbEntity
  8
0
  6
ByBlock
 62
     0
100
AcDbLine
 10
-1.0
 20
0.26794919
 30
0.0
 11
0.0
 21
0.0
 31
0.0
  0
LINE
  5
2C
330
2A
100
AcDbEntity
  8
0
  6
ByBlock
 62
     0
100
AcDbLine
 10
0.0
 20
0.0
 30
0.0
 11
-1.0
 21
-0.26794919
 31
0.0
  0
LINE
  5
2D
330
2A
100
AcDbEntity
  8
0
  6
ByBlock
 62
     0
100
AcDbLine
 10
0.0
 20
0.0
 30
0.0
 11
-1.0
 21
0.0
 31
0.0
  0
ENDBLK
  5
2F
330
2A
100
AcDbEntity
  8
0
100
AcDbBlockEnd
  0
BLOCK
  5
DC
330
D1
100
AcDbEntity
  8
0
100
AcDbBlockBegin
  2
*D1
 70
     1
 10
0.0
 20
0.0
 30
0.0
  3
*D1
  1

  0
LINE
  5
140
330
D1
100
AcDbEntity
  8
SUNPO
 62
     0
370
    -2
100
AcDbLine
 10
-29.22987615827896
 20
-0.3744457539963827
 30
0.0
 11
-38.0236058912929
 21
-0.3744457539963802
 31
0.0
  0
LINE
  5
141
330
D1
100
AcDbEntity
  8
SUNPO
 62
     0
370
    -2
100
AcDbLine
 10
-29.22987615827896
 20
10.32554981533701
 30
0.0
 11
-38.0236058912929
 21
10.32554981533701
 31
0.0
  0
LINE
  5
142
330
D1
100
AcDbEntity
  8
SUNPO
 62
     0
370
    -2
100
AcDbLine
 10
-36.0236058912929
 20
1.625554246003619
 30
0.0
 11
-36.0236058912929
 21
8.325549815337016
 31
0.0
  0
LINE
  5
143
330
D1
100
AcDbEntity
  8
SUNPO
 62
     0
370
    -2
100
AcDbLine
 10
-36.0236058912929
 20
10.32554981533701
 30
0.0
 11
-36.0236058912929
 21
24.99221648200368
 31
0.0
  0
INSERT
  5
144
330
D1
100
AcDbEntity
  8
SUNPO
 62
     0
370
    -2
100
AcDbBlockReference
  2
_OPEN30
 10
-36.0236058912929
 20
-0.3744457539963808
 30
0.0
 41
2.0
 42
2.0
 43
2.0
 50
270.0
  0
INSERT
  5
145
330
D1
100
AcDbEntity
  8
SUNPO
 62
     0
370
    -2
100
AcDbBlockReference
  2
_OPEN30
 10
-36.0236058912929
 20
10.32554981533701
 30
0.0
 41
2.0
 42
2.0
 43
2.0
 50
90.0
  0
MTEXT
  5
146
330
D1
100
AcDbEntity
  8
SUNPO
 62
     0
100
AcDbMText
 10
-37.7736058912929
 20
18.65888314867034
 30
0.0
 40
2.5
 41
0.0
 71
     5
 72
     1
  1
\A1;φ53.5
 11
0.0000000000000001
 21
1.0
 31
0.0
 73
     1
 44
1.0
1001
ACAD
1000
MTEXTBEGIN
1070
    73
1070
     1
1070
    44
1040
1.0
1070
    74
1070
     0
1000
MTEXTEND
  0
POINT
  5
147
330
D1
100
AcDbEntity
  8
DEFPOINTS
 62
     0
100
AcDbPoint
 10
-27.22987615827896
 20
-0.3744457539963832
 30
0.0
  0
POINT
  5
148
330
D1
100
AcDbEntity
  8
DEFPOINTS
 62
     0
100
AcDbPoint
 10
-27.22987615827896
 20
10.32554981533701
 30
0.0
  0
POINT
  5
149
330
D1
100
AcDbEntity
  8
DEFPOINTS
 62
     0
100
AcDbPoint
 10
-36.0236058912929
 20
10.32554981533701
 30
0.0
  0
ENDBLK
  5
DD
330
D1
100
AcDbEntity
  8
0
100
AcDbBlockEnd
  0
BLOCK
  5
EA
330
E0
100
AcDbEntity
  8
0
100
AcDbBlockBegin
  2
*D2
 70
     1
 10
0.0
 20
0.0
 30
0.0
  3
*D2
  1

  0
LINE
  5
137
330
E0
100
AcDbEntity
  8
SUNPO
 62
     0
370
    -2
100
AcDbLine
 10
-27.32045180214476
 20
12.40862890928051
 30
0.0
 11
-27.32045180214476
 21
20.40862890928051
 31
0.0
  0
LINE
  5
138
330
E0
100
AcDbEntity
  8
SUNPO
 62
     0
370
    -2
100
AcDbLine
 10
16.07955611464331
 20
12.40862890928051
 30
0.0
 11
16.07955611464331
 21
20.40862890928051
 31
0.0
  0
LINE
  5
139
330
E0
100
AcDbEntity
  8
SUNPO
 62
     0
370
    -2
100
AcDbLine
 10
-25.32045180214476
 20
18.40862890928051
 30
0.0
 11
14.07955611464331
 21
18.40862890928051
 31
0.0
  0
INSERT
  5
13A
330
E0
100
AcDbEntity
  8
SUNPO
 62
     0
370
    -2
100
AcDbBlockReference
  2
_OPEN30
 10
-27.32045180214476
 20
18.40862890928051
 30
0.0
 41
2.0
 42
2.0
 43
2.0
 50
180.0
  0
INSERT
  5
13B
330
E0
100
AcDbEntity
  8
SUNPO
 62
     0
370
    -2
100
AcDbBlockReference
  2
_OPEN30
 10
16.07955611464331
 20
18.40862890928051
 30
0.0
 41
2.0
 42
2.0
 43
2.0
  0
MTEXT
  5
13C
330
E0
100
AcDbEntity
  8
SUNPO
 62
     0
100
AcDbMText
 10
-5.620447843750724
 20
20.15862890928051
 30
0.0
 40
2.5
 41
0.0
 71
     5
 72
     1
  1
\A1;217
 73
     1
 44
1.0
1001
ACAD
1000
MTEXTBEGIN
1070
    73
1070
     1
1070
    44
1040
1.0
1070
    74
1070
     0
1000
MTEXTEND
  0
POINT
  5
13D
330
E0
100
AcDbEntity
  8
DEFPOINTS
 62
     0
100
AcDbPoint
 10
-27.32045180214476
 20
10.40862890928051
 30
0.0
  0
POINT
  5
13E
330
E0
100
AcDbEntity
  8
DEFPOINTS
 62
     0
100
AcDbPoint
 10
16.07955611464331
 20
10.40862890928051
 30
0.0
  0
POINT
  5
13F
330
E0
100
AcDbEntity
  8
DEFPOINTS
 62
     0
100
AcDbPoint
 10
16.07955611464331
 20
18.40862890928051
 30
0.0
  0
ENDBLK
  5
EB
330
E0
100
AcDbEntity
  8
0
100
AcDbBlockEnd
  0
ENDSEC
  0
SECTION
  2
ENTITIES
  0
TEXT
  5
36
330
2
100
AcDbEntity
  8
MOJI1
100
AcDbText
 10
-39.4485215507479
 20
45.53928391098577
 30
0.0
 40
4.0
  1
ワイヤレスマイクロホン
100
AcDbText
  0
TEXT
  5
38
330
2
100
AcDbEntity
  8
TOUROKU
100
AcDbText
 10
40.15142848217952
 20
39.53928391098566
 30
0.0
 40
2.0
  1
ＷＸＴＢ８１６Ｓ
 72
     2
 11
58.55142848217951
 21
39.53928391098566
 31
0.0
100
AcDbText
  0
DIMENSION
  5
3A
330
2
100
AcDbEntity
  8
SUNPO
100
AcDbDimension
  2
*D1
 10
-36.0236058912929
 20
10.32554981533701
 30
0.0
 11
-37.7736058912929
 21
18.65888314867034
 31
0.0
 70
    32
  1
φ53.5
 71
     5
 42
10.69999556933339
  3
STANDARD
100
AcDbAlignedDimension
 13
-27.22987615827896
 23
-0.3744457539963832
 33
0.0
 14
-27.22987615827896
 24
10.32554981533701
 34
0.0
 50
90.0
100
AcDbRotatedDimension
1001
ACAD
1000
DSTYLE
1002
{
1070
   287
1070
     3
1070
   287
1070
     3
1070
    40
1040
1.0
1070
   140
1040
2.5
1070
   147
1040
0.5
1070
   172
1070
     1
1070
   279
1070
     0
1070
   288
1070
     0
1002
}
  0
DIMENSION
  5
49
330
2
100
AcDbEntity
  8
SUNPO
100
AcDbDimension
  2
*D2
 10
16.07955611464331
 20
18.40862890928051
 30
0.0
 11
-5.620447843750724
 21
20.15862890928051
 31
0.0
 70
    33
  1
217
 71
     5
 42
43.40000791678806
  3
STANDARD
100
AcDbAlignedDimension
 13
-27.32045180214476
 23
10.40862890928051
 33
0.0
 14
16.07955611464331
 24
10.40862890928051
 34
0.0
1001
ACAD
1000
DSTYLE
1002
{
1070
   287
1070
     3
1070
   287
1070
     3
1070
    40
1040
1.0
1070
   140
1040
2.5
1070
   147
1040
0.5
1070
   172
1070
     1
1070
   279
1070
     0
1070
   288
1070
     0
1002
}
  0
ARC
  5
56
330
2
100
AcDbEntity
  8
GAIKEI
100
AcDbCircle
 10
1.298713934381453
 20
-265.9289585902266
 30
0.0
 40
268.0107346233846
100
AcDbArc
 50
91.01209943473362
 51
92.92400720576223
  0
ARC
  5
58
330
2
100
AcDbEntity
  8
GAIKEI
100
AcDbCircle
 10
1.298713934381453
 20
275.8800626515672
 30
0.0
 40
268.0107346233846
100
AcDbArc
 50
267.0759927942378
 51
268.9879005652664
  0
ARC
  5
59
330
2
100
AcDbEntity
  8
GAIKEI
100
AcDbCircle
 10
-21.86606563634009
 20
5.365513997134399
 30
0.0
 40
5.49456489006029
100
AcDbArc
 50
272.7242077799677
 51
308.9034807807939
  0
ARC
  5
5A
330
2
100
AcDbEntity
  8
GAIKEI
100
AcDbCircle
 10
-21.86606563634009
 20
4.585590064206144
 30
0.0
 40
5.49456489006029
100
AcDbArc
 50
51.09651921920604
 51
87.27579222003226
  0
ARC
  5
5B
330
2
100
AcDbEntity
  8
GAIKEI
100
AcDbCircle
 10
-22.19303385676074
 20
4.975638372954279
 30
0.0
 40
5.127419273720809
100
AcDbArc
 50
92.92085864153291
 51
267.079141358467
  0
LINE
  5
5C
330
2
100
AcDbEntity
  8
GAIKEI
100
AcDbLine
 10
-22.20153163907622
 20
-0.2841680136008904
 30
0.0
 11
-21.85804219797541
 21
-0.2841680136008904
 31
0.0
  0
LINE
  5
5D
330
2
100
AcDbEntity
  8
GAIKEI
 62
     1
100
AcDbLine
 10
-22.20153163907622
 20
-0.3744457539963832
 30
0.0
 11
-22.2003163618017
 21
10.32554981533695
 31
0.0
  0
LINE
  5
5E
330
2
100
AcDbEntity
  8
GAIKEI
100
AcDbLine
 10
-22.45430931218357
 20
-0.3744457539963832
 30
0.0
 11
-22.20153163907622
 21
-0.3744457539963832
 31
0.0
  0
LINE
  5
5F
330
2
100
AcDbEntity
  8
GAIKEI
 62
     1
100
AcDbLine
 10
-22.45430931218357
 20
10.32554981533695
 30
0.0
 11
-22.45430931218357
 21
-0.3744457539963832
 31
0.0
  0
LINE
  5
60
330
2
100
AcDbEntity
  8
GAIKEI
100
AcDbLine
 10
-22.2003163618017
 20
10.32554981533695
 30
0.0
 11
-22.45430931218357
 21
10.32554981533695
 31
0.0
  0
LINE
  5
61
330
2
100
AcDbEntity
  8
GAIKEI
100
AcDbLine
 10
-22.20153163907622
 20
10.23527207494152
 30
0.0
 11
-22.2003163618017
 21
10.32554981533695
 31
0.0
  0
LINE
  5
62
330
2
100
AcDbEntity
  8
GAIKEI
100
AcDbLine
 10
-21.85804219797541
 20
10.23527207494152
 30
0.0
 11
-22.20153163907622
 21
10.23527207494152
 31
0.0
  0
LINE
  5
63
330
2
100
AcDbEntity
  8
GAIKEI
100
AcDbLine
 10
-21.85804219797541
 20
10.32554981533695
 30
0.0
 11
-21.60491730278966
 21
10.32554981533695
 31
0.0
  0
LINE
  5
64
330
2
100
AcDbEntity
  8
GAIKEI
 62
     1
100
AcDbLine
 10
-21.85804219797541
 20
-0.3744457539963832
 30
0.0
 11
-21.85804219797541
 21
10.32554981533695
 31
0.0
  0
LINE
  5
65
330
2
100
AcDbEntity
  8
GAIKEI
100
AcDbLine
 10
-21.60491730278966
 20
-0.3744457539963832
 30
0.0
 11
-21.85804219797541
 21
-0.3744457539963832
 31
0.0
  0
LINE
  5
66
330
2
100
AcDbEntity
  8
GAIKEI
 62
     1
100
AcDbLine
 10
-21.60491730278966
 20
10.32554981533695
 30
0.0
 11
-21.60491730278966
 21
-0.3744457539963832
 31
0.0
  0
ARC
  5
67
330
2
100
AcDbEntity
  8
GAIKEI
100
AcDbCircle
 10
-9.873046500044353
 20
-48.41682258782816
 30
0.0
 40
50.21193463801258
100
AcDbArc
 50
92.85369825348238
 51
97.90278854248866
  0
LINE
  5
68
330
2
100
AcDbEntity
  8
GAIKEI
 62
     1
100
AcDbLine
 10
-12.32245586870436
 20
8.214960411514539
 30
0.0
 11
-12.32245586870436
 21
1.735416339575749
 31
0.0
  0
LINE
  5
69
330
2
100
AcDbEntity
  8
GAIKEI
 62
     1
100
AcDbLine
 10
-12.41308083117826
 20
8.219821520612754
 30
0.0
 11
-12.41308083117826
 21
1.731982921836845
 31
0.0
  0
LINE
  5
6A
330
2
100
AcDbEntity
  8
GAIKEI
 62
     1
100
AcDbLine
 10
-16.66950267978524
 20
8.6173901426734
 30
0.0
 11
-16.66950267978524
 21
1.333713918667172
 31
0.0
  0
LINE
  5
6B
330
2
100
AcDbEntity
  8
GAIKEI
 62
     1
100
AcDbLine
 10
-16.76012764225913
 20
8.630428814164133
 30
0.0
 11
-16.76012764225913
 21
1.320675247176438
 31
0.0
  0
LINE
  5
6C
330
2
100
AcDbEntity
  8
GAIKEI
100
AcDbLine
 10
-18.41542209572179
 20
8.861487921577463
 30
0.0
 11
-18.41542209572179
 21
1.089616139763109
 31
0.0
  0
ARC
  5
6D
330
2
100
AcDbEntity
  8
GAIKEI
100
AcDbCircle
 10
-17.43920732827564
 20
-1.160504478318301
 30
0.0
 40
2.317845838338167
100
AcDbArc
 50
104.3033752905798
 51
110.458548157811
  0
ARC
  5
6E
330
2
100
AcDbEntity
  8
GAIKEI
100
AcDbCircle
 10
-18.33782973396694
 20
1.050819958885682
 30
0.0
 40
0.0867508977093093
100
AcDbArc
 50
153.4349488229241
 51
201.0851014041768
  0
ARC
  5
6F
330
2
100
AcDbEntity
  8
GAIKEI
100
AcDbCircle
 10
-18.37146293654825
 20
1.051475635956194
 30
0.0
 40
0.0570398438272311
100
AcDbArc
 50
213.9617223575779
 51
266.1643642271244
  0
ARC
  5
70
330
2
100
AcDbEntity
  8
GAIKEI
100
AcDbCircle
 10
-18.34943927473887
 20
1.284739834661706
 30
0.0
 40
0.2913244608480371
100
AcDbArc
 50
264.9114069823529
 51
290.0915524530939
  0
ARC
  5
71
330
2
100
AcDbEntity
  8
GAIKEI
100
AcDbCircle
 10
-15.13761577236576
 20
-10.77292417880773
 30
0.0
 40
12.20177047579287
100
AcDbArc
 50
97.72056137441216
 51
103.6245406816688
  0
ARC
  5
72
330
2
100
AcDbEntity
  8
GAIKEI
100
AcDbCircle
 10
-18.34943927473887
 20
8.666364226678865
 30
0.0
 40
0.2913244608480371
100
AcDbArc
 50
69.90844754690612
 51
95.08859301764715
  0
ARC
  5
73
330
2
100
AcDbEntity
  8
GAIKEI
100
AcDbCircle
 10
-18.37146293654825
 20
8.899628425384378
 30
0.0
 40
0.0570398438272311
100
AcDbArc
 50
93.83563577287558
 51
146.0382776424221
  0
ARC
  5
74
330
2
100
AcDbEntity
  8
GAIKEI
100
AcDbCircle
 10
-18.33782973396694
 20
8.900284102454861
 30
0.0
 40
0.0867508977093093
100
AcDbArc
 50
158.9148985958231
 51
206.5650511770759
  0
ARC
  5
75
330
2
100
AcDbEntity
  8
GAIKEI
100
AcDbCircle
 10
-17.43920732827564
 20
11.11160853965884
 30
0.0
 40
2.317845838338167
100
AcDbArc
 50
249.541451842189
 51
255.6966247094202
  0
ARC
  5
76
330
2
100
AcDbEntity
  8
GAIKEI
100
AcDbCircle
 10
-15.13761577236576
 20
20.72402824014827
 30
0.0
 40
12.20177047579287
100
AcDbArc
 50
256.3754593183311
 51
262.2794386255879
  0
ARC
  5
77
330
2
100
AcDbEntity
  8
GAIKEI
100
AcDbCircle
 10
-9.873046500044353
 20
58.36792664916879
 30
0.0
 40
50.21193463801258
100
AcDbArc
 50
262.0972114575114
 51
267.1463017465176
  0
ARC
  5
78
330
2
100
AcDbEntity
  8
GAIKEI
100
AcDbCircle
 10
20.72775167535906
 20
-1210.74398258623
 30
0.0
 40
1213.024629588654
100
AcDbArc
 50
90.29616063259961
 51
91.1413888950814
  0
ARC
  5
79
330
2
100
AcDbEntity
  8
GAIKEI
100
AcDbCircle
 10
20.72775167535906
 20
1220.695086647571
 30
0.0
 40
1213.024629588654
100
AcDbArc
 50
268.8586111049186
 51
269.7038393674004
  0
LINE
  5
7A
330
2
100
AcDbEntity
  8
GAIKEI
 62
     1
100
AcDbLine
 10
-3.38877901241608
 20
7.910793870797476
 30
0.0
 11
-3.38877901241608
 21
2.031456027542787
 31
0.0
  0
LINE
  5
7B
330
2
100
AcDbEntity
  8
GAIKEI
 62
     1
100
AcDbLine
 10
-3.479577585929234
 20
7.910793870797476
 30
0.0
 11
-3.479577585929234
 21
2.029546306111342
 31
0.0
  0
SPLINE
  5
7C
330
2
100
AcDbEntity
  8
GAIKEI
100
AcDbSpline
210
0.0
220
0.0
230
1.0
 70
     8
 71
     3
 72
     8
 73
     4
 74
     0
 42
0.0000000001
 43
0.0000000001
 40
8.0
 40
8.0
 40
8.0
 40
8.0
 40
9.0
 40
9.0
 40
9.0
 40
9.0
 10
16.07955611464331
 20
2.550465111278413
 30
0.0
 10
16.07955611464331
 20
2.293867995308204
 30
0.0
 10
15.83302843894796
 20
2.283798555033314
 30
0.0
 10
15.83302843894796
 20
2.283798555033314
 30
0.0
  0
LINE
  5
7D
330
2
100
AcDbEntity
  8
GAIKEI
100
AcDbLine
 10
14.45889706350544
 20
2.283798555033314
 30
0.0
 11
15.83302843894796
 21
2.283798555033314
 31
0.0
  0
LINE
  5
7E
330
2
100
AcDbEntity
  8
GAIKEI
100
AcDbLine
 10
16.07955611464331
 20
7.365134374522597
 30
0.0
 11
16.07955611464331
 21
2.550465111275684
 31
0.0
  0
LINE
  5
7F
330
2
100
AcDbEntity
  8
GAIKEI
 62
     1
100
AcDbLine
 10
14.45768178623086
 20
7.686662022136829
 30
0.0
 11
14.45768178623086
 21
2.264442039203743
 31
0.0
  0
LINE
  5
80
330
2
100
AcDbEntity
  8
GAIKEI
100
AcDbLine
 10
14.45889706350544
 20
2.283798555033285
 30
0.0
 11
15.83302843894796
 21
2.283798555033285
 31
0.0
  0
LINE
  5
81
330
2
100
AcDbEntity
  8
GAIKEI
100
AcDbLine
 10
14.45889706350544
 20
7.667305506307286
 30
0.0
 11
15.83302843894796
 21
7.667305506307286
 31
0.0
  0
SPLINE
  5
82
330
2
100
AcDbEntity
  8
GAIKEI
100
AcDbSpline
210
0.0
220
0.0
230
1.0
 70
     8
 71
     3
 72
     8
 73
     4
 74
     0
 42
0.0000000001
 43
0.0000000001
 40
8.0
 40
8.0
 40
8.0
 40
8.0
 40
9.0
 40
9.0
 40
9.0
 40
9.0
 10
16.07955611464331
 20
7.400638950062159
 30
0.0
 10
16.07955611464331
 20
7.657236066032396
 30
0.0
 10
15.83302843894796
 20
7.667305506307286
 30
0.0
 10
15.83302843894796
 20
7.667305506307286
 30
0.0
  0
LINE
  5
83
330
2
100
AcDbEntity
  8
WAKU
 62
     4
100
AcDbLine
 10
58.5514784492521
 20
-63.46071608901417
 30
0.0
 11
58.5514784492521
 21
-28.46071608901417
 31
0.0
  0
TEXT
  5
85
330
2
100
AcDbEntity
  8
MOJI1
100
AcDbText
 10
-23.9485215507479
 20
-47.46071608901416
 30
0.0
 40
3.0
  1
３０波中の１波
100
AcDbText
  0
LINE
  5
86
330
2
100
AcDbEntity
  8
WAKU
 62
     4
100
AcDbLine
 10
-26.4485215507479
 20
-63.46071608901417
 30
0.0
 11
-26.4485215507479
 21
-28.46071608901417
 31
0.0
  0
LINE
  5
87
330
2
100
AcDbEntity
  8
WAKU
 62
     4
100
AcDbLine
 10
-66.4485215507479
 20
-28.46071608901417
 30
0.0
 11
-66.4485215507479
 21
-63.46071608901417
 31
0.0
  0
LINE
  5
88
330
2
100
AcDbEntity
  8
WAKU
 62
     1
100
AcDbLine
 10
-66.4485215507479
 20
-48.46071608901417
 30
0.0
 11
58.5514784492521
 21
-48.46071608901417
 31
0.0
  0
TEXT
  5
89
330
2
100
AcDbEntity
  8
MOJI1
100
AcDbText
 10
-23.9485215507479
 20
-52.46071608901416
 30
0.0
 40
3.0
  1
周波数変調方式（リアクタンス変調方式）
100
AcDbText
  0
LINE
  5
8A
330
2
100
AcDbEntity
  8
WAKU
 62
     4
100
AcDbLine
 10
-66.4485215507479
 20
-63.46071608901417
 30
0.0
 11
58.5514784492521
 21
-63.46071608901417
 31
0.0
  0
LINE
  5
8B
330
2
100
AcDbEntity
  8
WAKU
 62
     1
100
AcDbLine
 10
-66.4485215507479
 20
-58.46071608901417
 30
0.0
 11
58.5514784492521
 21
-58.46071608901417
 31
0.0
  0
LINE
  5
8C
330
2
100
AcDbEntity
  8
WAKU
 62
     1
100
AcDbLine
 10
-66.4485215507479
 20
-53.46071608901417
 30
0.0
 11
58.5514784492521
 21
-53.46071608901417
 31
0.0
  0
TEXT
  5
8D
330
2
100
AcDbEntity
  8
MOJI1
100
AcDbText
 10
-63.9485215507479
 20
-62.46071608901416
 30
0.0
 40
3.0
  1
制御信号
100
AcDbText
  0
TEXT
  5
8E
330
2
100
AcDbEntity
  8
MOJI1
100
AcDbText
 10
-63.9485215507479
 20
-52.46071608901416
 30
0.0
 40
3.0
  1
変調方式
100
AcDbText
  0
TEXT
  5
8F
330
2
100
AcDbEntity
  8
MOJI1
100
AcDbText
 10
-63.9485215507479
 20
-57.46071608901416
 30
0.0
 40
3.0
  1
周波数特性
100
AcDbText
  0
TEXT
  5
90
330
2
100
AcDbEntity
  8
MOJI1
100
AcDbText
 10
-23.9485215507479
 20
-62.46071608901416
 30
0.0
 40
3.0
  1
電池電圧、電池残量（３段階）
100
AcDbText
  0
TEXT
  5
91
330
2
100
AcDbEntity
  8
MOJI1
100
AcDbText
 10
-23.9485215507479
 20
-57.46071608901416
 30
0.0
 40
3.0
  1
５０Ｈｚ～１５ｋＨｚ
100
AcDbText
  0
LINE
  5
92
330
2
100
AcDbEntity
  8
WAKU
 62
     4
100
AcDbLine
 10
58.5514784492521
 20
-28.46071608901417
 30
0.0
 11
-66.4485215507479
 21
-28.46071608901417
 31
0.0
  0
LINE
  5
93
330
2
100
AcDbEntity
  8
WAKU
 62
     1
100
AcDbLine
 10
-66.4485215507479
 20
-43.46071608901417
 30
0.0
 11
58.5514784492521
 21
-43.46071608901417
 31
0.0
  0
LINE
  5
94
330
2
100
AcDbEntity
  8
WAKU
 62
     1
100
AcDbLine
 10
-66.4485215507479
 20
-38.46071608901417
 30
0.0
 11
58.5514784492521
 21
-38.46071608901417
 31
0.0
  0
LINE
  5
95
330
2
100
AcDbEntity
  8
WAKU
 62
     1
100
AcDbLine
 10
-66.4485215507479
 20
-33.46071608901417
 30
0.0
 11
58.5514784492521
 21
-33.46071608901417
 31
0.0
  0
TEXT
  5
96
330
2
100
AcDbEntity
  8
MOJI1
100
AcDbText
 10
-23.9485215507479
 20
-37.46071608901417
 30
0.0
 40
3.0
  1
水晶制御ＰＬＬシンセサイザー方式
100
AcDbText
  0
TEXT
  5
97
330
2
100
AcDbEntity
  8
MOJI1
100
AcDbText
 10
-23.9485215507479
 20
-42.46071608901416
 30
0.0
 40
3.0
  1
８０６．１２５ＭＨｚ～８０９．７５０ＭＨｚ
 41
0.95
100
AcDbText
  0
TEXT
  5
98
330
2
100
AcDbEntity
  8
MOJI1
100
AcDbText
 10
-63.9485215507479
 20
-37.46071608901417
 30
0.0
 40
3.0
  1
発振方式
100
AcDbText
  0
TEXT
  5
99
330
2
100
AcDbEntity
  8
MOJI1
100
AcDbText
 10
-63.9485215507479
 20
-42.46071608901416
 30
0.0
 40
3.0
  1
送信周波数
100
AcDbText
  0
TEXT
  5
9A
330
2
100
AcDbEntity
  8
MOJI1
100
AcDbText
 10
-63.9485215507479
 20
-32.46071608901417
 30
0.0
 40
3.0
  1
電波形式
100
AcDbText
  0
TEXT
  5
9B
330
2
100
AcDbEntity
  8
MOJI1
100
AcDbText
 10
-23.9485215507479
 20
-32.46071608901417
 30
0.0
 40
3.0
  1
Ｆ３Ｅ、Ｆ８Ｗ
100
AcDbText
  0
ENDSEC
  0
SECTION
  2
OBJECTS
  0
DICTIONARY
  5
9
330
0
100
AcDbDictionary
281
     1
  3
ACAD_COLOR
350
133
  3
ACAD_GROUP
350
31
  3
ACAD_LAYOUT
350
D
  3
ACAD_MATERIAL
350
132
  3
ACAD_MLINESTYLE
350
32
  3
ACAD_PLOTSETTINGS
350
33
  3
ACAD_PLOTSTYLENAME
350
8
  3
ACDBHEADERROUNDTRIPXREC
350
14C
  3
AcDbVariableDictionary
350
9E
  0
DICTIONARY
  5
19
330
18
100
AcDbDictionary
280
     1
281
     1
  3
ACAD_LAYERFILTERS
360
1A
  3
ACAD_LAYERSTATES
360
1B
  0
DICTIONARY
  5
3
330
2
100
AcDbDictionary
280
     1
281
     1
  3
ACAD_LAYOUTSELFREF
360
114
  0
DICTIONARY
  5
11
330
10
100
AcDbDictionary
280
     1
281
     1
  3
ACAD_LAYOUTSELFREF
360
119
  0
DICTIONARY
  5
133
102
{ACAD_REACTORS
330
9
102
}
330
9
100
AcDbDictionary
281
     1
  0
DICTIONARY
  5
31
102
{ACAD_REACTORS
330
9
102
}
330
9
100
AcDbDictionary
281
     1
  0
DICTIONARY
  5
D
102
{ACAD_REACTORS
330
9
102
}
330
9
100
AcDbDictionary
281
     1
  3
Model
350
C
  3
ﾚｲｱｳﾄ1
350
15
  0
DICTIONARY
  5
132
102
{ACAD_REACTORS
330
9
102
}
330
9
100
AcDbDictionary
281
     1
  0
DICTIONARY
  5
32
102
{ACAD_REACTORS
330
9
102
}
330
9
100
AcDbDictionary
281
     1
  3
STANDARD
350
35
  0
DICTIONARY
  5
33
102
{ACAD_REACTORS
330
9
102
}
330
9
100
AcDbDictionary
281
     1
  0
ACDBDICTIONARYWDFLT
  5
8
102
{ACAD_REACTORS
330
9
102
}
330
9
100
AcDbDictionary
281
     1
  3
Normal
350
7
100
AcDbDictionaryWithDefault
340
7
  0
DICTIONARY
  5
14C
102
{ACAD_REACTORS
330
9
102
}
330
9
100
AcDbDictionary
281
     1
  3
COLORDICT
350
14E
  3
MATERIALDICT
350
14D
  0
DICTIONARY
  5
9E
102
{ACAD_REACTORS
330
9
102
}
330
9
100
AcDbDictionary
281
     1
  3
DIMASSOC
350
A0
  3
HIDETEXT
350
9F
  3
PROJECTNAME
350
14A
  0
DICTIONARY
  5
1A
102
{ACAD_REACTORS
330
19
102
}
330
19
100
AcDbDictionary
280
     1
281
     1
  0
DICTIONARY
  5
1B
102
{ACAD_REACTORS
330
19
102
}
330
19
100
AcDbDictionary
281
     1
  0
XRECORD
  5
114
102
{ACAD_REACTORS
330
3
102
}
330
3
100
AcDbXrecord
280
     1
340
2
  0
XRECORD
  5
119
102
{ACAD_REACTORS
330
11
102
}
330
11
100
AcDbXrecord
280
     1
340
10
  0
LAYOUT
  5
C
102
{ACAD_XDICTIONARY
360
14F
102
}
102
{ACAD_REACTORS
330
D
102
}
330
D
100
AcDbPlotSettings
  1

  2
\\URANUS\8FPAM09
  4
A4
  6

 40
4.180416584014892
 41
4.349743366241455
 42
4.222747802734375
 43
4.349761962890625
 44
210.0156707763672
 45
297.0106506347656
 46
6.07
 47
0.0
 48
0.0
 49
0.0
140
0.0
141
0.0
142
1.0
143
1.367708434622891
 70
 11956
 72
     1
 73
     0
 74
     1
  7
tmsacad.ctb
 75
     0
147
0.7311499839333252
148
0.5954741822138204
149
0.1116413514109809
100
AcDbLayout
  1
Model
 70
     1
 71
     0
 10
0.0
 20
0.0
 11
12.0
 21
9.0
 12
0.0
 22
0.0
 32
0.0
 14
0.0
 24
0.0
 34
0.0
 15
0.0
 25
0.0
 35
0.0
146
0.0
 13
0.0
 23
0.0
 33
0.0
 16
1.0
 26
0.0
 36
0.0
 17
0.0
 27
1.0
 37
0.0
 76
     0
330
2
  0
LAYOUT
  5
15
102
{ACAD_XDICTIONARY
360
151
102
}
102
{ACAD_REACTORS
330
D
102
}
330
D
100
AcDbPlotSettings
  1

  2
C:\Program Files\ACAD2000\plotters\DWF ePlot.pc3
  4

  6

 40
0.0
 41
0.0
 42
0.0
 43
0.0
 44
0.0
 45
0.0
 46
0.0
 47
0.0
 48
0.0
 49
0.0
140
0.0
141
0.0
142
1.0
143
1.0
 70
   688
 72
     0
 73
     0
 74
     5
  7
tmsacad.ctb
 75
    16
147
1.0
148
0.0
149
0.0
100
AcDbLayout
  1
ﾚｲｱｳﾄ1
 70
     1
 71
     1
 10
0.0
 20
0.0
 11
12.0
 21
9.0
 12
0.0
 22
0.0
 32
0.0
 14
1.000000000000000E+20
 24
1.000000000000000E+20
 34
1.000000000000000E+20
 15
-1.000000000000000E+20
 25
-1.000000000000000E+20
 35
-1.000000000000000E+20
146
0.0
 13
0.0
 23
0.0
 33
0.0
 16
1.0
 26
0.0
 36
0.0
 17
0.0
 27
1.0
 37
0.0
 76
     0
330
10
  0
MLINESTYLE
  5
35
102
{ACAD_REACTORS
330
32
102
}
330
32
100
AcDbMlineStyle
  2
STANDARD
 70
     0
  3

 62
   256
 51
90.0
 52
90.0
 71
     2
 49
0.5
 62
   256
  6
BYLAYER
 49
-0.5
 62
   256
  6
BYLAYER
  0
ACDBPLACEHOLDER
  5
7
102
{ACAD_REACTORS
330
8
102
}
330
8
  0
XRECORD
  5
14E
102
{ACAD_REACTORS
330
14C
102
}
330
14C
100
AcDbXrecord
280
     1
340
133
  0
XRECORD
  5
14D
102
{ACAD_REACTORS
330
14C
102
}
330
14C
100
AcDbXrecord
280
     1
340
132
  0
DICTIONARYVAR
  5
A0
102
{ACAD_REACTORS
330
9E
102
}
330
9E
100
DictionaryVariables
280
     0
  1
1
  0
DICTIONARYVAR
  5
9F
102
{ACAD_REACTORS
330
9E
102
}
330
9E
100
DictionaryVariables
280
     0
  1
1
  0
DICTIONARYVAR
  5
14A
102
{ACAD_REACTORS
330
9E
102
}
330
9E
100
DictionaryVariables
280
     0
  1

  0
DICTIONARY
  5
14F
330
C
100
AcDbDictionary
280
     1
281
     1
  3
ACAD_XREC_ROUNDTRIP
360
150
  0
DICTIONARY
  5
151
330
15
100
AcDbDictionary
280
     1
281
     1
  3
ACAD_XREC_ROUNDTRIP
360
152
  0
XRECORD
  5
150
102
{ACAD_REACTORS
330
14F
102
}
330
14F
100
AcDbXrecord
280
     1
102
SHADEPLOT
 70
     0
102
SHADEPLOTRESLEVEL
 70
     2
102
SHADEPLOTCUSTOMDPI
 70
   300
  0
XRECORD
  5
152
102
{ACAD_REACTORS
330
151
102
}
330
151
100
AcDbXrecord
280
     1
102
SHADEPLOT
 70
     0
102
SHADEPLOTRESLEVEL
 70
     2
102
SHADEPLOTCUSTOMDPI
 70
   300
  0
ENDSEC
  0
EOF
