  0
SECTION
  2
HEADER
  9
$ACADVER
  1
AC1015
  9
$ACADMAINTVER
 70
    13
  9
$DWGCODEPAGE
  3
ANSI_932
  9
$INSBASE
 10
129.0
 20
246.4992141396418
 30
0.0
  9
$EXTMIN
 10
-61.9821084134146
 20
-49.43568423975648
 30
-0.0015258207003583
  9
$EXTMAX
 10
63.05190439821308
 20
63.54128166512691
 30
0.0000000349246037
  9
$LIMMIN
 10
-1101.784450318844
 20
-1579.160531687243
  9
$LIMMAX
 10
-508.2420711400536
 20
-1161.440814074914
  9
$ORTHOMODE
 70
     1
  9
$REGENMODE
 70
     1
  9
$FILLMODE
 70
     1
  9
$QTEXTMODE
 70
     0
  9
$MIRRTEXT
 70
     1
  9
$LTSCALE
 40
1.0
  9
$ATTMODE
 70
     1
  9
$TEXTSIZE
 40
3.0
  9
$TRACEWID
 40
0.5
  9
$TEXTSTYLE
  7
STANDARD
  9
$CLAYER
  8
GAIKEI
  9
$CELTYPE
  6
BYLAYER
  9
$CECOLOR
 62
   256
  9
$CELTSCALE
 40
1.0
  9
$DISPSILH
 70
     0
  9
$DIMSCALE
 40
1.0
  9
$DIMASZ
 40
2.0
  9
$DIMEXO
 40
2.0
  9
$DIMDLI
 40
8.0
  9
$DIMRND
 40
0.0
  9
$DIMDLE
 40
0.0
  9
$DIMEXE
 40
2.0
  9
$DIMTP
 40
0.0
  9
$DIMTM
 40
0.0
  9
$DIMTXT
 40
2.5
  9
$DIMCEN
 40
0.0
  9
$DIMTSZ
 40
0.0
  9
$DIMTOL
 70
     0
  9
$DIMLIM
 70
     0
  9
$DIMTIH
 70
     0
  9
$DIMTOH
 70
     0
  9
$DIMSE1
 70
     0
  9
$DIMSE2
 70
     0
  9
$DIMTAD
 70
     3
  9
$DIMZIN
 70
     0
  9
$DIMBLK
  1

  9
$DIMASO
 70
     1
  9
$DIMSHO
 70
     1
  9
$DIMPOST
  1

  9
$DIMAPOST
  1

  9
$DIMALT
 70
     0
  9
$DIMALTD
 70
     2
  9
$DIMALTF
 40
25.4
  9
$DIMLFAC
 40
1.0
  9
$DIMTOFL
 70
     1
  9
$DIMTVP
 40
0.0
  9
$DIMTIX
 70
     0
  9
$DIMSOXD
 70
     0
  9
$DIMSAH
 70
     1
  9
$DIMBLK1
  1
OPEN30
  9
$DIMBLK2
  1
OPEN30
  9
$DIMSTYLE
  2
STANDARD
  9
$DIMCLRD
 70
     0
  9
$DIMCLRE
 70
     0
  9
$DIMCLRT
 70
     0
  9
$DIMTFAC
 40
1.0
  9
$DIMGAP
 40
0.5
  9
$DIMJUST
 70
     0
  9
$DIMSD1
 70
     0
  9
$DIMSD2
 70
     0
  9
$DIMTOLJ
 70
     1
  9
$DIMTZIN
 70
     0
  9
$DIMALTZ
 70
     0
  9
$DIMALTTZ
 70
     0
  9
$DIMUPT
 70
     0
  9
$DIMDEC
 70
     4
  9
$DIMTDEC
 70
     4
  9
$DIMALTU
 70
     2
  9
$DIMALTTD
 70
     2
  9
$DIMTXSTY
  7
STANDARD
  9
$DIMAUNIT
 70
     0
  9
$DIMADEC
 70
     0
  9
$DIMALTRND
 40
0.0
  9
$DIMAZIN
 70
     0
  9
$DIMDSEP
 70
    46
  9
$DIMATFIT
 70
     3
  9
$DIMFRAC
 70
     0
  9
$DIMLDRBLK
  1
OPEN30
  9
$DIMLUNIT
 70
     2
  9
$DIMLWD
 70
    -2
  9
$DIMLWE
 70
    -2
  9
$DIMTMOVE
 70
     0
  9
$LUNITS
 70
     2
  9
$LUPREC
 70
     4
  9
$SKETCHINC
 40
0.1
  9
$FILLETRAD
 40
0.0
  9
$AUNITS
 70
     0
  9
$AUPREC
 70
     0
  9
$MENU
  1
ACAD
  9
$ELEVATION
 40
0.0
  9
$PELEVATION
 40
0.0
  9
$THICKNESS
 40
0.0
  9
$LIMCHECK
 70
     0
  9
$CHAMFERA
 40
0.0
  9
$CHAMFERB
 40
0.0
  9
$CHAMFERC
 40
0.0
  9
$CHAMFERD
 40
0.0
  9
$SKPOLY
 70
     0
  9
$TDCREATE
 40
2451815.565532581
  9
$TDUCREATE
 40
2451815.190532581
  9
$TDUPDATE
 40
2453984.477690601
  9
$TDUUPDATE
 40
2453984.102690601
  9
$TDINDWG
 40
0.9658410532
  9
$TDUSRTIMER
 40
0.9658410532
  9
$USRTIMER
 70
     1
  9
$ANGBASE
 50
0.0
  9
$ANGDIR
 70
     0
  9
$PDMODE
 70
     0
  9
$PDSIZE
 40
0.0
  9
$PLINEWID
 40
0.0
  9
$SPLFRAME
 70
     0
  9
$SPLINETYPE
 70
     6
  9
$SPLINESEGS
 70
     8
  9
$HANDSEED
  5
294
  9
$SURFTAB1
 70
     6
  9
$SURFTAB2
 70
     6
  9
$SURFTYPE
 70
     6
  9
$SURFU
 70
     6
  9
$SURFV
 70
     6
  9
$UCSBASE
  2

  9
$UCSNAME
  2

  9
$UCSORG
 10
0.0
 20
0.0
 30
0.0
  9
$UCSXDIR
 10
1.0
 20
0.0
 30
0.0
  9
$UCSYDIR
 10
0.0
 20
1.0
 30
0.0
  9
$UCSORTHOREF
  2

  9
$UCSORTHOVIEW
 70
     0
  9
$UCSORGTOP
 10
0.0
 20
0.0
 30
0.0
  9
$UCSORGBOTTOM
 10
0.0
 20
0.0
 30
0.0
  9
$UCSORGLEFT
 10
0.0
 20
0.0
 30
0.0
  9
$UCSORGRIGHT
 10
0.0
 20
0.0
 30
0.0
  9
$UCSORGFRONT
 10
0.0
 20
0.0
 30
0.0
  9
$UCSORGBACK
 10
0.0
 20
0.0
 30
0.0
  9
$PUCSBASE
  2

  9
$PUCSNAME
  2

  9
$PUCSORG
 10
0.0
 20
0.0
 30
0.0
  9
$PUCSXDIR
 10
1.0
 20
0.0
 30
0.0
  9
$PUCSYDIR
 10
0.0
 20
1.0
 30
0.0
  9
$PUCSORTHOREF
  2

  9
$PUCSORTHOVIEW
 70
     0
  9
$PUCSORGTOP
 10
0.0
 20
0.0
 30
0.0
  9
$PUCSORGBOTTOM
 10
0.0
 20
0.0
 30
0.0
  9
$PUCSORGLEFT
 10
0.0
 20
0.0
 30
0.0
  9
$PUCSORGRIGHT
 10
0.0
 20
0.0
 30
0.0
  9
$PUCSORGFRONT
 10
0.0
 20
0.0
 30
0.0
  9
$PUCSORGBACK
 10
0.0
 20
0.0
 30
0.0
  9
$USERI1
 70
     0
  9
$USERI2
 70
     0
  9
$USERI3
 70
     0
  9
$USERI4
 70
     0
  9
$USERI5
 70
     0
  9
$USERR1
 40
0.0
  9
$USERR2
 40
0.0
  9
$USERR3
 40
0.0
  9
$USERR4
 40
0.0
  9
$USERR5
 40
0.0
  9
$WORLDVIEW
 70
     1
  9
$SHADEDGE
 70
     3
  9
$SHADEDIF
 70
    70
  9
$TILEMODE
 70
     1
  9
$MAXACTVP
 70
    48
  9
$PINSBASE
 10
0.0
 20
0.0
 30
0.0
  9
$PLIMCHECK
 70
     0
  9
$PEXTMIN
 10
1.000000000000000E+20
 20
1.000000000000000E+20
 30
1.000000000000000E+20
  9
$PEXTMAX
 10
-1.000000000000000E+20
 20
-1.000000000000000E+20
 30
-1.000000000000000E+20
  9
$PLIMMIN
 10
0.0
 20
0.0
  9
$PLIMMAX
 10
12.0
 20
9.0
  9
$UNITMODE
 70
     0
  9
$VISRETAIN
 70
     1
  9
$PLINEGEN
 70
     0
  9
$PSLTSCALE
 70
     1
  9
$TREEDEPTH
 70
  3020
  9
$CMLSTYLE
  2
STANDARD
  9
$CMLJUST
 70
     0
  9
$CMLSCALE
 40
1.0
  9
$PROXYGRAPHICS
 70
     1
  9
$MEASUREMENT
 70
     0
  9
$CELWEIGHT
370
    -1
  9
$ENDCAPS
280
     0
  9
$JOINSTYLE
280
     0
  9
$LWDISPLAY
290
     0
  9
$INSUNITS
 70
     0
  9
$HYPERLINKBASE
  1

  9
$STYLESHEET
  1

  9
$XEDIT
290
     1
  9
$CEPSNTYPE
380
     0
  9
$PSTYLEMODE
290
     1
  9
$FINGERPRINTGUID
  2
{1754B7AB-9B3C-11D4-AD9E-00104B1004F2}
  9
$VERSIONGUID
  2
{74DE0E72-DA17-4B62-9F43-7DE2B6CA9DDE}
  9
$EXTNAMES
290
     1
  9
$PSVPSCALE
 40
0.0
  9
$OLESTARTUP
290
     0
  0
ENDSEC
  0
SECTION
  2
CLASSES
  0
CLASS
  1
ACDBDICTIONARYWDFLT
  2
AcDbDictionaryWithDefault
  3
AutoCAD 2000
 90
        0
280
     0
281
     0
  0
CLASS
  1
ACDBPLACEHOLDER
  2
AcDbPlaceHolder
  3
AutoCAD 2000
 90
        0
280
     0
281
     0
  0
CLASS
  1
LAYOUT
  2
AcDbLayout
  3
AutoCAD 2000
 90
        0
280
     0
281
     0
  0
CLASS
  1
LONG_TRANSACTION
  2
AcDbLongTransaction
  3
AutoCAD 2000
 90
    32768
280
     0
281
     0
  0
CLASS
  1
LWPOLYLINE
  2
AcDbPolyline
  3
AutoCAD 2000
 90
    32768
280
     0
281
     1
  0
CLASS
  1
HATCH
  2
AcDbHatch
  3
AutoCAD 2000
 90
    32768
280
     0
281
     1
  0
CLASS
  1
XRECORD
  2
AcDbXrecord
  3
AutoCAD 2000
 90
    32768
280
     0
281
     0
  0
CLASS
  1
LONG_TRANSACTION
  2
AcDbLongTransaction
  3
AutoCAD 2000
 90
    32768
280
     0
281
     0
  0
CLASS
  1
LWPOLYLINE
  2
AcDbPolyline
  3
AutoCAD 2000
 90
    32768
280
     0
281
     1
  0
CLASS
  1
HATCH
  2
AcDbHatch
  3
AutoCAD 2000
 90
    32768
280
     0
281
     1
  0
CLASS
  1
XRECORD
  2
AcDbXrecord
  3
AutoCAD 2000
 90
    32768
280
     0
281
     0
  0
CLASS
  1
LONG_TRANSACTION
  2
AcDbLongTransaction
  3
AutoCAD 2000
 90
    32768
280
     0
281
     0
  0
CLASS
  1
LWPOLYLINE
  2
AcDbPolyline
  3
AutoCAD 2000
 90
    32768
280
     0
281
     1
  0
CLASS
  1
HATCH
  2
AcDbHatch
  3
AutoCAD 2000
 90
    32768
280
     0
281
     1
  0
CLASS
  1
XRECORD
  2
AcDbXrecord
  3
AutoCAD 2000
 90
    32768
280
     0
281
     0
  0
CLASS
  1
LONG_TRANSACTION
  2
AcDbLongTransaction
  3
AutoCAD 2000
 90
    32768
280
     0
281
     0
  0
CLASS
  1
LWPOLYLINE
  2
AcDbPolyline
  3
AutoCAD 2000
 90
    32768
280
     0
281
     1
  0
CLASS
  1
HATCH
  2
AcDbHatch
  3
AutoCAD 2000
 90
    32768
280
     0
281
     1
  0
CLASS
  1
XRECORD
  2
AcDbXrecord
  3
AutoCAD 2000
 90
    32768
280
     0
281
     0
  0
CLASS
  1
LONG_TRANSACTION
  2
AcDbLongTransaction
  3
AutoCAD 2000
 90
    32768
280
     0
281
     0
  0
CLASS
  1
LWPOLYLINE
  2
AcDbPolyline
  3
AutoCAD 2000
 90
    32768
280
     0
281
     1
  0
CLASS
  1
HATCH
  2
AcDbHatch
  3
AutoCAD 2000
 90
    32768
280
     0
281
     1
  0
CLASS
  1
XRECORD
  2
AcDbXrecord
  3
AutoCAD 2000
 90
    32768
280
     0
281
     0
  0
CLASS
  1
LONG_TRANSACTION
  2
AcDbLongTransaction
  3
AutoCAD 2000
 90
    32768
280
     0
281
     0
  0
CLASS
  1
LWPOLYLINE
  2
AcDbPolyline
  3
AutoCAD 2000
 90
    32768
280
     0
281
     1
  0
CLASS
  1
HATCH
  2
AcDbHatch
  3
AutoCAD 2000
 90
    32768
280
     0
281
     1
  0
CLASS
  1
XRECORD
  2
AcDbXrecord
  3
AutoCAD 2000
 90
    32768
280
     0
281
     0
  0
CLASS
  1
LONG_TRANSACTION
  2
AcDbLongTransaction
  3
AutoCAD 2000
 90
    32768
280
     0
281
     0
  0
CLASS
  1
LWPOLYLINE
  2
AcDbPolyline
  3
AutoCAD 2000
 90
    32768
280
     0
281
     1
  0
CLASS
  1
HATCH
  2
AcDbHatch
  3
AutoCAD 2000
 90
    32768
280
     0
281
     1
  0
CLASS
  1
XRECORD
  2
AcDbXrecord
  3
AutoCAD 2000
 90
    32768
280
     0
281
     0
  0
CLASS
  1
LONG_TRANSACTION
  2
AcDbLongTransaction
  3
AutoCAD 2000
 90
    32768
280
     0
281
     0
  0
CLASS
  1
LWPOLYLINE
  2
AcDbPolyline
  3
AutoCAD 2000
 90
    32768
280
     0
281
     1
  0
CLASS
  1
HATCH
  2
AcDbHatch
  3
AutoCAD 2000
 90
    32768
280
     0
281
     1
  0
CLASS
  1
XRECORD
  2
AcDbXrecord
  3
AutoCAD 2000
 90
    32768
280
     0
281
     0
  0
CLASS
  1
DICTIONARYVAR
  2
AcDbDictionaryVar
  3
AutoCAD 2000
 90
        0
280
     0
281
     0
  0
CLASS
  1
LONG_TRANSACTION
  2
AcDbLongTransaction
  3
AutoCAD 2000
 90
    32768
280
     0
281
     0
  0
CLASS
  1
LWPOLYLINE
  2
AcDbPolyline
  3
AutoCAD 2000
 90
    32768
280
     0
281
     1
  0
CLASS
  1
HATCH
  2
AcDbHatch
  3
AutoCAD 2000
 90
    32768
280
     0
281
     1
  0
CLASS
  1
XRECORD
  2
AcDbXrecord
  3
AutoCAD 2000
 90
    32768
280
     0
281
     0
  0
CLASS
  1
LONG_TRANSACTION
  2
AcDbLongTransaction
  3
AutoCAD 2000
 90
    32768
280
     0
281
     0
  0
CLASS
  1
LWPOLYLINE
  2
AcDbPolyline
  3
AutoCAD 2000
 90
    32768
280
     0
281
     1
  0
CLASS
  1
HATCH
  2
AcDbHatch
  3
AutoCAD 2000
 90
    32768
280
     0
281
     1
  0
CLASS
  1
XRECORD
  2
AcDbXrecord
  3
AutoCAD 2000
 90
    32768
280
     0
281
     0
  0
CLASS
  1
LONG_TRANSACTION
  2
AcDbLongTransaction
  3
AutoCAD 2000
 90
    32768
280
     0
281
     0
  0
CLASS
  1
LWPOLYLINE
  2
AcDbPolyline
  3
AutoCAD 2000
 90
    32768
280
     0
281
     1
  0
CLASS
  1
HATCH
  2
AcDbHatch
  3
AutoCAD 2000
 90
    32768
280
     0
281
     1
  0
CLASS
  1
XRECORD
  2
AcDbXrecord
  3
AutoCAD 2000
 90
    32768
280
     0
281
     0
  0
CLASS
  1
LONG_TRANSACTION
  2
AcDbLongTransaction
  3
AutoCAD 2000
 90
    32768
280
     0
281
     0
  0
CLASS
  1
LWPOLYLINE
  2
AcDbPolyline
  3
AutoCAD 2000
 90
    32768
280
     0
281
     1
  0
CLASS
  1
HATCH
  2
AcDbHatch
  3
AutoCAD 2000
 90
    32768
280
     0
281
     1
  0
CLASS
  1
XRECORD
  2
AcDbXrecord
  3
AutoCAD 2000
 90
    32768
280
     0
281
     0
  0
CLASS
  1
LONG_TRANSACTION
  2
AcDbLongTransaction
  3
AutoCAD 2000
 90
    32768
280
     0
281
     0
  0
CLASS
  1
LWPOLYLINE
  2
AcDbPolyline
  3
AutoCAD 2000
 90
    32768
280
     0
281
     1
  0
CLASS
  1
HATCH
  2
AcDbHatch
  3
AutoCAD 2000
 90
    32768
280
     0
281
     1
  0
CLASS
  1
XRECORD
  2
AcDbXrecord
  3
AutoCAD 2000
 90
    32768
280
     0
281
     0
  0
CLASS
  1
LONG_TRANSACTION
  2
AcDbLongTransaction
  3
AutoCAD 2000
 90
    32768
280
     0
281
     0
  0
CLASS
  1
LWPOLYLINE
  2
AcDbPolyline
  3
AutoCAD 2000
 90
    32768
280
     0
281
     1
  0
CLASS
  1
HATCH
  2
AcDbHatch
  3
AutoCAD 2000
 90
    32768
280
     0
281
     1
  0
CLASS
  1
XRECORD
  2
AcDbXrecord
  3
AutoCAD 2000
 90
    32768
280
     0
281
     0
  0
ENDSEC
  0
SECTION
  2
TABLES
  0
TABLE
  2
VPORT
  5
24
330
0
100
AcDbSymbolTable
 70
     3
  0
VPORT
  5
293
330
24
100
AcDbSymbolTableRecord
100
AcDbViewportTableRecord
  2
*Active
 70
     0
 10
0.0
 20
0.0
 11
1.0
 21
1.0
 12
0.5348979923992339
 22
7.052798712685216
 13
0.0
 23
0.0
 14
1.0
 24
1.0
 15
0.0
 25
0.0
 16
0.0
 26
0.0
 36
1.0
 17
0.0
 27
0.0
 37
0.0
 40
113.8393854919435
 41
1.442038216560509
 42
50.0
 43
0.0
 44
0.0
 50
0.0
 51
0.0
 71
     0
 72
 10000
 73
     1
 74
     0
 75
     0
 76
     1
 77
     0
 78
     0
281
     0
 65
     1
110
0.0
120
0.0
130
0.0
111
1.0
121
0.0
131
0.0
112
0.0
122
1.0
132
0.0
 79
     0
146
0.0
  0
ENDTAB
  0
TABLE
  2
LTYPE
  5
1F
330
0
100
AcDbSymbolTable
 70
     2
  0
LTYPE
  5
20
330
1F
100
AcDbSymbolTableRecord
100
AcDbLinetypeTableRecord
  2
BYBLOCK
 70
     0
  3

 72
    65
 73
     0
 40
0.0
  0
LTYPE
  5
21
330
1F
100
AcDbSymbolTableRecord
100
AcDbLinetypeTableRecord
  2
BYLAYER
 70
     0
  3

 72
    65
 73
     0
 40
0.0
  0
LTYPE
  5
A
330
1F
100
AcDbSymbolTableRecord
100
AcDbLinetypeTableRecord
  2
CONTINUOUS
 70
     0
  3
Solid line
 72
    65
 73
     0
 40
0.0
  0
LTYPE
  5
AA
330
1F
100
AcDbSymbolTableRecord
100
AcDbLinetypeTableRecord
  2
HIDDEN2
 70
     0
  3
Hidden (.5x) _ _ _ _ _ _ _ _ _ _ _ _ _ _ _ _ _
 72
    65
 73
     2
 40
1.399999999999999
 49
0.7
 74
     0
 49
-0.7
 74
     0
  0
ENDTAB
  0
TABLE
  2
LAYER
  5
18
102
{ACAD_XDICTIONARY
360
19
102
}
330
0
100
AcDbSymbolTable
 70
     7
  0
LAYER
  5
6
330
18
100
AcDbSymbolTableRecord
100
AcDbLayerTableRecord
  2
0
 70
     0
 62
     7
  6
CONTINUOUS
370
    -3
390
7
  0
LAYER
  5
46
330
18
100
AcDbSymbolTableRecord
100
AcDbLayerTableRecord
  2
DEFPOINTS
 70
     0
 62
     7
  6
CONTINUOUS
290
     0
370
    -3
390
7
  0
LAYER
  5
165
330
18
100
AcDbSymbolTableRecord
100
AcDbLayerTableRecord
  2
WAKU
 70
     0
 62
     4
  6
CONTINUOUS
370
    -3
390
7
  0
LAYER
  5
37
330
18
100
AcDbSymbolTableRecord
100
AcDbLayerTableRecord
  2
MOJI1
 70
     0
 62
     2
  6
CONTINUOUS
370
    -3
390
7
  0
LAYER
  5
34
330
18
100
AcDbSymbolTableRecord
100
AcDbLayerTableRecord
  2
GAIKEI
 70
     0
 62
     7
  6
CONTINUOUS
370
    -3
390
7
  0
LAYER
  5
39
330
18
100
AcDbSymbolTableRecord
100
AcDbLayerTableRecord
  2
TOUROKU
 70
     0
 62
     1
  6
CONTINUOUS
370
    -3
390
7
  0
LAYER
  5
3B
330
18
100
AcDbSymbolTableRecord
100
AcDbLayerTableRecord
  2
SUNPO
 70
     0
 62
     3
  6
CONTINUOUS
370
    -3
390
7
  0
ENDTAB
  0
TABLE
  2
STYLE
  5
1C
330
0
100
AcDbSymbolTable
 70
     1
  0
STYLE
  5
1D
330
1C
100
AcDbSymbolTableRecord
100
AcDbTextStyleTableRecord
  2
STANDARD
 70
     0
 40
0.0
 41
1.0
 50
0.0
 71
     0
 42
3.0
  3
MONOTXT.shx
  4
BIGFONT.shx
  0
ENDTAB
  0
TABLE
  2
VIEW
  5
22
330
0
100
AcDbSymbolTable
 70
     0
  0
ENDTAB
  0
TABLE
  2
UCS
  5
23
330
0
100
AcDbSymbolTable
 70
     0
  0
ENDTAB
  0
TABLE
  2
APPID
  5
26
330
0
100
AcDbSymbolTable
 70
     1
  0
APPID
  5
27
330
26
100
AcDbSymbolTableRecord
100
AcDbRegAppTableRecord
  2
ACAD
 70
     0
  0
ENDTAB
  0
TABLE
  2
DIMSTYLE
  5
28
330
0
100
AcDbSymbolTable
 70
     1
100
AcDbDimStyleTable
 71
     0
  0
DIMSTYLE
105
29
102
{ACAD_REACTORS
330
109
330
4D
330
3A
102
}
330
28
100
AcDbSymbolTableRecord
100
AcDbDimStyleTableRecord
  2
STANDARD
 70
     0
 40
0.0
 41
2.0
 42
2.0
 43
8.0
 44
2.0
 73
     0
 74
     0
 77
     3
140
3.0
141
0.0
173
     1
279
     2
288
     1
340
1D
341
2A
343
2A
344
2A
  0
ENDTAB
  0
TABLE
  2
BLOCK_RECORD
  5
1
330
0
100
AcDbSymbolTable
 70
     4
  0
BLOCK_RECORD
  5
2
102
{ACAD_XDICTIONARY
360
3
102
}
330
1
100
AcDbSymbolTableRecord
100
AcDbBlockTableRecord
  2
*MODEL_SPACE
340
C
  0
BLOCK_RECORD
  5
10
102
{ACAD_XDICTIONARY
360
11
102
}
330
1
100
AcDbSymbolTableRecord
100
AcDbBlockTableRecord
  2
*PAPER_SPACE
340
15
  0
BLOCK_RECORD
  5
2A
330
1
100
AcDbSymbolTableRecord
100
AcDbBlockTableRecord
  2
_OPEN30
340
0
102
{BLKREFS
331
20D
331
20E
331
218
331
219
331
221
331
222
331
27B
331
27C
331
284
331
285
331
28D
331
28E
102
}
  0
BLOCK_RECORD
  5
1B0
330
1
100
AcDbSymbolTableRecord
100
AcDbBlockTableRecord
  2
*D1
340
0
  0
BLOCK_RECORD
  5
1C0
330
1
100
AcDbSymbolTableRecord
100
AcDbBlockTableRecord
  2
*D2
340
0
  0
BLOCK_RECORD
  5
1CC
330
1
100
AcDbSymbolTableRecord
100
AcDbBlockTableRecord
  2
*D3
340
0
  0
ENDTAB
  0
ENDSEC
  0
SECTION
  2
BLOCKS
  0
BLOCK
  5
5
330
2
100
AcDbEntity
  8
0
100
AcDbBlockBegin
  2
*MODEL_SPACE
 70
     0
 10
0.0
 20
0.0
 30
0.0
  3
*MODEL_SPACE
  1

  0
ENDBLK
  5
B
330
2
100
AcDbEntity
  8
0
100
AcDbBlockEnd
  0
BLOCK
  5
13
330
10
100
AcDbEntity
 67
     1
  8
0
100
AcDbBlockBegin
  2
*PAPER_SPACE
 70
     0
 10
0.0
 20
0.0
 30
0.0
  3
*PAPER_SPACE
  1

  0
ENDBLK
  5
14
330
10
100
AcDbEntity
 67
     1
  8
0
100
AcDbBlockEnd
  0
BLOCK
  5
2E
330
2A
100
AcDbEntity
  8
0
100
AcDbBlockBegin
  2
_OPEN30
 70
     0
 10
0.0
 20
0.0
 30
0.0
  3
_OPEN30
  1

  0
LINE
  5
2B
330
2A
100
AcDbEntity
  8
0
  6
ByBlock
 62
     0
100
AcDbLine
 10
-1.0
 20
0.26794919
 30
0.0
 11
0.0
 21
0.0
 31
0.0
  0
LINE
  5
2C
330
2A
100
AcDbEntity
  8
0
  6
ByBlock
 62
     0
100
AcDbLine
 10
0.0
 20
0.0
 30
0.0
 11
-1.0
 21
-0.26794919
 31
0.0
  0
LINE
  5
2D
330
2A
100
AcDbEntity
  8
0
  6
ByBlock
 62
     0
100
AcDbLine
 10
0.0
 20
0.0
 30
0.0
 11
-1.0
 21
0.0
 31
0.0
  0
ENDBLK
  5
2F
330
2A
100
AcDbEntity
  8
0
100
AcDbBlockEnd
  0
BLOCK
  5
1BC
330
1B0
100
AcDbEntity
  8
0
100
AcDbBlockBegin
  2
*D1
 70
     1
 10
0.0
 20
0.0
 30
0.0
  3
*D1
  1

  0
LINE
  5
276
330
1B0
100
AcDbEntity
  8
SUNPO
 62
     0
370
    -2
100
AcDbLine
 10
19.27471563940457
 20
8.910277367296572
 30
0.0
 11
19.27471563940457
 21
0.9102773672966009
 31
0.0
  0
LINE
  5
277
330
1B0
100
AcDbEntity
  8
SUNPO
 62
     0
370
    -2
100
AcDbLine
 10
22.87471563940727
 20
8.9102773672966
 30
0.0
 11
22.87471563940727
 21
0.9102773672966009
 31
0.0
  0
LINE
  5
278
330
1B0
100
AcDbEntity
  8
SUNPO
 62
     0
370
    -2
100
AcDbLine
 10
17.27471563940457
 20
2.9102773672966
 30
0.0
 11
15.27471563940457
 21
2.9102773672966
 31
0.0
  0
LINE
  5
279
330
1B0
100
AcDbEntity
  8
SUNPO
 62
     0
370
    -2
100
AcDbLine
 10
24.87471563940727
 20
2.9102773672966
 30
0.0
 11
32.04138230607393
 21
2.9102773672966
 31
0.0
  0
LINE
  5
27A
330
1B0
100
AcDbEntity
  8
SUNPO
 62
     0
370
    -2
100
AcDbLine
 10
19.27471563940457
 20
2.9102773672966
 30
0.0
 11
22.87471563940727
 21
2.9102773672966
 31
0.0
  0
INSERT
  5
27B
330
1B0
100
AcDbEntity
  8
SUNPO
 62
     0
370
    -2
100
AcDbBlockReference
  2
_OPEN30
 10
19.27471563940457
 20
2.9102773672966
 30
0.0
 41
2.0
 42
2.0
 43
2.0
  0
INSERT
  5
27C
330
1B0
100
AcDbEntity
  8
SUNPO
 62
     0
370
    -2
100
AcDbBlockReference
  2
_OPEN30
 10
22.87471563940727
 20
2.9102773672966
 30
0.0
 41
2.0
 42
2.0
 43
2.0
 50
180.0
  0
MTEXT
  5
27D
330
1B0
100
AcDbEntity
  8
SUNPO
 62
     0
100
AcDbMText
 10
29.4580489727406
 20
4.6602773672966
 30
0.0
 40
2.5
 41
0.0
 71
     5
 72
     1
  1
\A1;18
 73
     1
 44
1.0
  0
POINT
  5
27E
330
1B0
100
AcDbEntity
  8
DEFPOINTS
 62
     0
100
AcDbPoint
 10
19.27471563940457
 20
10.91027736729657
 30
0.0
  0
POINT
  5
27F
330
1B0
100
AcDbEntity
  8
DEFPOINTS
 62
     0
100
AcDbPoint
 10
22.87471563940727
 20
10.9102773672966
 30
0.0
  0
POINT
  5
280
330
1B0
100
AcDbEntity
  8
DEFPOINTS
 62
     0
100
AcDbPoint
 10
22.87471563940727
 20
2.9102773672966
 30
0.0
  0
ENDBLK
  5
1BD
330
1B0
100
AcDbEntity
  8
0
100
AcDbBlockEnd
  0
BLOCK
  5
1CA
330
1C0
100
AcDbEntity
  8
0
100
AcDbBlockBegin
  2
*D2
 70
     1
 10
0.0
 20
0.0
 30
0.0
  3
*D2
  1

  0
LINE
  5
281
330
1C0
100
AcDbEntity
  8
SUNPO
 62
     0
370
    -2
100
AcDbLine
 10
-1.578152823181795
 20
28.91730820133082
 30
0.0
 11
6.421847176818236
 21
28.91730820133082
 31
0.0
  0
LINE
  5
282
330
1C0
100
AcDbEntity
  8
SUNPO
 62
     0
370
    -2
100
AcDbLine
 10
-1.578152823181795
 20
10.91731596877153
 30
0.0
 11
6.421847176818233
 21
10.91731596877153
 31
0.0
  0
LINE
  5
283
330
1C0
100
AcDbEntity
  8
SUNPO
 62
     0
370
    -2
100
AcDbLine
 10
4.421847176818236
 20
26.91730820133082
 30
0.0
 11
4.421847176818232
 21
12.91731596877153
 31
0.0
  0
INSERT
  5
284
330
1C0
100
AcDbEntity
  8
SUNPO
 62
     0
370
    -2
100
AcDbBlockReference
  2
_OPEN30
 10
4.421847176818236
 20
28.91730820133082
 30
0.0
 41
2.0
 42
2.0
 43
2.0
 50
90.0
  0
INSERT
  5
285
330
1C0
100
AcDbEntity
  8
SUNPO
 62
     0
370
    -2
100
AcDbBlockReference
  2
_OPEN30
 10
4.421847176818232
 20
10.91731596877153
 30
0.0
 41
2.0
 42
2.0
 43
2.0
 50
270.0
  0
MTEXT
  5
286
330
1C0
100
AcDbEntity
  8
SUNPO
 62
     0
100
AcDbMText
 10
2.671847176818231
 20
19.91731208505117
 30
0.0
 40
2.5
 41
0.0
 71
     5
 72
     1
  1
\A1;90
 11
0.0000000000000001
 21
1.0
 31
0.0
 73
     1
 44
1.0
  0
POINT
  5
287
330
1C0
100
AcDbEntity
  8
DEFPOINTS
 62
     0
100
AcDbPoint
 10
-3.578152823181795
 20
28.91730820133082
 30
0.0
  0
POINT
  5
288
330
1C0
100
AcDbEntity
  8
DEFPOINTS
 62
     0
100
AcDbPoint
 10
-3.578152823181795
 20
10.91731596877153
 30
0.0
  0
POINT
  5
289
330
1C0
100
AcDbEntity
  8
DEFPOINTS
 62
     0
100
AcDbPoint
 10
4.421847176818232
 20
10.91731596877153
 30
0.0
  0
ENDBLK
  5
1CB
330
1C0
100
AcDbEntity
  8
0
100
AcDbBlockEnd
  0
BLOCK
  5
1D6
330
1CC
100
AcDbEntity
  8
0
100
AcDbBlockBegin
  2
*D3
 70
     1
 10
0.0
 20
0.0
 30
0.0
  3
*D3
  1

  0
LINE
  5
28A
330
1CC
100
AcDbEntity
  8
SUNPO
 62
     0
370
    -2
100
AcDbLine
 10
-16.34031533907932
 20
8.910277367296572
 30
0.0
 11
-16.34031533907932
 21
0.9102773672966009
 31
0.0
  0
LINE
  5
28B
330
1CC
100
AcDbEntity
  8
SUNPO
 62
     0
370
    -2
100
AcDbLine
 10
-3.540317886608022
 20
8.9102773672966
 30
0.0
 11
-3.540317886608022
 21
0.9102773672966009
 31
0.0
  0
LINE
  5
28C
330
1CC
100
AcDbEntity
  8
SUNPO
 62
     0
370
    -2
100
AcDbLine
 10
-14.34031533907932
 20
2.9102773672966
 30
0.0
 11
-5.540317886608022
 21
2.9102773672966
 31
0.0
  0
INSERT
  5
28D
330
1CC
100
AcDbEntity
  8
SUNPO
 62
     0
370
    -2
100
AcDbBlockReference
  2
_OPEN30
 10
-16.34031533907932
 20
2.9102773672966
 30
0.0
 41
2.0
 42
2.0
 43
2.0
 50
180.0
  0
INSERT
  5
28E
330
1CC
100
AcDbEntity
  8
SUNPO
 62
     0
370
    -2
100
AcDbBlockReference
  2
_OPEN30
 10
-3.540317886608022
 20
2.9102773672966
 30
0.0
 41
2.0
 42
2.0
 43
2.0
  0
MTEXT
  5
28F
330
1CC
100
AcDbEntity
  8
SUNPO
 62
     0
100
AcDbMText
 10
-9.940316612843673
 20
4.6602773672966
 30
0.0
 40
2.5
 41
0.0
 71
     5
 72
     1
  1
\A1;64
 73
     1
 44
1.0
  0
POINT
  5
290
330
1CC
100
AcDbEntity
  8
DEFPOINTS
 62
     0
100
AcDbPoint
 10
-16.34031533907932
 20
10.91027736729657
 30
0.0
  0
POINT
  5
291
330
1CC
100
AcDbEntity
  8
DEFPOINTS
 62
     0
100
AcDbPoint
 10
-3.540317886608022
 20
10.9102773672966
 30
0.0
  0
POINT
  5
292
330
1CC
100
AcDbEntity
  8
DEFPOINTS
 62
     0
100
AcDbPoint
 10
-3.540317886608022
 20
2.9102773672966
 30
0.0
  0
ENDBLK
  5
1D7
330
1CC
100
AcDbEntity
  8
0
100
AcDbBlockEnd
  0
ENDSEC
  0
SECTION
  2
ENTITIES
  0
TEXT
  5
36
330
2
100
AcDbEntity
  8
MOJI1
100
AcDbText
 10
-34.96896246542002
 20
59.67297878803407
 30
0.0
 40
4.0
  1
ワイヤレスマイクロホン
100
AcDbText
  0
TEXT
  5
38
330
2
100
AcDbEntity
  8
TOUROKU
100
AcDbText
 10
47.56432090084112
 20
53.67297878803452
 30
0.0
 40
2.0
  1
ＷＸＴＢ８３１
 72
     2
 11
63.03098756750779
 21
53.67297878803452
 31
0.0
100
AcDbText
  0
DIMENSION
  5
3A
330
2
100
AcDbEntity
  8
SUNPO
100
AcDbDimension
  2
*D1
 10
22.87471563940727
 20
2.9102773672966
 30
0.0
 11
29.4580489727406
 21
4.6602773672966
 31
0.0
 70
    33
  1
18
 71
     5
 42
3.600000000002694
  3
STANDARD
100
AcDbAlignedDimension
 13
19.27471563940457
 23
10.91027736729657
 33
0.0
 14
22.87471563940727
 24
10.9102773672966
 34
0.0
1001
ACAD
1000
DSTYLE
1002
{
1070
   287
1070
     3
1070
   287
1070
     3
1070
    40
1040
1.0
1070
   140
1040
2.5
1070
   147
1040
0.5
1070
   172
1070
     1
1070
   279
1070
     0
1070
   288
1070
     0
1002
}
  0
ARC
  5
4B
330
2
100
AcDbEntity
  8
GAIKEI
100
AcDbCircle
 10
-3.907333123338105
 20
11.31521582292114
 30
0.0
 40
0.4000544203462655
100
AcDbArc
 50
275.9491253744761
 51
348.608577480542
  0
ARC
  5
4C
330
2
100
AcDbEntity
  8
GAIKEI
100
AcDbCircle
 10
-3.846716361894721
 20
23.97477311443972
 30
0.0
 40
0.3067213753598923
100
AcDbArc
 50
2.629285741557383
 51
90.13832831501817
  0
DIMENSION
  5
4D
330
2
100
AcDbEntity
  8
SUNPO
100
AcDbDimension
  2
*D2
 10
4.421847176818232
 20
10.91731596877153
 30
0.0
 11
2.671847176818231
 21
19.91731208505117
 31
0.0
 70
    33
  1
90
 71
     5
 42
17.99999223255929
  3
STANDARD
100
AcDbAlignedDimension
 13
-3.578152823181795
 23
28.91730820133082
 33
0.0
 14
-3.578152823181795
 24
10.91731596877153
 34
0.0
1001
ACAD
1000
DSTYLE
1002
{
1070
   287
1070
     3
1070
   287
1070
     3
1070
    40
1040
1.0
1070
   140
1040
2.5
1070
   147
1040
0.5
1070
   172
1070
     1
1070
   279
1070
     0
1070
   288
1070
     0
1002
}
  0
LINE
  5
5A
330
2
100
AcDbEntity
  8
GAIKEI
 62
     1
100
AcDbLine
 10
-11.74124630240015
 20
22.07302935865979
 30
0.0
 11
-11.74124630240015
 21
22.18778981746035
 31
0.0
  0
LINE
  5
5B
330
2
100
AcDbEntity
  8
GAIKEI
 62
     1
100
AcDbLine
 10
-11.85600676120071
 20
22.07302935865979
 30
0.0
 11
-11.74124630240015
 21
22.07302935865979
 31
0.0
  0
LINE
  5
5C
330
2
100
AcDbEntity
  8
GAIKEI
 62
     1
100
AcDbLine
 10
-11.85600676120071
 20
21.95834826393857
 30
0.0
 11
-11.85600676120071
 21
22.07302935865979
 31
0.0
  0
LINE
  5
5D
330
2
100
AcDbEntity
  8
GAIKEI
 62
     1
100
AcDbLine
 10
-11.97092594816007
 20
21.95834826393857
 30
0.0
 11
-11.85600676120071
 21
21.95834826393857
 31
0.0
  0
LINE
  5
5E
330
2
100
AcDbEntity
  8
GAIKEI
 62
     1
100
AcDbLine
 10
-11.97092594816007
 20
22.07302935865979
 30
0.0
 11
-11.97092594816007
 21
21.95834826393857
 31
0.0
  0
LINE
  5
5F
330
2
100
AcDbEntity
  8
GAIKEI
 62
     1
100
AcDbLine
 10
-12.08568640696063
 20
22.07302935865979
 30
0.0
 11
-11.97092594816007
 21
22.07302935865979
 31
0.0
  0
LINE
  5
60
330
2
100
AcDbEntity
  8
GAIKEI
 62
     1
100
AcDbLine
 10
-12.08568640696063
 20
22.18778981746035
 30
0.0
 11
-12.08568640696063
 21
22.07302935865979
 31
0.0
  0
LINE
  5
61
330
2
100
AcDbEntity
  8
GAIKEI
 62
     1
100
AcDbLine
 10
-11.97092594816007
 20
22.18778981746035
 30
0.0
 11
-12.08568640696063
 21
22.18778981746035
 31
0.0
  0
LINE
  5
62
330
2
100
AcDbEntity
  8
GAIKEI
 62
     1
100
AcDbLine
 10
-11.97092594816007
 20
22.30270900441971
 30
0.0
 11
-11.97092594816007
 21
22.18778981746035
 31
0.0
  0
LINE
  5
63
330
2
100
AcDbEntity
  8
GAIKEI
 62
     1
100
AcDbLine
 10
-11.85600676120071
 20
22.30270900441971
 30
0.0
 11
-11.97092594816007
 21
22.30270900441971
 31
0.0
  0
LINE
  5
64
330
2
100
AcDbEntity
  8
GAIKEI
 62
     1
100
AcDbLine
 10
-11.85600676120071
 20
22.18778981746035
 30
0.0
 11
-11.85600676120071
 21
22.30270900441971
 31
0.0
  0
LINE
  5
65
330
2
100
AcDbEntity
  8
GAIKEI
 62
     1
100
AcDbLine
 10
-11.74124630240015
 20
22.18778981746035
 30
0.0
 11
-11.85600676120071
 21
22.18778981746035
 31
0.0
  0
LINE
  5
66
330
2
100
AcDbEntity
  8
GAIKEI
 62
     1
100
AcDbLine
 10
-4.733477456182015
 20
22.07302935865979
 30
0.0
 11
-4.733477456182015
 21
22.18778981746035
 31
0.0
  0
LINE
  5
67
330
2
100
AcDbEntity
  8
GAIKEI
 62
     1
100
AcDbLine
 10
-4.84839664314137
 20
22.07302935865979
 30
0.0
 11
-4.733477456182015
 21
22.07302935865979
 31
0.0
  0
LINE
  5
68
330
2
100
AcDbEntity
  8
GAIKEI
 62
     1
100
AcDbLine
 10
-4.84839664314137
 20
21.95834826393857
 30
0.0
 11
-4.84839664314137
 21
22.07302935865979
 31
0.0
  0
LINE
  5
69
330
2
100
AcDbEntity
  8
GAIKEI
 62
     1
100
AcDbLine
 10
-4.963157101941931
 20
21.95834826393857
 30
0.0
 11
-4.84839664314137
 21
21.95834826393857
 31
0.0
  0
LINE
  5
6A
330
2
100
AcDbEntity
  8
GAIKEI
 62
     1
100
AcDbLine
 10
-4.963157101941931
 20
22.07302935865979
 30
0.0
 11
-4.963157101941931
 21
21.95834826393857
 31
0.0
  0
LINE
  5
6B
330
2
100
AcDbEntity
  8
GAIKEI
 62
     1
100
AcDbLine
 10
-5.077917560742491
 20
22.07302935865979
 30
0.0
 11
-4.963157101941931
 21
22.07302935865979
 31
0.0
  0
LINE
  5
6C
330
2
100
AcDbEntity
  8
GAIKEI
 62
     1
100
AcDbLine
 10
-5.077917560742491
 20
22.18778981746035
 30
0.0
 11
-5.077917560742491
 21
22.07302935865979
 31
0.0
  0
LINE
  5
6D
330
2
100
AcDbEntity
  8
GAIKEI
 62
     1
100
AcDbLine
 10
-4.963157101941931
 20
22.18778981746035
 30
0.0
 11
-5.077917560742491
 21
22.18778981746035
 31
0.0
  0
LINE
  5
6E
330
2
100
AcDbEntity
  8
GAIKEI
 62
     1
100
AcDbLine
 10
-4.963157101941931
 20
22.30270900441971
 30
0.0
 11
-4.963157101941931
 21
22.18778981746035
 31
0.0
  0
LINE
  5
6F
330
2
100
AcDbEntity
  8
GAIKEI
 62
     1
100
AcDbLine
 10
-4.84839664314137
 20
22.30270900441971
 30
0.0
 11
-4.963157101941931
 21
22.30270900441971
 31
0.0
  0
LINE
  5
70
330
2
100
AcDbEntity
  8
GAIKEI
 62
     1
100
AcDbLine
 10
-4.84839664314137
 20
22.18778981746035
 30
0.0
 11
-4.84839664314137
 21
22.30270900441971
 31
0.0
  0
LINE
  5
71
330
2
100
AcDbEntity
  8
GAIKEI
 62
     1
100
AcDbLine
 10
-4.733477456182015
 20
22.18778981746035
 30
0.0
 11
-4.84839664314137
 21
22.18778981746035
 31
0.0
  0
LINE
  5
72
330
2
100
AcDbEntity
  8
GAIKEI
 62
     1
100
AcDbLine
 10
-11.74124630240015
 20
18.87918071169482
 30
0.0
 11
-11.74124630240015
 21
18.99378244233659
 31
0.0
  0
LINE
  5
73
330
2
100
AcDbEntity
  8
GAIKEI
 62
     1
100
AcDbLine
 10
-11.85600676120071
 20
18.87918071169482
 30
0.0
 11
-11.74124630240015
 21
18.87918071169482
 31
0.0
  0
LINE
  5
74
330
2
100
AcDbEntity
  8
GAIKEI
 62
     1
100
AcDbLine
 10
-11.85600676120071
 20
18.76442025289421
 30
0.0
 11
-11.85600676120071
 21
18.87918071169482
 31
0.0
  0
LINE
  5
75
330
2
100
AcDbEntity
  8
GAIKEI
 62
     1
100
AcDbLine
 10
-11.97092594816007
 20
18.76442025289421
 30
0.0
 11
-11.85600676120071
 21
18.76442025289421
 31
0.0
  0
LINE
  5
76
330
2
100
AcDbEntity
  8
GAIKEI
 62
     1
100
AcDbLine
 10
-11.97092594816007
 20
18.87918071169482
 30
0.0
 11
-11.97092594816007
 21
18.76442025289421
 31
0.0
  0
LINE
  5
77
330
2
100
AcDbEntity
  8
GAIKEI
 62
     1
100
AcDbLine
 10
-12.08568640696063
 20
18.87918071169482
 30
0.0
 11
-11.97092594816007
 21
18.87918071169482
 31
0.0
  0
LINE
  5
78
330
2
100
AcDbEntity
  8
GAIKEI
 62
     1
100
AcDbLine
 10
-12.08568640696063
 20
18.99378244233659
 30
0.0
 11
-12.08568640696063
 21
18.87918071169482
 31
0.0
  0
LINE
  5
79
330
2
100
AcDbEntity
  8
GAIKEI
 62
     1
100
AcDbLine
 10
-11.97092594816007
 20
18.99378244233659
 30
0.0
 11
-12.08568640696063
 21
18.99378244233659
 31
0.0
  0
LINE
  5
7A
330
2
100
AcDbEntity
  8
GAIKEI
 62
     1
100
AcDbLine
 10
-11.97092594816007
 20
19.10854290113715
 30
0.0
 11
-11.97092594816007
 21
18.99378244233659
 31
0.0
  0
LINE
  5
7B
330
2
100
AcDbEntity
  8
GAIKEI
 62
     1
100
AcDbLine
 10
-11.85600676120071
 20
19.10854290113715
 30
0.0
 11
-11.97092594816007
 21
19.10854290113715
 31
0.0
  0
LINE
  5
7C
330
2
100
AcDbEntity
  8
GAIKEI
 62
     1
100
AcDbLine
 10
-11.85600676120071
 20
18.99378244233659
 30
0.0
 11
-11.85600676120071
 21
19.10854290113715
 31
0.0
  0
LINE
  5
7D
330
2
100
AcDbEntity
  8
GAIKEI
 62
     1
100
AcDbLine
 10
-11.74124630240015
 20
18.99378244233659
 30
0.0
 11
-11.85600676120071
 21
18.99378244233659
 31
0.0
  0
LINE
  5
7E
330
2
100
AcDbEntity
  8
GAIKEI
 62
     1
100
AcDbLine
 10
-4.733477456182015
 20
18.87918071169482
 30
0.0
 11
-4.733477456182015
 21
18.99378244233659
 31
0.0
  0
LINE
  5
7F
330
2
100
AcDbEntity
  8
GAIKEI
 62
     1
100
AcDbLine
 10
-4.84839664314137
 20
18.87918071169482
 30
0.0
 11
-4.733477456182015
 21
18.87918071169482
 31
0.0
  0
LINE
  5
80
330
2
100
AcDbEntity
  8
GAIKEI
 62
     1
100
AcDbLine
 10
-4.84839664314137
 20
18.76442025289421
 30
0.0
 11
-4.84839664314137
 21
18.87918071169482
 31
0.0
  0
LINE
  5
81
330
2
100
AcDbEntity
  8
GAIKEI
 62
     1
100
AcDbLine
 10
-4.963157101941931
 20
18.76442025289421
 30
0.0
 11
-4.84839664314137
 21
18.76442025289421
 31
0.0
  0
LINE
  5
82
330
2
100
AcDbEntity
  8
GAIKEI
 62
     1
100
AcDbLine
 10
-4.963157101941931
 20
18.87918071169482
 30
0.0
 11
-4.963157101941931
 21
18.76442025289421
 31
0.0
  0
LINE
  5
83
330
2
100
AcDbEntity
  8
GAIKEI
 62
     1
100
AcDbLine
 10
-5.077917560742491
 20
18.87918071169482
 30
0.0
 11
-4.963157101941931
 21
18.87918071169482
 31
0.0
  0
LINE
  5
84
330
2
100
AcDbEntity
  8
GAIKEI
 62
     1
100
AcDbLine
 10
-5.077917560742491
 20
18.99378244233659
 30
0.0
 11
-5.077917560742491
 21
18.87918071169482
 31
0.0
  0
LINE
  5
85
330
2
100
AcDbEntity
  8
GAIKEI
 62
     1
100
AcDbLine
 10
-4.963157101941931
 20
18.99378244233659
 30
0.0
 11
-5.077917560742491
 21
18.99378244233659
 31
0.0
  0
LINE
  5
86
330
2
100
AcDbEntity
  8
GAIKEI
 62
     1
100
AcDbLine
 10
-4.963157101941931
 20
19.10854290113715
 30
0.0
 11
-4.963157101941931
 21
18.99378244233659
 31
0.0
  0
LINE
  5
87
330
2
100
AcDbEntity
  8
GAIKEI
 62
     1
100
AcDbLine
 10
-4.84839664314137
 20
19.10854290113715
 30
0.0
 11
-4.963157101941931
 21
19.10854290113715
 31
0.0
  0
LINE
  5
88
330
2
100
AcDbEntity
  8
GAIKEI
 62
     1
100
AcDbLine
 10
-4.84839664314137
 20
18.99378244233659
 30
0.0
 11
-4.84839664314137
 21
19.10854290113715
 31
0.0
  0
LINE
  5
89
330
2
100
AcDbEntity
  8
GAIKEI
 62
     1
100
AcDbLine
 10
-4.733477456182015
 20
18.99378244233659
 30
0.0
 11
-4.84839664314137
 21
18.99378244233659
 31
0.0
  0
SPLINE
  5
8A
330
2
100
AcDbEntity
  8
GAIKEI
100
AcDbSpline
210
0.0
220
0.0
230
1.0
 70
    24
 71
     3
 72
     8
 73
     4
 74
     0
 42
0.0000000001
 43
0.0000000001
 40
16.0
 40
16.0
 40
16.0
 40
16.0
 40
17.0
 40
17.0
 40
17.0
 40
17.0
 10
-3.865869340270648
 20
10.91731596877153
 30
0.0
 10
-3.865869340270648
 20
10.91731596877153
 30
0.0
 10
-16.01476388541146
 20
10.91731596877153
 30
0.0
 10
-16.01476388541146
 20
10.91731596877153
 30
0.0
  0
LINE
  5
8B
330
2
100
AcDbEntity
  8
GAIKEI
 62
     1
100
AcDbLine
 10
-8.168830996736289
 20
20.49400163508014
 30
0.0
 11
-8.347479539447192
 21
20.40670114774914
 31
0.0
  0
LINE
  5
8C
330
2
100
AcDbEntity
  8
GAIKEI
 62
     1
100
AcDbLine
 10
-8.393193249176931
 20
20.95201173725033
 30
0.0
 11
-8.168830996736289
 21
20.49400163508014
 31
0.0
  0
LINE
  5
8D
330
2
100
AcDbEntity
  8
GAIKEI
 62
     1
100
AcDbLine
 10
-8.57176242780855
 20
20.86439379360175
 30
0.0
 11
-8.393193249176931
 21
20.95201173725033
 31
0.0
  0
LINE
  5
8E
330
2
100
AcDbEntity
  8
GAIKEI
 62
     1
100
AcDbLine
 10
-8.347479539447192
 20
20.40670114774914
 30
0.0
 11
-8.57176242780855
 21
20.86439379360175
 31
0.0
  0
LINE
  5
8F
330
2
100
AcDbEntity
  8
GAIKEI
 62
     1
100
AcDbLine
 10
-6.142348593545591
 20
20.49400163508014
 30
0.0
 11
-6.320679679938905
 21
20.40670114774914
 31
0.0
  0
LINE
  5
90
330
2
100
AcDbEntity
  8
GAIKEI
 62
     1
100
AcDbLine
 10
-6.366631481906836
 20
20.95201173725033
 30
0.0
 11
-6.142348593545591
 21
20.49400163508014
 31
0.0
  0
LINE
  5
91
330
2
100
AcDbEntity
  8
GAIKEI
 62
     1
100
AcDbLine
 10
-6.545280024617852
 20
20.86439379360175
 30
0.0
 11
-6.366631481906836
 21
20.95201173725033
 31
0.0
  0
LINE
  5
92
330
2
100
AcDbEntity
  8
GAIKEI
 62
     1
100
AcDbLine
 10
-6.320679679938905
 20
20.40670114774914
 30
0.0
 11
-6.545280024617852
 21
20.86439379360175
 31
0.0
  0
LINE
  5
93
330
2
100
AcDbEntity
  8
GAIKEI
 62
     1
100
AcDbLine
 10
-6.469249236560415
 20
20.47677962985213
 30
0.0
 11
-6.743214038621033
 21
20.3936854387289
 31
0.0
  0
LINE
  5
94
330
2
100
AcDbEntity
  8
GAIKEI
 62
     1
100
AcDbLine
 10
-6.583930331281578
 20
20.71455441171
 30
0.0
 11
-6.469249236560415
 21
20.47677962985213
 31
0.0
  0
LINE
  5
95
330
2
100
AcDbEntity
  8
GAIKEI
 62
     1
100
AcDbLine
 10
-6.819482918916548
 20
20.55201677711554
 30
0.0
 11
-6.583930331281578
 21
20.71455441171
 31
0.0
  0
LINE
  5
96
330
2
100
AcDbEntity
  8
GAIKEI
 62
     1
100
AcDbLine
 10
-6.743214038621033
 20
20.3936854387289
 30
0.0
 11
-6.819482918916548
 21
20.55201677711554
 31
0.0
  0
CIRCLE
  5
97
330
2
100
AcDbEntity
  8
GAIKEI
 62
     1
100
AcDbCircle
 10
-8.366685646660073
 20
20.6808246779685
 30
0.0
 40
0.6017022943478905
  0
LINE
  5
98
330
2
100
AcDbEntity
  8
GAIKEI
 62
     1
100
AcDbLine
 10
-8.495731639751113
 20
20.47677962985213
 30
0.0
 11
-8.769617077732334
 21
20.3936854387289
 31
0.0
  0
LINE
  5
99
330
2
100
AcDbEntity
  8
GAIKEI
 62
     1
100
AcDbLine
 10
-8.610809554869263
 20
20.71471313986879
 30
0.0
 11
-8.495731639751113
 21
20.47677962985213
 31
0.0
  0
LINE
  5
9A
330
2
100
AcDbEntity
  8
GAIKEI
 62
     1
100
AcDbLine
 10
-8.846362142504233
 20
20.55201677711554
 30
0.0
 11
-8.610809554869263
 21
20.71471313986879
 31
0.0
  0
LINE
  5
9B
330
2
100
AcDbEntity
  8
GAIKEI
 62
     1
100
AcDbLine
 10
-8.769617077732334
 20
20.3936854387289
 30
0.0
 11
-8.846362142504233
 21
20.55201677711554
 31
0.0
  0
CIRCLE
  5
9C
330
2
100
AcDbEntity
  8
GAIKEI
 62
     1
100
AcDbCircle
 10
-4.905657826422554
 20
18.93656094109511
 30
0.0
 40
0.3061469362539401
  0
CIRCLE
  5
9D
330
2
100
AcDbEntity
  8
GAIKEI
 62
     1
100
AcDbCircle
 10
-11.91342667264069
 20
18.93656094109511
 30
0.0
 40
0.3060675721745483
  0
CIRCLE
  5
9E
330
2
100
AcDbEntity
  8
GAIKEI
 62
     1
100
AcDbCircle
 10
-4.905657826422554
 20
22.13040958806007
 30
0.0
 40
0.3061469362539401
  0
CIRCLE
  5
9F
330
2
100
AcDbEntity
  8
GAIKEI
 62
     1
100
AcDbCircle
 10
-11.91342667264069
 20
22.13040958806007
 30
0.0
 40
0.3060675721745483
  0
LINE
  5
A0
330
2
100
AcDbEntity
  8
GAIKEI
 62
     1
100
AcDbLine
 10
-16.36547375224387
 20
11.40865898428623
 30
0.0
 11
-3.515159473438131
 21
11.40865898428623
 31
0.0
  0
LINE
  5
A1
330
2
100
AcDbEntity
  8
GAIKEI
 62
     1
100
AcDbLine
 10
-16.34031533907665
 20
12.06642847428563
 30
0.0
 11
-3.54031788660535
 21
12.06642847428563
 31
0.0
  0
LINE
  5
A2
330
2
100
AcDbEntity
  8
GAIKEI
100
AcDbLine
 10
-16.34031533907665
 20
23.68007260226468
 30
0.0
 11
-3.54031788660535
 21
23.68007260226468
 31
0.0
  0
CIRCLE
  5
A3
330
2
100
AcDbEntity
  8
GAIKEI
 62
     1
100
AcDbCircle
 10
-6.340084197350222
 20
20.6806659498097
 30
0.0
 40
0.6015374220231276
  0
LINE
  5
A4
330
2
100
AcDbEntity
  8
GAIKEI
 62
     1
100
AcDbLine
 10
-4.784429195151517
 20
28.77389730986979
 30
0.0
 11
-6.412980104271639
 21
28.77389730986979
 31
0.0
  0
LINE
  5
A5
330
2
100
AcDbEntity
  8
GAIKEI
100
AcDbLine
 10
-4.594431589087491
 20
27.41002560552138
 30
0.0
 11
-6.597422224778199
 21
27.41002560552138
 31
0.0
  0
LINE
  5
A6
330
2
100
AcDbEntity
  8
GAIKEI
 62
     1
100
AcDbLine
 10
-4.43649707109779
 20
27.10542626881559
 30
0.0
 11
-6.755198014609106
 21
27.10542626881559
 31
0.0
  0
LINE
  5
A7
330
2
100
AcDbEntity
  8
GAIKEI
100
AcDbLine
 10
-4.418719517314059
 20
26.23877052185693
 30
0.0
 11
-6.770118461534877
 21
26.23877052185693
 31
0.0
  0
LINE
  5
A8
330
2
100
AcDbEntity
  8
GAIKEI
 62
     1
100
AcDbLine
 10
-4.120151850642002
 20
25.91647299544675
 30
0.0
 11
-7.069003584524409
 21
25.91647299544675
 31
0.0
  0
LINE
  5
A9
330
2
100
AcDbEntity
  8
GAIKEI
  6
HIDDEN2
 62
     1
100
AcDbLine
 10
-5.146805581654518
 20
29.00405314010609
 30
0.0
 11
-5.363469518394197
 21
32.96717780861595
 31
0.0
  0
LINE
  5
AB
330
2
100
AcDbEntity
  8
GAIKEI
 62
     1
100
AcDbLine
 10
-5.363469518394197
 20
32.96717780861595
 30
0.0
 11
-5.853463344559315
 21
32.96717780861595
 31
0.0
  0
LINE
  5
AC
330
2
100
AcDbEntity
  8
GAIKEI
  6
HIDDEN2
 62
     1
100
AcDbLine
 10
-5.853463344559315
 20
32.96717780861595
 30
0.0
 11
-6.070286009457788
 21
29.00405314010609
 31
0.0
  0
LINE
  5
AD
330
2
100
AcDbEntity
  8
GAIKEI
100
AcDbLine
 10
-4.220309318834495
 20
24.46125323571837
 30
0.0
 11
-4.220309318834495
 21
25.3157662785301
 31
0.0
  0
LINE
  5
AE
330
2
100
AcDbEntity
  8
GAIKEI
100
AcDbLine
 10
-4.115866190354893
 20
25.3157662785301
 30
0.0
 11
-4.115866190354893
 21
25.90853658750759
 31
0.0
  0
LINE
  5
AF
330
2
100
AcDbEntity
  8
GAIKEI
100
AcDbLine
 10
-4.115866190354893
 20
25.90853658750759
 30
0.0
 11
-4.307768534324225
 21
26.23988161896844
 31
0.0
  0
LINE
  5
B0
330
2
100
AcDbEntity
  8
GAIKEI
100
AcDbLine
 10
-4.307768534324225
 20
26.23988161896844
 30
0.0
 11
-4.429830488428876
 21
26.23988161896844
 31
0.0
  0
LINE
  5
B1
330
2
100
AcDbEntity
  8
GAIKEI
100
AcDbLine
 10
-4.429830488428876
 20
26.23988161896844
 30
0.0
 11
-4.429830488428876
 21
27.0945533899389
 31
0.0
  0
LINE
  5
B2
330
2
100
AcDbEntity
  8
GAIKEI
100
AcDbLine
 10
-4.429830488428876
 20
27.0945533899389
 30
0.0
 11
-4.604114006773272
 21
27.42566032916161
 31
0.0
  0
LINE
  5
B3
330
2
100
AcDbEntity
  8
GAIKEI
100
AcDbLine
 10
-4.604114006773272
 20
27.42566032916161
 30
0.0
 11
-4.778238796958987
 21
28.79318278116201
 31
0.0
  0
LINE
  5
B4
330
2
100
AcDbEntity
  8
GAIKEI
100
AcDbLine
 10
-4.778238796958987
 20
28.79318278116201
 30
0.0
 11
-4.883316838073767
 21
29.00286267891519
 31
0.0
  0
LINE
  5
B5
330
2
100
AcDbEntity
  8
GAIKEI
100
AcDbLine
 10
-4.883316838073767
 20
29.00286267891519
 30
0.0
 11
-6.313457548714325
 21
29.00286267891519
 31
0.0
  0
LINE
  5
B6
330
2
100
AcDbEntity
  8
GAIKEI
100
AcDbLine
 10
-6.313457548714325
 20
29.00286267891519
 30
0.0
 11
-6.417900677193927
 21
28.79318278116201
 31
0.0
  0
LINE
  5
B7
330
2
100
AcDbEntity
  8
GAIKEI
100
AcDbLine
 10
-6.417900677193927
 20
28.79318278116201
 30
0.0
 11
-6.592501651855911
 21
27.42566032916161
 31
0.0
  0
LINE
  5
B8
330
2
100
AcDbEntity
  8
GAIKEI
100
AcDbLine
 10
-6.592501651855911
 20
27.42566032916161
 30
0.0
 11
-6.766785170200307
 21
27.0945533899389
 31
0.0
  0
LINE
  5
B9
330
2
100
AcDbEntity
  8
GAIKEI
100
AcDbLine
 10
-6.766785170200307
 20
27.0945533899389
 30
0.0
 11
-6.766785170200307
 21
26.23988161896844
 31
0.0
  0
LINE
  5
BA
330
2
100
AcDbEntity
  8
GAIKEI
100
AcDbLine
 10
-6.766785170200307
 20
26.23988161896844
 30
0.0
 11
-6.889005852463753
 21
26.23988161896844
 31
0.0
  0
LINE
  5
BB
330
2
100
AcDbEntity
  8
GAIKEI
100
AcDbLine
 10
-6.889005852463753
 20
26.23988161896844
 30
0.0
 11
-7.08059074011561
 21
25.90853658750759
 31
0.0
  0
LINE
  5
BC
330
2
100
AcDbEntity
  8
GAIKEI
100
AcDbLine
 10
-7.08059074011561
 20
25.90853658750759
 30
0.0
 11
-7.08059074011561
 21
25.3157662785301
 31
0.0
  0
LINE
  5
BD
330
2
100
AcDbEntity
  8
GAIKEI
100
AcDbLine
 10
-7.08059074011561
 20
25.3157662785301
 30
0.0
 11
-4.115866190354893
 21
25.3157662785301
 31
0.0
  0
LINE
  5
BE
330
2
100
AcDbEntity
  8
GAIKEI
100
AcDbLine
 10
-6.976147611636008
 20
25.3157662785301
 30
0.0
 11
-6.976147611636008
 21
24.84895523876483
 31
0.0
  0
CIRCLE
  5
BF
330
2
100
AcDbEntity
  8
GAIKEI
 62
     1
100
AcDbCircle
 10
-5.61568856270145
 20
24.94950105213686
 30
0.0
 40
0.1917436158106336
  0
LINE
  5
C0
330
2
100
AcDbEntity
  8
GAIKEI
 62
     1
100
AcDbLine
 10
-6.714563605960563
 20
24.62520793194701
 30
0.0
 11
-6.714563605960563
 21
25.52504935588635
 31
0.0
  0
LINE
  5
C1
330
2
100
AcDbEntity
  8
GAIKEI
 62
     1
100
AcDbLine
 10
-6.714563605960563
 20
25.52504935588635
 30
0.0
 11
-4.517289703918606
 21
25.52504935588635
 31
0.0
  0
LINE
  5
C2
330
2
100
AcDbEntity
  8
GAIKEI
 62
     1
100
AcDbLine
 10
-4.517289703918606
 20
25.52504935588635
 30
0.0
 11
-4.517289703918606
 21
24.27633493073543
 31
0.0
  0
LINE
  5
C3
330
2
100
AcDbEntity
  8
GAIKEI
100
AcDbLine
 10
-6.434952179885556
 20
24.46125323571837
 30
0.0
 11
-4.220309318834495
 21
24.46125323571837
 31
0.0
  0
LINE
  5
C4
330
2
100
AcDbEntity
  8
GAIKEI
100
AcDbLine
 10
-16.01476388541146
 20
10.91731596877153
 30
0.0
 11
-3.865869340270648
 21
10.91731596877153
 31
0.0
  0
LINE
  5
C5
330
2
100
AcDbEntity
  8
GAIKEI
100
AcDbLine
 10
-16.36547375224387
 20
11.23620083976786
 30
0.0
 11
-16.36547375224387
 21
11.40865898428623
 31
0.0
  0
ARC
  5
C6
330
2
100
AcDbEntity
  8
GAIKEI
100
AcDbCircle
 10
-15.97330010234389
 20
11.31521582292114
 30
0.0
 40
0.4000544203462655
100
AcDbArc
 50
191.3914225194579
 51
264.0508746255239
  0
LINE
  5
C7
330
2
100
AcDbEntity
  8
GAIKEI
100
AcDbLine
 10
-16.23071354543657
 20
11.70151243724208
 30
0.0
 11
-16.14230196099407
 21
11.70151243724208
 31
0.0
  0
LINE
  5
C8
330
2
100
AcDbEntity
  8
GAIKEI
100
AcDbLine
 10
-16.14230196099407
 20
11.70151243724208
 30
0.0
 11
-16.14230196099407
 21
11.7905589343197
 31
0.0
  0
LINE
  5
C9
330
2
100
AcDbEntity
  8
GAIKEI
100
AcDbLine
 10
-16.14230196099407
 20
11.7905589343197
 30
0.0
 11
-16.26976067249739
 21
11.7905589343197
 31
0.0
  0
LINE
  5
CA
330
2
100
AcDbEntity
  8
GAIKEI
100
AcDbLine
 10
-16.34031533907665
 20
12.06642847428563
 30
0.0
 11
-16.34031533907665
 21
23.68007260226468
 31
0.0
  0
ARC
  5
CB
330
2
100
AcDbEntity
  8
GAIKEI
100
AcDbCircle
 10
-16.15465045547267
 20
11.55270110469169
 30
0.0
 40
0.1671239251282579
100
AcDbArc
 50
117.0732904674347
 51
240.4541166133193
  0
ARC
  5
CC
330
2
100
AcDbEntity
  8
GAIKEI
100
AcDbCircle
 10
-16.16968725387465
 20
11.92258303033983
 30
0.0
 40
0.1656654793393966
100
AcDbArc
 50
121.8312504582775
 51
232.8381058874364
  0
LINE
  5
CD
330
2
100
AcDbEntity
  8
GAIKEI
100
AcDbLine
 10
-16.34031533907665
 20
23.68007260226468
 30
0.0
 11
-16.21825338497211
 21
28.53390033378892
 31
0.0
  0
ARC
  5
CE
330
2
100
AcDbEntity
  8
GAIKEI
100
AcDbCircle
 10
-15.84092477684208
 20
28.54074436513141
 30
0.0
 40
0.3773906719545431
100
AcDbArc
 50
86.20657940174929
 51
181.039123744941
  0
LINE
  5
CF
330
2
100
AcDbEntity
  8
GAIKEI
100
AcDbLine
 10
-15.81595686653491
 20
28.91730820133082
 30
0.0
 11
-7.832565392353046
 21
28.91730820133082
 31
0.0
  0
LINE
  5
D0
330
2
100
AcDbEntity
  8
GAIKEI
100
AcDbLine
 10
-15.46453272298793
 20
28.91730820133082
 30
0.0
 11
-15.46453272298793
 21
31.18763485540242
 31
0.0
  0
LINE
  5
D1
330
2
100
AcDbEntity
  8
GAIKEI
100
AcDbLine
 10
-13.14091120655422
 20
31.18763485540242
 30
0.0
 11
-13.14091120655422
 21
28.91730820133082
 31
0.0
  0
LINE
  5
D2
330
2
100
AcDbEntity
  8
GAIKEI
100
AcDbLine
 10
-14.70708194927243
 20
31.91730820133082
 30
0.0
 11
-13.89852070842863
 21
31.91730820133082
 31
0.0
  0
ARC
  5
D3
330
2
100
AcDbEntity
  8
GAIKEI
100
AcDbCircle
 10
-14.7156888833885
 20
31.16826329332567
 30
0.0
 40
0.7490943555542767
100
AcDbArc
 50
89.34166924802005
 51
178.5181673243019
  0
ARC
  5
D4
330
2
100
AcDbEntity
  8
GAIKEI
100
AcDbCircle
 10
-13.88999837391639
 20
31.1680125391135
 30
0.0
 40
0.7493441262885808
100
AcDbArc
 50
1.500518113053894
 51
90.65164229509257
  0
LINE
  5
D5
330
2
100
AcDbEntity
  8
GAIKEI
100
AcDbLine
 10
-7.53352154120472
 20
28.62397856389864
 30
0.0
 11
-7.480982520647387
 21
25.82948996443329
 31
0.0
  0
LINE
  5
D6
330
2
100
AcDbEntity
  8
GAIKEI
100
AcDbLine
 10
-5.739575890632124
 20
24.28149359589591
 30
0.0
 11
-3.84745687385174
 21
24.28149359589591
 31
0.0
  0
ARC
  5
D7
330
2
100
AcDbEntity
  8
GAIKEI
100
AcDbCircle
 10
-7.831907563476477
 20
28.61887933598151
 30
0.0
 40
0.2984295903768699
100
AcDbArc
 50
0.9790532389753272
 51
90.12629729091974
  0
ARC
  5
D8
330
2
100
AcDbEntity
  8
GAIKEI
100
AcDbCircle
 10
-5.623434940111167
 20
26.16563466015574
 30
0.0
 40
1.887717211453577
100
AcDbArc
 50
190.2573287217926
 51
266.4726752881809
  0
LINE
  5
D9
330
2
100
AcDbEntity
  8
GAIKEI
 62
     1
100
AcDbLine
 10
-4.887126313884607
 20
24.46125323571837
 30
0.0
 11
-4.887126313884493
 21
25.05132516599658
 31
0.0
  0
LINE
  5
DA
330
2
100
AcDbEntity
  8
GAIKEI
 62
     1
100
AcDbLine
 10
-5.597434824441336
 20
25.30862351138486
 30
0.0
 11
-5.109663192499226
 21
25.30862351138486
 31
0.0
  0
LINE
  5
DB
330
2
100
AcDbEntity
  8
GAIKEI
 62
     1
100
AcDbLine
 10
-5.396802431738763
 20
24.734821217382
 30
0.0
 11
-5.396802431738763
 21
24.46125323571837
 31
0.0
  0
LINE
  5
DC
330
2
100
AcDbEntity
  8
GAIKEI
 62
     1
100
AcDbLine
 10
-5.396802431738763
 20
24.734821217382
 30
0.0
 11
-5.597434824441336
 21
24.734821217382
 31
0.0
  0
ARC
  5
DD
330
2
100
AcDbEntity
  8
GAIKEI
 62
     1
100
AcDbCircle
 10
-5.597672794018137
 20
25.0217223643834
 30
0.0
 40
0.2869012456930941
100
AcDbArc
 50
89.95247614231526
 51
270.0475238576848
  0
ARC
  5
DE
330
2
100
AcDbEntity
  8
GAIKEI
 62
     1
100
AcDbCircle
 10
-5.138233157396541
 20
25.0590283530677
 30
0.0
 40
0.2512249707923257
100
AcDbArc
 50
358.242892431445
 51
83.47004609294584
  0
ARC
  5
DF
330
2
100
AcDbEntity
  8
GAIKEI
100
AcDbCircle
 10
-3.710945971807348
 20
11.92258303033983
 30
0.0
 40
0.1656654793393966
100
AcDbArc
 50
307.1618941125635
 51
58.16874954172246
  0
ARC
  5
E0
330
2
100
AcDbEntity
  8
GAIKEI
100
AcDbCircle
 10
-3.725982770209327
 20
11.55270110469169
 30
0.0
 40
0.1671239251282579
100
AcDbArc
 50
299.5458833866807
 51
62.92670953256531
  0
LINE
  5
E1
330
2
100
AcDbEntity
  8
GAIKEI
100
AcDbLine
 10
-3.738331264687928
 20
11.7905589343197
 30
0.0
 11
-3.610872553184719
 21
11.7905589343197
 31
0.0
  0
LINE
  5
E2
330
2
100
AcDbEntity
  8
GAIKEI
100
AcDbLine
 10
-3.738331264687928
 20
11.70151243724208
 30
0.0
 11
-3.738331264687928
 21
11.7905589343197
 31
0.0
  0
LINE
  5
E3
330
2
100
AcDbEntity
  8
GAIKEI
100
AcDbLine
 10
-3.649919680245432
 20
11.70151243724208
 30
0.0
 11
-3.738331264687928
 21
11.70151243724208
 31
0.0
  0
LINE
  5
E4
330
2
100
AcDbEntity
  8
GAIKEI
100
AcDbLine
 10
-3.515159473438245
 20
11.23620083976786
 30
0.0
 11
-3.515159473438131
 21
11.40865898428623
 31
0.0
  0
LINE
  5
E5
330
2
100
AcDbEntity
  8
GAIKEI
100
AcDbLine
 10
-3.54031788660535
 20
12.06642847428563
 30
0.0
 11
-3.54031788660535
 21
23.98884352463395
 31
0.0
  0
LINE
  5
E6
330
2
100
AcDbEntity
  8
GAIKEI
 62
     1
100
AcDbLine
 10
-11.91878374799972
 20
22.94603423196977
 30
0.0
 11
-4.9267289895011
 21
22.94603423196977
 31
0.0
  0
LINE
  5
E7
330
2
100
AcDbEntity
  8
GAIKEI
 62
     1
100
AcDbLine
 10
-11.91878374799972
 20
22.72659255245136
 30
0.0
 11
-4.9267289895011
 21
22.72659255245136
 31
0.0
  0
LINE
  5
E8
330
2
100
AcDbEntity
  8
GAIKEI
 62
     1
100
AcDbLine
 10
-10.51054752327121
 20
22.18128196295018
 30
0.0
 11
-6.323616150876489
 21
22.18128196295018
 31
0.0
  0
LINE
  5
E9
330
2
100
AcDbEntity
  8
GAIKEI
 62
     1
100
AcDbLine
 10
-10.51054752327121
 20
21.96168155527303
 30
0.0
 11
-6.323616150876489
 21
21.96168155527303
 31
0.0
  0
LINE
  5
EA
330
2
100
AcDbEntity
  8
GAIKEI
 62
     1
100
AcDbLine
 10
-10.51054752327121
 20
19.10465406124697
 30
0.0
 11
-6.323616150876489
 21
19.10465406124697
 31
0.0
  0
LINE
  5
EB
330
2
100
AcDbEntity
  8
GAIKEI
 62
     1
100
AcDbLine
 10
-10.51054752327121
 20
18.88521238172856
 30
0.0
 11
-6.323616150876489
 21
18.88521238172856
 31
0.0
  0
LINE
  5
EC
330
2
100
AcDbEntity
  8
GAIKEI
 62
     1
100
AcDbLine
 10
-11.91878374799972
 20
18.32855272887437
 30
0.0
 11
-4.9267289895011
 21
18.32855272887437
 31
0.0
  0
LINE
  5
ED
330
2
100
AcDbEntity
  8
GAIKEI
 62
     1
100
AcDbLine
 10
-11.91878374799972
 20
18.10911104935601
 30
0.0
 11
-4.9267289895011
 21
18.10911104935601
 31
0.0
  0
LINE
  5
EE
330
2
100
AcDbEntity
  8
GAIKEI
 62
     1
100
AcDbLine
 10
-12.51710954253457
 20
22.12818739383706
 30
0.0
 11
-12.51710954253457
 21
18.92695788748866
 31
0.0
  0
LINE
  5
EF
330
2
100
AcDbEntity
  8
GAIKEI
 62
     1
100
AcDbLine
 10
-12.73647185797364
 20
22.12818739383706
 30
0.0
 11
-12.73647185797364
 21
18.92695788748866
 31
0.0
  0
LINE
  5
F0
330
2
100
AcDbEntity
  8
GAIKEI
 62
     1
100
AcDbLine
 10
-11.70727847642052
 20
20.76510933028262
 30
0.0
 11
-11.70727847642052
 21
20.30154374255496
 31
0.0
  0
LINE
  5
F1
330
2
100
AcDbEntity
  8
GAIKEI
 62
     1
100
AcDbLine
 10
-11.92656142778008
 20
20.76510933028262
 30
0.0
 11
-11.92656142778008
 21
20.30154374255496
 31
0.0
  0
LINE
  5
F2
330
2
100
AcDbEntity
  8
GAIKEI
 62
     1
100
AcDbLine
 10
-5.126805833647779
 20
20.76510933028262
 30
0.0
 11
-5.126805833647779
 21
20.30154374255496
 31
0.0
  0
LINE
  5
F3
330
2
100
AcDbEntity
  8
GAIKEI
 62
     1
100
AcDbLine
 10
-4.907522882288219
 20
20.76510933028262
 30
0.0
 11
-4.907522882288219
 21
20.30154374255496
 31
0.0
  0
LINE
  5
F4
330
2
100
AcDbEntity
  8
GAIKEI
 62
     1
100
AcDbLine
 10
-4.328085738648553
 20
22.12818739383706
 30
0.0
 11
-4.328085738648553
 21
18.92695788748866
 31
0.0
  0
LINE
  5
F5
330
2
100
AcDbEntity
  8
GAIKEI
 62
     1
100
AcDbLine
 10
-4.108882151368391
 20
22.12818739383706
 30
0.0
 11
-4.108882151368391
 21
18.92695788748866
 31
0.0
  0
ARC
  5
F6
330
2
100
AcDbEntity
  8
GAIKEI
 62
     1
100
AcDbCircle
 10
-4.928348763024757
 20
22.12632883623715
 30
0.0
 40
0.6002659016382501
100
AcDbArc
 50
0.1774008423758921
 51
89.8453913523161
  0
ARC
  5
F7
330
2
100
AcDbEntity
  8
GAIKEI
 62
     1
100
AcDbCircle
 10
-4.927572846438977
 20
22.12734353689913
 30
0.0
 40
0.8186911299688841
100
AcDbArc
 50
0.0590570092274856
 51
89.94094299077412
  0
ARC
  5
F8
330
2
100
AcDbEntity
  8
GAIKEI
 62
     1
100
AcDbCircle
 10
-6.327078868851515
 20
20.76140780737503
 30
0.0
 40
1.200278742754752
100
AcDbArc
 50
0.1766939369865472
 51
89.83470556150333
  0
ARC
  5
F9
330
2
100
AcDbEntity
  8
GAIKEI
 62
     1
100
AcDbCircle
 10
-6.325252642877615
 20
20.76355229184801
 30
0.0
 40
1.417730615607065
100
AcDbArc
 50
0.0629257404712469
 51
89.9338632426598
  0
ARC
  5
FA
330
2
100
AcDbEntity
  8
GAIKEI
 62
     1
100
AcDbCircle
 10
-4.927572846438977
 20
18.9278017444266
 30
0.0
 40
0.8186911299688841
100
AcDbArc
 50
270.0590570092258
 51
359.9409429907725
  0
ARC
  5
FB
330
2
100
AcDbEntity
  8
GAIKEI
 62
     1
100
AcDbCircle
 10
-4.928348763024757
 20
18.92881644508858
 30
0.0
 40
0.6002659016382501
100
AcDbArc
 50
270.1546086476839
 51
359.822599157624
  0
ARC
  5
FC
330
2
100
AcDbEntity
  8
GAIKEI
 62
     1
100
AcDbCircle
 10
-6.325252642877615
 20
20.30294205283078
 30
0.0
 40
1.417730615607065
100
AcDbArc
 50
270.0661367573402
 51
359.9370742595287
  0
ARC
  5
FD
330
2
100
AcDbEntity
  8
GAIKEI
 62
     1
100
AcDbCircle
 10
-6.327078868851515
 20
20.30508653730376
 30
0.0
 40
1.200278742754752
100
AcDbArc
 50
270.1652944384966
 51
359.8233060630134
  0
ARC
  5
FE
330
2
100
AcDbEntity
  8
GAIKEI
 62
     1
100
AcDbCircle
 10
-11.91793989106184
 20
22.12734353689913
 30
0.0
 40
0.8186911299688841
100
AcDbArc
 50
90.05905700922587
 51
179.9409429907725
  0
ARC
  5
FF
330
2
100
AcDbEntity
  8
GAIKEI
 62
     1
100
AcDbCircle
 10
-11.91716397447595
 20
22.12632883623715
 30
0.0
 40
0.6002659016382501
100
AcDbArc
 50
90.15460864768391
 51
179.8225991576241
  0
ARC
  5
100
330
2
100
AcDbEntity
  8
GAIKEI
 62
     1
100
AcDbCircle
 10
-11.91716397447595
 20
18.92881644508858
 30
0.0
 40
0.6002659016382501
100
AcDbArc
 50
180.1774008423759
 51
269.845391352316
  0
ARC
  5
101
330
2
100
AcDbEntity
  8
GAIKEI
 62
     1
100
AcDbCircle
 10
-11.91793989106184
 20
18.9278017444266
 30
0.0
 40
0.8186911299688841
100
AcDbArc
 50
180.0590570092275
 51
269.9409429907741
  0
ARC
  5
102
330
2
100
AcDbEntity
  8
GAIKEI
 62
     1
100
AcDbCircle
 10
-10.50708480529618
 20
20.30508653730376
 30
0.0
 40
1.200278742754752
100
AcDbArc
 50
180.1766939369865
 51
269.8347055615033
  0
ARC
  5
103
330
2
100
AcDbEntity
  8
GAIKEI
 62
     1
100
AcDbCircle
 10
-10.50891103127008
 20
20.76355229184801
 30
0.0
 40
1.417730615607065
100
AcDbArc
 50
90.06613675734021
 51
179.9370742595287
  0
ARC
  5
104
330
2
100
AcDbEntity
  8
GAIKEI
 62
     1
100
AcDbCircle
 10
-10.50708480529618
 20
20.76140780737503
 30
0.0
 40
1.200278742754752
100
AcDbArc
 50
90.16529443849668
 51
179.8233060630134
  0
ARC
  5
105
330
2
100
AcDbEntity
  8
GAIKEI
 62
     1
100
AcDbCircle
 10
-10.50891103127008
 20
20.30294205283078
 30
0.0
 40
1.417730615607065
100
AcDbArc
 50
180.0629257404712
 51
269.9338632426598
  0
LINE
  5
106
330
2
100
AcDbEntity
  8
GAIKEI
 62
     1
100
AcDbLine
 10
-5.396802431738763
 20
33.80065937038884
 30
0.0
 11
-5.396802431738763
 21
32.96717780861595
 31
0.0
  0
LINE
  5
107
330
2
100
AcDbEntity
  8
GAIKEI
 62
     1
100
AcDbLine
 10
-5.806638537718129
 20
32.96717780861595
 30
0.0
 11
-5.806638537718129
 21
33.27586418997597
 31
0.0
  0
ARC
  5
108
330
2
100
AcDbEntity
  8
GAIKEI
 62
     1
100
AcDbCircle
 10
-5.089649344919564
 20
33.13836244848764
 30
0.0
 40
0.7300549510156062
100
AcDbArc
 50
114.8804303071493
 51
169.1438205964914
  0
DIMENSION
  5
109
330
2
100
AcDbEntity
  8
SUNPO
100
AcDbDimension
  2
*D3
 10
-3.540317886608022
 20
2.9102773672966
 30
0.0
 11
-9.940316612843673
 21
4.6602773672966
 31
0.0
 70
    33
  1
64
 71
     5
 42
12.7999974524713
  3
STANDARD
100
AcDbAlignedDimension
 13
-16.34031533907932
 23
10.91027736729657
 33
0.0
 14
-3.540317886608022
 24
10.9102773672966
 34
0.0
1001
ACAD
1000
DSTYLE
1002
{
1070
   287
1070
     3
1070
   287
1070
     3
1070
    40
1040
1.0
1070
   140
1040
2.5
1070
   147
1040
0.5
1070
   172
1070
     1
1070
   279
1070
     0
1070
   288
1070
     0
1002
}
  0
LINE
  5
116
330
2
100
AcDbEntity
  8
GAIKEI
 62
     1
100
AcDbLine
 10
-16.14230196099407
 20
11.70151243724208
 30
0.0
 11
-3.738331264687928
 21
11.70151243724208
 31
0.0
  0
LINE
  5
117
330
2
100
AcDbEntity
  8
GAIKEI
 62
     1
100
AcDbLine
 10
-16.14230196099407
 20
11.7905589343197
 30
0.0
 11
-3.738331264687928
 21
11.7905589343197
 31
0.0
  0
LINE
  5
118
330
2
100
AcDbEntity
  8
GAIKEI
 62
     1
100
AcDbLine
 10
19.78589967476995
 20
24.73101174157116
 30
0.0
 11
19.99835731530191
 21
24.73101174157116
 31
0.0
  0
LINE
  5
119
330
2
100
AcDbEntity
  8
GAIKEI
 62
     1
100
AcDbLine
 10
19.78589967476995
 20
25.1310067017059
 30
0.0
 11
19.78589967476995
 21
24.73101174157116
 31
0.0
  0
LINE
  5
11A
330
2
100
AcDbEntity
  8
GAIKEI
 62
     1
100
AcDbLine
 10
19.99835731530191
 20
25.1310067017059
 30
0.0
 11
19.78589967476995
 21
25.1310067017059
 31
0.0
  0
LINE
  5
11B
330
2
100
AcDbEntity
  8
GAIKEI
 62
     1
100
AcDbLine
 10
19.99835731530191
 20
25.53139848223762
 30
0.0
 11
19.99835731530191
 21
24.24085918724731
 31
0.0
  0
LINE
  5
11C
330
2
100
AcDbEntity
  8
GAIKEI
 62
     1
100
AcDbLine
 10
22.14616323683702
 20
25.53139848223762
 30
0.0
 11
19.99835731530191
 21
25.53139848223762
 31
0.0
  0
LINE
  5
11D
330
2
100
AcDbEntity
  8
GAIKEI
 62
     1
100
AcDbLine
 10
22.14616323683702
 20
24.24085918724731
 30
0.0
 11
22.14616323683702
 21
25.53139848223762
 31
0.0
  0
LINE
  5
11E
330
2
100
AcDbEntity
  8
GAIKEI
 62
     1
100
AcDbLine
 10
22.35822405697189
 20
24.73101174157116
 30
0.0
 11
22.14616323683702
 21
24.73101174157116
 31
0.0
  0
LINE
  5
11F
330
2
100
AcDbEntity
  8
GAIKEI
 62
     1
100
AcDbLine
 10
22.35822405697189
 20
25.1310067017059
 30
0.0
 11
22.35822405697189
 21
24.73101174157116
 31
0.0
  0
LINE
  5
120
330
2
100
AcDbEntity
  8
GAIKEI
 62
     1
100
AcDbLine
 10
22.14616323683702
 20
25.1310067017059
 30
0.0
 11
22.35822405697189
 21
25.1310067017059
 31
0.0
  0
LINE
  5
121
330
2
100
AcDbEntity
  8
GAIKEI
 62
     1
100
AcDbLine
 10
21.15106880690558
 20
22.04342655704661
 30
0.0
 11
20.93821434597674
 21
22.04342655704661
 31
0.0
  0
LINE
  5
122
330
2
100
AcDbEntity
  8
GAIKEI
 62
     1
100
AcDbLine
 10
21.25789285776687
 20
22.22810676979136
 30
0.0
 11
21.15106880690558
 21
22.04342655704661
 31
0.0
  0
LINE
  5
123
330
2
100
AcDbEntity
  8
GAIKEI
 62
     1
100
AcDbLine
 10
21.15106880690558
 20
22.41278698253612
 30
0.0
 11
21.25789285776687
 21
22.22810676979136
 31
0.0
  0
LINE
  5
124
330
2
100
AcDbEntity
  8
GAIKEI
 62
     1
100
AcDbLine
 10
20.93821434597674
 20
22.41278698253612
 30
0.0
 11
21.15106880690558
 21
22.41278698253612
 31
0.0
  0
LINE
  5
125
330
2
100
AcDbEntity
  8
GAIKEI
 62
     1
100
AcDbLine
 10
20.83139029511534
 20
22.22810676979136
 30
0.0
 11
20.93821434597674
 21
22.41278698253612
 31
0.0
  0
LINE
  5
126
330
2
100
AcDbEntity
  8
GAIKEI
 62
     1
100
AcDbLine
 10
20.93821434597674
 20
22.04342655704661
 30
0.0
 11
20.83139029511534
 21
22.22810676979136
 31
0.0
  0
LINE
  5
127
330
2
100
AcDbEntity
  8
GAIKEI
 62
     1
100
AcDbLine
 10
21.20638557024159
 20
14.06727627983278
 30
0.0
 11
21.20638557024159
 21
14.18203673863334
 31
0.0
  0
LINE
  5
128
330
2
100
AcDbEntity
  8
GAIKEI
 62
     1
100
AcDbLine
 10
21.09146638328224
 20
14.06727627983278
 30
0.0
 11
21.20638557024159
 21
14.06727627983278
 31
0.0
  0
LINE
  5
129
330
2
100
AcDbEntity
  8
GAIKEI
 62
     1
100
AcDbLine
 10
21.09146638328224
 20
13.95251582103222
 30
0.0
 11
21.09146638328224
 21
14.06727627983278
 31
0.0
  0
LINE
  5
12A
330
2
100
AcDbEntity
  8
GAIKEI
 62
     1
100
AcDbLine
 10
20.97654719632288
 20
13.95251582103222
 30
0.0
 11
21.09146638328224
 21
13.95251582103222
 31
0.0
  0
LINE
  5
12B
330
2
100
AcDbEntity
  8
GAIKEI
 62
     1
100
AcDbLine
 10
20.97654719632288
 20
14.06727627983278
 30
0.0
 11
20.97654719632288
 21
13.95251582103222
 31
0.0
  0
LINE
  5
12C
330
2
100
AcDbEntity
  8
GAIKEI
 62
     1
100
AcDbLine
 10
20.86194546568111
 20
14.06727627983278
 30
0.0
 11
20.97654719632288
 21
14.06727627983278
 31
0.0
  0
LINE
  5
12D
330
2
100
AcDbEntity
  8
GAIKEI
 62
     1
100
AcDbLine
 10
20.86194546568111
 20
14.18203673863334
 30
0.0
 11
20.86194546568111
 21
14.06727627983278
 31
0.0
  0
LINE
  5
12E
330
2
100
AcDbEntity
  8
GAIKEI
 62
     1
100
AcDbLine
 10
20.97654719632288
 20
14.18203673863334
 30
0.0
 11
20.86194546568111
 21
14.18203673863334
 31
0.0
  0
LINE
  5
12F
330
2
100
AcDbEntity
  8
GAIKEI
 62
     1
100
AcDbLine
 10
20.97654719632288
 20
14.29695592559269
 30
0.0
 11
20.97654719632288
 21
14.18203673863334
 31
0.0
  0
LINE
  5
130
330
2
100
AcDbEntity
  8
GAIKEI
 62
     1
100
AcDbLine
 10
21.09146638328224
 20
14.29695592559269
 30
0.0
 11
20.97654719632288
 21
14.29695592559269
 31
0.0
  0
LINE
  5
131
330
2
100
AcDbEntity
  8
GAIKEI
 62
     1
100
AcDbLine
 10
21.09146638328224
 20
14.18203673863334
 30
0.0
 11
21.09146638328224
 21
14.29695592559269
 31
0.0
  0
LINE
  5
132
330
2
100
AcDbEntity
  8
GAIKEI
 62
     1
100
AcDbLine
 10
21.20638557024159
 20
14.18203673863334
 30
0.0
 11
21.09146638328224
 21
14.18203673863334
 31
0.0
  0
CIRCLE
  5
133
330
2
100
AcDbEntity
  8
GAIKEI
 62
     1
100
AcDbCircle
 10
21.03416551796141
 20
14.12465650923306
 30
0.0
 40
0.3061072542142442
  0
CIRCLE
  5
134
330
2
100
AcDbEntity
  8
GAIKEI
100
AcDbCircle
 10
21.04456221236176
 20
22.22810676979136
 30
0.0
 40
0.5517390799319228
  0
CIRCLE
  5
135
330
2
100
AcDbEntity
  8
GAIKEI
 62
     1
100
AcDbCircle
 10
21.04472094052056
 20
22.22810676979136
 30
0.0
 40
0.2525365006247667
  0
LINE
  5
136
330
2
100
AcDbEntity
  8
GAIKEI
 62
     1
100
AcDbLine
 10
19.24955722624014
 20
11.40865898428623
 30
0.0
 11
22.89988389882108
 21
11.40865898428623
 31
0.0
  0
LINE
  5
137
330
2
100
AcDbEntity
  8
GAIKEI
 62
     1
100
AcDbLine
 10
19.46264977940717
 20
11.70540127713226
 30
0.0
 11
22.67663274349189
 21
11.70540127713226
 31
0.0
  0
LINE
  5
138
330
2
100
AcDbEntity
  8
GAIKEI
 62
     1
100
AcDbLine
 10
19.46264977940717
 20
11.79436841013048
 30
0.0
 11
22.67663274349189
 21
11.79436841013048
 31
0.0
  0
LINE
  5
139
330
2
100
AcDbEntity
  8
GAIKEI
 62
     1
100
AcDbLine
 10
19.27471563940724
 20
12.06642847428563
 30
0.0
 11
22.87471563940727
 21
12.06642847428563
 31
0.0
  0
ARC
  5
13A
330
2
100
AcDbEntity
  8
GAIKEI
100
AcDbCircle
 10
19.44534372460924
 20
11.92258303033977
 30
0.0
 40
0.1656654793393966
100
AcDbArc
 50
121.8312504582775
 51
232.8381058874364
  0
ARC
  5
13B
330
2
100
AcDbEntity
  8
GAIKEI
100
AcDbCircle
 10
19.46038052301122
 20
11.55270110469163
 30
0.0
 40
0.1671239251282579
100
AcDbArc
 50
117.0732904674347
 51
240.4541166133193
  0
LINE
  5
13C
330
2
100
AcDbEntity
  8
GAIKEI
100
AcDbLine
 10
19.47272901748982
 20
11.7905589343197
 30
0.0
 11
19.34527030598661
 21
11.7905589343197
 31
0.0
  0
LINE
  5
13D
330
2
100
AcDbEntity
  8
GAIKEI
100
AcDbLine
 10
19.47272901748982
 20
11.70151243724208
 30
0.0
 11
19.47272901748982
 21
11.7905589343197
 31
0.0
  0
LINE
  5
13E
330
2
100
AcDbEntity
  8
GAIKEI
100
AcDbLine
 10
19.38431743304732
 20
11.70151243724208
 30
0.0
 11
19.47272901748982
 21
11.70151243724208
 31
0.0
  0
ARC
  5
13F
330
2
100
AcDbEntity
  8
GAIKEI
100
AcDbCircle
 10
19.64173087614011
 20
11.31521582292114
 30
0.0
 40
0.4000544203462655
100
AcDbArc
 50
191.3914225194579
 51
264.0508746255239
  0
LINE
  5
140
330
2
100
AcDbEntity
  8
GAIKEI
100
AcDbLine
 10
19.24955722624014
 20
11.23620083976786
 30
0.0
 11
19.24955722624014
 21
11.40865898428623
 31
0.0
  0
LINE
  5
141
330
2
100
AcDbEntity
  8
GAIKEI
100
AcDbLine
 10
19.27471563940724
 20
12.06642847428563
 30
0.0
 11
19.27471563940724
 21
23.68007260226468
 31
0.0
  0
LINE
  5
142
330
2
100
AcDbEntity
  8
GAIKEI
100
AcDbLine
 10
22.89988389882108
 20
11.23620083976786
 30
0.0
 11
22.89988389882108
 21
11.40865898428623
 31
0.0
  0
ARC
  5
143
330
2
100
AcDbEntity
  8
GAIKEI
100
AcDbCircle
 10
22.50771024892111
 20
11.31521582292114
 30
0.0
 40
0.4000544203462655
100
AcDbArc
 50
275.9491253744761
 51
348.608577480542
  0
LINE
  5
144
330
2
100
AcDbEntity
  8
GAIKEI
100
AcDbLine
 10
22.76512369201378
 20
11.70151243724208
 30
0.0
 11
22.67671210757129
 21
11.70151243724208
 31
0.0
  0
LINE
  5
145
330
2
100
AcDbEntity
  8
GAIKEI
100
AcDbLine
 10
22.67671210757129
 20
11.70151243724208
 30
0.0
 11
22.67671210757129
 21
11.7905589343197
 31
0.0
  0
LINE
  5
146
330
2
100
AcDbEntity
  8
GAIKEI
100
AcDbLine
 10
22.67671210757129
 20
11.7905589343197
 30
0.0
 11
22.80417081907461
 21
11.7905589343197
 31
0.0
  0
ARC
  5
147
330
2
100
AcDbEntity
  8
GAIKEI
100
AcDbCircle
 10
22.68906060205
 20
11.55270110469169
 30
0.0
 40
0.1671239251282579
100
AcDbArc
 50
299.5458833866807
 51
62.92670953256531
  0
ARC
  5
148
330
2
100
AcDbEntity
  8
GAIKEI
100
AcDbCircle
 10
22.70409740045198
 20
11.92258303033983
 30
0.0
 40
0.1656654793393966
100
AcDbArc
 50
307.1618941125635
 51
58.16874954172246
  0
LINE
  5
149
330
2
100
AcDbEntity
  8
GAIKEI
100
AcDbLine
 10
22.87471563940727
 20
12.06642847428563
 30
0.0
 11
22.87471563940727
 21
23.68007260226468
 31
0.0
  0
LINE
  5
14A
330
2
100
AcDbEntity
  8
GAIKEI
100
AcDbLine
 10
19.60026709307254
 20
10.91731596877147
 30
0.0
 11
22.54917403198868
 21
10.91731596877153
 31
0.0
  0
LINE
  5
14B
330
2
100
AcDbEntity
  8
GAIKEI
 62
     1
100
AcDbLine
 10
19.06281354743117
 20
22.72056088241762
 30
0.0
 11
19.06281354743117
 21
18.39561537596043
 31
0.0
  0
ARC
  5
14C
330
2
100
AcDbEntity
  8
GAIKEI
 62
     1
100
AcDbCircle
 10
19.31835131647648
 20
18.39990688209579
 30
0.0
 40
0.255573802322496
100
AcDbArc
 50
180.9621359602848
 51
258.8121644799552
  0
ARC
  5
14D
330
2
100
AcDbEntity
  8
GAIKEI
 62
     1
100
AcDbCircle
 10
19.31818448975212
 20
22.71624734603179
 30
0.0
 40
0.2554073702500081
100
AcDbArc
 50
101.1570722401988
 51
179.0322942518943
  0
LINE
  5
14E
330
2
100
AcDbEntity
  8
GAIKEI
100
AcDbLine
 10
19.27471563940724
 20
23.66118395136945
 30
0.0
 11
19.39677759351189
 21
28.53390033378892
 31
0.0
  0
LINE
  5
14F
330
2
100
AcDbEntity
  8
GAIKEI
100
AcDbLine
 10
22.87472548565387
 20
23.66118395136945
 30
0.0
 11
22.75266353154933
 21
28.53390033378892
 31
0.0
  0
LINE
  5
150
330
2
100
AcDbEntity
  8
GAIKEI
100
AcDbLine
 10
19.79907411194898
 20
28.91730820133082
 30
0.0
 11
22.35044637719153
 21
28.91730820133082
 31
0.0
  0
ARC
  5
151
330
2
100
AcDbEntity
  8
GAIKEI
100
AcDbCircle
 10
19.77410613552666
 20
28.54074443450386
 30
0.0
 40
0.3773906071082578
100
AcDbArc
 50
86.20656868926934
 51
181.0391344574271
  0
ARC
  5
152
330
2
100
AcDbEntity
  8
GAIKEI
100
AcDbCircle
 10
22.37545797522938
 20
28.540868293582
 30
0.0
 40
0.3772699089277562
100
AcDbArc
 50
358.9417194962943
 51
93.80128607523451
  0
LINE
  5
153
330
2
100
AcDbEntity
  8
GAIKEI
100
AcDbLine
 10
19.70431340115516
 20
24.24085918724731
 30
0.0
 11
22.44012778690426
 21
24.24085918724731
 31
0.0
  0
ARC
  5
154
330
2
100
AcDbEntity
  8
GAIKEI
100
AcDbCircle
 10
20.40831820344095
 20
23.35432889441094
 30
0.0
 40
1.272921212982929
100
AcDbArc
 50
108.7877353740456
 51
148.0250921190483
  0
ARC
  5
155
330
2
100
AcDbEntity
  8
GAIKEI
100
AcDbCircle
 10
19.96078023970068
 20
23.73269613964257
 30
0.0
 40
0.6880798445398142
100
AcDbArc
 50
150.6505685206265
 51
184.3861967673015
  0
ARC
  5
156
330
2
100
AcDbEntity
  8
GAIKEI
100
AcDbCircle
 10
19.67775955713472
 20
23.8639648995792
 30
0.0
 40
0.377828546710139
100
AcDbArc
 50
85.96992218284613
 51
146.9633171097225
  0
ARC
  5
157
330
2
100
AcDbEntity
  8
GAIKEI
100
AcDbCircle
 10
21.77594618136839
 20
23.41285887479577
 30
0.0
 40
1.204856099729979
100
AcDbArc
 50
31.79784208612844
 51
72.10516914758541
  0
ARC
  5
158
330
2
100
AcDbEntity
  8
GAIKEI
100
AcDbCircle
 10
22.46495964244246
 20
23.85483743242198
 30
0.0
 40
0.3868196171962499
100
AcDbArc
 50
36.52541794561079
 51
93.68062908310148
  0
ARC
  5
159
330
2
100
AcDbEntity
  8
GAIKEI
100
AcDbCircle
 10
22.22263724403859
 20
23.74986910119102
 30
0.0
 40
0.6496385334085917
100
AcDbArc
 50
0.0953088655123708
 51
27.29014351251416
  0
LINE
  5
15A
330
2
100
AcDbEntity
  8
GAIKEI
 62
     1
100
AcDbLine
 10
20.97408690986179
 20
25.53139848223762
 30
0.0
 11
20.97408690986179
 21
24.73101174157116
 31
0.0
  0
LINE
  5
15B
330
2
100
AcDbEntity
  8
GAIKEI
 62
     1
100
AcDbLine
 10
21.17027491411835
 20
25.53139848223762
 30
0.0
 11
21.17027491411835
 21
24.73101174157116
 31
0.0
  0
ARC
  5
15C
330
2
100
AcDbEntity
  8
GAIKEI
 62
     1
100
AcDbCircle
 10
21.07218091199007
 20
24.73093244691935
 30
0.0
 40
0.0980940341773473
100
AcDbArc
 50
179.9536847534171
 51
0.0463152465795813
  0
ARC
  5
15D
330
2
100
AcDbEntity
  8
GAIKEI
100
AcDbCircle
 10
21.48756319950439
 20
31.1680125391135
 30
0.0
 40
0.7493441262885808
100
AcDbArc
 50
1.500518113053894
 51
90.65164229509257
  0
ARC
  5
15E
330
2
100
AcDbEntity
  8
GAIKEI
100
AcDbCircle
 10
20.66187269003228
 20
31.16826329332567
 30
0.0
 40
0.7490943555542767
100
AcDbArc
 50
89.34166924802005
 51
178.5181673243019
  0
LINE
  5
15F
330
2
100
AcDbEntity
  8
GAIKEI
100
AcDbLine
 10
20.67047962414835
 20
31.91730820133082
 30
0.0
 11
21.47904086499215
 21
31.91730820133082
 31
0.0
  0
LINE
  5
160
330
2
100
AcDbEntity
  8
GAIKEI
100
AcDbLine
 10
22.23665036686657
 20
31.18763485540242
 30
0.0
 11
22.23665036686657
 21
28.91730820133082
 31
0.0
  0
LINE
  5
161
330
2
100
AcDbEntity
  8
GAIKEI
100
AcDbLine
 10
19.91302885043285
 20
28.91730820133082
 30
0.0
 11
19.91302885043285
 21
31.18763485540242
 31
0.0
  0
TEXT
  5
162
330
2
100
AcDbEntity
  8
MOJI1
100
AcDbText
 10
-19.46896246541936
 20
-28.32702121196527
 30
0.0
 40
3.0
  1
８０６．１２５ＭＨｚ～８０９．７５０ＭＨｚ
100
AcDbText
  0
TEXT
  5
163
330
2
100
AcDbEntity
  8
MOJI1
100
AcDbText
 10
-19.46896246541956
 20
-23.32702121196533
 30
0.0
 40
3.0
  1
水晶制御ＰＬＬシンセサイザー方式
100
AcDbText
  0
LINE
  5
164
330
2
100
AcDbEntity
  8
WAKU
 62
     1
100
AcDbLine
 10
-61.96896246541957
 20
-19.32702121196533
 30
0.0
 11
63.03103753458043
 21
-19.32702121196533
 31
0.0
  0
LINE
  5
166
330
2
100
AcDbEntity
  8
WAKU
 62
     1
100
AcDbLine
 10
-61.96896246541957
 20
-24.32702121196533
 30
0.0
 11
63.03103753458043
 21
-24.32702121196533
 31
0.0
  0
LINE
  5
167
330
2
100
AcDbEntity
  8
WAKU
 62
     1
100
AcDbLine
 10
-61.96896246541957
 20
-29.32702121196533
 30
0.0
 11
63.03103753458043
 21
-29.32702121196533
 31
0.0
  0
LINE
  5
168
330
2
100
AcDbEntity
  8
WAKU
 62
     1
100
AcDbLine
 10
-61.96896246541957
 20
-34.32702121196533
 30
0.0
 11
63.03103753458043
 21
-34.32702121196533
 31
0.0
  0
LINE
  5
169
330
2
100
AcDbEntity
  8
WAKU
 62
     1
100
AcDbLine
 10
-61.96896246541957
 20
-39.32702121196533
 30
0.0
 11
63.03103753458043
 21
-39.32702121196533
 31
0.0
  0
LINE
  5
16A
330
2
100
AcDbEntity
  8
WAKU
 62
     1
100
AcDbLine
 10
-61.96896246541957
 20
-44.32702121196533
 30
0.0
 11
63.03103753458043
 21
-44.32702121196533
 31
0.0
  0
LINE
  5
16B
330
2
100
AcDbEntity
  8
WAKU
 62
     4
100
AcDbLine
 10
63.03103753458043
 20
-14.32702121196533
 30
0.0
 11
-61.96896246541957
 21
-14.32702121196533
 31
0.0
  0
LINE
  5
16C
330
2
100
AcDbEntity
  8
WAKU
 62
     4
100
AcDbLine
 10
-61.96896246541957
 20
-49.32702121196533
 30
0.0
 11
63.03103753458043
 21
-49.32702121196533
 31
0.0
  0
TEXT
  5
16D
330
2
100
AcDbEntity
  8
MOJI1
100
AcDbText
 10
-19.46896246541956
 20
-38.32702121196533
 30
0.0
 40
3.0
  1
周波数変調方式（リアクタンス変調方式）
100
AcDbText
  0
TEXT
  5
16E
330
2
100
AcDbEntity
  8
MOJI1
100
AcDbText
 10
-59.46896246541957
 20
-48.32702121196533
 30
0.0
 40
3.0
  1
制御信号
100
AcDbText
  0
TEXT
  5
16F
330
2
100
AcDbEntity
  8
MOJI1
100
AcDbText
 10
-59.46896246541957
 20
-43.32702121196533
 30
0.0
 40
3.0
  1
アンテナ形式
100
AcDbText
  0
TEXT
  5
170
330
2
100
AcDbEntity
  8
MOJI1
100
AcDbText
 10
-59.46896246541957
 20
-38.32702121196533
 30
0.0
 40
3.0
  1
変調方式
100
AcDbText
  0
TEXT
  5
171
330
2
100
AcDbEntity
  8
MOJI1
100
AcDbText
 10
-59.46896246541957
 20
-28.32702121196533
 30
0.0
 40
3.0
  1
送信周波数
100
AcDbText
  0
TEXT
  5
172
330
2
100
AcDbEntity
  8
MOJI1
100
AcDbText
 10
-59.46896246541957
 20
-23.32702121196533
 30
0.0
 40
3.0
  1
発振方式
100
AcDbText
  0
TEXT
  5
173
330
2
100
AcDbEntity
  8
MOJI1
100
AcDbText
 10
-59.46896246541957
 20
-18.32702121196533
 30
0.0
 40
3.0
  1
電波形式
100
AcDbText
  0
LINE
  5
174
330
2
100
AcDbEntity
  8
WAKU
 62
     4
100
AcDbLine
 10
-61.96896246541957
 20
-14.32702121196533
 30
0.0
 11
-61.96896246541957
 21
-49.32702121196533
 31
0.0
  0
TEXT
  5
175
330
2
100
AcDbEntity
  8
MOJI1
100
AcDbText
 10
-19.46896246541956
 20
-48.32702121196533
 30
0.0
 40
3.0
  1
電池電圧、電池残量（３段階）
100
AcDbText
  0
TEXT
  5
176
330
2
100
AcDbEntity
  8
MOJI1
100
AcDbText
 10
-19.46896246541936
 20
-33.32702121196527
 30
0.0
 40
3.0
  1
３０波中の１波
100
AcDbText
  0
TEXT
  5
177
330
2
100
AcDbEntity
  8
MOJI1
100
AcDbText
 10
-19.46896246541956
 20
-43.32702121196533
 30
0.0
 40
3.0
  1
ヘリカルアンテナ
100
AcDbText
  0
TEXT
  5
178
330
2
100
AcDbEntity
  8
MOJI1
100
AcDbText
 10
-19.46896246541956
 20
-18.32702121196533
 30
0.0
 40
3.0
  1
Ｆ３Ｅ、Ｆ８Ｗ
100
AcDbText
  0
LINE
  5
179
330
2
100
AcDbEntity
  8
WAKU
 62
     4
100
AcDbLine
 10
-21.96896246541956
 20
-49.32702121196533
 30
0.0
 11
-21.96896246541956
 21
-14.32702121196533
 31
0.0
  0
LINE
  5
17A
330
2
100
AcDbEntity
  8
WAKU
 62
     4
100
AcDbLine
 10
63.03103753458043
 20
-49.32702121196533
 30
0.0
 11
63.03103753458043
 21
-14.32702121196533
 31
0.0
  0
ENDSEC
  0
SECTION
  2
OBJECTS
  0
DICTIONARY
  5
9
330
0
100
AcDbDictionary
281
     1
  3
ACAD_GROUP
350
31
  3
ACAD_LAYOUT
350
D
  3
ACAD_MLINESTYLE
350
32
  3
ACAD_PLOTSETTINGS
350
33
  3
ACAD_PLOTSTYLENAME
350
8
  3
AcDbVariableDictionary
350
17D
  0
DICTIONARY
  5
19
330
18
100
AcDbDictionary
280
     1
281
     1
  3
ACAD_LAYERFILTERS
360
1A
  3
ACAD_LAYERSTATES
360
1B
  0
DICTIONARY
  5
3
330
2
100
AcDbDictionary
280
     1
281
     1
  0
DICTIONARY
  5
11
330
10
100
AcDbDictionary
280
     1
281
     1
  0
DICTIONARY
  5
31
102
{ACAD_REACTORS
330
9
102
}
330
9
100
AcDbDictionary
281
     1
  0
DICTIONARY
  5
D
102
{ACAD_REACTORS
330
9
102
}
330
9
100
AcDbDictionary
281
     1
  3
Model
350
C
  3
ﾚｲｱｳﾄ1
350
15
  0
DICTIONARY
  5
32
102
{ACAD_REACTORS
330
9
102
}
330
9
100
AcDbDictionary
281
     1
  3
STANDARD
350
35
  0
DICTIONARY
  5
33
102
{ACAD_REACTORS
330
9
102
}
330
9
100
AcDbDictionary
281
     1
  0
ACDBDICTIONARYWDFLT
  5
8
102
{ACAD_REACTORS
330
9
102
}
330
9
100
AcDbDictionary
281
     1
  3
Normal
350
7
100
AcDbDictionaryWithDefault
340
7
  0
DICTIONARY
  5
17D
102
{ACAD_REACTORS
330
9
102
}
330
9
100
AcDbDictionary
281
     1
  3
DIMASSOC
350
17F
  3
HIDETEXT
350
17E
  0
DICTIONARY
  5
1A
102
{ACAD_REACTORS
330
19
102
}
330
19
100
AcDbDictionary
280
     1
281
     1
  0
DICTIONARY
  5
1B
102
{ACAD_REACTORS
330
19
102
}
330
19
100
AcDbDictionary
281
     1
  0
LAYOUT
  5
C
102
{ACAD_XDICTIONARY
360
E
102
}
102
{ACAD_REACTORS
330
D
102
}
330
D
100
AcDbPlotSettings
  1

  2
\\URANUS\8FPAM09
  4
A4
  6

 40
4.180416584014892
 41
4.349743366241455
 42
4.222747802734375
 43
4.349761962890625
 44
210.0156707763671
 45
297.0106506347656
 46
6.07
 47
0.0
 48
0.0
 49
0.0
140
0.0
141
0.0
142
1.0
143
1.367708423477386
 70
 11956
 72
     1
 73
     0
 74
     1
  7
tmsacad.ctb
 75
     0
147
0.7311499898914921
148
0.5849856657064266
149
0.1116542191393819
100
AcDbLayout
  1
Model
 70
     1
 71
     0
 10
0.0
 20
0.0
 11
12.0
 21
9.0
 12
0.0
 22
0.0
 32
0.0
 14
0.0
 24
0.0
 34
0.0
 15
0.0
 25
0.0
 35
0.0
146
0.0
 13
0.0
 23
0.0
 33
0.0
 16
1.0
 26
0.0
 36
0.0
 17
0.0
 27
1.0
 37
0.0
 76
     0
330
2
  0
LAYOUT
  5
15
102
{ACAD_XDICTIONARY
360
16
102
}
102
{ACAD_REACTORS
330
D
102
}
330
D
100
AcDbPlotSettings
  1

  2
C:\Program Files\ACAD2000\plotters\DWF ePlot.pc3
  4

  6

 40
0.0
 41
0.0
 42
0.0
 43
0.0
 44
0.0
 45
0.0
 46
0.0
 47
0.0
 48
0.0
 49
0.0
140
0.0
141
0.0
142
1.0
143
1.0
 70
   688
 72
     0
 73
     0
 74
     5
  7
tmsacad.ctb
 75
    16
147
1.0
148
0.0
149
0.0
100
AcDbLayout
  1
ﾚｲｱｳﾄ1
 70
     1
 71
     1
 10
0.0
 20
0.0
 11
12.0
 21
9.0
 12
0.0
 22
0.0
 32
0.0
 14
1.000000000000000E+20
 24
1.000000000000000E+20
 34
1.000000000000000E+20
 15
-1.000000000000000E+20
 25
-1.000000000000000E+20
 35
-1.000000000000000E+20
146
0.0
 13
0.0
 23
0.0
 33
0.0
 16
1.0
 26
0.0
 36
0.0
 17
0.0
 27
1.0
 37
0.0
 76
     0
330
10
  0
MLINESTYLE
  5
35
102
{ACAD_REACTORS
330
32
102
}
330
32
100
AcDbMlineStyle
  2
STANDARD
 70
     0
  3

 62
   256
 51
90.0
 52
90.0
 71
     2
 49
0.5
 62
   256
  6
BYLAYER
 49
-0.5
 62
   256
  6
BYLAYER
  0
ACDBPLACEHOLDER
  5
7
102
{ACAD_REACTORS
330
8
102
}
330
8
  0
DICTIONARYVAR
  5
17F
102
{ACAD_REACTORS
330
17D
102
}
330
17D
100
DictionaryVariables
280
     0
  1
1
  0
DICTIONARYVAR
  5
17E
102
{ACAD_REACTORS
330
17D
102
}
330
17D
100
DictionaryVariables
280
     0
  1
1
  0
DICTIONARY
  5
E
330
C
100
AcDbDictionary
280
     1
281
     1
  3
ACAD_XREC_ROUNDTRIP
360
F
  0
DICTIONARY
  5
16
330
15
100
AcDbDictionary
280
     1
281
     1
  3
ACAD_XREC_ROUNDTRIP
360
17
  0
XRECORD
  5
F
102
{ACAD_REACTORS
330
E
102
}
330
E
100
AcDbXrecord
280
     1
102
SHADEPLOT
 70
     0
102
SHADEPLOTRESLEVEL
 70
     2
102
SHADEPLOTCUSTOMDPI
 70
   300
  0
XRECORD
  5
17
102
{ACAD_REACTORS
330
16
102
}
330
16
100
AcDbXrecord
280
     1
102
SHADEPLOT
 70
     0
102
SHADEPLOTRESLEVEL
 70
     2
102
SHADEPLOTCUSTOMDPI
 70
   300
  0
ENDSEC
  0
EOF
