  0
SECTION
  2
HEADER
  9
$ACADVER
  1
AC1015
  9
$ACADMAINTVER
 70
    20
  9
$DWGCODEPAGE
  3
ANSI_932
  9
$INSBASE
 10
129.0
 20
246.4992141396418
 30
0.0
  9
$EXTMIN
 10
-59.39642662551296
 20
-56.57758440058933
 30
-0.0015258207003583
  9
$EXTMAX
 10
65.68408234445178
 20
56.55349751503582
 30
0.0000000349246037
  9
$LIMMIN
 10
-1101.784450318844
 20
-1579.160531687244
  9
$LIMMAX
 10
-508.2420711400536
 20
-1161.440814074914
  9
$ORTHOMODE
 70
     1
  9
$REGENMODE
 70
     1
  9
$FILLMODE
 70
     1
  9
$QTEXTMODE
 70
     0
  9
$MIRRTEXT
 70
     1
  9
$LTSCALE
 40
1.0
  9
$ATTMODE
 70
     1
  9
$TEXTSIZE
 40
3.0
  9
$TRACEWID
 40
0.5
  9
$TEXTSTYLE
  7
STANDARD
  9
$CLAYER
  8
MOJI1
  9
$CELTYPE
  6
BYLAYER
  9
$CECOLOR
 62
   256
  9
$CELTSCALE
 40
1.0
  9
$DISPSILH
 70
     0
  9
$DIMSCALE
 40
1.0
  9
$DIMASZ
 40
2.0
  9
$DIMEXO
 40
2.0
  9
$DIMDLI
 40
8.0
  9
$DIMRND
 40
0.0
  9
$DIMDLE
 40
0.0
  9
$DIMEXE
 40
2.0
  9
$DIMTP
 40
0.0
  9
$DIMTM
 40
0.0
  9
$DIMTXT
 40
2.5
  9
$DIMCEN
 40
0.0
  9
$DIMTSZ
 40
0.0
  9
$DIMTOL
 70
     0
  9
$DIMLIM
 70
     0
  9
$DIMTIH
 70
     0
  9
$DIMTOH
 70
     0
  9
$DIMSE1
 70
     0
  9
$DIMSE2
 70
     0
  9
$DIMTAD
 70
     3
  9
$DIMZIN
 70
     0
  9
$DIMBLK
  1

  9
$DIMASO
 70
     1
  9
$DIMSHO
 70
     1
  9
$DIMPOST
  1

  9
$DIMAPOST
  1

  9
$DIMALT
 70
     0
  9
$DIMALTD
 70
     2
  9
$DIMALTF
 40
25.4
  9
$DIMLFAC
 40
1.0
  9
$DIMTOFL
 70
     1
  9
$DIMTVP
 40
0.0
  9
$DIMTIX
 70
     0
  9
$DIMSOXD
 70
     0
  9
$DIMSAH
 70
     1
  9
$DIMBLK1
  1
OPEN30
  9
$DIMBLK2
  1
OPEN30
  9
$DIMSTYLE
  2
STANDARD
  9
$DIMCLRD
 70
     0
  9
$DIMCLRE
 70
     0
  9
$DIMCLRT
 70
     0
  9
$DIMTFAC
 40
1.0
  9
$DIMGAP
 40
0.5
  9
$DIMJUST
 70
     0
  9
$DIMSD1
 70
     0
  9
$DIMSD2
 70
     0
  9
$DIMTOLJ
 70
     1
  9
$DIMTZIN
 70
     0
  9
$DIMALTZ
 70
     0
  9
$DIMALTTZ
 70
     0
  9
$DIMUPT
 70
     0
  9
$DIMDEC
 70
     4
  9
$DIMTDEC
 70
     4
  9
$DIMALTU
 70
     2
  9
$DIMALTTD
 70
     2
  9
$DIMTXSTY
  7
STANDARD
  9
$DIMAUNIT
 70
     0
  9
$DIMADEC
 70
     0
  9
$DIMALTRND
 40
0.0
  9
$DIMAZIN
 70
     0
  9
$DIMDSEP
 70
    46
  9
$DIMATFIT
 70
     3
  9
$DIMFRAC
 70
     0
  9
$DIMLDRBLK
  1
OPEN30
  9
$DIMLUNIT
 70
     2
  9
$DIMLWD
 70
    -2
  9
$DIMLWE
 70
    -2
  9
$DIMTMOVE
 70
     0
  9
$LUNITS
 70
     2
  9
$LUPREC
 70
     4
  9
$SKETCHINC
 40
0.1
  9
$FILLETRAD
 40
0.2
  9
$AUNITS
 70
     0
  9
$AUPREC
 70
     0
  9
$MENU
  1
ACAD
  9
$ELEVATION
 40
0.0
  9
$PELEVATION
 40
0.0
  9
$THICKNESS
 40
0.0
  9
$LIMCHECK
 70
     0
  9
$CHAMFERA
 40
0.0
  9
$CHAMFERB
 40
0.0
  9
$CHAMFERC
 40
0.0
  9
$CHAMFERD
 40
0.0
  9
$SKPOLY
 70
     0
  9
$TDCREATE
 40
2451815.565532581
  9
$TDUCREATE
 40
2451815.190532581
  9
$TDUPDATE
 40
2454174.650262581
  9
$TDUUPDATE
 40
2454174.275262581
  9
$TDINDWG
 40
0.9944161574
  9
$TDUSRTIMER
 40
0.9944161574
  9
$USRTIMER
 70
     1
  9
$ANGBASE
 50
0.0
  9
$ANGDIR
 70
     0
  9
$PDMODE
 70
     0
  9
$PDSIZE
 40
0.0
  9
$PLINEWID
 40
0.0
  9
$SPLFRAME
 70
     0
  9
$SPLINETYPE
 70
     6
  9
$SPLINESEGS
 70
     8
  9
$HANDSEED
  5
28A
  9
$SURFTAB1
 70
     6
  9
$SURFTAB2
 70
     6
  9
$SURFTYPE
 70
     6
  9
$SURFU
 70
     6
  9
$SURFV
 70
     6
  9
$UCSBASE
  2

  9
$UCSNAME
  2

  9
$UCSORG
 10
0.0
 20
0.0
 30
0.0
  9
$UCSXDIR
 10
1.0
 20
0.0
 30
0.0
  9
$UCSYDIR
 10
0.0
 20
1.0
 30
0.0
  9
$UCSORTHOREF
  2

  9
$UCSORTHOVIEW
 70
     0
  9
$UCSORGTOP
 10
0.0
 20
0.0
 30
0.0
  9
$UCSORGBOTTOM
 10
0.0
 20
0.0
 30
0.0
  9
$UCSORGLEFT
 10
0.0
 20
0.0
 30
0.0
  9
$UCSORGRIGHT
 10
0.0
 20
0.0
 30
0.0
  9
$UCSORGFRONT
 10
0.0
 20
0.0
 30
0.0
  9
$UCSORGBACK
 10
0.0
 20
0.0
 30
0.0
  9
$PUCSBASE
  2

  9
$PUCSNAME
  2

  9
$PUCSORG
 10
0.0
 20
0.0
 30
0.0
  9
$PUCSXDIR
 10
1.0
 20
0.0
 30
0.0
  9
$PUCSYDIR
 10
0.0
 20
1.0
 30
0.0
  9
$PUCSORTHOREF
  2

  9
$PUCSORTHOVIEW
 70
     0
  9
$PUCSORGTOP
 10
0.0
 20
0.0
 30
0.0
  9
$PUCSORGBOTTOM
 10
0.0
 20
0.0
 30
0.0
  9
$PUCSORGLEFT
 10
0.0
 20
0.0
 30
0.0
  9
$PUCSORGRIGHT
 10
0.0
 20
0.0
 30
0.0
  9
$PUCSORGFRONT
 10
0.0
 20
0.0
 30
0.0
  9
$PUCSORGBACK
 10
0.0
 20
0.0
 30
0.0
  9
$USERI1
 70
     0
  9
$USERI2
 70
     0
  9
$USERI3
 70
     0
  9
$USERI4
 70
     0
  9
$USERI5
 70
     0
  9
$USERR1
 40
0.0
  9
$USERR2
 40
0.0
  9
$USERR3
 40
0.0
  9
$USERR4
 40
0.0
  9
$USERR5
 40
0.0
  9
$WORLDVIEW
 70
     1
  9
$SHADEDGE
 70
     3
  9
$SHADEDIF
 70
    70
  9
$TILEMODE
 70
     1
  9
$MAXACTVP
 70
    48
  9
$PINSBASE
 10
0.0
 20
0.0
 30
0.0
  9
$PLIMCHECK
 70
     0
  9
$PEXTMIN
 10
1.000000000000000E+20
 20
1.000000000000000E+20
 30
1.000000000000000E+20
  9
$PEXTMAX
 10
-1.000000000000000E+20
 20
-1.000000000000000E+20
 30
-1.000000000000000E+20
  9
$PLIMMIN
 10
0.0
 20
0.0
  9
$PLIMMAX
 10
12.0
 20
9.0
  9
$UNITMODE
 70
     0
  9
$VISRETAIN
 70
     1
  9
$PLINEGEN
 70
     0
  9
$PSLTSCALE
 70
     1
  9
$TREEDEPTH
 70
  3020
  9
$CMLSTYLE
  2
STANDARD
  9
$CMLJUST
 70
     0
  9
$CMLSCALE
 40
1.0
  9
$PROXYGRAPHICS
 70
     1
  9
$MEASUREMENT
 70
     0
  9
$CELWEIGHT
370
    -1
  9
$ENDCAPS
280
     0
  9
$JOINSTYLE
280
     0
  9
$LWDISPLAY
290
     0
  9
$INSUNITS
 70
     0
  9
$HYPERLINKBASE
  1

  9
$STYLESHEET
  1

  9
$XEDIT
290
     1
  9
$CEPSNTYPE
380
     0
  9
$PSTYLEMODE
290
     1
  9
$FINGERPRINTGUID
  2
{1754B7AB-9B3C-11D4-AD9E-00104B1004F2}
  9
$VERSIONGUID
  2
{AE55DD1E-9587-4430-9990-3ECB18160C52}
  9
$EXTNAMES
290
     1
  9
$PSVPSCALE
 40
0.0
  9
$OLESTARTUP
290
     0
  0
ENDSEC
  0
SECTION
  2
CLASSES
  0
CLASS
  1
ACDBDICTIONARYWDFLT
  2
AcDbDictionaryWithDefault
  3
ObjectDBX Classes
 90
        0
280
     0
281
     0
  0
CLASS
  1
ACDBPLACEHOLDER
  2
AcDbPlaceHolder
  3
ObjectDBX Classes
 90
        0
280
     0
281
     0
  0
CLASS
  1
LAYOUT
  2
AcDbLayout
  3
ObjectDBX Classes
 90
        0
280
     0
281
     0
  0
CLASS
  1
DICTIONARYVAR
  2
AcDbDictionaryVar
  3
ObjectDBX Classes
 90
        0
280
     0
281
     0
  0
CLASS
  1
SORTENTSTABLE
  2
AcDbSortentsTable
  3
ObjectDBX Classes
 90
        0
280
     0
281
     0
  0
ENDSEC
  0
SECTION
  2
TABLES
  0
TABLE
  2
VPORT
  5
21
330
0
100
AcDbSymbolTable
 70
     3
  0
VPORT
  5
282
330
21
100
AcDbSymbolTableRecord
100
AcDbViewportTableRecord
  2
*Active
 70
     0
 10
0.0
 20
0.0
 11
1.0
 21
1.0
 12
3.143827859469418
 22
-0.0120434427767577
 13
0.0
 23
0.0
 14
1.0
 24
1.0
 15
0.0
 25
0.0
 16
0.0
 26
0.0
 36
1.0
 17
0.0
 27
0.0
 37
0.0
 40
113.9990953318575
 41
1.489116517285531
 42
50.0
 43
0.0
 44
0.0
 50
0.0
 51
0.0
 71
     0
 72
  1000
 73
     1
 74
     0
 75
     0
 76
     1
 77
     0
 78
     0
281
     0
 65
     1
110
0.0
120
0.0
130
0.0
111
1.0
121
0.0
131
0.0
112
0.0
122
1.0
132
0.0
 79
     0
146
0.0
  0
ENDTAB
  0
TABLE
  2
LTYPE
  5
1C
330
0
100
AcDbSymbolTable
 70
     1
  0
LTYPE
  5
1D
330
1C
100
AcDbSymbolTableRecord
100
AcDbLinetypeTableRecord
  2
BYBLOCK
 70
     0
  3

 72
    65
 73
     0
 40
0.0
  0
LTYPE
  5
1E
330
1C
100
AcDbSymbolTableRecord
100
AcDbLinetypeTableRecord
  2
BYLAYER
 70
     0
  3

 72
    65
 73
     0
 40
0.0
  0
LTYPE
  5
B
330
1C
100
AcDbSymbolTableRecord
100
AcDbLinetypeTableRecord
  2
CONTINUOUS
 70
     0
  3
Solid line
 72
    65
 73
     0
 40
0.0
  0
ENDTAB
  0
TABLE
  2
LAYER
  5
15
102
{ACAD_XDICTIONARY
360
16
102
}
330
0
100
AcDbSymbolTable
 70
     7
  0
LAYER
  5
7
330
15
100
AcDbSymbolTableRecord
100
AcDbLayerTableRecord
  2
0
 70
     0
 62
     7
  6
CONTINUOUS
370
    -3
390
8
  0
LAYER
  5
207
330
15
100
AcDbSymbolTableRecord
100
AcDbLayerTableRecord
  2
DEFPOINTS
 70
     0
 62
     7
  6
CONTINUOUS
290
     0
370
    -3
390
8
  0
LAYER
  5
228
330
15
100
AcDbSymbolTableRecord
100
AcDbLayerTableRecord
  2
WAKU
 70
     0
 62
     4
  6
CONTINUOUS
370
    -3
390
8
  0
LAYER
  5
33
330
15
100
AcDbSymbolTableRecord
100
AcDbLayerTableRecord
  2
MOJI1
 70
     0
 62
     2
  6
CONTINUOUS
370
    -3
390
8
  0
LAYER
  5
39
330
15
100
AcDbSymbolTableRecord
100
AcDbLayerTableRecord
  2
GAIKEI
 70
     0
 62
     7
  6
CONTINUOUS
370
    -3
390
8
  0
LAYER
  5
36
330
15
100
AcDbSymbolTableRecord
100
AcDbLayerTableRecord
  2
TOUROKU
 70
     0
 62
     1
  6
CONTINUOUS
370
    -3
390
8
  0
LAYER
  5
1FD
330
15
100
AcDbSymbolTableRecord
100
AcDbLayerTableRecord
  2
SUNPO
 70
     0
 62
     3
  6
CONTINUOUS
370
    -3
390
8
  0
ENDTAB
  0
TABLE
  2
STYLE
  5
19
330
0
100
AcDbSymbolTable
 70
     2
  0
STYLE
  5
1A
330
19
100
AcDbSymbolTableRecord
100
AcDbTextStyleTableRecord
  2
STANDARD
 70
     0
 40
0.0
 41
1.0
 50
0.0
 71
     0
 42
3.0
  3
MONOTXT.shx
  4
BIGFONT.shx
  0
STYLE
  5
82
330
19
100
AcDbSymbolTableRecord
100
AcDbTextStyleTableRecord
  2
CONVERTER_5
 70
     0
 40
0.0
 41
0.9
 50
0.0
 71
     0
 42
0.0
  3
txt.shx
  4

  0
ENDTAB
  0
TABLE
  2
VIEW
  5
1F
330
0
100
AcDbSymbolTable
 70
     0
  0
ENDTAB
  0
TABLE
  2
UCS
  5
20
330
0
100
AcDbSymbolTable
 70
     0
  0
ENDTAB
  0
TABLE
  2
APPID
  5
23
330
0
100
AcDbSymbolTable
 70
     1
  0
APPID
  5
24
330
23
100
AcDbSymbolTableRecord
100
AcDbRegAppTableRecord
  2
ACAD
 70
     0
  0
ENDTAB
  0
TABLE
  2
DIMSTYLE
  5
25
330
0
100
AcDbSymbolTable
 70
     1
100
AcDbDimStyleTable
 71
     1
340
26
  0
DIMSTYLE
105
26
102
{ACAD_REACTORS
330
1FC
330
20B
330
21A
102
}
330
25
100
AcDbSymbolTableRecord
100
AcDbDimStyleTableRecord
  2
STANDARD
 70
     0
 40
0.0
 41
2.0
 42
2.0
 43
8.0
 44
2.0
 73
     0
 74
     0
 77
     3
140
3.0
141
0.0
173
     1
279
     2
288
     1
340
1A
341
27
343
27
344
27
  0
ENDTAB
  0
TABLE
  2
BLOCK_RECORD
  5
1
330
0
100
AcDbSymbolTable
 70
     7
  0
BLOCK_RECORD
  5
2
102
{ACAD_XDICTIONARY
360
3
102
}
330
1
100
AcDbSymbolTableRecord
100
AcDbBlockTableRecord
  2
*MODEL_SPACE
340
D
  0
BLOCK_RECORD
  5
F
102
{ACAD_XDICTIONARY
360
10
102
}
330
1
100
AcDbSymbolTableRecord
100
AcDbBlockTableRecord
  2
*PAPER_SPACE
340
14
  0
BLOCK_RECORD
  5
27
330
1
100
AcDbSymbolTableRecord
100
AcDbBlockTableRecord
  2
_OPEN30
340
0
102
{BLKREFS
331
203
331
204
331
213
331
214
331
220
331
221
331
25C
331
25D
331
26A
331
26B
331
276
331
277
102
}
  0
BLOCK_RECORD
  5
1FE
330
1
100
AcDbSymbolTableRecord
100
AcDbBlockTableRecord
  2
*D1
340
0
  0
BLOCK_RECORD
  5
20C
330
1
100
AcDbSymbolTableRecord
100
AcDbBlockTableRecord
  2
*D2
340
0
  0
BLOCK_RECORD
  5
21B
330
1
100
AcDbSymbolTableRecord
100
AcDbBlockTableRecord
  2
*D3
340
0
  0
BLOCK_RECORD
  5
258
330
1
100
AcDbSymbolTableRecord
100
AcDbBlockTableRecord
  2
*D4
340
0
  0
BLOCK_RECORD
  5
264
330
1
100
AcDbSymbolTableRecord
100
AcDbBlockTableRecord
  2
*D5
340
0
  0
BLOCK_RECORD
  5
272
330
1
100
AcDbSymbolTableRecord
100
AcDbBlockTableRecord
  2
*D6
340
0
  0
ENDTAB
  0
ENDSEC
  0
SECTION
  2
BLOCKS
  0
BLOCK
  5
6
330
2
100
AcDbEntity
  8
0
100
AcDbBlockBegin
  2
*MODEL_SPACE
 70
     0
 10
0.0
 20
0.0
 30
0.0
  3
*MODEL_SPACE
  1

  0
ENDBLK
  5
C
330
2
100
AcDbEntity
  8
0
100
AcDbBlockEnd
  0
BLOCK
  5
12
330
F
100
AcDbEntity
 67
     1
  8
0
100
AcDbBlockBegin
  2
*PAPER_SPACE
 70
     0
 10
0.0
 20
0.0
 30
0.0
  3
*PAPER_SPACE
  1

  0
ENDBLK
  5
13
330
F
100
AcDbEntity
 67
     1
  8
0
100
AcDbBlockEnd
  0
BLOCK
  5
28
330
27
100
AcDbEntity
  8
0
100
AcDbBlockBegin
  2
_OPEN30
 70
     0
 10
0.0
 20
0.0
 30
0.0
  3
_OPEN30
  1

  0
LINE
  5
29
330
27
100
AcDbEntity
  8
0
  6
ByBlock
 62
     0
100
AcDbLine
 10
-1.0
 20
0.26794919
 30
0.0
 11
0.0
 21
0.0
 31
0.0
  0
LINE
  5
2A
330
27
100
AcDbEntity
  8
0
  6
ByBlock
 62
     0
100
AcDbLine
 10
0.0
 20
0.0
 30
0.0
 11
-1.0
 21
-0.26794919
 31
0.0
  0
LINE
  5
2B
330
27
100
AcDbEntity
  8
0
  6
ByBlock
 62
     0
100
AcDbLine
 10
0.0
 20
0.0
 30
0.0
 11
-1.0
 21
0.0
 31
0.0
  0
ENDBLK
  5
2C
330
27
100
AcDbEntity
  8
0
100
AcDbBlockEnd
  0
BLOCK
  5
1FF
330
1FE
100
AcDbEntity
  8
0
100
AcDbBlockBegin
  2
*D1
 70
     1
 10
0.0
 20
0.0
 30
0.0
  3
*D1
  1

  0
LINE
  5
200
330
1FE
100
AcDbEntity
  8
SUNPO
 62
     0
370
    -2
100
AcDbLine
 10
155.7419956579174
 20
208.4588262705653
 30
0.0
 11
155.7419956579174
 21
216.4588262705653
 31
0.0
  0
LINE
  5
201
330
1FE
100
AcDbEntity
  8
SUNPO
 62
     0
370
    -2
100
AcDbLine
 10
176.7419956579175
 20
208.4588262705653
 30
0.0
 11
176.7419956579175
 21
216.4588262705653
 31
0.0
  0
LINE
  5
202
330
1FE
100
AcDbEntity
  8
SUNPO
 62
     0
370
    -2
100
AcDbLine
 10
157.7419956579174
 20
214.4588262705653
 30
0.0
 11
174.7419956579175
 21
214.4588262705653
 31
0.0
  0
INSERT
  5
203
330
1FE
100
AcDbEntity
  8
SUNPO
 62
     0
370
    -2
100
AcDbBlockReference
  2
_OPEN30
 10
155.7419956579174
 20
214.4588262705653
 30
0.0
 41
2.0
 42
2.0
 43
2.0
 50
180.0
  0
INSERT
  5
204
330
1FE
100
AcDbEntity
  8
SUNPO
 62
     0
370
    -2
100
AcDbBlockReference
  2
_OPEN30
 10
176.7419956579175
 20
214.4588262705653
 30
0.0
 41
2.0
 42
2.0
 43
2.0
  0
MTEXT
  5
205
330
1FE
100
AcDbEntity
  8
SUNPO
 62
     0
100
AcDbMText
 10
166.2419956579175
 20
216.2088262705653
 30
0.0
 40
2.5
 41
0.0
 71
     5
 72
     1
  1
\A1;210
 73
     1
 44
1.0
1001
ACAD
1000
MTEXTBEGIN
1070
    73
1070
     1
1070
    44
1040
1.0
1070
    74
1070
     0
1000
MTEXTEND
  0
POINT
  5
206
330
1FE
100
AcDbEntity
  8
DEFPOINTS
 62
     0
100
AcDbPoint
 10
155.7419956579174
 20
206.4588262705653
 30
0.0
  0
POINT
  5
208
330
1FE
100
AcDbEntity
  8
DEFPOINTS
 62
     0
100
AcDbPoint
 10
176.7419956579175
 20
206.4588262705653
 30
0.0
  0
POINT
  5
209
330
1FE
100
AcDbEntity
  8
DEFPOINTS
 62
     0
100
AcDbPoint
 10
176.7419956579175
 20
214.4588262705653
 30
0.0
  0
ENDBLK
  5
20A
330
1FE
100
AcDbEntity
  8
0
100
AcDbBlockEnd
  0
BLOCK
  5
20D
330
20C
100
AcDbEntity
  8
0
100
AcDbBlockBegin
  2
*D2
 70
     1
 10
0.0
 20
0.0
 30
0.0
  3
*D2
  1

  0
LINE
  5
20E
330
20C
100
AcDbEntity
  8
SUNPO
 62
     0
370
    -2
100
AcDbLine
 10
178.7419956579175
 20
202.0463293246477
 30
0.0
 11
186.7419956579175
 21
202.0463293246477
 31
0.0
  0
LINE
  5
20F
330
20C
100
AcDbEntity
  8
SUNPO
 62
     0
370
    -2
100
AcDbLine
 10
178.7419956579175
 20
206.4463293246478
 30
0.0
 11
186.7419956579175
 21
206.4463293246478
 31
0.0
  0
LINE
  5
210
330
20C
100
AcDbEntity
  8
SUNPO
 62
     0
370
    -2
100
AcDbLine
 10
184.7419956579175
 20
200.0463293246477
 30
0.0
 11
184.7419956579175
 21
198.0463293246477
 31
0.0
  0
LINE
  5
211
330
20C
100
AcDbEntity
  8
SUNPO
 62
     0
370
    -2
100
AcDbLine
 10
184.7419956579175
 20
208.4463293246478
 30
0.0
 11
184.7419956579175
 21
215.6129959913144
 31
0.0
  0
LINE
  5
212
330
20C
100
AcDbEntity
  8
SUNPO
 62
     0
370
    -2
100
AcDbLine
 10
184.7419956579175
 20
202.0463293246477
 30
0.0
 11
184.7419956579175
 21
206.4463293246478
 31
0.0
  0
INSERT
  5
213
330
20C
100
AcDbEntity
  8
SUNPO
 62
     0
370
    -2
100
AcDbBlockReference
  2
_OPEN30
 10
184.7419956579175
 20
202.0463293246477
 30
0.0
 41
2.0
 42
2.0
 43
2.0
 50
90.0
  0
INSERT
  5
214
330
20C
100
AcDbEntity
  8
SUNPO
 62
     0
370
    -2
100
AcDbBlockReference
  2
_OPEN30
 10
184.7419956579175
 20
206.4463293246478
 30
0.0
 41
2.0
 42
2.0
 43
2.0
 50
270.0
  0
MTEXT
  5
215
330
20C
100
AcDbEntity
  8
SUNPO
 62
     0
100
AcDbMText
 10
182.9919956579175
 20
213.0296626579812
 30
0.0
 40
2.5
 41
0.0
 71
     5
 72
     1
  1
\A1;44
 11
0.0000000000000001
 21
1.0
 31
0.0
 73
     1
 44
1.0
1001
ACAD
1000
MTEXTBEGIN
1070
    73
1070
     1
1070
    44
1040
1.0
1070
    74
1070
     0
1000
MTEXTEND
  0
POINT
  5
216
330
20C
100
AcDbEntity
  8
DEFPOINTS
 62
     0
100
AcDbPoint
 10
176.7419956579175
 20
202.0463293246477
 30
0.0
  0
POINT
  5
217
330
20C
100
AcDbEntity
  8
DEFPOINTS
 62
     0
100
AcDbPoint
 10
176.7419956579175
 20
206.4463293246478
 30
0.0
  0
POINT
  5
218
330
20C
100
AcDbEntity
  8
DEFPOINTS
 62
     0
100
AcDbPoint
 10
184.7419956579175
 20
206.4463293246478
 30
0.0
  0
ENDBLK
  5
219
330
20C
100
AcDbEntity
  8
0
100
AcDbBlockEnd
  0
BLOCK
  5
21C
330
21B
100
AcDbEntity
  8
0
100
AcDbBlockBegin
  2
*D3
 70
     1
 10
0.0
 20
0.0
 30
0.0
  3
*D3
  1

  0
LINE
  5
21D
330
21B
100
AcDbEntity
  8
SUNPO
 62
     0
370
    -2
100
AcDbLine
 10
198.7775121261288
 20
208.4588262705653
 30
0.0
 11
198.7775121261288
 21
216.4588262705653
 31
0.0
  0
LINE
  5
21E
330
21B
100
AcDbEntity
  8
SUNPO
 62
     0
370
    -2
100
AcDbLine
 10
228.7775121261288
 20
208.4588262705653
 30
0.0
 11
228.7775121261288
 21
216.4588262705653
 31
0.0
  0
LINE
  5
21F
330
21B
100
AcDbEntity
  8
SUNPO
 62
     0
370
    -2
100
AcDbLine
 10
200.7775121261289
 20
214.4588262705653
 30
0.0
 11
226.7775121261288
 21
214.4588262705653
 31
0.0
  0
INSERT
  5
220
330
21B
100
AcDbEntity
  8
SUNPO
 62
     0
370
    -2
100
AcDbBlockReference
  2
_OPEN30
 10
198.7775121261288
 20
214.4588262705653
 30
0.0
 41
2.0
 42
2.0
 43
2.0
 50
180.0
  0
INSERT
  5
221
330
21B
100
AcDbEntity
  8
SUNPO
 62
     0
370
    -2
100
AcDbBlockReference
  2
_OPEN30
 10
228.7775121261288
 20
214.4588262705653
 30
0.0
 41
2.0
 42
2.0
 43
2.0
  0
MTEXT
  5
222
330
21B
100
AcDbEntity
  8
SUNPO
 62
     0
100
AcDbMText
 10
213.7775121261288
 20
216.2088262705653
 30
0.0
 40
2.5
 41
0.0
 71
     5
 72
     1
  1
\A1;300
 73
     1
 44
1.0
1001
ACAD
1000
MTEXTBEGIN
1070
    73
1070
     1
1070
    44
1040
1.0
1070
    74
1070
     0
1000
MTEXTEND
  0
POINT
  5
223
330
21B
100
AcDbEntity
  8
DEFPOINTS
 62
     0
100
AcDbPoint
 10
198.7775121261288
 20
206.4588262705653
 30
0.0
  0
POINT
  5
224
330
21B
100
AcDbEntity
  8
DEFPOINTS
 62
     0
100
AcDbPoint
 10
228.7775121261288
 20
206.4588262705653
 30
0.0
  0
POINT
  5
225
330
21B
100
AcDbEntity
  8
DEFPOINTS
 62
     0
100
AcDbPoint
 10
228.7775121261288
 20
214.4588262705653
 30
0.0
  0
ENDBLK
  5
226
330
21B
100
AcDbEntity
  8
0
100
AcDbBlockEnd
  0
BLOCK
  5
262
330
258
100
AcDbEntity
  8
0
100
AcDbBlockBegin
  2
*D4
 70
     1
 10
0.0
 20
0.0
 30
0.0
  3
*D4
  1

  0
LINE
  5
259
330
258
100
AcDbEntity
  8
SUNPO
 62
     0
370
    -2
100
AcDbLine
 10
8.447110800218524
 20
20.47401831506852
 30
0.0
 11
8.447110800218524
 21
28.47401831506852
 31
0.0
  0
LINE
  5
25A
330
258
100
AcDbEntity
  8
SUNPO
 62
     0
370
    -2
100
AcDbLine
 10
38.44711080021852
 20
20.47401831506852
 30
0.0
 11
38.44711080021852
 21
28.47401831506852
 31
0.0
  0
LINE
  5
25B
330
258
100
AcDbEntity
  8
SUNPO
 62
     0
370
    -2
100
AcDbLine
 10
10.44711080021852
 20
26.47401831506852
 30
0.0
 11
36.44711080021853
 21
26.47401831506852
 31
0.0
  0
INSERT
  5
25C
330
258
100
AcDbEntity
  8
SUNPO
 62
     0
370
    -2
100
AcDbBlockReference
  2
_OPEN30
 10
8.447110800218524
 20
26.47401831506852
 30
0.0
 41
2.0
 42
2.0
 43
2.0
 50
180.0
  0
INSERT
  5
25D
330
258
100
AcDbEntity
  8
SUNPO
 62
     0
370
    -2
100
AcDbBlockReference
  2
_OPEN30
 10
38.44711080021852
 20
26.47401831506852
 30
0.0
 41
2.0
 42
2.0
 43
2.0
  0
MTEXT
  5
25E
330
258
100
AcDbEntity
  8
SUNPO
 62
     0
100
AcDbMText
 10
23.44711080021852
 20
28.22401831506852
 30
0.0
 40
2.5
 41
0.0
 71
     5
 72
     1
  1
\A1;300
 73
     1
 44
1.0
1001
ACAD
1000
MTEXTBEGIN
1070
    73
1070
     1
1070
    44
1040
1.0
1070
    74
1070
     0
1000
MTEXTEND
  0
POINT
  5
25F
330
258
100
AcDbEntity
  8
DEFPOINTS
 62
     0
100
AcDbPoint
 10
8.447110800218524
 20
18.47401831506852
 30
0.0
  0
POINT
  5
260
330
258
100
AcDbEntity
  8
DEFPOINTS
 62
     0
100
AcDbPoint
 10
38.44711080021852
 20
18.47401831506852
 30
0.0
  0
POINT
  5
261
330
258
100
AcDbEntity
  8
DEFPOINTS
 62
     0
100
AcDbPoint
 10
38.44711080021852
 20
26.47401831506852
 30
0.0
  0
ENDBLK
  5
263
330
258
100
AcDbEntity
  8
0
100
AcDbBlockEnd
  0
BLOCK
  5
270
330
264
100
AcDbEntity
  8
0
100
AcDbBlockBegin
  2
*D5
 70
     1
 10
0.0
 20
0.0
 30
0.0
  3
*D5
  1

  0
LINE
  5
265
330
264
100
AcDbEntity
  8
SUNPO
 62
     0
370
    -2
100
AcDbLine
 10
-11.58840566799279
 20
14.06152136915096
 30
0.0
 11
-3.588405667992788
 21
14.06152136915096
 31
0.0
  0
LINE
  5
266
330
264
100
AcDbEntity
  8
SUNPO
 62
     0
370
    -2
100
AcDbLine
 10
-11.58840566799279
 20
18.461521369151
 30
0.0
 11
-3.588405667992787
 21
18.46152136915099
 31
0.0
  0
LINE
  5
267
330
264
100
AcDbEntity
  8
SUNPO
 62
     0
370
    -2
100
AcDbLine
 10
-5.588405667992789
 20
12.06152136915096
 30
0.0
 11
-5.588405667992789
 21
10.06152136915096
 31
0.0
  0
LINE
  5
268
330
264
100
AcDbEntity
  8
SUNPO
 62
     0
370
    -2
100
AcDbLine
 10
-5.588405667992788
 20
20.461521369151
 30
0.0
 11
-5.588405667992786
 21
27.62818803581767
 31
0.0
  0
LINE
  5
269
330
264
100
AcDbEntity
  8
SUNPO
 62
     0
370
    -2
100
AcDbLine
 10
-5.588405667992788
 20
14.06152136915096
 30
0.0
 11
-5.588405667992788
 21
18.46152136915099
 31
0.0
  0
INSERT
  5
26A
330
264
100
AcDbEntity
  8
SUNPO
 62
     0
370
    -2
100
AcDbBlockReference
  2
_OPEN30
 10
-5.588405667992788
 20
14.06152136915096
 30
0.0
 41
2.0
 42
2.0
 43
2.0
 50
90.0
  0
INSERT
  5
26B
330
264
100
AcDbEntity
  8
SUNPO
 62
     0
370
    -2
100
AcDbBlockReference
  2
_OPEN30
 10
-5.588405667992788
 20
18.46152136915099
 30
0.0
 41
2.0
 42
2.0
 43
2.0
 50
270.0
  0
MTEXT
  5
26C
330
264
100
AcDbEntity
  8
SUNPO
 62
     0
100
AcDbMText
 10
-7.33840566799279
 20
25.04485470248433
 30
0.0
 40
2.5
 41
0.0
 71
     5
 72
     1
  1
\A1;44
 11
0.0000000000000001
 21
1.0
 31
0.0
 73
     1
 44
1.0
1001
ACAD
1000
MTEXTBEGIN
1070
    73
1070
     1
1070
    44
1040
1.0
1070
    74
1070
     0
1000
MTEXTEND
  0
POINT
  5
26D
330
264
100
AcDbEntity
  8
DEFPOINTS
 62
     0
100
AcDbPoint
 10
-13.58840566799279
 20
14.06152136915096
 30
0.0
  0
POINT
  5
26E
330
264
100
AcDbEntity
  8
DEFPOINTS
 62
     0
100
AcDbPoint
 10
-13.58840566799279
 20
18.461521369151
 30
0.0
  0
POINT
  5
26F
330
264
100
AcDbEntity
  8
DEFPOINTS
 62
     0
100
AcDbPoint
 10
-5.588405667992788
 20
18.46152136915099
 30
0.0
  0
ENDBLK
  5
271
330
264
100
AcDbEntity
  8
0
100
AcDbBlockEnd
  0
BLOCK
  5
27C
330
272
100
AcDbEntity
  8
0
100
AcDbBlockBegin
  2
*D6
 70
     1
 10
0.0
 20
0.0
 30
0.0
  3
*D6
  1

  0
LINE
  5
273
330
272
100
AcDbEntity
  8
SUNPO
 62
     0
370
    -2
100
AcDbLine
 10
-34.58840566799285
 20
20.47401831506852
 30
0.0
 11
-34.58840566799285
 21
28.47401831506852
 31
0.0
  0
LINE
  5
274
330
272
100
AcDbEntity
  8
SUNPO
 62
     0
370
    -2
100
AcDbLine
 10
-13.58840566799279
 20
20.47401831506852
 30
0.0
 11
-13.58840566799279
 21
28.47401831506852
 31
0.0
  0
LINE
  5
275
330
272
100
AcDbEntity
  8
SUNPO
 62
     0
370
    -2
100
AcDbLine
 10
-32.58840566799285
 20
26.47401831506852
 30
0.0
 11
-15.58840566799279
 21
26.47401831506852
 31
0.0
  0
INSERT
  5
276
330
272
100
AcDbEntity
  8
SUNPO
 62
     0
370
    -2
100
AcDbBlockReference
  2
_OPEN30
 10
-34.58840566799285
 20
26.47401831506852
 30
0.0
 41
2.0
 42
2.0
 43
2.0
 50
180.0
  0
INSERT
  5
277
330
272
100
AcDbEntity
  8
SUNPO
 62
     0
370
    -2
100
AcDbBlockReference
  2
_OPEN30
 10
-13.58840566799279
 20
26.47401831506852
 30
0.0
 41
2.0
 42
2.0
 43
2.0
  0
MTEXT
  5
278
330
272
100
AcDbEntity
  8
SUNPO
 62
     0
100
AcDbMText
 10
-24.08840566799282
 20
28.22401831506852
 30
0.0
 40
2.5
 41
0.0
 71
     5
 72
     1
  1
\A1;210
 73
     1
 44
1.0
1001
ACAD
1000
MTEXTBEGIN
1070
    73
1070
     1
1070
    44
1040
1.0
1070
    74
1070
     0
1000
MTEXTEND
  0
POINT
  5
279
330
272
100
AcDbEntity
  8
DEFPOINTS
 62
     0
100
AcDbPoint
 10
-34.58840566799285
 20
18.47401831506852
 30
0.0
  0
POINT
  5
27A
330
272
100
AcDbEntity
  8
DEFPOINTS
 62
     0
100
AcDbPoint
 10
-13.58840566799279
 20
18.47401831506852
 30
0.0
  0
POINT
  5
27B
330
272
100
AcDbEntity
  8
DEFPOINTS
 62
     0
100
AcDbPoint
 10
-13.58840566799279
 20
26.47401831506852
 30
0.0
  0
ENDBLK
  5
27D
330
272
100
AcDbEntity
  8
0
100
AcDbBlockEnd
  0
ENDSEC
  0
SECTION
  2
ENTITIES
  0
TEXT
  5
35
330
2
100
AcDbEntity
  8
TOUROKU
100
AcDbText
 10
49.80288204035043
 20
46.51440618414503
 30
0.0
 40
2.0
  1
ＷＺＤＰ２５０
 72
     2
 11
65.6695487070171
 21
46.51440618414503
 31
0.0
100
AcDbText
  0
TEXT
  5
37
330
2
100
AcDbEntity
  8
MOJI1
100
AcDbText
 10
-32.33040132591066
 20
52.51440618414503
 30
0.0
 40
4.0
  1
デジタルＩＣレコーダー
100
AcDbText
  0
ARC
  5
38
330
2
100
AcDbEntity
  8
GAIKEI
  6
Continuous
100
AcDbCircle
 10
-16.56840566799275
 20
13.86152136915092
 30
0.0
 40
0.03
100
AcDbArc
 50
202.6198649727481
 51
270.0
  0
ARC
  5
3A
330
2
100
AcDbEntity
  8
GAIKEI
  6
Continuous
100
AcDbCircle
 10
-15.60840566799277
 20
13.86152136915092
 30
0.0
 40
0.03
100
AcDbArc
 50
270.0
 51
337.3801350393404
  0
LINE
  5
3B
330
2
100
AcDbEntity
  8
GAIKEI
  6
Continuous
100
AcDbLine
 10
-15.60840566799277
 20
13.83152136915095
 30
0.0
 11
-16.56840566799275
 21
13.83152136915095
 31
0.0
  0
LINE
  5
3C
330
2
100
AcDbEntity
  8
GAIKEI
  6
Continuous
100
AcDbLine
 10
-16.68423900132274
 20
14.06152136915096
 30
0.0
 11
-16.59609797568277
 21
13.84998290762093
 31
0.0
  0
LINE
  5
3D
330
2
100
AcDbEntity
  8
GAIKEI
  6
Continuous
100
AcDbLine
 10
-15.49257233466278
 20
14.06152136915096
 30
0.0
 11
-15.58071336030275
 21
13.84998290762093
 31
0.0
  0
ARC
  5
3E
330
2
100
AcDbEntity
  8
GAIKEI
  6
Continuous
100
AcDbCircle
 10
-32.56840566799275
 20
13.86152136915092
 30
0.0
 40
0.03
100
AcDbArc
 50
202.6198649727512
 51
270.0
  0
ARC
  5
3F
330
2
100
AcDbEntity
  8
GAIKEI
  6
Continuous
100
AcDbCircle
 10
-31.60840566799277
 20
13.86152136915092
 30
0.0
 40
0.03
100
AcDbArc
 50
270.0
 51
337.3801350393258
  0
LINE
  5
40
330
2
100
AcDbEntity
  8
GAIKEI
  6
Continuous
100
AcDbLine
 10
-31.60840566799277
 20
13.83152136915095
 30
0.0
 11
-32.56840566799275
 21
13.83152136915095
 31
0.0
  0
LINE
  5
41
330
2
100
AcDbEntity
  8
GAIKEI
  6
Continuous
100
AcDbLine
 10
-32.68423900132274
 20
14.06152136915096
 30
0.0
 11
-32.59609797568277
 21
13.84998290762093
 31
0.0
  0
LINE
  5
42
330
2
100
AcDbEntity
  8
GAIKEI
  6
Continuous
100
AcDbLine
 10
-31.49257233466278
 20
14.06152136915096
 30
0.0
 11
-31.58071336030275
 21
13.84998290762093
 31
0.0
  0
LINE
  5
43
330
2
100
AcDbEntity
  8
GAIKEI
  6
Continuous
 62
     1
100
AcDbLine
 10
-14.88840569908677
 20
15.50652136915107
 30
0.0
 11
-14.88840569908677
 21
15.07152136915107
 31
0.0
  0
LINE
  5
44
330
2
100
AcDbEntity
  8
GAIKEI
  6
Continuous
 62
     1
100
AcDbLine
 10
-14.88840569908677
 20
15.07152136915107
 30
0.0
 11
-15.53840569908675
 21
15.07152136915107
 31
0.0
  0
LINE
  5
45
330
2
100
AcDbEntity
  8
GAIKEI
  6
Continuous
 62
     1
100
AcDbLine
 10
-16.68840574039876
 20
15.07152136915107
 30
0.0
 11
-17.33840574039874
 21
15.07152136915107
 31
0.0
  0
LINE
  5
46
330
2
100
AcDbEntity
  8
GAIKEI
  6
Continuous
 62
     1
100
AcDbLine
 10
-16.68840574039876
 20
15.50652136915107
 30
0.0
 11
-16.68840574039876
 21
15.07152136915107
 31
0.0
  0
LINE
  5
47
330
2
100
AcDbEntity
  8
GAIKEI
  6
Continuous
 62
     1
100
AcDbLine
 10
-18.17253296799276
 20
14.67152136915098
 30
0.0
 11
-18.07253296799274
 21
14.57152136915096
 31
0.0
  0
LINE
  5
48
330
2
100
AcDbEntity
  8
GAIKEI
  6
Continuous
 62
     1
100
AcDbLine
 10
-18.37253296799275
 20
14.67152136915098
 30
0.0
 11
-18.37253296799275
 21
14.27152136915094
 31
0.0
  0
LINE
  5
49
330
2
100
AcDbEntity
  8
GAIKEI
  6
Continuous
 62
     1
100
AcDbLine
 10
-18.17253296799276
 20
14.67152136915098
 30
0.0
 11
-18.37253296799275
 21
14.67152136915098
 31
0.0
  0
LINE
  5
4A
330
2
100
AcDbEntity
  8
GAIKEI
  6
Continuous
 62
     1
100
AcDbLine
 10
-18.07253296799274
 20
14.27152136915094
 30
0.0
 11
-18.07253296799274
 21
14.57152136915096
 31
0.0
  0
LINE
  5
4B
330
2
100
AcDbEntity
  8
GAIKEI
  6
Continuous
 62
     1
100
AcDbLine
 10
-18.37253296799275
 20
14.27152136915094
 30
0.0
 11
-18.07253296799274
 21
14.27152136915094
 31
0.0
  0
LINE
  5
4C
330
2
100
AcDbEntity
  8
GAIKEI
  6
Continuous
100
AcDbLine
 10
-34.48846658529277
 20
14.06152136915096
 30
0.0
 11
-13.68834475069275
 21
14.06152136915096
 31
0.0
  0
LINE
  5
4D
330
2
100
AcDbEntity
  8
GAIKEI
  6
Continuous
 62
     1
100
AcDbLine
 10
-34.4394556362729
 20
14.21047140087097
 30
0.0
 11
-21.66829917883274
 21
14.21047140087097
 31
0.0
  0
LINE
  5
4E
330
2
100
AcDbEntity
  8
GAIKEI
  6
Continuous
 62
     1
100
AcDbLine
 10
-18.48851520325274
 20
14.21047140087097
 30
0.0
 11
-13.73735569971273
 21
14.21047140087097
 31
0.0
  0
LINE
  5
4F
330
2
100
AcDbEntity
  8
GAIKEI
  6
Continuous
 62
     1
100
AcDbLine
 10
-21.63840566799274
 20
14.21681433781094
 30
0.0
 11
-18.53840566799277
 21
14.21681433781094
 31
0.0
  0
LINE
  5
50
330
2
100
AcDbEntity
  8
GAIKEI
  6
Continuous
 62
     1
100
AcDbLine
 10
-19.33152896752278
 20
15.14152136915095
 30
0.0
 11
-18.53840566799277
 21
15.14152136915095
 31
0.0
  0
LINE
  5
51
330
2
100
AcDbEntity
  8
GAIKEI
  6
Continuous
 62
     1
100
AcDbLine
 10
-21.58840566799279
 20
15.44152136915096
 30
0.0
 11
-18.53840566799277
 21
15.44152136915096
 31
0.0
  0
LINE
  5
52
330
2
100
AcDbEntity
  8
GAIKEI
  6
Continuous
 62
     1
100
AcDbLine
 10
-21.66689668097274
 20
15.47553908065095
 30
0.0
 11
-18.55850454191278
 21
15.47553908065095
 31
0.0
  0
LINE
  5
53
330
2
100
AcDbEntity
  8
GAIKEI
  6
Continuous
 62
     1
100
AcDbLine
 10
-18.68276943422279
 20
15.66715760292095
 30
0.0
 11
-18.09404190176275
 21
15.66715760292095
 31
0.0
  0
LINE
  5
54
330
2
100
AcDbEntity
  8
GAIKEI
  6
Continuous
 62
     1
100
AcDbLine
 10
-18.09404190176275
 20
15.95588513539093
 30
0.0
 11
-18.68276943422279
 21
15.95588513539093
 31
0.0
  0
LINE
  5
55
330
2
100
AcDbEntity
  8
GAIKEI
  6
Continuous
 62
     1
100
AcDbLine
 10
-17.97536170012279
 20
16.94847740128096
 30
0.0
 11
-18.80144963586275
 21
16.94847740128096
 31
0.0
  0
LINE
  5
56
330
2
100
AcDbEntity
  8
GAIKEI
  6
Continuous
 62
     1
100
AcDbLine
 10
-18.74631042182278
 20
17.00361661532094
 30
0.0
 11
-18.03050091416276
 21
17.00361661532094
 31
0.0
  0
LINE
  5
57
330
2
100
AcDbEntity
  8
GAIKEI
  6
Continuous
 62
     1
100
AcDbLine
 10
-18.03050091416276
 20
17.71942612298096
 30
0.0
 11
-18.74631042182278
 21
17.71942612298096
 31
0.0
  0
LINE
  5
58
330
2
100
AcDbEntity
  8
GAIKEI
  6
Continuous
 62
     1
100
AcDbLine
 10
-18.80144963586275
 20
17.77456533702099
 30
0.0
 11
-17.97536170012279
 21
17.77456533702099
 31
0.0
  0
LINE
  5
59
330
2
100
AcDbEntity
  8
GAIKEI
  6
Continuous
 62
     1
100
AcDbLine
 10
-34.4394556362729
 20
18.31257133744094
 30
0.0
 11
-13.73735569971273
 21
18.31257133744094
 31
0.0
  0
LINE
  5
5A
330
2
100
AcDbEntity
  8
GAIKEI
  6
Continuous
 62
     1
100
AcDbLine
 10
-21.66829917883274
 20
15.11371551671095
 30
0.0
 11
-21.66829917883274
 21
14.21047140087097
 31
0.0
  0
LINE
  5
5B
330
2
100
AcDbEntity
  8
GAIKEI
  6
Continuous
 62
     1
100
AcDbLine
 10
-21.66689668097274
 20
15.47553908065095
 30
0.0
 11
-21.66689668097274
 21
15.11652136730095
 31
0.0
  0
LINE
  5
5C
330
2
100
AcDbEntity
  8
GAIKEI
  6
Continuous
 62
     1
100
AcDbLine
 10
-21.63840566799274
 20
14.21681433781094
 30
0.0
 11
-21.63840566799274
 21
15.39152136915095
 31
0.0
  0
LINE
  5
5D
330
2
100
AcDbEntity
  8
GAIKEI
  6
Continuous
 62
     1
100
AcDbLine
 10
-21.66829917883274
 20
15.11371551671095
 30
0.0
 11
-21.66689668097274
 21
15.11652136730095
 31
0.0
  0
LINE
  5
5E
330
2
100
AcDbEntity
  8
GAIKEI
  6
Continuous
100
AcDbLine
 10
-34.49840566799276
 20
18.46152136915094
 30
0.0
 11
-13.67840566799276
 21
18.46152136915094
 31
0.0
  0
LINE
  5
5F
330
2
100
AcDbEntity
  8
GAIKEI
  6
Continuous
 62
     1
100
AcDbLine
 10
-19.33152896752278
 20
15.14152136915095
 30
0.0
 11
-19.33152896752278
 21
15.39152136915095
 31
0.0
  0
LINE
  5
60
330
2
100
AcDbEntity
  8
GAIKEI
  6
Continuous
 62
     1
100
AcDbLine
 10
-18.80144963586275
 20
16.94847740128096
 30
0.0
 11
-18.80144963586275
 21
17.77456533702099
 31
0.0
  0
LINE
  5
61
330
2
100
AcDbEntity
  8
GAIKEI
  6
Continuous
 62
     1
100
AcDbLine
 10
-18.74631042182278
 20
17.00361661532094
 30
0.0
 11
-18.74631042182278
 21
17.71942612298096
 31
0.0
  0
LINE
  5
62
330
2
100
AcDbEntity
  8
GAIKEI
  6
Continuous
 62
     1
100
AcDbLine
 10
-18.68276943422279
 20
15.95588513539093
 30
0.0
 11
-18.68276943422279
 21
15.66715760292095
 31
0.0
  0
LINE
  5
63
330
2
100
AcDbEntity
  8
GAIKEI
  6
Continuous
 62
     1
100
AcDbLine
 10
-18.53840566799277
 20
15.44152136915096
 30
0.0
 11
-18.53840566799277
 21
14.06152136915096
 31
0.0
  0
LINE
  5
64
330
2
100
AcDbEntity
  8
GAIKEI
  6
Continuous
 62
     1
100
AcDbLine
 10
-18.48851520325274
 20
14.21047140087097
 30
0.0
 11
-18.48851520325274
 21
15.40554974199096
 31
0.0
  0
LINE
  5
65
330
2
100
AcDbEntity
  8
GAIKEI
  6
Continuous
 62
     1
100
AcDbLine
 10
-18.09404190176275
 20
15.66715760292095
 30
0.0
 11
-18.09404190176275
 21
15.95588513539093
 31
0.0
  0
LINE
  5
66
330
2
100
AcDbEntity
  8
GAIKEI
  6
Continuous
 62
     1
100
AcDbLine
 10
-18.03050091416276
 20
17.00361661532094
 30
0.0
 11
-18.03050091416276
 21
17.71942612298096
 31
0.0
  0
LINE
  5
67
330
2
100
AcDbEntity
  8
GAIKEI
  6
Continuous
 62
     1
100
AcDbLine
 10
-17.97536170012279
 20
17.77456533702099
 30
0.0
 11
-17.97536170012279
 21
16.94847740128096
 31
0.0
  0
LINE
  5
68
330
2
100
AcDbEntity
  8
GAIKEI
  6
Continuous
 62
     1
100
AcDbLine
 10
-13.73735569971273
 20
14.21047140087097
 30
0.0
 11
-13.73735569971273
 21
18.31257133744094
 31
0.0
  0
LINE
  5
69
330
2
100
AcDbEntity
  8
GAIKEI
  6
Continuous
100
AcDbLine
 10
-13.58840566799279
 20
14.16146045186093
 30
0.0
 11
-13.58840566799279
 21
18.36158228645098
 31
0.0
  0
ARC
  5
6A
330
2
100
AcDbEntity
  8
GAIKEI
  6
Continuous
 62
     1
100
AcDbCircle
 10
-21.58840566799279
 20
15.39152136915095
 30
0.0
 40
0.05
100
AcDbArc
 50
90.0
 51
180.0
  0
CIRCLE
  5
6B
330
2
100
AcDbEntity
  8
GAIKEI
  6
Continuous
 62
     1
100
AcDbCircle
 10
-14.44809358540078
 20
16.95730711655909
 30
0.0
 40
0.01661954485
  0
CIRCLE
  5
6C
330
2
100
AcDbEntity
  8
GAIKEI
  6
Continuous
 62
     1
100
AcDbCircle
 10
-14.63419133430574
 20
16.77120936765305
 30
0.0
 40
0.01661954485
  0
CIRCLE
  5
6D
330
2
100
AcDbEntity
  8
GAIKEI
  6
Continuous
 62
     1
100
AcDbCircle
 10
-15.14261983948978
 20
16.77120936765305
 30
0.0
 40
0.01661954485
  0
CIRCLE
  5
6E
330
2
100
AcDbEntity
  8
GAIKEI
  6
Continuous
 62
     1
100
AcDbCircle
 10
-15.32871758839576
 20
16.95730711655909
 30
0.0
 40
0.016619544851
  0
CIRCLE
  5
6F
330
2
100
AcDbEntity
  8
GAIKEI
  6
Continuous
 62
     1
100
AcDbCircle
 10
-15.39683409208175
 20
17.21152136915094
 30
0.0
 40
0.01661954485
  0
CIRCLE
  5
70
330
2
100
AcDbEntity
  8
GAIKEI
  6
Continuous
 62
     1
100
AcDbCircle
 10
-15.32871758839576
 20
17.46573562174296
 30
0.0
 40
0.016619544851
  0
CIRCLE
  5
71
330
2
100
AcDbEntity
  8
GAIKEI
  6
Continuous
 62
     1
100
AcDbCircle
 10
-15.14261983948978
 20
17.65183337064792
 30
0.0
 40
0.01661954485
  0
CIRCLE
  5
72
330
2
100
AcDbEntity
  8
GAIKEI
  6
Continuous
 62
     1
100
AcDbCircle
 10
-14.88840558689776
 20
17.7199498743351
 30
0.0
 40
0.01661954485
  0
CIRCLE
  5
73
330
2
100
AcDbEntity
  8
GAIKEI
  6
Continuous
 62
     1
100
AcDbCircle
 10
-14.63419133430574
 20
17.65183337064792
 30
0.0
 40
0.01661954485
  0
CIRCLE
  5
74
330
2
100
AcDbEntity
  8
GAIKEI
  6
Continuous
 62
     1
100
AcDbCircle
 10
-14.44809358540078
 20
17.46573562174296
 30
0.0
 40
0.01661954485
  0
CIRCLE
  5
75
330
2
100
AcDbEntity
  8
GAIKEI
  6
Continuous
 62
     1
100
AcDbCircle
 10
-14.37997708171377
 20
17.21152136915094
 30
0.0
 40
0.01661954485
  0
CIRCLE
  5
76
330
2
100
AcDbEntity
  8
GAIKEI
  6
Continuous
 62
     1
100
AcDbCircle
 10
-15.78840566799278
 20
15.07152136915095
 30
0.0
 40
0.18
  0
CIRCLE
  5
77
330
2
100
AcDbEntity
  8
GAIKEI
  6
Continuous
 62
     1
100
AcDbCircle
 10
-15.78840566799278
 20
15.07152136915095
 30
0.0
 40
0.3
  0
CIRCLE
  5
78
330
2
100
AcDbEntity
  8
GAIKEI
  6
Continuous
 62
     1
100
AcDbCircle
 10
-17.58840566799278
 20
15.07152136915095
 30
0.0
 40
0.18
  0
CIRCLE
  5
79
330
2
100
AcDbEntity
  8
GAIKEI
  6
Continuous
 62
     1
100
AcDbCircle
 10
-17.58840566799278
 20
15.07152136915095
 30
0.0
 40
0.3
  0
CIRCLE
  5
7A
330
2
100
AcDbEntity
  8
GAIKEI
  6
Continuous
 62
     1
100
AcDbCircle
 10
-14.88840566799274
 20
17.21152136915094
 30
0.0
 40
0.3400000000000001
  0
CIRCLE
  5
7B
330
2
100
AcDbEntity
  8
GAIKEI
  6
Continuous
 62
     1
100
AcDbCircle
 10
-14.88840566799274
 20
17.21152136915094
 30
0.0
 40
0.41373019237
  0
CIRCLE
  5
7C
330
2
100
AcDbEntity
  8
GAIKEI
  6
Continuous
 62
     1
100
AcDbCircle
 10
-17.58840566799278
 20
15.07152136915095
 30
0.0
 40
0.36373019237
  0
CIRCLE
  5
7D
330
2
100
AcDbEntity
  8
GAIKEI
  6
Continuous
 62
     1
100
AcDbCircle
 10
-15.78840566799278
 20
15.07152136915095
 30
0.0
 40
0.36373019237
  0
SPLINE
  5
7E
330
2
100
AcDbEntity
  8
GAIKEI
  6
Continuous
 62
     1
100
AcDbSpline
210
0.0
220
0.0
230
1.0
 70
     8
 71
     3
 72
    11
 73
     7
 74
     5
 42
0.0000000001
 43
0.0000000001
 44
0.00000000001
 40
0.0
 40
0.0
 40
0.0
 40
0.0
 40
0.0079774370215667
 40
0.0159526981628073
 40
0.024031212300269
 40
0.0321555558462829
 40
0.0321555558462829
 40
0.0321555558462829
 40
0.0321555558462829
 10
-19.33152896752273
 20
15.39152136915106
 30
0.0
 10
-19.33140629954727
 20
15.39418418585566
 30
0.0
 10
-19.33116099705455
 20
15.39950909297019
 30
0.0
 10
-19.32915332919927
 20
15.40730934205044
 30
0.0
 10
-19.32607627475261
 20
15.41480837785161
 30
0.0
 10
-19.32302215051933
 20
15.4192794899055
 30
0.0
 10
-19.32149076914277
 20
15.42152136915104
 30
0.0
 11
-19.33152896752273
 21
15.39152136915106
 31
0.0
 11
-19.33088902629254
 21
15.39947309705479
 31
0.0
 11
-19.32898872992769
 21
15.40721865474916
 31
0.0
 11
-19.32583549578726
 21
15.41465636307396
 31
0.0
 11
-19.32149076914277
 21
15.42152136915104
 31
0.0
  0
SPLINE
  5
7F
330
2
100
AcDbEntity
  8
GAIKEI
  6
Continuous
 62
     1
100
AcDbSpline
210
0.0
220
0.0
230
1.0
 70
     8
 71
     3
 72
    15
 73
    11
 74
     9
 42
0.0000000001
 43
0.0000000001
 44
0.00000000001
 40
0.0
 40
0.0
 40
0.0
 40
0.0
 40
0.0070642259707866
 40
0.0137843519226391
 40
0.0188260968767993
 40
0.023567775460141
 40
0.0280499702584253
 40
0.0327995923605993
 40
0.0387096876579687
 40
0.0448795021468616
 40
0.0448795021468616
 40
0.0448795021468616
 40
0.0448795021468616
 10
-19.28308774891275
 20
15.44152136915102
 30
0.0
 10
-19.28544580016373
 20
15.44142614486256
 30
0.0
 10
-19.29004704146464
 20
15.44124033468191
 30
0.0
 10
-19.29617599301821
 20
15.43971506226819
 30
0.0
 10
-19.30132096258575
 20
15.43775643811898
 30
0.0
 10
-19.30559987577601
 20
15.43566108352422
 30
0.0
 10
-19.30954159978696
 20
15.4331651044898
 30
0.0
 10
-19.31356293628067
 20
15.43010874534735
 30
0.0
 10
-19.31769588061323
 20
15.42628523235004
 30
0.0
 10
-19.32020780410281
 20
15.42313192237068
 30
0.0
 10
-19.32149076914277
 20
15.42152136915104
 30
0.0
 11
-19.28308774891275
 21
15.44152136915102
 31
0.0
 11
-19.29013205109459
 21
15.4409911849026
 31
0.0
 11
-19.29666938832298
 21
15.43943448494082
 31
0.0
 11
-19.30138384055408
 21
15.43764755115819
 31
0.0
 11
-19.3056341722222
 21
15.43554560051683
 31
0.0
 11
-19.30943023535508
 21
15.43316233072494
 31
0.0
 11
-19.31321241709713
 21
15.43028935119429
 31
0.0
 11
-19.31752327842452
 21
15.42624636949262
 31
0.0
 11
-19.32149076914277
 21
15.42152136915104
 31
0.0
  0
SPLINE
  5
80
330
2
100
AcDbEntity
  8
GAIKEI
  6
Continuous
 62
     1
100
AcDbSpline
210
0.0
220
0.0
230
1.0
 70
     8
 71
     3
 72
    21
 73
    17
 74
    15
 42
0.0000000001
 43
0.0000000001
 44
0.00000000001
 40
0.0
 40
0.0
 40
0.0
 40
0.0
 40
0.01007091156024
 40
0.0196980229605491
 40
0.0273272676235421
 40
0.0347376665607464
 40
0.0413206181394112
 40
0.0480975186845005
 40
0.054956747653441
 40
0.0618165464031815
 40
0.0685968043009382
 40
0.0751837814636998
 40
0.0825924305460074
 40
0.0902181288200856
 40
0.0998295180789088
 40
0.1098825563060664
 40
0.1098825563060664
 40
0.1098825563060664
 40
0.1098825563060664
 10
-18.48851520325274
 20
15.40554974199102
 30
0.0
 10
-18.48863996739604
 20
15.408910585868
 30
0.0
 10
-18.48888399763547
 20
15.415484169546
 30
0.0
 10
-18.49091915736124
 20
15.42441504789693
 30
0.0
 10
-18.49367853207244
 20
15.43216852945016
 30
0.0
 10
-18.49672981927222
 20
15.43871367990289
 30
0.0
 10
-18.50031050911787
 20
15.4446529206383
 30
0.0
 10
-18.50435268223793
 20
15.45005872487684
 30
0.0
 10
-18.50894373594076
 20
15.45513275434712
 30
0.0
 10
-18.5140206603607
 20
15.45972227434498
 30
0.0
 10
-18.51943048957761
 20
15.46376352154254
 30
0.0
 10
-18.52537330544896
 20
15.46734194522412
 30
0.0
 10
-18.53191963363383
 20
15.47038966814537
 30
0.0
 10
-18.53966798298572
 20
15.47314259162823
 30
0.0
 10
-18.54858733880343
 20
15.47517144261178
 30
0.0
 10
-18.55514967905444
 20
15.47541471340861
 30
0.0
 10
-18.55850454191272
 20
15.475539080651
 30
0.0
 11
-18.48851520325274
 21
15.40554974199102
 31
0.0
 11
-18.48920916561189
 21
15.41559671546059
 31
0.0
 11
-18.49126877539947
 21
15.42500093161277
 31
0.0
 11
-18.4938162130075
 21
15.43219231087971
 31
0.0
 11
-18.4969693347557
 21
15.4388984152369
 31
0.0
 11
-18.5003663514185
 21
15.44453716769465
 31
0.0
 11
-18.50441732313641
 21
15.44997003150104
 31
0.0
 11
-18.50902476728231
 21
15.45505141718712
 31
0.0
 11
-18.51410863984506
 21
15.45965696586808
 31
0.0
 11
-18.51954611234174
 21
15.46370737202153
 31
0.0
 11
-18.52519012982424
 21
15.46710344840465
 31
0.0
 11
-18.53189632984038
 21
15.47025225175963
 31
0.0
 11
-18.53908568985355
 21
15.47279476562749
 31
0.0
 11
-18.5484753215797
 21
15.47484747591681
 31
0.0
 11
-18.55850454191272
 21
15.475539080651
 31
0.0
  0
MTEXT
  5
81
330
2
100
AcDbEntity
  8
GAIKEI
  6
Continuous
 62
     1
100
AcDbMText
 10
-15.57086995843377
 20
16.97908004647013
 30
0.0
 40
0.3
 41
0.0
 71
     5
 72
     1
  1
-
  7
CONVERTER_5
 73
     1
 44
1.0
1001
ACAD
1000
MTEXTBEGIN
1070
    73
1070
     1
1070
    44
1040
1.0
1070
    74
1070
     0
1000
MTEXTEND
  0
MTEXT
  5
83
330
2
100
AcDbEntity
  8
GAIKEI
  6
Continuous
 62
     1
100
AcDbMText
 10
-14.20594121536175
 20
17.02883264582613
 30
0.0
 40
0.3
 41
0.0
 71
     5
 72
     1
  1
+
  7
CONVERTER_5
 73
     1
 44
1.0
1001
ACAD
1000
MTEXTBEGIN
1070
    73
1070
     1
1070
    44
1040
1.0
1070
    74
1070
     0
1000
MTEXTEND
  0
LINE
  5
84
330
2
100
AcDbEntity
  8
GAIKEI
  6
Continuous
 62
     1
100
AcDbLine
 10
38.44711080021852
 20
16.94152136915107
 30
0.0
 11
39.06711080021853
 21
16.94152136915107
 31
0.0
  0
LINE
  5
85
330
2
100
AcDbEntity
  8
GAIKEI
  6
Continuous
 62
     1
100
AcDbLine
 10
38.44711080021852
 20
17.18152136915097
 30
0.0
 11
38.91711080021849
 21
17.18152136915097
 31
0.0
  0
LINE
  5
86
330
2
100
AcDbEntity
  8
GAIKEI
  6
Continuous
 62
     1
100
AcDbLine
 10
38.76711080021852
 20
17.18152136915097
 30
0.0
 11
38.76711080021852
 21
17.78152136915099
 31
0.0
  0
LINE
  5
87
330
2
100
AcDbEntity
  8
GAIKEI
  6
Continuous
 62
     1
100
AcDbLine
 10
38.91711080021849
 20
17.18152136915097
 30
0.0
 11
38.91711080021849
 21
17.78152136915099
 31
0.0
  0
LINE
  5
88
330
2
100
AcDbEntity
  8
GAIKEI
  6
Continuous
 62
     1
100
AcDbLine
 10
38.44711080021852
 20
17.78152136915099
 30
0.0
 11
38.91711080021849
 21
17.78152136915099
 31
0.0
  0
LINE
  5
89
330
2
100
AcDbEntity
  8
GAIKEI
  6
Continuous
 62
     1
100
AcDbLine
 10
39.06711080021853
 20
16.94152136915107
 30
0.0
 11
39.06711080021853
 21
18.021521369151
 31
0.0
  0
LINE
  5
8A
330
2
100
AcDbEntity
  8
GAIKEI
  6
Continuous
 62
     1
100
AcDbLine
 10
38.44711080021852
 20
18.021521369151
 30
0.0
 11
39.06711080021853
 21
18.021521369151
 31
0.0
  0
LINE
  5
8B
330
2
100
AcDbEntity
  8
GAIKEI
  6
Continuous
 62
     1
100
AcDbLine
 10
31.93211080021854
 20
15.53152136915099
 30
0.0
 11
31.93211080021854
 21
15.64152136915106
 31
0.0
  0
LINE
  5
8C
330
2
100
AcDbEntity
  8
GAIKEI
  6
Continuous
 62
     1
100
AcDbLine
 10
31.89711080021851
 20
15.49652136915102
 30
0.0
 11
31.78711080021856
 21
15.49652136915102
 31
0.0
  0
LINE
  5
8D
330
2
100
AcDbEntity
  8
GAIKEI
  6
Continuous
 62
     1
100
AcDbLine
 10
32.00211080021853
 20
15.28152136915099
 30
0.0
 11
32.00211080021853
 21
15.39152136915106
 31
0.0
  0
LINE
  5
8E
330
2
100
AcDbEntity
  8
GAIKEI
  6
Continuous
 62
     1
100
AcDbLine
 10
32.14711080021852
 20
15.49652136915102
 30
0.0
 11
32.03711080021856
 21
15.49652136915102
 31
0.0
  0
LINE
  5
8F
330
2
100
AcDbEntity
  8
GAIKEI
  6
Continuous
 62
     1
100
AcDbLine
 10
32.14711080021852
 20
15.42652136915109
 30
0.0
 11
32.03711080021856
 21
15.42652136915109
 31
0.0
  0
LINE
  5
90
330
2
100
AcDbEntity
  8
GAIKEI
  6
Continuous
 62
     1
100
AcDbLine
 10
31.93211080021854
 20
15.28152136915099
 30
0.0
 11
31.93211080021854
 21
15.39152136915106
 31
0.0
  0
LINE
  5
91
330
2
100
AcDbEntity
  8
GAIKEI
  6
Continuous
 62
     1
100
AcDbLine
 10
32.00211080021853
 20
15.64152136915106
 30
0.0
 11
31.93211080021854
 21
15.64152136915106
 31
0.0
  0
LINE
  5
92
330
2
100
AcDbEntity
  8
GAIKEI
  6
Continuous
 62
     1
100
AcDbLine
 10
32.00211080021853
 20
15.28152136915099
 30
0.0
 11
31.93211080021854
 21
15.28152136915099
 31
0.0
  0
LINE
  5
93
330
2
100
AcDbEntity
  8
GAIKEI
  6
Continuous
 62
     1
100
AcDbLine
 10
32.14711080021852
 20
15.42652136915109
 30
0.0
 11
32.14711080021852
 21
15.49652136915102
 31
0.0
  0
LINE
  5
94
330
2
100
AcDbEntity
  8
GAIKEI
  6
Continuous
 62
     1
100
AcDbLine
 10
31.78711080021856
 20
15.42652136915109
 30
0.0
 11
31.78711080021856
 21
15.49652136915102
 31
0.0
  0
LINE
  5
95
330
2
100
AcDbEntity
  8
GAIKEI
  6
Continuous
 62
     1
100
AcDbLine
 10
32.00211080021853
 20
15.53152136915099
 30
0.0
 11
32.00211080021853
 21
15.64152136915106
 31
0.0
  0
LINE
  5
96
330
2
100
AcDbEntity
  8
GAIKEI
  6
Continuous
 62
     1
100
AcDbLine
 10
31.89711080021851
 20
15.42652136915109
 30
0.0
 11
31.78711080021856
 21
15.42652136915109
 31
0.0
  0
LINE
  5
97
330
2
100
AcDbEntity
  8
GAIKEI
  6
Continuous
 62
     1
100
AcDbLine
 10
13.43211080021848
 20
15.53152136915099
 30
0.0
 11
13.43211080021848
 21
15.64152136915106
 31
0.0
  0
LINE
  5
98
330
2
100
AcDbEntity
  8
GAIKEI
  6
Continuous
 62
     1
100
AcDbLine
 10
13.39711080021851
 20
15.49652136915102
 30
0.0
 11
13.2871108002185
 21
15.49652136915102
 31
0.0
  0
LINE
  5
99
330
2
100
AcDbEntity
  8
GAIKEI
  6
Continuous
 62
     1
100
AcDbLine
 10
13.50211080021853
 20
15.28152136915099
 30
0.0
 11
13.50211080021853
 21
15.39152136915106
 31
0.0
  0
LINE
  5
9A
330
2
100
AcDbEntity
  8
GAIKEI
  6
Continuous
 62
     1
100
AcDbLine
 10
13.64711080021851
 20
15.49652136915102
 30
0.0
 11
13.5371108002185
 21
15.49652136915102
 31
0.0
  0
LINE
  5
9B
330
2
100
AcDbEntity
  8
GAIKEI
  6
Continuous
 62
     1
100
AcDbLine
 10
13.64711080021851
 20
15.42652136915109
 30
0.0
 11
13.5371108002185
 21
15.42652136915109
 31
0.0
  0
LINE
  5
9C
330
2
100
AcDbEntity
  8
GAIKEI
  6
Continuous
 62
     1
100
AcDbLine
 10
13.43211080021848
 20
15.28152136915099
 30
0.0
 11
13.43211080021848
 21
15.39152136915106
 31
0.0
  0
LINE
  5
9D
330
2
100
AcDbEntity
  8
GAIKEI
  6
Continuous
 62
     1
100
AcDbLine
 10
13.50211080021853
 20
15.64152136915106
 30
0.0
 11
13.43211080021848
 21
15.64152136915106
 31
0.0
  0
LINE
  5
9E
330
2
100
AcDbEntity
  8
GAIKEI
  6
Continuous
 62
     1
100
AcDbLine
 10
13.50211080021853
 20
15.28152136915099
 30
0.0
 11
13.43211080021848
 21
15.28152136915099
 31
0.0
  0
LINE
  5
9F
330
2
100
AcDbEntity
  8
GAIKEI
  6
Continuous
 62
     1
100
AcDbLine
 10
13.64711080021851
 20
15.42652136915109
 30
0.0
 11
13.64711080021851
 21
15.49652136915102
 31
0.0
  0
LINE
  5
A0
330
2
100
AcDbEntity
  8
GAIKEI
  6
Continuous
 62
     1
100
AcDbLine
 10
13.2871108002185
 20
15.42652136915109
 30
0.0
 11
13.2871108002185
 21
15.49652136915102
 31
0.0
  0
LINE
  5
A1
330
2
100
AcDbEntity
  8
GAIKEI
  6
Continuous
 62
     1
100
AcDbLine
 10
13.50211080021853
 20
15.53152136915099
 30
0.0
 11
13.50211080021853
 21
15.64152136915106
 31
0.0
  0
LINE
  5
A2
330
2
100
AcDbEntity
  8
GAIKEI
  6
Continuous
 62
     1
100
AcDbLine
 10
13.39711080021851
 20
15.42652136915109
 30
0.0
 11
13.2871108002185
 21
15.42652136915109
 31
0.0
  0
LINE
  5
A3
330
2
100
AcDbEntity
  8
GAIKEI
  6
Continuous
 62
     1
100
AcDbLine
 10
38.99711080021854
 20
16.03652136915099
 30
0.0
 11
39.04711080021855
 21
15.98652136915098
 31
0.0
  0
LINE
  5
A4
330
2
100
AcDbEntity
  8
GAIKEI
  6
Continuous
 62
     1
100
AcDbLine
 10
39.04711080021855
 20
15.25652136915096
 30
0.0
 11
39.04711080021855
 21
15.98652136915098
 31
0.0
  0
LINE
  5
A5
330
2
100
AcDbEntity
  8
GAIKEI
  6
Continuous
 62
     1
100
AcDbLine
 10
38.99711080021854
 20
15.20652136915095
 30
0.0
 11
39.04711080021855
 21
15.25652136915096
 31
0.0
  0
LINE
  5
A6
330
2
100
AcDbEntity
  8
GAIKEI
  6
Continuous
 62
     1
100
AcDbLine
 10
8.287110800218499
 20
17.05690598456846
 30
0.0
 11
8.397725866608482
 21
17.66954327530101
 31
0.0
  0
LINE
  5
A7
330
2
100
AcDbEntity
  8
GAIKEI
  6
Continuous
 62
     1
100
AcDbLine
 10
8.197110800218524
 20
16.54400002997096
 30
0.0
 11
8.197110800218524
 21
15.57904270832097
 31
0.0
  0
LINE
  5
A8
330
2
100
AcDbEntity
  8
GAIKEI
  6
Continuous
 62
     1
100
AcDbLine
 10
8.287110800218499
 20
17.03322514767097
 30
0.0
 11
8.287110800218499
 21
17.05690598456846
 31
0.0
  0
LINE
  5
A9
330
2
100
AcDbEntity
  8
GAIKEI
  6
Continuous
 62
     1
100
AcDbLine
 10
8.377110800218531
 20
15.21718079953103
 30
0.0
 11
8.377110800218531
 21
14.771521369151
 31
0.0
  0
LINE
  5
AA
330
2
100
AcDbEntity
  8
GAIKEI
  6
Continuous
 62
     1
100
AcDbLine
 10
8.543620850548506
 20
18.41251042013107
 30
0.0
 11
8.543620850548506
 21
14.11053231817101
 31
0.0
  0
LINE
  5
AB
330
2
100
AcDbEntity
  8
GAIKEI
  6
Continuous
 62
     1
100
AcDbLine
 10
9.947110800218524
 20
14.06152136915096
 30
0.0
 11
9.947110800218524
 21
18.46152136915094
 31
0.0
  0
LINE
  5
AC
330
2
100
AcDbEntity
  8
GAIKEI
  6
Continuous
 62
     1
100
AcDbLine
 10
9.967110800218506
 20
14.26152136915095
 30
0.0
 11
9.967110800218506
 21
18.46152136915094
 31
0.0
  0
LINE
  5
AD
330
2
100
AcDbEntity
  8
GAIKEI
  6
Continuous
100
AcDbLine
 10
10.94711080021852
 20
14.16152136915099
 30
0.0
 11
10.94711080021852
 21
14.08152136915095
 31
0.0
  0
LINE
  5
AE
330
2
100
AcDbEntity
  8
GAIKEI
  6
Continuous
 62
     1
100
AcDbLine
 10
10.9671108002185
 20
14.16152136915099
 30
0.0
 11
10.9671108002185
 21
14.31152136915097
 31
0.0
  0
LINE
  5
AF
330
2
100
AcDbEntity
  8
GAIKEI
  6
Continuous
 62
     1
100
AcDbLine
 10
11.16711080021849
 20
14.16152136915099
 30
0.0
 11
11.16711080021849
 21
14.31152136915097
 31
0.0
  0
LINE
  5
B0
330
2
100
AcDbEntity
  8
GAIKEI
  6
Continuous
100
AcDbLine
 10
11.8421108002185
 20
14.16152136915099
 30
0.0
 11
11.8421108002185
 21
14.13152136915096
 31
0.0
  0
LINE
  5
B1
330
2
100
AcDbEntity
  8
GAIKEI
  6
Continuous
100
AcDbLine
 10
13.09211080021851
 20
14.16152136915099
 30
0.0
 11
13.09211080021851
 21
14.13152136915096
 31
0.0
  0
LINE
  5
B2
330
2
100
AcDbEntity
  8
GAIKEI
  6
Continuous
100
AcDbLine
 10
11.8421108002185
 20
14.13152136915096
 30
0.0
 11
11.95941849391852
 21
13.84998290427103
 31
0.0
  0
LINE
  5
B3
330
2
100
AcDbEntity
  8
GAIKEI
  6
Continuous
100
AcDbLine
 10
35.09211080021851
 20
14.13152136915096
 30
0.0
 11
34.97480310651849
 21
13.84998290427103
 31
0.0
  0
LINE
  5
B4
330
2
100
AcDbEntity
  8
GAIKEI
  6
Continuous
 62
     1
100
AcDbLine
 10
38.99711080021854
 20
16.60652136915098
 30
0.0
 11
39.04711080021855
 21
16.65652136915099
 31
0.0
  0
LINE
  5
B5
330
2
100
AcDbEntity
  8
GAIKEI
  6
Continuous
100
AcDbLine
 10
8.543620850548506
 20
14.11053231817101
 30
0.0
 11
9.947110800218524
 21
14.06152136915096
 31
0.0
  0
LINE
  5
B6
330
2
100
AcDbEntity
  8
GAIKEI
  6
Continuous
 62
     1
100
AcDbLine
 10
8.447110800218524
 20
14.21384160609244
 30
0.0
 11
9.947110800218524
 21
14.16146045185104
 31
0.0
  0
LINE
  5
B7
330
2
100
AcDbEntity
  8
GAIKEI
  6
Continuous
 62
     1
100
AcDbLine
 10
9.971235433768526
 20
14.24078863636094
 30
0.0
 11
9.947807940528491
 21
14.24160674245098
 31
0.0
  0
LINE
  5
B8
330
2
100
AcDbEntity
  8
GAIKEI
  6
Continuous
100
AcDbLine
 10
11.98711080827848
 20
13.83152136915095
 30
0.0
 11
12.94711079214852
 21
13.83152136915095
 31
0.0
  0
LINE
  5
B9
330
2
100
AcDbEntity
  8
GAIKEI
  6
Continuous
100
AcDbLine
 10
33.98711080827855
 20
13.83152136915095
 30
0.0
 11
34.94711079214852
 21
13.83152136915095
 31
0.0
  0
LINE
  5
BA
330
2
100
AcDbEntity
  8
GAIKEI
  6
Continuous
 62
     1
100
AcDbLine
 10
8.447110800218524
 20
15.165013446101
 30
0.0
 11
8.408505288598519
 21
15.16636158027097
 31
0.0
  0
LINE
  5
BB
330
2
100
AcDbEntity
  8
GAIKEI
  6
Continuous
 62
     1
100
AcDbLine
 10
8.293620850548506
 20
15.47910362562106
 30
0.0
 11
8.297283632608525
 21
15.47897571845095
 31
0.0
  0
LINE
  5
BC
330
2
100
AcDbEntity
  8
GAIKEI
  6
Continuous
100
AcDbLine
 10
36.76711080021852
 20
14.06152136915096
 30
0.0
 11
38.26711080021852
 21
14.06152136915096
 31
0.0
  0
LINE
  5
BD
330
2
100
AcDbEntity
  8
GAIKEI
  6
Continuous
100
AcDbLine
 10
9.947110800218524
 20
14.08152136915095
 30
0.0
 11
10.94711080021852
 21
14.08152136915095
 31
0.0
  0
LINE
  5
BE
330
2
100
AcDbEntity
  8
GAIKEI
  6
Continuous
100
AcDbLine
 10
10.06711080021853
 20
14.16152136915099
 30
0.0
 11
38.26711080021852
 21
14.16152136915099
 31
0.0
  0
LINE
  5
BF
330
2
100
AcDbEntity
  8
GAIKEI
  6
Continuous
 62
     1
100
AcDbLine
 10
38.26711080021852
 20
14.24152136915103
 30
0.0
 11
11.16711080021849
 21
14.24152136915103
 31
0.0
  0
LINE
  5
C0
330
2
100
AcDbEntity
  8
GAIKEI
  6
Continuous
 62
     1
100
AcDbLine
 10
11.16711080021849
 20
14.31152136915097
 30
0.0
 11
10.9671108002185
 21
14.31152136915097
 31
0.0
  0
LINE
  5
C1
330
2
100
AcDbEntity
  8
GAIKEI
  6
Continuous
100
AcDbLine
 10
38.26711080021852
 20
14.36152136915097
 30
0.0
 11
38.44711080021852
 21
14.36152136915097
 31
0.0
  0
LINE
  5
C2
330
2
100
AcDbEntity
  8
GAIKEI
  6
Continuous
 62
     1
100
AcDbLine
 10
8.447110800218524
 20
14.771521369151
 30
0.0
 11
8.377110800218531
 21
14.771521369151
 31
0.0
  0
LINE
  5
C3
330
2
100
AcDbEntity
  8
GAIKEI
  6
Continuous
 62
     1
100
AcDbLine
 10
38.56711080021853
 20
14.82152136915096
 30
0.0
 11
38.44711080021852
 21
14.82152136915096
 31
0.0
  0
LINE
  5
C4
330
2
100
AcDbEntity
  8
GAIKEI
  6
Continuous
 62
     1
100
AcDbLine
 10
38.56711080021853
 20
14.97152136915093
 30
0.0
 11
38.83711080021851
 21
14.97152136915093
 31
0.0
  0
LINE
  5
C5
330
2
100
AcDbEntity
  8
GAIKEI
  6
Continuous
 62
     1
100
AcDbLine
 10
11.96711080021851
 20
15.16152136915099
 30
0.0
 11
12.89048267047849
 21
15.16152136915099
 31
0.0
  0
LINE
  5
C6
330
2
100
AcDbEntity
  8
GAIKEI
  6
Continuous
 62
     1
100
AcDbLine
 10
14.04373892994852
 20
15.16152136915099
 30
0.0
 11
31.39048267048849
 21
15.16152136915099
 31
0.0
  0
LINE
  5
C7
330
2
100
AcDbEntity
  8
GAIKEI
  6
Continuous
 62
     1
100
AcDbLine
 10
32.54373892994852
 20
15.16152136915099
 30
0.0
 11
36.96711080021851
 21
15.16152136915099
 31
0.0
  0
LINE
  5
C8
330
2
100
AcDbEntity
  8
GAIKEI
  6
Continuous
 62
     1
100
AcDbLine
 10
38.85711080021849
 20
15.20652136915095
 30
0.0
 11
38.99711080021854
 21
15.20652136915095
 31
0.0
  0
LINE
  5
C9
330
2
100
AcDbEntity
  8
GAIKEI
  6
Continuous
 62
     1
100
AcDbLine
 10
38.85711080021849
 20
15.21055993745096
 30
0.0
 11
38.56711080021853
 21
15.21055993745096
 31
0.0
  0
LINE
  5
CA
330
2
100
AcDbEntity
  8
GAIKEI
  6
Continuous
 62
     1
100
AcDbLine
 10
38.56711080021853
 20
15.34046374801096
 30
0.0
 11
38.85711080021849
 21
15.34046374801096
 31
0.0
  0
LINE
  5
CB
330
2
100
AcDbEntity
  8
GAIKEI
  6
Continuous
 62
     1
100
AcDbLine
 10
38.51711080021852
 20
15.60027136915096
 30
0.0
 11
38.85711080021849
 21
15.60027136915096
 31
0.0
  0
LINE
  5
CC
330
2
100
AcDbEntity
  8
GAIKEI
  6
Continuous
 62
     1
100
AcDbLine
 10
38.51711080021852
 20
15.73017517972096
 30
0.0
 11
38.85711080021849
 21
15.73017517972096
 31
0.0
  0
LINE
  5
CD
330
2
100
AcDbEntity
  8
GAIKEI
  6
Continuous
 62
     1
100
AcDbLine
 10
36.96711080021851
 20
15.76152136915101
 30
0.0
 11
32.54373892994852
 21
15.76152136915101
 31
0.0
  0
LINE
  5
CE
330
2
100
AcDbEntity
  8
GAIKEI
  6
Continuous
 62
     1
100
AcDbLine
 10
31.39048267048849
 20
15.76152136915101
 30
0.0
 11
14.04373892994852
 21
15.76152136915095
 31
0.0
  0
LINE
  5
CF
330
2
100
AcDbEntity
  8
GAIKEI
  6
Continuous
 62
     1
100
AcDbLine
 10
12.89048267047849
 20
15.76152136915095
 30
0.0
 11
11.96711080021851
 21
15.76152136915095
 31
0.0
  0
LINE
  5
D0
330
2
100
AcDbEntity
  8
GAIKEI
  6
Continuous
 62
     1
100
AcDbLine
 10
38.51711080021852
 20
15.92152136915098
 30
0.0
 11
38.83711080021851
 21
15.92152136915098
 31
0.0
  0
LINE
  5
D1
330
2
100
AcDbEntity
  8
GAIKEI
  6
Continuous
 62
     1
100
AcDbLine
 10
38.51711080021852
 20
15.97152136915093
 30
0.0
 11
38.44711080021852
 21
15.97152136915093
 31
0.0
  0
LINE
  5
D2
330
2
100
AcDbEntity
  8
GAIKEI
  6
Continuous
 62
     1
100
AcDbLine
 10
38.44711080021852
 20
16.03652136915099
 30
0.0
 11
38.99711080021854
 21
16.03652136915099
 31
0.0
  0
LINE
  5
D3
330
2
100
AcDbEntity
  8
GAIKEI
  6
Continuous
 62
     1
100
AcDbLine
 10
38.44711080021852
 20
16.60652136915098
 30
0.0
 11
38.99711080021854
 21
16.60652136915098
 31
0.0
  0
LINE
  5
D4
330
2
100
AcDbEntity
  8
GAIKEI
  6
Continuous
 62
     1
100
AcDbLine
 10
38.36711080021848
 20
18.38152136915096
 30
0.0
 11
9.967110800218506
 21
18.38152136915096
 31
0.0
  0
LINE
  5
D5
330
2
100
AcDbEntity
  8
GAIKEI
  6
Continuous
100
AcDbLine
 10
38.36711080021848
 20
18.46152136915094
 30
0.0
 11
9.967110800218506
 21
18.46152136915094
 31
0.0
  0
LINE
  5
D6
330
2
100
AcDbEntity
  8
GAIKEI
  6
Continuous
 62
     1
100
AcDbLine
 10
8.408505288598519
 20
17.35668115803099
 30
0.0
 11
8.447110800218524
 21
17.35802929220097
 31
0.0
  0
LINE
  5
D7
330
2
100
AcDbEntity
  8
GAIKEI
  6
Continuous
 62
     1
100
AcDbLine
 10
8.447110800218524
 20
18.30920113220952
 30
0.0
 11
9.947110800218524
 21
18.36158228645098
 31
0.0
  0
LINE
  5
D8
330
2
100
AcDbEntity
  8
GAIKEI
  6
Continuous
100
AcDbLine
 10
8.543620850548506
 20
18.41251042013107
 30
0.0
 11
9.947110800218524
 21
18.46152136915094
 31
0.0
  0
LINE
  5
D9
330
2
100
AcDbEntity
  8
GAIKEI
  6
Continuous
100
AcDbLine
 10
33.84211080021851
 20
14.13152136915096
 30
0.0
 11
33.95941849391852
 21
13.84998290427103
 31
0.0
  0
LINE
  5
DA
330
2
100
AcDbEntity
  8
GAIKEI
  6
Continuous
 62
     1
100
AcDbLine
 10
38.51711080021852
 20
15.58485470248098
 30
0.0
 11
38.56711080021853
 21
15.55152136915097
 31
0.0
  0
LINE
  5
DB
330
2
100
AcDbEntity
  8
GAIKEI
  6
Continuous
100
AcDbLine
 10
13.09211080021851
 20
14.13152136915096
 30
0.0
 11
12.97480310651849
 21
13.84998290427103
 31
0.0
  0
LINE
  5
DC
330
2
100
AcDbEntity
  8
GAIKEI
  6
Continuous
100
AcDbLine
 10
33.84211080021851
 20
14.16152136915099
 30
0.0
 11
33.84211080021851
 21
14.13152136915096
 31
0.0
  0
LINE
  5
DD
330
2
100
AcDbEntity
  8
GAIKEI
  6
Continuous
100
AcDbLine
 10
35.09211080021851
 20
14.16152136915099
 30
0.0
 11
35.09211080021851
 21
14.13152136915096
 31
0.0
  0
LINE
  5
DE
330
2
100
AcDbEntity
  8
GAIKEI
  6
Continuous
100
AcDbLine
 10
36.76711080021852
 20
14.06152136915096
 30
0.0
 11
36.76711080021852
 21
14.16152136915099
 31
0.0
  0
LINE
  5
DF
330
2
100
AcDbEntity
  8
GAIKEI
  6
Continuous
100
AcDbLine
 10
38.26711080021852
 20
14.36152136915097
 30
0.0
 11
38.26711080021852
 21
14.16152136915099
 31
0.0
  0
LINE
  5
E0
330
2
100
AcDbEntity
  8
GAIKEI
  6
Continuous
 62
     1
100
AcDbLine
 10
38.36711080021848
 20
14.16152136915099
 30
0.0
 11
38.36711080021848
 21
18.46152136915094
 31
0.0
  0
LINE
  5
E1
330
2
100
AcDbEntity
  8
GAIKEI
  6
Continuous
100
AcDbLine
 10
38.44711080021852
 20
14.36152136915097
 30
0.0
 11
38.44711080021852
 21
18.38152136915096
 31
0.0
  0
LINE
  5
E2
330
2
100
AcDbEntity
  8
GAIKEI
  6
Continuous
 62
     1
100
AcDbLine
 10
38.51711080021852
 20
14.82152136915096
 30
0.0
 11
38.51711080021852
 21
15.97152136915093
 31
0.0
  0
LINE
  5
E3
330
2
100
AcDbEntity
  8
GAIKEI
  6
Continuous
 62
     1
100
AcDbLine
 10
38.56711080021853
 20
15.55152136915097
 30
0.0
 11
38.56711080021853
 21
14.82152136915096
 31
0.0
  0
LINE
  5
E4
330
2
100
AcDbEntity
  8
GAIKEI
  6
Continuous
 62
     1
100
AcDbLine
 10
38.85711080021849
 20
14.99152136915103
 30
0.0
 11
38.85711080021849
 21
15.21055993745096
 31
0.0
  0
LINE
  5
E5
330
2
100
AcDbEntity
  8
GAIKEI
  6
Continuous
 62
     1
100
AcDbLine
 10
38.85711080021849
 20
15.73017517972096
 30
0.0
 11
38.85711080021849
 21
15.901521369151
 31
0.0
  0
LINE
  5
E6
330
2
100
AcDbEntity
  8
GAIKEI
  6
Continuous
 62
     1
100
AcDbLine
 10
39.04711080021855
 20
16.65655040380108
 30
0.0
 11
39.04711080021855
 21
16.94152136915107
 31
0.0
  0
LINE
  5
E7
330
2
100
AcDbEntity
  8
GAIKEI
  6
Continuous
 62
     1
100
AcDbLine
 10
38.85711080021849
 20
15.21055993745096
 30
0.0
 11
38.85711080021849
 21
15.73017517972096
 31
0.0
  0
LINE
  5
E8
330
2
100
AcDbEntity
  8
GAIKEI
  6
Continuous
 62
     1
100
AcDbLine
 10
9.947808790148485
 20
14.26161890366103
 30
0.0
 11
9.947627219878484
 21
14.25544113716097
 31
0.0
  0
LINE
  5
E9
330
2
100
AcDbEntity
  8
GAIKEI
  6
Continuous
 62
     1
100
AcDbLine
 10
9.947627219878484
 20
14.25544113716097
 30
0.0
 11
9.947531663908534
 21
14.24986571046094
 31
0.0
  0
LINE
  5
EA
330
2
100
AcDbEntity
  8
GAIKEI
  6
Continuous
100
AcDbLine
 10
8.447110800218524
 20
18.31257133743094
 30
0.0
 11
8.447110800218524
 21
14.21047140087097
 31
0.0
  0
ARC
  5
EB
330
2
100
AcDbEntity
  8
GAIKEI
  6
Continuous
 62
     1
100
AcDbCircle
 10
32.0371108002185
 20
15.39152136915106
 30
0.0
 40
0.035
100
AcDbArc
 50
90.00000000000003
 51
180.0
  0
ARC
  5
EC
330
2
100
AcDbEntity
  8
GAIKEI
  6
Continuous
 62
     1
100
AcDbCircle
 10
32.0371108002185
 20
15.53152136915099
 30
0.0
 40
0.035
100
AcDbArc
 50
180.0
 51
270.0
  0
ARC
  5
ED
330
2
100
AcDbEntity
  8
GAIKEI
  6
Continuous
 62
     1
100
AcDbCircle
 10
31.89711080021851
 20
15.53152136915099
 30
0.0
 40
0.035
100
AcDbArc
 50
270.0
 51
0.0
  0
ARC
  5
EE
330
2
100
AcDbEntity
  8
GAIKEI
  6
Continuous
 62
     1
100
AcDbCircle
 10
31.89711080021851
 20
15.39152136915106
 30
0.0
 40
0.035
100
AcDbArc
 50
0.0
 51
90.00000000000003
  0
ARC
  5
EF
330
2
100
AcDbEntity
  8
GAIKEI
  6
Continuous
 62
     1
100
AcDbCircle
 10
13.5371108002185
 20
15.39152136915106
 30
0.0
 40
0.035
100
AcDbArc
 50
90.00000000000003
 51
180.0
  0
ARC
  5
F0
330
2
100
AcDbEntity
  8
GAIKEI
  6
Continuous
 62
     1
100
AcDbCircle
 10
13.5371108002185
 20
15.53152136915099
 30
0.0
 40
0.035
100
AcDbArc
 50
180.0
 51
270.0
  0
ARC
  5
F1
330
2
100
AcDbEntity
  8
GAIKEI
  6
Continuous
 62
     1
100
AcDbCircle
 10
13.39711080021851
 20
15.53152136915099
 30
0.0
 40
0.035
100
AcDbArc
 50
270.0
 51
0.0
  0
ARC
  5
F2
330
2
100
AcDbEntity
  8
GAIKEI
  6
Continuous
 62
     1
100
AcDbCircle
 10
13.39711080021851
 20
15.39152136915106
 30
0.0
 40
0.035
100
AcDbArc
 50
0.0
 51
90.00000000000003
  0
ARC
  5
F3
330
2
100
AcDbEntity
  8
GAIKEI
  6
Continuous
100
AcDbCircle
 10
12.94711080021852
 20
13.86152136915098
 30
0.0
 40
0.03
100
AcDbArc
 50
270.0
 51
337.3801281364034
  0
ARC
  5
F4
330
2
100
AcDbEntity
  8
GAIKEI
  6
Continuous
100
AcDbCircle
 10
11.98711080021849
 20
13.86152136915098
 30
0.0
 40
0.03
100
AcDbArc
 50
202.6198718636039
 51
270.0
  0
ARC
  5
F5
330
2
100
AcDbEntity
  8
GAIKEI
  6
Continuous
100
AcDbCircle
 10
34.94711080021853
 20
13.86152136915098
 30
0.0
 40
0.03
100
AcDbArc
 50
270.0
 51
337.3801281364064
  0
ARC
  5
F6
330
2
100
AcDbEntity
  8
GAIKEI
  6
Continuous
100
AcDbCircle
 10
33.98711080021849
 20
13.86152136915098
 30
0.0
 40
0.03
100
AcDbArc
 50
202.6198718635936
 51
270.0
  0
ARC
  5
F7
330
2
100
AcDbEntity
  8
GAIKEI
  6
Continuous
 62
     1
100
AcDbCircle
 10
8.29711080021849
 20
15.57904270832097
 30
0.0
 40
0.1
100
AcDbArc
 50
180.0
 51
268.0000000000289
  0
ARC
  5
F8
330
2
100
AcDbEntity
  8
GAIKEI
  6
Continuous
 62
     1
100
AcDbCircle
 10
8.29711080021849
 20
16.54400002997096
 30
0.0
 40
0.1
100
AcDbArc
 50
142.3525381157888
 51
180.0
  0
ARC
  5
F9
330
2
100
AcDbEntity
  8
GAIKEI
  6
Continuous
 62
     1
100
AcDbCircle
 10
8.446930259658529
 20
17.66065914878106
 30
0.0
 40
0.05
100
AcDbArc
 50
91.99999999997107
 51
169.7651972366128
  0
ARC
  5
FA
330
2
100
AcDbEntity
  8
GAIKEI
  6
Continuous
 62
     1
100
AcDbCircle
 10
8.409203278528536
 20
17.33669334149107
 30
0.0
 40
0.02
100
AcDbArc
 50
92.00000000014055
 51
159.7405881739244
  0
ARC
  5
FB
330
2
100
AcDbEntity
  8
GAIKEI
  6
Continuous
 62
     1
100
AcDbCircle
 10
8.409203278878521
 20
15.18634939549093
 30
0.0
 40
0.02
100
AcDbArc
 50
200.2594079438971
 51
267.9999988736124
  0
ARC
  5
FC
330
2
100
AcDbEntity
  8
GAIKEI
  6
Continuous
 62
     1
100
AcDbCircle
 10
11.32211080021852
 20
16.26152136915095
 30
0.0
 40
3.125
100
AcDbArc
 50
159.7405881740006
 51
200.2594118259994
  0
ARC
  5
FD
330
2
100
AcDbEntity
  8
GAIKEI
  6
Continuous
 62
     1
100
AcDbCircle
 10
38.83711080021851
 20
15.901521369151
 30
0.0
 40
0.02
100
AcDbArc
 50
0.0
 51
90.00000000000003
  0
ARC
  5
FE
330
2
100
AcDbEntity
  8
GAIKEI
  6
Continuous
 62
     1
100
AcDbCircle
 10
38.83711080021851
 20
14.99152136915103
 30
0.0
 40
0.02
100
AcDbArc
 50
270.0
 51
0.0
  0
ARC
  5
FF
330
2
100
AcDbEntity
  8
GAIKEI
  6
Continuous
100
AcDbCircle
 10
38.26711080021852
 20
14.16152136915099
 30
0.0
 40
0.1
100
AcDbArc
 50
270.0
 51
0.0
  0
ARC
  5
100
330
2
100
AcDbEntity
  8
GAIKEI
  6
Continuous
100
AcDbCircle
 10
8.54711080021849
 20
18.31257133743094
 30
0.0
 40
0.1
100
AcDbArc
 50
91.99999999997107
 51
180.0
  0
ARC
  5
101
330
2
100
AcDbEntity
  8
GAIKEI
  6
Continuous
100
AcDbCircle
 10
8.54711080021849
 20
14.21047140087097
 30
0.0
 40
0.1
100
AcDbArc
 50
180.0
 51
268.0000000000289
  0
ARC
  5
102
330
2
100
AcDbEntity
  8
GAIKEI
  6
Continuous
100
AcDbCircle
 10
38.36711080021848
 20
18.38152136915096
 30
0.0
 40
0.08
100
AcDbArc
 50
0.0
 51
90.00000000000003
  0
ARC
  5
103
330
2
100
AcDbEntity
  8
GAIKEI
  6
Continuous
 62
     1
100
AcDbCircle
 10
10.06711080021853
 20
14.26152136915095
 30
0.0
 40
0.1
100
AcDbArc
 50
180.0
 51
270.0
  0
ARC
  5
104
330
2
100
AcDbEntity
  8
GAIKEI
  6
Continuous
 62
     1
100
AcDbCircle
 10
11.96711080021851
 20
15.46152136915094
 30
0.0
 40
0.3
100
AcDbArc
 50
90.00000000000003
 51
270.0
  0
ARC
  5
105
330
2
100
AcDbEntity
  8
GAIKEI
  6
Continuous
 62
     1
100
AcDbCircle
 10
13.4671108002185
 20
15.46152136915094
 30
0.0
 40
0.65
100
AcDbArc
 50
207.4864262504025
 51
332.5135737496005
  0
ARC
  5
106
330
2
100
AcDbEntity
  8
GAIKEI
  6
Continuous
 62
     1
100
AcDbCircle
 10
31.96711080021851
 20
15.46152136915094
 30
0.0
 40
0.65
100
AcDbArc
 50
207.4864262504025
 51
332.5135737494985
  0
ARC
  5
107
330
2
100
AcDbEntity
  8
GAIKEI
  6
Continuous
 62
     1
100
AcDbCircle
 10
36.96711080021851
 20
15.46152136915094
 30
0.0
 40
0.3
100
AcDbArc
 50
270.0
 51
90.00000000000003
  0
ARC
  5
108
330
2
100
AcDbEntity
  8
GAIKEI
  6
Continuous
 62
     1
100
AcDbCircle
 10
31.96711080021851
 20
15.46152136915094
 30
0.0
 40
0.65
100
AcDbArc
 50
27.48642625040242
 51
152.5135737494985
  0
ARC
  5
109
330
2
100
AcDbEntity
  8
GAIKEI
  6
Continuous
 62
     1
100
AcDbCircle
 10
13.4671108002185
 20
15.46152136915094
 30
0.0
 40
0.65
100
AcDbArc
 50
27.48642625040242
 51
152.5135737495976
  0
CIRCLE
  5
10A
330
2
100
AcDbEntity
  8
GAIKEI
  6
Continuous
 62
     1
100
AcDbCircle
 10
31.96711080021851
 20
15.46152136915094
 30
0.0
 40
0.315
  0
CIRCLE
  5
10B
330
2
100
AcDbEntity
  8
GAIKEI
  6
Continuous
 62
     1
100
AcDbCircle
 10
13.4671108002185
 20
15.46152136915094
 30
0.0
 40
0.315
  0
SPLINE
  5
10C
330
2
100
AcDbEntity
  8
GAIKEI
  6
Continuous
 62
     1
100
AcDbSpline
210
0.0
220
0.0
230
1.0
 70
     8
 71
     3
 72
    11
 73
     7
 74
     5
 42
0.0000000001
 43
0.0000000001
 44
0.00000000001
 40
0.0
 40
0.0
 40
0.0
 40
0.0
 40
0.0063318920395779
 40
0.0126533081382795
 40
0.0189223851399306
 40
0.0251810030505784
 40
0.0251810030505784
 40
0.0251810030505784
 40
0.0251810030505784
 10
8.286761746148499
 20
17.0080471718511
 30
0.0
 10
8.286776208046433
 20
17.01015775626263
 30
0.0
 10
8.286805107915427
 20
17.01437543318184
 30
0.0
 10
8.286881202345568
 20
17.02068245833141
 30
0.0
 10
8.286979237806974
 20
17.0269647545573
 30
0.0
 10
8.287066970109862
 20
17.03113973813308
 30
0.0
 10
8.287110799638469
 20
17.03322548712106
 30
0.0
 11
8.286761746148499
 21
17.0080471718511
 31
0.0
 11
8.286810636974394
 21
17.014378875136
 31
0.0
 11
8.286885156908283
 21
17.02069985198079
 31
0.0
 11
8.286984945368203
 21
17.02696813473733
 31
0.0
 11
8.287110799638469
 21
17.03322548712106
 31
0.0
  0
MTEXT
  5
10D
330
2
100
AcDbEntity
  8
GAIKEI
  6
Continuous
 62
     1
100
AcDbMText
 10
-16.00594136886269
 20
17.02883264582613
 30
0.0
 40
0.3
 41
0.0
 71
     5
 72
     1
  1
+
  7
CONVERTER_5
 73
     1
 44
1.0
1001
ACAD
1000
MTEXTBEGIN
1070
    73
1070
     1
1070
    44
1040
1.0
1070
    74
1070
     0
1000
MTEXTEND
  0
MTEXT
  5
10E
330
2
100
AcDbEntity
  8
GAIKEI
  6
Continuous
 62
     1
100
AcDbMText
 10
-17.37087011193472
 20
16.97908004647013
 30
0.0
 40
0.3
 41
0.0
 71
     5
 72
     1
  1
-
  7
CONVERTER_5
 73
     1
 44
1.0
1001
ACAD
1000
MTEXTBEGIN
1070
    73
1070
     1
1070
    44
1040
1.0
1070
    74
1070
     0
1000
MTEXTEND
  0
CIRCLE
  5
10F
330
2
100
AcDbEntity
  8
GAIKEI
  6
Continuous
 62
     1
100
AcDbCircle
 10
-16.68840582149369
 20
17.21152136915094
 30
0.0
 40
0.41373019237
  0
CIRCLE
  5
110
330
2
100
AcDbEntity
  8
GAIKEI
  6
Continuous
 62
     1
100
AcDbCircle
 10
-16.68840582149369
 20
17.21152136915094
 30
0.0
 40
0.3400000000000001
  0
CIRCLE
  5
111
330
2
100
AcDbEntity
  8
GAIKEI
  6
Continuous
 62
     1
100
AcDbCircle
 10
-16.17997723521472
 20
17.21152136915094
 30
0.0
 40
0.01661954485
  0
CIRCLE
  5
112
330
2
100
AcDbEntity
  8
GAIKEI
  6
Continuous
 62
     1
100
AcDbCircle
 10
-16.24809373890173
 20
17.46573562174296
 30
0.0
 40
0.01661954485
  0
CIRCLE
  5
113
330
2
100
AcDbEntity
  8
GAIKEI
  6
Continuous
 62
     1
100
AcDbCircle
 10
-16.43419148780668
 20
17.65183337064792
 30
0.0
 40
0.01661954485
  0
CIRCLE
  5
114
330
2
100
AcDbEntity
  8
GAIKEI
  6
Continuous
 62
     1
100
AcDbCircle
 10
-16.68840574039871
 20
17.7199498743351
 30
0.0
 40
0.01661954485
  0
CIRCLE
  5
115
330
2
100
AcDbEntity
  8
GAIKEI
  6
Continuous
 62
     1
100
AcDbCircle
 10
-16.94261999299073
 20
17.65183337064792
 30
0.0
 40
0.01661954485
  0
CIRCLE
  5
116
330
2
100
AcDbEntity
  8
GAIKEI
  6
Continuous
 62
     1
100
AcDbCircle
 10
-17.12871774189671
 20
17.46573562174296
 30
0.0
 40
0.016619544851
  0
CIRCLE
  5
117
330
2
100
AcDbEntity
  8
GAIKEI
  6
Continuous
 62
     1
100
AcDbCircle
 10
-17.19683424558269
 20
17.21152136915094
 30
0.0
 40
0.01661954485
  0
CIRCLE
  5
118
330
2
100
AcDbEntity
  8
GAIKEI
  6
Continuous
 62
     1
100
AcDbCircle
 10
-17.12871774189671
 20
16.95730711655909
 30
0.0
 40
0.016619544851
  0
CIRCLE
  5
119
330
2
100
AcDbEntity
  8
GAIKEI
  6
Continuous
 62
     1
100
AcDbCircle
 10
-16.94261999299073
 20
16.77120936765305
 30
0.0
 40
0.01661954485
  0
CIRCLE
  5
11A
330
2
100
AcDbEntity
  8
GAIKEI
  6
Continuous
 62
     1
100
AcDbCircle
 10
-16.43419148780668
 20
16.77120936765305
 30
0.0
 40
0.01661954485
  0
CIRCLE
  5
11B
330
2
100
AcDbEntity
  8
GAIKEI
  6
Continuous
 62
     1
100
AcDbCircle
 10
-16.24809373890173
 20
16.95730711655909
 30
0.0
 40
0.01661954485
  0
ARC
  5
11C
330
2
100
AcDbEntity
  8
GAIKEI
  6
Continuous
 62
     1
100
AcDbCircle
 10
-16.68840582149369
 20
17.21152136915094
 30
0.0
 40
0.27341768832
100
AcDbArc
 50
105.0507785109322
 51
74.94922148690178
  0
MTEXT
  5
11D
330
2
100
AcDbEntity
  8
GAIKEI
  6
Continuous
 62
     1
100
AcDbMText
 10
-14.20594121536175
 20
15.62883258569616
 30
0.0
 40
0.3
 41
0.0
 71
     5
 72
     1
  1
+
  7
CONVERTER_5
 73
     1
 44
1.0
1001
ACAD
1000
MTEXTBEGIN
1070
    73
1070
     1
1070
    44
1040
1.0
1070
    74
1070
     0
1000
MTEXTEND
  0
MTEXT
  5
11E
330
2
100
AcDbEntity
  8
GAIKEI
  6
Continuous
 62
     1
100
AcDbMText
 10
-15.57086995843377
 20
15.57907998634016
 30
0.0
 40
0.3
 41
0.0
 71
     5
 72
     1
  1
-
  7
CONVERTER_5
 73
     1
 44
1.0
1001
ACAD
1000
MTEXTBEGIN
1070
    73
1070
     1
1070
    44
1040
1.0
1070
    74
1070
     0
1000
MTEXTEND
  0
CIRCLE
  5
11F
330
2
100
AcDbEntity
  8
GAIKEI
  6
Continuous
 62
     1
100
AcDbCircle
 10
-14.88840566799274
 20
15.81152130902097
 30
0.0
 40
0.41373019237
  0
CIRCLE
  5
120
330
2
100
AcDbEntity
  8
GAIKEI
  6
Continuous
 62
     1
100
AcDbCircle
 10
-14.88840566799274
 20
15.81152130902097
 30
0.0
 40
0.3400000000000001
  0
CIRCLE
  5
121
330
2
100
AcDbEntity
  8
GAIKEI
  6
Continuous
 62
     1
100
AcDbCircle
 10
-14.37997708171377
 20
15.81152130902097
 30
0.0
 40
0.01661954485
  0
CIRCLE
  5
122
330
2
100
AcDbEntity
  8
GAIKEI
  6
Continuous
 62
     1
100
AcDbCircle
 10
-14.44809358540078
 20
16.06573556161299
 30
0.0
 40
0.01661954485
  0
CIRCLE
  5
123
330
2
100
AcDbEntity
  8
GAIKEI
  6
Continuous
 62
     1
100
AcDbCircle
 10
-14.63419133430574
 20
16.25183331051795
 30
0.0
 40
0.01661954485
  0
CIRCLE
  5
124
330
2
100
AcDbEntity
  8
GAIKEI
  6
Continuous
 62
     1
100
AcDbCircle
 10
-14.88840558689776
 20
16.31994981420513
 30
0.0
 40
0.01661954485
  0
CIRCLE
  5
125
330
2
100
AcDbEntity
  8
GAIKEI
  6
Continuous
 62
     1
100
AcDbCircle
 10
-15.14261983948978
 20
16.25183331051795
 30
0.0
 40
0.01661954485
  0
CIRCLE
  5
126
330
2
100
AcDbEntity
  8
GAIKEI
  6
Continuous
 62
     1
100
AcDbCircle
 10
-15.32871758839576
 20
16.06573556161299
 30
0.0
 40
0.016619544851
  0
CIRCLE
  5
127
330
2
100
AcDbEntity
  8
GAIKEI
  6
Continuous
 62
     1
100
AcDbCircle
 10
-15.39683409208175
 20
15.81152130902097
 30
0.0
 40
0.01661954485
  0
CIRCLE
  5
128
330
2
100
AcDbEntity
  8
GAIKEI
  6
Continuous
 62
     1
100
AcDbCircle
 10
-15.32871758839576
 20
15.55730705642912
 30
0.0
 40
0.016619544851
  0
CIRCLE
  5
129
330
2
100
AcDbEntity
  8
GAIKEI
  6
Continuous
 62
     1
100
AcDbCircle
 10
-15.14261983948978
 20
15.37120930752309
 30
0.0
 40
0.01661954485
  0
CIRCLE
  5
12A
330
2
100
AcDbEntity
  8
GAIKEI
  6
Continuous
 62
     1
100
AcDbCircle
 10
-14.63419133430574
 20
15.37120930752309
 30
0.0
 40
0.01661954485
  0
CIRCLE
  5
12B
330
2
100
AcDbEntity
  8
GAIKEI
  6
Continuous
 62
     1
100
AcDbCircle
 10
-14.44809358540078
 20
15.55730705642912
 30
0.0
 40
0.01661954485
  0
MTEXT
  5
12C
330
2
100
AcDbEntity
  8
GAIKEI
  6
Continuous
 62
     1
100
AcDbMText
 10
-16.00594136886269
 20
15.62883258569616
 30
0.0
 40
0.3
 41
0.0
 71
     5
 72
     1
  1
+
  7
CONVERTER_5
 73
     1
 44
1.0
1001
ACAD
1000
MTEXTBEGIN
1070
    73
1070
     1
1070
    44
1040
1.0
1070
    74
1070
     0
1000
MTEXTEND
  0
MTEXT
  5
12D
330
2
100
AcDbEntity
  8
GAIKEI
  6
Continuous
 62
     1
100
AcDbMText
 10
-17.37087011193472
 20
15.57907998634016
 30
0.0
 40
0.3
 41
0.0
 71
     5
 72
     1
  1
-
  7
CONVERTER_5
 73
     1
 44
1.0
1001
ACAD
1000
MTEXTBEGIN
1070
    73
1070
     1
1070
    44
1040
1.0
1070
    74
1070
     0
1000
MTEXTEND
  0
CIRCLE
  5
12E
330
2
100
AcDbEntity
  8
GAIKEI
  6
Continuous
 62
     1
100
AcDbCircle
 10
-16.68840582149369
 20
15.81152130902097
 30
0.0
 40
0.41373019237
  0
CIRCLE
  5
12F
330
2
100
AcDbEntity
  8
GAIKEI
  6
Continuous
 62
     1
100
AcDbCircle
 10
-16.68840582149369
 20
15.81152130902097
 30
0.0
 40
0.3400000000000001
  0
CIRCLE
  5
130
330
2
100
AcDbEntity
  8
GAIKEI
  6
Continuous
 62
     1
100
AcDbCircle
 10
-16.17997723521472
 20
15.81152130902097
 30
0.0
 40
0.01661954485
  0
CIRCLE
  5
131
330
2
100
AcDbEntity
  8
GAIKEI
  6
Continuous
 62
     1
100
AcDbCircle
 10
-16.24809373890173
 20
16.06573556161299
 30
0.0
 40
0.01661954485
  0
CIRCLE
  5
132
330
2
100
AcDbEntity
  8
GAIKEI
  6
Continuous
 62
     1
100
AcDbCircle
 10
-16.43419148780668
 20
16.25183331051795
 30
0.0
 40
0.01661954485
  0
CIRCLE
  5
133
330
2
100
AcDbEntity
  8
GAIKEI
  6
Continuous
 62
     1
100
AcDbCircle
 10
-16.68840574039871
 20
16.31994981420513
 30
0.0
 40
0.01661954485
  0
CIRCLE
  5
134
330
2
100
AcDbEntity
  8
GAIKEI
  6
Continuous
 62
     1
100
AcDbCircle
 10
-16.94261999299073
 20
16.25183331051795
 30
0.0
 40
0.01661954485
  0
CIRCLE
  5
135
330
2
100
AcDbEntity
  8
GAIKEI
  6
Continuous
 62
     1
100
AcDbCircle
 10
-17.12871774189671
 20
16.06573556161299
 30
0.0
 40
0.016619544851
  0
CIRCLE
  5
136
330
2
100
AcDbEntity
  8
GAIKEI
  6
Continuous
 62
     1
100
AcDbCircle
 10
-17.19683424558269
 20
15.81152130902097
 30
0.0
 40
0.01661954485
  0
CIRCLE
  5
137
330
2
100
AcDbEntity
  8
GAIKEI
  6
Continuous
 62
     1
100
AcDbCircle
 10
-17.12871774189671
 20
15.55730705642912
 30
0.0
 40
0.016619544851
  0
CIRCLE
  5
138
330
2
100
AcDbEntity
  8
GAIKEI
  6
Continuous
 62
     1
100
AcDbCircle
 10
-16.94261999299073
 20
15.37120930752309
 30
0.0
 40
0.01661954485
  0
CIRCLE
  5
139
330
2
100
AcDbEntity
  8
GAIKEI
  6
Continuous
 62
     1
100
AcDbCircle
 10
-16.43419148780668
 20
15.37120930752309
 30
0.0
 40
0.01661954485
  0
CIRCLE
  5
13A
330
2
100
AcDbEntity
  8
GAIKEI
  6
Continuous
 62
     1
100
AcDbCircle
 10
-16.24809373890173
 20
15.55730705642912
 30
0.0
 40
0.01661954485
  0
LINE
  5
13B
330
2
100
AcDbEntity
  8
GAIKEI
  6
Continuous
 62
     1
100
AcDbLine
 10
-19.2753617001228
 20
17.77456533702099
 30
0.0
 11
-19.2753617001228
 21
16.94847740128096
 31
0.0
  0
LINE
  5
13C
330
2
100
AcDbEntity
  8
GAIKEI
  6
Continuous
 62
     1
100
AcDbLine
 10
-19.33050091416277
 20
17.00361661532094
 30
0.0
 11
-19.33050091416277
 21
17.71942612298096
 31
0.0
  0
LINE
  5
13D
330
2
100
AcDbEntity
  8
GAIKEI
  6
Continuous
 62
     1
100
AcDbLine
 10
-20.0463104218228
 20
17.00361661532094
 30
0.0
 11
-20.0463104218228
 21
17.71942612298096
 31
0.0
  0
LINE
  5
13E
330
2
100
AcDbEntity
  8
GAIKEI
  6
Continuous
 62
     1
100
AcDbLine
 10
-20.10144963586276
 20
16.94847740128096
 30
0.0
 11
-20.10144963586276
 21
17.77456533702099
 31
0.0
  0
LINE
  5
13F
330
2
100
AcDbEntity
  8
GAIKEI
  6
Continuous
 62
     1
100
AcDbLine
 10
-20.10144963586276
 20
17.77456533702099
 30
0.0
 11
-19.2753617001228
 21
17.77456533702099
 31
0.0
  0
LINE
  5
140
330
2
100
AcDbEntity
  8
GAIKEI
  6
Continuous
 62
     1
100
AcDbLine
 10
-19.33050091416277
 20
17.71942612298096
 30
0.0
 11
-20.0463104218228
 21
17.71942612298096
 31
0.0
  0
LINE
  5
141
330
2
100
AcDbEntity
  8
GAIKEI
  6
Continuous
 62
     1
100
AcDbLine
 10
-20.0463104218228
 20
17.00361661532094
 30
0.0
 11
-19.33050091416277
 21
17.00361661532094
 31
0.0
  0
LINE
  5
142
330
2
100
AcDbEntity
  8
GAIKEI
  6
Continuous
 62
     1
100
AcDbLine
 10
-19.2753617001228
 20
16.94847740128096
 30
0.0
 11
-20.10144963586276
 21
16.94847740128096
 31
0.0
  0
LINE
  5
143
330
2
100
AcDbEntity
  8
GAIKEI
  6
Continuous
 62
     1
100
AcDbLine
 10
-20.57536170012281
 20
16.94847740128096
 30
0.0
 11
-21.40144963586278
 21
16.94847740128096
 31
0.0
  0
LINE
  5
144
330
2
100
AcDbEntity
  8
GAIKEI
  6
Continuous
 62
     1
100
AcDbLine
 10
-21.34631042182281
 20
17.00361661532094
 30
0.0
 11
-20.63050091416278
 21
17.00361661532094
 31
0.0
  0
LINE
  5
145
330
2
100
AcDbEntity
  8
GAIKEI
  6
Continuous
 62
     1
100
AcDbLine
 10
-20.63050091416278
 20
17.71942612298096
 30
0.0
 11
-21.34631042182281
 21
17.71942612298096
 31
0.0
  0
LINE
  5
146
330
2
100
AcDbEntity
  8
GAIKEI
  6
Continuous
 62
     1
100
AcDbLine
 10
-21.40144963586278
 20
17.77456533702099
 30
0.0
 11
-20.57536170012281
 21
17.77456533702099
 31
0.0
  0
LINE
  5
147
330
2
100
AcDbEntity
  8
GAIKEI
  6
Continuous
 62
     1
100
AcDbLine
 10
-21.40144963586278
 20
16.94847740128096
 30
0.0
 11
-21.40144963586278
 21
17.77456533702099
 31
0.0
  0
LINE
  5
148
330
2
100
AcDbEntity
  8
GAIKEI
  6
Continuous
 62
     1
100
AcDbLine
 10
-21.34631042182281
 20
17.00361661532094
 30
0.0
 11
-21.34631042182281
 21
17.71942612298096
 31
0.0
  0
LINE
  5
149
330
2
100
AcDbEntity
  8
GAIKEI
  6
Continuous
 62
     1
100
AcDbLine
 10
-20.63050091416278
 20
17.00361661532094
 30
0.0
 11
-20.63050091416278
 21
17.71942612298096
 31
0.0
  0
LINE
  5
14A
330
2
100
AcDbEntity
  8
GAIKEI
  6
Continuous
 62
     1
100
AcDbLine
 10
-20.57536170012281
 20
17.77456533702099
 30
0.0
 11
-20.57536170012281
 21
16.94847740128096
 31
0.0
  0
LINE
  5
14B
330
2
100
AcDbEntity
  8
GAIKEI
  6
Continuous
 62
     1
100
AcDbLine
 10
-20.57536170012281
 20
16.47456533702092
 30
0.0
 11
-20.57536170012281
 21
15.6484774012809
 31
0.0
  0
LINE
  5
14C
330
2
100
AcDbEntity
  8
GAIKEI
  6
Continuous
 62
     1
100
AcDbLine
 10
-20.63050091416278
 20
15.70361661532087
 30
0.0
 11
-20.63050091416278
 21
16.41942612298089
 31
0.0
  0
LINE
  5
14D
330
2
100
AcDbEntity
  8
GAIKEI
  6
Continuous
 62
     1
100
AcDbLine
 10
-21.34631042182281
 20
15.70361661532087
 30
0.0
 11
-21.34631042182281
 21
16.41942612298089
 31
0.0
  0
LINE
  5
14E
330
2
100
AcDbEntity
  8
GAIKEI
  6
Continuous
 62
     1
100
AcDbLine
 10
-21.40144963586278
 20
15.6484774012809
 30
0.0
 11
-21.40144963586278
 21
16.47456533702092
 31
0.0
  0
LINE
  5
14F
330
2
100
AcDbEntity
  8
GAIKEI
  6
Continuous
 62
     1
100
AcDbLine
 10
-21.40144963586278
 20
16.47456533702092
 30
0.0
 11
-20.57536170012281
 21
16.47456533702092
 31
0.0
  0
LINE
  5
150
330
2
100
AcDbEntity
  8
GAIKEI
  6
Continuous
 62
     1
100
AcDbLine
 10
-20.63050091416278
 20
16.41942612298089
 30
0.0
 11
-21.34631042182281
 21
16.41942612298089
 31
0.0
  0
LINE
  5
151
330
2
100
AcDbEntity
  8
GAIKEI
  6
Continuous
 62
     1
100
AcDbLine
 10
-21.34631042182281
 20
15.70361661532087
 30
0.0
 11
-20.63050091416278
 21
15.70361661532087
 31
0.0
  0
LINE
  5
152
330
2
100
AcDbEntity
  8
GAIKEI
  6
Continuous
 62
     1
100
AcDbLine
 10
-20.57536170012281
 20
15.6484774012809
 30
0.0
 11
-21.40144963586278
 21
15.6484774012809
 31
0.0
  0
LINE
  5
153
330
2
100
AcDbEntity
  8
GAIKEI
  6
Continuous
 62
     1
100
AcDbLine
 10
-19.2753617001228
 20
15.6484774012809
 30
0.0
 11
-20.10144963586276
 21
15.6484774012809
 31
0.0
  0
LINE
  5
154
330
2
100
AcDbEntity
  8
GAIKEI
  6
Continuous
 62
     1
100
AcDbLine
 10
-20.0463104218228
 20
15.70361661532087
 30
0.0
 11
-19.33050091416277
 21
15.70361661532087
 31
0.0
  0
LINE
  5
155
330
2
100
AcDbEntity
  8
GAIKEI
  6
Continuous
 62
     1
100
AcDbLine
 10
-19.33050091416277
 20
16.41942612298089
 30
0.0
 11
-20.0463104218228
 21
16.41942612298089
 31
0.0
  0
LINE
  5
156
330
2
100
AcDbEntity
  8
GAIKEI
  6
Continuous
 62
     1
100
AcDbLine
 10
-20.10144963586276
 20
16.47456533702092
 30
0.0
 11
-19.2753617001228
 21
16.47456533702092
 31
0.0
  0
LINE
  5
157
330
2
100
AcDbEntity
  8
GAIKEI
  6
Continuous
 62
     1
100
AcDbLine
 10
-20.10144963586276
 20
15.6484774012809
 30
0.0
 11
-20.10144963586276
 21
16.47456533702092
 31
0.0
  0
LINE
  5
158
330
2
100
AcDbEntity
  8
GAIKEI
  6
Continuous
 62
     1
100
AcDbLine
 10
-20.0463104218228
 20
15.70361661532087
 30
0.0
 11
-20.0463104218228
 21
16.41942612298089
 31
0.0
  0
LINE
  5
159
330
2
100
AcDbEntity
  8
GAIKEI
  6
Continuous
 62
     1
100
AcDbLine
 10
-19.33050091416277
 20
15.70361661532087
 30
0.0
 11
-19.33050091416277
 21
16.41942612298089
 31
0.0
  0
LINE
  5
15A
330
2
100
AcDbEntity
  8
GAIKEI
  6
Continuous
 62
     1
100
AcDbLine
 10
-19.2753617001228
 20
16.47456533702092
 30
0.0
 11
-19.2753617001228
 21
15.6484774012809
 31
0.0
  0
ARC
  5
15B
330
2
100
AcDbEntity
  8
GAIKEI
  6
Continuous
100
AcDbCircle
 10
-13.68923534065095
 20
18.36127449481483
 30
0.0
 40
0.1008301424378719
100
AcDbArc
 50
0.1748999721914313
 51
83.83424691178172
  0
ARC
  5
15C
330
2
100
AcDbEntity
  8
GAIKEI
  6
Continuous
100
AcDbCircle
 10
-13.68832136405837
 20
14.16143706521666
 30
0.0
 40
0.0999156988026342
100
AcDbArc
 50
269.986589139904
 51
0.0134108658296884
  0
ARC
  5
15D
330
2
100
AcDbEntity
  8
GAIKEI
  6
Continuous
100
AcDbCircle
 10
-34.48848997192721
 20
14.16143706521666
 30
0.0
 40
0.0999156988026342
100
AcDbArc
 50
179.9865891341703
 51
270.013410860096
  0
ARC
  5
15E
330
2
100
AcDbEntity
  8
GAIKEI
  6
Continuous
100
AcDbCircle
 10
-34.48757599533468
 20
18.36127449481483
 30
0.0
 40
0.1008301424378719
100
AcDbArc
 50
96.16575308821829
 51
179.8251000278086
  0
LINE
  5
15F
330
2
100
AcDbEntity
  8
GAIKEI
  6
Continuous
100
AcDbLine
 10
-34.58840566799285
 20
14.16146045186093
 30
0.0
 11
-34.58840566799285
 21
18.36158228645098
 31
0.0
  0
LINE
  5
160
330
2
100
AcDbEntity
  8
GAIKEI
  6
Continuous
 62
     1
100
AcDbLine
 10
-34.4394556362729
 20
14.21047140087097
 30
0.0
 11
-34.4394556362729
 21
18.31257133744094
 31
0.0
  0
LINE
  5
161
330
2
100
AcDbEntity
  8
GAIKEI
  6
Continuous
 62
     1
100
AcDbLine
 10
-21.66829917883274
 20
15.11371551671095
 30
0.0
 11
-32.83340566799279
 21
15.11371551671095
 31
0.0
  0
LINE
  5
162
330
2
100
AcDbEntity
  8
GAIKEI
  6
Continuous
 62
     1
100
AcDbLine
 10
-21.74321542046278
 20
15.17942397348093
 30
0.0
 11
-32.83359591552278
 21
15.17942397348093
 31
0.0
  0
LINE
  5
163
330
2
100
AcDbEntity
  8
GAIKEI
  6
Continuous
 62
     1
100
AcDbLine
 10
-21.74321542046278
 20
17.34361876482097
 30
0.0
 11
-32.83359591552278
 21
17.34361876482097
 31
0.0
  0
LINE
  5
164
330
2
100
AcDbEntity
  8
GAIKEI
  6
Continuous
 62
     1
100
AcDbLine
 10
-21.74340566799276
 20
17.40932722160096
 30
0.0
 11
-32.83340566799279
 21
17.40932722160096
 31
0.0
  0
LINE
  5
165
330
2
100
AcDbEntity
  8
GAIKEI
  6
Continuous
 62
     1
100
AcDbLine
 10
-32.86319248400275
 20
17.31305628381102
 30
0.0
 11
-32.86319248400275
 21
15.209986454501
 31
0.0
  0
LINE
  5
166
330
2
100
AcDbEntity
  8
GAIKEI
  6
Continuous
 62
     1
100
AcDbLine
 10
-32.93621128506277
 20
17.30652136915097
 30
0.0
 11
-32.93621128506277
 21
15.24138323585538
 31
0.0
  0
ARC
  5
167
330
2
100
AcDbEntity
  8
GAIKEI
  6
Continuous
 62
     1
100
AcDbCircle
 10
-32.83338247696804
 20
15.20924249849366
 30
0.0
 40
0.0298192888907573
100
AcDbArc
 50
178.5703896978119
 51
269.5898885167724
  0
ARC
  5
168
330
2
100
AcDbEntity
  8
GAIKEI
  6
Continuous
 62
     1
100
AcDbCircle
 10
-32.83190109288421
 20
15.22015373478365
 30
0.0
 40
0.1064486162807264
100
AcDbArc
 50
168.4961219141467
 51
269.1901381409303
  0
ARC
  5
169
330
2
100
AcDbEntity
  8
GAIKEI
 62
     1
100
AcDbCircle
 10
-32.83338247701545
 20
17.31380023985446
 30
0.0
 40
0.0298192888442639
100
AcDbArc
 50
90.41011139277456
 51
181.429610373696
  0
ARC
  5
16A
330
2
100
AcDbEntity
  8
GAIKEI
 62
     1
100
AcDbCircle
 10
-32.83340526617292
 20
17.30652120271173
 30
0.0
 40
0.1028060188900139
100
AcDbArc
 50
90.00022394197875
 51
179.9999072402
  0
LINE
  5
16B
330
2
100
AcDbEntity
  8
GAIKEI
 62
     1
100
AcDbLine
 10
-21.71361885198274
 20
17.31305628381102
 30
0.0
 11
-21.71361885198274
 21
15.209986454501
 31
0.0
  0
LINE
  5
16C
330
2
100
AcDbEntity
  8
GAIKEI
 62
     1
100
AcDbLine
 10
-21.64059981554277
 20
17.30652136915097
 30
0.0
 11
-21.64059981554277
 21
15.47553908065095
 31
0.0
  0
ARC
  5
16D
330
2
100
AcDbEntity
  8
GAIKEI
 62
     1
100
AcDbCircle
 10
-21.74342885898687
 20
15.20924249846399
 30
0.0
 40
0.029819288860888
100
AcDbArc
 50
270.4101114247777
 51
1.429610360618271
  0
ARC
  5
16E
330
2
100
AcDbEntity
  8
GAIKEI
 62
     1
100
AcDbCircle
 10
-21.74342885901928
 20
17.31380023980676
 30
0.0
 40
0.0298192888923037
100
AcDbArc
 50
358.570389720272
 51
89.58988851332039
  0
ARC
  5
16F
330
2
100
AcDbEntity
  8
GAIKEI
 62
     1
100
AcDbCircle
 10
-21.74340606981264
 20
17.30652120271173
 30
0.0
 40
0.1028060188900164
100
AcDbArc
 50
0.0000927598031986
 51
89.9997760580212
  0
CIRCLE
  5
170
330
2
100
AcDbEntity
  8
GAIKEI
 62
     1
100
AcDbCircle
 10
-22.58840566799279
 20
16.26152136915095
 30
0.0
 40
0.4311485298799984
  0
CIRCLE
  5
171
330
2
100
AcDbEntity
  8
GAIKEI
 62
     1
100
AcDbCircle
 10
-22.58840566799279
 20
16.26152136915095
 30
0.0
 40
0.5267449748400026
  0
CIRCLE
  5
172
330
2
100
AcDbEntity
  8
GAIKEI
 62
     1
100
AcDbCircle
 10
-22.58840566799279
 20
16.26152136915095
 30
0.0
 40
0.5882017902988014
  0
CIRCLE
  5
173
330
2
100
AcDbEntity
  8
GAIKEI
 62
     1
100
AcDbCircle
 10
-31.82840566799274
 20
16.06152136915097
 30
0.0
 40
0.4824785910299999
  0
CIRCLE
  5
174
330
2
100
AcDbEntity
  8
GAIKEI
 62
     1
100
AcDbCircle
 10
-31.82840566799274
 20
16.06152136915097
 30
0.0
 40
0.6861443934614256
  0
LINE
  5
175
330
2
100
AcDbEntity
  8
GAIKEI
 62
     1
100
AcDbLine
 10
-30.05180312761274
 20
16.97152136915093
 30
0.0
 11
-24.32500820837276
 21
16.97152136915093
 31
0.0
  0
LINE
  5
176
330
2
100
AcDbEntity
  8
GAIKEI
 62
     1
100
AcDbLine
 10
-30.10760121061276
 20
17.08377680938093
 30
0.0
 11
-24.26921012537275
 21
17.08377680938099
 31
0.0
  0
LINE
  5
177
330
2
100
AcDbEntity
  8
GAIKEI
 62
     1
100
AcDbLine
 10
-30.05180312761274
 20
15.55152136915097
 30
0.0
 11
-24.32500820837276
 21
15.55152136915097
 31
0.0
  0
LINE
  5
178
330
2
100
AcDbEntity
  8
GAIKEI
 62
     1
100
AcDbLine
 10
-30.10760121061276
 20
15.43926592892097
 30
0.0
 11
-24.26921012537275
 21
15.43926592892097
 31
0.0
  0
LINE
  5
179
330
2
100
AcDbEntity
  8
GAIKEI
 62
     1
100
AcDbLine
 10
-30.13840566799274
 20
16.88491882878094
 30
0.0
 11
-30.13840566799274
 21
15.63812390953097
 31
0.0
  0
ARC
  5
17A
330
2
100
AcDbEntity
  8
GAIKEI
 62
     1
100
AcDbCircle
 10
-24.85653148365884
 20
16.26152136915601
 30
0.0
 40
5.443606995659138
100
AcDbArc
 50
172.5371829805777
 51
187.4628170194221
  0
ARC
  5
17B
330
2
100
AcDbEntity
  8
GAIKEI
 62
     1
100
AcDbCircle
 10
-30.05562518506298
 20
15.63430185208074
 30
0.0
 40
0.0828686700582984
100
AcDbArc
 50
177.356474109766
 51
272.6435258902339
  0
ARC
  5
17C
330
2
100
AcDbEntity
  8
GAIKEI
 62
     1
100
AcDbCircle
 10
-30.11678076885181
 20
15.57825161186349
 30
0.0
 40
0.1392884932521219
100
AcDbArc
 50
189.8219879068391
 51
273.7787142291547
  0
ARC
  5
17D
330
2
100
AcDbEntity
  8
GAIKEI
 62
     1
100
AcDbCircle
 10
-30.05562518506361
 20
16.88874088622231
 30
0.0
 40
0.0828686700572784
100
AcDbArc
 50
87.3564741092964
 51
182.6435258840777
  0
ARC
  5
17E
330
2
100
AcDbEntity
  8
GAIKEI
 62
     1
100
AcDbCircle
 10
-30.11677834932766
 20
16.94478805173094
 30
0.0
 40
0.1392914018455418
100
AcDbArc
 50
86.22236219886245
 51
170.1769356602954
  0
LINE
  5
17F
330
2
100
AcDbEntity
  8
GAIKEI
 62
     1
100
AcDbLine
 10
-24.23840566799277
 20
16.88491882878094
 30
0.0
 11
-24.23840566799277
 21
15.63812390953097
 31
0.0
  0
ARC
  5
180
330
2
100
AcDbEntity
  8
GAIKEI
 62
     1
100
AcDbCircle
 10
-29.52027985232667
 20
16.26152136915601
 30
0.0
 40
5.443606995659138
100
AcDbArc
 50
352.5371829805779
 51
7.462817019422293
  0
ARC
  5
181
330
2
100
AcDbEntity
  8
GAIKEI
 62
     1
100
AcDbCircle
 10
-24.32118615092253
 20
15.63430185208074
 30
0.0
 40
0.0828686700582984
100
AcDbArc
 50
267.3564741097661
 51
2.643525890233987
  0
ARC
  5
182
330
2
100
AcDbEntity
  8
GAIKEI
 62
     1
100
AcDbCircle
 10
-24.2600305671337
 20
15.57825161186349
 30
0.0
 40
0.1392884932521219
100
AcDbArc
 50
266.2212857708453
 51
350.1780120931609
  0
ARC
  5
183
330
2
100
AcDbEntity
  8
GAIKEI
 62
     1
100
AcDbCircle
 10
-24.3211861509219
 20
16.88874088622231
 30
0.0
 40
0.0828686700572784
100
AcDbArc
 50
357.3564741159223
 51
92.64352589070361
  0
ARC
  5
184
330
2
100
AcDbEntity
  8
GAIKEI
 62
     1
100
AcDbCircle
 10
-24.26003298665785
 20
16.94478805173094
 30
0.0
 40
0.1392914018455418
100
AcDbArc
 50
9.823064339704624
 51
93.77763780113754
  0
LINE
  5
185
330
2
100
AcDbEntity
  8
GAIKEI
 62
     1
100
AcDbLine
 10
-32.12969611613278
 20
17.20150126295095
 30
0.0
 11
-31.54646507151279
 21
17.20150126295095
 31
0.0
  0
LINE
  5
186
330
2
100
AcDbEntity
  8
GAIKEI
 62
     1
100
AcDbLine
 10
-31.54646507151279
 20
17.20150126295095
 30
0.0
 11
-31.54646507151279
 21
16.92031022294105
 31
0.0
  0
LINE
  5
187
330
2
100
AcDbEntity
  8
GAIKEI
 62
     1
100
AcDbLine
 10
-31.54646507151279
 20
16.92031022294105
 30
0.0
 11
-32.12969611613278
 21
16.92031022294105
 31
0.0
  0
LINE
  5
188
330
2
100
AcDbEntity
  8
GAIKEI
 62
     1
100
AcDbLine
 10
-32.12969611613278
 20
16.92031022294105
 30
0.0
 11
-32.12969611613278
 21
17.20150126295095
 31
0.0
  0
ARC
  5
189
330
2
100
AcDbEntity
  8
GAIKEI
 62
     1
100
AcDbCircle
 10
-16.71853009353975
 20
17.4331158531661
 30
0.0
 40
0.0416035684607274
100
AcDbArc
 50
190.7350528403219
 51
268.8026270104538
  0
LINE
  5
18A
330
2
100
AcDbEntity
  8
GAIKEI
 62
     1
100
AcDbLine
 10
-16.7193994658337
 20
17.39152136915095
 30
0.0
 11
-16.65741217715367
 21
17.39152136915101
 31
0.0
  0
ARC
  5
18B
330
2
100
AcDbEntity
  8
GAIKEI
 62
     1
100
AcDbCircle
 10
-16.65776251008668
 20
17.4318778490437
 30
0.0
 40
0.0403580004768988
100
AcDbArc
 50
270.4973697990204
 51
359.4939030998555
  0
LINE
  5
18C
330
2
100
AcDbEntity
  8
GAIKEI
 62
     1
100
AcDbLine
 10
-16.61740608402368
 20
17.43152136915097
 30
0.0
 11
-16.61740608402368
 21
17.5381584269598
 31
0.0
  0
LINE
  5
18D
330
2
100
AcDbEntity
  8
GAIKEI
 62
     1
100
AcDbLine
 10
-16.75940555895369
 20
17.42536645087557
 30
0.0
 11
-16.75940555895369
 21
17.53815842696218
 31
0.0
  0
ARC
  5
18E
330
2
100
AcDbEntity
  8
GAIKEI
 62
     1
100
AcDbCircle
 10
-16.68840582149369
 20
17.24479567051145
 30
0.0
 40
0.301832187799535
100
AcDbArc
 50
76.39486757923885
 51
103.6051324188027
  0
ARC
  5
18F
330
2
100
AcDbEntity
  8
GAIKEI
  6
Continuous
 62
     1
100
AcDbCircle
 10
-14.88840566799274
 20
17.21152136915094
 30
0.0
 40
0.27341768832
100
AcDbArc
 50
105.0507785109322
 51
74.94922148690178
  0
ARC
  5
190
330
2
100
AcDbEntity
  8
GAIKEI
 62
     1
100
AcDbCircle
 10
-14.91852994003881
 20
17.4331158531661
 30
0.0
 40
0.0416035684607274
100
AcDbArc
 50
190.7350528403219
 51
268.8026270104538
  0
LINE
  5
191
330
2
100
AcDbEntity
  8
GAIKEI
 62
     1
100
AcDbLine
 10
-14.91939931233275
 20
17.39152136915095
 30
0.0
 11
-14.85741202365273
 21
17.39152136915101
 31
0.0
  0
ARC
  5
192
330
2
100
AcDbEntity
  8
GAIKEI
 62
     1
100
AcDbCircle
 10
-14.85776235658574
 20
17.4318778490437
 30
0.0
 40
0.0403580004768988
100
AcDbArc
 50
270.4973697990204
 51
359.4939030998555
  0
LINE
  5
193
330
2
100
AcDbEntity
  8
GAIKEI
 62
     1
100
AcDbLine
 10
-14.81740593052274
 20
17.43152136915097
 30
0.0
 11
-14.81740593052274
 21
17.5381584269598
 31
0.0
  0
LINE
  5
194
330
2
100
AcDbEntity
  8
GAIKEI
 62
     1
100
AcDbLine
 10
-14.95940540545274
 20
17.42536645087557
 30
0.0
 11
-14.95940540545274
 21
17.53815842696218
 31
0.0
  0
ARC
  5
195
330
2
100
AcDbEntity
  8
GAIKEI
 62
     1
100
AcDbCircle
 10
-14.88840566799274
 20
17.24479567051145
 30
0.0
 40
0.301832187799535
100
AcDbArc
 50
76.39486757923885
 51
103.6051324188027
  0
ARC
  5
196
330
2
100
AcDbEntity
  8
GAIKEI
  6
Continuous
 62
     1
100
AcDbCircle
 10
-16.68840582149369
 20
15.81152130902097
 30
0.0
 40
0.27341768832
100
AcDbArc
 50
105.0507785109322
 51
74.94922148690178
  0
ARC
  5
197
330
2
100
AcDbEntity
  8
GAIKEI
 62
     1
100
AcDbCircle
 10
-16.71853009353975
 20
16.03311579303613
 30
0.0
 40
0.0416035684607274
100
AcDbArc
 50
190.7350528403219
 51
268.8026270104538
  0
LINE
  5
198
330
2
100
AcDbEntity
  8
GAIKEI
 62
     1
100
AcDbLine
 10
-16.7193994658337
 20
15.99152130902098
 30
0.0
 11
-16.65741217715367
 21
15.99152130902104
 31
0.0
  0
ARC
  5
199
330
2
100
AcDbEntity
  8
GAIKEI
 62
     1
100
AcDbCircle
 10
-16.65776251008668
 20
16.03187778891373
 30
0.0
 40
0.0403580004768988
100
AcDbArc
 50
270.4973697990204
 51
359.4939030998555
  0
LINE
  5
19A
330
2
100
AcDbEntity
  8
GAIKEI
 62
     1
100
AcDbLine
 10
-16.61740608402368
 20
16.031521309021
 30
0.0
 11
-16.61740608402368
 21
16.13815836682983
 31
0.0
  0
LINE
  5
19B
330
2
100
AcDbEntity
  8
GAIKEI
 62
     1
100
AcDbLine
 10
-16.75940555895369
 20
16.0253663907456
 30
0.0
 11
-16.75940555895369
 21
16.13815836683221
 31
0.0
  0
ARC
  5
19C
330
2
100
AcDbEntity
  8
GAIKEI
 62
     1
100
AcDbCircle
 10
-16.68840582149369
 20
15.84479561038148
 30
0.0
 40
0.301832187799535
100
AcDbArc
 50
76.39486757923885
 51
103.6051324188027
  0
ARC
  5
19D
330
2
100
AcDbEntity
  8
GAIKEI
  6
Continuous
 62
     1
100
AcDbCircle
 10
-14.88840566799274
 20
15.81152130902097
 30
0.0
 40
0.27341768832
100
AcDbArc
 50
105.0507785109322
 51
74.94922148690178
  0
ARC
  5
19E
330
2
100
AcDbEntity
  8
GAIKEI
 62
     1
100
AcDbCircle
 10
-14.91852994003881
 20
16.03311579303613
 30
0.0
 40
0.0416035684607274
100
AcDbArc
 50
190.7350528403219
 51
268.8026270104538
  0
LINE
  5
19F
330
2
100
AcDbEntity
  8
GAIKEI
 62
     1
100
AcDbLine
 10
-14.91939931233275
 20
15.99152130902098
 30
0.0
 11
-14.85741202365273
 21
15.99152130902104
 31
0.0
  0
ARC
  5
1A0
330
2
100
AcDbEntity
  8
GAIKEI
 62
     1
100
AcDbCircle
 10
-14.85776235658574
 20
16.03187778891373
 30
0.0
 40
0.0403580004768988
100
AcDbArc
 50
270.4973697990204
 51
359.4939030998555
  0
LINE
  5
1A1
330
2
100
AcDbEntity
  8
GAIKEI
 62
     1
100
AcDbLine
 10
-14.81740593052274
 20
16.031521309021
 30
0.0
 11
-14.81740593052274
 21
16.13815836682983
 31
0.0
  0
LINE
  5
1A2
330
2
100
AcDbEntity
  8
GAIKEI
 62
     1
100
AcDbLine
 10
-14.95940540545274
 20
16.0253663907456
 30
0.0
 11
-14.95940540545274
 21
16.13815836683221
 31
0.0
  0
ARC
  5
1A3
330
2
100
AcDbEntity
  8
GAIKEI
 62
     1
100
AcDbCircle
 10
-14.88840566799274
 20
15.84479561038148
 30
0.0
 40
0.301832187799535
100
AcDbArc
 50
76.39486757923885
 51
103.6051324188027
  0
LINE
  5
1A4
330
2
100
AcDbEntity
  8
GAIKEI
  6
Continuous
 62
     1
100
AcDbLine
 10
8.274020399918526
 20
15.48284345241109
 30
0.0
 11
7.847252418208483
 21
15.48989868136101
 31
0.0
  0
LINE
  5
1A5
330
2
100
AcDbEntity
  8
GAIKEI
  6
Continuous
 62
     1
100
AcDbLine
 10
7.847252418208483
 20
15.48989868136101
 30
0.0
 11
7.79711080021849
 21
15.53810368083094
 31
0.0
  0
LINE
  5
1A6
330
2
100
AcDbEntity
  8
GAIKEI
  6
Continuous
 62
     1
100
AcDbLine
 10
7.79711080021849
 20
15.53813891017097
 30
0.0
 11
7.79711080021849
 21
15.78034759173096
 31
0.0
  0
LINE
  5
1A7
330
2
100
AcDbEntity
  8
GAIKEI
  6
Continuous
 62
     1
100
AcDbLine
 10
8.231083593738503
 20
15.50514727545106
 30
0.0
 11
7.86748336900348
 21
15.51184999196664
 31
0.0
  0
LINE
  5
1A8
330
2
100
AcDbEntity
  8
GAIKEI
  6
Continuous
 62
     1
100
AcDbLine
 10
7.847115185948666
 20
15.49198610878426
 30
0.0
 11
7.847103184968489
 21
15.49017767512095
 31
0.0
  0
LINE
  5
1A9
330
2
100
AcDbEntity
  8
GAIKEI
  6
Continuous
 62
     1
100
AcDbLine
 10
7.867413782703636
 20
15.61443081176782
 30
0.0
 11
8.1971105836285
 21
15.60931004024104
 31
0.0
  0
LINE
  5
1AA
330
2
100
AcDbEntity
  8
GAIKEI
  6
Continuous
 62
     1
100
AcDbLine
 10
8.201581183088478
 20
15.55017835942101
 30
0.0
 11
7.8669012335817
 21
15.55355798571702
 31
0.0
  0
LINE
  5
1AB
330
2
100
AcDbEntity
  8
GAIKEI
  6
Continuous
 62
     1
100
AcDbLine
 10
7.847103184968489
 20
15.57355696608198
 30
0.0
 11
7.847103184968489
 21
15.59443322368713
 31
0.0
  0
LINE
  5
1AC
330
2
100
AcDbEntity
  8
GAIKEI
  6
Continuous
 62
     1
100
AcDbLine
 10
8.197110840788468
 20
15.68633980420105
 30
0.0
 11
7.867083955361806
 21
15.68665711870824
 31
0.0
  0
LINE
  5
1AD
330
2
100
AcDbEntity
  8
GAIKEI
  6
Continuous
 62
     1
100
AcDbLine
 10
7.847103184968489
 20
15.70665710946378
 30
0.0
 11
7.847103184968489
 21
15.77950946443582
 31
0.0
  0
LINE
  5
1AE
330
2
100
AcDbEntity
  8
GAIKEI
  6
Continuous
 62
     1
100
AcDbLine
 10
8.197110800218524
 20
15.77164530681097
 30
0.0
 11
7.747563708608481
 21
15.7811782436911
 31
0.0
  0
LINE
  5
1AF
330
2
100
AcDbEntity
  8
GAIKEI
  6
Continuous
 62
     1
100
AcDbLine
 10
7.747103184968523
 20
15.78145394740107
 30
0.0
 11
7.747103184968523
 21
15.80465786311748
 31
0.0
  0
LINE
  5
1B0
330
2
100
AcDbEntity
  8
GAIKEI
  6
Continuous
 62
     1
100
AcDbLine
 10
7.767474839548015
 20
15.82465440964114
 30
0.0
 11
8.096011348987133
 21
15.81854825035401
 31
0.0
  0
LINE
  5
1B1
330
2
100
AcDbEntity
  8
GAIKEI
  6
Continuous
 62
     1
100
AcDbLine
 10
7.766895263766514
 20
15.86591698498114
 30
0.0
 11
8.096590924768634
 21
15.86248926383871
 31
0.0
  0
LINE
  5
1B2
330
2
100
AcDbEntity
  8
GAIKEI
  6
Continuous
 62
     1
100
AcDbLine
 10
7.747103184968523
 20
15.96545401228167
 30
0.0
 11
7.747103184968523
 21
15.88591590417133
 31
0.0
  0
LINE
  5
1B3
330
2
100
AcDbEntity
  8
GAIKEI
  6
Continuous
 62
     1
100
AcDbLine
 10
7.767410695829369
 20
15.9854516480687
 30
0.0
 11
8.096075492705722
 21
15.98039765090112
 31
0.0
  0
LINE
  5
1B4
330
2
100
AcDbEntity
  8
GAIKEI
  6
Continuous
 62
     1
100
AcDbLine
 10
7.767240623875693
 20
16.05698736969276
 30
0.0
 11
8.096411746087653
 21
16.05651430880891
 31
0.0
  0
LINE
  5
1B5
330
2
100
AcDbEntity
  8
GAIKEI
  6
Continuous
 62
     1
100
AcDbLine
 10
7.747563708608481
 20
15.7811782436911
 30
0.0
 11
7.697110800218524
 21
15.83037283927098
 31
0.0
  0
LINE
  5
1B6
330
2
100
AcDbEntity
  8
GAIKEI
  6
Continuous
 62
     1
100
AcDbLine
 10
7.697110800218524
 20
15.83037283927098
 30
0.0
 11
7.697110800218524
 21
16.69266989903093
 31
0.0
  0
LINE
  5
1B7
330
2
100
AcDbEntity
  8
GAIKEI
  6
Continuous
 62
     1
100
AcDbLine
 10
7.697110800218524
 20
16.69266989903093
 30
0.0
 11
7.747103184968466
 21
16.74158885568101
 31
0.0
  0
LINE
  5
1B8
330
2
100
AcDbEntity
  8
GAIKEI
  6
Continuous
 62
     1
100
AcDbLine
 10
7.74726936639837
 20
16.07698760284057
 30
0.0
 11
7.747270930230172
 21
16.20022045015338
 31
0.0
  0
LINE
  5
1B9
330
2
100
AcDbEntity
  8
GAIKEI
  6
Continuous
 62
     1
100
AcDbLine
 10
7.747269740322337
 20
16.32282265857731
 30
0.0
 11
7.74727055809933
 21
16.44605545552929
 31
0.0
  0
LINE
  5
1BA
330
2
100
AcDbEntity
  8
GAIKEI
  6
Continuous
 62
     1
100
AcDbLine
 10
7.747103184968466
 20
16.55758882037901
 30
0.0
 11
7.747103184968523
 21
16.63587079366783
 31
0.0
  0
LINE
  5
1BB
330
2
100
AcDbEntity
  8
GAIKEI
  6
Continuous
 62
     1
100
AcDbLine
 10
7.747407690327747
 20
16.71852427191964
 30
0.0
 11
7.747561943705136
 21
16.74159869583798
 31
0.0
  0
LINE
  5
1BC
330
2
100
AcDbEntity
  8
GAIKEI
  6
Continuous
 62
     1
100
AcDbLine
 10
7.767431853954064
 20
16.22021954893063
 30
0.0
 11
8.09622207984114
 21
16.21757395588764
 31
0.0
  0
LINE
  5
1BD
330
2
100
AcDbEntity
  8
GAIKEI
  6
Continuous
 62
     1
100
AcDbLine
 10
7.767430664455559
 20
16.30282317328152
 30
0.0
 11
8.096222079432948
 21
16.30546878260429
 31
0.0
  0
LINE
  5
1BE
330
2
100
AcDbEntity
  8
GAIKEI
  6
Continuous
 62
     1
100
AcDbLine
 10
7.767241811311066
 20
16.46605530214913
 30
0.0
 11
8.096411750354491
 21
16.466528431558
 31
0.0
  0
LINE
  5
1BF
330
2
100
AcDbEntity
  8
GAIKEI
  6
Continuous
 62
     1
100
AcDbLine
 10
7.76741068992203
 20
16.53759118450114
 30
0.0
 11
8.09607549861306
 21
16.54264508473994
 31
0.0
  0
LINE
  5
1C0
330
2
100
AcDbEntity
  8
GAIKEI
  6
Continuous
 62
     1
100
AcDbLine
 10
7.766816756249113
 20
16.65586874252739
 30
0.0
 11
8.096669432286034
 21
16.66059319103209
 31
0.0
  0
LINE
  5
1C1
330
2
100
AcDbEntity
  8
GAIKEI
  6
Continuous
 62
     1
100
AcDbLine
 10
7.767778895031369
 20
16.69839402758799
 30
0.0
 11
8.096011351980735
 21
16.70449448661855
 31
0.0
  0
LINE
  5
1C2
330
2
100
AcDbEntity
  8
GAIKEI
  6
Continuous
 62
     1
100
AcDbLine
 10
7.747103184968523
 20
16.74158885568096
 30
0.0
 11
8.236196482818513
 21
16.75207967462097
 31
0.0
  0
LINE
  5
1C3
330
2
100
AcDbEntity
  8
GAIKEI
  6
Continuous
 62
     1
100
AcDbLine
 10
8.116383003566625
 20
15.83854479687772
 30
0.0
 11
8.116383003566625
 21
15.84249034464858
 31
0.0
  0
LINE
  5
1C4
330
2
100
AcDbEntity
  8
GAIKEI
  6
Continuous
 62
     1
100
AcDbLine
 10
8.116383003566625
 20
16.00039528668816
 30
0.0
 11
8.116383003566625
 21
16.03651432946225
 31
0.0
  0
LINE
  5
1C5
330
2
100
AcDbEntity
  8
GAIKEI
  6
Continuous
 62
     1
100
AcDbLine
 10
8.116383003566625
 20
16.23757330846598
 30
0.0
 11
8.116383003566625
 21
16.28546943002919
 31
0.0
  0
LINE
  5
1C6
330
2
100
AcDbEntity
  8
GAIKEI
  6
Continuous
 62
     1
100
AcDbLine
 10
8.116383003566625
 20
16.48652841089853
 30
0.0
 11
8.116383003566625
 21
16.52264744886213
 31
0.0
  0
LINE
  5
1C7
330
2
100
AcDbEntity
  8
GAIKEI
  6
Continuous
 62
     1
100
AcDbLine
 10
8.116383003566625
 20
16.68059113989164
 30
0.0
 11
8.116383003566625
 21
16.68449794003925
 31
0.0
  0
LINE
  5
1C8
330
2
100
AcDbEntity
  8
GAIKEI
  6
Continuous
 62
     1
100
AcDbLine
 10
7.84460001300988
 20
16.88977830679568
 30
0.0
 11
8.262093291608493
 21
16.88285880659106
 31
0.0
  0
LINE
  5
1C9
330
2
100
AcDbEntity
  8
GAIKEI
  6
Continuous
 62
     1
100
AcDbLine
 10
7.84460001300988
 20
16.88977830679568
 30
0.0
 11
7.79711080021849
 21
16.93810368083098
 31
0.0
  0
LINE
  5
1CA
330
2
100
AcDbEntity
  8
GAIKEI
  6
Continuous
 62
     1
100
AcDbLine
 10
7.79711080021849
 20
16.93810368083098
 30
0.0
 11
7.79711080021849
 21
17.47501219560098
 31
0.0
  0
LINE
  5
1CB
330
2
100
AcDbEntity
  8
GAIKEI
  6
Continuous
 62
     1
100
AcDbLine
 10
7.79711080021849
 20
17.47501219560098
 30
0.0
 11
7.84688415503848
 21
17.52753316217104
 31
0.0
  0
LINE
  5
1CC
330
2
100
AcDbEntity
  8
GAIKEI
  6
Continuous
 62
     1
100
AcDbLine
 10
7.86689764715436
 20
16.95355515284513
 30
0.0
 11
8.273769232998461
 21
16.949373557201
 31
0.0
  0
LINE
  5
1CD
330
2
100
AcDbEntity
  8
GAIKEI
  6
Continuous
 62
     1
100
AcDbLine
 10
7.847103184968489
 20
16.97355409667244
 30
0.0
 11
7.847103184968489
 21
16.99443917637114
 31
0.0
  0
LINE
  5
1CE
330
2
100
AcDbEntity
  8
GAIKEI
  6
Continuous
 62
     1
100
AcDbLine
 10
7.867407878930578
 20
17.01443685527619
 30
0.0
 11
8.286761752088466
 21
17.00804738409107
 31
0.0
  0
LINE
  5
1CF
330
2
100
AcDbEntity
  8
GAIKEI
  6
Continuous
 62
     1
100
AcDbLine
 10
7.867225446917302
 20
17.08665018270466
 30
0.0
 11
8.292381339330404
 21
17.08609666272457
 31
0.0
  0
LINE
  5
1D0
330
2
100
AcDbEntity
  8
GAIKEI
  6
Continuous
 62
     1
100
AcDbLine
 10
7.847251485343292
 20
17.10665014914781
 30
0.0
 11
7.847251449489419
 21
17.14982976364996
 31
0.0
  0
LINE
  5
1D1
330
2
100
AcDbEntity
  8
GAIKEI
  6
Continuous
 62
     1
100
AcDbLine
 10
7.867412348766038
 20
17.1698291330319
 30
0.0
 11
8.306861354040506
 21
17.16629366726732
 31
0.0
  0
LINE
  5
1D2
330
2
100
AcDbEntity
  8
GAIKEI
  6
Continuous
 62
     1
100
AcDbLine
 10
8.297954936107203
 20
17.25667741462217
 30
0.0
 11
7.867264080164943
 21
17.25321249800441
 31
0.0
  0
LINE
  5
1D3
330
2
100
AcDbEntity
  8
GAIKEI
  6
Continuous
 62
     1
100
AcDbLine
 10
7.847103184968489
 20
17.31639245792684
 30
0.0
 11
7.847103184968489
 21
17.27321185081234
 31
0.0
  0
LINE
  5
1D4
330
2
100
AcDbEntity
  8
GAIKEI
  6
Continuous
 62
     1
100
AcDbLine
 10
7.867077150281318
 20
17.33639244098174
 30
0.0
 11
8.298141865990885
 21
17.33695357320886
 31
0.0
  0
LINE
  5
1D5
330
2
100
AcDbEntity
  8
GAIKEI
  6
Continuous
 62
     1
100
AcDbLine
 10
7.867407875720516
 20
17.40860595030869
 30
0.0
 11
8.297811140551687
 21
17.41516370607269
 31
0.0
  0
LINE
  5
1D6
330
2
100
AcDbEntity
  8
GAIKEI
  6
Continuous
 62
     1
100
AcDbLine
 10
7.847103184968489
 20
17.42860362926262
 30
0.0
 11
7.847103184968489
 21
17.526995651101
 31
0.0
  0
LINE
  5
1D7
330
2
100
AcDbEntity
  8
GAIKEI
  6
Continuous
 62
     1
100
AcDbLine
 10
7.847103184968489
 20
17.52699560725102
 30
0.0
 11
8.374078192388481
 21
17.53857833288111
 31
0.0
  0
LINE
  5
1D8
330
2
100
AcDbEntity
  8
GAIKEI
  6
Continuous
 62
     1
100
AcDbLine
 10
8.318115831303657
 20
17.3951660271187
 30
0.0
 11
8.318115831303657
 21
17.3569535562637
 31
0.0
  0
LINE
  5
1D9
330
2
100
AcDbEntity
  8
GAIKEI
  6
Continuous
 62
     1
100
AcDbLine
 10
8.318115831303657
 20
17.23667806181424
 30
0.0
 11
8.318115831303657
 21
17.22862615672051
 31
0.0
  0
ARC
  5
1DA
330
2
100
AcDbEntity
  8
GAIKEI
  6
Continuous
 62
     1
100
AcDbCircle
 10
7.86710318496847
 20
15.59443322368707
 30
0.0
 40
0.02
100
AcDbArc
 50
89.11016726215549
 51
179.9999999999893
  0
ARC
  5
1DB
330
2
100
AcDbEntity
  8
GAIKEI
  6
Continuous
 62
     1
100
AcDbCircle
 10
7.867103184968527
 20
15.57355696608198
 30
0.0
 40
0.02
100
AcDbArc
 50
180.0
 51
269.4214420615023
  0
ARC
  5
1DC
330
2
100
AcDbEntity
  8
GAIKEI
  6
Continuous
 62
     1
100
AcDbCircle
 10
7.867103184968527
 20
15.70665710946378
 30
0.0
 40
0.02
100
AcDbArc
 50
180.0
 51
269.9449112262107
  0
ARC
  5
1DD
330
2
100
AcDbEntity
  8
GAIKEI
  6
Continuous
 62
     1
100
AcDbCircle
 10
7.867114745582512
 20
15.49185338933586
 30
0.0
 40
0.02
100
AcDbArc
 50
88.94391188805998
 51
179.6197839966864
  0
ARC
  5
1DE
330
2
100
AcDbEntity
  8
GAIKEI
  6
Continuous
 62
     1
100
AcDbCircle
 10
7.767103184968505
 20
15.80465786311748
 30
0.0
 40
0.02
100
AcDbArc
 50
88.93522677104398
 51
180.0
  0
ARC
  5
1DF
330
2
100
AcDbEntity
  8
GAIKEI
  6
Continuous
 62
     1
100
AcDbCircle
 10
8.096383003566586
 20
15.84249034464858
 30
0.0
 40
0.02
100
AcDbArc
 50
0.0
 51
89.40433890268792
  0
ARC
  5
1E0
330
2
100
AcDbEntity
  8
GAIKEI
  6
Continuous
 62
     1
100
AcDbCircle
 10
8.096383003566586
 20
15.83854479687772
 30
0.0
 40
0.02
100
AcDbArc
 50
268.9352267710449
 51
0.0000000000267803
  0
ARC
  5
1E1
330
2
100
AcDbEntity
  8
GAIKEI
  6
Continuous
 62
     1
100
AcDbCircle
 10
8.096383003566643
 20
16.00039528668816
 30
0.0
 40
0.02
100
AcDbArc
 50
269.1190115615314
 51
0.0
  0
ARC
  5
1E2
330
2
100
AcDbEntity
  8
GAIKEI
  6
Continuous
 62
     1
100
AcDbCircle
 10
8.096383003566643
 20
16.03651432946225
 30
0.0
 40
0.02
100
AcDbArc
 50
0.0
 51
89.91765871424744
  0
ARC
  5
1E3
330
2
100
AcDbEntity
  8
GAIKEI
  6
Continuous
 62
     1
100
AcDbCircle
 10
8.096383003566643
 20
16.23757330846598
 30
0.0
 40
0.02
100
AcDbArc
 50
269.5389825108111
 51
0.0
  0
ARC
  5
1E4
330
2
100
AcDbEntity
  8
GAIKEI
  6
Continuous
 62
     1
100
AcDbCircle
 10
8.096383003566643
 20
16.28546943002919
 30
0.0
 40
0.02
100
AcDbArc
 50
0.0
 51
90.46101865872897
  0
ARC
  5
1E5
330
2
100
AcDbEntity
  8
GAIKEI
  6
Continuous
 62
     1
100
AcDbCircle
 10
7.767270930228562
 20
16.20022019635223
 30
0.0
 40
0.02
100
AcDbArc
 50
89.53898251081183
 51
179.9992729133197
  0
ARC
  5
1E6
330
2
100
AcDbEntity
  8
GAIKEI
  6
Continuous
 62
     1
100
AcDbCircle
 10
7.76726936639676
 20
16.07698734903943
 30
0.0
 40
0.02
100
AcDbArc
 50
179.9992729133188
 51
269.9176587142466
  0
ARC
  5
1E7
330
2
100
AcDbEntity
  8
GAIKEI
  6
Continuous
 62
     1
100
AcDbCircle
 10
7.767103184968505
 20
15.96545401228167
 30
0.0
 40
0.02
100
AcDbArc
 50
89.11901156153261
 51
180.0
  0
ARC
  5
1E8
330
2
100
AcDbEntity
  8
GAIKEI
  6
Continuous
 62
     1
100
AcDbCircle
 10
7.767103184968505
 20
15.88591590417133
 30
0.0
 40
0.02
100
AcDbArc
 50
180.0000000000066
 51
269.4043389026876
  0
ARC
  5
1E9
330
2
100
AcDbEntity
  8
GAIKEI
  6
Continuous
 62
     1
100
AcDbCircle
 10
7.767269740321864
 20
16.32282252585662
 30
0.0
 40
0.02
100
AcDbArc
 50
179.999619783261
 51
270.4610186587272
  0
ARC
  5
1EA
330
2
100
AcDbEntity
  8
GAIKEI
  6
Continuous
 62
     1
100
AcDbCircle
 10
7.767270558098914
 20
16.4460553228086
 30
0.0
 40
0.02
100
AcDbArc
 50
90.08235350925927
 51
179.9996197832619
  0
ARC
  5
1EB
330
2
100
AcDbEntity
  8
GAIKEI
  6
Continuous
 62
     1
100
AcDbCircle
 10
8.096383003566643
 20
16.48652841089853
 30
0.0
 40
0.02
100
AcDbArc
 50
270.0823535092605
 51
0.0000000000085239
  0
ARC
  5
1EC
330
2
100
AcDbEntity
  8
GAIKEI
  6
Continuous
 62
     1
100
AcDbCircle
 10
8.096383003566643
 20
16.52264744886207
 30
0.0
 40
0.02
100
AcDbArc
 50
0.0000000000230781
 51
90.88097151331018
  0
ARC
  5
1ED
330
2
100
AcDbEntity
  8
GAIKEI
  6
Continuous
 62
     1
100
AcDbCircle
 10
7.767103184968448
 20
16.55758882037901
 30
0.0
 40
0.02
100
AcDbArc
 50
179.999999999972
 51
270.880971513311
  0
ARC
  5
1EE
330
2
100
AcDbEntity
  8
GAIKEI
  6
Continuous
 62
     1
100
AcDbCircle
 10
7.767103184968505
 20
16.63587079366783
 30
0.0
 40
0.02
100
AcDbArc
 50
90.82058589011886
 51
179.9999999999668
  0
ARC
  5
1EF
330
2
100
AcDbEntity
  8
GAIKEI
  6
Continuous
 62
     1
100
AcDbCircle
 10
7.767407243445518
 20
16.7183905741673
 30
0.0
 40
0.02
100
AcDbArc
 50
179.6169813002306
 51
271.0647646513693
  0
ARC
  5
1F0
330
2
100
AcDbEntity
  8
GAIKEI
  6
Continuous
 62
     1
100
AcDbCircle
 10
8.096383003566643
 20
16.68449794003925
 30
0.0
 40
0.02
100
AcDbArc
 50
0.0
 51
91.06476465137021
  0
ARC
  5
1F1
330
2
100
AcDbEntity
  8
GAIKEI
  6
Continuous
 62
     1
100
AcDbCircle
 10
8.096383003566643
 20
16.68059113989164
 30
0.0
 40
0.02
100
AcDbArc
 50
270.8205858901198
 51
0.000000000027569
  0
ARC
  5
1F2
330
2
100
AcDbEntity
  8
GAIKEI
  6
Continuous
 62
     1
100
AcDbCircle
 10
7.86710318496847
 20
16.97355409667244
 30
0.0
 40
0.02
100
AcDbArc
 50
179.999999999989
 51
269.4111671707449
  0
ARC
  5
1F3
330
2
100
AcDbEntity
  8
GAIKEI
  6
Continuous
 62
     1
100
AcDbCircle
 10
7.86710318496847
 20
16.99443917637114
 30
0.0
 40
0.02
100
AcDbArc
 50
89.12708232742524
 51
180.0
  0
ARC
  5
1F4
330
2
100
AcDbEntity
  8
GAIKEI
  6
Continuous
 62
     1
100
AcDbCircle
 10
7.867251485343274
 20
17.10665016575467
 30
0.0
 40
0.02
100
AcDbArc
 50
180.0000475750703
 51
269.9254053833399
  0
ARC
  5
1F5
330
2
100
AcDbEntity
  8
GAIKEI
  6
Continuous
 62
     1
100
AcDbCircle
 10
7.867251449489401
 20
17.14982978025682
 30
0.0
 40
0.02
100
AcDbArc
 50
89.53905255392392
 51
180.0000475750669
  0
ARC
  5
1F6
330
2
100
AcDbEntity
  8
GAIKEI
  6
Continuous
 62
     1
100
AcDbCircle
 10
8.298115831303675
 20
17.23667806181424
 30
0.0
 40
0.02
100
AcDbArc
 50
0.0
 51
90.46093575701602
  0
ARC
  5
1F7
330
2
100
AcDbEntity
  8
GAIKEI
  6
Continuous
 62
     1
100
AcDbCircle
 10
7.86710318496847
 20
17.27321185081234
 30
0.0
 40
0.02
100
AcDbArc
 50
180.0
 51
270.4609357570165
  0
ARC
  5
1F8
330
2
100
AcDbEntity
  8
GAIKEI
  6
Continuous
 62
     1
100
AcDbCircle
 10
7.86710318496847
 20
17.31639245792684
 30
0.0
 40
0.02
100
AcDbArc
 50
90.07458390592445
 51
180.0
  0
ARC
  5
1F9
330
2
100
AcDbEntity
  8
GAIKEI
  6
Continuous
 62
     1
100
AcDbCircle
 10
8.298115831303675
 20
17.3569535562637
 30
0.0
 40
0.02
100
AcDbArc
 50
270.0745839059256
 51
0.0000000000082949
  0
ARC
  5
1FA
330
2
100
AcDbEntity
  8
GAIKEI
  6
Continuous
 62
     1
100
AcDbCircle
 10
8.298115831303675
 20
17.3951660271187
 30
0.0
 40
0.02
100
AcDbArc
 50
0.0000000000111319
 51
90.87290847526992
  0
ARC
  5
1FB
330
2
100
AcDbEntity
  8
GAIKEI
  6
Continuous
 62
     1
100
AcDbCircle
 10
7.86710318496847
 20
17.42860362926262
 30
0.0
 40
0.02
100
AcDbArc
 50
180.0
 51
270.8729084752702
  0
DIMENSION
  5
1FC
330
2
100
AcDbEntity
  8
SUNPO
100
AcDbDimension
  2
*D6
 10
-13.58840566799279
 20
26.47401831506852
 30
0.0
 11
-24.08840566799282
 21
28.22401831506852
 31
0.0
 70
    33
  1
210
 71
     5
 42
21.00000000000006
  3
STANDARD
100
AcDbAlignedDimension
 13
-34.58840566799285
 23
18.47401831506852
 33
0.0
 14
-13.58840566799279
 24
18.47401831506852
 34
0.0
1001
ACAD
1000
DSTYLE
1002
{
1070
    40
1040
1.0
1070
   140
1040
2.5
1070
   147
1040
0.5
1070
   172
1070
     1
1070
   279
1070
     0
1070
   288
1070
     0
1002
}
  0
DIMENSION
  5
20B
330
2
100
AcDbEntity
  8
SUNPO
100
AcDbDimension
  2
*D5
 10
-5.588405667992788
 20
18.46152136915099
 30
0.0
 11
-7.33840566799279
 21
25.04485470248433
 31
0.0
 70
    33
  1
44
 71
     5
 42
4.400000000000034
  3
STANDARD
100
AcDbAlignedDimension
 13
-13.58840566799279
 23
14.06152136915096
 33
0.0
 14
-13.58840566799279
 24
18.461521369151
 34
0.0
1001
ACAD
1000
DSTYLE
1002
{
1070
    40
1040
1.0
1070
   140
1040
2.5
1070
   147
1040
0.5
1070
   172
1070
     1
1070
   279
1070
     0
1070
   288
1070
     0
1002
}
  0
DIMENSION
  5
21A
330
2
100
AcDbEntity
  8
SUNPO
100
AcDbDimension
  2
*D4
 10
38.44711080021852
 20
26.47401831506852
 30
0.0
 11
23.44711080021852
 21
28.22401831506852
 31
0.0
 70
    33
  1
300
 71
     5
 42
30.0
  3
STANDARD
100
AcDbAlignedDimension
 13
8.447110800218524
 23
18.47401831506852
 33
0.0
 14
38.44711080021852
 24
18.47401831506852
 34
0.0
1001
ACAD
1000
DSTYLE
1002
{
1070
    40
1040
1.0
1070
   140
1040
2.5
1070
   147
1040
0.5
1070
   172
1070
     1
1070
   279
1070
     0
1070
   288
1070
     0
1002
}
  0
LINE
  5
227
330
2
100
AcDbEntity
  8
WAKU
 62
     1
100
AcDbLine
 10
65.66959867408923
 20
-51.4855938158552
 30
0.0
 11
-59.33040132591077
 21
-51.4855938158552
 31
0.0
  0
LINE
  5
229
330
2
100
AcDbEntity
  8
WAKU
 62
     4
100
AcDbLine
 10
65.66959867408923
 20
-56.48559381585497
 30
0.0
 11
65.66959867408923
 21
-16.4855938158552
 31
0.0
  0
LINE
  5
22A
330
2
100
AcDbEntity
  8
WAKU
 62
     4
100
AcDbLine
 10
-19.12482009539235
 20
-56.48559381585497
 30
0.0
 11
-19.12482009539235
 21
-16.4855938158552
 31
0.0
  0
LINE
  5
22B
330
2
100
AcDbEntity
  8
WAKU
 62
     4
100
AcDbLine
 10
-59.33040132591077
 20
-16.4855938158552
 30
0.0
 11
-59.33040132591077
 21
-56.48559381585497
 31
0.0
  0
LINE
  5
22C
330
2
100
AcDbEntity
  8
WAKU
 62
     1
100
AcDbLine
 10
65.66959867408923
 20
-46.4855938158552
 30
0.0
 11
-59.33040132591077
 21
-46.4855938158552
 31
0.0
  0
LINE
  5
22D
330
2
100
AcDbEntity
  8
WAKU
 62
     4
100
AcDbLine
 10
-59.33040132591077
 20
-56.48559381585497
 30
0.0
 11
65.66959867408923
 21
-56.48559381585497
 31
0.0
  0
LINE
  5
22E
330
2
100
AcDbEntity
  8
WAKU
 62
     1
100
AcDbLine
 10
65.66959867408923
 20
-41.4855938158552
 30
0.0
 11
-59.33040132591077
 21
-41.4855938158552
 31
0.0
  0
LINE
  5
22F
330
2
100
AcDbEntity
  8
WAKU
 62
     1
100
AcDbLine
 10
65.66959867408923
 20
-36.4855938158552
 30
0.0
 11
-59.33040132591077
 21
-36.4855938158552
 31
0.0
  0
LINE
  5
230
330
2
100
AcDbEntity
  8
WAKU
 62
     1
100
AcDbLine
 10
65.66959867408923
 20
-31.4855938158552
 30
0.0
 11
-59.33040132591077
 21
-31.4855938158552
 31
0.0
  0
LINE
  5
231
330
2
100
AcDbEntity
  8
WAKU
 62
     1
100
AcDbLine
 10
65.66959867408923
 20
-26.4855938158552
 30
0.0
 11
-59.33040132591077
 21
-26.4855938158552
 31
0.0
  0
LINE
  5
232
330
2
100
AcDbEntity
  8
WAKU
 62
     1
100
AcDbLine
 10
65.66959867408923
 20
-21.4855938158552
 30
0.0
 11
-59.33040132591077
 21
-21.4855938158552
 31
0.0
  0
LINE
  5
233
330
2
100
AcDbEntity
  8
WAKU
 62
     4
100
AcDbLine
 10
65.66959867408923
 20
-16.4855938158552
 30
0.0
 11
-59.33040132591077
 21
-16.4855938158552
 31
0.0
  0
TEXT
  5
234
330
2
100
AcDbEntity
  8
MOJI1
100
AcDbText
 10
-16.83030132591079
 20
-30.4855938158552
 30
0.0
 40
3.0
  1
接点入力：１２、ＲＳ－２３２Ｃ×１
100
AcDbText
  0
TEXT
  5
235
330
2
100
AcDbEntity
  8
MOJI1
100
AcDbText
 10
-56.83055846876789
 20
-50.48559381585519
 30
0.0
 40
3.0
  1
蓄積メディア
100
AcDbText
  0
TEXT
  5
236
330
2
100
AcDbEntity
  8
MOJI1
100
AcDbText
 10
-56.83052989733937
 20
-30.4855938158552
 30
0.0
 40
3.0
  1
制御入力
100
AcDbText
  0
TEXT
  5
237
330
2
100
AcDbEntity
  8
MOJI1
100
AcDbText
 10
-56.83055846876789
 20
-40.48559381585519
 30
0.0
 40
3.0
  1
内蔵音源
100
AcDbText
  0
TEXT
  5
238
330
2
100
AcDbEntity
  8
MOJI1
100
AcDbText
 10
-56.8305727544822
 20
-25.4855938158552
 30
0.0
 40
3.0
  1
入力／出力
100
AcDbText
  0
TEXT
  5
239
330
2
100
AcDbEntity
  8
MOJI1
100
AcDbText
 10
-16.83030132591079
 20
-35.4855938158552
 30
0.0
 40
3.0
  1
接点１
100
AcDbText
  0
TEXT
  5
23A
330
2
100
AcDbEntity
  8
MOJI1
100
AcDbText
 10
-16.83030132591079
 20
-50.48559381585519
 30
0.0
 40
3.0
  1
ＳＤメモリーカード収納可能
100
AcDbText
  0
TEXT
  5
23B
330
2
100
AcDbEntity
  8
MOJI1
100
AcDbText
 10
-16.83030132591079
 20
-25.4855938158552
 30
0.0
 40
3.0
  1
音声入力×２／音声出力×２（出力、モニタ用）
100
AcDbText
  0
TEXT
  5
23C
330
2
100
AcDbEntity
  8
MOJI1
100
AcDbText
 10
-56.83040132591077
 20
-20.4855938158552
 30
0.0
 40
3.0
  1
電　源
100
AcDbText
  0
TEXT
  5
23D
330
2
100
AcDbEntity
  8
MOJI1
100
AcDbText
 10
-16.83030132591079
 20
-20.4855938158552
 30
0.0
 40
3.0
  1
ＡＣ１００Ｖ　５０／６０Ｈｚ（ＡＣアダプタ使用）
 41
0.95
100
AcDbText
  0
TEXT
  5
23E
330
2
100
AcDbEntity
  8
MOJI1
100
AcDbText
 10
-56.83052989733937
 20
-35.4855938158552
 30
0.0
 40
3.0
  1
動作中出力
100
AcDbText
  0
TEXT
  5
23F
330
2
100
AcDbEntity
  8
MOJI1
100
AcDbText
 10
-16.83030132591079
 20
-55.48559381585519
 30
0.0
 40
3.0
  1
高音質（３．３Ｈ）、標準（１３Ｈ）、エコノミー（１９Ｈ）
 41
0.8
100
AcDbText
  0
TEXT
  5
240
330
2
100
AcDbEntity
  8
MOJI1
100
AcDbText
 10
-56.83055846876789
 20
-55.48559381585519
 30
0.0
 40
3.0
  1
蓄積時間（１ＧＢ時）
100
AcDbText
  0
TEXT
  5
241
330
2
100
AcDbEntity
  8
MOJI1
100
AcDbText
 10
-16.83030132591079
 20
-40.48559381585522
 30
0.0
 40
3.0
  1
８：ウェストミンスターの鐘、ラジオ体操第一（ピアノ伴奏のみ）
 41
0.7700000000000001
100
AcDbText
  0
TEXT
  5
242
330
2
100
AcDbEntity
  8
MOJI1
100
AcDbText
 10
-16.83030132591079
 20
-45.48559381585522
 30
0.0
 40
3.0
  1
蛍の光、コールサイン（上り４音、下り４音）他
100
AcDbText
  0
ENDSEC
  0
SECTION
  2
OBJECTS
  0
DICTIONARY
  5
A
330
0
100
AcDbDictionary
281
     1
  3
ACAD_COLOR
350
32
  3
ACAD_GROUP
350
2E
  3
ACAD_LAYOUT
350
E
  3
ACAD_MATERIAL
350
31
  3
ACAD_MLINESTYLE
350
2F
  3
ACAD_PLOTSETTINGS
350
30
  3
ACAD_PLOTSTYLENAME
350
9
  3
ACDBHEADERROUNDTRIPXREC
350
283
  3
AcDbVariableDictionary
350
27E
  0
DICTIONARY
  5
16
330
15
100
AcDbDictionary
280
     1
281
     1
  3
ACAD_LAYERFILTERS
360
17
  3
ACAD_LAYERSTATES
360
18
  0
DICTIONARY
  5
3
330
2
100
AcDbDictionary
280
     1
281
     1
  3
ACAD_LAYOUTSELFREF
360
4
  3
ACAD_SORTENTS
360
5
  0
DICTIONARY
  5
10
330
F
100
AcDbDictionary
280
     1
281
     1
  3
ACAD_LAYOUTSELFREF
360
11
  0
DICTIONARY
  5
32
102
{ACAD_REACTORS
330
A
102
}
330
A
100
AcDbDictionary
281
     1
  0
DICTIONARY
  5
2E
102
{ACAD_REACTORS
330
A
102
}
330
A
100
AcDbDictionary
281
     1
  0
DICTIONARY
  5
E
102
{ACAD_REACTORS
330
A
102
}
330
A
100
AcDbDictionary
281
     1
  3
Model
350
D
  3
ﾚｲｱｳﾄ1
350
14
  0
DICTIONARY
  5
31
102
{ACAD_REACTORS
330
A
102
}
330
A
100
AcDbDictionary
281
     1
  0
DICTIONARY
  5
2F
102
{ACAD_REACTORS
330
A
102
}
330
A
100
AcDbDictionary
281
     1
  3
STANDARD
350
34
  0
DICTIONARY
  5
30
102
{ACAD_REACTORS
330
A
102
}
330
A
100
AcDbDictionary
281
     1
  0
ACDBDICTIONARYWDFLT
  5
9
102
{ACAD_REACTORS
330
A
102
}
330
A
100
AcDbDictionary
281
     1
  3
Normal
350
8
100
AcDbDictionaryWithDefault
340
8
  0
DICTIONARY
  5
283
102
{ACAD_REACTORS
330
A
102
}
330
A
100
AcDbDictionary
281
     1
  3
COLORDICT
350
285
  3
MATERIALDICT
350
284
  0
DICTIONARY
  5
27E
102
{ACAD_REACTORS
330
A
102
}
330
A
100
AcDbDictionary
281
     1
  3
DIMASSOC
350
280
  3
HIDETEXT
350
27F
  3
PROJECTNAME
350
281
  0
DICTIONARY
  5
17
102
{ACAD_REACTORS
330
16
102
}
330
16
100
AcDbDictionary
280
     1
281
     1
  0
DICTIONARY
  5
18
102
{ACAD_REACTORS
330
16
102
}
330
16
100
AcDbDictionary
281
     1
  0
XRECORD
  5
4
102
{ACAD_REACTORS
330
3
102
}
330
3
100
AcDbXrecord
280
     1
340
2
  0
SORTENTSTABLE
  5
5
102
{ACAD_REACTORS
330
3
102
}
330
3
100
AcDbSortentsTable
330
2
  0
XRECORD
  5
11
102
{ACAD_REACTORS
330
10
102
}
330
10
100
AcDbXrecord
280
     1
340
F
  0
LAYOUT
  5
D
102
{ACAD_XDICTIONARY
360
286
102
}
102
{ACAD_REACTORS
330
E
102
}
330
E
100
AcDbPlotSettings
  1

  2
8FPAM09-A4.pc3
  4
A4
  6

 40
4.349750041961669
 41
4.222751140594482
 42
4.3497314453125
 43
4.180419921875
 44
297.0106506347656
 45
210.0156707763672
 46
0.0
 47
6.07
 48
0.0
 49
0.0
140
0.0
141
0.0
142
1.0
143
1.367645693696456
 70
 11956
 72
     1
 73
     1
 74
     1
  7
tmsacad.ctb
 75
     0
147
0.7311835255351932
148
0.5367753154982893
149
0.0333900090327006
100
AcDbLayout
  1
Model
 70
     1
 71
     0
 10
0.0
 20
0.0
 11
12.0
 21
9.0
 12
0.0
 22
0.0
 32
0.0
 14
0.0
 24
0.0
 34
0.0
 15
0.0
 25
0.0
 35
0.0
146
0.0
 13
0.0
 23
0.0
 33
0.0
 16
1.0
 26
0.0
 36
0.0
 17
0.0
 27
1.0
 37
0.0
 76
     0
330
2
  0
LAYOUT
  5
14
102
{ACAD_XDICTIONARY
360
288
102
}
102
{ACAD_REACTORS
330
E
102
}
330
E
100
AcDbPlotSettings
  1

  2
C:\Program Files\ACAD2000\plotters\DWF ePlot.pc3
  4

  6

 40
0.0
 41
0.0
 42
0.0
 43
0.0
 44
0.0
 45
0.0
 46
0.0
 47
0.0
 48
0.0
 49
0.0
140
0.0
141
0.0
142
1.0
143
1.0
 70
   688
 72
     0
 73
     0
 74
     5
  7
tmsacad.ctb
 75
    16
147
1.0
148
0.0
149
0.0
100
AcDbLayout
  1
ﾚｲｱｳﾄ1
 70
     1
 71
     1
 10
0.0
 20
0.0
 11
12.0
 21
9.0
 12
0.0
 22
0.0
 32
0.0
 14
1.000000000000000E+20
 24
1.000000000000000E+20
 34
1.000000000000000E+20
 15
-1.000000000000000E+20
 25
-1.000000000000000E+20
 35
-1.000000000000000E+20
146
0.0
 13
0.0
 23
0.0
 33
0.0
 16
1.0
 26
0.0
 36
0.0
 17
0.0
 27
1.0
 37
0.0
 76
     0
330
F
  0
MLINESTYLE
  5
34
102
{ACAD_REACTORS
330
2F
102
}
330
2F
100
AcDbMlineStyle
  2
STANDARD
 70
     0
  3

 62
   256
 51
90.0
 52
90.0
 71
     2
 49
0.5
 62
   256
  6
BYLAYER
 49
-0.5
 62
   256
  6
BYLAYER
  0
ACDBPLACEHOLDER
  5
8
102
{ACAD_REACTORS
330
9
102
}
330
9
  0
XRECORD
  5
285
102
{ACAD_REACTORS
330
283
102
}
330
283
100
AcDbXrecord
280
     1
340
32
  0
XRECORD
  5
284
102
{ACAD_REACTORS
330
283
102
}
330
283
100
AcDbXrecord
280
     1
340
31
  0
DICTIONARYVAR
  5
280
102
{ACAD_REACTORS
330
27E
102
}
330
27E
100
DictionaryVariables
280
     0
  1
1
  0
DICTIONARYVAR
  5
27F
102
{ACAD_REACTORS
330
27E
102
}
330
27E
100
DictionaryVariables
280
     0
  1
1
  0
DICTIONARYVAR
  5
281
102
{ACAD_REACTORS
330
27E
102
}
330
27E
100
DictionaryVariables
280
     0
  1

  0
DICTIONARY
  5
286
330
D
100
AcDbDictionary
280
     1
281
     1
  3
ACAD_XREC_ROUNDTRIP
360
287
  0
DICTIONARY
  5
288
330
14
100
AcDbDictionary
280
     1
281
     1
  3
ACAD_XREC_ROUNDTRIP
360
289
  0
XRECORD
  5
287
102
{ACAD_REACTORS
330
286
102
}
330
286
100
AcDbXrecord
280
     1
102
SHADEPLOT
 70
     0
102
SHADEPLOTRESLEVEL
 70
     2
102
SHADEPLOTCUSTOMDPI
 70
   300
  0
XRECORD
  5
289
102
{ACAD_REACTORS
330
288
102
}
330
288
100
AcDbXrecord
280
     1
102
SHADEPLOT
 70
     0
102
SHADEPLOTRESLEVEL
 70
     2
102
SHADEPLOTCUSTOMDPI
 70
   300
  0
ENDSEC
  0
EOF
